  0
SECTION
  2
HEADER
  9
$ACADVER
  1
AC1015
  9
$ACADMAINTVER
 70
    20
  9
$DWGCODEPAGE
  3
ANSI_1252
  9
$INSBASE
 10
0.0
 20
0.0
 30
0.0
  9
$EXTMIN
 10
0.0
 20
0.0
 30
0.0
  9
$EXTMAX
 10
330.0000000000001
 20
240.0000000000001
 30
0.0
  9
$LIMMIN
 10
0.0
 20
0.0
  9
$LIMMAX
 10
0.0
 20
0.0
  9
$ORTHOMODE
 70
     1
  9
$REGENMODE
 70
     1
  9
$FILLMODE
 70
     1
  9
$QTEXTMODE
 70
     0
  9
$MIRRTEXT
 70
     1
  9
$LTSCALE
 40
1.0
  9
$ATTMODE
 70
     1
  9
$TEXTSIZE
 40
2.5
  9
$TRACEWID
 40
1.0
  9
$TEXTSTYLE
  7
Standard
  9
$CLAYER
  8
0
  9
$CELTYPE
  6
ByLayer
  9
$CECOLOR
 62
     6
  9
$CELTSCALE
 40
1.0
  9
$DISPSILH
 70
     0
  9
$DIMSCALE
 40
1.0
  9
$DIMASZ
 40
0.6
  9
$DIMEXO
 40
0.1
  9
$DIMDLI
 40
3.75
  9
$DIMRND
 40
0.0
  9
$DIMDLE
 40
0.0
  9
$DIMEXE
 40
0.1
  9
$DIMTP
 40
0.0
  9
$DIMTM
 40
0.0
  9
$DIMTXT
 40
0.35
  9
$DIMCEN
 40
2.5
  9
$DIMTSZ
 40
0.0
  9
$DIMTOL
 70
     0
  9
$DIMLIM
 70
     0
  9
$DIMTIH
 70
     1
  9
$DIMTOH
 70
     1
  9
$DIMSE1
 70
     0
  9
$DIMSE2
 70
     0
  9
$DIMTAD
 70
     1
  9
$DIMZIN
 70
     0
  9
$DIMBLK
  1

  9
$DIMASO
 70
     1
  9
$DIMSHO
 70
     1
  9
$DIMPOST
  1

  9
$DIMAPOST
  1

  9
$DIMALT
 70
     0
  9
$DIMALTD
 70
     3
  9
$DIMALTF
 40
0.3937007874
  9
$DIMLFAC
 40
1.0
  9
$DIMTOFL
 70
     1
  9
$DIMTVP
 40
0.0
  9
$DIMTIX
 70
     0
  9
$DIMSOXD
 70
     0
  9
$DIMSAH
 70
     0
  9
$DIMBLK1
  1

  9
$DIMBLK2
  1

  9
$DIMSTYLE
  2
ISO-25
  9
$DIMCLRD
 70
     0
  9
$DIMCLRE
 70
     0
  9
$DIMCLRT
 70
     0
  9
$DIMTFAC
 40
1.0
  9
$DIMGAP
 40
0.1524
  9
$DIMJUST
 70
     0
  9
$DIMSD1
 70
     0
  9
$DIMSD2
 70
     0
  9
$DIMTOLJ
 70
     0
  9
$DIMTZIN
 70
     0
  9
$DIMALTZ
 70
     0
  9
$DIMALTTZ
 70
     0
  9
$DIMUPT
 70
     0
  9
$DIMDEC
 70
     2
  9
$DIMTDEC
 70
     2
  9
$DIMALTU
 70
     2
  9
$DIMALTTD
 70
     3
  9
$DIMTXSTY
  7
Standard
  9
$DIMAUNIT
 70
     0
  9
$DIMADEC
 70
     0
  9
$DIMALTRND
 40
0.0
  9
$DIMAZIN
 70
     0
  9
$DIMDSEP
 70
    44
  9
$DIMATFIT
 70
     3
  9
$DIMFRAC
 70
     0
  9
$DIMLDRBLK
  1

  9
$DIMLUNIT
 70
     2
  9
$DIMLWD
 70
    -2
  9
$DIMLWE
 70
    -2
  9
$DIMTMOVE
 70
     0
  9
$LUNITS
 70
     2
  9
$LUPREC
 70
     2
  9
$SKETCHINC
 40
1.0
  9
$FILLETRAD
 40
10.0
  9
$AUNITS
 70
     0
  9
$AUPREC
 70
     0
  9
$MENU
  1
.
  9
$ELEVATION
 40
0.0
  9
$PELEVATION
 40
0.0
  9
$THICKNESS
 40
0.0
  9
$LIMCHECK
 70
     0
  9
$CHAMFERA
 40
10.0
  9
$CHAMFERB
 40
10.0
  9
$CHAMFERC
 40
20.0
  9
$CHAMFERD
 40
0.0
  9
$SKPOLY
 70
     0
  9
$TDCREATE
 40
2454265.629306609
  9
$TDUCREATE
 40
2454265.587639942
  9
$TDUPDATE
 40
2454434.472429896
  9
$TDUUPDATE
 40
2454434.430763229
  9
$TDINDWG
 40
0.1725540278
  9
$TDUSRTIMER
 40
0.1725536574
  9
$USRTIMER
 70
     1
  9
$ANGBASE
 50
0.0
  9
$ANGDIR
 70
     0
  9
$PDMODE
 70
     0
  9
$PDSIZE
 40
-1.0
  9
$PLINEWID
 40
0.0
  9
$SPLFRAME
 70
     0
  9
$SPLINETYPE
 70
     6
  9
$SPLINESEGS
 70
     8
  9
$HANDSEED
  5
682
  9
$SURFTAB1
 70
     6
  9
$SURFTAB2
 70
     6
  9
$SURFTYPE
 70
     6
  9
$SURFU
 70
     6
  9
$SURFV
 70
     6
  9
$UCSBASE
  2

  9
$UCSNAME
  2

  9
$UCSORG
 10
0.0
 20
0.0
 30
0.0
  9
$UCSXDIR
 10
1.0
 20
0.0
 30
0.0
  9
$UCSYDIR
 10
0.0
 20
1.0
 30
0.0
  9
$UCSORTHOREF
  2

  9
$UCSORTHOVIEW
 70
     0
  9
$UCSORGTOP
 10
0.0
 20
0.0
 30
0.0
  9
$UCSORGBOTTOM
 10
0.0
 20
0.0
 30
0.0
  9
$UCSORGLEFT
 10
0.0
 20
0.0
 30
0.0
  9
$UCSORGRIGHT
 10
0.0
 20
0.0
 30
0.0
  9
$UCSORGFRONT
 10
0.0
 20
0.0
 30
0.0
  9
$UCSORGBACK
 10
0.0
 20
0.0
 30
0.0
  9
$PUCSBASE
  2

  9
$PUCSNAME
  2

  9
$PUCSORG
 10
0.0
 20
0.0
 30
0.0
  9
$PUCSXDIR
 10
1.0
 20
0.0
 30
0.0
  9
$PUCSYDIR
 10
0.0
 20
1.0
 30
0.0
  9
$PUCSORTHOREF
  2

  9
$PUCSORTHOVIEW
 70
     0
  9
$PUCSORGTOP
 10
0.0
 20
0.0
 30
0.0
  9
$PUCSORGBOTTOM
 10
0.0
 20
0.0
 30
0.0
  9
$PUCSORGLEFT
 10
0.0
 20
0.0
 30
0.0
  9
$PUCSORGRIGHT
 10
0.0
 20
0.0
 30
0.0
  9
$PUCSORGFRONT
 10
0.0
 20
0.0
 30
0.0
  9
$PUCSORGBACK
 10
0.0
 20
0.0
 30
0.0
  9
$USERI1
 70
     0
  9
$USERI2
 70
     0
  9
$USERI3
 70
     0
  9
$USERI4
 70
     0
  9
$USERI5
 70
     0
  9
$USERR1
 40
0.0
  9
$USERR2
 40
0.0
  9
$USERR3
 40
0.0
  9
$USERR4
 40
0.0
  9
$USERR5
 40
0.0
  9
$WORLDVIEW
 70
     1
  9
$SHADEDGE
 70
     3
  9
$SHADEDIF
 70
    70
  9
$TILEMODE
 70
     1
  9
$MAXACTVP
 70
    64
  9
$PINSBASE
 10
0.0
 20
0.0
 30
0.0
  9
$PLIMCHECK
 70
     0
  9
$PEXTMIN
 10
1.000000000000000E+20
 20
1.000000000000000E+20
 30
1.000000000000000E+20
  9
$PEXTMAX
 10
-1.000000000000000E+20
 20
-1.000000000000000E+20
 30
-1.000000000000000E+20
  9
$PLIMMIN
 10
0.0
 20
0.0
  9
$PLIMMAX
 10
420.0
 20
297.0
  9
$UNITMODE
 70
     0
  9
$VISRETAIN
 70
     1
  9
$PLINEGEN
 70
     0
  9
$PSLTSCALE
 70
     1
  9
$TREEDEPTH
 70
  3020
  9
$CMLSTYLE
  2
Standard
  9
$CMLJUST
 70
     0
  9
$CMLSCALE
 40
20.0
  9
$PROXYGRAPHICS
 70
     1
  9
$MEASUREMENT
 70
     1
  9
$CELWEIGHT
370
    -1
  9
$ENDCAPS
280
     0
  9
$JOINSTYLE
280
     0
  9
$LWDISPLAY
290
     1
  9
$INSUNITS
 70
     4
  9
$HYPERLINKBASE
  1

  9
$STYLESHEET
  1

  9
$XEDIT
290
     1
  9
$CEPSNTYPE
380
     0
  9
$PSTYLEMODE
290
     1
  9
$FINGERPRINTGUID
  2
{126C4B90-919E-417F-B3E1-DDCEC7E69E27}
  9
$VERSIONGUID
  2
{2E63E45A-36FF-471B-8415-4B15EBFFBC47}
  9
$EXTNAMES
290
     1
  9
$PSVPSCALE
 40
0.0
  9
$OLESTARTUP
290
     0
  0
ENDSEC
  0
SECTION
  2
CLASSES
  0
CLASS
  1
ACDBDICTIONARYWDFLT
  2
AcDbDictionaryWithDefault
  3
ObjectDBX Classes
 90
        0
280
     0
281
     0
  0
CLASS
  1
ACDBPLACEHOLDER
  2
AcDbPlaceHolder
  3
ObjectDBX Classes
 90
        0
280
     0
281
     0
  0
CLASS
  1
LAYOUT
  2
AcDbLayout
  3
ObjectDBX Classes
 90
        0
280
     0
281
     0
  0
CLASS
  1
MATERIAL
  2
AcDbMaterial
  3
ObjectDBX Classes
 90
     1153
280
     0
281
     0
  0
CLASS
  1
VISUALSTYLE
  2
AcDbVisualStyle
  3
ObjectDBX Classes
 90
     4095
280
     0
281
     0
  0
CLASS
  1
TABLESTYLE
  2
AcDbTableStyle
  3
ObjectDBX Classes
 90
     4095
280
     0
281
     0
  0
CLASS
  1
DICTIONARYVAR
  2
AcDbDictionaryVar
  3
ObjectDBX Classes
 90
        0
280
     0
281
     0
  0
CLASS
  1
DIMASSOC
  2
AcDbDimAssoc
  3
"AcDbDimAssoc|Product Desc:     AcDim ARX App For Dimension|Company:          Autodesk, Inc.|WEB Address:      www.autodesk.com"
 90
    32768
280
     0
281
     0
  0
CLASS
  1
SORTENTSTABLE
  2
AcDbSortentsTable
  3
ObjectDBX Classes
 90
    32768
280
     0
281
     0
  0
ENDSEC
  0
SECTION
  2
TABLES
  0
TABLE
  2
VPORT
  5
8
330
0
100
AcDbSymbolTable
 70
     1
  0
VPORT
  5
29
330
8
100
AcDbSymbolTableRecord
100
AcDbViewportTableRecord
  2
*Active
 70
     0
 10
0.0
 20
0.0
 11
1.0
 21
1.0
 12
217.2032476570779
 22
119.990941839747
 13
0.0
 23
0.0
 14
10.0
 24
10.0
 15
10.0
 25
10.0
 16
0.0
 26
0.0
 36
1.0
 17
0.0
 27
0.0
 37
0.0
 40
241.9277507952842
 41
2.045005488474204
 42
50.0
 43
0.0
 44
0.0
 50
0.0
 51
0.0
 71
     0
 72
  2000
 73
     1
 74
     3
 75
     0
 76
     0
 77
     0
 78
     0
281
     0
 65
     1
110
0.0
120
0.0
130
0.0
111
1.0
121
0.0
131
0.0
112
0.0
122
1.0
132
0.0
 79
     0
146
0.0
  0
ENDTAB
  0
TABLE
  2
LTYPE
  5
5
330
0
100
AcDbSymbolTable
 70
     3
  0
LTYPE
  5
14
330
5
100
AcDbSymbolTableRecord
100
AcDbLinetypeTableRecord
  2
ByBlock
 70
     0
  3

 72
    65
 73
     0
 40
0.0
  0
LTYPE
  5
15
330
5
100
AcDbSymbolTableRecord
100
AcDbLinetypeTableRecord
  2
ByLayer
 70
     0
  3

 72
    65
 73
     0
 40
0.0
  0
LTYPE
  5
16
330
5
100
AcDbSymbolTableRecord
100
AcDbLinetypeTableRecord
  2
Continuous
 70
     0
  3
Solid line
 72
    65
 73
     0
 40
0.0
  0
LTYPE
  5
12F
330
5
100
AcDbSymbolTableRecord
100
AcDbLinetypeTableRecord
  2
AM_DIN_G_W050
 70
     0
  3
____ . ____ . ____ . ____ . ____ . ____ . ____
 72
    65
 73
     4
 40
13.75
 49
9.75
 74
     0
 49
-1.5
 74
     0
 49
1.0
 74
     0
 49
-1.5
 74
     0
  0
LTYPE
  5
130
330
5
100
AcDbSymbolTableRecord
100
AcDbLinetypeTableRecord
  2
AM_DIN_K_W050
 70
     0
  3
_____ . . _____ . . _____ . . ____ .. ____
 72
    65
 73
     6
 40
16.25
 49
9.75
 74
     0
 49
-1.5
 74
     0
 49
1.0
 74
     0
 49
-1.5
 74
     0
 49
1.0
 74
     0
 49
-1.5
 74
     0
  0
ENDTAB
  0
TABLE
  2
LAYER
  5
2
102
{ACAD_XDICTIONARY
360
531
102
}
330
0
100
AcDbSymbolTable
 70
    13
  0
LAYER
  5
10
330
2
100
AcDbSymbolTableRecord
100
AcDbLayerTableRecord
  2
0
 70
     0
 62
     7
  6
Continuous
370
    -3
390
F
  0
LAYER
  5
132
330
2
100
AcDbSymbolTableRecord
100
AcDbLayerTableRecord
  2
90100_FRAME_THICK
 70
     0
 62
     7
  6
Continuous
370
    50
390
F
  0
LAYER
  5
133
330
2
100
AcDbSymbolTableRecord
100
AcDbLayerTableRecord
  2
90000_FRAME_THIN
 70
     0
 62
     7
  6
Continuous
370
    13
390
F
  0
LAYER
  5
134
330
2
100
AcDbSymbolTableRecord
100
AcDbLayerTableRecord
  2
90200_FRAME_SIZE
 70
     0
 62
     3
  6
AM_DIN_K_W050
370
    13
390
F
  0
LAYER
  5
135
330
2
100
AcDbSymbolTableRecord
100
AcDbLayerTableRecord
  2
92000_TITLE
 70
     0
 62
     7
  6
Continuous
370
    13
390
F
  0
LAYER
  5
136
330
2
100
AcDbSymbolTableRecord
100
AcDbLayerTableRecord
  2
91100_TIP_SYM
 70
     0
 62
     7
  6
AM_DIN_G_W050
370
    25
390
F
  0
LAYER
  5
137
330
2
100
AcDbSymbolTableRecord
100
AcDbLayerTableRecord
  2
91000_TIP
 70
     0
 62
     7
  6
Continuous
370
    13
390
F
  0
LAYER
  5
138
330
2
100
AcDbSymbolTableRecord
100
AcDbLayerTableRecord
  2
91200_TIP_SYMB
 70
     0
 62
     7
  6
Continuous
370
    -3
390
F
  0
LAYER
  5
16C
330
2
100
AcDbSymbolTableRecord
100
AcDbLayerTableRecord
  2
Defpoints
 70
     0
 62
     7
  6
Continuous
290
     0
370
    -3
390
F
  0
LAYER
  5
287
330
2
100
AcDbSymbolTableRecord
100
AcDbLayerTableRecord
  2
10000_FRONT
 70
     0
 62
     7
  6
Continuous
370
    50
390
F
  0
LAYER
  5
288
330
2
100
AcDbSymbolTableRecord
100
AcDbLayerTableRecord
  2
10100_FRONT_DIM
 70
     0
 62
     7
  6
Continuous
370
    13
390
F
  0
LAYER
  5
52E
330
2
100
AcDbSymbolTableRecord
100
AcDbLayerTableRecord
  2
11100_LEFT_DIM
 70
     0
 62
     7
  6
Continuous
370
    -3
390
F
1001
AcAecLayerStandard
1000

1000

  0
LAYER
  5
530
330
2
100
AcDbSymbolTableRecord
100
AcDbLayerTableRecord
  2
11000_LEFT
 70
     0
 62
     7
  6
Continuous
370
    -3
390
F
1001
AcAecLayerStandard
1000

1000

  0
ENDTAB
  0
TABLE
  2
STYLE
  5
3
330
0
100
AcDbSymbolTable
 70
     1
  0
STYLE
  5
11
330
3
100
AcDbSymbolTableRecord
100
AcDbTextStyleTableRecord
  2
Standard
 70
     0
 40
0.0
 41
1.0
 50
0.0
 71
     0
 42
2.5
  3
txt
  4

  0
ENDTAB
  0
TABLE
  2
VIEW
  5
6
330
0
100
AcDbSymbolTable
 70
     0
  0
ENDTAB
  0
TABLE
  2
UCS
  5
7
330
0
100
AcDbSymbolTable
 70
     0
  0
ENDTAB
  0
TABLE
  2
APPID
  5
9
330
0
100
AcDbSymbolTable
 70
     6
  0
APPID
  5
12
330
9
100
AcDbSymbolTableRecord
100
AcDbRegAppTableRecord
  2
ACAD
 70
     0
  0
APPID
  5
13E
330
9
100
AcDbSymbolTableRecord
100
AcDbRegAppTableRecord
  2
GENIUS_GENREC_14
 70
     0
  0
APPID
  5
13F
330
9
100
AcDbSymbolTableRecord
100
AcDbRegAppTableRecord
  2
GENIUS_GENODEF_13
 70
     0
  0
APPID
  5
140
330
9
100
AcDbSymbolTableRecord
100
AcDbRegAppTableRecord
  2
GENIUS_GENOBJ-N-REC_13
 70
     0
  0
APPID
  5
28B
330
9
100
AcDbSymbolTableRecord
100
AcDbRegAppTableRecord
  2
ACAD_PSEXT
 70
     0
  0
APPID
  5
52F
330
9
100
AcDbSymbolTableRecord
100
AcDbRegAppTableRecord
  2
AcAecLayerStandard
 70
     0
  0
ENDTAB
  0
TABLE
  2
DIMSTYLE
  5
A
330
0
100
AcDbSymbolTable
 70
     2
100
AcDbDimStyleTable
 71
     2
340
28A
340
27
  0
DIMSTYLE
105
27
330
A
100
AcDbSymbolTableRecord
100
AcDbDimStyleTableRecord
  2
ISO-25
 70
     0
 41
2.5
 42
0.625
 43
3.75
 44
1.25
 73
     0
 74
     0
 77
     1
 78
     8
140
2.5
141
2.5
143
0.0393700787
147
0.625
171
     3
172
     1
271
     2
272
     2
274
     3
278
    44
283
     0
284
     8
340
11
  0
DIMSTYLE
105
28A
102
{ACAD_REACTORS
330
1AC
330
186
330
179
330
194
330
1BA
330
1DF
330
1D0
102
}
330
A
100
AcDbSymbolTableRecord
100
AcDbDimStyleTableRecord
  2
H035
 70
     0
 40
0.0
 41
3.5
 42
0.0
 43
3.75
 44
2.0
 73
     0
 74
     0
 77
     1
 78
     8
140
3.5
141
2.5
143
0.039
147
0.5
171
     4
172
     1
176
   256
177
     7
178
     7
340
11
  0
ENDTAB
  0
TABLE
  2
BLOCK_RECORD
  5
1
330
0
100
AcDbSymbolTable
 70
     9
  0
BLOCK_RECORD
  5
1F
330
1
100
AcDbSymbolTableRecord
100
AcDbBlockTableRecord
  2
*Model_Space
340
22
  0
BLOCK_RECORD
  5
1B
330
1
100
AcDbSymbolTableRecord
100
AcDbBlockTableRecord
  2
*Paper_Space
340
1E
  0
BLOCK_RECORD
  5
23
330
1
100
AcDbSymbolTableRecord
100
AcDbBlockTableRecord
  2
*Paper_Space0
340
26
  0
BLOCK_RECORD
  5
F3
330
1
100
AcDbSymbolTableRecord
100
AcDbBlockTableRecord
  2
Title_A4L
340
0
310
2800000020000000200000000100080000000000000400000000000000000000000000000000000000000000000080000080000000808000800000008000800080800000C0C0C000C0DCC000F0CAA6000020400000206000002080000020A0000020C0000020E00000400000004020000040400000406000004080000040A0
310
000040C0000040E00000600000006020000060400000606000006080000060A0000060C0000060E00000800000008020000080400000806000008080000080A0000080C0000080E00000A0000000A0200000A0400000A0600000A0800000A0A00000A0C00000A0E00000C0000000C0200000C0400000C0600000C0800000C0
310
A00000C0C00000C0E00000E0000000E0200000E0400000E0600000E0800000E0A00000E0C00000E0E00040000000400020004000400040006000400080004000A0004000C0004000E00040200000402020004020400040206000402080004020A0004020C0004020E000404000004040200040404000404060004040800040
310
40A0004040C0004040E00040600000406020004060400040606000406080004060A0004060C0004060E00040800000408020004080400040806000408080004080A0004080C0004080E00040A0000040A0200040A0400040A0600040A0800040A0A00040A0C00040A0E00040C0000040C0200040C0400040C0600040C08000
310
40C0A00040C0C00040C0E00040E0000040E0200040E0400040E0600040E0800040E0A00040E0C00040E0E00080000000800020008000400080006000800080008000A0008000C0008000E00080200000802020008020400080206000802080008020A0008020C0008020E00080400000804020008040400080406000804080
310
008040A0008040C0008040E00080600000806020008060400080606000806080008060A0008060C0008060E00080800000808020008080400080806000808080008080A0008080C0008080E00080A0000080A0200080A0400080A0600080A0800080A0A00080A0C00080A0E00080C0000080C0200080C0400080C0600080C0
310
800080C0A00080C0C00080C0E00080E0000080E0200080E0400080E0600080E0800080E0A00080E0C00080E0E000C0000000C0002000C0004000C0006000C0008000C000A000C000C000C000E000C0200000C0202000C0204000C0206000C0208000C020A000C020C000C020E000C0400000C0402000C0404000C0406000C0
310
408000C040A000C040C000C040E000C0600000C0602000C0604000C0606000C0608000C060A000C060C000C060E000C0800000C0802000C0804000C0806000C0808000C080A000C080C000C080E000C0A00000C0A02000C0A04000C0A06000C0A08000C0A0A000C0A0C000C0A0E000C0C00000C0C02000C0C04000C0C06000
310
C0C08000C0C0A000F0FBFF00A4A0A000808080000000FF0000FF000000FFFF00FF000000FF00FF00FFFF0000FFFFFF0000000000000000000000000000000000000000000000000000000000000000000000000000000000000000000000000000000000000000000000000000000000000000000000000000000000000000
310
00000000000000000000000000000000000000000000000000000000000000000000000000000000000000000000000000000000000000000000000000000000000000000000000000000000000000000000000000000000000000000000000000000000000000000000000000000000000000000000000000000000000000
310
00000000000000000000000000000000000000000000000000000000000000000000000000000000000000000000000000000000000000000000000000000000000000000000000000000000000000000000000000000000000000000000000000000000000000000000000000000000000000000000000000000000000000
310
000000000000000000000000000000000000000000000000000000000000000000000000000000000000000000000000000000000000000000000000000000000000000000000000000000000000000000000000000000000000FFFFFFFFFFFFFFFFFFFFFFFFFFFFFFFFFFFFFFFFFFFFFFFF000000FFFFFFFFFFFFFFFFFFFF
310
FFFFFFFFFFFFFFFFFFFFFFFFFFFFFFFFFFFFFF0000FFFFFFFFFFFFFFFFFFFFFFFFFFFFFF00000000FFFFFFFFFFFFFF000000FF00000000FFFFFF00FFFFFFFFFFFFFFFFFFFFFFFFFFFFFFFFFFFFFFFFFFFFFFFF0000000000000000FFFFFFFFFFFFFFFFFFFFFFFFFFFFFFFF00000000000000000000000000000000FFFFFF00
310
0000FFFFFFFFFFFFFF00FF0000000000000000000000000000000000000000000000000000000000000000000000000000000000000000000000000000000000000000000000000000000000000000000000000000000000000000000000000000000000000000000000000000000000000000000000000000000000000000
310
00000000000000000000000000000000000000000000000000000000000000000000000000000000000000000000000000000000000000000000000000000000000000000000000000000000000000000000000000000000000000000000000000000000000000000000000000000000000000000000000000000000000000
310
00000000000000000000000000000000000000000000000000000000000000000000000000000000000000000000000000000000000000000000000000000000000000000000000000000000000000000000000000000000000000000000000000000000000000000000000000000000000000000000000000000000000000
310
0000000000000000000000000000000000000000000000000000000000000000000000000000000000000000000000000000000000000000
102
{BLKREFS
331
165
102
}
1001
ACAD
1000
DesignCenter Data
1002
{
1070
     1
1070
     4
1002
}
  0
BLOCK_RECORD
  5
17A
330
1
100
AcDbSymbolTableRecord
100
AcDbBlockTableRecord
  2
*D2
340
0
  0
BLOCK_RECORD
  5
187
330
1
100
AcDbSymbolTableRecord
100
AcDbBlockTableRecord
  2
*D3
340
0
  0
BLOCK_RECORD
  5
195
330
1
100
AcDbSymbolTableRecord
100
AcDbBlockTableRecord
  2
*D4
340
0
  0
BLOCK_RECORD
  5
1AD
330
1
100
AcDbSymbolTableRecord
100
AcDbBlockTableRecord
  2
*D5
340
0
  0
BLOCK_RECORD
  5
1BB
330
1
100
AcDbSymbolTableRecord
100
AcDbBlockTableRecord
  2
*D6
340
0
  0
BLOCK_RECORD
  5
1D1
330
1
100
AcDbSymbolTableRecord
100
AcDbBlockTableRecord
  2
*D7
340
0
  0
BLOCK_RECORD
  5
1E0
330
1
100
AcDbSymbolTableRecord
100
AcDbBlockTableRecord
  2
*D8
340
0
  0
ENDTAB
  0
ENDSEC
  0
SECTION
  2
BLOCKS
  0
BLOCK
  5
20
330
1F
100
AcDbEntity
  8
0
100
AcDbBlockBegin
  2
*Model_Space
 70
     0
 10
0.0
 20
0.0
 30
0.0
  3
*Model_Space
  1

  0
ENDBLK
  5
21
330
1F
100
AcDbEntity
  8
0
100
AcDbBlockEnd
  0
BLOCK
  5
1C
330
1B
100
AcDbEntity
 67
     1
  8
0
100
AcDbBlockBegin
  2
*Paper_Space
 70
     0
 10
0.0
 20
0.0
 30
0.0
  3
*Paper_Space
  1

  0
ENDBLK
  5
1D
330
1B
100
AcDbEntity
 67
     1
  8
0
100
AcDbBlockEnd
  0
BLOCK
  5
24
330
23
100
AcDbEntity
 67
     1
  8
0
100
AcDbBlockBegin
  2
*Paper_Space0
 70
     0
 10
0.0
 20
0.0
 30
0.0
  3
*Paper_Space0
  1

  0
ENDBLK
  5
25
330
23
100
AcDbEntity
 67
     1
  8
0
100
AcDbBlockEnd
  0
BLOCK
  5
F4
330
F3
100
AcDbEntity
  8
0
100
AcDbBlockBegin
  2
Title_A4L
 70
     2
 10
0.0
 20
0.0
 30
0.0
  3
Title_A4L
  1

  4
Schriftfeld A4 quer
  0
MTEXT
  5
F5
330
F3
100
AcDbEntity
  8
92000_TITLE
100
AcDbMText
 10
-110.0
 20
12.0
 30
0.0
 40
3.5
 41
40.0
 71
     5
 72
     5
  1
{\fSiemens Logo|b0|i0|c0|p2;s}
 73
     1
 44
1.0
1001
ACAD
1000
MTEXTBEGIN
1070
    73
1070
     1
1070
    44
1040
1.0
1070
    74
1070
     0
1000
MTEXTEND
  0
LINE
  5
F6
330
F3
100
AcDbEntity
  8
92000_TITLE
100
AcDbLine
 10
-135.0
 20
0.0
 30
0.0
 11
0.0
 21
0.0
 31
0.0
1001
GENIUS_GENREC_14
1002
{
1000
PYDIR
1011
-135.0
1021
18.0
1031
0.0
1002
}
1002
{
1000
PXDIR
1011
0.0
1021
0.0
1031
0.0
1002
}
1002
{
1000
PORI
1011
-135.0
1021
0.0
1031
0.0
1002
}
1002
{
1000
PINS
1011
-135.0
1021
0.0
1031
0.0
1002
}
1002
{
1000
HVAL
1000
18
1002
}
1002
{
1000
H
1070
     2
1002
}
1002
{
1000
WVAL
1000
135
1002
}
1002
{
1000
W
1070
     2
1002
}
1002
{
1000
C
1070
     1
1002
}
1001
GENIUS_GENOBJ-N-REC_13
1002
{
1000
OWNER
1000
GEN
1002
}
1001
GENIUS_GENODEF_13
1002
{
1000
HIER
1070
     0
1002
}
1002
{
1000
MANEDIT
1070
     0
1002
}
1002
{
1000
NOSEL
1070
     0
1002
}
1002
{
1000
BEHIND
1070
     0
1002
}
1002
{
1000
OTHER
1070
     0
1002
}
1002
{
1000
REACTOR
1002
}
  0
LINE
  5
F7
330
F3
100
AcDbEntity
  8
92000_TITLE
100
AcDbLine
 10
0.0
 20
18.0
 30
0.0
 11
-135.0
 21
18.0
 31
0.0
1001
GENIUS_GENREC_14
1002
{
1000
PYDIR
1011
-135.0
1021
18.0
1031
0.0
1002
}
1002
{
1000
PXDIR
1011
0.0
1021
0.0
1031
0.0
1002
}
1002
{
1000
PORI
1011
-135.0
1021
0.0
1031
0.0
1002
}
1002
{
1000
PINS
1011
-135.0
1021
0.0
1031
0.0
1002
}
1002
{
1000
HVAL
1000
18
1002
}
1002
{
1000
H
1070
     2
1002
}
1002
{
1000
WVAL
1000
135
1002
}
1002
{
1000
W
1070
     2
1002
}
1002
{
1000
C
1070
     1
1002
}
1001
GENIUS_GENOBJ-N-REC_13
1002
{
1000
OWNER
1000
GEN
1002
}
1001
GENIUS_GENODEF_13
1002
{
1000
HIER
1070
     0
1002
}
1002
{
1000
MANEDIT
1070
     0
1002
}
1002
{
1000
NOSEL
1070
     0
1002
}
1002
{
1000
BEHIND
1070
     0
1002
}
1002
{
1000
OTHER
1070
     0
1002
}
1002
{
1000
REACTOR
1002
}
  0
LINE
  5
F8
330
F3
100
AcDbEntity
  8
92000_TITLE
100
AcDbLine
 10
0.0
 20
6.0
 30
0.0
 11
-135.0
 21
6.0
 31
0.0
1001
GENIUS_GENREC_14
1002
{
1000
PYDIR
1011
-135.0
1021
18.0
1031
0.0
1002
}
1002
{
1000
PXDIR
1011
0.0
1021
0.0
1031
0.0
1002
}
1002
{
1000
PORI
1011
-135.0
1021
0.0
1031
0.0
1002
}
1002
{
1000
PINS
1011
-135.0
1021
0.0
1031
0.0
1002
}
1002
{
1000
HVAL
1000
18
1002
}
1002
{
1000
H
1070
     2
1002
}
1002
{
1000
WVAL
1000
135
1002
}
1002
{
1000
W
1070
     2
1002
}
1002
{
1000
C
1070
     1
1002
}
1001
GENIUS_GENOBJ-N-REC_13
1002
{
1000
OWNER
1000
GEN
1002
}
1001
GENIUS_GENODEF_13
1002
{
1000
HIER
1070
     0
1002
}
1002
{
1000
MANEDIT
1070
     0
1002
}
1002
{
1000
NOSEL
1070
     0
1002
}
1002
{
1000
BEHIND
1070
     0
1002
}
1002
{
1000
OTHER
1070
     0
1002
}
1002
{
1000
REACTOR
1002
}
  0
TEXT
  5
F9
330
F3
100
AcDbEntity
  8
91000_TIP
  6
Continuous
 62
     7
100
AcDbText
 10
-134.9906185411919
 20
23.07158622517954
 30
0.0
 40
2.2
  1
Alle Bemassungswerte sind in Millimeter (mm) angegeben.
 41
0.8250311332499991
 72
     5
 11
-46.65728520789184
 21
23.07158622517954
 31
0.0
100
AcDbText
  0
TEXT
  5
FA
330
F3
100
AcDbEntity
  8
91000_TIP
  6
Continuous
 62
     7
100
AcDbText
 10
-134.9906185411919
 20
19.9425638213338
 30
0.0
 40
2.2
  1
All dimensions are in millimeters (mm)
 41
0.9608678382598288
 72
     5
 11
-68.05015914242381
 21
19.9425638213338
 31
0.0
100
AcDbText
  0
LINE
  5
FB
330
F3
100
AcDbEntity
  8
91100_TIP_SYM
 48
0.5
100
AcDbLine
 10
-169.5
 20
9.0
 30
0.0
 11
-140.5
 21
9.0
 31
0.0
  0
LINE
  5
FC
330
F3
100
AcDbEntity
  8
91200_TIP_SYMB
100
AcDbLine
 10
-155.0
 20
4.0
 30
0.0
 11
-167.5
 21
5.5
 31
0.0
  0
LINE
  5
FD
330
F3
100
AcDbEntity
  8
91200_TIP_SYMB
100
AcDbLine
 10
-167.5
 20
12.5
 30
0.0
 11
-155.0
 21
14.0
 31
0.0
  0
LINE
  5
FE
330
F3
100
AcDbEntity
  8
91200_TIP_SYMB
100
AcDbLine
 10
-167.5
 20
5.5
 30
0.0
 11
-167.5
 21
12.5
 31
0.0
  0
CIRCLE
  5
FF
330
F3
100
AcDbEntity
  8
91200_TIP_SYMB
100
AcDbCircle
 10
-147.5
 20
9.0
 30
0.0
 40
5.0
  0
LINE
  5
100
330
F3
100
AcDbEntity
  8
91200_TIP_SYMB
100
AcDbLine
 10
-155.0
 20
14.0
 30
0.0
 11
-155.0
 21
4.0
 31
0.0
  0
CIRCLE
  5
101
330
F3
100
AcDbEntity
  8
91200_TIP_SYMB
100
AcDbCircle
 10
-147.5
 20
9.0
 30
0.0
 40
2.0
  0
LINE
  5
102
330
F3
100
AcDbEntity
  8
91100_TIP_SYM
 48
0.5
100
AcDbLine
 10
-147.5
 20
16.0
 30
0.0
 11
-147.5
 21
2.0
 31
0.0
  0
ATTDEF
  5
103
330
F3
100
AcDbEntity
  8
92000_TITLE
100
AcDbText
 10
-116.9999999999995
 20
1.75
 30
0.0
 40
2.5
  1

 72
     1
 11
-116.9999999999995
 21
3.0
 31
0.0
100
AcDbAttributeDefinition
  3
Datum
  2
DATUM
 70
     0
 74
     2
  0
MTEXT
  5
104
330
F3
100
AcDbEntity
  8
92000_TITLE
100
AcDbMText
 10
-127.75
 20
3.0
 30
0.0
 40
2.5
 41
11.0
 71
     5
 72
     5
  1
Date:
 73
     1
 44
1.0
1001
ACAD
1000
MTEXTBEGIN
1070
    73
1070
     1
1070
    44
1040
1.0
1070
    74
1070
     0
1000
MTEXTEND
  0
LINE
  5
105
330
F3
100
AcDbEntity
  8
92000_TITLE
100
AcDbLine
 10
-135.0
 20
18.0
 30
0.0
 11
-135.0
 21
0.0
 31
0.0
1001
GENIUS_GENREC_14
1002
{
1000
PYDIR
1011
-135.0
1021
18.0
1031
0.0
1002
}
1002
{
1000
PXDIR
1011
0.0
1021
0.0
1031
0.0
1002
}
1002
{
1000
PORI
1011
-135.0
1021
0.0
1031
0.0
1002
}
1002
{
1000
PINS
1011
-135.0
1021
0.0
1031
0.0
1002
}
1002
{
1000
HVAL
1000
18
1002
}
1002
{
1000
H
1070
     2
1002
}
1002
{
1000
WVAL
1000
135
1002
}
1002
{
1000
W
1070
     2
1002
}
1002
{
1000
C
1070
     1
1002
}
1001
GENIUS_GENOBJ-N-REC_13
1002
{
1000
OWNER
1000
GEN
1002
}
1001
GENIUS_GENODEF_13
1002
{
1000
HIER
1070
     0
1002
}
1002
{
1000
MANEDIT
1070
     0
1002
}
1002
{
1000
NOSEL
1070
     0
1002
}
1002
{
1000
BEHIND
1070
     0
1002
}
1002
{
1000
OTHER
1070
     0
1002
}
1002
{
1000
REACTOR
1002
}
  0
MTEXT
  5
106
330
F3
100
AcDbEntity
  8
92000_TITLE
100
AcDbMText
 10
-102.75
 20
3.0
 30
0.0
 40
2.5
 41
11.0
 71
     5
 72
     5
  1
Name:
 73
     1
 44
1.0
1001
ACAD
1000
MTEXTBEGIN
1070
    73
1070
     1
1070
    44
1040
1.0
1070
    74
1070
     0
1000
MTEXTEND
  0
LINE
  5
107
330
F3
100
AcDbEntity
  8
92000_TITLE
100
AcDbLine
 10
-110.0
 20
6.0
 30
0.0
 11
-110.0
 21
0.0
 31
0.0
1001
GENIUS_GENREC_14
1002
{
1000
PYDIR
1011
-135.0
1021
18.0
1031
0.0
1002
}
1002
{
1000
PXDIR
1011
0.0
1021
0.0
1031
0.0
1002
}
1002
{
1000
PORI
1011
-135.0
1021
0.0
1031
0.0
1002
}
1002
{
1000
PINS
1011
-135.0
1021
0.0
1031
0.0
1002
}
1002
{
1000
HVAL
1000
18
1002
}
1002
{
1000
H
1070
     2
1002
}
1002
{
1000
WVAL
1000
135
1002
}
1002
{
1000
W
1070
     2
1002
}
1002
{
1000
C
1070
     1
1002
}
1001
GENIUS_GENOBJ-N-REC_13
1002
{
1000
OWNER
1000
GEN
1002
}
1001
GENIUS_GENODEF_13
1002
{
1000
HIER
1070
     0
1002
}
1002
{
1000
MANEDIT
1070
     0
1002
}
1002
{
1000
NOSEL
1070
     0
1002
}
1002
{
1000
BEHIND
1070
     0
1002
}
1002
{
1000
OTHER
1070
     0
1002
}
1002
{
1000
REACTOR
1002
}
  0
MTEXT
  5
108
330
F3
100
AcDbEntity
  8
92000_TITLE
100
AcDbMText
 10
-21.25
 20
3.0
 30
0.0
 40
2.5
 41
42.5
 71
     5
 72
     5
  1
Massstab/Scale: 1:1
 73
     1
 44
1.0
1001
ACAD
1000
MTEXTBEGIN
1070
    73
1070
     1
1070
    44
1040
1.0
1070
    74
1070
     0
1000
MTEXTEND
  0
MTEXT
  5
109
330
F3
100
AcDbEntity
  8
92000_TITLE
100
AcDbMText
 10
-63.75
 20
3.0
 30
0.0
 40
2.5
 41
42.5
 71
     5
 72
     5
  1
Format/Size: DIN A4
 73
     1
 44
1.0
1001
ACAD
1000
MTEXTBEGIN
1070
    73
1070
     1
1070
    44
1040
1.0
1070
    74
1070
     0
1000
MTEXTEND
  0
ATTDEF
  5
10A
330
F3
100
AcDbEntity
  8
92000_TITLE
100
AcDbText
 10
-42.49999999999952
 20
12.25000000000011
 30
0.0
 40
3.5
  1

 72
     1
 11
-42.49999999999952
 21
14.00000000000011
 31
0.0
100
AcDbAttributeDefinition
  3
Z-Name
  2
ZEICHNUNGSNAME
 70
     0
 74
     2
  0
LINE
  5
10B
330
F3
100
AcDbEntity
  8
92000_TITLE
100
AcDbLine
 10
-85.0
 20
18.0
 30
0.0
 11
-85.0
 21
0.0
 31
0.0
1001
GENIUS_GENREC_14
1002
{
1000
PYDIR
1011
-135.0
1021
18.0
1031
0.0
1002
}
1002
{
1000
PXDIR
1011
0.0
1021
0.0
1031
0.0
1002
}
1002
{
1000
PORI
1011
-135.0
1021
0.0
1031
0.0
1002
}
1002
{
1000
PINS
1011
-135.0
1021
0.0
1031
0.0
1002
}
1002
{
1000
HVAL
1000
18
1002
}
1002
{
1000
H
1070
     2
1002
}
1002
{
1000
WVAL
1000
135
1002
}
1002
{
1000
W
1070
     2
1002
}
1002
{
1000
C
1070
     1
1002
}
1001
GENIUS_GENOBJ-N-REC_13
1002
{
1000
OWNER
1000
GEN
1002
}
1001
GENIUS_GENODEF_13
1002
{
1000
HIER
1070
     0
1002
}
1002
{
1000
MANEDIT
1070
     0
1002
}
1002
{
1000
NOSEL
1070
     0
1002
}
1002
{
1000
BEHIND
1070
     0
1002
}
1002
{
1000
OTHER
1070
     0
1002
}
1002
{
1000
REACTOR
1002
}
  0
ATTDEF
  5
10C
330
F3
100
AcDbEntity
  8
92000_TITLE
100
AcDbText
 10
-91.99999999999954
 20
1.75
 30
0.0
 40
2.5
  1

 72
     1
 11
-91.99999999999954
 21
3.0
 31
0.0
100
AcDbAttributeDefinition
  3
Name
  2
NAME
 70
     0
 74
     2
  0
ATTDEF
  5
10D
330
F3
100
AcDbEntity
  8
92000_TITLE
100
AcDbText
 10
-42.49999999999952
 20
6.75000000000011
 30
0.0
 40
2.5
  1

 72
     1
 11
-42.49999999999952
 21
8.00000000000011
 31
0.0
100
AcDbAttributeDefinition
  3
A-Name
  2
ARTIKELNAME
 70
     0
 74
     2
  0
LINE
  5
10E
330
F3
100
AcDbEntity
  8
92000_TITLE
100
AcDbLine
 10
-42.5
 20
0.0
 30
0.0
 11
-42.5
 21
6.0
 31
0.0
1001
GENIUS_GENREC_14
1002
{
1000
PYDIR
1011
-135.0
1021
18.0
1031
0.0
1002
}
1002
{
1000
PXDIR
1011
0.0
1021
0.0
1031
0.0
1002
}
1002
{
1000
PORI
1011
-135.0
1021
0.0
1031
0.0
1002
}
1002
{
1000
PINS
1011
-135.0
1021
0.0
1031
0.0
1002
}
1002
{
1000
HVAL
1000
18
1002
}
1002
{
1000
H
1070
     2
1002
}
1002
{
1000
WVAL
1000
135
1002
}
1002
{
1000
W
1070
     2
1002
}
1002
{
1000
C
1070
     1
1002
}
1001
GENIUS_GENOBJ-N-REC_13
1002
{
1000
OWNER
1000
GEN
1002
}
1001
GENIUS_GENODEF_13
1002
{
1000
HIER
1070
     0
1002
}
1002
{
1000
MANEDIT
1070
     0
1002
}
1002
{
1000
NOSEL
1070
     0
1002
}
1002
{
1000
BEHIND
1070
     0
1002
}
1002
{
1000
OTHER
1070
     0
1002
}
1002
{
1000
REACTOR
1002
}
  0
LINE
  5
10F
330
F3
100
AcDbEntity
  8
92000_TITLE
100
AcDbLine
 10
0.0
 20
0.0
 30
0.0
 11
0.0
 21
18.0
 31
0.0
1001
GENIUS_GENREC_14
1002
{
1000
PYDIR
1011
-135.0
1021
18.0
1031
0.0
1002
}
1002
{
1000
PXDIR
1011
0.0
1021
0.0
1031
0.0
1002
}
1002
{
1000
PORI
1011
-135.0
1021
0.0
1031
0.0
1002
}
1002
{
1000
PINS
1011
-135.0
1021
0.0
1031
0.0
1002
}
1002
{
1000
HVAL
1000
18
1002
}
1002
{
1000
H
1070
     2
1002
}
1002
{
1000
WVAL
1000
135
1002
}
1002
{
1000
W
1070
     2
1002
}
1002
{
1000
C
1070
     1
1002
}
1001
GENIUS_GENOBJ-N-REC_13
1002
{
1000
OWNER
1000
GEN
1002
}
1001
GENIUS_GENODEF_13
1002
{
1000
HIER
1070
     0
1002
}
1002
{
1000
MANEDIT
1070
     0
1002
}
1002
{
1000
NOSEL
1070
     0
1002
}
1002
{
1000
BEHIND
1070
     0
1002
}
1002
{
1000
OTHER
1070
     0
1002
}
1002
{
1000
REACTOR
1002
}
  0
ENDBLK
  5
110
330
F3
100
AcDbEntity
  8
0
100
AcDbBlockEnd
  0
BLOCK
  5
184
330
17A
100
AcDbEntity
  8
0
100
AcDbBlockBegin
  2
*D2
 70
     1
 10
0.0
 20
0.0
 30
0.0
  3
*D2
  1

  0
LINE
  5
609
330
17A
100
AcDbEntity
  8
10100_FRONT_DIM
 62
     7
370
    -2
100
AcDbLine
 10
102.3221356110453
 20
97.77696216778842
 30
0.0
 11
102.3221356110453
 21
77.91655028880223
 31
0.0
  0
LINE
  5
60A
330
17A
100
AcDbEntity
  8
10100_FRONT_DIM
 62
     7
370
    -2
100
AcDbLine
 10
195.122135611575
 20
92.91655028880224
 30
0.0
 11
195.122135611575
 21
77.91655028880223
 31
0.0
  0
LINE
  5
60B
330
17A
100
AcDbEntity
  8
10100_FRONT_DIM
370
    -2
100
AcDbLine
 10
105.8221356110453
 20
79.91655028880223
 30
0.0
 11
191.622135611575
 21
79.91655028880223
 31
0.0
  0
SOLID
  5
60C
330
17A
100
AcDbEntity
  8
10100_FRONT_DIM
100
AcDbTrace
 10
105.8221356110453
 20
80.49988362213554
 30
0.0
 11
105.8221356110453
 21
79.3332169554689
 31
0.0
 12
102.3221356110453
 22
79.91655028880223
 32
0.0
 13
102.3221356110453
 23
79.91655028880223
 33
0.0
  0
SOLID
  5
60D
330
17A
100
AcDbEntity
  8
10100_FRONT_DIM
100
AcDbTrace
 10
191.622135611575
 20
80.49988362213554
 30
0.0
 11
191.622135611575
 21
79.3332169554689
 31
0.0
 12
195.122135611575
 22
79.91655028880223
 32
0.0
 13
195.122135611575
 23
79.91655028880223
 33
0.0
  0
MTEXT
  5
60E
330
17A
100
AcDbEntity
  8
10100_FRONT_DIM
 62
     7
370
    18
100
AcDbMText
 10
148.7221356113101
 20
82.16655028880223
 30
0.0
 40
3.5
 41
0.0
 71
     5
 72
     1
  1
\A1;92.8
 73
     1
 44
1.0
1001
ACAD
1000
MTEXTBEGIN
1070
    73
1070
     1
1070
    44
1040
1.0
1070
    74
1070
     0
1000
MTEXTEND
  0
POINT
  5
60F
330
17A
100
AcDbEntity
  8
Defpoints
 62
     0
100
AcDbPoint
 10
102.3221356110453
 20
97.77696216778842
 30
0.0
  0
POINT
  5
610
330
17A
100
AcDbEntity
  8
Defpoints
 62
     0
100
AcDbPoint
 10
195.122135611575
 20
92.91655028880224
 30
0.0
  0
POINT
  5
611
330
17A
100
AcDbEntity
  8
Defpoints
 62
     0
100
AcDbPoint
 10
195.122135611575
 20
79.91655028880223
 30
0.0
  0
ENDBLK
  5
185
330
17A
100
AcDbEntity
  8
0
100
AcDbBlockEnd
  0
BLOCK
  5
192
330
187
100
AcDbEntity
  8
0
100
AcDbBlockBegin
  2
*D3
 70
     1
 10
0.0
 20
0.0
 30
0.0
  3
*D3
  1

  0
LINE
  5
612
330
187
100
AcDbEntity
  8
10100_FRONT_DIM
 62
     7
370
    -2
100
AcDbLine
 10
104.3221356115757
 20
169.4248924698024
 30
0.0
 11
77.3221356115753
 21
169.4248924698024
 31
0.0
  0
LINE
  5
613
330
187
100
AcDbEntity
  8
10100_FRONT_DIM
 62
     7
370
    -2
100
AcDbLine
 10
108.4561356115759
 20
92.91655028880224
 30
0.0
 11
77.32213561157526
 21
92.91655028880224
 31
0.0
  0
LINE
  5
614
330
187
100
AcDbEntity
  8
10100_FRONT_DIM
370
    -2
100
AcDbLine
 10
79.32213561157531
 20
165.9248924698024
 30
0.0
 11
79.32213561157528
 21
96.41655028880224
 31
0.0
  0
SOLID
  5
615
330
187
100
AcDbEntity
  8
10100_FRONT_DIM
100
AcDbTrace
 10
78.73880227824193
 20
165.9248924698024
 30
0.0
 11
79.90546894490861
 21
165.9248924698024
 31
0.0
 12
79.32213561157531
 22
169.4248924698024
 32
0.0
 13
79.32213561157531
 23
169.4248924698024
 33
0.0
  0
SOLID
  5
616
330
187
100
AcDbEntity
  8
10100_FRONT_DIM
100
AcDbTrace
 10
78.73880227824193
 20
96.41655028880224
 30
0.0
 11
79.90546894490861
 21
96.41655028880224
 31
0.0
 12
79.32213561157526
 22
92.91655028880224
 32
0.0
 13
79.32213561157526
 23
92.91655028880224
 33
0.0
  0
MTEXT
  5
617
330
187
100
AcDbEntity
  8
10100_FRONT_DIM
 62
     7
370
    18
100
AcDbMText
 10
77.07213561157526
 20
131.1707213793023
 30
0.0
 40
3.5
 41
0.0
 71
     5
 72
     1
  1
\A1;76.5
 11
0.0000000000000001
 21
1.0
 31
0.0
 73
     1
 44
1.0
1001
ACAD
1000
MTEXTBEGIN
1070
    73
1070
     1
1070
    44
1040
1.0
1070
    74
1070
     0
1000
MTEXTEND
  0
POINT
  5
618
330
187
100
AcDbEntity
  8
Defpoints
 62
     0
100
AcDbPoint
 10
104.3221356115757
 20
169.4248924698024
 30
0.0
  0
POINT
  5
619
330
187
100
AcDbEntity
  8
Defpoints
 62
     0
100
AcDbPoint
 10
108.4561356115759
 20
92.91655028880224
 30
0.0
  0
POINT
  5
61A
330
187
100
AcDbEntity
  8
Defpoints
 62
     0
100
AcDbPoint
 10
79.32213561157526
 20
92.91655028880224
 30
0.0
  0
ENDBLK
  5
193
330
187
100
AcDbEntity
  8
0
100
AcDbBlockEnd
  0
BLOCK
  5
1A0
330
195
100
AcDbEntity
  8
0
100
AcDbBlockBegin
  2
*D4
 70
     1
 10
0.0
 20
0.0
 30
0.0
  3
*D4
  1

  0
LINE
  5
61B
330
195
100
AcDbEntity
  8
10100_FRONT_DIM
 62
     7
370
    -2
100
AcDbLine
 10
193.1221356115757
 20
140.8019659708022
 30
0.0
 11
210.1009216872072
 21
140.8019659708022
 31
0.0
  0
LINE
  5
61C
330
195
100
AcDbEntity
  8
10100_FRONT_DIM
 62
     7
370
    -2
100
AcDbLine
 10
195.122135611575
 20
92.81655028880225
 30
0.0
 11
210.1009216872072
 21
92.81655028880225
 31
0.0
  0
LINE
  5
61D
330
195
100
AcDbEntity
  8
10100_FRONT_DIM
370
    -2
100
AcDbLine
 10
208.1009216872072
 20
137.3019659708022
 30
0.0
 11
208.1009216872072
 21
96.31655028880224
 31
0.0
  0
SOLID
  5
61E
330
195
100
AcDbEntity
  8
10100_FRONT_DIM
100
AcDbTrace
 10
207.5175883538739
 20
137.3019659708022
 30
0.0
 11
208.6842550205406
 21
137.3019659708022
 31
0.0
 12
208.1009216872072
 22
140.8019659708022
 32
0.0
 13
208.1009216872072
 23
140.8019659708022
 33
0.0
  0
SOLID
  5
61F
330
195
100
AcDbEntity
  8
10100_FRONT_DIM
100
AcDbTrace
 10
207.5175883538739
 20
96.31655028880224
 30
0.0
 11
208.6842550205406
 21
96.31655028880224
 31
0.0
 12
208.1009216872072
 22
92.81655028880225
 32
0.0
 13
208.1009216872072
 23
92.81655028880225
 33
0.0
  0
MTEXT
  5
620
330
195
100
AcDbEntity
  8
10100_FRONT_DIM
 62
     7
370
    18
100
AcDbMText
 10
205.8509216872072
 20
116.8092581298022
 30
0.0
 40
3.5
 41
0.0
 71
     5
 72
     1
  1
\A1;48
 11
0.0000000000000001
 21
1.0
 31
0.0
 73
     1
 44
1.0
1001
ACAD
1000
MTEXTBEGIN
1070
    73
1070
     1
1070
    44
1040
1.0
1070
    74
1070
     0
1000
MTEXTEND
  0
POINT
  5
621
330
195
100
AcDbEntity
  8
Defpoints
 62
     0
100
AcDbPoint
 10
193.1221356115757
 20
140.8019659708022
 30
0.0
  0
POINT
  5
622
330
195
100
AcDbEntity
  8
Defpoints
 62
     0
100
AcDbPoint
 10
195.122135611575
 20
92.81655028880225
 30
0.0
  0
POINT
  5
623
330
195
100
AcDbEntity
  8
Defpoints
 62
     0
100
AcDbPoint
 10
208.1009216872072
 20
92.81655028880225
 30
0.0
  0
ENDBLK
  5
1A1
330
195
100
AcDbEntity
  8
0
100
AcDbBlockEnd
  0
BLOCK
  5
1B8
330
1AD
100
AcDbEntity
  8
0
100
AcDbBlockBegin
  2
*D5
 70
     1
 10
0.0
 20
0.0
 30
0.0
  3
*D5
  1

  0
LINE
  5
624
330
1AD
100
AcDbEntity
  8
10100_FRONT_DIM
 62
     7
370
    -2
100
AcDbLine
 10
104.3221356115757
 20
169.4248924698022
 30
0.0
 11
87.3221356115753
 21
169.4248924698022
 31
0.0
  0
LINE
  5
625
330
1AD
100
AcDbEntity
  8
10100_FRONT_DIM
 62
     7
370
    -2
100
AcDbLine
 10
104.3221356115757
 20
95.77906356080234
 30
0.0
 11
87.32213561157527
 21
95.77906356080237
 31
0.0
  0
LINE
  5
626
330
1AD
100
AcDbEntity
  8
10100_FRONT_DIM
370
    -2
100
AcDbLine
 10
89.3221356115753
 20
165.9248924698022
 30
0.0
 11
89.32213561157528
 21
99.27906356080237
 31
0.0
  0
SOLID
  5
627
330
1AD
100
AcDbEntity
  8
10100_FRONT_DIM
100
AcDbTrace
 10
88.73880227824196
 20
165.9248924698022
 30
0.0
 11
89.9054689449086
 21
165.9248924698022
 31
0.0
 12
89.3221356115753
 22
169.4248924698022
 32
0.0
 13
89.3221356115753
 23
169.4248924698022
 33
0.0
  0
SOLID
  5
628
330
1AD
100
AcDbEntity
  8
10100_FRONT_DIM
100
AcDbTrace
 10
88.73880227824193
 20
99.27906356080237
 30
0.0
 11
89.9054689449086
 21
99.27906356080237
 31
0.0
 12
89.32213561157526
 22
95.77906356080237
 32
0.0
 13
89.32213561157526
 23
95.77906356080237
 33
0.0
  0
MTEXT
  5
629
330
1AD
100
AcDbEntity
  8
10100_FRONT_DIM
 62
     7
370
    18
100
AcDbMText
 10
87.07213561157526
 20
132.6019780153023
 30
0.0
 40
3.5
 41
0.0
 71
     5
 72
     1
  1
\A1;73.6
 11
0.0000000000000001
 21
1.0
 31
0.0
 73
     1
 44
1.0
1001
ACAD
1000
MTEXTBEGIN
1070
    73
1070
     1
1070
    44
1040
1.0
1070
    74
1070
     0
1000
MTEXTEND
  0
POINT
  5
62A
330
1AD
100
AcDbEntity
  8
Defpoints
 62
     0
100
AcDbPoint
 10
104.3221356115757
 20
169.4248924698022
 30
0.0
  0
POINT
  5
62B
330
1AD
100
AcDbEntity
  8
Defpoints
 62
     0
100
AcDbPoint
 10
104.3221356115757
 20
95.77906356080234
 30
0.0
  0
POINT
  5
62C
330
1AD
100
AcDbEntity
  8
Defpoints
 62
     0
100
AcDbPoint
 10
89.32213561157526
 20
95.77906356080237
 30
0.0
  0
ENDBLK
  5
1B9
330
1AD
100
AcDbEntity
  8
0
100
AcDbBlockEnd
  0
BLOCK
  5
1C5
330
1BB
100
AcDbEntity
  8
0
100
AcDbBlockBegin
  2
*D6
 70
     1
 10
0.0
 20
0.0
 30
0.0
  3
*D6
  1

  0
LINE
  5
62D
330
1BB
100
AcDbEntity
  8
10100_FRONT_DIM
 62
     7
370
    -2
100
AcDbLine
 10
152.4721356115757
 20
119.4019659708024
 30
0.0
 11
152.4721356115757
 21
184.4248924698024
 31
0.0
  0
LINE
  5
62E
330
1BB
100
AcDbEntity
  8
10100_FRONT_DIM
 62
     7
370
    -2
100
AcDbLine
 10
176.2721356115755
 20
119.4019659708024
 30
0.0
 11
176.2721356115755
 21
184.4248924698024
 31
0.0
  0
LINE
  5
62F
330
1BB
100
AcDbEntity
  8
10100_FRONT_DIM
370
    -2
100
AcDbLine
 10
155.9721356115757
 20
182.4248924698023
 30
0.0
 11
172.7721356115756
 21
182.4248924698023
 31
0.0
  0
SOLID
  5
630
330
1BB
100
AcDbEntity
  8
10100_FRONT_DIM
100
AcDbTrace
 10
155.9721356115757
 20
183.0082258031358
 30
0.0
 11
155.9721356115757
 21
181.841559136469
 31
0.0
 12
152.4721356115757
 22
182.4248924698023
 32
0.0
 13
152.4721356115757
 23
182.4248924698023
 33
0.0
  0
SOLID
  5
631
330
1BB
100
AcDbEntity
  8
10100_FRONT_DIM
100
AcDbTrace
 10
172.7721356115756
 20
183.0082258031358
 30
0.0
 11
172.7721356115756
 21
181.841559136469
 31
0.0
 12
176.2721356115755
 22
182.4248924698023
 32
0.0
 13
176.2721356115755
 23
182.4248924698023
 33
0.0
  0
MTEXT
  5
632
330
1BB
100
AcDbEntity
  8
10100_FRONT_DIM
 62
     7
370
    18
100
AcDbMText
 10
164.3721356115757
 20
184.6748924698024
 30
0.0
 40
3.5
 41
0.0
 71
     5
 72
     1
  1
\A1;23.8
 73
     1
 44
1.0
1001
ACAD
1000
MTEXTBEGIN
1070
    73
1070
     1
1070
    44
1040
1.0
1070
    74
1070
     0
1000
MTEXTEND
  0
POINT
  5
633
330
1BB
100
AcDbEntity
  8
Defpoints
 62
     0
100
AcDbPoint
 10
152.4721356115757
 20
119.4019659708024
 30
0.0
  0
POINT
  5
634
330
1BB
100
AcDbEntity
  8
Defpoints
 62
     0
100
AcDbPoint
 10
176.2721356115755
 20
119.4019659708024
 30
0.0
  0
POINT
  5
635
330
1BB
100
AcDbEntity
  8
Defpoints
 62
     0
100
AcDbPoint
 10
176.2721356115755
 20
182.4248924698023
 30
0.0
  0
ENDBLK
  5
1C6
330
1BB
100
AcDbEntity
  8
0
100
AcDbBlockEnd
  0
BLOCK
  5
1DB
330
1D1
100
AcDbEntity
  8
0
100
AcDbBlockBegin
  2
*D7
 70
     1
 10
0.0
 20
0.0
 30
0.0
  3
*D7
  1

  0
LINE
  5
636
330
1D1
100
AcDbEntity
  8
11100_LEFT_DIM
 62
     7
370
    -2
100
AcDbLine
 10
240.162317956575
 20
98.95067586180219
 30
0.0
 11
240.162317956575
 21
67.91655028880246
 31
0.0
  0
LINE
  5
637
330
1D1
100
AcDbEntity
  8
11100_LEFT_DIM
 62
     7
370
    -2
100
AcDbLine
 10
230.812032458575
 20
143.8019659708024
 30
0.0
 11
230.812032458575
 21
67.91655028880246
 31
0.0
  0
LINE
  5
638
330
1D1
100
AcDbEntity
  8
11100_LEFT_DIM
370
    -2
100
AcDbLine
 10
236.6623179565749
 20
69.91655028880245
 30
0.0
 11
234.312032458575
 21
69.91655028880245
 31
0.0
  0
SOLID
  5
639
330
1D1
100
AcDbEntity
  8
11100_LEFT_DIM
100
AcDbTrace
 10
236.6623179565749
 20
70.49988362213579
 30
0.0
 11
236.6623179565749
 21
69.33321695546912
 31
0.0
 12
240.162317956575
 22
69.91655028880245
 32
0.0
 13
240.162317956575
 23
69.91655028880245
 33
0.0
  0
SOLID
  5
63A
330
1D1
100
AcDbEntity
  8
11100_LEFT_DIM
100
AcDbTrace
 10
234.312032458575
 20
70.49988362213579
 30
0.0
 11
234.312032458575
 21
69.33321695546912
 31
0.0
 12
230.812032458575
 22
69.91655028880245
 32
0.0
 13
230.812032458575
 23
69.91655028880245
 33
0.0
  0
MTEXT
  5
63B
330
1D1
100
AcDbEntity
  8
11100_LEFT_DIM
 62
     7
370
    18
100
AcDbMText
 10
235.487175207575
 20
72.16655028880246
 30
0.0
 40
3.5
 41
0.0
 71
     5
 72
     1
  1
\A1;9.4
 73
     1
 44
1.0
1001
ACAD
1000
MTEXTBEGIN
1070
    73
1070
     1
1070
    44
1040
1.0
1070
    74
1070
     0
1000
MTEXTEND
  0
POINT
  5
63C
330
1D1
100
AcDbEntity
  8
Defpoints
 62
     0
100
AcDbPoint
 10
240.162317956575
 20
98.95067586180219
 30
0.0
  0
POINT
  5
63D
330
1D1
100
AcDbEntity
  8
Defpoints
 62
     0
100
AcDbPoint
 10
230.812032458575
 20
143.8019659708024
 30
0.0
  0
POINT
  5
63E
330
1D1
100
AcDbEntity
  8
Defpoints
 62
     0
100
AcDbPoint
 10
230.812032458575
 20
69.91655028880245
 30
0.0
  0
ENDBLK
  5
1DC
330
1D1
100
AcDbEntity
  8
0
100
AcDbBlockEnd
  0
BLOCK
  5
1EA
330
1E0
100
AcDbEntity
  8
0
100
AcDbBlockBegin
  2
*D8
 70
     1
 10
0.0
 20
0.0
 30
0.0
  3
*D8
  1

  0
LINE
  5
63F
330
1E0
100
AcDbEntity
  8
11100_LEFT_DIM
 62
     7
370
    -2
100
AcDbLine
 10
240.162317956575
 20
98.8506758618022
 30
0.0
 11
240.162317956575
 21
77.91655028880246
 31
0.0
  0
LINE
  5
640
330
1E0
100
AcDbEntity
  8
11100_LEFT_DIM
 62
     7
370
    -2
100
AcDbLine
 10
233.0815927521474
 20
95.27427065579116
 30
0.0
 11
233.0815927521474
 21
77.91655028880246
 31
0.0
  0
LINE
  5
641
330
1E0
100
AcDbEntity
  8
11100_LEFT_DIM
370
    -2
100
AcDbLine
 10
243.6623179565749
 20
79.91655028880245
 30
0.0
 11
247.1623179565749
 21
79.91655028880245
 31
0.0
  0
LINE
  5
642
330
1E0
100
AcDbEntity
  8
11100_LEFT_DIM
370
    -2
100
AcDbLine
 10
229.5815927521474
 20
79.91655028880245
 30
0.0
 11
226.0815927521474
 21
79.91655028880245
 31
0.0
  0
LINE
  5
643
330
1E0
100
AcDbEntity
  8
11100_LEFT_DIM
370
    -2
100
AcDbLine
 10
240.162317956575
 20
79.91655028880245
 30
0.0
 11
233.0815927521474
 21
79.91655028880245
 31
0.0
  0
SOLID
  5
644
330
1E0
100
AcDbEntity
  8
11100_LEFT_DIM
100
AcDbTrace
 10
243.6623179565749
 20
80.4998836221358
 30
0.0
 11
243.6623179565749
 21
79.33321695546912
 31
0.0
 12
240.162317956575
 22
79.91655028880245
 32
0.0
 13
240.162317956575
 23
79.91655028880245
 33
0.0
  0
SOLID
  5
645
330
1E0
100
AcDbEntity
  8
11100_LEFT_DIM
100
AcDbTrace
 10
229.5815927521474
 20
80.4998836221358
 30
0.0
 11
229.5815927521474
 21
79.33321695546912
 31
0.0
 12
233.0815927521474
 22
79.91655028880245
 32
0.0
 13
233.0815927521474
 23
79.91655028880245
 33
0.0
  0
MTEXT
  5
646
330
1E0
100
AcDbEntity
  8
11100_LEFT_DIM
 62
     7
370
    18
100
AcDbMText
 10
236.6219553543612
 20
82.16655028880245
 30
0.0
 40
3.5
 41
0.0
 71
     5
 72
     1
  1
\A1;7.1
 73
     1
 44
1.0
1001
ACAD
1000
MTEXTBEGIN
1070
    73
1070
     1
1070
    44
1040
1.0
1070
    74
1070
     0
1000
MTEXTEND
  0
POINT
  5
647
330
1E0
100
AcDbEntity
  8
Defpoints
 62
     0
100
AcDbPoint
 10
240.162317956575
 20
98.8506758618022
 30
0.0
  0
POINT
  5
648
330
1E0
100
AcDbEntity
  8
Defpoints
 62
     0
100
AcDbPoint
 10
233.0815927521474
 20
95.27427065579116
 30
0.0
  0
POINT
  5
649
330
1E0
100
AcDbEntity
  8
Defpoints
 62
     0
100
AcDbPoint
 10
233.0815927521474
 20
79.91655028880245
 30
0.0
  0
ENDBLK
  5
1EB
330
1E0
100
AcDbEntity
  8
0
100
AcDbBlockEnd
  0
ENDSEC
  0
SECTION
  2
ENTITIES
  0
LINE
  5
2F
330
1F
100
AcDbEntity
  8
10000_FRONT
  6
Continuous
 62
     7
370
    35
100
AcDbLine
 10
111.0721356115752
 20
92.91655028880224
 30
0.0
 11
108.4561356115759
 21
92.91655028880224
 31
0.0
  0
LINE
  5
30
330
1F
100
AcDbEntity
  8
10000_FRONT
  6
Continuous
 62
     7
370
    35
100
AcDbLine
 10
123.1721356115756
 20
92.91655028880224
 30
0.0
 11
120.6721356115756
 21
92.91655028880224
 31
0.0
  0
LINE
  5
31
330
1F
100
AcDbEntity
  8
10000_FRONT
  6
Continuous
 62
     7
370
    35
100
AcDbLine
 10
195.122135611575
 20
92.91655028880224
 30
0.0
 11
192.2721356115753
 21
92.91655028880224
 31
0.0
  0
LINE
  5
32
330
1F
100
AcDbEntity
  8
10000_FRONT
  6
Continuous
 62
     7
370
    35
100
AcDbLine
 10
122.8221356115759
 20
144.3287486588024
 30
0.0
 11
122.8221356115759
 21
145.8019659708022
 31
0.0
  0
ARC
  5
33
330
1F
100
AcDbEntity
  8
10000_FRONT
  6
Continuous
 62
     7
370
    35
100
AcDbCircle
 10
122.8221356115759
 20
146.3019659708022
 30
0.0
 40
0.5000000000000071
100
AcDbArc
 50
0.0
 51
270.0
  0
LINE
  5
34
330
1F
100
AcDbEntity
  8
10000_FRONT
  6
Continuous
 62
     7
370
    35
100
AcDbLine
 10
123.3221356115755
 20
146.3019659708022
 30
0.0
 11
124.4221356115756
 21
146.3019659708022
 31
0.0
  0
ARC
  5
35
330
1F
100
AcDbEntity
  8
10000_FRONT
  6
Continuous
 62
     7
370
    35
100
AcDbCircle
 10
124.9221356115752
 20
146.3019659708022
 30
0.0
 40
0.5000000000000071
100
AcDbArc
 50
270.0
 51
180.0
  0
LINE
  5
36
330
1F
100
AcDbEntity
  8
10000_FRONT
  6
Continuous
 62
     7
370
    35
100
AcDbLine
 10
124.9221356115752
 20
145.8019659708022
 30
0.0
 11
124.9221356115752
 21
144.3287486588024
 31
0.0
  0
ARC
  5
37
330
1F
100
AcDbEntity
  8
10000_FRONT
  6
Continuous
 62
     7
370
    35
100
AcDbCircle
 10
125.7721356115755
 20
143.8019659708022
 30
0.0
 40
1.000000000000005
100
AcDbArc
 50
148.211669382901
 51
180.0
  0
LINE
  5
38
330
1F
100
AcDbEntity
  8
10000_FRONT
  6
Continuous
 62
     7
370
    35
100
AcDbLine
 10
124.7721356115753
 20
143.8019659708022
 30
0.0
 11
129.9721356115751
 21
143.8019659708022
 31
0.0
  0
LINE
  5
39
330
1F
100
AcDbEntity
  8
10000_FRONT
  6
Continuous
 62
     7
370
    35
100
AcDbLine
 10
129.9721356115751
 20
143.8019659708022
 30
0.0
 11
129.9721356115751
 21
167.4248924698022
 31
0.0
  0
ARC
  5
3A
330
1F
100
AcDbEntity
  8
10000_FRONT
  6
Continuous
 62
     7
370
    35
100
AcDbCircle
 10
127.9721356115758
 20
167.4248924698022
 30
0.0
 40
2.000000000000002
100
AcDbArc
 50
0.0
 51
90.0
  0
LINE
  5
3B
330
1F
100
AcDbEntity
  8
10000_FRONT
  6
Continuous
 62
     7
370
    35
100
AcDbLine
 10
104.3221356115757
 20
169.4248924698024
 30
0.0
 11
127.9721356115758
 21
169.4248924698024
 31
0.0
  0
ARC
  5
3C
330
1F
100
AcDbEntity
  8
10000_FRONT
  6
Continuous
 62
     7
370
    35
100
AcDbCircle
 10
104.3221356115757
 20
167.4248924698022
 30
0.0
 40
1.999999999999992
100
AcDbArc
 50
90.0
 51
180.0
  0
LINE
  5
3D
330
1F
100
AcDbEntity
  8
10000_FRONT
  6
Continuous
 62
     7
370
    35
100
AcDbLine
 10
102.3221356115753
 20
167.4248924698022
 30
0.0
 11
102.3221356115753
 21
143.8019659708022
 31
0.0
  0
LINE
  5
3E
330
1F
100
AcDbEntity
  8
10000_FRONT
  6
Continuous
 62
     7
370
    35
100
AcDbLine
 10
102.3221356115753
 20
143.8019659708022
 30
0.0
 11
122.9721356115758
 21
143.8019659708022
 31
0.0
  0
ARC
  5
3F
330
1F
100
AcDbEntity
  8
10000_FRONT
  6
Continuous
 62
     7
370
    35
100
AcDbCircle
 10
121.9721356115756
 20
143.8019659708022
 30
0.0
 40
1.000000000000005
100
AcDbArc
 50
0.0
 51
31.78833061709898
  0
LINE
  5
40
330
1F
100
AcDbEntity
  8
10000_FRONT
  6
Continuous
 62
     7
370
    35
100
AcDbLine
 10
102.3221356115753
 20
143.8019659708022
 30
0.0
 11
102.3221356115753
 21
97.77696216780235
 31
0.0
  0
ARC
  5
41
330
1F
100
AcDbEntity
  8
10000_FRONT
  6
Continuous
 62
     7
370
    35
100
AcDbCircle
 10
104.3210854665753
 20
97.77801341680245
 30
0.0
 40
1.998950131956323
100
AcDbArc
 50
180.0301318845002
 51
270.030100225003
  0
LINE
  5
42
330
1F
100
AcDbEntity
  8
10000_FRONT
  6
Continuous
 62
     7
370
    35
100
AcDbLine
 10
104.3221356115757
 20
95.77906356080234
 30
0.0
 11
107.4561356115757
 21
95.77906356080234
 31
0.0
  0
LINE
  5
43
330
1F
100
AcDbEntity
  8
10000_FRONT
  6
Continuous
 62
     7
370
    35
100
AcDbLine
 10
107.4561356115757
 20
95.77906356080234
 30
0.0
 11
112.0721356115755
 21
95.77906356080234
 31
0.0
  0
LINE
  5
44
330
1F
100
AcDbEntity
  8
10000_FRONT
  6
Continuous
 62
     7
370
    35
100
AcDbLine
 10
112.0721356115755
 20
95.77906356080234
 30
0.0
 11
119.6721356115754
 21
95.77906356080234
 31
0.0
  0
LINE
  5
45
330
1F
100
AcDbEntity
  8
10000_FRONT
  6
Continuous
 62
     7
370
    35
100
AcDbLine
 10
119.6721356115754
 20
95.77906356080234
 30
0.0
 11
124.1721356115758
 21
95.77906356080234
 31
0.0
  0
LINE
  5
46
330
1F
100
AcDbEntity
  8
10000_FRONT
  6
Continuous
 62
     7
370
    35
100
AcDbLine
 10
124.1721356115758
 20
95.77906356080234
 30
0.0
 11
191.2721356115751
 21
95.77906356080234
 31
0.0
  0
LINE
  5
47
330
1F
100
AcDbEntity
  8
10000_FRONT
  6
Continuous
 62
     7
370
    35
100
AcDbLine
 10
191.2721356115751
 20
95.77906356080234
 30
0.0
 11
195.122135611575
 21
95.77906356080234
 31
0.0
  0
LINE
  5
48
330
1F
100
AcDbEntity
  8
10000_FRONT
  6
Continuous
 62
     7
370
    35
100
AcDbLine
 10
195.122135611575
 20
138.8019659708022
 30
0.0
 11
195.122135611575
 21
95.77906356080234
 31
0.0
  0
ARC
  5
49
330
1F
100
AcDbEntity
  8
10000_FRONT
  6
Continuous
 62
     7
370
    35
100
AcDbCircle
 10
193.1221356115757
 20
138.8019659708022
 30
0.0
 40
2.000000000000011
100
AcDbArc
 50
0.0
 51
90.0
  0
LINE
  5
4A
330
1F
100
AcDbEntity
  8
10000_FRONT
  6
Continuous
 62
     7
370
    35
100
AcDbLine
 10
193.1221356115757
 20
140.8019659708022
 30
0.0
 11
180.7721356115755
 21
140.8019659708022
 31
0.0
  0
ARC
  5
4B
330
1F
100
AcDbEntity
  8
10000_FRONT
  6
Continuous
 62
     7
370
    35
100
AcDbCircle
 10
180.7721356115755
 20
138.8019659708022
 30
0.0
 40
2.000000000000011
100
AcDbArc
 50
90.0
 51
180.0
  0
LINE
  5
4C
330
1F
100
AcDbEntity
  8
10000_FRONT
  6
Continuous
 62
     7
370
    35
100
AcDbLine
 10
178.7721356115751
 20
138.8019659708022
 30
0.0
 11
178.7721356115751
 21
121.4019659708024
 31
0.0
  0
ARC
  5
4D
330
1F
100
AcDbEntity
  8
10000_FRONT
  6
Continuous
 62
     7
370
    35
100
AcDbCircle
 10
176.7721356115758
 20
121.4019659708024
 30
0.0
 40
1.999999999999992
100
AcDbArc
 50
270.0
 51
0.0
  0
LINE
  5
4E
330
1F
100
AcDbEntity
  8
10000_FRONT
  6
Continuous
 62
     7
370
    35
100
AcDbLine
 10
176.7721356115758
 20
119.4019659708024
 30
0.0
 11
175.7721356115755
 21
119.4019659708024
 31
0.0
  0
ARC
  5
4F
330
1F
100
AcDbEntity
  8
10000_FRONT
  6
Continuous
 62
     7
370
    35
100
AcDbCircle
 10
175.7721356115755
 20
121.4019659708024
 30
0.0
 40
1.999999999999992
100
AcDbArc
 50
180.0
 51
270.0
  0
LINE
  5
50
330
1F
100
AcDbEntity
  8
10000_FRONT
  6
Continuous
 62
     7
370
    35
100
AcDbLine
 10
173.7721356115751
 20
121.4019659708024
 30
0.0
 11
173.7721356115751
 21
138.8019659708022
 31
0.0
  0
ARC
  5
51
330
1F
100
AcDbEntity
  8
10000_FRONT
  6
Continuous
 62
     7
370
    35
100
AcDbCircle
 10
171.7721356115758
 20
138.8019659708022
 30
0.0
 40
2.000000000000011
100
AcDbArc
 50
0.0
 51
90.0
  0
LINE
  5
52
330
1F
100
AcDbEntity
  8
10000_FRONT
  6
Continuous
 62
     7
370
    35
100
AcDbLine
 10
171.7721356115758
 20
140.8019659708022
 30
0.0
 11
156.9721356115756
 21
140.8019659708022
 31
0.0
  0
ARC
  5
53
330
1F
100
AcDbEntity
  8
10000_FRONT
  6
Continuous
 62
     7
370
    35
100
AcDbCircle
 10
156.9721356115756
 20
138.8019659708022
 30
0.0
 40
2.000000000000011
100
AcDbArc
 50
90.0
 51
180.0
  0
LINE
  5
54
330
1F
100
AcDbEntity
  8
10000_FRONT
  6
Continuous
 62
     7
370
    35
100
AcDbLine
 10
154.9721356115751
 20
138.8019659708022
 30
0.0
 11
154.9721356115751
 21
121.4019659708024
 31
0.0
  0
ARC
  5
55
330
1F
100
AcDbEntity
  8
10000_FRONT
  6
Continuous
 62
     7
370
    35
100
AcDbCircle
 10
152.9721356115758
 20
121.4019659708024
 30
0.0
 40
2.000000000000011
100
AcDbArc
 50
270.0
 51
0.0
  0
LINE
  5
56
330
1F
100
AcDbEntity
  8
10000_FRONT
  6
Continuous
 62
     7
370
    35
100
AcDbLine
 10
152.9721356115758
 20
119.4019659708024
 30
0.0
 11
151.9721356115756
 21
119.4019659708024
 31
0.0
  0
ARC
  5
57
330
1F
100
AcDbEntity
  8
10000_FRONT
  6
Continuous
 62
     7
370
    35
100
AcDbCircle
 10
151.9721356115756
 20
121.4019659708024
 30
0.0
 40
2.000000000000011
100
AcDbArc
 50
180.0
 51
270.0
  0
LINE
  5
58
330
1F
100
AcDbEntity
  8
10000_FRONT
  6
Continuous
 62
     7
370
    35
100
AcDbLine
 10
149.9721356115751
 20
121.4019659708024
 30
0.0
 11
149.9721356115751
 21
128.4019659708024
 31
0.0
  0
ARC
  5
59
330
1F
100
AcDbEntity
  8
10000_FRONT
  6
Continuous
 62
     7
370
    35
100
AcDbCircle
 10
147.9721356115758
 20
128.4019659708024
 30
0.0
 40
2.000000000000011
100
AcDbArc
 50
0.0
 51
90.0
  0
LINE
  5
5A
330
1F
100
AcDbEntity
  8
10000_FRONT
  6
Continuous
 62
     7
370
    35
100
AcDbLine
 10
147.9721356115758
 20
130.4019659708024
 30
0.0
 11
131.9721356115756
 21
130.4019659708024
 31
0.0
  0
ARC
  5
5B
330
1F
100
AcDbEntity
  8
10000_FRONT
  6
Continuous
 62
     7
370
    35
100
AcDbCircle
 10
131.9721356115756
 20
132.4019659708024
 30
0.0
 40
2.000000000000002
100
AcDbArc
 50
180.0
 51
270.0
  0
LINE
  5
5C
330
1F
100
AcDbEntity
  8
10000_FRONT
  6
Continuous
 62
     7
370
    35
100
AcDbLine
 10
129.9721356115751
 20
132.4019659708024
 30
0.0
 11
129.9721356115751
 21
143.8019659708022
 31
0.0
  0
ARC
  5
5D
330
1F
100
AcDbEntity
  8
10000_FRONT
  6
Continuous
 62
     7
370
    35
100
AcDbCircle
 10
125.7721356115755
 20
143.8019659708022
 30
0.0
 40
1.000000000000005
100
AcDbArc
 50
180.0
 51
211.7883306170989
  0
LINE
  5
5E
330
1F
100
AcDbEntity
  8
10000_FRONT
  6
Continuous
 62
     7
370
    35
100
AcDbLine
 10
124.9221356115752
 20
143.2751832828023
 30
0.0
 11
124.9221356115752
 21
141.8019659708025
 31
0.0
  0
ARC
  5
5F
330
1F
100
AcDbEntity
  8
10000_FRONT
  6
Continuous
 62
     7
370
    35
100
AcDbCircle
 10
124.9221356115752
 20
141.3019659708022
 30
0.0
 40
0.4999999999999983
100
AcDbArc
 50
180.0
 51
90.0
  0
LINE
  5
60
330
1F
100
AcDbEntity
  8
10000_FRONT
  6
Continuous
 62
     7
370
    35
100
AcDbLine
 10
124.4221356115756
 20
141.3019659708022
 30
0.0
 11
123.3221356115755
 21
141.3019659708022
 31
0.0
  0
ARC
  5
61
330
1F
100
AcDbEntity
  8
10000_FRONT
  6
Continuous
 62
     7
370
    35
100
AcDbCircle
 10
122.8221356115759
 20
141.3019659708022
 30
0.0
 40
0.500000000000025
100
AcDbArc
 50
90.0
 51
0.0
  0
LINE
  5
62
330
1F
100
AcDbEntity
  8
10000_FRONT
  6
Continuous
 62
     7
370
    35
100
AcDbLine
 10
122.8221356115759
 20
141.8019659708025
 30
0.0
 11
122.8221356115759
 21
143.2751832828023
 31
0.0
  0
ARC
  5
63
330
1F
100
AcDbEntity
  8
10000_FRONT
  6
Continuous
 62
     7
370
    35
100
AcDbCircle
 10
121.9721356115756
 20
143.8019659708022
 30
0.0
 40
0.999999999999996
100
AcDbArc
 50
328.211669382901
 51
0.0
  0
ARC
  5
64
330
1F
100
AcDbEntity
  8
10000_FRONT
  6
Continuous
 62
     7
370
    35
100
AcDbCircle
 10
191.2741869055751
 20
94.78109321980239
 30
0.0
 40
0.9979724490272518
100
AcDbArc
 50
0.3952306331998599
 51
90.11776937580298
  0
ARC
  5
65
330
1F
100
AcDbEntity
  8
10000_FRONT
  6
Continuous
 62
     7
370
    35
100
AcDbCircle
 10
107.4581869055757
 20
94.78109321980218
 30
0.0
 40
0.9979724490272532
100
AcDbArc
 50
0.3952306331998599
 51
90.11776937580298
  0
ARC
  5
66
330
1F
100
AcDbEntity
  8
10000_FRONT
  6
Continuous
 62
     7
370
    35
100
AcDbCircle
 10
112.0690335615754
 20
94.78215342480234
 30
0.0
 40
0.9969149614351159
100
AcDbArc
 50
89.82171534339903
 51
179.6652846476002
  0
LINE
  5
67
330
1F
100
AcDbEntity
  8
10000_FRONT
  6
Continuous
 62
     7
370
    35
100
AcDbLine
 10
111.0721356115752
 20
94.78797725480239
 30
0.0
 11
111.0721356115752
 21
92.91655028880224
 31
0.0
  0
LINE
  5
68
330
1F
100
AcDbEntity
  8
10000_FRONT
  6
Continuous
 62
     7
370
    35
100
AcDbLine
 10
108.4561356115759
 20
92.91655028880224
 30
0.0
 11
108.4561356115759
 21
94.78797725480239
 31
0.0
  0
LINE
  5
69
330
1F
100
AcDbEntity
  8
10000_FRONT
  6
Continuous
 62
     7
370
    35
100
AcDbLine
 10
123.1721356115756
 20
94.78797725480239
 30
0.0
 11
123.1721356115756
 21
92.91655028880224
 31
0.0
  0
ARC
  5
6A
330
1F
100
AcDbEntity
  8
10000_FRONT
  6
Continuous
 62
     7
370
    35
100
AcDbCircle
 10
124.1690335615758
 20
94.78215342480234
 30
0.0
 40
0.9969149614351159
100
AcDbArc
 50
89.82171534339903
 51
179.6652846476002
  0
ARC
  5
6B
330
1F
100
AcDbEntity
  8
10000_FRONT
  6
Continuous
 62
     7
370
    35
100
AcDbCircle
 10
119.6741869055754
 20
94.78109321980218
 30
0.0
 40
0.9979724490272619
100
AcDbArc
 50
0.3952306331998599
 51
90.11776937580298
  0
LINE
  5
6C
330
1F
100
AcDbEntity
  8
10000_FRONT
  6
Continuous
 62
     7
370
    35
100
AcDbLine
 10
120.6721356115756
 20
92.91655028880224
 30
0.0
 11
120.6721356115756
 21
94.78797725480239
 31
0.0
  0
LINE
  5
6D
330
1F
100
AcDbEntity
  8
10000_FRONT
  6
Continuous
 62
     7
370
    35
100
AcDbLine
 10
192.2721356115753
 20
92.91655028880224
 30
0.0
 11
192.2721356115753
 21
94.78797725480239
 31
0.0
  0
LINE
  5
6E
330
1F
100
AcDbEntity
  8
10000_FRONT
  6
Continuous
 62
     7
370
    35
100
AcDbLine
 10
195.122135611575
 20
95.77906356080234
 30
0.0
 11
195.122135611575
 21
92.91655028880224
 31
0.0
  0
LINE
  5
71
330
1F
100
AcDbEntity
  8
11000_LEFT
  6
Continuous
 62
     7
370
    35
100
AcDbLine
 10
231.8120324585752
 20
143.8248924698023
 30
0.0
 11
231.8120324585752
 21
167.4248924698022
 31
0.0
  0
LINE
  5
72
330
1F
100
AcDbEntity
  8
11000_LEFT
  6
Continuous
 62
     7
370
    35
100
AcDbLine
 10
233.9224760325758
 20
97.82279107680231
 30
0.0
 11
231.8120324585752
 21
143.8248924698023
 31
0.0
  0
LINE
  5
73
330
1F
100
AcDbEntity
  8
11000_LEFT
  6
Continuous
 62
     7
370
    35
100
AcDbLine
 10
230.812032458575
 20
143.8019659708024
 30
0.0
 11
232.9235267285751
 21
97.77696216780235
 31
0.0
  0
LINE
  5
74
330
1F
100
AcDbEntity
  8
11000_LEFT
  6
Continuous
 62
     7
370
    35
100
AcDbLine
 10
230.812032458575
 20
167.4248924698022
 30
0.0
 11
230.812032458575
 21
143.8019659708024
 31
0.0
  0
LINE
  5
75
330
1F
100
AcDbEntity
  8
11000_LEFT
  6
Continuous
 62
     7
370
    35
100
AcDbLine
 10
230.812032458575
 20
169.4248924698024
 30
0.0
 11
231.8120324585752
 21
169.4248924698024
 31
0.0
  0
LINE
  5
76
330
1F
100
AcDbEntity
  8
11000_LEFT
  6
Continuous
 62
     7
370
    35
100
AcDbLine
 10
231.8120324585752
 20
169.4248924698024
 30
0.0
 11
231.8120324585752
 21
167.4248924698022
 31
0.0
  0
LINE
  5
77
330
1F
100
AcDbEntity
  8
11000_LEFT
  6
Continuous
 62
     7
370
    35
100
AcDbLine
 10
230.812032458575
 20
167.4248924698022
 30
0.0
 11
230.812032458575
 21
169.4248924698024
 31
0.0
  0
LINE
  5
79
330
1F
100
AcDbEntity
  8
11000_LEFT
  6
Continuous
 62
     7
370
    35
100
AcDbLine
 10
233.9224760325758
 20
97.82279107680231
 30
0.0
 11
234.014133851575
 21
95.8248924698023
 31
0.0
  0
LINE
  5
7A
330
1F
100
AcDbEntity
  8
11000_LEFT
  6
Continuous
 62
     7
370
    35
100
AcDbLine
 10
233.0151845475755
 20
95.77906356080234
 30
0.0
 11
232.9235267285751
 21
97.77696216780235
 31
0.0
  0
ARC
  5
7C
330
1F
100
AcDbEntity
  8
11000_LEFT
  6
Continuous
 62
     7
370
    35
100
AcDbCircle
 10
236.012032458576
 20
95.91655028880243
 30
0.0
 40
2.999999999999021
100
AcDbArc
 50
182.6267231175
 51
202.0979437520001
  0
ARC
  5
7D
330
1F
100
AcDbEntity
  8
11000_LEFT
  6
Continuous
 62
     7
370
    35
100
AcDbCircle
 10
236.012032458576
 20
95.91655028880243
 30
0.0
 40
1.999999999999488
100
AcDbArc
 50
182.6267231175
 51
212.6267231174994
  0
LINE
  5
7E
330
1F
100
AcDbEntity
  8
11000_LEFT
  6
Continuous
 62
     7
370
    35
100
AcDbLine
 10
237.5125246195748
 20
94.59423290080236
 30
0.0
 11
239.2226253365752
 21
99.29269600480234
 31
0.0
  0
LINE
  5
7F
330
1F
100
AcDbEntity
  8
11000_LEFT
  6
Continuous
 62
     7
370
    35
100
AcDbLine
 10
240.162317956575
 20
98.95067586180219
 30
0.0
 11
238.3943416785755
 21
94.0932009588023
 31
0.0
  0
LINE
  5
80
330
1F
100
AcDbEntity
  8
11000_LEFT
  6
Continuous
 62
     7
370
    35
100
AcDbLine
 10
239.2226253365752
 20
99.29269600480234
 30
0.0
 11
240.162317956575
 21
98.95067586180219
 31
0.0
  0
ARC
  5
81
330
1F
100
AcDbEntity
  8
11000_LEFT
  6
Continuous
 62
     7
370
    35
100
AcDbCircle
 10
236.012032458576
 20
95.91655028880243
 30
0.0
 40
2.999999999999998
100
AcDbArc
 50
202.0979437520001
 51
322.5706205813021
  0
ARC
  5
82
330
1F
100
AcDbEntity
  8
11000_LEFT
  6
Continuous
 62
     7
370
    35
100
AcDbCircle
 10
236.012032458576
 20
95.91655028880243
 30
0.0
 40
2.000000000000019
100
AcDbArc
 50
212.6267231174994
 51
318.6116986482992
  0
LWPOLYLINE
  5
15A
330
1F
100
AcDbEntity
  8
90200_FRAME_SIZE
100
AcDbPolyline
 90
        4
 70
     1
 43
0.0
 10
0.0
 20
0.0
 10
330.0000000000001
 20
0.0
 10
330.0000000000001
 20
240.0
 10
0.0
 20
240.0000000000001
1001
GENIUS_GENREC_14
1002
{
1000
PYDIR
1011
0.0
1021
240.0
1031
0.0
1002
}
1002
{
1000
PXDIR
1011
330.0000000000001
1021
0.0
1031
0.0
1002
}
1002
{
1000
PORI
1011
0.0
1021
0.0
1031
0.0
1002
}
1002
{
1000
PINS
1011
0.0
1021
0.0
1031
0.0
1002
}
1002
{
1000
HVAL
1000
240
1002
}
1002
{
1000
H
1070
     2
1002
}
1002
{
1000
WVAL
1000
330
1002
}
1002
{
1000
W
1070
     2
1002
}
1002
{
1000
C
1070
     1
1002
}
1001
GENIUS_GENOBJ-N-REC_13
1002
{
1000
OWNER
1000
GEN
1002
}
1001
GENIUS_GENODEF_13
1002
{
1000
HIER
1070
     0
1002
}
1002
{
1000
MANEDIT
1070
     0
1002
}
1002
{
1000
NOSEL
1070
     0
1002
}
1002
{
1000
BEHIND
1070
     0
1002
}
1002
{
1000
OTHER
1070
     0
1002
}
1002
{
1000
REACTOR
1002
}
  0
LWPOLYLINE
  5
15C
330
1F
100
AcDbEntity
  8
90100_FRAME_THICK
100
AcDbPolyline
 90
        4
 70
     1
 43
0.0
 10
16.50000000000011
 20
15.0
 10
313.5000000000001
 20
15.0
 10
313.5000000000001
 20
225.0
 10
16.50000000000011
 20
225.0
1001
GENIUS_GENREC_14
1002
{
1000
PYDIR
1011
16.50000000000011
1021
225.0
1031
0.0
1002
}
1002
{
1000
PXDIR
1011
313.5000000000001
1021
15.0
1031
0.0
1002
}
1002
{
1000
PORI
1011
16.50000000000011
1021
15.0
1031
0.0
1002
}
1002
{
1000
PINS
1011
16.50000000000011
1021
15.0
1031
0.0
1002
}
1002
{
1000
HVAL
1000
210
1002
}
1002
{
1000
H
1070
     2
1002
}
1002
{
1000
WVAL
1000
297
1002
}
1002
{
1000
W
1070
     2
1002
}
1002
{
1000
C
1070
     1
1002
}
1001
GENIUS_GENODEF_13
1002
{
1000
HIER
1070
     0
1002
}
1002
{
1000
MANEDIT
1070
     0
1002
}
1002
{
1000
NOSEL
1070
     0
1002
}
1002
{
1000
BEHIND
1070
     0
1002
}
1002
{
1000
OTHER
1070
     0
1002
}
1002
{
1000
REACTOR
1002
}
1001
GENIUS_GENOBJ-N-REC_13
1002
{
1000
OWNER
1000
GEN
1002
}
  0
LWPOLYLINE
  5
15E
330
1F
100
AcDbEntity
  8
90000_FRAME_THIN
100
AcDbPolyline
 90
        4
 70
     1
 43
0.0
 10
21.50000000000011
 20
20.0
 10
308.5000000000001
 20
20.0
 10
308.5000000000001
 20
220.0
 10
21.50000000000011
 20
220.0
1001
GENIUS_GENREC_14
1002
{
1000
PYDIR
1011
16.50000000000011
1021
225.0
1031
0.0
1002
}
1002
{
1000
PXDIR
1011
313.5000000000001
1021
15.0
1031
0.0
1002
}
1002
{
1000
PORI
1011
16.50000000000011
1021
15.0
1031
0.0
1002
}
1002
{
1000
PINS
1011
16.50000000000011
1021
15.0
1031
0.0
1002
}
1002
{
1000
HVAL
1000
210
1002
}
1002
{
1000
H
1070
     2
1002
}
1002
{
1000
WVAL
1000
297
1002
}
1002
{
1000
W
1070
     2
1002
}
1002
{
1000
C
1070
     1
1002
}
1001
GENIUS_GENODEF_13
1002
{
1000
HIER
1070
     0
1002
}
1002
{
1000
MANEDIT
1070
     0
1002
}
1002
{
1000
NOSEL
1070
     0
1002
}
1002
{
1000
BEHIND
1070
     0
1002
}
1002
{
1000
OTHER
1070
     0
1002
}
1002
{
1000
REACTOR
1002
}
1001
GENIUS_GENOBJ-N-REC_13
1002
{
1000
OWNER
1000
GEN
1002
}
  0
INSERT
  5
165
330
1F
100
AcDbEntity
  8
0
100
AcDbBlockReference
 66
     1
  2
Title_A4L
 10
303.5000000000001
 20
25.0
 30
0.0
  0
ATTRIB
  5
166
330
165
100
AcDbEntity
  8
92000_TITLE
100
AcDbText
 10
186.5000000000005
 20
26.75
 30
0.0
 40
2.5
  1

 72
     1
 11
186.5000000000005
 21
28.0
 31
0.0
100
AcDbAttribute
  2
DATUM
 70
     0
 74
     2
  0
ATTRIB
  5
167
330
165
100
AcDbEntity
  8
92000_TITLE
100
AcDbText
 10
211.5000000000005
 20
26.75
 30
0.0
 40
2.5
  1

 72
     1
 11
211.5000000000005
 21
28.0
 31
0.0
100
AcDbAttribute
  2
NAME
 70
     0
 74
     2
  0
ATTRIB
  5
168
330
165
100
AcDbEntity
  8
92000_TITLE
100
AcDbText
 10
221.6250000000006
 20
37.25000000000011
 30
0.0
 40
3.5
  1
3RW4900_00002676_000_ALL
 72
     1
 11
261.0000000000006
 21
39.00000000000011
 31
0.0
100
AcDbAttribute
  2
ZEICHNUNGSNAME
 70
     0
 74
     2
  0
ATTRIB
  5
169
330
165
100
AcDbEntity
  8
92000_TITLE
100
AcDbText
 10
216.833333333334
 20
31.75000000000011
 30
0.0
 40
2.5
  1
Plombierabdeckung für Sanftst. 3RW40 
 72
     1
 11
261.0000000000006
 21
33.00000000000011
 31
0.0
100
AcDbAttribute
  2
ARTIKELNAME
 70
     0
 74
     2
  0
SEQEND
  5
16A
330
165
100
AcDbEntity
  8
0
  0
DIMENSION
  5
179
330
1F
100
AcDbEntity
  8
10100_FRONT_DIM
 62
     7
370
    18
100
AcDbDimension
  2
*D2
 10
195.122135611575
 20
79.91655028880223
 30
0.0
 11
148.7221356113101
 21
82.16655028880223
 31
0.0
 70
    32
 71
     5
 42
92.8000000005297
  3
H035
100
AcDbAlignedDimension
 13
102.3221356110453
 23
97.77696216778842
 33
0.0
 14
195.122135611575
 24
92.91655028880224
 34
0.0
100
AcDbRotatedDimension
1001
ACAD
1000
DSTYLE
1002
{
1070
    40
1040
1.0
1070
   271
1070
     1
1002
}
  0
DIMENSION
  5
186
330
1F
100
AcDbEntity
  8
10100_FRONT_DIM
 62
     7
370
    18
100
AcDbDimension
  2
*D3
 10
79.32213561157526
 20
92.91655028880224
 30
0.0
 11
77.07213561157526
 21
131.1707213793023
 31
0.0
 70
    32
 71
     5
 42
76.50834218100022
  3
H035
100
AcDbAlignedDimension
 13
104.3221356115757
 23
169.4248924698024
 33
0.0
 14
108.4561356115759
 24
92.91655028880224
 34
0.0
 50
90.0
100
AcDbRotatedDimension
1001
ACAD
1000
DSTYLE
1002
{
1070
    40
1040
1.0
1070
   271
1070
     1
1002
}
  0
DIMENSION
  5
194
330
1F
100
AcDbEntity
  8
10100_FRONT_DIM
 62
     7
370
    18
100
AcDbDimension
  2
*D4
 10
208.1009216872072
 20
92.81655028880225
 30
0.0
 11
205.8509216872072
 21
116.8092581298022
 31
0.0
 70
    32
 71
     5
 42
47.98541568200002
  3
H035
100
AcDbAlignedDimension
 13
193.1221356115757
 23
140.8019659708022
 33
0.0
 14
195.122135611575
 24
92.81655028880225
 34
0.0
 50
90.0
100
AcDbRotatedDimension
1001
ACAD
1000
DSTYLE
1002
{
1070
    40
1040
1.0
1070
   271
1070
     1
1002
}
  0
DIMENSION
  5
1AC
330
1F
100
AcDbEntity
  8
10100_FRONT_DIM
 62
     7
370
    18
100
AcDbDimension
  2
*D5
 10
89.32213561157526
 20
95.77906356080237
 30
0.0
 11
87.07213561157526
 21
132.6019780153023
 31
0.0
 70
    32
 71
     5
 42
73.64582890899987
  3
H035
100
AcDbAlignedDimension
 13
104.3221356115757
 23
169.4248924698022
 33
0.0
 14
104.3221356115757
 24
95.77906356080234
 34
0.0
 50
90.0
100
AcDbRotatedDimension
1001
ACAD
1000
DSTYLE
1002
{
1070
   271
1070
     1
1070
    40
1040
1.0
1002
}
  0
DIMENSION
  5
1BA
330
1F
100
AcDbEntity
  8
10100_FRONT_DIM
 62
     7
370
    18
100
AcDbDimension
  2
*D6
 10
176.2721356115755
 20
182.4248924698023
 30
0.0
 11
164.3721356115757
 21
184.6748924698024
 31
0.0
 70
    32
 71
     5
 42
23.79999999999995
  3
H035
100
AcDbAlignedDimension
 13
152.4721356115757
 23
119.4019659708024
 33
0.0
 14
176.2721356115755
 24
119.4019659708024
 34
0.0
100
AcDbRotatedDimension
1001
ACAD
1000
DSTYLE
1002
{
1070
    40
1040
1.0
1070
   271
1070
     1
1002
}
  0
DIMENSION
  5
1D0
330
1F
100
AcDbEntity
  8
11100_LEFT_DIM
 62
     7
370
    18
100
AcDbDimension
  2
*D7
 10
230.812032458575
 20
69.91655028880245
 30
0.0
 11
235.487175207575
 21
72.16655028880246
 31
0.0
 70
    32
 71
     5
 42
9.350285497999946
  3
H035
100
AcDbAlignedDimension
 13
240.162317956575
 23
98.95067586180219
 33
0.0
 14
230.812032458575
 24
143.8019659708024
 34
0.0
100
AcDbRotatedDimension
1001
ACAD
1000
DSTYLE
1002
{
1070
    40
1040
1.0
1070
   271
1070
     1
1002
}
  0
DIMENSION
  5
1DF
330
1F
100
AcDbEntity
  8
11100_LEFT_DIM
 62
     7
370
    18
100
AcDbDimension
  2
*D8
 10
233.0815927521474
 20
79.91655028880245
 30
0.0
 11
236.6219553543612
 21
82.16655028880245
 31
0.0
 70
    32
 71
     5
 42
7.080725204427549
  3
H035
100
AcDbAlignedDimension
 13
240.162317956575
 23
98.8506758618022
 33
0.0
 14
233.0815927521474
 24
95.27427065579116
 34
0.0
100
AcDbRotatedDimension
1001
ACAD
1000
DSTYLE
1002
{
1070
    40
1040
1.0
1070
   271
1070
     1
1002
}
  0
ENDSEC
  0
SECTION
  2
OBJECTS
  0
DICTIONARY
  5
C
330
0
100
AcDbDictionary
281
     1
  3
ACAD_COLOR
350
9A
  3
ACAD_GROUP
350
D
  3
ACAD_LAYOUT
350
1A
  3
ACAD_MATERIAL
350
85
  3
ACAD_MLINESTYLE
350
17
  3
ACAD_PLOTSETTINGS
350
19
  3
ACAD_PLOTSTYLENAME
350
E
  3
ACAD_TABLESTYLE
350
9B
  3
ACAD_VISUALSTYLE
350
89
  3
AcDbVariableDictionary
350
1DD
  3
DWGPROPS
350
679
  0
DICTIONARY
  5
531
330
2
100
AcDbDictionary
280
     1
281
     1
  3
ACAD_LAYERFILTERS
360
533
  3
ACLYDICTIONARY
360
532
  0
DICTIONARY
  5
9A
102
{ACAD_REACTORS
330
C
102
}
330
C
100
AcDbDictionary
281
     1
  0
DICTIONARY
  5
D
102
{ACAD_REACTORS
330
C
102
}
330
C
100
AcDbDictionary
281
     1
  0
DICTIONARY
  5
1A
102
{ACAD_REACTORS
330
C
102
}
330
C
100
AcDbDictionary
281
     1
  3
Layout1
350
1E
  3
Layout2
350
26
  3
Model
350
22
  0
DICTIONARY
  5
85
102
{ACAD_REACTORS
330
C
102
}
330
C
100
AcDbDictionary
281
     1
  3
ByBlock
350
87
  3
ByLayer
350
86
  3
Global
350
88
  0
DICTIONARY
  5
17
102
{ACAD_REACTORS
330
C
102
}
330
C
100
AcDbDictionary
281
     1
  3
Standard
350
18
  0
DICTIONARY
  5
19
102
{ACAD_REACTORS
330
C
102
}
330
C
100
AcDbDictionary
281
     1
  0
ACDBDICTIONARYWDFLT
  5
E
102
{ACAD_REACTORS
330
C
102
}
330
C
100
AcDbDictionary
281
     1
  3
Normal
350
F
100
AcDbDictionaryWithDefault
340
F
  0
DICTIONARY
  5
9B
102
{ACAD_REACTORS
330
C
102
}
330
C
100
AcDbDictionary
281
     1
  3
Standard
350
9C
  0
DICTIONARY
  5
89
102
{ACAD_REACTORS
330
C
102
}
330
C
100
AcDbDictionary
281
     1
  3
2dWireframe
350
8F
  3
3D Hidden
350
91
  3
3dWireframe
350
90
  3
Basic
350
8E
  3
Brighten
350
95
  3
ColorChange
350
99
  3
Conceptual
350
92
  3
Dim
350
94
  3
Facepattern
350
98
  3
Flat
350
8A
  3
FlatWithEdges
350
8B
  3
Gouraud
350
8C
  3
GouraudWithEdges
350
8D
  3
Linepattern
350
97
  3
Realistic
350
93
  3
Thicken
350
96
  0
DICTIONARY
  5
1DD
102
{ACAD_REACTORS
330
C
102
}
330
C
100
AcDbDictionary
281
     1
  3
CTABLESTYLE
350
1DE
  3
DIMASSOC
350
64C
  3
INDEXCTL
350
64B
  3
SORTENTS
350
64A
  0
XRECORD
  5
679
102
{ACAD_REACTORS
330
C
102
}
330
C
100
AcDbXrecord
280
     1
  1
DWGPROPS COOKIE
  2

  3

  4

  6

  7

  8
adfize1
  9

300
=
301
=
302
=
303
=
304
=
305
=
306
=
307
=
308
=
309
=
 40
0.1725540277777778
 41
2454265.629306609
 42
2454434.472429896
  1

 90
        0
  0
DICTIONARY
  5
533
102
{ACAD_REACTORS
330
531
102
}
330
531
100
AcDbDictionary
281
     1
  0
DICTIONARY
  5
532
102
{ACAD_REACTORS
330
531
102
}
330
531
100
AcDbDictionary
281
     1
1001
ACAD
1000
<All
  0
LAYOUT
  5
1E
102
{ACAD_XDICTIONARY
360
67A
102
}
102
{ACAD_REACTORS
330
1A
102
}
330
1A
100
AcDbPlotSettings
  1

  2
none_device
  4

  6

 40
0.0
 41
0.0
 42
0.0
 43
0.0
 44
0.0
 45
0.0
 46
0.0
 47
0.0
 48
0.0
 49
0.0
140
0.0
141
0.0
142
1.0
143
1.0
 70
   688
 72
     0
 73
     0
 74
     5
  7

 75
    16
147
1.0
148
0.0
149
0.0
100
AcDbLayout
  1
Layout1
 70
     1
 71
     1
 10
0.0
 20
0.0
 11
420.0
 21
297.0
 12
0.0
 22
0.0
 32
0.0
 14
1.000000000000000E+20
 24
1.000000000000000E+20
 34
1.000000000000000E+20
 15
-1.000000000000000E+20
 25
-1.000000000000000E+20
 35
-1.000000000000000E+20
146
0.0
 13
0.0
 23
0.0
 33
0.0
 16
1.0
 26
0.0
 36
0.0
 17
0.0
 27
1.0
 37
0.0
 76
     0
330
1B
  0
LAYOUT
  5
26
102
{ACAD_XDICTIONARY
360
67E
102
}
102
{ACAD_REACTORS
330
1A
102
}
330
1A
100
AcDbPlotSettings
  1

  2
none_device
  4

  6

 40
0.0
 41
0.0
 42
0.0
 43
0.0
 44
0.0
 45
0.0
 46
0.0
 47
0.0
 48
0.0
 49
0.0
140
0.0
141
0.0
142
1.0
143
1.0
 70
   688
 72
     0
 73
     0
 74
     5
  7

 75
    16
147
1.0
148
0.0
149
0.0
100
AcDbLayout
  1
Layout2
 70
     1
 71
     2
 10
0.0
 20
0.0
 11
0.0
 21
0.0
 12
0.0
 22
0.0
 32
0.0
 14
0.0
 24
0.0
 34
0.0
 15
0.0
 25
0.0
 35
0.0
146
0.0
 13
0.0
 23
0.0
 33
0.0
 16
1.0
 26
0.0
 36
0.0
 17
0.0
 27
1.0
 37
0.0
 76
     0
330
23
  0
LAYOUT
  5
22
102
{ACAD_XDICTIONARY
360
67C
102
}
102
{ACAD_REACTORS
330
1A
102
}
330
1A
100
AcDbPlotSettings
  1

  2
none_device
  4

  6

 40
0.0
 41
0.0
 42
0.0
 43
0.0
 44
0.0
 45
0.0
 46
0.0
 47
0.0
 48
0.0
 49
0.0
140
0.0
141
0.0
142
1.0
143
1.0
 70
  1712
 72
     0
 73
     0
 74
     0
  7

 75
     0
147
1.0
148
0.0
149
0.0
100
AcDbLayout
  1
Model
 70
     1
 71
     0
 10
0.0
 20
0.0
 11
0.0
 21
0.0
 12
0.0
 22
0.0
 32
0.0
 14
0.0
 24
0.0
 34
0.0
 15
29.7
 25
21.0
 35
0.0
146
0.0
 13
0.0
 23
0.0
 33
0.0
 16
1.0
 26
0.0
 36
0.0
 17
0.0
 27
1.0
 37
0.0
 76
     0
330
1F
331
29
  0
MATERIAL
  5
87
102
{ACAD_XDICTIONARY
360
656
102
}
102
{ACAD_REACTORS
330
85
102
}
330
85
100
AcDbMaterial
  1
ByBlock
  0
MATERIAL
  5
86
102
{ACAD_XDICTIONARY
360
654
102
}
102
{ACAD_REACTORS
330
85
102
}
330
85
100
AcDbMaterial
  1
ByLayer
  0
MATERIAL
  5
88
102
{ACAD_XDICTIONARY
360
658
102
}
102
{ACAD_REACTORS
330
85
102
}
330
85
100
AcDbMaterial
  1
Global
  0
MLINESTYLE
  5
18
102
{ACAD_REACTORS
330
17
102
}
330
17
100
AcDbMlineStyle
  2
STANDARD
 70
     0
  3

 62
   256
 51
90.0
 52
90.0
 71
     2
 49
0.5
 62
   256
  6
BYLAYER
 49
-0.5
 62
   256
  6
BYLAYER
  0
ACDBPLACEHOLDER
  5
F
102
{ACAD_REACTORS
330
E
102
}
330
E
  0
TABLESTYLE
  5
9C
102
{ACAD_XDICTIONARY
360
680
102
}
102
{ACAD_REACTORS
330
9B
102
}
330
9B
100
AcDbTableStyle
  3
Standard
 70
     0
 71
     0
 40
1.5
 41
1.5
280
     0
281
     0
  7
Standard
140
4.5
170
     2
 62
     0
 63
     7
283
     0
274
    -2
284
     1
 64
     0
275
    -2
285
     1
 65
     0
276
    -2
286
     1
 66
     0
277
    -2
287
     1
 67
     0
278
    -2
288
     1
 68
     0
279
    -2
289
     1
 69
     0
  7
Standard
140
6.0
170
     5
 62
     0
 63
     7
283
     0
274
    -2
284
     1
 64
     0
275
    -2
285
     1
 65
     0
276
    -2
286
     1
 66
     0
277
    -2
287
     1
 67
     0
278
    -2
288
     1
 68
     0
279
    -2
289
     1
 69
     0
  7
Standard
140
4.5
170
     5
 62
     0
 63
     7
283
     0
274
    -2
284
     1
 64
     0
275
    -2
285
     1
 65
     0
276
    -2
286
     1
 66
     0
277
    -2
287
     1
 67
     0
278
    -2
288
     1
 68
     0
279
    -2
289
     1
 69
     0
  0
VISUALSTYLE
  5
8F
102
{ACAD_REACTORS
330
89
102
}
330
89
100
AcDbVisualStyle
  2
2dWireframe
 70
     4
 71
     0
 72
     2
 73
     0
 90
        0
 40
-0.6
 41
-30.0
 62
     5
 63
     7
 74
     1
 91
        4
 64
     7
 65
   257
 75
     1
175
     1
 42
1.0
 92
        0
 66
   257
 43
1.0
 76
     1
 77
     6
 78
     2
 67
     7
 79
     5
170
     0
171
     0
290
     0
174
     0
 93
        1
 44
0.0
173
     0
291
     0
 45
0.0
1001
ACAD
1000
AcDbSavedByObjectVersion
1070
     0
1000
AcDbSavedByObjectVersion
1070
     0
1000
AcDbSavedByObjectVersion
1070
     0
  0
VISUALSTYLE
  5
91
102
{ACAD_REACTORS
330
89
102
}
330
89
100
AcDbVisualStyle
  2
3D Hidden
 70
     6
 71
     1
 72
     2
 73
     2
 90
        0
 40
-0.6
 41
-30.0
 62
     5
 63
     7
 74
     2
 91
        2
 64
     7
 65
   257
 75
     2
175
     1
 42
40.0
 92
        0
 66
   257
 43
1.0
 76
     1
 77
     6
 78
     2
 67
     7
 79
     3
170
     0
171
     0
290
     0
174
     0
 93
        1
 44
0.0
173
     0
291
     0
 45
0.0
1001
ACAD
1000
AcDbSavedByObjectVersion
1070
     0
1000
AcDbSavedByObjectVersion
1070
     0
1000
AcDbSavedByObjectVersion
1070
     0
  0
VISUALSTYLE
  5
90
102
{ACAD_REACTORS
330
89
102
}
330
89
100
AcDbVisualStyle
  2
3dWireframe
 70
     5
 71
     0
 72
     2
 73
     0
 90
        0
 40
-0.6
 41
-30.0
 62
     5
 63
     7
 74
     1
 91
        4
 64
     7
 65
   257
 75
     1
175
     1
 42
1.0
 92
        0
 66
   257
 43
1.0
 76
     1
 77
     6
 78
     2
 67
     7
 79
     5
170
     0
171
     0
290
     0
174
     0
 93
        1
 44
0.0
173
     0
291
     0
 45
0.0
1001
ACAD
1000
AcDbSavedByObjectVersion
1070
     0
1000
AcDbSavedByObjectVersion
1070
     0
1000
AcDbSavedByObjectVersion
1070
     0
  0
VISUALSTYLE
  5
8E
102
{ACAD_REACTORS
330
89
102
}
330
89
100
AcDbVisualStyle
  2
Basic
 70
     7
 71
     1
 72
     0
 73
     1
 90
        0
 40
-0.6
 41
-30.0
 62
     5
 63
     7
 74
     0
 91
        4
 64
     7
 65
   257
 75
     1
175
     1
 42
1.0
 92
        8
 66
     7
 43
1.0
 76
     1
 77
     6
 78
     2
 67
     7
 79
     5
170
     0
171
     0
290
     0
174
     0
 93
        1
 44
0.0
173
     0
291
     1
 45
0.0
1001
ACAD
1000
AcDbSavedByObjectVersion
1070
     0
1000
AcDbSavedByObjectVersion
1070
     0
1000
AcDbSavedByObjectVersion
1070
     0
  0
VISUALSTYLE
  5
95
102
{ACAD_REACTORS
330
89
102
}
330
89
100
AcDbVisualStyle
  2
Brighten
 70
    12
 71
     2
 72
     2
 73
     0
 90
        0
 40
-0.6
 41
-30.0
 62
     5
 63
     7
 74
     1
 91
        4
 64
     7
 65
   257
 75
     1
175
     1
 42
1.0
 92
        8
 66
     7
 43
1.0
 76
     1
 77
     6
 78
     2
 67
     7
 79
     5
170
     0
171
     0
290
     0
174
     0
 93
        1
 44
50.0
173
     0
291
     1
 45
0.0
1001
ACAD
1000
AcDbSavedByObjectVersion
1070
     0
1000
AcDbSavedByObjectVersion
1070
     0
1000
AcDbSavedByObjectVersion
1070
     0
  0
VISUALSTYLE
  5
99
102
{ACAD_REACTORS
330
89
102
}
330
89
100
AcDbVisualStyle
  2
ColorChange
 70
    16
 71
     2
 72
     2
 73
     3
 90
        0
 40
-0.6
 41
-30.0
 62
     5
 63
     8
 74
     1
 91
        4
 64
     7
 65
   257
 75
     1
175
     1
 42
1.0
 92
        8
 66
     8
 43
1.0
 76
     1
 77
     6
 78
     2
 67
     7
 79
     5
170
     0
171
     0
290
     0
174
     0
 93
        1
 44
0.0
173
     0
291
     1
 45
0.0
1001
ACAD
1000
AcDbSavedByObjectVersion
1070
     0
1000
AcDbSavedByObjectVersion
1070
     0
1000
AcDbSavedByObjectVersion
1070
     0
  0
VISUALSTYLE
  5
92
102
{ACAD_REACTORS
330
89
102
}
330
89
100
AcDbVisualStyle
  2
Conceptual
 70
     9
 71
     3
 72
     2
 73
     0
 90
        0
 40
-0.6
 41
-30.0
 62
     5
 63
     7
 74
     2
 91
        2
 64
     7
 65
   257
 75
     1
175
     1
 42
40.0
 92
        8
 66
     7
 43
1.0
 76
     1
 77
     6
 78
     2
 67
     7
 79
     3
170
     0
171
     0
290
     0
174
     0
 93
        1
 44
0.0
173
     0
291
     0
 45
0.0
1001
ACAD
1000
AcDbSavedByObjectVersion
1070
     0
1000
AcDbSavedByObjectVersion
1070
     0
1000
AcDbSavedByObjectVersion
1070
     0
  0
VISUALSTYLE
  5
94
102
{ACAD_REACTORS
330
89
102
}
330
89
100
AcDbVisualStyle
  2
Dim
 70
    11
 71
     2
 72
     2
 73
     0
 90
        0
 40
-0.6
 41
-30.0
 62
     5
 63
     7
 74
     1
 91
        4
 64
     7
 65
   257
 75
     1
175
     1
 42
1.0
 92
        8
 66
     7
 43
1.0
 76
     1
 77
     6
 78
     2
 67
     7
 79
     5
170
     0
171
     0
290
     0
174
     0
 93
        1
 44
-50.0
173
     0
291
     1
 45
0.0
1001
ACAD
1000
AcDbSavedByObjectVersion
1070
     0
1000
AcDbSavedByObjectVersion
1070
     0
1000
AcDbSavedByObjectVersion
1070
     0
  0
VISUALSTYLE
  5
98
102
{ACAD_REACTORS
330
89
102
}
330
89
100
AcDbVisualStyle
  2
Facepattern
 70
    15
 71
     2
 72
     2
 73
     0
 90
        0
 40
-0.6
 41
-30.0
 62
     5
 63
     7
 74
     1
 91
        4
 64
     7
 65
   257
 75
     1
175
     1
 42
1.0
 92
        8
 66
     7
 43
1.0
 76
     1
 77
     6
 78
     2
 67
     7
 79
     5
170
     0
171
     0
290
     0
174
     0
 93
        1
 44
0.0
173
     0
291
     1
 45
0.0
1001
ACAD
1000
AcDbSavedByObjectVersion
1070
     0
1000
AcDbSavedByObjectVersion
1070
     0
1000
AcDbSavedByObjectVersion
1070
     0
  0
VISUALSTYLE
  5
8A
102
{ACAD_REACTORS
330
89
102
}
330
89
100
AcDbVisualStyle
  2
Flat
 70
     0
 71
     2
 72
     1
 73
     1
 90
        2
 40
-0.6
 41
30.0
 62
     5
 63
     7
 74
     0
 91
        4
 64
     7
 65
   257
 75
     1
175
     1
 42
1.0
 92
        8
 66
     7
 43
1.0
 76
     1
 77
     6
 78
     2
 67
     7
 79
     5
170
     0
171
     0
290
     0
174
     0
 93
       13
 44
0.0
173
     0
291
     1
 45
0.0
1001
ACAD
1000
AcDbSavedByObjectVersion
1070
     0
1000
AcDbSavedByObjectVersion
1070
     0
1000
AcDbSavedByObjectVersion
1070
     0
  0
VISUALSTYLE
  5
8B
102
{ACAD_REACTORS
330
89
102
}
330
89
100
AcDbVisualStyle
  2
FlatWithEdges
 70
     1
 71
     2
 72
     1
 73
     1
 90
        2
 40
-0.6
 41
30.0
 62
     5
 63
     7
 74
     1
 91
        4
 64
     7
 65
   257
 75
     1
175
     1
 42
1.0
 92
        0
 66
   257
 43
1.0
 76
     1
 77
     6
 78
     2
 67
     7
 79
     5
170
     0
171
     0
290
     0
174
     0
 93
       13
 44
0.0
173
     0
291
     1
 45
0.0
1001
ACAD
1000
AcDbSavedByObjectVersion
1070
     0
1000
AcDbSavedByObjectVersion
1070
     0
1000
AcDbSavedByObjectVersion
1070
     0
  0
VISUALSTYLE
  5
8C
102
{ACAD_REACTORS
330
89
102
}
330
89
100
AcDbVisualStyle
  2
Gouraud
 70
     2
 71
     2
 72
     2
 73
     1
 90
        2
 40
-0.6
 41
30.0
 62
     5
 63
     7
 74
     0
 91
        4
 64
     7
 65
   257
 75
     1
175
     1
 42
1.0
 92
        0
 66
     7
 43
1.0
 76
     1
 77
     6
 78
     2
 67
     7
 79
     5
170
     0
171
     0
290
     0
174
     0
 93
       13
 44
0.0
173
     0
291
     1
 45
0.0
1001
ACAD
1000
AcDbSavedByObjectVersion
1070
     0
1000
AcDbSavedByObjectVersion
1070
     0
1000
AcDbSavedByObjectVersion
1070
     0
  0
VISUALSTYLE
  5
8D
102
{ACAD_REACTORS
330
89
102
}
330
89
100
AcDbVisualStyle
  2
GouraudWithEdges
 70
     3
 71
     2
 72
     2
 73
     1
 90
        2
 40
-0.6
 41
30.0
 62
     5
 63
     7
 74
     1
 91
        4
 64
     7
 65
   257
 75
     1
175
     1
 42
1.0
 92
        0
 66
   257
 43
1.0
 76
     1
 77
     6
 78
     2
 67
     7
 79
     5
170
     0
171
     0
290
     0
174
     0
 93
       13
 44
0.0
173
     0
291
     1
 45
0.0
1001
ACAD
1000
AcDbSavedByObjectVersion
1070
     0
1000
AcDbSavedByObjectVersion
1070
     0
1000
AcDbSavedByObjectVersion
1070
     0
  0
VISUALSTYLE
  5
97
102
{ACAD_REACTORS
330
89
102
}
330
89
100
AcDbVisualStyle
  2
Linepattern
 70
    14
 71
     2
 72
     2
 73
     0
 90
        0
 40
-0.6
 41
-30.0
 62
     5
 63
     7
 74
     1
 91
        4
 64
     7
 65
   257
 75
     7
175
     7
 42
1.0
 92
        8
 66
     7
 43
1.0
 76
     1
 77
     6
 78
     2
 67
     7
 79
     5
170
     0
171
     0
290
     0
174
     0
 93
        1
 44
0.0
173
     0
291
     1
 45
0.0
1001
ACAD
1000
AcDbSavedByObjectVersion
1070
     0
1000
AcDbSavedByObjectVersion
1070
     0
1000
AcDbSavedByObjectVersion
1070
     0
  0
VISUALSTYLE
  5
93
102
{ACAD_REACTORS
330
89
102
}
330
89
100
AcDbVisualStyle
  2
Realistic
 70
     8
 71
     2
 72
     2
 73
     0
 90
        0
 40
-0.6
 41
-30.0
 62
     5
 63
     7
 74
     1
 91
        0
 64
     7
 65
   257
 75
     1
175
     1
 42
1.0
 92
        8
 66
     8
 43
1.0
 76
     1
 77
     6
 78
     2
 67
     7
 79
     5
170
     0
171
     0
290
     0
174
     0
 93
       13
 44
0.0
173
     0
291
     0
 45
0.0
1001
ACAD
1000
AcDbSavedByObjectVersion
1070
     0
1000
AcDbSavedByObjectVersion
1070
     0
1000
AcDbSavedByObjectVersion
1070
     0
  0
VISUALSTYLE
  5
96
102
{ACAD_REACTORS
330
89
102
}
330
89
100
AcDbVisualStyle
  2
Thicken
 70
    13
 71
     2
 72
     2
 73
     0
 90
        0
 40
-0.6
 41
-30.0
 62
     5
 63
     7
 74
     1
 91
        4
 64
     7
 65
   257
 75
     1
175
     1
 42
1.0
 92
       12
 66
     7
 43
1.0
 76
     1
 77
     6
 78
     2
 67
     7
 79
     5
170
     0
171
     0
290
     0
174
     0
 93
        1
 44
0.0
173
     0
291
     1
 45
0.0
1001
ACAD
1000
AcDbSavedByObjectVersion
1070
     0
1000
AcDbSavedByObjectVersion
1070
     0
1000
AcDbSavedByObjectVersion
1070
     0
  0
DICTIONARYVAR
  5
1DE
102
{ACAD_REACTORS
330
1DD
102
}
330
1DD
100
DictionaryVariables
280
     0
  1
STANDARD
  0
DICTIONARYVAR
  5
64C
102
{ACAD_REACTORS
330
1DD
102
}
330
1DD
100
DictionaryVariables
280
     0
  1
1
  0
DICTIONARYVAR
  5
64B
102
{ACAD_REACTORS
330
1DD
102
}
330
1DD
100
DictionaryVariables
280
     0
  1
0
  0
DICTIONARYVAR
  5
64A
102
{ACAD_REACTORS
330
1DD
102
}
330
1DD
100
DictionaryVariables
280
     0
  1
127
  0
DICTIONARY
  5
67A
330
1E
100
AcDbDictionary
280
     1
281
     1
  3
ACAD_XREC_ROUNDTRIP
360
67B
  0
DICTIONARY
  5
67E
330
26
100
AcDbDictionary
280
     1
281
     1
  3
ACAD_XREC_ROUNDTRIP
360
67F
  0
DICTIONARY
  5
67C
330
22
100
AcDbDictionary
280
     1
281
     1
  3
ACAD_XREC_ROUNDTRIP
360
67D
  0
DICTIONARY
  5
656
330
87
100
AcDbDictionary
280
     1
281
     1
  3
ACAD_XREC_ROUNDTRIP
360
657
  0
DICTIONARY
  5
654
330
86
100
AcDbDictionary
280
     1
281
     1
  3
ACAD_XREC_ROUNDTRIP
360
655
  0
DICTIONARY
  5
658
330
88
100
AcDbDictionary
280
     1
281
     1
  3
ACAD_XREC_ROUNDTRIP
360
659
  0
DICTIONARY
  5
680
330
9C
100
AcDbDictionary
280
     1
281
     1
  3
ACAD_XREC_ROUNDTRIP
360
681
  0
XRECORD
  5
67B
102
{ACAD_REACTORS
330
67A
102
}
330
67A
100
AcDbXrecord
280
     1
102
SHADEPLOT
 70
     0
102
SHADEPLOTRESLEVEL
 70
     2
102
SHADEPLOTCUSTOMDPI
 70
   300
  0
XRECORD
  5
67F
102
{ACAD_REACTORS
330
67E
102
}
330
67E
100
AcDbXrecord
280
     1
102
SHADEPLOT
 70
     0
102
SHADEPLOTRESLEVEL
 70
     2
102
SHADEPLOTCUSTOMDPI
 70
   300
  0
XRECORD
  5
67D
102
{ACAD_REACTORS
330
67C
102
}
330
67C
100
AcDbXrecord
280
     1
102
SHADEPLOT
 70
     0
102
SHADEPLOTRESLEVEL
 70
     2
102
SHADEPLOTCUSTOMDPI
 70
   300
  0
XRECORD
  5
657
102
{ACAD_REACTORS
330
656
102
}
330
656
100
AcDbXrecord
280
     1
102
MATERIAL
148
0.0
149
0.0
149
0.0
 93
        0
 94
       63
282
     0
 72
     1
 77
     1
171
     1
175
     1
179
     1
273
     0
  0
XRECORD
  5
655
102
{ACAD_REACTORS
330
654
102
}
330
654
100
AcDbXrecord
280
     1
102
MATERIAL
148
0.0
149
0.0
149
0.0
 93
        0
 94
       63
282
     0
 72
     1
 77
     1
171
     1
175
     1
179
     1
273
     0
  0
XRECORD
  5
659
102
{ACAD_REACTORS
330
658
102
}
330
658
100
AcDbXrecord
280
     1
102
MATERIAL
148
0.0
149
0.0
149
0.0
 93
        0
 94
       63
282
     0
 72
     1
 77
     1
171
     1
175
     1
179
     1
273
     0
  0
XRECORD
  5
681
102
{ACAD_REACTORS
330
680
102
}
330
680
100
AcDbXrecord
280
     1
102
ACAD_ROUNDTRIP_PRE2007_TABLESTYLE
 90
      512
 91
        0
  1

 92
      512
 93
        0
  2

 94
      512
 95
        0
  3

  0
ENDSEC
  0
EOF
