  0
SECTION
  2
HEADER
  9
$ACADVER
  1
AC1015
  9
$ACADMAINTVER
 70
    20
  9
$DWGCODEPAGE
  3
ANSI_1252
  9
$INSBASE
 10
0.0
 20
0.0
 30
0.0
  9
$EXTMIN
 10
-208.1030171023965
 20
79.79699785471542
 30
-0.0000000000000089
  9
$EXTMAX
 10
61.94112128204756
 20
279.8106543580194
 30
0.0000000000000064
  9
$LIMMIN
 10
0.0
 20
0.0
  9
$LIMMAX
 10
420.0
 20
297.0
  9
$ORTHOMODE
 70
     0
  9
$REGENMODE
 70
     1
  9
$FILLMODE
 70
     1
  9
$QTEXTMODE
 70
     0
  9
$MIRRTEXT
 70
     0
  9
$LTSCALE
 40
1.0
  9
$ATTMODE
 70
     1
  9
$TEXTSIZE
 40
2.5
  9
$TRACEWID
 40
1.0
  9
$TEXTSTYLE
  7
Standard
  9
$CLAYER
  8
0
  9
$CELTYPE
  6
ByLayer
  9
$CECOLOR
 62
   256
  9
$CELTSCALE
 40
1.0
  9
$DISPSILH
 70
     0
  9
$DIMSCALE
 40
1.0
  9
$DIMASZ
 40
2.5
  9
$DIMEXO
 40
0.625
  9
$DIMDLI
 40
3.75
  9
$DIMRND
 40
0.0
  9
$DIMDLE
 40
0.0
  9
$DIMEXE
 40
1.25
  9
$DIMTP
 40
0.0
  9
$DIMTM
 40
0.0
  9
$DIMTXT
 40
2.5
  9
$DIMCEN
 40
2.5
  9
$DIMTSZ
 40
0.0
  9
$DIMTOL
 70
     0
  9
$DIMLIM
 70
     0
  9
$DIMTIH
 70
     0
  9
$DIMTOH
 70
     0
  9
$DIMSE1
 70
     0
  9
$DIMSE2
 70
     0
  9
$DIMTAD
 70
     1
  9
$DIMZIN
 70
     8
  9
$DIMBLK
  1

  9
$DIMASO
 70
     1
  9
$DIMSHO
 70
     1
  9
$DIMPOST
  1

  9
$DIMAPOST
  1

  9
$DIMALT
 70
     0
  9
$DIMALTD
 70
     3
  9
$DIMALTF
 40
0.03937007874016
  9
$DIMLFAC
 40
1.0
  9
$DIMTOFL
 70
     1
  9
$DIMTVP
 40
0.0
  9
$DIMTIX
 70
     0
  9
$DIMSOXD
 70
     0
  9
$DIMSAH
 70
     0
  9
$DIMBLK1
  1

  9
$DIMBLK2
  1

  9
$DIMSTYLE
  2
ISO-25
  9
$DIMCLRD
 70
     0
  9
$DIMCLRE
 70
     0
  9
$DIMCLRT
 70
     0
  9
$DIMTFAC
 40
1.0
  9
$DIMGAP
 40
0.625
  9
$DIMJUST
 70
     0
  9
$DIMSD1
 70
     0
  9
$DIMSD2
 70
     0
  9
$DIMTOLJ
 70
     0
  9
$DIMTZIN
 70
     8
  9
$DIMALTZ
 70
     0
  9
$DIMALTTZ
 70
     0
  9
$DIMUPT
 70
     0
  9
$DIMDEC
 70
     2
  9
$DIMTDEC
 70
     2
  9
$DIMALTU
 70
     2
  9
$DIMALTTD
 70
     3
  9
$DIMTXSTY
  7
Standard
  9
$DIMAUNIT
 70
     0
  9
$DIMADEC
 70
     0
  9
$DIMALTRND
 40
0.0
  9
$DIMAZIN
 70
     0
  9
$DIMDSEP
 70
    44
  9
$DIMATFIT
 70
     3
  9
$DIMFRAC
 70
     0
  9
$DIMLDRBLK
  1

  9
$DIMLUNIT
 70
     2
  9
$DIMLWD
 70
    -2
  9
$DIMLWE
 70
    -2
  9
$DIMTMOVE
 70
     0
  9
$LUNITS
 70
     2
  9
$LUPREC
 70
     4
  9
$SKETCHINC
 40
1.0
  9
$FILLETRAD
 40
10.0
  9
$AUNITS
 70
     0
  9
$AUPREC
 70
     0
  9
$MENU
  1
.
  9
$ELEVATION
 40
0.0
  9
$PELEVATION
 40
0.0
  9
$THICKNESS
 40
0.0
  9
$LIMCHECK
 70
     0
  9
$CHAMFERA
 40
10.0
  9
$CHAMFERB
 40
10.0
  9
$CHAMFERC
 40
20.0
  9
$CHAMFERD
 40
0.0
  9
$SKPOLY
 70
     0
  9
$TDCREATE
 40
2453928.240428044
  9
$TDUCREATE
 40
2453928.198761378
  9
$TDUPDATE
 40
2454109.371503044
  9
$TDUUPDATE
 40
2454109.329836378
  9
$TDINDWG
 40
0.5631012847
  9
$TDUSRTIMER
 40
0.5630891667
  9
$USRTIMER
 70
     1
  9
$ANGBASE
 50
0.0
  9
$ANGDIR
 70
     0
  9
$PDMODE
 70
     0
  9
$PDSIZE
 40
0.0
  9
$PLINEWID
 40
0.0
  9
$SPLFRAME
 70
     0
  9
$SPLINETYPE
 70
     6
  9
$SPLINESEGS
 70
     8
  9
$HANDSEED
  5
283A
  9
$SURFTAB1
 70
     6
  9
$SURFTAB2
 70
     6
  9
$SURFTYPE
 70
     6
  9
$SURFU
 70
     6
  9
$SURFV
 70
     6
  9
$UCSBASE
  2

  9
$UCSNAME
  2

  9
$UCSORG
 10
0.0
 20
0.0
 30
0.0
  9
$UCSXDIR
 10
1.0
 20
0.0
 30
0.0
  9
$UCSYDIR
 10
0.0
 20
1.0
 30
0.0
  9
$UCSORTHOREF
  2

  9
$UCSORTHOVIEW
 70
     0
  9
$UCSORGTOP
 10
0.0
 20
0.0
 30
0.0
  9
$UCSORGBOTTOM
 10
0.0
 20
0.0
 30
0.0
  9
$UCSORGLEFT
 10
0.0
 20
0.0
 30
0.0
  9
$UCSORGRIGHT
 10
0.0
 20
0.0
 30
0.0
  9
$UCSORGFRONT
 10
0.0
 20
0.0
 30
0.0
  9
$UCSORGBACK
 10
0.0
 20
0.0
 30
0.0
  9
$PUCSBASE
  2

  9
$PUCSNAME
  2

  9
$PUCSORG
 10
0.0
 20
0.0
 30
0.0
  9
$PUCSXDIR
 10
1.0
 20
0.0
 30
0.0
  9
$PUCSYDIR
 10
0.0
 20
1.0
 30
0.0
  9
$PUCSORTHOREF
  2

  9
$PUCSORTHOVIEW
 70
     0
  9
$PUCSORGTOP
 10
0.0
 20
0.0
 30
0.0
  9
$PUCSORGBOTTOM
 10
0.0
 20
0.0
 30
0.0
  9
$PUCSORGLEFT
 10
0.0
 20
0.0
 30
0.0
  9
$PUCSORGRIGHT
 10
0.0
 20
0.0
 30
0.0
  9
$PUCSORGFRONT
 10
0.0
 20
0.0
 30
0.0
  9
$PUCSORGBACK
 10
0.0
 20
0.0
 30
0.0
  9
$USERI1
 70
     0
  9
$USERI2
 70
     0
  9
$USERI3
 70
     0
  9
$USERI4
 70
     0
  9
$USERI5
 70
     0
  9
$USERR1
 40
0.0
  9
$USERR2
 40
0.0
  9
$USERR3
 40
0.0
  9
$USERR4
 40
0.0
  9
$USERR5
 40
0.0
  9
$WORLDVIEW
 70
     1
  9
$SHADEDGE
 70
     3
  9
$SHADEDIF
 70
    70
  9
$TILEMODE
 70
     1
  9
$MAXACTVP
 70
    64
  9
$PINSBASE
 10
0.0
 20
0.0
 30
0.0
  9
$PLIMCHECK
 70
     0
  9
$PEXTMIN
 10
0.0
 20
0.0
 30
0.0
  9
$PEXTMAX
 10
0.0
 20
0.0
 30
0.0
  9
$PLIMMIN
 10
0.0
 20
0.0
  9
$PLIMMAX
 10
12.0
 20
9.0
  9
$UNITMODE
 70
     0
  9
$VISRETAIN
 70
     1
  9
$PLINEGEN
 70
     0
  9
$PSLTSCALE
 70
     1
  9
$TREEDEPTH
 70
  3020
  9
$CMLSTYLE
  2
Standard
  9
$CMLJUST
 70
     0
  9
$CMLSCALE
 40
20.0
  9
$PROXYGRAPHICS
 70
     1
  9
$MEASUREMENT
 70
     1
  9
$CELWEIGHT
370
    -1
  9
$ENDCAPS
280
     0
  9
$JOINSTYLE
280
     0
  9
$LWDISPLAY
290
     0
  9
$INSUNITS
 70
     4
  9
$HYPERLINKBASE
  1

  9
$STYLESHEET
  1

  9
$XEDIT
290
     1
  9
$CEPSNTYPE
380
     0
  9
$PSTYLEMODE
290
     1
  9
$FINGERPRINTGUID
  2
{FDEAD578-A652-11D2-9A35-0060089B3A3F}
  9
$VERSIONGUID
  2
{08209CD7-1662-47CF-B236-1F41546BE67C}
  9
$EXTNAMES
290
     1
  9
$PSVPSCALE
 40
0.0
  9
$OLESTARTUP
290
     0
  0
ENDSEC
  0
SECTION
  2
CLASSES
  0
CLASS
  1
ACDBDICTIONARYWDFLT
  2
AcDbDictionaryWithDefault
  3
ObjectDBX Classes
 90
        0
280
     0
281
     0
  0
CLASS
  1
DICTIONARYVAR
  2
AcDbDictionaryVar
  3
ObjectDBX Classes
 90
        0
280
     0
281
     0
  0
CLASS
  1
ACDBPLACEHOLDER
  2
AcDbPlaceHolder
  3
ObjectDBX Classes
 90
        0
280
     0
281
     0
  0
CLASS
  1
LAYOUT
  2
AcDbLayout
  3
ObjectDBX Classes
 90
        0
280
     0
281
     0
  0
CLASS
  1
MATERIAL
  2
AcDbMaterial
  3
ObjectDBX Classes
 90
     1024
280
     0
281
     0
  0
CLASS
  1
VISUALSTYLE
  2
AcDbVisualStyle
  3
ObjectDBX Classes
 90
     4095
280
     0
281
     0
  0
CLASS
  1
TABLESTYLE
  2
AcDbTableStyle
  3
ObjectDBX Classes
 90
     4095
280
     0
281
     0
  0
CLASS
  1
SORTENTSTABLE
  2
AcDbSortentsTable
  3
ObjectDBX Classes
 90
        0
280
     0
281
     0
  0
CLASS
  1
DIMASSOC
  2
AcDbDimAssoc
  3
"AcDbDimAssoc|Product Desc:     AcDim ARX App For Dimension|Company:          Autodesk, Inc.|WEB Address:      www.autodesk.com"
 90
    32768
280
     0
281
     0
  0
ENDSEC
  0
SECTION
  2
TABLES
  0
TABLE
  2
VPORT
  5
8
330
0
100
AcDbSymbolTable
 70
     1
  0
VPORT
  5
B14
330
8
100
AcDbSymbolTableRecord
100
AcDbViewportTableRecord
  2
*Active
 70
     0
 10
0.0
 20
0.0
 11
1.0
 21
1.0
 12
-73.08094791017447
 22
179.8038261063674
 13
0.0
 23
0.0
 14
10.0
 24
10.0
 15
10.0
 25
10.0
 16
0.0
 26
0.0
 36
1.0
 17
0.0
 27
0.0
 37
0.0
 40
201.2611429264015
 41
1.726326742976066
 42
50.0
 43
0.0
 44
0.0
 50
0.0
 51
0.0
 71
     0
 72
  1000
 73
     1
 74
     3
 75
     0
 76
     0
 77
     0
 78
     0
281
     0
 65
     1
110
0.0
120
0.0
130
0.0
111
1.0
121
0.0
131
0.0
112
0.0
122
1.0
132
0.0
 79
     0
146
0.0
  0
ENDTAB
  0
TABLE
  2
LTYPE
  5
5
330
0
100
AcDbSymbolTable
 70
     3
  0
LTYPE
  5
14
330
5
100
AcDbSymbolTableRecord
100
AcDbLinetypeTableRecord
  2
ByBlock
 70
     0
  3

 72
    65
 73
     0
 40
0.0
  0
LTYPE
  5
15
330
5
100
AcDbSymbolTableRecord
100
AcDbLinetypeTableRecord
  2
ByLayer
 70
     0
  3

 72
    65
 73
     0
 40
0.0
  0
LTYPE
  5
16
330
5
100
AcDbSymbolTableRecord
100
AcDbLinetypeTableRecord
  2
Continuous
 70
     0
  3
Solid line
 72
    65
 73
     0
 40
0.0
  0
LTYPE
  5
1B2
330
5
100
AcDbSymbolTableRecord
100
AcDbLinetypeTableRecord
  2
CENTER
 70
     0
  3
____ _ ____ _ ____ _ ____ _ ____ _ ____ _ ____
 72
    65
 73
     4
 40
0.6
 49
0.375
 74
     0
 49
-0.075
 74
     0
 49
0.075
 74
     0
 49
-0.075
 74
     0
  0
ENDTAB
  0
TABLE
  2
LAYER
  5
2
330
0
100
AcDbSymbolTable
 70
     7
  0
LAYER
  5
10
330
2
100
AcDbSymbolTableRecord
100
AcDbLayerTableRecord
  2
0
 70
     0
 62
     7
  6
Continuous
370
    -3
390
F
  0
LAYER
  5
1B4
330
2
100
AcDbSymbolTableRecord
100
AcDbLayerTableRecord
  2
Defpoints
 70
     0
 62
     7
  6
Continuous
290
     0
370
    -3
390
F
  0
LAYER
  5
1B5
330
2
100
AcDbSymbolTableRecord
100
AcDbLayerTableRecord
  2
91000_TIP
 70
     0
 62
     7
  6
Continuous
370
    -3
390
F
  0
LAYER
  5
1B6
330
2
100
AcDbSymbolTableRecord
100
AcDbLayerTableRecord
  2
11000_Left
 70
     0
 62
     7
  6
Continuous
370
    -3
390
F
  0
LAYER
  5
1B9
330
2
100
AcDbSymbolTableRecord
100
AcDbLayerTableRecord
  2
90000_FRAME
 70
     0
 62
     7
  6
Continuous
370
    -3
390
F
  0
LAYER
  5
1BA
330
2
100
AcDbSymbolTableRecord
100
AcDbLayerTableRecord
  2
11100_LEFT_DIM
 70
     0
 62
     7
  6
Continuous
370
    -3
390
F
  0
ENDTAB
  0
TABLE
  2
STYLE
  5
3
330
0
100
AcDbSymbolTable
 70
     2
  0
STYLE
  5
11
330
3
100
AcDbSymbolTableRecord
100
AcDbTextStyleTableRecord
  2
Standard
 70
     0
 40
0.0
 41
1.0
 50
0.0
 71
     0
 42
2.5
  3
txt
  4

  0
ENDTAB
  0
TABLE
  2
VIEW
  5
6
330
0
100
AcDbSymbolTable
 70
     0
  0
ENDTAB
  0
TABLE
  2
UCS
  5
7
330
0
100
AcDbSymbolTable
 70
     0
  0
ENDTAB
  0
TABLE
  2
APPID
  5
9
330
0
100
AcDbSymbolTable
 70
     4
  0
APPID
  5
12
330
9
100
AcDbSymbolTableRecord
100
AcDbRegAppTableRecord
  2
ACAD
 70
     0
  0
APPID
  5
1BD
330
9
100
AcDbSymbolTableRecord
100
AcDbRegAppTableRecord
  2
AUSTER_ANSICHT
 70
     0
  0
APPID
  5
1BE
330
9
100
AcDbSymbolTableRecord
100
AcDbRegAppTableRecord
  2
AUSTER_FOLIE
 70
     0
  0
APPID
  5
20BD
330
9
100
AcDbSymbolTableRecord
100
AcDbRegAppTableRecord
  2
ACAD_EXEMPT_FROM_CAD_STANDARDS
 70
     0
  0
ENDTAB
  0
TABLE
  2
DIMSTYLE
  5
A
330
0
100
AcDbSymbolTable
 70
     6
100
AcDbDimStyleTable
 71
     1
340
27
  0
DIMSTYLE
105
27
102
{ACAD_REACTORS
330
1FFF
330
2765
330
2764
330
2763
102
}
330
A
100
AcDbSymbolTableRecord
100
AcDbDimStyleTableRecord
  2
ISO-25
 70
     0
 41
2.5
 42
0.625
 43
3.75
 44
1.25
 73
     0
 74
     0
 77
     1
 78
     8
140
2.5
141
2.5
143
0.03937007874016
147
0.625
171
     3
172
     1
271
     2
272
     2
274
     3
278
    44
283
     0
284
     8
340
11
  0
ENDTAB
  0
TABLE
  2
BLOCK_RECORD
  5
1
330
0
100
AcDbSymbolTable
 70
    40
  0
BLOCK_RECORD
  5
1F
102
{ACAD_XDICTIONARY
360
16DA
102
}
330
1
100
AcDbSymbolTableRecord
100
AcDbBlockTableRecord
  2
*Model_Space
340
22
  0
BLOCK_RECORD
  5
50
330
1
100
AcDbSymbolTableRecord
100
AcDbBlockTableRecord
  2
*Paper_Space
340
51
  0
BLOCK_RECORD
  5
55
330
1
100
AcDbSymbolTableRecord
100
AcDbBlockTableRecord
  2
*Paper_Space0
340
56
  0
BLOCK_RECORD
  5
86
330
1
100
AcDbSymbolTableRecord
100
AcDbBlockTableRecord
  2
SIEMENS_OUTLINE_BL0
340
0
102
{BLKREFS
331
59C
102
}
  0
BLOCK_RECORD
  5
2037
330
1
100
AcDbSymbolTableRecord
100
AcDbBlockTableRecord
  2
*D4
340
0
  0
BLOCK_RECORD
  5
2768
330
1
100
AcDbSymbolTableRecord
100
AcDbBlockTableRecord
  2
*D35
340
0
  0
BLOCK_RECORD
  5
2775
330
1
100
AcDbSymbolTableRecord
100
AcDbBlockTableRecord
  2
*D36
340
0
  0
BLOCK_RECORD
  5
2781
330
1
100
AcDbSymbolTableRecord
100
AcDbBlockTableRecord
  2
*D37
340
0
  0
ENDTAB
  0
ENDSEC
  0
SECTION
  2
BLOCKS
  0
BLOCK
  5
20
330
1F
100
AcDbEntity
  8
0
100
AcDbBlockBegin
  2
*Model_Space
 70
     0
 10
0.0
 20
0.0
 30
0.0
  3
*Model_Space
  1

  0
ENDBLK
  5
21
330
1F
100
AcDbEntity
  8
0
100
AcDbBlockEnd
  0
BLOCK
  5
52
330
50
100
AcDbEntity
 67
     1
  8
0
100
AcDbBlockBegin
  2
*Paper_Space
 70
     0
 10
0.0
 20
0.0
 30
0.0
  3
*Paper_Space
  1

  0
ENDBLK
  5
53
330
50
100
AcDbEntity
 67
     1
  8
0
100
AcDbBlockEnd
  0
BLOCK
  5
57
330
55
100
AcDbEntity
 67
     1
  8
0
100
AcDbBlockBegin
  2
*Paper_Space0
 70
     0
 10
0.0
 20
0.0
 30
0.0
  3
*Paper_Space0
  1

  0
ENDBLK
  5
58
330
55
100
AcDbEntity
 67
     1
  8
0
100
AcDbBlockEnd
  0
BLOCK
  5
87
330
86
100
AcDbEntity
  8
0
  6
Continuous
 62
     7
100
AcDbBlockBegin
  2
SIEMENS_OUTLINE_BL0
 70
     0
 10
0.0
 20
0.0
 30
0.0
  3
SIEMENS_OUTLINE_BL0
  1

  0
LINE
  5
88
330
86
100
AcDbEntity
  8
0
  6
Continuous
 62
     7
100
AcDbLine
 10
79.186200508
 20
21.4145478991
 30
0.0
 11
79.186200508
 21
16.6612788158
 31
0.0
  0
LINE
  5
89
330
86
100
AcDbEntity
  8
0
  6
Continuous
 62
     7
100
AcDbLine
 10
80.61218123299999
 20
21.4145478991
 30
0.0
 11
80.61218123299999
 21
16.6612788158
 31
0.0
  0
LINE
  5
8A
330
86
100
AcDbEntity
  8
0
  6
Continuous
 62
     7
100
AcDbLine
 10
79.186200508
 20
16.6612788158
 30
0.0
 11
80.61218123299999
 21
16.6612788158
 31
0.0
  0
LINE
  5
8B
330
86
100
AcDbEntity
  8
0
  6
Continuous
 62
     7
100
AcDbLine
 10
79.186200508
 20
21.4145478991
 30
0.0
 11
80.61218123299999
 21
21.4145478991
 31
0.0
  0
LINE
  5
8C
330
86
100
AcDbEntity
  8
0
  6
Continuous
 62
     7
100
AcDbLine
 10
81.7054331221
 20
21.4145478991
 30
0.0
 11
81.7054331221
 21
16.6612788158
 31
0.0
  0
LINE
  5
8D
330
86
100
AcDbEntity
  8
0
  6
Continuous
 62
     7
100
AcDbLine
 10
81.7054331221
 20
16.6612788158
 30
0.0
 11
85.2703849346
 21
16.6612788158
 31
0.0
  0
LINE
  5
8E
330
86
100
AcDbEntity
  8
0
  6
Continuous
 62
     7
100
AcDbLine
 10
85.2703849346
 20
17.56439994169999
 30
0.0
 11
83.0838811563
 21
17.56439994169999
 31
0.0
  0
LINE
  5
8F
330
86
100
AcDbEntity
  8
0
  6
Continuous
 62
     7
100
AcDbLine
 10
85.2703849346
 20
17.56439994169999
 30
0.0
 11
85.2703849346
 21
16.6612788158
 31
0.0
  0
LINE
  5
90
330
86
100
AcDbEntity
  8
0
  6
Continuous
 62
     7
100
AcDbLine
 10
85.2228522438
 20
21.4145478991
 30
0.0
 11
81.7054331221
 21
21.4145478991
 31
0.0
  0
LINE
  5
91
330
86
100
AcDbEntity
  8
0
  6
Continuous
 62
     7
100
AcDbLine
 10
85.2228522438
 20
20.5351931187
 30
0.0
 11
83.0838811563
 21
20.5351931187
 31
0.0
  0
LINE
  5
92
330
86
100
AcDbEntity
  8
0
  6
Continuous
 62
     7
100
AcDbLine
 10
85.2228522438
 20
21.4145478991
 30
0.0
 11
85.2228522438
 21
20.5351931187
 31
0.0
  0
LINE
  5
93
330
86
100
AcDbEntity
  8
0
  6
Continuous
 62
     7
100
AcDbLine
 10
84.9376560988
 20
18.68141817619999
 30
0.0
 11
83.0838811563
 21
18.68141817619999
 31
0.0
  0
LINE
  5
94
330
86
100
AcDbEntity
  8
0
  6
Continuous
 62
     7
100
AcDbLine
 10
84.9376560988
 20
19.46570757499999
 30
0.0
 11
84.9376560988
 21
18.68141817619999
 31
0.0
  0
LINE
  5
95
330
86
100
AcDbEntity
  8
0
  6
Continuous
 62
     7
100
AcDbLine
 10
84.9376560988
 20
19.46570757499999
 30
0.0
 11
83.0838811563
 21
19.46570757499999
 31
0.0
  0
LINE
  5
96
330
86
100
AcDbEntity
  8
0
  6
Continuous
 62
     7
100
AcDbLine
 10
83.0838811563
 20
20.5351931187
 30
0.0
 11
83.0838811563
 21
19.46570757499999
 31
0.0
  0
LINE
  5
97
330
86
100
AcDbEntity
  8
0
  6
Continuous
 62
     7
100
AcDbLine
 10
83.0838811563
 20
18.68141817619999
 30
0.0
 11
83.0838811563
 21
17.56439994169999
 31
0.0
  0
LINE
  5
98
330
86
100
AcDbEntity
  8
0
  6
Continuous
 62
     7
100
AcDbLine
 10
86.0784406788
 20
16.6612788158
 30
0.0
 11
86.0784406788
 21
21.4145478991
 31
0.0
  0
LINE
  5
99
330
86
100
AcDbEntity
  8
0
  6
Continuous
 62
     7
100
AcDbLine
 10
86.0784406788
 20
16.6612788158
 30
0.0
 11
87.02909449539999
 21
16.6612788158
 31
0.0
  0
LINE
  5
9A
330
86
100
AcDbEntity
  8
0
  6
Continuous
 62
     7
100
AcDbLine
 10
91.92496165120001
 20
21.4145478991
 30
0.0
 11
91.92496165120001
 21
16.6612788158
 31
0.0
  0
LINE
  5
9B
330
86
100
AcDbEntity
  8
0
  6
Continuous
 62
     7
100
AcDbLine
 10
91.92496165120001
 20
16.6612788158
 30
0.0
 11
90.54651361700001
 21
16.6612788158
 31
0.0
  0
LINE
  5
9C
330
86
100
AcDbEntity
  8
0
  6
Continuous
 62
     7
100
AcDbLine
 10
88.3600098387
 20
16.61374612499999
 30
0.0
 11
89.21559827370002
 21
16.61374612499999
 31
0.0
  0
LINE
  5
9D
330
86
100
AcDbEntity
  8
0
  6
Continuous
 62
     7
100
AcDbLine
 10
88.3600098387
 20
16.61374612499999
 30
0.0
 11
87.02909449539999
 21
19.7033710291
 31
0.0
  0
LINE
  5
9E
330
86
100
AcDbEntity
  8
0
  6
Continuous
 62
     7
100
AcDbLine
 10
87.02909449539999
 20
16.6612788158
 30
0.0
 11
87.02909449539999
 21
19.7033710291
 31
0.0
  0
LINE
  5
9F
330
86
100
AcDbEntity
  8
0
  6
Continuous
 62
     7
100
AcDbLine
 10
90.54651361700001
 20
19.75090372
 30
0.0
 11
89.21559827370002
 21
16.61374612499999
 31
0.0
  0
LINE
  5
A0
330
86
100
AcDbEntity
  8
0
  6
Continuous
 62
     7
100
AcDbLine
 10
87.78961754870001
 20
21.4145478991
 30
0.0
 11
86.0784406788
 21
21.4145478991
 31
0.0
  0
LINE
  5
A1
330
86
100
AcDbEntity
  8
0
  6
Continuous
 62
     7
100
AcDbLine
 10
91.92496165120001
 20
21.4145478991
 30
0.0
 11
90.2137847812
 21
21.4145478991
 31
0.0
  0
LINE
  5
A2
330
86
100
AcDbEntity
  8
0
  6
Continuous
 62
     7
100
AcDbLine
 10
87.78961754870001
 20
21.4145478991
 30
0.0
 11
89.0254675104
 21
18.51505375829999
 31
0.0
  0
LINE
  5
A3
330
86
100
AcDbEntity
  8
0
  6
Continuous
 62
     7
100
AcDbLine
 10
90.2137847812
 20
21.4145478991
 30
0.0
 11
89.0254675104
 21
18.51505375829999
 31
0.0
  0
LINE
  5
A4
330
86
100
AcDbEntity
  8
0
  6
Continuous
 62
     7
100
AcDbLine
 10
90.54651361700001
 20
19.75090372
 30
0.0
 11
90.54651361700001
 21
16.6612788158
 31
0.0
  0
LINE
  5
A5
330
86
100
AcDbEntity
  8
0
  6
Continuous
 62
     7
100
AcDbLine
 10
93.01821354030002
 20
21.4145478991
 30
0.0
 11
93.01821354030002
 21
16.6612788158
 31
0.0
  0
LINE
  5
A6
330
86
100
AcDbEntity
  8
0
  6
Continuous
 62
     7
100
AcDbLine
 10
93.01821354030002
 20
16.6612788158
 30
0.0
 11
96.5831653528
 21
16.6612788158
 31
0.0
  0
LINE
  5
A7
330
86
100
AcDbEntity
  8
0
  6
Continuous
 62
     7
100
AcDbLine
 10
96.5831653528
 20
17.56439994169999
 30
0.0
 11
94.3966615745
 21
17.56439994169999
 31
0.0
  0
LINE
  5
A8
330
86
100
AcDbEntity
  8
0
  6
Continuous
 62
     7
100
AcDbLine
 10
96.5831653528
 20
17.56439994169999
 30
0.0
 11
96.5831653528
 21
16.6612788158
 31
0.0
  0
LINE
  5
A9
330
86
100
AcDbEntity
  8
0
  6
Continuous
 62
     7
100
AcDbLine
 10
96.53563266200002
 20
21.4145478991
 30
0.0
 11
93.01821354030002
 21
21.4145478991
 31
0.0
  0
LINE
  5
AA
330
86
100
AcDbEntity
  8
0
  6
Continuous
 62
     7
100
AcDbLine
 10
96.53563266200002
 20
20.5351931187
 30
0.0
 11
94.3966615745
 21
20.5351931187
 31
0.0
  0
LINE
  5
AB
330
86
100
AcDbEntity
  8
0
  6
Continuous
 62
     7
100
AcDbLine
 10
96.53563266200002
 20
21.4145478991
 30
0.0
 11
96.53563266200002
 21
20.5351931187
 31
0.0
  0
LINE
  5
AC
330
86
100
AcDbEntity
  8
0
  6
Continuous
 62
     7
100
AcDbLine
 10
96.25043651700002
 20
18.68141817619999
 30
0.0
 11
94.3966615745
 21
18.68141817619999
 31
0.0
  0
LINE
  5
AD
330
86
100
AcDbEntity
  8
0
  6
Continuous
 62
     7
100
AcDbLine
 10
96.25043651700002
 20
19.46570757499999
 30
0.0
 11
96.25043651700002
 21
18.68141817619999
 31
0.0
  0
LINE
  5
AE
330
86
100
AcDbEntity
  8
0
  6
Continuous
 62
     7
100
AcDbLine
 10
96.25043651700002
 20
19.46570757499999
 30
0.0
 11
94.3966615745
 21
19.46570757499999
 31
0.0
  0
LINE
  5
AF
330
86
100
AcDbEntity
  8
0
  6
Continuous
 62
     7
100
AcDbLine
 10
94.3966615745
 20
20.5351931187
 30
0.0
 11
94.3966615745
 21
19.46570757499999
 31
0.0
  0
LINE
  5
B0
330
86
100
AcDbEntity
  8
0
  6
Continuous
 62
     7
100
AcDbLine
 10
94.3966615745
 20
18.68141817619999
 30
0.0
 11
94.3966615745
 21
17.56439994169999
 31
0.0
  0
LINE
  5
B1
330
86
100
AcDbEntity
  8
0
  6
Continuous
 62
     7
100
AcDbLine
 10
97.3674547515
 20
16.6612788158
 30
0.0
 11
97.3674547515
 21
21.4145478991
 31
0.0
  0
LINE
  5
B2
330
86
100
AcDbEntity
  8
0
  6
Continuous
 62
     7
100
AcDbLine
 10
101.5503315447999
 20
21.4145478991
 30
0.0
 11
101.5503315447999
 21
16.6612788158
 31
0.0
  0
LINE
  5
B3
330
86
100
AcDbEntity
  8
0
  6
Continuous
 62
     7
100
AcDbLine
 10
97.3674547515
 20
16.6612788158
 30
0.0
 11
98.3181085682
 21
16.6612788158
 31
0.0
  0
LINE
  5
B4
330
86
100
AcDbEntity
  8
0
  6
Continuous
 62
     7
100
AcDbLine
 10
101.5503315447999
 20
21.4145478991
 30
0.0
 11
100.5996777281999
 21
21.4145478991
 31
0.0
  0
LINE
  5
B5
330
86
100
AcDbEntity
  8
0
  6
Continuous
 62
     7
100
AcDbLine
 10
98.91226720360002
 20
21.4145478991
 30
0.0
 11
97.3674547515
 21
21.4145478991
 31
0.0
  0
LINE
  5
B6
330
86
100
AcDbEntity
  8
0
  6
Continuous
 62
     7
100
AcDbLine
 10
101.5503315447999
 20
16.6612788158
 30
0.0
 11
100.0292854381999
 21
16.6612788158
 31
0.0
  0
LINE
  5
B7
330
86
100
AcDbEntity
  8
0
  6
Continuous
 62
     7
100
AcDbLine
 10
100.0292854381999
 20
16.6612788158
 30
0.0
 11
98.3181085682
 21
19.7033710291
 31
0.0
  0
LINE
  5
B8
330
86
100
AcDbEntity
  8
0
  6
Continuous
 62
     7
100
AcDbLine
 10
98.91226720360002
 20
21.4145478991
 30
0.0
 11
100.5996777281999
 21
18.4675210675
 31
0.0
  0
LINE
  5
B9
330
86
100
AcDbEntity
  8
0
  6
Continuous
 62
     7
100
AcDbLine
 10
100.5996777281999
 20
21.4145478991
 30
0.0
 11
100.5996777281999
 21
18.4675210675
 31
0.0
  0
LINE
  5
BA
330
86
100
AcDbEntity
  8
0
  6
Continuous
 62
     7
100
AcDbLine
 10
98.3181085682
 20
16.6612788158
 30
0.0
 11
98.3181085682
 21
19.7033710291
 31
0.0
  0
LINE
  5
BB
330
86
100
AcDbEntity
  8
0
  6
Continuous
 62
     7
100
AcDbLine
 10
102.3583872889999
 20
16.75634419749999
 30
0.0
 11
102.3583872889999
 21
17.7069980142
 31
0.0
  0
LINE
  5
BC
330
86
100
AcDbEntity
  8
0
  6
Continuous
 62
     7
100
AcDbLine
 10
105.6856756473
 20
20.4163613916
 30
0.0
 11
105.6856756473
 21
21.36701520829999
 31
0.0
  0
ARC
  5
BD
330
86
100
AcDbEntity
  8
0
  6
Continuous
 62
     7
100
AcDbCircle
 10
104.063028414
 20
18.61843736089998
 30
0.0
 40
1.111619360599997
100
AcDbArc
 50
277.7099956934
 51
295.6884927745999
  0
ARC
  5
BE
330
86
100
AcDbEntity
  8
0
  6
Continuous
 62
     7
100
AcDbCircle
 10
104.3473383967
 20
17.8936115972
 30
0.0
 40
0.3401689265
100
AcDbArc
 50
305.503221255
 51
72.46528985229999
  0
ARC
  5
BF
330
86
100
AcDbEntity
  8
0
  6
Continuous
 62
     7
100
AcDbCircle
 10
103.7813445885999
 20
21.2953185068
 30
0.0
 40
4.756794641099999
100
AcDbArc
 50
252.5939200548001
 51
280.9816604255999
  0
ARC
  5
C0
330
86
100
AcDbEntity
  8
0
  6
Continuous
 62
     7
100
AcDbCircle
 10
104.2361799517
 20
18.6773047703
 30
0.0
 40
2.100726595299998
100
AcDbArc
 50
282.4058358519999
 51
311.8644433928
  0
ARC
  5
C1
330
86
100
AcDbEntity
  8
0
  6
Continuous
 62
     7
100
AcDbCircle
 10
103.9626156045999
 20
20.2856464918
 30
0.0
 40
0.3029626476
100
AcDbArc
 50
154.4400348282
 51
221.8201698800999
  0
ARC
  5
C2
330
86
100
AcDbEntity
  8
0
  6
Continuous
 62
     7
100
AcDbCircle
 10
104.0418367559
 20
20.2064253405
 30
0.0
 40
0.4103089737
100
AcDbArc
 50
102.8287828680999
 51
149.2259639003
  0
ARC
  5
C3
330
86
100
AcDbEntity
  8
0
  6
Continuous
 62
     7
100
AcDbCircle
 10
104.4588635915999
 20
18.46409001059999
 30
0.0
 40
2.201836557
100
AcDbArc
 50
84.0400061857
 51
103.3427657870999
  0
ARC
  5
C4
330
86
100
AcDbEntity
  8
0
  6
Continuous
 62
     7
100
AcDbCircle
 10
104.1178997669
 20
16.0467260867
 30
0.0
 40
4.642373736499997
100
AcDbArc
 50
70.2625858546
 51
82.95241863799999
  0
ARC
  5
C5
330
86
100
AcDbEntity
  8
0
  6
Continuous
 62
     7
100
AcDbCircle
 10
103.6038815646999
 20
20.7183489764
 30
0.0
 40
3.258755990899997
100
AcDbArc
 50
247.5300206145
 51
280.7579522143
  0
ARC
  5
C6
330
86
100
AcDbEntity
  8
0
  6
Continuous
 62
     7
100
AcDbCircle
 10
97.21891509270001
 20
2.4668290159
 30
0.0
 40
17.3316084133
100
AcDbArc
 50
65.34146746500001
 51
67.39977707359999
  0
ARC
  5
C7
330
86
100
AcDbEntity
  8
0
  6
Continuous
 62
     7
100
AcDbCircle
 10
108.0147774981
 20
28.259255379
 30
0.0
 40
10.6291642039
100
AcDbArc
 50
242.8620101252001
 51
247.1042029186
  0
ARC
  5
C8
330
86
100
AcDbEntity
  8
0
  6
Continuous
 62
     7
100
AcDbCircle
 10
104.1598762715
 20
20.725323882
 30
0.0
 40
2.166291629199998
100
AcDbArc
 50
227.3119280793999
 51
242.7040315235
  0
ARC
  5
C9
330
86
100
AcDbEntity
  8
0
  6
Continuous
 62
     7
100
AcDbCircle
 10
103.5558454618999
 20
20.0196462412
 30
0.0
 40
1.238521734
100
AcDbArc
 50
194.7952194236
 51
225.7176549047
  0
ARC
  5
CA
330
86
100
AcDbEntity
  8
0
  6
Continuous
 62
     7
100
AcDbCircle
 10
103.6180035961
 20
20.05986621039999
 30
0.0
 40
1.309092072899999
100
AcDbArc
 50
164.1974860461
 51
195.8025139539
  0
ARC
  5
CB
330
86
100
AcDbEntity
  8
0
  6
Continuous
 62
     7
100
AcDbCircle
 10
104.1750273167
 20
19.1715990505
 30
0.0
 40
2.366924815299999
100
AcDbArc
 50
86.22180229280001
 51
120.4272602309
  0
ARC
  5
CC
330
86
100
AcDbEntity
  8
0
  6
Continuous
 62
     7
100
AcDbCircle
 10
103.9061705341999
 20
12.4754312294
 30
0.0
 40
9.0679051661
100
AcDbArc
 50
78.68270492259998
 51
87.3147599624
  0
ARC
  5
CD
330
86
100
AcDbEntity
  8
0
  6
Continuous
 62
     7
100
AcDbCircle
 10
103.4501013557999
 20
20.1673739729
 30
0.0
 40
1.119747444
100
AcDbArc
 50
142.8139179029999
 51
167.1522951416999
  0
ARC
  5
CE
330
86
100
AcDbEntity
  8
0
  6
Continuous
 62
     7
100
AcDbCircle
 10
103.7954106973999
 20
19.86079227619999
 30
0.0
 40
1.580546684499998
100
AcDbArc
 50
121.2140948535
 51
141.5254768286
  0
ARC
  5
CF
330
86
100
AcDbEntity
  8
0
  6
Continuous
 62
     7
100
AcDbCircle
 10
104.372585063
 20
20.6718496049
 30
0.0
 40
0.8661276051999998
100
AcDbArc
 50
222.7760387596
 51
239.0362434679
  0
ARC
  5
D0
330
86
100
AcDbEntity
  8
0
  6
Continuous
 62
     7
100
AcDbCircle
 10
101.8658754847
 20
13.3415774063
 30
0.0
 40
6.858773576299999
100
AcDbArc
 50
59.90202725599999
 51
68.2036481279
  0
ARC
  5
D1
330
86
100
AcDbEntity
  8
0
  6
Continuous
 62
     7
100
AcDbCircle
 10
105.2743699785
 20
22.26746391349999
 30
0.0
 40
2.698741017099999
100
AcDbArc
 50
240.0481997804
 51
251.3779673736999
  0
ARC
  5
D2
330
86
100
AcDbEntity
  8
0
  6
Continuous
 62
     7
100
AcDbCircle
 10
104.6089128116999
 20
18.1105652982
 30
0.0
 40
1.4334474881
100
AcDbArc
 50
315.8904553224
 51
333.5229264372999
  0
ARC
  5
D3
330
86
100
AcDbEntity
  8
0
  6
Continuous
 62
     7
100
AcDbCircle
 10
104.6135510555
 20
18.057158148
 30
0.0
 40
1.406228711899998
100
AcDbArc
 50
335.3867972702
 51
24.39151194019999
  0
ARC
  5
D4
330
86
100
AcDbEntity
  8
0
  6
Continuous
 62
     7
100
AcDbCircle
 10
104.5413461519
 20
17.97930145619999
 30
0.0
 40
1.504702514799999
100
AcDbArc
 50
25.95629166050001
 51
59.4834829668
  0
LINE
  5
D5
330
86
100
AcDbEntity
  8
0
  6
Continuous
 62
     7
100
AcDbLine
 10
74.7656602606
 20
16.75634419749999
 30
0.0
 11
74.7656602606
 21
17.7069980142
 31
0.0
  0
LINE
  5
D6
330
86
100
AcDbEntity
  8
0
  6
Continuous
 62
     7
100
AcDbLine
 10
78.09294861879997
 20
20.4163613916
 30
0.0
 11
78.09294861879997
 21
21.36701520829999
 31
0.0
  0
ARC
  5
D7
330
86
100
AcDbEntity
  8
0
  6
Continuous
 62
     7
100
AcDbCircle
 10
76.4703013855
 20
18.61843736089998
 30
0.0
 40
1.111619360599997
100
AcDbArc
 50
277.7099956934
 51
295.6884927745999
  0
ARC
  5
D8
330
86
100
AcDbEntity
  8
0
  6
Continuous
 62
     7
100
AcDbCircle
 10
76.7546113683
 20
17.8936115972
 30
0.0
 40
0.3401689265
100
AcDbArc
 50
305.5032212556
 51
72.4652898515
  0
ARC
  5
D9
330
86
100
AcDbEntity
  8
0
  6
Continuous
 62
     7
100
AcDbCircle
 10
76.1886175602
 20
21.2953185068
 30
0.0
 40
4.756794641099999
100
AcDbArc
 50
252.5939200545
 51
280.9816604253
  0
ARC
  5
DA
330
86
100
AcDbEntity
  8
0
  6
Continuous
 62
     7
100
AcDbCircle
 10
76.64345292330001
 20
18.6773047703
 30
0.0
 40
2.100726595299998
100
AcDbArc
 50
282.4058358513
 51
311.8644433923
  0
ARC
  5
DB
330
86
100
AcDbEntity
  8
0
  6
Continuous
 62
     7
100
AcDbCircle
 10
76.3698885762
 20
20.2856464918
 30
0.0
 40
0.3029626476
100
AcDbArc
 50
154.4400348282
 51
221.8201698800999
  0
ARC
  5
DC
330
86
100
AcDbEntity
  8
0
  6
Continuous
 62
     7
100
AcDbCircle
 10
76.4491097276
 20
20.2064253405
 30
0.0
 40
0.4103089737
100
AcDbArc
 50
102.8287828727
 51
149.2259639027
  0
ARC
  5
DD
330
86
100
AcDbEntity
  8
0
  6
Continuous
 62
     7
100
AcDbCircle
 10
76.8661365632
 20
18.46409001059999
 30
0.0
 40
2.201836557
100
AcDbArc
 50
84.0400061859
 51
103.3427657871999
  0
ARC
  5
DE
330
86
100
AcDbEntity
  8
0
  6
Continuous
 62
     7
100
AcDbCircle
 10
76.5251727384
 20
16.0467260867
 30
0.0
 40
4.642373736499997
100
AcDbArc
 50
70.2625858546
 51
82.9524186379
  0
ARC
  5
DF
330
86
100
AcDbEntity
  8
0
  6
Continuous
 62
     7
100
AcDbCircle
 10
76.0111545363
 20
20.7183489764
 30
0.0
 40
3.258755990899997
100
AcDbArc
 50
247.5300206148
 51
280.7579522145
  0
ARC
  5
E0
330
86
100
AcDbEntity
  8
0
  6
Continuous
 62
     7
100
AcDbCircle
 10
69.6261880643
 20
2.4668290159
 30
0.0
 40
17.3316084133
100
AcDbArc
 50
65.34146746500001
 51
67.39977707359999
  0
ARC
  5
E1
330
86
100
AcDbEntity
  8
0
  6
Continuous
 62
     7
100
AcDbCircle
 10
80.4220504697
 20
28.259255379
 30
0.0
 40
10.6291642039
100
AcDbArc
 50
242.8620101252001
 51
247.1042029184999
  0
ARC
  5
E2
330
86
100
AcDbEntity
  8
0
  6
Continuous
 62
     7
100
AcDbCircle
 10
76.56714924310001
 20
20.725323882
 30
0.0
 40
2.166291629199998
100
AcDbArc
 50
227.3119280793999
 51
242.7040315235
  0
ARC
  5
E3
330
86
100
AcDbEntity
  8
0
  6
Continuous
 62
     7
100
AcDbCircle
 10
75.9631184335
 20
20.0196462412
 30
0.0
 40
1.238521734
100
AcDbArc
 50
194.7952194234
 51
225.7176549041999
  0
ARC
  5
E4
330
86
100
AcDbEntity
  8
0
  6
Continuous
 62
     7
100
AcDbCircle
 10
76.58230028830002
 20
19.1715990505
 30
0.0
 40
2.366924815299999
100
AcDbArc
 50
86.22180229280001
 51
120.4272602309
  0
ARC
  5
E5
330
86
100
AcDbEntity
  8
0
  6
Continuous
 62
     7
100
AcDbCircle
 10
76.3134435058
 20
12.4754312294
 30
0.0
 40
9.0679051661
100
AcDbArc
 50
78.68270492259998
 51
87.3147599624
  0
ARC
  5
E6
330
86
100
AcDbEntity
  8
0
  6
Continuous
 62
     7
100
AcDbCircle
 10
76.20268366899998
 20
19.86079227619999
 30
0.0
 40
1.580546684599998
100
AcDbArc
 50
121.2140948540999
 51
141.5254768289999
  0
ARC
  5
E7
330
86
100
AcDbEntity
  8
0
  6
Continuous
 62
     7
100
AcDbCircle
 10
76.7798580346
 20
20.6718496049
 30
0.0
 40
0.8661276051999998
100
AcDbArc
 50
222.7760387596
 51
239.0362434679
  0
ARC
  5
E8
330
86
100
AcDbEntity
  8
0
  6
Continuous
 62
     7
100
AcDbCircle
 10
74.2731484563
 20
13.3415774063
 30
0.0
 40
6.858773576299999
100
AcDbArc
 50
59.90202725620001
 51
68.20364812820002
  0
ARC
  5
E9
330
86
100
AcDbEntity
  8
0
  6
Continuous
 62
     7
100
AcDbCircle
 10
77.6816429501
 20
22.26746391349999
 30
0.0
 40
2.698741017099999
100
AcDbArc
 50
240.0481997804
 51
251.3779673734
  0
ARC
  5
EA
330
86
100
AcDbEntity
  8
0
  6
Continuous
 62
     7
100
AcDbCircle
 10
77.0161857833
 20
18.1105652982
 30
0.0
 40
1.4334474881
100
AcDbArc
 50
315.8904553225998
 51
333.5229264375
  0
ARC
  5
EB
330
86
100
AcDbEntity
  8
0
  6
Continuous
 62
     7
100
AcDbCircle
 10
77.020824027
 20
18.057158148
 30
0.0
 40
1.406228711899998
100
AcDbArc
 50
335.3867972703
 51
24.3915119403
  0
ARC
  5
EC
330
86
100
AcDbEntity
  8
0
  6
Continuous
 62
     7
100
AcDbCircle
 10
76.94861912350001
 20
17.97930145619999
 30
0.0
 40
1.504702514699999
100
AcDbArc
 50
25.9562916611
 51
59.4834829676
  0
LINE
  5
ED
330
86
100
AcDbEntity
  8
0
  6
Continuous
 62
     7
100
AcDbLine
 10
74.9574888499
 20
20.8337423583
 30
0.0
 11
75.2315546745
 21
21.10781543579999
 31
0.0
  0
ARC
  5
EE
330
86
100
AcDbEntity
  8
0
  6
Continuous
 62
     7
100
AcDbCircle
 10
76.0252765676
 20
20.05986621039999
 30
0.0
 40
1.309092072899999
100
AcDbArc
 50
164.1974860461
 51
195.8025139539
  0
ARC
  5
EF
330
86
100
AcDbEntity
  8
0
  6
Continuous
 62
     7
100
AcDbCircle
 10
75.8573743274
 20
20.1673739729
 30
0.0
 40
1.119747444
100
AcDbArc
 50
142.8139179029999
 51
167.1522951416999
  0
ENDBLK
  5
F0
330
86
100
AcDbEntity
  8
0
100
AcDbBlockEnd
  0
BLOCK
  5
2041
330
2037
100
AcDbEntity
  8
0
100
AcDbBlockBegin
  2
*D4
 70
     1
 10
0.0
 20
0.0
 30
0.0
  3
*D4
  1

  0
LINE
  5
2142
330
2037
100
AcDbEntity
  8
11100_LEFT_DIM
 62
     0
370
    -2
100
AcDbLine
 10
-55.67850991737859
 20
201.1624737205872
 30
0.0
 11
-55.67850991737859
 21
210.4627337205872
 31
0.0
  0
LINE
  5
2143
330
2037
100
AcDbEntity
  8
11100_LEFT_DIM
 62
     0
370
    -2
100
AcDbLine
 10
-70.67850991737859
 20
195.9857737205872
 30
0.0
 11
-70.67850991737859
 21
210.4627337205872
 31
0.0
  0
LINE
  5
2144
330
2037
100
AcDbEntity
  8
11100_LEFT_DIM
 62
     0
370
    -2
100
AcDbLine
 10
-58.17850991737859
 20
209.2127337205873
 30
0.0
 11
-68.17850991737859
 21
209.2127337205873
 31
0.0
  0
SOLID
  5
2145
330
2037
100
AcDbEntity
  8
11100_LEFT_DIM
 62
     0
100
AcDbTrace
 10
-58.17850991737859
 20
209.6294003872539
 30
0.0
 11
-58.17850991737859
 21
208.7960670539206
 31
0.0
 12
-55.67850991737859
 22
209.2127337205873
 32
0.0
 13
-55.67850991737859
 23
209.2127337205873
 33
0.0
  0
SOLID
  5
2146
330
2037
100
AcDbEntity
  8
11100_LEFT_DIM
 62
     0
100
AcDbTrace
 10
-68.17850991737859
 20
209.6294003872539
 30
0.0
 11
-68.17850991737859
 21
208.7960670539206
 31
0.0
 12
-70.67850991737859
 22
209.2127337205873
 32
0.0
 13
-70.67850991737859
 23
209.2127337205873
 33
0.0
  0
MTEXT
  5
2147
330
2037
100
AcDbEntity
  8
11100_LEFT_DIM
 62
     0
100
AcDbMText
 10
-63.17850991737859
 20
211.0877337205872
 30
0.0
 40
2.5
 41
0.0
 71
     5
 72
     1
  1
15
 73
     1
 44
1.0
1001
ACAD
1000
MTEXTBEGIN
1070
    73
1070
     1
1070
    44
1040
1.0
1070
    74
1070
     0
1000
MTEXTEND
  0
POINT
  5
2148
330
2037
100
AcDbEntity
  8
Defpoints
 62
     0
100
AcDbPoint
 10
-55.67850991737859
 20
200.5374737205872
 30
0.0
  0
POINT
  5
2149
330
2037
100
AcDbEntity
  8
Defpoints
 62
     0
100
AcDbPoint
 10
-70.67850991737859
 20
195.3607737205872
 30
0.0
  0
POINT
  5
214A
330
2037
100
AcDbEntity
  8
Defpoints
 62
     0
100
AcDbPoint
 10
-70.67850991737859
 20
209.2127337205873
 30
0.0
  0
ENDBLK
  5
2042
330
2037
100
AcDbEntity
  8
0
100
AcDbBlockEnd
  0
BLOCK
  5
2773
330
2768
100
AcDbEntity
  8
0
100
AcDbBlockBegin
  2
*D35
 70
     1
 10
0.0
 20
0.0
 30
0.0
  3
*D35
  1

  0
LINE
  5
27E1
330
2768
100
AcDbEntity
  8
11100_LEFT_DIM
 62
     0
370
    -2
100
AcDbLine
 10
-100.6785099173786
 20
195.183640720587
 30
0.0
 11
-100.6785099173786
 21
207.5730627205871
 31
0.0
  0
LINE
  5
27E2
330
2768
100
AcDbEntity
  8
11100_LEFT_DIM
 62
     0
370
    -2
100
AcDbLine
 10
-95.67850991737859
 20
195.985773720587
 30
0.0
 11
-95.67850991737859
 21
207.5730627205871
 31
0.0
  0
LINE
  5
27E3
330
2768
100
AcDbEntity
  8
11100_LEFT_DIM
 62
     0
370
    -2
100
AcDbLine
 10
-103.1785099173786
 20
206.3230627205871
 30
0.0
 11
-105.6785099173786
 21
206.3230627205871
 31
0.0
  0
LINE
  5
27E4
330
2768
100
AcDbEntity
  8
11100_LEFT_DIM
 62
     0
370
    -2
100
AcDbLine
 10
-93.17850991737859
 20
206.3230627205871
 30
0.0
 11
-90.67850991737859
 21
206.3230627205871
 31
0.0
  0
LINE
  5
27E5
330
2768
100
AcDbEntity
  8
11100_LEFT_DIM
 62
     0
370
    -2
100
AcDbLine
 10
-100.6785099173786
 20
206.3230627205871
 30
0.0
 11
-95.67850991737859
 21
206.3230627205871
 31
0.0
  0
SOLID
  5
27E6
330
2768
100
AcDbEntity
  8
11100_LEFT_DIM
 62
     0
100
AcDbTrace
 10
-103.1785099173786
 20
206.7397293872538
 30
0.0
 11
-103.1785099173786
 21
205.9063960539204
 31
0.0
 12
-100.6785099173786
 22
206.3230627205871
 32
0.0
 13
-100.6785099173786
 23
206.3230627205871
 33
0.0
  0
SOLID
  5
27E7
330
2768
100
AcDbEntity
  8
11100_LEFT_DIM
 62
     0
100
AcDbTrace
 10
-93.17850991737859
 20
206.7397293872538
 30
0.0
 11
-93.17850991737859
 21
205.9063960539204
 31
0.0
 12
-95.67850991737859
 22
206.3230627205871
 32
0.0
 13
-95.67850991737859
 23
206.3230627205871
 33
0.0
  0
MTEXT
  5
27E8
330
2768
100
AcDbEntity
  8
11100_LEFT_DIM
 62
     0
100
AcDbMText
 10
-98.17850991737859
 20
208.1980627205871
 30
0.0
 40
2.5
 41
0.0
 71
     5
 72
     1
  1
5
 73
     1
 44
1.0
1001
ACAD
1000
MTEXTBEGIN
1070
    73
1070
     1
1070
    44
1040
1.0
1070
    74
1070
     0
1000
MTEXTEND
  0
POINT
  5
27E9
330
2768
100
AcDbEntity
  8
Defpoints
 62
     0
100
AcDbPoint
 10
-100.6785099173786
 20
194.558640720587
 30
0.0
  0
POINT
  5
27EA
330
2768
100
AcDbEntity
  8
Defpoints
 62
     0
100
AcDbPoint
 10
-95.67850991737859
 20
195.3607737205871
 30
0.0
  0
POINT
  5
27EB
330
2768
100
AcDbEntity
  8
Defpoints
 62
     0
100
AcDbPoint
 10
-95.67850991737859
 20
206.3230627205871
 30
0.0
  0
ENDBLK
  5
2774
330
2768
100
AcDbEntity
  8
0
100
AcDbBlockEnd
  0
BLOCK
  5
277F
330
2775
100
AcDbEntity
  8
0
100
AcDbBlockBegin
  2
*D36
 70
     1
 10
0.0
 20
0.0
 30
0.0
  3
*D36
  1

  0
LINE
  5
27EC
330
2775
100
AcDbEntity
  8
11100_LEFT_DIM
 62
     0
370
    -2
100
AcDbLine
 10
-95.67850991737859
 20
179.685773720587
 30
0.0
 11
-95.67850991737859
 21
172.211016720587
 31
0.0
  0
LINE
  5
27ED
330
2775
100
AcDbEntity
  8
11100_LEFT_DIM
 62
     0
370
    -2
100
AcDbLine
 10
-55.67850991737859
 20
176.685773720587
 30
0.0
 11
-55.67850991737859
 21
172.211016720587
 31
0.0
  0
LINE
  5
27EE
330
2775
100
AcDbEntity
  8
11100_LEFT_DIM
 62
     0
370
    -2
100
AcDbLine
 10
-93.17850991737859
 20
173.461016720587
 30
0.0
 11
-58.17850991737859
 21
173.461016720587
 31
0.0
  0
SOLID
  5
27EF
330
2775
100
AcDbEntity
  8
11100_LEFT_DIM
 62
     0
100
AcDbTrace
 10
-93.17850991737859
 20
173.8776833872537
 30
0.0
 11
-93.17850991737859
 21
173.0443500539204
 31
0.0
 12
-95.67850991737859
 22
173.461016720587
 32
0.0
 13
-95.67850991737859
 23
173.461016720587
 33
0.0
  0
SOLID
  5
27F0
330
2775
100
AcDbEntity
  8
11100_LEFT_DIM
 62
     0
100
AcDbTrace
 10
-58.17850991737859
 20
173.8776833872537
 30
0.0
 11
-58.17850991737859
 21
173.0443500539204
 31
0.0
 12
-55.67850991737859
 22
173.461016720587
 32
0.0
 13
-55.67850991737859
 23
173.461016720587
 33
0.0
  0
MTEXT
  5
27F1
330
2775
100
AcDbEntity
  8
11100_LEFT_DIM
 62
     0
100
AcDbMText
 10
-75.67850991737859
 20
175.336016720587
 30
0.0
 40
2.5
 41
0.0
 71
     5
 72
     1
  1
40
 73
     1
 44
1.0
1001
ACAD
1000
MTEXTBEGIN
1070
    73
1070
     1
1070
    44
1040
1.0
1070
    74
1070
     0
1000
MTEXTEND
  0
POINT
  5
27F2
330
2775
100
AcDbEntity
  8
Defpoints
 62
     0
100
AcDbPoint
 10
-95.67850991737859
 20
180.310773720587
 30
0.0
  0
POINT
  5
27F3
330
2775
100
AcDbEntity
  8
Defpoints
 62
     0
100
AcDbPoint
 10
-55.67850991737859
 20
177.3107737205871
 30
0.0
  0
POINT
  5
27F4
330
2775
100
AcDbEntity
  8
Defpoints
 62
     0
100
AcDbPoint
 10
-55.67850991737859
 20
173.461016720587
 30
0.0
  0
ENDBLK
  5
2780
330
2775
100
AcDbEntity
  8
0
100
AcDbBlockEnd
  0
BLOCK
  5
278B
330
2781
100
AcDbEntity
  8
0
100
AcDbBlockBegin
  2
*D37
 70
     1
 10
0.0
 20
0.0
 30
0.0
  3
*D37
  1

  0
LINE
  5
27A9
330
2781
100
AcDbEntity
  8
11100_LEFT_DIM
 62
     0
370
    -2
100
AcDbLine
 10
-105.6785129173786
 20
183.462089720587
 30
0.0
 11
-105.6785129173786
 21
164.941992720587
 31
0.0
  0
LINE
  5
27AA
330
2781
100
AcDbEntity
  8
11100_LEFT_DIM
 62
     0
370
    -2
100
AcDbLine
 10
-55.67850991737859
 20
177.685773720587
 30
0.0
 11
-55.67850991737859
 21
164.941992720587
 31
0.0
  0
LINE
  5
27AB
330
2781
100
AcDbEntity
  8
11100_LEFT_DIM
 62
     0
370
    -2
100
AcDbLine
 10
-103.1785129173786
 20
166.191992720587
 30
0.0
 11
-58.17850991737859
 21
166.191992720587
 31
0.0
  0
SOLID
  5
27AC
330
2781
100
AcDbEntity
  8
11100_LEFT_DIM
 62
     0
100
AcDbTrace
 10
-103.1785129173786
 20
166.6086593872537
 30
0.0
 11
-103.1785129173786
 21
165.7753260539204
 31
0.0
 12
-105.6785129173786
 22
166.191992720587
 32
0.0
 13
-105.6785129173786
 23
166.191992720587
 33
0.0
  0
SOLID
  5
27AD
330
2781
100
AcDbEntity
  8
11100_LEFT_DIM
 62
     0
100
AcDbTrace
 10
-58.17850991737859
 20
166.6086593872537
 30
0.0
 11
-58.17850991737859
 21
165.7753260539204
 31
0.0
 12
-55.67850991737859
 22
166.191992720587
 32
0.0
 13
-55.67850991737859
 23
166.191992720587
 33
0.0
  0
MTEXT
  5
27AE
330
2781
100
AcDbEntity
  8
11100_LEFT_DIM
 62
     0
100
AcDbMText
 10
-80.67850991737859
 20
168.066992720587
 30
0.0
 40
2.5
 41
0.0
 71
     5
 72
     1
  1
50
 73
     1
 44
1.0
1001
ACAD
1000
MTEXTBEGIN
1070
    73
1070
     1
1070
    44
1040
1.0
1070
    74
1070
     0
1000
MTEXTEND
  0
POINT
  5
27AF
330
2781
100
AcDbEntity
  8
Defpoints
 62
     0
100
AcDbPoint
 10
-105.6785129173786
 20
184.087089720587
 30
0.0
  0
POINT
  5
27B0
330
2781
100
AcDbEntity
  8
Defpoints
 62
     0
100
AcDbPoint
 10
-55.67850991737859
 20
178.310773720587
 30
0.0
  0
POINT
  5
27B1
330
2781
100
AcDbEntity
  8
Defpoints
 62
     0
100
AcDbPoint
 10
-55.67850991737859
 20
166.191992720587
 30
0.0
  0
ENDBLK
  5
278C
330
2781
100
AcDbEntity
  8
0
100
AcDbBlockEnd
  0
ENDSEC
  0
SECTION
  2
ENTITIES
  0
INSERT
  5
59C
330
1F
100
AcDbEntity
  8
90000_FRAME
  6
Continuous
 62
     7
100
AcDbBlockReference
  2
SIEMENS_OUTLINE_BL0
 10
-150.4381140850431
 20
79.4714707072352
 30
0.0
  0
LINE
  5
59D
330
1F
100
AcDbEntity
  8
90000_FRAME
  6
Continuous
 62
     7
100
AcDbLine
 10
-83.08401146896413
 20
89.80972993483852
 30
0.0
 11
51.91598853103578
 21
89.80972993483852
 31
0.0
  0
LINE
  5
59E
330
1F
100
AcDbEntity
  8
90000_FRAME
  6
Continuous
 62
     7
100
AcDbLine
 10
-83.08401146896413
 20
89.80972993483852
 30
0.0
 11
-83.08401146896413
 21
107.8097299348385
 31
0.0
  0
LINE
  5
59F
330
1F
100
AcDbEntity
  8
90000_FRAME
  6
Continuous
 62
     7
100
AcDbLine
 10
-33.08401146896426
 20
95.80972993483852
 30
0.0
 11
51.91598853103578
 21
95.80972993483852
 31
0.0
  0
LINE
  5
5A0
330
1F
100
AcDbEntity
  8
90000_FRAME
  6
Continuous
 62
     7
100
AcDbLine
 10
-83.08401146896413
 20
107.8097299348385
 30
0.0
 11
51.91598853103578
 21
107.8097299348385
 31
0.0
  0
LINE
  5
5A1
330
1F
100
AcDbEntity
  8
90000_FRAME
  6
Continuous
 62
     7
100
AcDbLine
 10
-33.08401146896426
 20
89.80972993483852
 30
0.0
 11
-33.08401146896426
 21
107.8097299348385
 31
0.0
  0
LINE
  5
5A2
330
1F
100
AcDbEntity
  8
90000_FRAME
  6
Continuous
 62
     7
100
AcDbLine
 10
9.41598853103585
 20
89.80972993483852
 30
0.0
 11
9.41598853103585
 21
95.80972993483852
 31
0.0
  0
LINE
  5
5A3
330
1F
100
AcDbEntity
  8
90000_FRAME
  6
Continuous
 62
     7
100
AcDbLine
 10
51.91598853103578
 20
89.80972993483852
 30
0.0
 11
51.91598853103578
 21
107.8097299348385
 31
0.0
  0
TEXT
  5
5A4
330
1F
100
AcDbEntity
  8
90000_FRAME
  6
Continuous
 62
     7
100
AcDbText
 10
-32.42401146896424
 20
91.70972993483848
 30
0.0
 40
2.2
  1
Format / Size: DIN A4
 41
0.7994987468660263
 72
     5
 11
0.9950361500356732
 21
91.70972993483848
 31
0.0
100
AcDbText
  0
TEXT
  5
5A5
330
1F
100
AcDbEntity
  8
90000_FRAME
  6
Continuous
 62
     7
100
AcDbText
 10
10.07598853103576
 20
91.70972993483848
 30
0.0
 40
2.2
  1
Massstab / Scale: 1:1
 41
0.7732634338148428
 72
     5
 11
40.98075043583564
 21
91.70972993483848
 31
0.0
100
AcDbText
  0
TEXT
  5
5A6
330
1F
100
AcDbEntity
  8
90000_FRAME
  6
Continuous
 62
     7
100
AcDbText
 10
-21.6896139092413
 20
97.83340632738337
 30
0.0
 40
3.5
  1
1-polige Elektrode
 41
1.133669980639556
 72
     5
 11
40.47329002916103
 21
97.83340632738337
 31
0.0
100
AcDbText
  0
LINE
  5
5A7
330
1F
100
AcDbEntity
  8
90000_FRAME
  6
Continuous
 62
     7
100
AcDbLine
 10
-208.0840114689632
 20
79.80972993483852
 30
0.0
 11
61.91598853103688
 21
79.80972993483852
 31
0.0
  0
LINE
  5
5A8
330
1F
100
AcDbEntity
  8
90000_FRAME
  6
Continuous
 62
     7
100
AcDbLine
 10
61.91598853103688
 20
79.80972993483852
 30
0.0
 11
61.91598853103688
 21
279.8097299348384
 31
0.0
  0
TEXT
  5
5A9
330
1F
100
AcDbEntity
  8
91000_TIP
  6
Continuous
 62
     7
100
AcDbText
 10
-204.0306616862994
 20
88.54196655651511
 30
0.0
 40
2.5
  1
Alle Bemassungswerte sind in Millimeter (mm) angegeben.
 41
0.6056311217924582
 72
     5
 11
-130.345541868217
 21
88.54196655651511
 31
0.0
100
AcDbText
  0
TEXT
  5
5AA
330
1F
100
AcDbEntity
  8
91000_TIP
  6
Continuous
 62
     7
100
AcDbText
 10
-204.0306616862994
 20
83.29196655651513
 30
0.0
 40
2.5
  1
All dimensions are in millimeters (mm).
 41
0.7513350295680269
 72
     5
 11
-143.9238593208573
 21
83.29196655651513
 31
0.0
100
AcDbText
  0
LINE
  5
5AB
330
1F
100
AcDbEntity
  8
91000_TIP
  6
Continuous
 62
     7
100
AcDbLine
 10
-108.2693413649382
 20
101.1334674572091
 30
0.0
 11
-98.26934156913814
 21
103.6334674062091
 31
0.0
  0
LINE
  5
5AC
330
1F
100
AcDbEntity
  8
91000_TIP
  6
CENTER
 62
     7
100
AcDbLine
 10
-109.5488518369391
 20
98.63346750830912
 30
0.0
 11
-85.94686257283909
 21
98.63346750830912
 31
0.0
  0
LINE
  5
5AD
330
1F
100
AcDbEntity
  8
91000_TIP
  6
Continuous
 62
     7
100
AcDbLine
 10
-108.2693413649382
 20
96.13346755940909
 30
0.0
 11
-98.26934156913814
 21
93.63346761040899
 31
0.0
  0
LINE
  5
5AE
330
1F
100
AcDbEntity
  8
91000_TIP
  6
Continuous
 62
     7
100
AcDbLine
 10
-108.2693413649382
 20
101.1334674572091
 30
0.0
 11
-108.2693413649382
 21
96.13346755940909
 31
0.0
  0
LINE
  5
5AF
330
1F
100
AcDbEntity
  8
91000_TIP
  6
Continuous
 62
     7
100
AcDbLine
 10
-98.26934156913814
 20
103.6334674062091
 30
0.0
 11
-98.26934156913814
 21
93.63346761040899
 31
0.0
  0
LINE
  5
5B0
330
1F
100
AcDbEntity
  8
91000_TIP
  6
CENTER
 62
     7
100
AcDbLine
 10
-91.76934170193829
 20
92.91198630190908
 30
0.0
 11
-91.76934170193829
 21
104.195372301909
 31
0.0
  0
CIRCLE
  5
5B1
330
1F
100
AcDbEntity
  8
91000_TIP
  6
Continuous
 62
     7
100
AcDbCircle
 10
-91.76934170193829
 20
98.63346750830912
 30
0.0
 40
4.9999998979
  0
CIRCLE
  5
5B2
330
1F
100
AcDbEntity
  8
91000_TIP
  6
Continuous
 62
     7
100
AcDbCircle
 10
-91.76934170193829
 20
98.63346750830912
 30
0.0
 40
2.499999948899997
  0
LINE
  5
5B3
330
1F
100
AcDbEntity
  8
90000_FRAME
  6
Continuous
 62
     7
100
AcDbLine
 10
-208.0840114689632
 20
79.80972993483852
 30
0.0
 11
-208.0840114689632
 21
279.8097299348384
 31
0.0
  0
LINE
  5
5B4
330
1F
100
AcDbEntity
  8
90000_FRAME
  6
Continuous
 62
     7
100
AcDbLine
 10
-208.0840114689632
 20
279.8097299348384
 30
0.0
 11
61.91598853103688
 21
279.8097299348384
 31
0.0
  0
TEXT
  5
13F1
330
1F
100
AcDbEntity
  8
90000_FRAME
  6
Continuous
 62
     7
100
AcDbText
 10
-19.77808694501345
 20
102.7313182637846
 30
0.0
 40
3.5
  1
3UG3207_00002049_000_ALL
 41
0.7206724823095582
 72
     5
 11
36.13408647416975
 21
102.7313182637846
 31
0.0
100
AcDbText
  0
LINE
  5
1FC9
330
1F
100
AcDbEntity
  8
11000_Left
  6
Continuous
 62
     7
370
    50
100
AcDbLine
 10
-55.67850991737859
 20
200.5374737205872
 30
0.0
 11
-40.6785099173786
 21
200.5374737205872
 31
0.0
  0
LINE
  5
1FCA
330
1F
100
AcDbEntity
  8
11000_Left
  6
Continuous
 62
     7
370
    50
100
AcDbLine
 10
-55.67850991737859
 20
175.1340637205872
 30
0.0
 11
-40.6785099173786
 21
175.1340637205872
 31
0.0
  0
LINE
  5
1FCB
330
1F
100
AcDbEntity
  8
11000_Left
  6
Continuous
 62
     7
370
    50
100
AcDbLine
 10
-40.6785099173786
 20
200.5374737205872
 30
0.0
 11
-40.6785099173786
 21
190.0857737205871
 31
0.0
  0
LINE
  5
1FE2
330
1F
100
AcDbEntity
  8
11000_Left
  6
Continuous
 62
     7
370
    15
100
AcDbLine
 10
-55.67850991737859
 20
194.1866237205872
 30
0.0
 11
-40.6785099173786
 21
194.1866237205872
 31
0.0
  0
LINE
  5
1FE3
330
1F
100
AcDbEntity
  8
11000_Left
  6
Continuous
 62
     7
370
    15
100
AcDbLine
 10
-55.67850991737859
 20
181.4849237205872
 30
0.0
 11
-40.6785099173786
 21
181.4849237205872
 31
0.0
  0
DIMENSION
  5
1FFF
330
1F
100
AcDbEntity
  8
11100_LEFT_DIM
100
AcDbDimension
  2
*D4
 10
-70.67850991737859
 20
209.2127337205873
 30
0.0
 11
-63.17850991737859
 21
209.2127337205873
 31
0.0
 70
   160
 71
     5
 42
15.0
  3
ISO-25
100
AcDbAlignedDimension
 13
-55.67850991737859
 23
200.5374737205872
 33
0.0
 14
-70.67850991737859
 24
195.3607737205872
 34
0.0
100
AcDbRotatedDimension
  0
LINE
  5
20E2
330
1F
100
AcDbEntity
  8
11000_Left
  6
Continuous
 62
     7
370
    50
100
AcDbLine
 10
-57.67850991737859
 20
198.3607737205872
 30
0.0
 11
-57.67850991737859
 21
197.3607737205872
 31
0.0
  0
LINE
  5
20E3
330
1F
100
AcDbEntity
  8
11000_Left
  6
Continuous
 62
     7
370
    15
100
AcDbLine
 10
-57.67850991737859
 20
197.3607737205872
 30
0.0
 11
-57.67850991737859
 21
178.3107737205872
 31
0.0
  0
LINE
  5
20E4
330
1F
100
AcDbEntity
  8
11000_Left
  6
Continuous
 62
     7
370
    50
100
AcDbLine
 10
-57.67850991737859
 20
178.3107737205872
 30
0.0
 11
-57.67850991737859
 21
177.3107737205872
 31
0.0
  0
LINE
  5
20E5
330
1F
100
AcDbEntity
  8
11000_Left
  6
Continuous
 62
     7
370
    50
100
AcDbLine
 10
-57.67850991737859
 20
198.3607737205872
 30
0.0
 11
-55.67850991737859
 21
198.3607737205872
 31
0.0
  0
LINE
  5
20E6
330
1F
100
AcDbEntity
  8
11000_Left
  6
Continuous
 62
     7
370
    50
100
AcDbLine
 10
-57.67850991737859
 20
177.3107737205872
 30
0.0
 11
-55.67850991737859
 21
177.3107737205872
 31
0.0
  0
LINE
  5
20EC
330
1F
100
AcDbEntity
  8
11000_Left
  6
Continuous
 62
     7
370
    50
100
AcDbLine
 10
-68.67850991737859
 20
197.3607737205872
 30
0.0
 11
-57.67850991737859
 21
197.3607737205872
 31
0.0
  0
LINE
  5
20ED
330
1F
100
AcDbEntity
  8
11000_Left
  6
Continuous
 62
     7
370
    50
100
AcDbLine
 10
-68.67850991737859
 20
178.3107737205872
 30
0.0
 11
-57.67850991737859
 21
178.3107737205872
 31
0.0
  0
LINE
  5
20EE
330
1F
100
AcDbEntity
  8
11000_Left
  6
Continuous
 62
     7
370
    15
100
AcDbLine
 10
-70.67850991737859
 20
195.3607737205871
 30
0.0
 11
-70.67850991737859
 21
180.3107737205872
 31
0.0
  0
LINE
  5
20EF
330
1F
100
AcDbEntity
  8
11000_Left
  6
Continuous
 62
     7
370
    15
100
AcDbLine
 10
-70.67850991737859
 20
195.3607737205871
 30
0.0
 11
-57.67850991737859
 21
195.3607737205871
 31
0.0
  0
LINE
  5
20F0
330
1F
100
AcDbEntity
  8
11000_Left
  6
Continuous
 62
     7
370
    15
100
AcDbLine
 10
-70.67850991737859
 20
180.3107737205872
 30
0.0
 11
-57.67850991737859
 21
180.3107737205872
 31
0.0
  0
LINE
  5
20F1
330
1F
100
AcDbEntity
  8
11000_Left
  6
Continuous
 62
     7
370
    50
100
AcDbLine
 10
-70.67850991737859
 20
195.3607737205871
 30
0.0
 11
-68.67850991737859
 21
197.3607737205872
 31
0.0
  0
LINE
  5
20F2
330
1F
100
AcDbEntity
  8
11000_Left
  6
Continuous
 62
     7
370
    50
100
AcDbLine
 10
-70.67850991737859
 20
180.3107737205872
 30
0.0
 11
-68.67850991737859
 21
178.3107737205872
 31
0.0
  0
LINE
  5
20F3
330
1F
100
AcDbEntity
  8
11000_Left
  6
Continuous
 62
     7
370
    15
100
AcDbLine
 10
-68.67850991737859
 20
197.3607737205872
 30
0.0
 11
-68.67850991737859
 21
178.3107737205872
 31
0.0
  0
LINE
  5
20FD
330
1F
100
AcDbEntity
  8
11000_Left
  6
Continuous
 62
     7
370
    50
100
AcDbLine
 10
-55.67850991737859
 20
200.5374737205872
 30
0.0
 11
-55.67850991737859
 21
198.3607737205872
 31
0.0
  0
LINE
  5
20FE
330
1F
100
AcDbEntity
  8
11000_Left
  6
Continuous
 62
     7
370
    15
100
AcDbLine
 10
-55.67850991737859
 20
198.3607737205872
 30
0.0
 11
-55.67850991737859
 21
177.3107737205872
 31
0.0
  0
LINE
  5
20FF
330
1F
100
AcDbEntity
  8
11000_Left
  6
Continuous
 62
     7
370
    50
100
AcDbLine
 10
-55.67850991737859
 20
177.3107737205872
 30
0.0
 11
-55.67850991737859
 21
175.1340637205872
 31
0.0
  0
LINE
  5
2100
330
1F
100
AcDbEntity
  8
11000_Left
  6
Continuous
 62
     7
370
    15
100
AcDbLine
 10
-40.6785099173786
 20
190.0857737205871
 30
0.0
 11
-40.6785099173786
 21
185.5857737205871
 31
0.0
  0
LINE
  5
2101
330
1F
100
AcDbEntity
  8
11000_Left
  6
Continuous
 62
     7
370
    50
100
AcDbLine
 10
-40.6785099173786
 20
185.5857737205871
 30
0.0
 11
-40.6785099173786
 21
175.1340637205872
 31
0.0
  0
LINE
  5
242A
330
1F
100
AcDbEntity
  8
11100_LEFT_DIM
100
AcDbLine
 10
-48.17850991737859
 20
175.1340637205872
 30
0.0
 11
-44.14184991737861
 21
164.9037067205871
 31
0.0
  0
LINE
  5
242E
330
1F
100
AcDbEntity
  8
11100_LEFT_DIM
100
AcDbLine
 10
-41.14184991737861
 20
164.9037067205871
 30
0.0
 11
-44.14184991737861
 21
164.9037067205871
 31
0.0
  0
TEXT
  5
242F
330
1F
100
AcDbEntity
  8
11100_LEFT_DIM
100
AcDbText
 10
-39.64184991737861
 20
163.4037067205871
 30
0.0
 40
3.0
  1
SW 22
100
AcDbText
  0
SOLID
  5
2440
330
1F
100
AcDbEntity
  8
11100_LEFT_DIM
100
AcDbTrace
 10
-47.65915560437027
 20
172.6533617617314
 30
0.0
 11
-46.88267682382288
 21
172.9558929961588
 31
0.0
 12
-48.17850991737859
 22
175.1340637205872
 32
0.0
 13
-48.17850991737859
 23
175.1340637205872
 33
0.0
  0
LINE
  5
2756
330
1F
100
AcDbEntity
  8
11000_Left
  6
Continuous
 62
     7
370
    50
100
AcDbLine
 10
-95.67850991737859
 20
195.3607737205871
 30
0.0
 11
-95.67850991737859
 21
194.558640720587
 31
0.0
  0
LINE
  5
2757
330
1F
100
AcDbEntity
  8
11000_Left
  6
Continuous
 62
     7
370
    50
100
AcDbLine
 10
-70.67850991737859
 20
195.3607737205871
 30
0.0
 11
-95.67850991737859
 21
195.3607737205871
 31
0.0
  0
LINE
  5
2758
330
1F
100
AcDbEntity
  8
11000_Left
  6
Continuous
 62
     7
370
    50
100
AcDbLine
 10
-70.67850991737859
 20
180.310773720587
 30
0.0
 11
-95.67850991737859
 21
180.310773720587
 31
0.0
  0
LINE
  5
2759
330
1F
100
AcDbEntity
  8
11000_Left
  6
Continuous
 62
     7
370
    50
100
AcDbLine
 10
-105.6785129173786
 20
191.584457720587
 30
0.0
 11
-105.6785129173786
 21
184.087089720587
 31
0.0
  0
LINE
  5
275D
330
1F
100
AcDbEntity
  8
11000_Left
  6
Continuous
 62
     7
370
    50
100
AcDbLine
 10
-105.6785129173786
 20
191.584457720587
 30
0.0
 11
-100.6785099173786
 21
191.584457720587
 31
0.0
  0
LINE
  5
275E
330
1F
100
AcDbEntity
  8
11000_Left
  6
Continuous
 62
     7
370
    50
100
AcDbLine
 10
-105.6785129173786
 20
184.087089720587
 30
0.0
 11
-100.6785099173786
 21
184.087089720587
 31
0.0
  0
LINE
  5
275F
330
1F
100
AcDbEntity
  8
11000_Left
  6
Continuous
 62
     7
370
    15
100
AcDbLine
 10
-95.67850991737859
 20
194.558640720587
 30
0.0
 11
-95.67850991737858
 21
181.112906720587
 31
0.0
  0
LINE
  5
2760
330
1F
100
AcDbEntity
  8
11000_Left
  6
Continuous
 62
     7
370
    50
100
AcDbLine
 10
-95.67850991737859
 20
181.112906720587
 30
0.0
 11
-100.6785099173786
 21
181.112906720587
 31
0.0
  0
LINE
  5
2761
330
1F
100
AcDbEntity
  8
11000_Left
  6
Continuous
 62
     7
370
    50
100
AcDbLine
 10
-100.6785099173786
 20
181.112906720587
 30
0.0
 11
-100.6785099173786
 21
184.087089720587
 31
0.0
  0
LINE
  5
2762
330
1F
100
AcDbEntity
  8
11000_Left
  6
Continuous
 62
     7
370
    50
100
AcDbLine
 10
-100.6785099173786
 20
194.558640720587
 30
0.0
 11
-95.67850991737859
 21
194.558640720587
 31
0.0
  0
DIMENSION
  5
2763
330
1F
100
AcDbEntity
  8
11100_LEFT_DIM
100
AcDbDimension
  2
*D35
 10
-95.67850991737859
 20
206.3230627205871
 30
0.0
 11
-98.17850991737859
 21
206.3230627205871
 31
0.0
 70
   160
 71
     5
 42
5.0
  3
ISO-25
100
AcDbAlignedDimension
 13
-100.6785099173786
 23
194.558640720587
 33
0.0
 14
-95.67850991737859
 24
195.3607737205871
 34
0.0
100
AcDbRotatedDimension
  0
DIMENSION
  5
2764
330
1F
100
AcDbEntity
  8
11100_LEFT_DIM
100
AcDbDimension
  2
*D36
 10
-55.67850991737859
 20
173.461016720587
 30
0.0
 11
-75.67850991737859
 21
173.461016720587
 31
0.0
 70
   160
 71
     5
 42
40.0
  3
ISO-25
100
AcDbAlignedDimension
 13
-95.67850991737859
 23
180.310773720587
 33
0.0
 14
-55.67850991737859
 24
177.3107737205871
 34
0.0
100
AcDbRotatedDimension
  0
DIMENSION
  5
2765
330
1F
100
AcDbEntity
  8
11100_LEFT_DIM
100
AcDbDimension
  2
*D37
 10
-55.67850991737859
 20
166.191992720587
 30
0.0
 11
-80.67850991737859
 21
166.191992720587
 31
0.0
 70
   160
 71
     5
 42
50.000003
  3
ISO-25
100
AcDbAlignedDimension
 13
-105.6785129173786
 23
184.087089720587
 33
0.0
 14
-55.67850991737859
 24
178.310773720587
 34
0.0
100
AcDbRotatedDimension
  0
LINE
  5
27C6
330
1F
100
AcDbEntity
  8
11000_Left
  6
Continuous
 62
     7
370
    15
100
AcDbLine
 10
-95.68922275157857
 20
181.112906886387
 30
0.0
 11
-95.67851708317858
 21
181.123612554787
 31
0.0
  0
LINE
  5
27C7
330
1F
100
AcDbEntity
  8
11000_Left
  6
Continuous
 62
     7
370
     9
100
AcDbLine
 10
-97.10343631737858
 20
181.112906886387
 30
0.0
 11
-95.67851708317858
 21
182.537826120587
 31
0.0
  0
LINE
  5
27C8
330
1F
100
AcDbEntity
  8
11000_Left
  6
Continuous
 62
     7
370
     9
100
AcDbLine
 10
-98.51764991737859
 20
181.112906886387
 30
0.0
 11
-95.67851708317858
 21
183.952039720587
 31
0.0
  0
LINE
  5
27C9
330
1F
100
AcDbEntity
  8
11000_Left
  6
Continuous
 62
     7
370
     9
100
AcDbLine
 10
-99.9318634173786
 20
181.112906886387
 30
0.0
 11
-95.67851708317858
 21
185.366253220587
 31
0.0
  0
LINE
  5
27CA
330
1F
100
AcDbEntity
  8
11000_Left
  6
Continuous
 62
     7
370
     9
100
AcDbLine
 10
-100.6785171173786
 20
181.780466800587
 30
0.0
 11
-95.67851708317858
 21
186.780466820587
 31
0.0
  0
LINE
  5
27CB
330
1F
100
AcDbEntity
  8
11000_Left
  6
Continuous
 62
     7
370
     9
100
AcDbLine
 10
-100.6785171173786
 20
183.194680320587
 30
0.0
 11
-95.67851708317858
 21
188.194680320587
 31
0.0
  0
LINE
  5
27CC
330
1F
100
AcDbEntity
  8
11000_Left
  6
Continuous
 62
     7
370
     9
100
AcDbLine
 10
-100.6785171173786
 20
184.608893920587
 30
0.0
 11
-95.67851708317858
 21
189.608893920587
 31
0.0
  0
LINE
  5
27CD
330
1F
100
AcDbEntity
  8
11000_Left
  6
Continuous
 62
     7
370
     9
100
AcDbLine
 10
-100.6785171173786
 20
186.023107520587
 30
0.0
 11
-95.67851708317858
 21
191.023107520587
 31
0.0
  0
LINE
  5
27CE
330
1F
100
AcDbEntity
  8
11000_Left
  6
Continuous
 62
     7
370
     9
100
AcDbLine
 10
-100.6785171173786
 20
187.437321020587
 30
0.0
 11
-95.67851708317858
 21
192.437320720587
 31
0.0
  0
LINE
  5
27CF
330
1F
100
AcDbEntity
  8
11000_Left
  6
Continuous
 62
     7
370
     9
100
AcDbLine
 10
-100.6785171173786
 20
188.851534620587
 30
0.0
 11
-95.67851708317858
 21
193.851534720587
 31
0.0
  0
LINE
  5
27D0
330
1F
100
AcDbEntity
  8
11000_Left
  6
Continuous
 62
     7
370
     9
100
AcDbLine
 10
-100.6785171173786
 20
190.265748220587
 30
0.0
 11
-96.38562386737859
 21
194.558641720587
 31
0.0
  0
LINE
  5
27D1
330
1F
100
AcDbEntity
  8
11000_Left
  6
Continuous
 62
     7
370
     9
100
AcDbLine
 10
-100.6785171173786
 20
191.679961720587
 30
0.0
 11
-97.79983741737858
 21
194.558641720587
 31
0.0
  0
LINE
  5
27D2
330
1F
100
AcDbEntity
  8
11000_Left
  6
Continuous
 62
     7
370
     9
100
AcDbLine
 10
-100.6785171173786
 20
193.094175720587
 30
0.0
 11
-99.21405101737859
 21
194.558641720587
 31
0.0
  0
LINE
  5
27D3
330
1F
100
AcDbEntity
  8
11000_Left
  6
Continuous
 62
     7
370
     9
100
AcDbLine
 10
-100.6785171173786
 20
194.508388720587
 30
0.0
 11
-100.6282645173786
 21
194.558641720587
 31
0.0
  0
LINE
  5
27D4
330
1F
100
AcDbEntity
  8
11100_LEFT_DIM
  6
Continuous
 62
     7
100
AcDbLine
 10
-100.6785099173786
 20
194.558640720587
 30
0.0
 11
-106.9839509173786
 21
197.717164720587
 31
0.0
  0
LINE
  5
27D8
330
1F
100
AcDbEntity
  8
11100_LEFT_DIM
  6
Continuous
 62
     7
100
AcDbLine
 10
-109.9839509173786
 20
197.717164720587
 30
0.0
 11
-106.9839509173786
 21
197.717164720587
 31
0.0
  0
TEXT
  5
27D9
330
1F
100
AcDbEntity
  8
11100_LEFT_DIM
  6
Continuous
 62
     7
100
AcDbText
 10
-141.4839509173786
 20
196.717164720587
 30
0.0
 40
2.0
  1
PTFE-Isolierung
100
AcDbText
  0
LINE
  5
27E0
330
1F
100
AcDbEntity
  8
11000_Left
  6
Continuous
 62
     7
370
    50
100
AcDbLine
 10
-95.67850991737858
 20
181.112906720587
 30
0.0
 11
-95.67850991737859
 21
180.310773720587
 31
0.0
  0
SOLID
  5
27F5
330
1F
100
AcDbEntity
  8
11100_LEFT_DIM
  6
Continuous
 62
     7
100
AcDbTrace
 10
-102.6989776041641
 20
196.0887784391493
 30
0.0
 11
-103.0860240163039
 21
195.3507814748641
 31
0.0
 12
-100.6785099173786
 22
194.558640720587
 32
0.0
 13
-100.6785099173786
 23
194.558640720587
 33
0.0
  0
LINE
  5
27F6
330
1F
100
AcDbEntity
  8
11000_Left
  6
Continuous
 62
     7
370
    50
100
AcDbLine
 10
-17.37093991737859
 20
185.5857737205871
 30
0.0
 11
-17.37093991737859
 21
185.9873337205871
 31
0.0
  0
LINE
  5
27F7
330
1F
100
AcDbEntity
  8
11000_Left
  6
Continuous
 62
     7
370
    15
100
AcDbLine
 10
-17.37093991737859
 20
185.9873337205871
 30
0.0
 11
-17.37093991737859
 21
186.9873337205871
 31
0.0
  0
LINE
  5
27F8
330
1F
100
AcDbEntity
  8
11000_Left
  6
Continuous
 62
     7
370
    50
100
AcDbLine
 10
-17.37093991737859
 20
186.9873337205871
 30
0.0
 11
-17.37093991737859
 21
188.6842137205871
 31
0.0
  0
LINE
  5
27F9
330
1F
100
AcDbEntity
  8
11000_Left
  6
Continuous
 62
     7
370
    15
100
AcDbLine
 10
-17.37093991737859
 20
188.6842137205871
 30
0.0
 11
-17.37093991737859
 21
189.684213720587
 31
0.0
  0
LINE
  5
27FA
330
1F
100
AcDbEntity
  8
11000_Left
  6
Continuous
 62
     7
370
    50
100
AcDbLine
 10
-17.37093991737859
 20
189.684213720587
 30
0.0
 11
-17.37093991737859
 21
190.0857737205871
 31
0.0
  0
LINE
  5
27FB
330
1F
100
AcDbEntity
  8
11000_Left
  6
Continuous
 62
     7
370
    50
100
AcDbLine
 10
-9.616249917378581
 20
189.684213720587
 30
0.0
 11
-17.37093991737859
 21
189.684213720587
 31
0.0
  0
LINE
  5
27FC
330
1F
100
AcDbEntity
  8
11000_Left
  6
Continuous
 62
     7
370
    50
100
AcDbLine
 10
-9.616249917378581
 20
188.6842137205871
 30
0.0
 11
-17.37093991737859
 21
188.6842137205871
 31
0.0
  0
LINE
  5
27FD
330
1F
100
AcDbEntity
  8
11000_Left
  6
Continuous
 62
     7
370
    50
100
AcDbLine
 10
-9.616249917378581
 20
186.9873337205871
 30
0.0
 11
-17.37093991737859
 21
186.9873337205871
 31
0.0
  0
LINE
  5
27FE
330
1F
100
AcDbEntity
  8
11000_Left
  6
Continuous
 62
     7
370
    50
100
AcDbLine
 10
-9.616249917378581
 20
185.9873337205871
 30
0.0
 11
-17.37093991737859
 21
185.9873337205871
 31
0.0
  0
LINE
  5
27FF
330
1F
100
AcDbEntity
  8
11000_Left
  6
Continuous
 62
     7
370
    50
100
AcDbLine
 10
-9.616249917378581
 20
189.684213720587
 30
0.0
 11
-9.616249917378581
 21
189.434213720587
 31
0.0
  0
LINE
  5
2800
330
1F
100
AcDbEntity
  8
11000_Left
  6
Continuous
 62
     7
370
    15
100
AcDbLine
 10
-9.616249917378581
 20
189.434213720587
 30
0.0
 11
-9.616249917378581
 21
188.934213720587
 31
0.0
  0
LINE
  5
2801
330
1F
100
AcDbEntity
  8
11000_Left
  6
Continuous
 62
     7
370
    50
100
AcDbLine
 10
-9.616249917378581
 20
188.934213720587
 30
0.0
 11
-9.616249917378581
 21
188.6842137205871
 31
0.0
  0
LINE
  5
2802
330
1F
100
AcDbEntity
  8
11000_Left
  6
Continuous
 62
     7
370
    50
100
AcDbLine
 10
-9.616249917378581
 20
186.9873337205871
 30
0.0
 11
-9.616249917378581
 21
186.7373337205871
 31
0.0
  0
LINE
  5
2803
330
1F
100
AcDbEntity
  8
11000_Left
  6
Continuous
 62
     7
370
    15
100
AcDbLine
 10
-9.616249917378581
 20
186.7373337205871
 30
0.0
 11
-9.616249917378581
 21
186.2373337205871
 31
0.0
  0
LINE
  5
2804
330
1F
100
AcDbEntity
  8
11000_Left
  6
Continuous
 62
     7
370
    50
100
AcDbLine
 10
-9.616249917378581
 20
186.2373337205871
 30
0.0
 11
-9.616249917378581
 21
185.9873337205871
 31
0.0
  0
LINE
  5
2805
330
1F
100
AcDbEntity
  8
11000_Left
  6
Continuous
 62
     7
370
    50
100
AcDbLine
 10
-7.401939917378598
 20
189.434213720587
 30
0.0
 11
-9.616249917378581
 21
189.434213720587
 31
0.0
  0
LINE
  5
2806
330
1F
100
AcDbEntity
  8
11000_Left
  6
Continuous
 62
     7
370
    50
100
AcDbLine
 10
-9.616249917378581
 20
188.934213720587
 30
0.0
 11
-7.401939917378598
 21
188.934213720587
 31
0.0
  0
LINE
  5
2807
330
1F
100
AcDbEntity
  8
11000_Left
  6
Continuous
 62
     7
370
    50
100
AcDbLine
 10
-9.616249917378581
 20
186.2373337205871
 30
0.0
 11
-7.401939917378598
 21
186.2373337205871
 31
0.0
  0
LINE
  5
2808
330
1F
100
AcDbEntity
  8
11000_Left
  6
Continuous
 62
     7
370
    50
100
AcDbLine
 10
-7.401939917378598
 20
186.7373337205871
 30
0.0
 11
-9.616249917378581
 21
186.7373337205871
 31
0.0
  0
LINE
  5
2809
330
1F
100
AcDbEntity
  8
11000_Left
  6
Continuous
 62
     7
370
    50
100
AcDbLine
 10
-7.401939917378598
 20
189.434213720587
 30
0.0
 11
-7.401939917378598
 21
188.934213720587
 31
0.0
  0
LINE
  5
280A
330
1F
100
AcDbEntity
  8
11000_Left
  6
Continuous
 62
     7
370
    50
100
AcDbLine
 10
-7.401939917378598
 20
186.7373337205871
 30
0.0
 11
-7.401939917378598
 21
186.2373337205871
 31
0.0
  0
LINE
  5
280B
330
1F
100
AcDbEntity
  8
11000_Left
  6
Continuous
 62
     7
370
    50
100
AcDbLine
 10
-40.6785099173786
 20
190.0857737205871
 30
0.0
 11
-30.76448991737861
 21
190.0857737205871
 31
0.0
  0
LINE
  5
280C
330
1F
100
AcDbEntity
  8
11000_Left
  6
Continuous
 62
     7
370
    50
100
AcDbLine
 10
-40.6785099173786
 20
185.5857737205871
 30
0.0
 11
-30.76448991737861
 21
185.5857737205871
 31
0.0
  0
ARC
  5
280D
330
1F
100
AcDbEntity
  8
11000_Left
  6
Continuous
 62
     7
370
    15
100
AcDbCircle
 10
-29.74885991737858
 20
188.9607737205871
 30
0.0
 40
1.515625
100
AcDbArc
 50
132.0750199999979
 51
227.9249800000018
  0
ARC
  5
280E
330
1F
100
AcDbEntity
  8
11000_Left
  6
Continuous
 62
     7
370
    15
100
AcDbCircle
 10
-31.78010991737858
 20
186.7107737205871
 30
0.0
 40
1.515625
100
AcDbArc
 50
312.0750199999979
 51
47.92498000000176
  0
ARC
  5
280F
330
1F
100
AcDbEntity
  8
11000_Left
  6
Continuous
 62
     7
370
    15
100
AcDbCircle
 10
-31.78010991737858
 20
188.9607737205871
 30
0.0
 40
1.515625
100
AcDbArc
 50
312.0750199999979
 51
47.92498000000176
  0
ARC
  5
2810
330
1F
100
AcDbEntity
  8
11000_Left
  6
Continuous
 62
     7
370
    15
100
AcDbCircle
 10
-27.05383991737858
 20
188.9607737205871
 30
0.0
 40
1.515625
100
AcDbArc
 50
132.0750199999979
 51
227.9249800000018
  0
ARC
  5
2811
330
1F
100
AcDbEntity
  8
11000_Left
  6
Continuous
 62
     7
370
    15
100
AcDbCircle
 10
-29.08508991737858
 20
186.7107737205871
 30
0.0
 40
1.515625
100
AcDbArc
 50
312.0750199999979
 51
47.92498000000176
  0
ARC
  5
2812
330
1F
100
AcDbEntity
  8
11000_Left
  6
Continuous
 62
     7
370
    15
100
AcDbCircle
 10
-27.05383991737858
 20
186.7107737205871
 30
0.0
 40
1.515625
100
AcDbArc
 50
132.0750199999979
 51
227.9249800000018
  0
LINE
  5
2813
330
1F
100
AcDbEntity
  8
11000_Left
  6
Continuous
 62
     7
370
    50
100
AcDbLine
 10
-28.06946991737861
 20
185.5857737205871
 30
0.0
 11
-17.37093991737859
 21
185.5857737205871
 31
0.0
  0
LINE
  5
2814
330
1F
100
AcDbEntity
  8
11000_Left
  6
Continuous
 62
     7
370
    50
100
AcDbLine
 10
-28.06946991737861
 20
190.0857737205871
 30
0.0
 11
-17.37093991737859
 21
190.0857737205871
 31
0.0
  0
LINE
  5
2826
330
1F
100
AcDbEntity
  8
11000_Left
  6
Continuous
 62
     7
370
    50
100
AcDbLine
 10
-100.6785099173786
 20
191.584457720587
 30
0.0
 11
-100.6785099173786
 21
194.558640720587
 31
0.0
  0
LINE
  5
2827
330
1F
100
AcDbEntity
  8
11000_Left
  6
Continuous
 62
     7
370
    15
100
AcDbLine
 10
-100.6785099173786
 20
184.087089720587
 30
0.0
 11
-100.6785099173786
 21
191.584457720587
 31
0.0
  0
ENDSEC
  0
SECTION
  2
OBJECTS
  0
DICTIONARY
  5
C
330
0
100
AcDbDictionary
281
     1
  3
ACAD_COLOR
350
6B
  3
ACAD_GROUP
350
D
  3
ACAD_LAYOUT
350
1A
  3
ACAD_MATERIAL
350
6A
  3
ACAD_MLINESTYLE
350
17
  3
ACAD_PLOTSETTINGS
350
19
  3
ACAD_PLOTSTYLENAME
350
E
  3
ACAD_TABLESTYLE
350
B36
  3
ACAD_VISUALSTYLE
350
B25
  3
AcDbVariableDictionary
350
5E
  3
DWGPROPS
350
2831
  0
DICTIONARY
  5
16DA
330
1F
100
AcDbDictionary
280
     1
281
     1
  3
ACAD_SORTENTS
360
16DB
  0
DICTIONARY
  5
6B
102
{ACAD_REACTORS
330
C
102
}
330
C
100
AcDbDictionary
281
     1
  0
DICTIONARY
  5
D
102
{ACAD_REACTORS
330
C
102
}
330
C
100
AcDbDictionary
281
     1
  0
DICTIONARY
  5
1A
102
{ACAD_REACTORS
330
C
102
}
330
C
100
AcDbDictionary
281
     1
  3
Layout1
350
51
  3
Layout2
350
56
  3
Model
350
22
  0
DICTIONARY
  5
6A
102
{ACAD_REACTORS
330
C
102
}
330
C
100
AcDbDictionary
281
     1
  3
ByBlock
350
B23
  3
ByLayer
350
B22
  3
Global
350
B24
  0
DICTIONARY
  5
17
102
{ACAD_REACTORS
330
C
102
}
330
C
100
AcDbDictionary
281
     1
  3
Standard
350
18
  0
DICTIONARY
  5
19
102
{ACAD_REACTORS
330
C
102
}
330
C
100
AcDbDictionary
281
     1
  0
ACDBDICTIONARYWDFLT
  5
E
102
{ACAD_REACTORS
330
C
102
}
330
C
100
AcDbDictionary
281
     1
  3
Normal
350
F
100
AcDbDictionaryWithDefault
340
F
  0
DICTIONARY
  5
B36
102
{ACAD_REACTORS
330
C
102
}
330
C
100
AcDbDictionary
281
     1
  3
Standard
350
B37
  0
DICTIONARY
  5
B25
102
{ACAD_REACTORS
330
C
102
}
330
C
100
AcDbDictionary
281
     1
  3
2dWireframe
350
B2B
  3
Basic
350
B2A
  3
Brighten
350
B31
  3
ColorChange
350
B35
  3
Dim
350
B30
  3
Facepattern
350
B34
  3
Flat
350
B26
  3
FlatWithEdges
350
B27
  3
Gouraud
350
B28
  3
GouraudWithEdges
350
B29
  3
Linepattern
350
B33
  3
Thicken
350
B32
  0
DICTIONARY
  5
5E
102
{ACAD_REACTORS
330
C
102
}
330
C
100
AcDbDictionary
281
     1
  3
CTABLESTYLE
350
B39
  3
DIMASSOC
350
5F
  3
HIDETEXT
350
63
  3
INDEXCTL
350
1803
  3
PROJECTNAME
350
B07
  3
SORTENTS
350
1802
  0
XRECORD
  5
2831
102
{ACAD_REACTORS
330
C
102
}
330
C
100
AcDbXrecord
280
     1
  1
DWGPROPS COOKIE
  2

  3

  4

  6

  7

  8
adgsan0
  9

300
=
301
=
302
=
303
=
304
=
305
=
306
=
307
=
308
=
309
=
 40
0.563101099537037
 41
2453928.240428044
 42
2454109.371503044
  1

 90
        0
  0
SORTENTSTABLE
  5
16DB
102
{ACAD_REACTORS
330
16DA
102
}
330
16DA
100
AcDbSortentsTable
330
1F
331
242E
  5
2403
331
20E3
  5
2114
331
2826
  5
2764
331
27F7
  5
27F9
331
5A5
  5
5A5
331
5AD
  5
5AD
331
27FF
  5
2801
331
27C8
  5
27CA
331
2807
  5
2809
331
27D0
  5
27D2
331
280F
  5
2811
331
27D8
  5
27F5
331
2762
  5
2765
331
20FD
  5
23FF
331
242F
  5
2404
331
20E4
  5
2115
331
20EC
  5
22AA
331
27E0
  5
2760
331
2827
  5
2763
331
59C
  5
59C
331
5A6
  5
5A6
331
5AE
  5
5AE
331
27F8
  5
27FA
331
2800
  5
2802
331
27C9
  5
27CB
331
2808
  5
280A
331
27D1
  5
27D4
331
2810
  5
2812
331
27D9
  5
27F6
331
2763
  5
2767
331
20FE
  5
2400
331
20E5
  5
2116
331
20ED
  5
22AB
331
59D
  5
59D
331
2440
  5
2454
331
5A7
  5
5A7
331
5AF
  5
5AF
331
27F9
  5
27FB
331
2801
  5
2803
331
27CA
  5
27CC
331
2809
  5
280B
331
27D2
  5
27D5
331
2811
  5
2813
331
2764
  5
27C6
331
20FF
  5
2401
331
20E6
  5
2117
331
20EE
  5
23F9
331
59E
  5
59E
331
5A0
  5
5A0
331
5A8
  5
5A8
331
5B0
  5
5B0
331
27FA
  5
27FC
331
2802
  5
2804
331
27CB
  5
27CD
331
280A
  5
280C
331
27D3
  5
27D9
331
275D
  5
275D
331
2812
  5
2814
331
2765
  5
27C7
331
20F0
  5
23FB
331
2100
  5
1FE7
331
242A
  5
2402
331
20EF
  5
23FA
331
59F
  5
59F
331
5A1
  5
5A1
331
5A9
  5
5A9
331
5B1
  5
5B1
331
27FB
  5
27FD
331
2803
  5
2805
331
27CC
  5
27CE
331
2756
  5
2756
331
280B
  5
280D
331
27D4
  5
27E0
331
275E
  5
275E
331
2813
  5
2826
331
20F1
  5
23FC
331
2101
  5
1FE8
331
13F1
  5
13F1
331
1FC9
  5
1FE4
331
5A2
  5
5A2
331
5AA
  5
5AA
331
5B2
  5
5B2
331
27FC
  5
27FE
331
2804
  5
2806
331
27CD
  5
27CF
331
2757
  5
2757
331
280C
  5
280E
331
275F
  5
275F
331
2814
  5
2827
331
20F2
  5
23FD
331
1FCA
  5
1FE5
331
27F5
  5
27F7
331
5A3
  5
5A3
331
1FE2
  5
1FEC
331
5AB
  5
5AB
331
5B3
  5
5B3
331
27FD
  5
27FF
331
27C6
  5
27C8
331
2805
  5
2807
331
27CE
  5
27D0
331
2758
  5
2758
331
280D
  5
280F
331
2760
  5
2761
331
20F3
  5
23FE
331
20E2
  5
2113
331
1FCB
  5
1FE6
331
27F6
  5
27F8
331
1FFF
  5
2010
331
5A4
  5
5A4
331
1FE3
  5
1FED
331
5AC
  5
5AC
331
5B4
  5
5B4
331
27FE
  5
2800
331
27C7
  5
27C9
331
2806
  5
2808
331
27CF
  5
27D1
331
2759
  5
2759
331
280E
  5
2810
331
2761
  5
2762
  0
LAYOUT
  5
51
102
{ACAD_XDICTIONARY
360
2834
102
}
102
{ACAD_REACTORS
330
1A
102
}
330
1A
100
AcDbPlotSettings
  1

  2
None
  4

  6

 40
0.0
 41
0.0
 42
0.0
 43
0.0
 44
0.0
 45
0.0
 46
0.0
 47
0.0
 48
0.0
 49
0.0
140
0.0
141
0.0
142
1.0
143
1.0
 70
   688
 72
     0
 73
     0
 74
     5
  7

 75
    16
147
1.0
148
0.0
149
0.0
100
AcDbLayout
  1
Layout1
 70
     1
 71
     1
 10
0.0
 20
0.0
 11
12.0
 21
9.0
 12
0.0
 22
0.0
 32
0.0
 14
0.0
 24
0.0
 34
0.0
 15
0.0
 25
0.0
 35
0.0
146
0.0
 13
0.0
 23
0.0
 33
0.0
 16
1.0
 26
0.0
 36
0.0
 17
0.0
 27
1.0
 37
0.0
 76
     0
330
50
  0
LAYOUT
  5
56
102
{ACAD_XDICTIONARY
360
2836
102
}
102
{ACAD_REACTORS
330
1A
102
}
330
1A
100
AcDbPlotSettings
  1

  2
None
  4

  6

 40
0.0
 41
0.0
 42
0.0
 43
0.0
 44
0.0
 45
0.0
 46
0.0
 47
0.0
 48
0.0
 49
0.0
140
0.0
141
0.0
142
1.0
143
1.0
 70
   688
 72
     0
 73
     0
 74
     5
  7

 75
    16
147
1.0
148
0.0
149
0.0
100
AcDbLayout
  1
Layout2
 70
     1
 71
     2
 10
0.0
 20
0.0
 11
12.0
 21
9.0
 12
0.0
 22
0.0
 32
0.0
 14
0.0
 24
0.0
 34
0.0
 15
0.0
 25
0.0
 35
0.0
146
0.0
 13
0.0
 23
0.0
 33
0.0
 16
1.0
 26
0.0
 36
0.0
 17
0.0
 27
1.0
 37
0.0
 76
     0
330
55
  0
LAYOUT
  5
22
102
{ACAD_XDICTIONARY
360
2832
102
}
102
{ACAD_REACTORS
330
1A
102
}
330
1A
100
AcDbPlotSettings
  1

  2
\\ambd016a\A_P00390
  4
A4
  6

 40
6.011333465576169
 41
4.233341693878172
 42
6.011322021484375
 43
4.23333740234375
 44
209.9733276367186
 45
296.9259948730469
 46
0.0
 47
0.0
 48
0.0
 49
0.0
140
0.0
141
0.0
142
1.0
143
1.120478845573932
 70
 11952
 72
     1
 73
     1
 74
     0
  7

 75
     0
147
0.8924755732338514
148
-72.60255222484921
149
-79.17712082009773
100
AcDbLayout
  1
Model
 70
     1
 71
     0
 10
0.0
 20
0.0
 11
12.0
 21
9.0
 12
0.0
 22
0.0
 32
0.0
 14
0.0
 24
0.0
 34
0.0
 15
0.0
 25
0.0
 35
0.0
146
0.0
 13
0.0
 23
0.0
 33
0.0
 16
1.0
 26
0.0
 36
0.0
 17
0.0
 27
1.0
 37
0.0
 76
     0
330
1F
331
B14
  0
MATERIAL
  5
B23
102
{ACAD_XDICTIONARY
360
180D
102
}
102
{ACAD_REACTORS
330
6A
102
}
330
6A
100
AcDbMaterial
  1
ByBlock
  0
MATERIAL
  5
B22
102
{ACAD_XDICTIONARY
360
180B
102
}
102
{ACAD_REACTORS
330
6A
102
}
330
6A
100
AcDbMaterial
  1
ByLayer
  0
MATERIAL
  5
B24
102
{ACAD_XDICTIONARY
360
180F
102
}
102
{ACAD_REACTORS
330
6A
102
}
330
6A
100
AcDbMaterial
  1
Global
  0
MLINESTYLE
  5
18
102
{ACAD_REACTORS
330
17
102
}
330
17
100
AcDbMlineStyle
  2
STANDARD
 70
     0
  3

 62
   256
 51
90.0
 52
90.0
 71
     2
 49
0.5
 62
   256
  6
BYLAYER
 49
-0.5
 62
   256
  6
BYLAYER
  0
ACDBPLACEHOLDER
  5
F
102
{ACAD_REACTORS
330
E
102
}
330
E
  0
TABLESTYLE
  5
B37
102
{ACAD_XDICTIONARY
360
2838
102
}
102
{ACAD_REACTORS
330
B36
102
}
330
B36
100
AcDbTableStyle
  3
Standard
 70
     0
 71
     0
 40
1.5
 41
1.5
280
     0
281
     0
  7
Standard
140
4.5
170
     2
 62
     0
 63
     7
283
     0
274
    -2
284
     1
 64
     0
275
    -2
285
     1
 65
     0
276
    -2
286
     1
 66
     0
277
    -2
287
     1
 67
     0
278
    -2
288
     1
 68
     0
279
    -2
289
     1
 69
     0
  7
Standard
140
6.0
170
     5
 62
     0
 63
     7
283
     0
274
    -2
284
     1
 64
     0
275
    -2
285
     1
 65
     0
276
    -2
286
     1
 66
     0
277
    -2
287
     1
 67
     0
278
    -2
288
     1
 68
     0
279
    -2
289
     1
 69
     0
  7
Standard
140
4.5
170
     5
 62
     0
 63
     7
283
     0
274
    -2
284
     1
 64
     0
275
    -2
285
     1
 65
     0
276
    -2
286
     1
 66
     0
277
    -2
287
     1
 67
     0
278
    -2
288
     1
 68
     0
279
    -2
289
     1
 69
     0
  0
VISUALSTYLE
  5
B2B
102
{ACAD_REACTORS
330
B25
102
}
330
B25
100
AcDbVisualStyle
  2
2dWireframe
 70
     4
 71
     0
 72
     2
 73
     0
 90
        0
 40
-0.6
 41
-30.0
 62
     5
 63
     7
 74
     1
 91
        4
 64
     7
 65
   257
 75
     1
175
     1
 42
1.0
 92
        0
 66
   257
 43
1.0
 76
     1
 77
     6
 78
     2
 67
     7
 79
     5
170
     0
171
     0
290
     0
174
     0
 93
        1
 44
0.0
173
     0
291
     0
 45
0.0
1001
ACAD
1000
AcDbSavedByObjectVersion
1070
     0
1000
AcDbSavedByObjectVersion
1070
     0
1000
AcDbSavedByObjectVersion
1070
     0
1000
AcDbSavedByObjectVersion
1070
     0
1000
AcDbSavedByObjectVersion
1070
     0
  0
VISUALSTYLE
  5
B2A
102
{ACAD_REACTORS
330
B25
102
}
330
B25
100
AcDbVisualStyle
  2
Basic
 70
     7
 71
     1
 72
     0
 73
     1
 90
        0
 40
-0.6
 41
-30.0
 62
     5
 63
     7
 74
     0
 91
        4
 64
     7
 65
   257
 75
     1
175
     1
 42
1.0
 92
        8
 66
     7
 43
1.0
 76
     1
 77
     6
 78
     2
 67
     7
 79
     5
170
     0
171
     0
290
     0
174
     0
 93
        1
 44
0.0
173
     0
291
     1
 45
0.0
1001
ACAD
1000
AcDbSavedByObjectVersion
1070
     0
1000
AcDbSavedByObjectVersion
1070
     0
1000
AcDbSavedByObjectVersion
1070
     0
1000
AcDbSavedByObjectVersion
1070
     0
1000
AcDbSavedByObjectVersion
1070
     0
  0
VISUALSTYLE
  5
B31
102
{ACAD_REACTORS
330
B25
102
}
330
B25
100
AcDbVisualStyle
  2
Brighten
 70
    12
 71
     2
 72
     2
 73
     0
 90
        0
 40
-0.6
 41
-30.0
 62
     5
 63
     7
 74
     1
 91
        4
 64
     7
 65
   257
 75
     1
175
     1
 42
1.0
 92
        8
 66
     7
 43
1.0
 76
     1
 77
     6
 78
     2
 67
     7
 79
     5
170
     0
171
     0
290
     0
174
     0
 93
        1
 44
50.0
173
     0
291
     1
 45
0.0
1001
ACAD
1000
AcDbSavedByObjectVersion
1070
     0
1000
AcDbSavedByObjectVersion
1070
     0
1000
AcDbSavedByObjectVersion
1070
     0
1000
AcDbSavedByObjectVersion
1070
     0
1000
AcDbSavedByObjectVersion
1070
     0
  0
VISUALSTYLE
  5
B35
102
{ACAD_REACTORS
330
B25
102
}
330
B25
100
AcDbVisualStyle
  2
ColorChange
 70
    16
 71
     2
 72
     2
 73
     3
 90
        0
 40
-0.6
 41
-30.0
 62
     5
 63
     8
 74
     1
 91
        4
 64
     7
 65
   257
 75
     1
175
     1
 42
1.0
 92
        8
 66
     8
 43
1.0
 76
     1
 77
     6
 78
     2
 67
     7
 79
     5
170
     0
171
     0
290
     0
174
     0
 93
        1
 44
0.0
173
     0
291
     1
 45
0.0
1001
ACAD
1000
AcDbSavedByObjectVersion
1070
     0
1000
AcDbSavedByObjectVersion
1070
     0
1000
AcDbSavedByObjectVersion
1070
     0
1000
AcDbSavedByObjectVersion
1070
     0
1000
AcDbSavedByObjectVersion
1070
     0
  0
VISUALSTYLE
  5
B30
102
{ACAD_REACTORS
330
B25
102
}
330
B25
100
AcDbVisualStyle
  2
Dim
 70
    11
 71
     2
 72
     2
 73
     0
 90
        0
 40
-0.6
 41
-30.0
 62
     5
 63
     7
 74
     1
 91
        4
 64
     7
 65
   257
 75
     1
175
     1
 42
1.0
 92
        8
 66
     7
 43
1.0
 76
     1
 77
     6
 78
     2
 67
     7
 79
     5
170
     0
171
     0
290
     0
174
     0
 93
        1
 44
-50.0
173
     0
291
     1
 45
0.0
1001
ACAD
1000
AcDbSavedByObjectVersion
1070
     0
1000
AcDbSavedByObjectVersion
1070
     0
1000
AcDbSavedByObjectVersion
1070
     0
1000
AcDbSavedByObjectVersion
1070
     0
1000
AcDbSavedByObjectVersion
1070
     0
  0
VISUALSTYLE
  5
B34
102
{ACAD_REACTORS
330
B25
102
}
330
B25
100
AcDbVisualStyle
  2
Facepattern
 70
    15
 71
     2
 72
     2
 73
     0
 90
        0
 40
-0.6
 41
-30.0
 62
     5
 63
     7
 74
     1
 91
        4
 64
     7
 65
   257
 75
     1
175
     1
 42
1.0
 92
        8
 66
     7
 43
1.0
 76
     1
 77
     6
 78
     2
 67
     7
 79
     5
170
     0
171
     0
290
     0
174
     0
 93
        1
 44
0.0
173
     0
291
     1
 45
0.0
1001
ACAD
1000
AcDbSavedByObjectVersion
1070
     0
1000
AcDbSavedByObjectVersion
1070
     0
1000
AcDbSavedByObjectVersion
1070
     0
1000
AcDbSavedByObjectVersion
1070
     0
1000
AcDbSavedByObjectVersion
1070
     0
  0
VISUALSTYLE
  5
B26
102
{ACAD_REACTORS
330
B25
102
}
330
B25
100
AcDbVisualStyle
  2
Flat
 70
     0
 71
     2
 72
     1
 73
     1
 90
        2
 40
-0.6
 41
30.0
 62
     5
 63
     7
 74
     0
 91
        4
 64
     7
 65
   257
 75
     1
175
     1
 42
1.0
 92
        8
 66
     7
 43
1.0
 76
     1
 77
     6
 78
     2
 67
     7
 79
     5
170
     0
171
     0
290
     0
174
     0
 93
       13
 44
0.0
173
     0
291
     1
 45
0.0
1001
ACAD
1000
AcDbSavedByObjectVersion
1070
     0
1000
AcDbSavedByObjectVersion
1070
     0
1000
AcDbSavedByObjectVersion
1070
     0
1000
AcDbSavedByObjectVersion
1070
     0
1000
AcDbSavedByObjectVersion
1070
     0
  0
VISUALSTYLE
  5
B27
102
{ACAD_REACTORS
330
B25
102
}
330
B25
100
AcDbVisualStyle
  2
FlatWithEdges
 70
     1
 71
     2
 72
     1
 73
     1
 90
        2
 40
-0.6
 41
30.0
 62
     5
 63
     7
 74
     1
 91
        4
 64
     7
 65
   257
 75
     1
175
     1
 42
1.0
 92
        0
 66
   257
 43
1.0
 76
     1
 77
     6
 78
     2
 67
     7
 79
     5
170
     0
171
     0
290
     0
174
     0
 93
       13
 44
0.0
173
     0
291
     1
 45
0.0
1001
ACAD
1000
AcDbSavedByObjectVersion
1070
     0
1000
AcDbSavedByObjectVersion
1070
     0
1000
AcDbSavedByObjectVersion
1070
     0
1000
AcDbSavedByObjectVersion
1070
     0
1000
AcDbSavedByObjectVersion
1070
     0
  0
VISUALSTYLE
  5
B28
102
{ACAD_REACTORS
330
B25
102
}
330
B25
100
AcDbVisualStyle
  2
Gouraud
 70
     2
 71
     2
 72
     2
 73
     1
 90
        2
 40
-0.6
 41
30.0
 62
     5
 63
     7
 74
     0
 91
        4
 64
     7
 65
   257
 75
     1
175
     1
 42
1.0
 92
        0
 66
     7
 43
1.0
 76
     1
 77
     6
 78
     2
 67
     7
 79
     5
170
     0
171
     0
290
     0
174
     0
 93
       13
 44
0.0
173
     0
291
     1
 45
0.0
1001
ACAD
1000
AcDbSavedByObjectVersion
1070
     0
1000
AcDbSavedByObjectVersion
1070
     0
1000
AcDbSavedByObjectVersion
1070
     0
1000
AcDbSavedByObjectVersion
1070
     0
1000
AcDbSavedByObjectVersion
1070
     0
  0
VISUALSTYLE
  5
B29
102
{ACAD_REACTORS
330
B25
102
}
330
B25
100
AcDbVisualStyle
  2
GouraudWithEdges
 70
     3
 71
     2
 72
     2
 73
     1
 90
        2
 40
-0.6
 41
30.0
 62
     5
 63
     7
 74
     1
 91
        4
 64
     7
 65
   257
 75
     1
175
     1
 42
1.0
 92
        0
 66
   257
 43
1.0
 76
     1
 77
     6
 78
     2
 67
     7
 79
     5
170
     0
171
     0
290
     0
174
     0
 93
       13
 44
0.0
173
     0
291
     1
 45
0.0
1001
ACAD
1000
AcDbSavedByObjectVersion
1070
     0
1000
AcDbSavedByObjectVersion
1070
     0
1000
AcDbSavedByObjectVersion
1070
     0
1000
AcDbSavedByObjectVersion
1070
     0
1000
AcDbSavedByObjectVersion
1070
     0
  0
VISUALSTYLE
  5
B33
102
{ACAD_REACTORS
330
B25
102
}
330
B25
100
AcDbVisualStyle
  2
Linepattern
 70
    14
 71
     2
 72
     2
 73
     0
 90
        0
 40
-0.6
 41
-30.0
 62
     5
 63
     7
 74
     1
 91
        4
 64
     7
 65
   257
 75
     7
175
     7
 42
1.0
 92
        8
 66
     7
 43
1.0
 76
     1
 77
     6
 78
     2
 67
     7
 79
     5
170
     0
171
     0
290
     0
174
     0
 93
        1
 44
0.0
173
     0
291
     1
 45
0.0
1001
ACAD
1000
AcDbSavedByObjectVersion
1070
     0
1000
AcDbSavedByObjectVersion
1070
     0
1000
AcDbSavedByObjectVersion
1070
     0
1000
AcDbSavedByObjectVersion
1070
     0
1000
AcDbSavedByObjectVersion
1070
     0
  0
VISUALSTYLE
  5
B32
102
{ACAD_REACTORS
330
B25
102
}
330
B25
100
AcDbVisualStyle
  2
Thicken
 70
    13
 71
     2
 72
     2
 73
     0
 90
        0
 40
-0.6
 41
-30.0
 62
     5
 63
     7
 74
     1
 91
        4
 64
     7
 65
   257
 75
     1
175
     1
 42
1.0
 92
       12
 66
     7
 43
1.0
 76
     1
 77
     6
 78
     2
 67
     7
 79
     5
170
     0
171
     0
290
     0
174
     0
 93
        1
 44
0.0
173
     0
291
     1
 45
0.0
1001
ACAD
1000
AcDbSavedByObjectVersion
1070
     0
1000
AcDbSavedByObjectVersion
1070
     0
1000
AcDbSavedByObjectVersion
1070
     0
1000
AcDbSavedByObjectVersion
1070
     0
1000
AcDbSavedByObjectVersion
1070
     0
  0
DICTIONARYVAR
  5
B39
102
{ACAD_REACTORS
330
5E
102
}
330
5E
100
DictionaryVariables
280
     0
  1
STANDARD
  0
DICTIONARYVAR
  5
5F
102
{ACAD_REACTORS
330
5E
102
}
330
5E
100
DictionaryVariables
280
     0
  1
2
  0
DICTIONARYVAR
  5
63
102
{ACAD_REACTORS
330
5E
102
}
330
5E
100
DictionaryVariables
280
     0
  1
1
  0
DICTIONARYVAR
  5
1803
102
{ACAD_REACTORS
330
5E
102
}
330
5E
100
DictionaryVariables
280
     0
  1
0
  0
DICTIONARYVAR
  5
B07
102
{ACAD_REACTORS
330
5E
102
}
330
5E
100
DictionaryVariables
280
     0
  1

  0
DICTIONARYVAR
  5
1802
102
{ACAD_REACTORS
330
5E
102
}
330
5E
100
DictionaryVariables
280
     0
  1
127
  0
DICTIONARY
  5
2834
330
51
100
AcDbDictionary
280
     1
281
     1
  3
ACAD_XREC_ROUNDTRIP
360
2835
  0
DICTIONARY
  5
2836
330
56
100
AcDbDictionary
280
     1
281
     1
  3
ACAD_XREC_ROUNDTRIP
360
2837
  0
DICTIONARY
  5
2832
330
22
100
AcDbDictionary
280
     1
281
     1
  3
ACAD_XREC_ROUNDTRIP
360
2833
  0
DICTIONARY
  5
180D
330
B23
100
AcDbDictionary
280
     1
281
     1
  3
ACAD_XREC_ROUNDTRIP
360
180E
  0
DICTIONARY
  5
180B
330
B22
100
AcDbDictionary
280
     1
281
     1
  3
ACAD_XREC_ROUNDTRIP
360
180C
  0
DICTIONARY
  5
180F
330
B24
100
AcDbDictionary
280
     1
281
     1
  3
ACAD_XREC_ROUNDTRIP
360
1810
  0
DICTIONARY
  5
2838
330
B37
100
AcDbDictionary
280
     1
281
     1
  3
ACAD_XREC_ROUNDTRIP
360
2839
  0
XRECORD
  5
2835
102
{ACAD_REACTORS
330
2834
102
}
330
2834
100
AcDbXrecord
280
     1
102
SHADEPLOT
 70
     0
102
SHADEPLOTRESLEVEL
 70
     2
102
SHADEPLOTCUSTOMDPI
 70
   300
  0
XRECORD
  5
2837
102
{ACAD_REACTORS
330
2836
102
}
330
2836
100
AcDbXrecord
280
     1
102
SHADEPLOT
 70
     0
102
SHADEPLOTRESLEVEL
 70
     2
102
SHADEPLOTCUSTOMDPI
 70
   300
  0
XRECORD
  5
2833
102
{ACAD_REACTORS
330
2832
102
}
330
2832
100
AcDbXrecord
280
     1
102
SHADEPLOT
 70
     0
102
SHADEPLOTRESLEVEL
 70
     2
102
SHADEPLOTCUSTOMDPI
 70
   300
  0
XRECORD
  5
180E
102
{ACAD_REACTORS
330
180D
102
}
330
180D
100
AcDbXrecord
280
     1
102
MATERIAL
148
0.0
149
0.0
149
0.0
 93
        0
 94
       63
282
     0
 72
     1
 77
     1
171
     1
175
     1
179
     1
273
     0
  0
XRECORD
  5
180C
102
{ACAD_REACTORS
330
180B
102
}
330
180B
100
AcDbXrecord
280
     1
102
MATERIAL
148
0.0
149
0.0
149
0.0
 93
        0
 94
       63
282
     0
 72
     1
 77
     1
171
     1
175
     1
179
     1
273
     0
  0
XRECORD
  5
1810
102
{ACAD_REACTORS
330
180F
102
}
330
180F
100
AcDbXrecord
280
     1
102
MATERIAL
148
0.0
149
0.0
149
0.0
 93
        0
 94
       63
282
     0
 72
     1
 77
     1
171
     1
175
     1
179
     1
273
     0
  0
XRECORD
  5
2839
102
{ACAD_REACTORS
330
2838
102
}
330
2838
100
AcDbXrecord
280
     1
102
ACAD_ROUNDTRIP_PRE2007_TABLESTYLE
 90
      512
 91
        0
  1

 92
      512
 93
        0
  2

 94
      512
 95
        0
  3

  0
ENDSEC
  0
EOF
