  0
SECTION
  2
HEADER
  9
$ACADVER
  1
AC1015
  9
$ACADMAINTVER
 70
    20
  9
$DWGCODEPAGE
  3
ANSI_1252
  9
$INSBASE
 10
0.0
 20
0.0
 30
0.0
  9
$EXTMIN
 10
508.2753315645682
 20
35.74768168356707
 30
-0.0015258207003583
  9
$EXTMAX
 10
778.3288895370542
 20
235.7629402165335
 30
0.0000000349246037
  9
$LIMMIN
 10
0.0
 20
0.0
  9
$LIMMAX
 10
0.0
 20
0.0
  9
$ORTHOMODE
 70
     1
  9
$REGENMODE
 70
     1
  9
$FILLMODE
 70
     1
  9
$QTEXTMODE
 70
     0
  9
$MIRRTEXT
 70
     1
  9
$LTSCALE
 40
1.0
  9
$ATTMODE
 70
     1
  9
$TEXTSIZE
 40
1.0
  9
$TRACEWID
 40
0.05
  9
$TEXTSTYLE
  7
STANDARD
  9
$CLAYER
  8
10100_FRONT_DIM
  9
$CELTYPE
  6
CONTINUOUS
  9
$CECOLOR
 62
     1
  9
$CELTSCALE
 40
1.0
  9
$DISPSILH
 70
     0
  9
$DIMSCALE
 40
1.0
  9
$DIMASZ
 40
0.125
  9
$DIMEXO
 40
0.0625
  9
$DIMDLI
 40
0.25
  9
$DIMRND
 40
0.0
  9
$DIMDLE
 40
0.0
  9
$DIMEXE
 40
0.125
  9
$DIMTP
 40
0.005
  9
$DIMTM
 40
-0.005
  9
$DIMTXT
 40
3.0
  9
$DIMCEN
 40
0.09
  9
$DIMTSZ
 40
0.0
  9
$DIMTOL
 70
     0
  9
$DIMLIM
 70
     0
  9
$DIMTIH
 70
     1
  9
$DIMTOH
 70
     1
  9
$DIMSE1
 70
     0
  9
$DIMSE2
 70
     0
  9
$DIMTAD
 70
     0
  9
$DIMZIN
 70
     0
  9
$DIMBLK
  1

  9
$DIMASO
 70
     1
  9
$DIMSHO
 70
     1
  9
$DIMPOST
  1

  9
$DIMAPOST
  1

  9
$DIMALT
 70
     0
  9
$DIMALTD
 70
     0
  9
$DIMALTF
 40
25.4
  9
$DIMLFAC
 40
1.0
  9
$DIMTOFL
 70
     1
  9
$DIMTVP
 40
0.0
  9
$DIMTIX
 70
     0
  9
$DIMSOXD
 70
     0
  9
$DIMSAH
 70
     0
  9
$DIMBLK1
  1

  9
$DIMBLK2
  1

  9
$DIMSTYLE
  2
STANDARD
  9
$DIMCLRD
 70
     0
  9
$DIMCLRE
 70
     0
  9
$DIMCLRT
 70
     0
  9
$DIMTFAC
 40
1.0
  9
$DIMGAP
 40
0.0625
  9
$DIMJUST
 70
     0
  9
$DIMSD1
 70
     0
  9
$DIMSD2
 70
     0
  9
$DIMTOLJ
 70
     1
  9
$DIMTZIN
 70
     0
  9
$DIMALTZ
 70
     0
  9
$DIMALTTZ
 70
     0
  9
$DIMUPT
 70
     0
  9
$DIMDEC
 70
     3
  9
$DIMTDEC
 70
     3
  9
$DIMALTU
 70
     2
  9
$DIMALTTD
 70
     0
  9
$DIMTXSTY
  7
STANDARD
  9
$DIMAUNIT
 70
     0
  9
$DIMADEC
 70
     1
  9
$DIMALTRND
 40
0.0
  9
$DIMAZIN
 70
     0
  9
$DIMDSEP
 70
    46
  9
$DIMATFIT
 70
     3
  9
$DIMFRAC
 70
     0
  9
$DIMLDRBLK
  1

  9
$DIMLUNIT
 70
     2
  9
$DIMLWD
 70
    -2
  9
$DIMLWE
 70
    -2
  9
$DIMTMOVE
 70
     2
  9
$LUNITS
 70
     2
  9
$LUPREC
 70
     3
  9
$SKETCHINC
 40
0.1
  9
$FILLETRAD
 40
10.0
  9
$AUNITS
 70
     0
  9
$AUPREC
 70
     1
  9
$MENU
  1
acad
  9
$ELEVATION
 40
0.0
  9
$PELEVATION
 40
0.0
  9
$THICKNESS
 40
0.0
  9
$LIMCHECK
 70
     0
  9
$CHAMFERA
 40
6.0
  9
$CHAMFERB
 40
6.0
  9
$CHAMFERC
 40
0.0
  9
$CHAMFERD
 40
0.0
  9
$SKPOLY
 70
     0
  9
$TDCREATE
 40
2444975.041666666
  9
$TDUCREATE
 40
2444975.000000000
  9
$TDUPDATE
 40
2454084.604956030
  9
$TDUUPDATE
 40
2454084.563289363
  9
$TDINDWG
 40
0.0144238194
  9
$TDUSRTIMER
 40
0.0144238194
  9
$USRTIMER
 70
     1
  9
$ANGBASE
 50
0.0
  9
$ANGDIR
 70
     0
  9
$PDMODE
 70
     2
  9
$PDSIZE
 40
-0.01
  9
$PLINEWID
 40
0.0
  9
$SPLFRAME
 70
     0
  9
$SPLINETYPE
 70
     6
  9
$SPLINESEGS
 70
     8
  9
$HANDSEED
  5
1E01
  9
$SURFTAB1
 70
     6
  9
$SURFTAB2
 70
     6
  9
$SURFTYPE
 70
     6
  9
$SURFU
 70
     6
  9
$SURFV
 70
     6
  9
$UCSBASE
  2

  9
$UCSNAME
  2

  9
$UCSORG
 10
0.0
 20
0.0
 30
0.0
  9
$UCSXDIR
 10
1.0
 20
0.0
 30
0.0
  9
$UCSYDIR
 10
0.0
 20
1.0
 30
0.0
  9
$UCSORTHOREF
  2

  9
$UCSORTHOVIEW
 70
     0
  9
$UCSORGTOP
 10
0.0
 20
0.0
 30
0.0
  9
$UCSORGBOTTOM
 10
0.0
 20
0.0
 30
0.0
  9
$UCSORGLEFT
 10
0.0
 20
0.0
 30
0.0
  9
$UCSORGRIGHT
 10
0.0
 20
0.0
 30
0.0
  9
$UCSORGFRONT
 10
0.0
 20
0.0
 30
0.0
  9
$UCSORGBACK
 10
0.0
 20
0.0
 30
0.0
  9
$PUCSBASE
  2

  9
$PUCSNAME
  2

  9
$PUCSORG
 10
0.0
 20
0.0
 30
0.0
  9
$PUCSXDIR
 10
1.0
 20
0.0
 30
0.0
  9
$PUCSYDIR
 10
0.0
 20
1.0
 30
0.0
  9
$PUCSORTHOREF
  2

  9
$PUCSORTHOVIEW
 70
     0
  9
$PUCSORGTOP
 10
0.0
 20
0.0
 30
0.0
  9
$PUCSORGBOTTOM
 10
0.0
 20
0.0
 30
0.0
  9
$PUCSORGLEFT
 10
0.0
 20
0.0
 30
0.0
  9
$PUCSORGRIGHT
 10
0.0
 20
0.0
 30
0.0
  9
$PUCSORGFRONT
 10
0.0
 20
0.0
 30
0.0
  9
$PUCSORGBACK
 10
0.0
 20
0.0
 30
0.0
  9
$USERI1
 70
     0
  9
$USERI2
 70
     0
  9
$USERI3
 70
     0
  9
$USERI4
 70
     0
  9
$USERI5
 70
     0
  9
$USERR1
 40
0.0
  9
$USERR2
 40
0.0
  9
$USERR3
 40
0.0
  9
$USERR4
 40
0.0
  9
$USERR5
 40
0.0
  9
$WORLDVIEW
 70
     1
  9
$SHADEDGE
 70
     3
  9
$SHADEDIF
 70
    70
  9
$TILEMODE
 70
     1
  9
$MAXACTVP
 70
    16
  9
$PINSBASE
 10
0.0
 20
0.0
 30
0.0
  9
$PLIMCHECK
 70
     0
  9
$PEXTMIN
 10
0.0
 20
0.0
 30
0.0
  9
$PEXTMAX
 10
594.0
 20
420.0
 30
0.0
  9
$PLIMMIN
 10
0.0
 20
0.0
  9
$PLIMMAX
 10
594.0
 20
420.0
  9
$UNITMODE
 70
     0
  9
$VISRETAIN
 70
     0
  9
$PLINEGEN
 70
     1
  9
$PSLTSCALE
 70
     0
  9
$TREEDEPTH
 70
  3020
  9
$CMLSTYLE
  2
Standard
  9
$CMLJUST
 70
     0
  9
$CMLSCALE
 40
1.0
  9
$PROXYGRAPHICS
 70
     1
  9
$MEASUREMENT
 70
     0
  9
$CELWEIGHT
370
    -1
  9
$ENDCAPS
280
     0
  9
$JOINSTYLE
280
     0
  9
$LWDISPLAY
290
     0
  9
$INSUNITS
 70
     0
  9
$HYPERLINKBASE
  1

  9
$STYLESHEET
  1

  9
$XEDIT
290
     1
  9
$CEPSNTYPE
380
     0
  9
$PSTYLEMODE
290
     1
  9
$FINGERPRINTGUID
  2
{93B8E684-4E15-4DDC-8C23-2C1926070784}
  9
$VERSIONGUID
  2
{E02AC7E7-8E91-416A-9AC0-D7C1C82DFBC2}
  9
$EXTNAMES
290
     1
  9
$PSVPSCALE
 40
0.0
  9
$OLESTARTUP
290
     0
  0
ENDSEC
  0
SECTION
  2
CLASSES
  0
CLASS
  1
ACDBDICTIONARYWDFLT
  2
AcDbDictionaryWithDefault
  3
ObjectDBX Classes
 90
        0
280
     0
281
     0
  0
CLASS
  1
MATERIAL
  2
AcDbMaterial
  3
ObjectDBX Classes
 90
     1024
280
     0
281
     0
  0
CLASS
  1
VISUALSTYLE
  2
AcDbVisualStyle
  3
ObjectDBX Classes
 90
     4095
280
     0
281
     0
  0
CLASS
  1
TABLESTYLE
  2
AcDbTableStyle
  3
ObjectDBX Classes
 90
     4095
280
     0
281
     0
  0
CLASS
  1
DIMASSOC
  2
AcDbDimAssoc
  3
"AcDbDimAssoc|Product Desc:     AcDim ARX App For Dimension|Company:          Autodesk, Inc.|WEB Address:      www.autodesk.com"
 90
        0
280
     0
281
     0
  0
CLASS
  1
SORTENTSTABLE
  2
AcDbSortentsTable
  3
ObjectDBX Classes
 90
        0
280
     0
281
     0
  0
CLASS
  1
DICTIONARYVAR
  2
AcDbDictionaryVar
  3
ObjectDBX Classes
 90
        0
280
     0
281
     0
  0
CLASS
  1
ACDBPLACEHOLDER
  2
AcDbPlaceHolder
  3
ObjectDBX Classes
 90
        0
280
     0
281
     0
  0
CLASS
  1
LAYOUT
  2
AcDbLayout
  3
ObjectDBX Classes
 90
        0
280
     0
281
     0
  0
ENDSEC
  0
SECTION
  2
TABLES
  0
TABLE
  2
VPORT
  5
D71
330
0
100
AcDbSymbolTable
 70
     1
  0
VPORT
  5
DB6
330
D71
100
AcDbSymbolTableRecord
100
AcDbViewportTableRecord
  2
*ACTIVE
 70
     0
 10
0.0
 20
0.0
 11
1.0
 21
1.0
 12
643.3021105508112
 22
135.7553109500502
 13
0.0
 23
0.0
 14
1.0
 24
1.0
 15
0.0
 25
0.0
 16
0.0
 26
0.0
 36
1.0
 17
0.0
 27
0.0
 37
0.0
 40
201.2499206226761
 41
1.708547888774459
 42
50.0
 43
0.0
 44
0.0
 50
0.0
 51
0.0
 71
     0
 72
   100
 73
     1
 74
     3
 75
     0
 76
     0
 77
     0
 78
     0
281
     0
 65
     1
110
0.0
120
0.0
130
0.0
111
1.0
121
0.0
131
0.0
112
0.0
122
1.0
132
0.0
 79
     0
146
0.0
  0
ENDTAB
  0
TABLE
  2
LTYPE
  5
D6E
330
0
100
AcDbSymbolTable
 70
    10
  0
LTYPE
  5
D91
330
D6E
100
AcDbSymbolTableRecord
100
AcDbLinetypeTableRecord
  2
ByBlock
 70
     0
  3

 72
    65
 73
     0
 40
0.0
  0
LTYPE
  5
D92
330
D6E
100
AcDbSymbolTableRecord
100
AcDbLinetypeTableRecord
  2
ByLayer
 70
     0
  3

 72
    65
 73
     0
 40
0.0
  0
LTYPE
  5
D93
330
D6E
100
AcDbSymbolTableRecord
100
AcDbLinetypeTableRecord
  2
CONTINUOUS
 70
     0
  3
Solid line
 72
    65
 73
     0
 40
0.0
  0
LTYPE
  5
1033
330
D6E
100
AcDbSymbolTableRecord
100
AcDbLinetypeTableRecord
  2
CENTER
 70
     0
  3
____ _ ____ _ ____ _ ____ _ ____ _ ____ _ ____
 72
    65
 73
     4
 40
0.6
 49
0.375
 74
     0
 49
-0.075
 74
     0
 49
0.075
 74
     0
 49
-0.075
 74
     0
  0
ENDTAB
  0
TABLE
  2
LAYER
  5
D6B
330
0
100
AcDbSymbolTable
 70
   223
  0
LAYER
  5
D8E
330
D6B
100
AcDbSymbolTableRecord
100
AcDbLayerTableRecord
  2
0
 70
     0
 62
     7
  6
CONTINUOUS
370
    -3
390
D78
  0
LAYER
  5
E9E
330
D6B
100
AcDbSymbolTableRecord
100
AcDbLayerTableRecord
  2
Defpoints
 70
     0
 62
     7
  6
CONTINUOUS
290
     0
370
    -3
390
D78
  0
LAYER
  5
1034
330
D6B
100
AcDbSymbolTableRecord
100
AcDbLayerTableRecord
  2
91000_TIP
 70
     0
 62
     7
  6
CONTINUOUS
370
    -3
390
D78
  0
LAYER
  5
1035
330
D6B
100
AcDbSymbolTableRecord
100
AcDbLayerTableRecord
  2
11000_Left
 70
     0
 62
     7
  6
CONTINUOUS
370
    -3
390
D78
  0
LAYER
  5
1036
330
D6B
100
AcDbSymbolTableRecord
100
AcDbLayerTableRecord
  2
90000_FRAME
 70
     0
 62
     7
  6
CONTINUOUS
370
    -3
390
D78
  0
LAYER
  5
1037
330
D6B
100
AcDbSymbolTableRecord
100
AcDbLayerTableRecord
  2
10000_FRONT
 70
     0
 62
     7
  6
CONTINUOUS
370
    -3
390
D78
  0
LAYER
  5
1038
330
D6B
100
AcDbSymbolTableRecord
100
AcDbLayerTableRecord
  2
10100_FRONT_DIM
 70
     0
 62
     7
  6
CONTINUOUS
370
    -3
390
D78
  0
LAYER
  5
1039
330
D6B
100
AcDbSymbolTableRecord
100
AcDbLayerTableRecord
  2
11100_LEFT_DIM
 70
     0
 62
     7
  6
CONTINUOUS
370
    -3
390
D78
  0
ENDTAB
  0
TABLE
  2
STYLE
  5
D6C
330
0
100
AcDbSymbolTable
 70
     4
  0
STYLE
  5
D8F
330
D6C
100
AcDbSymbolTableRecord
100
AcDbTextStyleTableRecord
  2
STANDARD
 70
     0
 40
0.0
 41
1.0
 50
0.0
 71
     0
 42
1.0
  3
monotxt.shx
  4

  0
ENDTAB
  0
TABLE
  2
VIEW
  5
D6F
330
0
100
AcDbSymbolTable
 70
     0
  0
ENDTAB
  0
TABLE
  2
UCS
  5
D70
330
0
100
AcDbSymbolTable
 70
     0
  0
ENDTAB
  0
TABLE
  2
APPID
  5
D72
330
0
100
AcDbSymbolTable
 70
     5
  0
APPID
  5
D90
330
D72
100
AcDbSymbolTableRecord
100
AcDbRegAppTableRecord
  2
ACAD
 70
     0
  0
APPID
  5
E96
330
D72
100
AcDbSymbolTableRecord
100
AcDbRegAppTableRecord
  2
ACAD_EXEMPT_FROM_CAD_STANDARDS
 70
     0
  0
APPID
  5
103B
330
D72
100
AcDbSymbolTableRecord
100
AcDbRegAppTableRecord
  2
ACAD_PSEXT
 70
     0
  0
APPID
  5
103C
330
D72
100
AcDbSymbolTableRecord
100
AcDbRegAppTableRecord
  2
AUSTER_ANSICHT
 70
     0
  0
APPID
  5
103D
330
D72
100
AcDbSymbolTableRecord
100
AcDbRegAppTableRecord
  2
AUSTER_FOLIE
 70
     0
  0
ENDTAB
  0
TABLE
  2
DIMSTYLE
  5
D73
330
0
100
AcDbSymbolTable
 70
     7
100
AcDbDimStyleTable
 71
     2
340
DB7
340
103A
  0
DIMSTYLE
105
DB7
330
D73
100
AcDbSymbolTableRecord
100
AcDbDimStyleTableRecord
  2
STANDARD
 70
     0
 41
0.125
 43
0.25
 44
0.125
 47
0.005
 48
-0.005
140
3.0
147
0.0625
171
     0
172
     1
271
     3
272
     3
274
     0
279
     2
340
D8F
  0
DIMSTYLE
105
103A
102
{ACAD_REACTORS
330
156C
330
155D
330
155C
330
1555
330
1559
330
1566
330
1560
330
1563
330
1569
330
1556
330
156F
330
1578
330
1572
330
1575
330
157B
330
EEC
330
ED2
330
EB8
330
E9D
330
1BD2
102
}
330
D73
100
AcDbSymbolTableRecord
100
AcDbDimStyleTableRecord
  2
DSTYLE1
 70
     0
 41
3.0
 42
0.0
 44
1.0
 73
     0
 74
     0
 77
     1
 78
     3
140
2.5
143
0.039370079
147
1.0
271
     3
272
     3
274
     0
279
     2
340
D8F
  0
ENDTAB
  0
TABLE
  2
BLOCK_RECORD
  5
D6A
330
0
100
AcDbSymbolTable
 70
    54
  0
BLOCK_RECORD
  5
D9F
102
{ACAD_XDICTIONARY
360
1C31
102
}
330
D6A
100
AcDbSymbolTableRecord
100
AcDbBlockTableRecord
  2
*Model_Space
340
DA2
  0
BLOCK_RECORD
  5
D9B
330
D6A
100
AcDbSymbolTableRecord
100
AcDbBlockTableRecord
  2
*Paper_Space
340
D9E
  0
BLOCK_RECORD
  5
E9F
330
D6A
100
AcDbSymbolTableRecord
100
AcDbBlockTableRecord
  2
*D13
340
0
  0
BLOCK_RECORD
  5
EB9
330
D6A
100
AcDbSymbolTableRecord
100
AcDbBlockTableRecord
  2
*D14
340
0
  0
BLOCK_RECORD
  5
ED3
330
D6A
100
AcDbSymbolTableRecord
100
AcDbBlockTableRecord
  2
*D15
340
0
  0
BLOCK_RECORD
  5
EED
330
D6A
100
AcDbSymbolTableRecord
100
AcDbBlockTableRecord
  2
*D16
340
0
  0
BLOCK_RECORD
  5
F06
330
D6A
100
AcDbSymbolTableRecord
100
AcDbBlockTableRecord
  2
SIEMENS_OUTLINE_BL0
340
0
102
{BLKREFS
331
1418
331
1D46
331
1D65
102
}
  0
BLOCK_RECORD
  5
1BD3
330
D6A
100
AcDbSymbolTableRecord
100
AcDbBlockTableRecord
  2
*D49
340
0
  0
ENDTAB
  0
ENDSEC
  0
SECTION
  2
BLOCKS
  0
BLOCK
  5
E91
330
D9F
100
AcDbEntity
  8
0
 62
     1
100
AcDbBlockBegin
  2
*Model_Space
 70
     0
 10
0.0
 20
0.0
 30
0.0
  3
*Model_Space
  1

  0
ENDBLK
  5
E92
330
D9F
100
AcDbEntity
  8
0
 62
     1
100
AcDbBlockEnd
  0
BLOCK
  5
E8F
330
D9B
100
AcDbEntity
 67
     1
  8
0
 62
     1
100
AcDbBlockBegin
  2
*Paper_Space
 70
     0
 10
0.0
 20
0.0
 30
0.0
  3
*Paper_Space
  1

  0
ENDBLK
  5
E90
330
D9B
100
AcDbEntity
 67
     1
  8
0
 62
     1
100
AcDbBlockEnd
  0
BLOCK
  5
EAA
330
E9F
100
AcDbEntity
  8
0
 62
     1
100
AcDbBlockBegin
  2
*D13
 70
     1
 10
0.0
 20
0.0
 30
0.0
  3
*D13
  1

  0
LINE
  5
1DA3
330
E9F
100
AcDbEntity
  8
11100_LEFT_DIM
  6
Continuous
 62
     0
370
    -2
100
AcDbLine
 10
701.1498317873535
 20
159.3623857511674
 30
0.0
 11
716.1498317873536
 21
159.3623857511673
 31
0.0
  0
LINE
  5
1DA4
330
E9F
100
AcDbEntity
  8
11100_LEFT_DIM
  6
Continuous
 62
     0
370
    -2
100
AcDbLine
 10
693.1498317873535
 20
149.3623857511674
 30
0.0
 11
716.1498317873536
 21
149.3623857511673
 31
0.0
  0
LINE
  5
1DA5
330
E9F
100
AcDbEntity
  8
11100_LEFT_DIM
  6
Continuous
 62
     0
370
    -2
100
AcDbLine
 10
715.1498317873536
 20
161.3623857511673
 30
0.0
 11
715.1498317873536
 21
163.3623857511673
 31
0.0
  0
LINE
  5
1DA6
330
E9F
100
AcDbEntity
  8
11100_LEFT_DIM
  6
Continuous
 62
     0
370
    -2
100
AcDbLine
 10
715.1498317873536
 20
147.3623857511673
 30
0.0
 11
715.1498317873536
 21
145.3623857511673
 31
0.0
  0
LINE
  5
1DA7
330
E9F
100
AcDbEntity
  8
11100_LEFT_DIM
  6
Continuous
 62
     0
370
    -2
100
AcDbLine
 10
715.1498317873536
 20
159.3623857511673
 30
0.0
 11
715.1498317873536
 21
158.279052417834
 31
0.0
  0
LINE
  5
1DA8
330
E9F
100
AcDbEntity
  8
11100_LEFT_DIM
  6
Continuous
 62
     0
370
    -2
100
AcDbLine
 10
715.1498317873536
 20
149.3623857511673
 30
0.0
 11
715.1498317873536
 21
150.4457190845007
 31
0.0
  0
SOLID
  5
1DA9
330
E9F
100
AcDbEntity
  8
11100_LEFT_DIM
  6
Continuous
 62
     0
100
AcDbTrace
 10
714.8164984540202
 20
161.3623857511673
 30
0.0
 11
715.4831651206869
 21
161.3623857511673
 31
0.0
 12
715.1498317873536
 22
159.3623857511673
 32
0.0
 13
715.1498317873536
 23
159.3623857511673
 33
0.0
  0
SOLID
  5
1DAA
330
E9F
100
AcDbEntity
  8
11100_LEFT_DIM
  6
Continuous
 62
     0
100
AcDbTrace
 10
714.8164984540202
 20
147.3623857511673
 30
0.0
 11
715.4831651206869
 21
147.3623857511673
 31
0.0
 12
715.1498317873536
 22
149.3623857511673
 32
0.0
 13
715.1498317873536
 23
149.3623857511673
 33
0.0
  0
MTEXT
  5
1DAB
330
E9F
100
AcDbEntity
  8
11100_LEFT_DIM
  6
Continuous
 62
     0
370
    13
100
AcDbMText
 10
715.1498317873536
 20
154.3623857511675
 30
0.0
 40
3.5
 41
0.0
 71
     5
 72
     1
  1
\A1;10
 11
0.0000000000000001
 21
1.0
 31
0.0
 73
     1
 44
1.0
1001
ACAD
1000
MTEXTBEGIN
1070
    73
1070
     1
1070
    44
1040
1.0
1070
    74
1070
     0
1000
MTEXTEND
  0
POINT
  5
1DAC
330
E9F
100
AcDbEntity
  8
Defpoints
  6
Continuous
 62
     0
100
AcDbPoint
 10
700.1498317873536
 20
159.3623857511674
 30
0.0
  0
POINT
  5
1DAD
330
E9F
100
AcDbEntity
  8
Defpoints
  6
Continuous
 62
     0
100
AcDbPoint
 10
692.1498317873536
 20
149.3623857511674
 30
0.0
  0
POINT
  5
1DAE
330
E9F
100
AcDbEntity
  8
Defpoints
  6
Continuous
 62
     0
100
AcDbPoint
 10
715.1498317873536
 20
149.3623857511673
 30
0.0
  0
ENDBLK
  5
EAB
330
E9F
100
AcDbEntity
  8
0
 62
     1
100
AcDbBlockEnd
  0
BLOCK
  5
EC4
330
EB9
100
AcDbEntity
  8
0
 62
     1
100
AcDbBlockBegin
  2
*D14
 70
     1
 10
0.0
 20
0.0
 30
0.0
  3
*D14
  1

  0
LINE
  5
1DAF
330
EB9
100
AcDbEntity
  8
11100_LEFT_DIM
  6
Continuous
 62
     0
370
    -2
100
AcDbLine
 10
701.1498317873535
 20
159.3623857511674
 30
0.0
 11
726.1498317873535
 21
159.3623857511673
 31
0.0
  0
LINE
  5
1DB0
330
EB9
100
AcDbEntity
  8
11100_LEFT_DIM
  6
Continuous
 62
     0
370
    -2
100
AcDbLine
 10
692.1498317873536
 20
142.5582157511674
 30
0.0
 11
726.1498317873535
 21
142.5582157511673
 31
0.0
  0
LINE
  5
1DB1
330
EB9
100
AcDbEntity
  8
11100_LEFT_DIM
  6
Continuous
 62
     0
370
    -2
100
AcDbLine
 10
725.1498317873536
 20
157.3623857511673
 30
0.0
 11
725.1498317873536
 21
154.876967417834
 31
0.0
  0
LINE
  5
1DB2
330
EB9
100
AcDbEntity
  8
11100_LEFT_DIM
  6
Continuous
 62
     0
370
    -2
100
AcDbLine
 10
725.1498317873536
 20
144.5582157511673
 30
0.0
 11
725.1498317873536
 21
147.0436340845007
 31
0.0
  0
SOLID
  5
1DB3
330
EB9
100
AcDbEntity
  8
11100_LEFT_DIM
  6
Continuous
 62
     0
100
AcDbTrace
 10
724.8164984540202
 20
157.3623857511673
 30
0.0
 11
725.483165120687
 21
157.3623857511673
 31
0.0
 12
725.1498317873536
 22
159.3623857511673
 32
0.0
 13
725.1498317873536
 23
159.3623857511673
 33
0.0
  0
SOLID
  5
1DB4
330
EB9
100
AcDbEntity
  8
11100_LEFT_DIM
  6
Continuous
 62
     0
100
AcDbTrace
 10
724.8164984540202
 20
144.5582157511673
 30
0.0
 11
725.483165120687
 21
144.5582157511673
 31
0.0
 12
725.1498317873536
 22
142.5582157511673
 32
0.0
 13
725.1498317873536
 23
142.5582157511673
 33
0.0
  0
MTEXT
  5
1DB5
330
EB9
100
AcDbEntity
  8
11100_LEFT_DIM
  6
Continuous
 62
     0
370
    13
100
AcDbMText
 10
725.1498317873536
 20
150.9603007511674
 30
0.0
 40
3.5
 41
0.0
 71
     5
 72
     1
  1
\A1;17
 11
0.0000000000000001
 21
1.0
 31
0.0
 73
     1
 44
1.0
1001
ACAD
1000
MTEXTBEGIN
1070
    73
1070
     1
1070
    44
1040
1.0
1070
    74
1070
     0
1000
MTEXTEND
  0
POINT
  5
1DB6
330
EB9
100
AcDbEntity
  8
Defpoints
  6
Continuous
 62
     0
100
AcDbPoint
 10
700.1498317873536
 20
159.3623857511674
 30
0.0
  0
POINT
  5
1DB7
330
EB9
100
AcDbEntity
  8
Defpoints
  6
Continuous
 62
     0
100
AcDbPoint
 10
691.1498317873536
 20
142.5582157511674
 30
0.0
  0
POINT
  5
1DB8
330
EB9
100
AcDbEntity
  8
Defpoints
  6
Continuous
 62
     0
100
AcDbPoint
 10
725.1498317873536
 20
142.5582157511673
 30
0.0
  0
ENDBLK
  5
EC5
330
EB9
100
AcDbEntity
  8
0
 62
     1
100
AcDbBlockEnd
  0
BLOCK
  5
EDE
330
ED3
100
AcDbEntity
  8
0
 62
     1
100
AcDbBlockBegin
  2
*D15
 70
     1
 10
0.0
 20
0.0
 30
0.0
  3
*D15
  1

  0
LINE
  5
1DB9
330
ED3
100
AcDbEntity
  8
10100_FRONT_DIM
  6
Continuous
 62
     0
370
    -2
100
AcDbLine
 10
667.7382655265887
 20
149.8623857511674
 30
0.0
 11
667.7382655265887
 21
123.3623857511674
 31
0.0
  0
LINE
  5
1DBA
330
ED3
100
AcDbEntity
  8
10100_FRONT_DIM
  6
Continuous
 62
     0
370
    -2
100
AcDbLine
 10
570.7382655265887
 20
149.8623857511674
 30
0.0
 11
570.7382655265887
 21
123.3623857511674
 31
0.0
  0
LINE
  5
1DBB
330
ED3
100
AcDbEntity
  8
10100_FRONT_DIM
  6
Continuous
 62
     0
370
    -2
100
AcDbLine
 10
665.7382655265887
 20
124.3623857511674
 30
0.0
 11
623.1549321932553
 21
124.3623857511674
 31
0.0
  0
LINE
  5
1DBC
330
ED3
100
AcDbEntity
  8
10100_FRONT_DIM
  6
Continuous
 62
     0
370
    -2
100
AcDbLine
 10
572.7382655265887
 20
124.3623857511674
 30
0.0
 11
615.3215988599221
 21
124.3623857511674
 31
0.0
  0
SOLID
  5
1DBD
330
ED3
100
AcDbEntity
  8
10100_FRONT_DIM
  6
Continuous
 62
     0
100
AcDbTrace
 10
665.7382655265887
 20
124.6957190845007
 30
0.0
 11
665.7382655265887
 21
124.029052417834
 31
0.0
 12
667.7382655265887
 22
124.3623857511674
 32
0.0
 13
667.7382655265887
 23
124.3623857511674
 33
0.0
  0
SOLID
  5
1DBE
330
ED3
100
AcDbEntity
  8
10100_FRONT_DIM
  6
Continuous
 62
     0
100
AcDbTrace
 10
572.7382655265887
 20
124.6957190845007
 30
0.0
 11
572.7382655265887
 21
124.029052417834
 31
0.0
 12
570.7382655265887
 22
124.3623857511674
 32
0.0
 13
570.7382655265887
 23
124.3623857511674
 33
0.0
  0
MTEXT
  5
1DBF
330
ED3
100
AcDbEntity
  8
10100_FRONT_DIM
  6
Continuous
 62
     0
370
    13
100
AcDbMText
 10
619.2382655265888
 20
124.3623857511674
 30
0.0
 40
3.5
 41
0.0
 71
     5
 72
     1
  1
\A1;97
 73
     1
 44
1.0
1001
ACAD
1000
MTEXTBEGIN
1070
    73
1070
     1
1070
    44
1040
1.0
1070
    74
1070
     0
1000
MTEXTEND
  0
POINT
  5
1DC0
330
ED3
100
AcDbEntity
  8
Defpoints
  6
Continuous
 62
     0
100
AcDbPoint
 10
667.7382655265887
 20
150.8623857511674
 30
0.0
  0
POINT
  5
1DC1
330
ED3
100
AcDbEntity
  8
Defpoints
  6
Continuous
 62
     0
100
AcDbPoint
 10
570.7382655265887
 20
150.8623857511674
 30
0.0
  0
POINT
  5
1DC2
330
ED3
100
AcDbEntity
  8
Defpoints
  6
Continuous
 62
     0
100
AcDbPoint
 10
570.7382655265887
 20
124.3623857511674
 30
0.0
  0
ENDBLK
  5
EDF
330
ED3
100
AcDbEntity
  8
0
 62
     1
100
AcDbBlockEnd
  0
BLOCK
  5
EF8
330
EED
100
AcDbEntity
  8
0
 62
     1
100
AcDbBlockBegin
  2
*D16
 70
     1
 10
0.0
 20
0.0
 30
0.0
  3
*D16
  1

  0
LINE
  5
1DC3
330
EED
100
AcDbEntity
  8
10100_FRONT_DIM
  6
Continuous
 62
     0
370
    -2
100
AcDbLine
 10
576.4882655265887
 20
139.7636621506233
 30
0.0
 11
576.4882655265887
 21
133.3623857511674
 31
0.0
  0
LINE
  5
1DC4
330
EED
100
AcDbEntity
  8
10100_FRONT_DIM
  6
Continuous
 62
     0
370
    -2
100
AcDbLine
 10
661.9882655265887
 20
139.8242912505407
 30
0.0
 11
661.9882655265887
 21
133.3623857511674
 31
0.0
  0
LINE
  5
1DC5
330
EED
100
AcDbEntity
  8
10100_FRONT_DIM
  6
Continuous
 62
     0
370
    -2
100
AcDbLine
 10
578.4882655265887
 20
134.3623857511674
 30
0.0
 11
615.3215988599221
 21
134.3623857511674
 31
0.0
  0
LINE
  5
1DC6
330
EED
100
AcDbEntity
  8
10100_FRONT_DIM
  6
Continuous
 62
     0
370
    -2
100
AcDbLine
 10
659.9882655265887
 20
134.3623857511674
 30
0.0
 11
623.1549321932553
 21
134.3623857511674
 31
0.0
  0
SOLID
  5
1DC7
330
EED
100
AcDbEntity
  8
10100_FRONT_DIM
  6
Continuous
 62
     0
100
AcDbTrace
 10
578.4882655265887
 20
134.6957190845007
 30
0.0
 11
578.4882655265887
 21
134.029052417834
 31
0.0
 12
576.4882655265887
 22
134.3623857511674
 32
0.0
 13
576.4882655265887
 23
134.3623857511674
 33
0.0
  0
SOLID
  5
1DC8
330
EED
100
AcDbEntity
  8
10100_FRONT_DIM
  6
Continuous
 62
     0
100
AcDbTrace
 10
659.9882655265887
 20
134.6957190845007
 30
0.0
 11
659.9882655265887
 21
134.029052417834
 31
0.0
 12
661.9882655265887
 22
134.3623857511674
 32
0.0
 13
661.9882655265887
 23
134.3623857511674
 33
0.0
  0
MTEXT
  5
1DC9
330
EED
100
AcDbEntity
  8
10100_FRONT_DIM
  6
Continuous
 62
     0
370
    13
100
AcDbMText
 10
619.2382655265888
 20
134.3623857511674
 30
0.0
 40
3.5
 41
0.0
 71
     5
 72
     1
  1
\A1;86
 73
     1
 44
1.0
1001
ACAD
1000
MTEXTBEGIN
1070
    73
1070
     1
1070
    44
1040
1.0
1070
    74
1070
     0
1000
MTEXTEND
  0
POINT
  5
1DCA
330
EED
100
AcDbEntity
  8
Defpoints
  6
Continuous
 62
     0
100
AcDbPoint
 10
576.4882655265887
 20
140.7636621506233
 30
0.0
  0
POINT
  5
1DCB
330
EED
100
AcDbEntity
  8
Defpoints
  6
Continuous
 62
     0
100
AcDbPoint
 10
661.9882655265887
 20
140.8242912505407
 30
0.0
  0
POINT
  5
1DCC
330
EED
100
AcDbEntity
  8
Defpoints
  6
Continuous
 62
     0
100
AcDbPoint
 10
661.9882655265887
 20
134.3623857511674
 30
0.0
  0
ENDBLK
  5
EF9
330
EED
100
AcDbEntity
  8
0
 62
     1
100
AcDbBlockEnd
  0
BLOCK
  5
F07
330
F06
100
AcDbEntity
  8
0
  6
Continuous
 62
     7
100
AcDbBlockBegin
  2
SIEMENS_OUTLINE_BL0
 70
     0
 10
0.0
 20
0.0
 30
0.0
  3
SIEMENS_OUTLINE_BL0
  1

  0
LINE
  5
F08
330
F06
100
AcDbEntity
  8
0
  6
Continuous
 62
     7
100
AcDbLine
 10
79.186200508
 20
21.4145478991
 30
0.0
 11
79.186200508
 21
16.6612788158
 31
0.0
  0
LINE
  5
F09
330
F06
100
AcDbEntity
  8
0
  6
Continuous
 62
     7
100
AcDbLine
 10
80.61218123299999
 20
21.4145478991
 30
0.0
 11
80.61218123299999
 21
16.6612788158
 31
0.0
  0
LINE
  5
F0A
330
F06
100
AcDbEntity
  8
0
  6
Continuous
 62
     7
100
AcDbLine
 10
79.186200508
 20
16.6612788158
 30
0.0
 11
80.61218123299999
 21
16.6612788158
 31
0.0
  0
LINE
  5
F0B
330
F06
100
AcDbEntity
  8
0
  6
Continuous
 62
     7
100
AcDbLine
 10
79.186200508
 20
21.4145478991
 30
0.0
 11
80.61218123299999
 21
21.4145478991
 31
0.0
  0
LINE
  5
F0C
330
F06
100
AcDbEntity
  8
0
  6
Continuous
 62
     7
100
AcDbLine
 10
81.7054331221
 20
21.4145478991
 30
0.0
 11
81.7054331221
 21
16.6612788158
 31
0.0
  0
LINE
  5
F0D
330
F06
100
AcDbEntity
  8
0
  6
Continuous
 62
     7
100
AcDbLine
 10
81.7054331221
 20
16.6612788158
 30
0.0
 11
85.2703849346
 21
16.6612788158
 31
0.0
  0
LINE
  5
F0E
330
F06
100
AcDbEntity
  8
0
  6
Continuous
 62
     7
100
AcDbLine
 10
85.2703849346
 20
17.56439994169999
 30
0.0
 11
83.0838811563
 21
17.56439994169999
 31
0.0
  0
LINE
  5
F0F
330
F06
100
AcDbEntity
  8
0
  6
Continuous
 62
     7
100
AcDbLine
 10
85.2703849346
 20
17.56439994169999
 30
0.0
 11
85.2703849346
 21
16.6612788158
 31
0.0
  0
LINE
  5
F10
330
F06
100
AcDbEntity
  8
0
  6
Continuous
 62
     7
100
AcDbLine
 10
85.2228522438
 20
21.4145478991
 30
0.0
 11
81.7054331221
 21
21.4145478991
 31
0.0
  0
LINE
  5
F11
330
F06
100
AcDbEntity
  8
0
  6
Continuous
 62
     7
100
AcDbLine
 10
85.2228522438
 20
20.5351931187
 30
0.0
 11
83.0838811563
 21
20.5351931187
 31
0.0
  0
LINE
  5
F12
330
F06
100
AcDbEntity
  8
0
  6
Continuous
 62
     7
100
AcDbLine
 10
85.2228522438
 20
21.4145478991
 30
0.0
 11
85.2228522438
 21
20.5351931187
 31
0.0
  0
LINE
  5
F13
330
F06
100
AcDbEntity
  8
0
  6
Continuous
 62
     7
100
AcDbLine
 10
84.9376560988
 20
18.68141817619999
 30
0.0
 11
83.0838811563
 21
18.68141817619999
 31
0.0
  0
LINE
  5
F14
330
F06
100
AcDbEntity
  8
0
  6
Continuous
 62
     7
100
AcDbLine
 10
84.9376560988
 20
19.46570757499999
 30
0.0
 11
84.9376560988
 21
18.68141817619999
 31
0.0
  0
LINE
  5
F15
330
F06
100
AcDbEntity
  8
0
  6
Continuous
 62
     7
100
AcDbLine
 10
84.9376560988
 20
19.46570757499999
 30
0.0
 11
83.0838811563
 21
19.46570757499999
 31
0.0
  0
LINE
  5
F16
330
F06
100
AcDbEntity
  8
0
  6
Continuous
 62
     7
100
AcDbLine
 10
83.0838811563
 20
20.5351931187
 30
0.0
 11
83.0838811563
 21
19.46570757499999
 31
0.0
  0
LINE
  5
F17
330
F06
100
AcDbEntity
  8
0
  6
Continuous
 62
     7
100
AcDbLine
 10
83.0838811563
 20
18.68141817619999
 30
0.0
 11
83.0838811563
 21
17.56439994169999
 31
0.0
  0
LINE
  5
F18
330
F06
100
AcDbEntity
  8
0
  6
Continuous
 62
     7
100
AcDbLine
 10
86.0784406788
 20
16.6612788158
 30
0.0
 11
86.0784406788
 21
21.4145478991
 31
0.0
  0
LINE
  5
F19
330
F06
100
AcDbEntity
  8
0
  6
Continuous
 62
     7
100
AcDbLine
 10
86.0784406788
 20
16.6612788158
 30
0.0
 11
87.02909449539999
 21
16.6612788158
 31
0.0
  0
LINE
  5
F1A
330
F06
100
AcDbEntity
  8
0
  6
Continuous
 62
     7
100
AcDbLine
 10
91.92496165120001
 20
21.4145478991
 30
0.0
 11
91.92496165120001
 21
16.6612788158
 31
0.0
  0
LINE
  5
F1B
330
F06
100
AcDbEntity
  8
0
  6
Continuous
 62
     7
100
AcDbLine
 10
91.92496165120001
 20
16.6612788158
 30
0.0
 11
90.54651361700001
 21
16.6612788158
 31
0.0
  0
LINE
  5
F1C
330
F06
100
AcDbEntity
  8
0
  6
Continuous
 62
     7
100
AcDbLine
 10
88.3600098387
 20
16.61374612499999
 30
0.0
 11
89.21559827370002
 21
16.61374612499999
 31
0.0
  0
LINE
  5
F1D
330
F06
100
AcDbEntity
  8
0
  6
Continuous
 62
     7
100
AcDbLine
 10
88.3600098387
 20
16.61374612499999
 30
0.0
 11
87.02909449539999
 21
19.7033710291
 31
0.0
  0
LINE
  5
F1E
330
F06
100
AcDbEntity
  8
0
  6
Continuous
 62
     7
100
AcDbLine
 10
87.02909449539999
 20
16.6612788158
 30
0.0
 11
87.02909449539999
 21
19.7033710291
 31
0.0
  0
LINE
  5
F1F
330
F06
100
AcDbEntity
  8
0
  6
Continuous
 62
     7
100
AcDbLine
 10
90.54651361700001
 20
19.75090372
 30
0.0
 11
89.21559827370002
 21
16.61374612499999
 31
0.0
  0
LINE
  5
F20
330
F06
100
AcDbEntity
  8
0
  6
Continuous
 62
     7
100
AcDbLine
 10
87.78961754870001
 20
21.4145478991
 30
0.0
 11
86.0784406788
 21
21.4145478991
 31
0.0
  0
LINE
  5
F21
330
F06
100
AcDbEntity
  8
0
  6
Continuous
 62
     7
100
AcDbLine
 10
91.92496165120001
 20
21.4145478991
 30
0.0
 11
90.2137847812
 21
21.4145478991
 31
0.0
  0
LINE
  5
F22
330
F06
100
AcDbEntity
  8
0
  6
Continuous
 62
     7
100
AcDbLine
 10
87.78961754870001
 20
21.4145478991
 30
0.0
 11
89.0254675104
 21
18.51505375829999
 31
0.0
  0
LINE
  5
F23
330
F06
100
AcDbEntity
  8
0
  6
Continuous
 62
     7
100
AcDbLine
 10
90.2137847812
 20
21.4145478991
 30
0.0
 11
89.0254675104
 21
18.51505375829999
 31
0.0
  0
LINE
  5
F24
330
F06
100
AcDbEntity
  8
0
  6
Continuous
 62
     7
100
AcDbLine
 10
90.54651361700001
 20
19.75090372
 30
0.0
 11
90.54651361700001
 21
16.6612788158
 31
0.0
  0
LINE
  5
F25
330
F06
100
AcDbEntity
  8
0
  6
Continuous
 62
     7
100
AcDbLine
 10
93.01821354030002
 20
21.4145478991
 30
0.0
 11
93.01821354030002
 21
16.6612788158
 31
0.0
  0
LINE
  5
F26
330
F06
100
AcDbEntity
  8
0
  6
Continuous
 62
     7
100
AcDbLine
 10
93.01821354030002
 20
16.6612788158
 30
0.0
 11
96.5831653528
 21
16.6612788158
 31
0.0
  0
LINE
  5
F27
330
F06
100
AcDbEntity
  8
0
  6
Continuous
 62
     7
100
AcDbLine
 10
96.5831653528
 20
17.56439994169999
 30
0.0
 11
94.3966615745
 21
17.56439994169999
 31
0.0
  0
LINE
  5
F28
330
F06
100
AcDbEntity
  8
0
  6
Continuous
 62
     7
100
AcDbLine
 10
96.5831653528
 20
17.56439994169999
 30
0.0
 11
96.5831653528
 21
16.6612788158
 31
0.0
  0
LINE
  5
F29
330
F06
100
AcDbEntity
  8
0
  6
Continuous
 62
     7
100
AcDbLine
 10
96.53563266200002
 20
21.4145478991
 30
0.0
 11
93.01821354030002
 21
21.4145478991
 31
0.0
  0
LINE
  5
F2A
330
F06
100
AcDbEntity
  8
0
  6
Continuous
 62
     7
100
AcDbLine
 10
96.53563266200002
 20
20.5351931187
 30
0.0
 11
94.3966615745
 21
20.5351931187
 31
0.0
  0
LINE
  5
F2B
330
F06
100
AcDbEntity
  8
0
  6
Continuous
 62
     7
100
AcDbLine
 10
96.53563266200002
 20
21.4145478991
 30
0.0
 11
96.53563266200002
 21
20.5351931187
 31
0.0
  0
LINE
  5
F2C
330
F06
100
AcDbEntity
  8
0
  6
Continuous
 62
     7
100
AcDbLine
 10
96.25043651700002
 20
18.68141817619999
 30
0.0
 11
94.3966615745
 21
18.68141817619999
 31
0.0
  0
LINE
  5
F2D
330
F06
100
AcDbEntity
  8
0
  6
Continuous
 62
     7
100
AcDbLine
 10
96.25043651700002
 20
19.46570757499999
 30
0.0
 11
96.25043651700002
 21
18.68141817619999
 31
0.0
  0
LINE
  5
F2E
330
F06
100
AcDbEntity
  8
0
  6
Continuous
 62
     7
100
AcDbLine
 10
96.25043651700002
 20
19.46570757499999
 30
0.0
 11
94.3966615745
 21
19.46570757499999
 31
0.0
  0
LINE
  5
F2F
330
F06
100
AcDbEntity
  8
0
  6
Continuous
 62
     7
100
AcDbLine
 10
94.3966615745
 20
20.5351931187
 30
0.0
 11
94.3966615745
 21
19.46570757499999
 31
0.0
  0
LINE
  5
F30
330
F06
100
AcDbEntity
  8
0
  6
Continuous
 62
     7
100
AcDbLine
 10
94.3966615745
 20
18.68141817619999
 30
0.0
 11
94.3966615745
 21
17.56439994169999
 31
0.0
  0
LINE
  5
F31
330
F06
100
AcDbEntity
  8
0
  6
Continuous
 62
     7
100
AcDbLine
 10
97.3674547515
 20
16.6612788158
 30
0.0
 11
97.3674547515
 21
21.4145478991
 31
0.0
  0
LINE
  5
F32
330
F06
100
AcDbEntity
  8
0
  6
Continuous
 62
     7
100
AcDbLine
 10
101.5503315447999
 20
21.4145478991
 30
0.0
 11
101.5503315447999
 21
16.6612788158
 31
0.0
  0
LINE
  5
F33
330
F06
100
AcDbEntity
  8
0
  6
Continuous
 62
     7
100
AcDbLine
 10
97.3674547515
 20
16.6612788158
 30
0.0
 11
98.3181085682
 21
16.6612788158
 31
0.0
  0
LINE
  5
F34
330
F06
100
AcDbEntity
  8
0
  6
Continuous
 62
     7
100
AcDbLine
 10
101.5503315447999
 20
21.4145478991
 30
0.0
 11
100.5996777281999
 21
21.4145478991
 31
0.0
  0
LINE
  5
F35
330
F06
100
AcDbEntity
  8
0
  6
Continuous
 62
     7
100
AcDbLine
 10
98.91226720360002
 20
21.4145478991
 30
0.0
 11
97.3674547515
 21
21.4145478991
 31
0.0
  0
LINE
  5
F36
330
F06
100
AcDbEntity
  8
0
  6
Continuous
 62
     7
100
AcDbLine
 10
101.5503315447999
 20
16.6612788158
 30
0.0
 11
100.0292854381999
 21
16.6612788158
 31
0.0
  0
LINE
  5
F37
330
F06
100
AcDbEntity
  8
0
  6
Continuous
 62
     7
100
AcDbLine
 10
100.0292854381999
 20
16.6612788158
 30
0.0
 11
98.3181085682
 21
19.7033710291
 31
0.0
  0
LINE
  5
F38
330
F06
100
AcDbEntity
  8
0
  6
Continuous
 62
     7
100
AcDbLine
 10
98.91226720360002
 20
21.4145478991
 30
0.0
 11
100.5996777281999
 21
18.4675210675
 31
0.0
  0
LINE
  5
F39
330
F06
100
AcDbEntity
  8
0
  6
Continuous
 62
     7
100
AcDbLine
 10
100.5996777281999
 20
21.4145478991
 30
0.0
 11
100.5996777281999
 21
18.4675210675
 31
0.0
  0
LINE
  5
F3A
330
F06
100
AcDbEntity
  8
0
  6
Continuous
 62
     7
100
AcDbLine
 10
98.3181085682
 20
16.6612788158
 30
0.0
 11
98.3181085682
 21
19.7033710291
 31
0.0
  0
LINE
  5
F3B
330
F06
100
AcDbEntity
  8
0
  6
Continuous
 62
     7
100
AcDbLine
 10
102.3583872889999
 20
16.75634419749999
 30
0.0
 11
102.3583872889999
 21
17.7069980142
 31
0.0
  0
LINE
  5
F3C
330
F06
100
AcDbEntity
  8
0
  6
Continuous
 62
     7
100
AcDbLine
 10
105.6856756473
 20
20.4163613916
 30
0.0
 11
105.6856756473
 21
21.36701520829999
 31
0.0
  0
ARC
  5
F3D
330
F06
100
AcDbEntity
  8
0
  6
Continuous
 62
     7
100
AcDbCircle
 10
104.063028414
 20
18.61843736089998
 30
0.0
 40
1.111619360599997
100
AcDbArc
 50
277.7099956934
 51
295.6884927745999
  0
ARC
  5
F3E
330
F06
100
AcDbEntity
  8
0
  6
Continuous
 62
     7
100
AcDbCircle
 10
104.3473383967
 20
17.8936115972
 30
0.0
 40
0.3401689265
100
AcDbArc
 50
305.503221255
 51
72.46528985229999
  0
ARC
  5
F3F
330
F06
100
AcDbEntity
  8
0
  6
Continuous
 62
     7
100
AcDbCircle
 10
103.7813445885999
 20
21.2953185068
 30
0.0
 40
4.756794641099999
100
AcDbArc
 50
252.5939200548001
 51
280.9816604255999
  0
ARC
  5
F40
330
F06
100
AcDbEntity
  8
0
  6
Continuous
 62
     7
100
AcDbCircle
 10
104.2361799517
 20
18.6773047703
 30
0.0
 40
2.100726595299998
100
AcDbArc
 50
282.4058358519999
 51
311.8644433928
  0
ARC
  5
F41
330
F06
100
AcDbEntity
  8
0
  6
Continuous
 62
     7
100
AcDbCircle
 10
103.9626156045999
 20
20.2856464918
 30
0.0
 40
0.3029626476
100
AcDbArc
 50
154.4400348282
 51
221.8201698800999
  0
ARC
  5
F42
330
F06
100
AcDbEntity
  8
0
  6
Continuous
 62
     7
100
AcDbCircle
 10
104.0418367559
 20
20.2064253405
 30
0.0
 40
0.4103089737
100
AcDbArc
 50
102.8287828680999
 51
149.2259639003
  0
ARC
  5
F43
330
F06
100
AcDbEntity
  8
0
  6
Continuous
 62
     7
100
AcDbCircle
 10
104.4588635915999
 20
18.46409001059999
 30
0.0
 40
2.201836557
100
AcDbArc
 50
84.0400061857
 51
103.3427657870999
  0
ARC
  5
F44
330
F06
100
AcDbEntity
  8
0
  6
Continuous
 62
     7
100
AcDbCircle
 10
104.1178997669
 20
16.0467260867
 30
0.0
 40
4.642373736499997
100
AcDbArc
 50
70.2625858546
 51
82.95241863799999
  0
ARC
  5
F45
330
F06
100
AcDbEntity
  8
0
  6
Continuous
 62
     7
100
AcDbCircle
 10
103.6038815646999
 20
20.7183489764
 30
0.0
 40
3.258755990899997
100
AcDbArc
 50
247.5300206145
 51
280.7579522143
  0
ARC
  5
F46
330
F06
100
AcDbEntity
  8
0
  6
Continuous
 62
     7
100
AcDbCircle
 10
97.21891509270001
 20
2.4668290159
 30
0.0
 40
17.3316084133
100
AcDbArc
 50
65.34146746500001
 51
67.39977707359999
  0
ARC
  5
F47
330
F06
100
AcDbEntity
  8
0
  6
Continuous
 62
     7
100
AcDbCircle
 10
108.0147774981
 20
28.259255379
 30
0.0
 40
10.6291642039
100
AcDbArc
 50
242.8620101252001
 51
247.1042029186
  0
ARC
  5
F48
330
F06
100
AcDbEntity
  8
0
  6
Continuous
 62
     7
100
AcDbCircle
 10
104.1598762715
 20
20.725323882
 30
0.0
 40
2.166291629199998
100
AcDbArc
 50
227.3119280793999
 51
242.7040315235
  0
ARC
  5
F49
330
F06
100
AcDbEntity
  8
0
  6
Continuous
 62
     7
100
AcDbCircle
 10
103.5558454618999
 20
20.0196462412
 30
0.0
 40
1.238521734
100
AcDbArc
 50
194.7952194236
 51
225.7176549047
  0
ARC
  5
F4A
330
F06
100
AcDbEntity
  8
0
  6
Continuous
 62
     7
100
AcDbCircle
 10
103.6180035961
 20
20.05986621039999
 30
0.0
 40
1.309092072899999
100
AcDbArc
 50
164.1974860461
 51
195.8025139539
  0
ARC
  5
F4B
330
F06
100
AcDbEntity
  8
0
  6
Continuous
 62
     7
100
AcDbCircle
 10
104.1750273167
 20
19.1715990505
 30
0.0
 40
2.366924815299999
100
AcDbArc
 50
86.22180229280001
 51
120.4272602309
  0
ARC
  5
F4C
330
F06
100
AcDbEntity
  8
0
  6
Continuous
 62
     7
100
AcDbCircle
 10
103.9061705341999
 20
12.4754312294
 30
0.0
 40
9.0679051661
100
AcDbArc
 50
78.68270492259998
 51
87.3147599624
  0
ARC
  5
F4D
330
F06
100
AcDbEntity
  8
0
  6
Continuous
 62
     7
100
AcDbCircle
 10
103.4501013557999
 20
20.1673739729
 30
0.0
 40
1.119747444
100
AcDbArc
 50
142.8139179029999
 51
167.1522951416999
  0
ARC
  5
F4E
330
F06
100
AcDbEntity
  8
0
  6
Continuous
 62
     7
100
AcDbCircle
 10
103.7954106973999
 20
19.86079227619999
 30
0.0
 40
1.580546684499998
100
AcDbArc
 50
121.2140948535
 51
141.5254768286
  0
ARC
  5
F4F
330
F06
100
AcDbEntity
  8
0
  6
Continuous
 62
     7
100
AcDbCircle
 10
104.372585063
 20
20.6718496049
 30
0.0
 40
0.8661276051999998
100
AcDbArc
 50
222.7760387596
 51
239.0362434679
  0
ARC
  5
F50
330
F06
100
AcDbEntity
  8
0
  6
Continuous
 62
     7
100
AcDbCircle
 10
101.8658754847
 20
13.3415774063
 30
0.0
 40
6.858773576299999
100
AcDbArc
 50
59.90202725599999
 51
68.2036481279
  0
ARC
  5
F51
330
F06
100
AcDbEntity
  8
0
  6
Continuous
 62
     7
100
AcDbCircle
 10
105.2743699785
 20
22.26746391349999
 30
0.0
 40
2.698741017099999
100
AcDbArc
 50
240.0481997804
 51
251.3779673736999
  0
ARC
  5
F52
330
F06
100
AcDbEntity
  8
0
  6
Continuous
 62
     7
100
AcDbCircle
 10
104.6089128116999
 20
18.1105652982
 30
0.0
 40
1.4334474881
100
AcDbArc
 50
315.8904553224
 51
333.5229264372999
  0
ARC
  5
F53
330
F06
100
AcDbEntity
  8
0
  6
Continuous
 62
     7
100
AcDbCircle
 10
104.6135510555
 20
18.057158148
 30
0.0
 40
1.406228711899998
100
AcDbArc
 50
335.3867972702
 51
24.39151194019999
  0
ARC
  5
F54
330
F06
100
AcDbEntity
  8
0
  6
Continuous
 62
     7
100
AcDbCircle
 10
104.5413461519
 20
17.97930145619999
 30
0.0
 40
1.504702514799999
100
AcDbArc
 50
25.95629166050001
 51
59.4834829668
  0
LINE
  5
F55
330
F06
100
AcDbEntity
  8
0
  6
Continuous
 62
     7
100
AcDbLine
 10
74.7656602606
 20
16.75634419749999
 30
0.0
 11
74.7656602606
 21
17.7069980142
 31
0.0
  0
LINE
  5
F56
330
F06
100
AcDbEntity
  8
0
  6
Continuous
 62
     7
100
AcDbLine
 10
78.09294861879997
 20
20.4163613916
 30
0.0
 11
78.09294861879997
 21
21.36701520829999
 31
0.0
  0
ARC
  5
F57
330
F06
100
AcDbEntity
  8
0
  6
Continuous
 62
     7
100
AcDbCircle
 10
76.4703013855
 20
18.61843736089998
 30
0.0
 40
1.111619360599997
100
AcDbArc
 50
277.7099956934
 51
295.6884927745999
  0
ARC
  5
F58
330
F06
100
AcDbEntity
  8
0
  6
Continuous
 62
     7
100
AcDbCircle
 10
76.7546113683
 20
17.8936115972
 30
0.0
 40
0.3401689265
100
AcDbArc
 50
305.5032212556
 51
72.4652898515
  0
ARC
  5
F59
330
F06
100
AcDbEntity
  8
0
  6
Continuous
 62
     7
100
AcDbCircle
 10
76.1886175602
 20
21.2953185068
 30
0.0
 40
4.756794641099999
100
AcDbArc
 50
252.5939200545
 51
280.9816604253
  0
ARC
  5
F5A
330
F06
100
AcDbEntity
  8
0
  6
Continuous
 62
     7
100
AcDbCircle
 10
76.64345292330001
 20
18.6773047703
 30
0.0
 40
2.100726595299998
100
AcDbArc
 50
282.4058358513
 51
311.8644433923
  0
ARC
  5
F5B
330
F06
100
AcDbEntity
  8
0
  6
Continuous
 62
     7
100
AcDbCircle
 10
76.3698885762
 20
20.2856464918
 30
0.0
 40
0.3029626476
100
AcDbArc
 50
154.4400348282
 51
221.8201698800999
  0
ARC
  5
F5C
330
F06
100
AcDbEntity
  8
0
  6
Continuous
 62
     7
100
AcDbCircle
 10
76.4491097276
 20
20.2064253405
 30
0.0
 40
0.4103089737
100
AcDbArc
 50
102.8287828727
 51
149.2259639027
  0
ARC
  5
F5D
330
F06
100
AcDbEntity
  8
0
  6
Continuous
 62
     7
100
AcDbCircle
 10
76.8661365632
 20
18.46409001059999
 30
0.0
 40
2.201836557
100
AcDbArc
 50
84.0400061859
 51
103.3427657871999
  0
ARC
  5
F5E
330
F06
100
AcDbEntity
  8
0
  6
Continuous
 62
     7
100
AcDbCircle
 10
76.5251727384
 20
16.0467260867
 30
0.0
 40
4.642373736499997
100
AcDbArc
 50
70.2625858546
 51
82.9524186379
  0
ARC
  5
F5F
330
F06
100
AcDbEntity
  8
0
  6
Continuous
 62
     7
100
AcDbCircle
 10
76.0111545363
 20
20.7183489764
 30
0.0
 40
3.258755990899997
100
AcDbArc
 50
247.5300206148
 51
280.7579522145
  0
ARC
  5
F60
330
F06
100
AcDbEntity
  8
0
  6
Continuous
 62
     7
100
AcDbCircle
 10
69.6261880643
 20
2.4668290159
 30
0.0
 40
17.3316084133
100
AcDbArc
 50
65.34146746500001
 51
67.39977707359999
  0
ARC
  5
F61
330
F06
100
AcDbEntity
  8
0
  6
Continuous
 62
     7
100
AcDbCircle
 10
80.4220504697
 20
28.259255379
 30
0.0
 40
10.6291642039
100
AcDbArc
 50
242.8620101252001
 51
247.1042029184999
  0
ARC
  5
F62
330
F06
100
AcDbEntity
  8
0
  6
Continuous
 62
     7
100
AcDbCircle
 10
76.56714924310001
 20
20.725323882
 30
0.0
 40
2.166291629199998
100
AcDbArc
 50
227.3119280793999
 51
242.7040315235
  0
ARC
  5
F63
330
F06
100
AcDbEntity
  8
0
  6
Continuous
 62
     7
100
AcDbCircle
 10
75.9631184335
 20
20.0196462412
 30
0.0
 40
1.238521734
100
AcDbArc
 50
194.7952194234
 51
225.7176549041999
  0
ARC
  5
F64
330
F06
100
AcDbEntity
  8
0
  6
Continuous
 62
     7
100
AcDbCircle
 10
76.58230028830002
 20
19.1715990505
 30
0.0
 40
2.366924815299999
100
AcDbArc
 50
86.22180229280001
 51
120.4272602309
  0
ARC
  5
F65
330
F06
100
AcDbEntity
  8
0
  6
Continuous
 62
     7
100
AcDbCircle
 10
76.3134435058
 20
12.4754312294
 30
0.0
 40
9.0679051661
100
AcDbArc
 50
78.68270492259998
 51
87.3147599624
  0
ARC
  5
F66
330
F06
100
AcDbEntity
  8
0
  6
Continuous
 62
     7
100
AcDbCircle
 10
76.20268366899998
 20
19.86079227619999
 30
0.0
 40
1.580546684599998
100
AcDbArc
 50
121.2140948540999
 51
141.5254768289999
  0
ARC
  5
F67
330
F06
100
AcDbEntity
  8
0
  6
Continuous
 62
     7
100
AcDbCircle
 10
76.7798580346
 20
20.6718496049
 30
0.0
 40
0.8661276051999998
100
AcDbArc
 50
222.7760387596
 51
239.0362434679
  0
ARC
  5
F68
330
F06
100
AcDbEntity
  8
0
  6
Continuous
 62
     7
100
AcDbCircle
 10
74.2731484563
 20
13.3415774063
 30
0.0
 40
6.858773576299999
100
AcDbArc
 50
59.90202725620001
 51
68.20364812820002
  0
ARC
  5
F69
330
F06
100
AcDbEntity
  8
0
  6
Continuous
 62
     7
100
AcDbCircle
 10
77.6816429501
 20
22.26746391349999
 30
0.0
 40
2.698741017099999
100
AcDbArc
 50
240.0481997804
 51
251.3779673734
  0
ARC
  5
F6A
330
F06
100
AcDbEntity
  8
0
  6
Continuous
 62
     7
100
AcDbCircle
 10
77.0161857833
 20
18.1105652982
 30
0.0
 40
1.4334474881
100
AcDbArc
 50
315.8904553225998
 51
333.5229264375
  0
ARC
  5
F6B
330
F06
100
AcDbEntity
  8
0
  6
Continuous
 62
     7
100
AcDbCircle
 10
77.020824027
 20
18.057158148
 30
0.0
 40
1.406228711899998
100
AcDbArc
 50
335.3867972703
 51
24.3915119403
  0
ARC
  5
F6C
330
F06
100
AcDbEntity
  8
0
  6
Continuous
 62
     7
100
AcDbCircle
 10
76.94861912350001
 20
17.97930145619999
 30
0.0
 40
1.504702514699999
100
AcDbArc
 50
25.9562916611
 51
59.4834829676
  0
LINE
  5
F6D
330
F06
100
AcDbEntity
  8
0
  6
Continuous
 62
     7
100
AcDbLine
 10
74.9574888499
 20
20.8337423583
 30
0.0
 11
75.2315546745
 21
21.10781543579999
 31
0.0
  0
ARC
  5
F6E
330
F06
100
AcDbEntity
  8
0
  6
Continuous
 62
     7
100
AcDbCircle
 10
76.0252765676
 20
20.05986621039999
 30
0.0
 40
1.309092072899999
100
AcDbArc
 50
164.1974860461
 51
195.8025139539
  0
ARC
  5
F6F
330
F06
100
AcDbEntity
  8
0
  6
Continuous
 62
     7
100
AcDbCircle
 10
75.8573743274
 20
20.1673739729
 30
0.0
 40
1.119747444
100
AcDbArc
 50
142.8139179029999
 51
167.1522951416999
  0
ENDBLK
  5
F70
330
F06
100
AcDbEntity
  8
0
100
AcDbBlockEnd
  0
BLOCK
  5
1BDD
330
1BD3
100
AcDbEntity
  8
0
 62
     1
100
AcDbBlockBegin
  2
*D49
 70
     1
 10
0.0
 20
0.0
 30
0.0
  3
*D49
  1

  0
LINE
  5
1DCD
330
1BD3
100
AcDbEntity
  8
11100_LEFT_DIM
  6
Continuous
 62
     0
370
    -2
100
AcDbLine
 10
684.1498317873536
 20
138.9062962698043
 30
0.0
 11
684.1498317873536
 21
126.5582157511674
 31
0.0
  0
LINE
  5
1DCE
330
1BD3
100
AcDbEntity
  8
11100_LEFT_DIM
  6
Continuous
 62
     0
370
    -2
100
AcDbLine
 10
700.1498317873536
 20
139.3196742740395
 30
0.0
 11
700.1498317873536
 21
126.5582157511674
 31
0.0
  0
LINE
  5
1DCF
330
1BD3
100
AcDbEntity
  8
11100_LEFT_DIM
  6
Continuous
 62
     0
370
    -2
100
AcDbLine
 10
686.1498317873536
 20
127.5582157511674
 30
0.0
 11
688.2331651206869
 21
127.5582157511674
 31
0.0
  0
LINE
  5
1DD0
330
1BD3
100
AcDbEntity
  8
11100_LEFT_DIM
  6
Continuous
 62
     0
370
    -2
100
AcDbLine
 10
698.1498317873536
 20
127.5582157511674
 30
0.0
 11
696.0664984540202
 21
127.5582157511674
 31
0.0
  0
SOLID
  5
1DD1
330
1BD3
100
AcDbEntity
  8
11100_LEFT_DIM
  6
Continuous
 62
     0
100
AcDbTrace
 10
686.1498317873536
 20
127.8915490845007
 30
0.0
 11
686.1498317873536
 21
127.224882417834
 31
0.0
 12
684.1498317873536
 22
127.5582157511674
 32
0.0
 13
684.1498317873536
 23
127.5582157511674
 33
0.0
  0
SOLID
  5
1DD2
330
1BD3
100
AcDbEntity
  8
11100_LEFT_DIM
  6
Continuous
 62
     0
100
AcDbTrace
 10
698.1498317873536
 20
127.8915490845007
 30
0.0
 11
698.1498317873536
 21
127.224882417834
 31
0.0
 12
700.1498317873536
 22
127.5582157511674
 32
0.0
 13
700.1498317873536
 23
127.5582157511674
 33
0.0
  0
MTEXT
  5
1DD3
330
1BD3
100
AcDbEntity
  8
11100_LEFT_DIM
  6
Continuous
 62
     0
370
    13
100
AcDbMText
 10
692.1498317873536
 20
127.5582157511674
 30
0.0
 40
3.5
 41
0.0
 71
     5
 72
     1
  1
\A1;16
 73
     1
 44
1.0
1001
ACAD
1000
MTEXTBEGIN
1070
    73
1070
     1
1070
    44
1040
1.0
1070
    74
1070
     0
1000
MTEXTEND
  0
POINT
  5
1DD4
330
1BD3
100
AcDbEntity
  8
Defpoints
  6
Continuous
 62
     0
100
AcDbPoint
 10
684.1498317873536
 20
139.9062962698042
 30
0.0
  0
POINT
  5
1DD5
330
1BD3
100
AcDbEntity
  8
Defpoints
  6
Continuous
 62
     0
100
AcDbPoint
 10
700.1498317873536
 20
140.3196742740395
 30
0.0
  0
POINT
  5
1DD6
330
1BD3
100
AcDbEntity
  8
Defpoints
  6
Continuous
 62
     0
100
AcDbPoint
 10
700.1498317873536
 20
127.5582157511674
 30
0.0
  0
ENDBLK
  5
1BDE
330
1BD3
100
AcDbEntity
  8
0
 62
     1
100
AcDbBlockEnd
  0
ENDSEC
  0
SECTION
  2
ENTITIES
  0
LINE
  5
105
330
D9F
100
AcDbEntity
  8
10000_FRONT
  6
Continuous
 62
     7
370
    50
100
AcDbLine
 10
572.2382655265887
 20
159.3623857511674
 30
0.0
 11
602.2382655265887
 21
159.3623857511674
 31
0.0
  0
LINE
  5
106
330
D9F
100
AcDbEntity
  8
10000_FRONT
  6
Continuous
 62
     7
370
    50
100
AcDbLine
 10
603.2382655265887
 20
159.3623857511674
 30
0.0
 11
602.2382655265887
 21
159.3623857511674
 31
0.0
  0
LINE
  5
107
330
D9F
100
AcDbEntity
  8
10000_FRONT
  6
Continuous
 62
     7
370
    50
100
AcDbLine
 10
603.2382655265887
 20
159.3623857511674
 30
0.0
 11
635.2382655265887
 21
159.3623857511674
 31
0.0
  0
LINE
  5
108
330
D9F
100
AcDbEntity
  8
10000_FRONT
  6
Continuous
 62
     7
370
    50
100
AcDbLine
 10
636.2382655265887
 20
159.3623857511674
 30
0.0
 11
635.2382655265887
 21
159.3623857511674
 31
0.0
  0
LINE
  5
109
330
D9F
100
AcDbEntity
  8
10000_FRONT
  6
Continuous
 62
     7
370
    50
100
AcDbLine
 10
636.2382655265887
 20
159.3623857511674
 30
0.0
 11
666.2382655265887
 21
159.3623857511674
 31
0.0
  0
LINE
  5
10B
330
D9F
100
AcDbEntity
  8
10000_FRONT
  6
Continuous
 62
     7
370
    15
100
AcDbLine
 10
636.2382655265887
 20
157.3623857511674
 30
0.0
 11
636.2382655265887
 21
156.5623857511673
 31
0.0
  0
LINE
  5
10C
330
D9F
100
AcDbEntity
  8
10000_FRONT
  6
Continuous
 62
     7
370
    15
100
AcDbLine
 10
636.2382655265887
 20
159.3623857511674
 30
0.0
 11
636.2382655265887
 21
157.3623857511674
 31
0.0
  0
LINE
  5
10D
330
D9F
100
AcDbEntity
  8
10000_FRONT
  6
Continuous
 62
     7
370
    15
100
AcDbLine
 10
635.2382655265887
 20
156.5623857511673
 30
0.0
 11
635.2382655265887
 21
157.3623857511674
 31
0.0
  0
LINE
  5
10E
330
D9F
100
AcDbEntity
  8
10000_FRONT
  6
Continuous
 62
     7
370
    15
100
AcDbLine
 10
635.2382655265887
 20
157.3623857511674
 30
0.0
 11
635.2382655265887
 21
159.3623857511674
 31
0.0
  0
LINE
  5
10F
330
D9F
100
AcDbEntity
  8
10000_FRONT
  6
Continuous
 62
     7
370
    15
100
AcDbLine
 10
603.2382655265887
 20
157.3623857511674
 30
0.0
 11
603.2382655265887
 21
156.5623857511673
 31
0.0
  0
LINE
  5
110
330
D9F
100
AcDbEntity
  8
10000_FRONT
  6
Continuous
 62
     7
370
    15
100
AcDbLine
 10
603.2382655265887
 20
159.3623857511674
 30
0.0
 11
603.2382655265887
 21
157.3623857511674
 31
0.0
  0
LINE
  5
111
330
D9F
100
AcDbEntity
  8
10000_FRONT
  6
Continuous
 62
     7
370
    15
100
AcDbLine
 10
602.2382655265887
 20
156.5623857511673
 30
0.0
 11
602.2382655265887
 21
157.3623857511674
 31
0.0
  0
LINE
  5
112
330
D9F
100
AcDbEntity
  8
10000_FRONT
  6
Continuous
 62
     7
370
    15
100
AcDbLine
 10
602.2382655265887
 20
157.3623857511674
 30
0.0
 11
602.2382655265887
 21
159.3623857511674
 31
0.0
  0
LINE
  5
114
330
D9F
100
AcDbEntity
  8
10000_FRONT
  6
Continuous
 62
     7
370
    50
100
AcDbLine
 10
570.7382655265887
 20
150.8623857511674
 30
0.0
 11
570.7382655265887
 21
157.8623857511674
 31
0.0
  0
LINE
  5
116
330
D9F
100
AcDbEntity
  8
10000_FRONT
  6
Continuous
 62
     7
370
    50
100
AcDbLine
 10
666.2382655265887
 20
149.3623857511674
 30
0.0
 11
572.2382655265887
 21
149.3623857511674
 31
0.0
  0
LINE
  5
117
330
D9F
100
AcDbEntity
  8
10000_FRONT
  6
Continuous
 62
     7
370
    15
100
AcDbLine
 10
660.4882655265887
 20
147.5672657511674
 30
0.0
 11
660.4882655265887
 21
149.3623857511674
 31
0.0
  0
ARC
  5
118
330
D9F
100
AcDbEntity
  8
10000_FRONT
  6
Continuous
 62
     7
370
    15
100
AcDbCircle
 10
661.9882655265887
 20
145.2623857511673
 30
0.0
 40
2.75
100
AcDbArc
 50
123.0557299999988
 51
259.5243200000009
  0
LINE
  5
119
330
D9F
100
AcDbEntity
  8
10000_FRONT
  6
Continuous
 62
     7
370
    15
100
AcDbLine
 10
661.4882655265887
 20
145.8623857511674
 30
0.0
 11
661.4882655265887
 21
142.5582157511674
 31
0.0
  0
LINE
  5
11B
330
D9F
100
AcDbEntity
  8
10000_FRONT
  6
Continuous
 62
     7
370
    15
100
AcDbLine
 10
662.4882655265887
 20
142.5582157511674
 30
0.0
 11
662.4882655265887
 21
145.8623857511674
 31
0.0
  0
ARC
  5
11D
330
D9F
100
AcDbEntity
  8
10000_FRONT
  6
Continuous
 62
     7
370
    15
100
AcDbCircle
 10
661.9882655265887
 20
145.2623857511673
 30
0.0
 40
2.75
100
AcDbArc
 50
280.475679999999
 51
56.94427000000113
  0
LINE
  5
11E
330
D9F
100
AcDbEntity
  8
10000_FRONT
  6
Continuous
 62
     7
370
    15
100
AcDbLine
 10
663.4882655265887
 20
149.3623857511674
 30
0.0
 11
663.4882655265887
 21
147.5672657511674
 31
0.0
  0
LINE
  5
11F
330
D9F
100
AcDbEntity
  8
10000_FRONT
  6
Continuous
 62
     7
370
    15
100
AcDbLine
 10
574.9882655265887
 20
147.5672657511674
 30
0.0
 11
574.9882655265887
 21
149.3623857511674
 31
0.0
  0
ARC
  5
120
330
D9F
100
AcDbEntity
  8
10000_FRONT
  6
Continuous
 62
     7
370
    15
100
AcDbCircle
 10
576.4882655265887
 20
145.2623857511673
 30
0.0
 40
2.75
100
AcDbArc
 50
123.0557299999988
 51
259.5243200000009
  0
LINE
  5
121
330
D9F
100
AcDbEntity
  8
10000_FRONT
  6
Continuous
 62
     7
370
    15
100
AcDbLine
 10
575.9884255265887
 20
145.8623857511674
 30
0.0
 11
575.9882655265887
 21
142.5582157511674
 31
0.0
  0
LINE
  5
123
330
D9F
100
AcDbEntity
  8
10000_FRONT
  6
Continuous
 62
     7
370
    15
100
AcDbLine
 10
576.9882655265887
 20
142.5582157511674
 30
0.0
 11
576.9882655265887
 21
145.8623857511674
 31
0.0
  0
ARC
  5
125
330
D9F
100
AcDbEntity
  8
10000_FRONT
  6
Continuous
 62
     7
370
    15
100
AcDbCircle
 10
576.4882655265887
 20
145.2623857511673
 30
0.0
 40
2.75
100
AcDbArc
 50
280.475679999999
 51
56.94427000000113
  0
LINE
  5
126
330
D9F
100
AcDbEntity
  8
10000_FRONT
  6
Continuous
 62
     7
370
    15
100
AcDbLine
 10
577.9882655265887
 20
149.3623857511674
 30
0.0
 11
577.9882655265887
 21
147.5672657511674
 31
0.0
  0
ARC
  5
127
330
D9F
100
AcDbEntity
  8
10000_FRONT
  6
Continuous
 62
     7
370
    15
100
AcDbCircle
 10
576.4882655265887
 20
145.8623857511674
 30
0.0
 40
0.5
100
AcDbArc
 50
0.0
 51
180.0
  0
ARC
  5
128
330
D9F
100
AcDbEntity
  8
10000_FRONT
  6
Continuous
 62
     7
370
    15
100
AcDbCircle
 10
661.9882655265887
 20
145.8623857511674
 30
0.0
 40
0.5
100
AcDbArc
 50
0.0
 51
180.0
  0
ARC
  5
12B
102
{ACAD_REACTORS
330
EEB
102
}
330
D9F
100
AcDbEntity
  8
10000_FRONT
  6
Continuous
 62
     7
370
    50
100
AcDbCircle
 10
572.2382655265887
 20
150.8623857511674
 30
0.0
 40
1.5
100
AcDbArc
 50
180.0
 51
262.2676100000015
  0
ARC
  5
12C
102
{ACAD_REACTORS
330
EEB
102
}
330
D9F
100
AcDbEntity
  8
10000_FRONT
  6
Continuous
 62
     7
370
    50
100
AcDbCircle
 10
666.2382655265887
 20
150.8623857511674
 30
0.0
 40
1.5
100
AcDbArc
 50
270.0
 51
0.0
  0
ARC
  5
12D
330
D9F
100
AcDbEntity
  8
10000_FRONT
  6
Continuous
 62
     7
370
    50
100
AcDbCircle
 10
572.2382655265887
 20
157.8623857511674
 30
0.0
 40
1.5
100
AcDbArc
 50
90.0
 51
180.0
  0
ARC
  5
12F
330
D9F
100
AcDbEntity
  8
10000_FRONT
  6
Continuous
 62
     7
370
    50
100
AcDbCircle
 10
666.2382655265887
 20
157.8623857511674
 30
0.0
 40
1.5
100
AcDbArc
 50
0.0
 51
90.0
  0
LINE
  5
131
102
{ACAD_REACTORS
330
EEB
102
}
330
D9F
100
AcDbEntity
  8
10000_FRONT
  6
Continuous
 62
     7
370
    50
100
AcDbLine
 10
667.7382655265887
 20
157.8623857511674
 30
0.0
 11
667.7382655265887
 21
150.8623857511674
 31
0.0
  0
LINE
  5
133
330
D9F
100
AcDbEntity
  8
10000_FRONT
  6
Continuous
 62
     7
370
    15
100
AcDbLine
 10
667.7382655265887
 20
156.5623857511674
 30
0.0
 11
636.2382655265887
 21
156.5623857511673
 31
0.0
  0
LINE
  5
134
330
D9F
100
AcDbEntity
  8
10000_FRONT
  6
Continuous
 62
     7
370
    15
100
AcDbLine
 10
635.2382655265887
 20
156.5623857511673
 30
0.0
 11
603.2382655265887
 21
156.5623857511673
 31
0.0
  0
LINE
  5
135
330
D9F
100
AcDbEntity
  8
10000_FRONT
  6
Continuous
 62
     7
370
    15
100
AcDbLine
 10
602.2382655265887
 20
156.5623857511673
 30
0.0
 11
570.7382655265887
 21
156.5623857511674
 31
0.0
  0
POLYLINE
  5
32C
330
D9F
100
AcDbEntity
  8
10000_FRONT
  6
Continuous
 62
     7
370
    50
100
AcDb2dPolyline
 66
     1
 10
0.0
 20
0.0
 30
0.0
 70
     2
  0
VERTEX
  5
32D
330
32C
100
AcDbEntity
  8
10000_FRONT
  6
Continuous
 62
     7
370
    50
100
AcDbVertex
100
AcDb2dVertex
 10
572.2210255265887
 20
149.3606957511674
 30
0.0
  0
VERTEX
  5
32E
330
32C
100
AcDbEntity
  8
10000_FRONT
  6
Continuous
 62
     7
370
    50
100
AcDbVertex
100
AcDb2dVertex
 10
572.2214955265887
 20
149.3607057511673
 30
0.0
 42
0.0008028249
 70
     1
  0
VERTEX
  5
32F
330
32C
100
AcDbEntity
  8
10000_FRONT
  6
Continuous
 62
     7
370
    50
100
AcDbVertex
100
AcDb2dVertex
 10
572.2219655265887
 20
149.3607257511673
 30
0.0
 42
0.0008099079
  0
VERTEX
  5
330
330
32C
100
AcDbEntity
  8
10000_FRONT
  6
Continuous
 62
     7
370
    50
100
AcDbVertex
100
AcDb2dVertex
 10
572.2224355265886
 20
149.3607357511674
 30
0.0
 42
0.0008170711
 70
     1
  0
VERTEX
  5
331
330
32C
100
AcDbEntity
  8
10000_FRONT
  6
Continuous
 62
     7
370
    50
100
AcDbVertex
100
AcDb2dVertex
 10
572.2229055265887
 20
149.3607557511674
 30
0.0
 42
0.000823717
  0
VERTEX
  5
332
330
32C
100
AcDbEntity
  8
10000_FRONT
  6
Continuous
 62
     7
370
    50
100
AcDbVertex
100
AcDb2dVertex
 10
572.2233655265887
 20
149.3607757511673
 30
0.0
 42
0.0008308726
 70
     1
  0
VERTEX
  5
333
330
32C
100
AcDbEntity
  8
10000_FRONT
  6
Continuous
 62
     7
370
    50
100
AcDbVertex
100
AcDb2dVertex
 10
572.2238255265887
 20
149.3607957511673
 30
0.0
 42
0.0008378532
  0
VERTEX
  5
334
330
32C
100
AcDbEntity
  8
10000_FRONT
  6
Continuous
 62
     7
370
    50
100
AcDbVertex
100
AcDb2dVertex
 10
572.2242855265887
 20
149.3608257511674
 30
0.0
 42
0.0008452489
 70
     1
  0
VERTEX
  5
335
330
32C
100
AcDbEntity
  8
10000_FRONT
  6
Continuous
 62
     7
370
    50
100
AcDbVertex
100
AcDb2dVertex
 10
572.2247455265887
 20
149.3608457511674
 30
0.0
 42
0.0008523812
  0
VERTEX
  5
336
330
32C
100
AcDbEntity
  8
10000_FRONT
  6
Continuous
 62
     7
370
    50
100
AcDbVertex
100
AcDb2dVertex
 10
572.2252055265887
 20
149.3608757511674
 30
0.0
 42
0.000859963
 70
     1
  0
VERTEX
  5
337
330
32C
100
AcDbEntity
  8
10000_FRONT
  6
Continuous
 62
     7
370
    50
100
AcDbVertex
100
AcDb2dVertex
 10
572.2256555265887
 20
149.3608957511674
 30
0.0
 42
0.0008672986
  0
VERTEX
  5
338
330
32C
100
AcDbEntity
  8
10000_FRONT
  6
Continuous
 62
     7
370
    50
100
AcDbVertex
100
AcDb2dVertex
 10
572.2261055265887
 20
149.3609257511673
 30
0.0
 42
0.0008750872
 70
     1
  0
VERTEX
  5
339
330
32C
100
AcDbEntity
  8
10000_FRONT
  6
Continuous
 62
     7
370
    50
100
AcDbVertex
100
AcDb2dVertex
 10
572.2265555265887
 20
149.3609557511673
 30
0.0
 42
0.0008826212
  0
VERTEX
  5
33A
330
32C
100
AcDbEntity
  8
10000_FRONT
  6
Continuous
 62
     7
370
    50
100
AcDbVertex
100
AcDb2dVertex
 10
572.2270055265887
 20
149.3609857511674
 30
0.0
 42
0.0008906174
 70
     1
  0
VERTEX
  5
33B
330
32C
100
AcDbEntity
  8
10000_FRONT
  6
Continuous
 62
     7
370
    50
100
AcDbVertex
100
AcDb2dVertex
 10
572.2274455265887
 20
149.3610257511674
 30
0.0
 42
0.000898354
  0
VERTEX
  5
33C
330
32C
100
AcDbEntity
  8
10000_FRONT
  6
Continuous
 62
     7
370
    50
100
AcDbVertex
100
AcDb2dVertex
 10
572.2278955265887
 20
149.3610557511674
 30
0.0
 42
0.0009065707
 70
     1
  0
VERTEX
  5
33D
330
32C
100
AcDbEntity
  8
10000_FRONT
  6
Continuous
 62
     7
370
    50
100
AcDbVertex
100
AcDb2dVertex
 10
572.2283355265887
 20
149.3610957511674
 30
0.0
 42
0.0009145318
  0
VERTEX
  5
33E
330
32C
100
AcDbEntity
  8
10000_FRONT
  6
Continuous
 62
     7
370
    50
100
AcDbVertex
100
AcDb2dVertex
 10
572.2287755265887
 20
149.3611357511673
 30
0.0
 42
0.000922952
 70
     1
  0
VERTEX
  5
33F
330
32C
100
AcDbEntity
  8
10000_FRONT
  6
Continuous
 62
     7
370
    50
100
AcDbVertex
100
AcDb2dVertex
 10
572.2292055265888
 20
149.3611657511674
 30
0.0
 42
0.000931082
  0
VERTEX
  5
340
330
32C
100
AcDbEntity
  8
10000_FRONT
  6
Continuous
 62
     7
370
    50
100
AcDbVertex
100
AcDb2dVertex
 10
572.2296455265887
 20
149.3612057511674
 30
0.0
 42
0.0009397959
 70
     1
  0
VERTEX
  5
341
330
32C
100
AcDbEntity
  8
10000_FRONT
  6
Continuous
 62
     7
370
    50
100
AcDbVertex
100
AcDb2dVertex
 10
572.2300755265887
 20
149.3612557511674
 30
0.0
 42
0.0009483257
  0
VERTEX
  5
342
330
32C
100
AcDbEntity
  8
10000_FRONT
  6
Continuous
 62
     7
370
    50
100
AcDbVertex
100
AcDb2dVertex
 10
572.2305055265888
 20
149.3612957511674
 30
0.0
 42
0.000957033
 70
     1
  0
VERTEX
  5
343
330
32C
100
AcDbEntity
  8
10000_FRONT
  6
Continuous
 62
     7
370
    50
100
AcDbVertex
100
AcDb2dVertex
 10
572.2309355265887
 20
149.3613357511673
 30
0.0
 42
0.0009651568
  0
VERTEX
  5
344
330
32C
100
AcDbEntity
  8
10000_FRONT
  6
Continuous
 62
     7
370
    50
100
AcDbVertex
100
AcDb2dVertex
 10
572.2313555265887
 20
149.3613857511674
 30
0.0
 42
0.0009749764
 70
     1
  0
VERTEX
  5
345
330
32C
100
AcDbEntity
  8
10000_FRONT
  6
Continuous
 62
     7
370
    50
100
AcDbVertex
100
AcDb2dVertex
 10
572.2317855265887
 20
149.3614357511674
 30
0.0
 42
0.0009855963
  0
VERTEX
  5
346
330
32C
100
AcDbEntity
  8
10000_FRONT
  6
Continuous
 62
     7
370
    50
100
AcDbVertex
100
AcDb2dVertex
 10
572.2322055265887
 20
149.3614857511674
 30
0.0
 42
0.0009925391
 70
     1
  0
VERTEX
  5
347
330
32C
100
AcDbEntity
  8
10000_FRONT
  6
Continuous
 62
     7
370
    50
100
AcDbVertex
100
AcDb2dVertex
 10
572.2326255265888
 20
149.3615357511673
 30
0.0
 42
0.0009954971
  0
VERTEX
  5
348
330
32C
100
AcDbEntity
  8
10000_FRONT
  6
Continuous
 62
     7
370
    50
100
AcDbVertex
100
AcDb2dVertex
 10
572.2330355265888
 20
149.3615857511673
 30
0.0
 42
0.0010137229
 70
     1
  0
VERTEX
  5
349
330
32C
100
AcDbEntity
  8
10000_FRONT
  6
Continuous
 62
     7
370
    50
100
AcDbVertex
100
AcDb2dVertex
 10
572.2334555265887
 20
149.3616357511674
 30
0.0
 42
0.0010439143
  0
VERTEX
  5
34A
330
32C
100
AcDbEntity
  8
10000_FRONT
  6
Continuous
 62
     7
370
    50
100
AcDbVertex
100
AcDb2dVertex
 10
572.2338655265887
 20
149.3616957511673
 30
0.0
 42
0.0010242734
 70
     1
  0
VERTEX
  5
34B
330
32C
100
AcDbEntity
  8
10000_FRONT
  6
Continuous
 62
     7
370
    50
100
AcDbVertex
100
AcDb2dVertex
 10
572.2342755265887
 20
149.3617457511674
 30
0.0
 42
0.0009650098
  0
VERTEX
  5
34C
330
32C
100
AcDbEntity
  8
10000_FRONT
  6
Continuous
 62
     7
370
    50
100
AcDbVertex
100
AcDb2dVertex
 10
572.2346855265887
 20
149.3618057511674
 30
0.0
 42
0.0010748591
 70
     1
  0
VERTEX
  5
34D
330
32C
100
AcDbEntity
  8
10000_FRONT
  6
Continuous
 62
     7
370
    50
100
AcDbVertex
100
AcDb2dVertex
 10
572.2350955265888
 20
149.3618657511674
 30
0.0
 42
0.001294672
  0
VERTEX
  5
34E
330
32C
100
AcDbEntity
  8
10000_FRONT
  6
Continuous
 62
     7
370
    50
100
AcDbVertex
100
AcDb2dVertex
 10
572.2355055265886
 20
149.3619257511674
 30
0.0
 42
0.0009939667
 70
     1
  0
VERTEX
  5
34F
330
32C
100
AcDbEntity
  8
10000_FRONT
  6
Continuous
 62
     7
370
    50
100
AcDbVertex
100
AcDb2dVertex
 10
572.2358955265887
 20
149.3619857511673
 30
0.0
 42
0.0003436023
  0
VERTEX
  5
350
330
32C
100
AcDbEntity
  8
10000_FRONT
  6
Continuous
 62
     7
370
    50
100
AcDbVertex
100
AcDb2dVertex
 10
572.2362455265887
 20
149.3620457511674
 30
0.0
 42
0.0014173662
 70
     1
  0
VERTEX
  5
351
330
32C
100
AcDbEntity
  8
10000_FRONT
  6
Continuous
 62
     7
370
    50
100
AcDbVertex
100
AcDb2dVertex
 10
572.2366955265887
 20
149.3621157511674
 30
0.0
 42
0.002485425
  0
VERTEX
  5
352
330
32C
100
AcDbEntity
  8
10000_FRONT
  6
Continuous
 62
     7
370
    50
100
AcDbVertex
100
AcDb2dVertex
 10
572.2373755265887
 20
149.3622357511673
 30
0.0
 42
0.0012360186
 70
     1
  0
VERTEX
  5
353
330
32C
100
AcDbEntity
  8
10000_FRONT
  6
Continuous
 62
     7
370
    50
100
AcDbVertex
100
AcDb2dVertex
 10
572.2382555265888
 20
149.3623957511673
 30
0.0
 42
0.0006601664
  0
SEQEND
  5
354
330
32C
100
AcDbEntity
  8
10000_FRONT
  6
Continuous
 62
     7
370
    50
  0
POLYLINE
  5
355
330
D9F
100
AcDbEntity
  8
10000_FRONT
  6
Continuous
 62
     7
370
    50
100
AcDb2dPolyline
 66
     1
 10
0.0
 20
0.0
 30
0.0
 70
     2
  0
VERTEX
  5
356
330
355
100
AcDbEntity
  8
10000_FRONT
  6
Continuous
 62
     7
370
    50
100
AcDbVertex
100
AcDb2dVertex
 10
572.0022155265887
 20
149.3963757511674
 30
0.0
  0
VERTEX
  5
357
330
355
100
AcDbEntity
  8
10000_FRONT
  6
Continuous
 62
     7
370
    50
100
AcDbVertex
100
AcDb2dVertex
 10
572.0006355265886
 20
149.3968057511674
 30
0.0
 42
-0.0003906531
 70
     1
  0
VERTEX
  5
358
330
355
100
AcDbEntity
  8
10000_FRONT
  6
Continuous
 62
     7
370
    50
100
AcDbVertex
100
AcDb2dVertex
 10
571.9990555265887
 20
149.3972357511674
 30
0.0
 42
-0.0003937949
  0
VERTEX
  5
359
330
355
100
AcDbEntity
  8
10000_FRONT
  6
Continuous
 62
     7
370
    50
100
AcDbVertex
100
AcDb2dVertex
 10
571.9974855265888
 20
149.3976657511673
 30
0.0
 42
-0.000393517
 70
     1
  0
VERTEX
  5
35A
330
355
100
AcDbEntity
  8
10000_FRONT
  6
Continuous
 62
     7
370
    50
100
AcDbVertex
100
AcDb2dVertex
 10
571.9959155265887
 20
149.3981057511674
 30
0.0
 42
-0.000389214
  0
VERTEX
  5
35B
330
355
100
AcDbEntity
  8
10000_FRONT
  6
Continuous
 62
     7
370
    50
100
AcDbVertex
100
AcDb2dVertex
 10
571.9943455265887
 20
149.3985357511674
 30
0.0
 42
-0.0003766537
 70
     1
  0
VERTEX
  5
35C
330
355
100
AcDbEntity
  8
10000_FRONT
  6
Continuous
 62
     7
370
    50
100
AcDbVertex
100
AcDb2dVertex
 10
571.9927855265886
 20
149.3989757511674
 30
0.0
 42
-0.0003521769
  0
VERTEX
  5
35D
330
355
100
AcDbEntity
  8
10000_FRONT
  6
Continuous
 62
     7
370
    50
100
AcDbVertex
100
AcDb2dVertex
 10
571.9912255265888
 20
149.3994157511674
 30
0.0
 42
-0.0003713261
 70
     1
  0
VERTEX
  5
35E
330
355
100
AcDbEntity
  8
10000_FRONT
  6
Continuous
 62
     7
370
    50
100
AcDbVertex
100
AcDb2dVertex
 10
571.9896655265887
 20
149.3998557511673
 30
0.0
 42
-0.000438497
  0
VERTEX
  5
35F
330
355
100
AcDbEntity
  8
10000_FRONT
  6
Continuous
 62
     7
370
    50
100
AcDbVertex
100
AcDb2dVertex
 10
571.9881155265887
 20
149.4002957511674
 30
0.0
 42
-0.0003065347
 70
     1
  0
VERTEX
  5
360
330
355
100
AcDbEntity
  8
10000_FRONT
  6
Continuous
 62
     7
370
    50
100
AcDbVertex
100
AcDb2dVertex
 10
571.9865655265887
 20
149.4007457511674
 30
0.0
 42
0.000059508
  0
VERTEX
  5
361
330
355
100
AcDbEntity
  8
10000_FRONT
  6
Continuous
 62
     7
370
    50
100
AcDbVertex
100
AcDb2dVertex
 10
571.9850255265887
 20
149.4011857511673
 30
0.0
 42
0.0002594163
 70
     1
  0
VERTEX
  5
362
330
355
100
AcDbEntity
  8
10000_FRONT
  6
Continuous
 62
     7
370
    50
100
AcDbVertex
100
AcDb2dVertex
 10
571.9834855265887
 20
149.4016157511673
 30
0.0
 42
0.0003419924
  0
VERTEX
  5
363
330
355
100
AcDbEntity
  8
10000_FRONT
  6
Continuous
 62
     7
370
    50
100
AcDbVertex
100
AcDb2dVertex
 10
571.9819655265887
 20
149.4020457511674
 30
0.0
 42
0.0003800252
 70
     1
  0
VERTEX
  5
364
330
355
100
AcDbEntity
  8
10000_FRONT
  6
Continuous
 62
     7
370
    50
100
AcDbVertex
100
AcDb2dVertex
 10
571.9804455265887
 20
149.4024757511674
 30
0.0
 42
0.0003806791
  0
VERTEX
  5
365
330
355
100
AcDbEntity
  8
10000_FRONT
  6
Continuous
 62
     7
370
    50
100
AcDbVertex
100
AcDb2dVertex
 10
571.9789255265887
 20
149.4028957511673
 30
0.0
 42
0.0003913748
 70
     1
  0
VERTEX
  5
366
330
355
100
AcDbEntity
  8
10000_FRONT
  6
Continuous
 62
     7
370
    50
100
AcDbVertex
100
AcDb2dVertex
 10
571.9774255265887
 20
149.4033057511673
 30
0.0
 42
0.0004137794
  0
VERTEX
  5
367
330
355
100
AcDbEntity
  8
10000_FRONT
  6
Continuous
 62
     7
370
    50
100
AcDbVertex
100
AcDb2dVertex
 10
571.9759255265887
 20
149.4037157511674
 30
0.0
 42
0.0004322122
 70
     1
  0
VERTEX
  5
368
330
355
100
AcDbEntity
  8
10000_FRONT
  6
Continuous
 62
     7
370
    50
100
AcDbVertex
100
AcDb2dVertex
 10
571.9744355265887
 20
149.4041257511674
 30
0.0
 42
0.0004497489
  0
VERTEX
  5
369
330
355
100
AcDbEntity
  8
10000_FRONT
  6
Continuous
 62
     7
370
    50
100
AcDbVertex
100
AcDb2dVertex
 10
571.9729555265887
 20
149.4045257511674
 30
0.0
 42
0.0004669219
 70
     1
  0
VERTEX
  5
36A
330
355
100
AcDbEntity
  8
10000_FRONT
  6
Continuous
 62
     7
370
    50
100
AcDbVertex
100
AcDb2dVertex
 10
571.9714755265887
 20
149.4049257511673
 30
0.0
 42
0.0004864578
  0
VERTEX
  5
36B
330
355
100
AcDbEntity
  8
10000_FRONT
  6
Continuous
 62
     7
370
    50
100
AcDbVertex
100
AcDb2dVertex
 10
571.9700055265887
 20
149.4053157511674
 30
0.0
 42
0.0005047091
 70
     1
  0
VERTEX
  5
36C
330
355
100
AcDbEntity
  8
10000_FRONT
  6
Continuous
 62
     7
370
    50
100
AcDbVertex
100
AcDb2dVertex
 10
571.9685455265887
 20
149.4057057511674
 30
0.0
 42
0.000524501
  0
VERTEX
  5
36D
330
355
100
AcDbEntity
  8
10000_FRONT
  6
Continuous
 62
     7
370
    50
100
AcDbVertex
100
AcDb2dVertex
 10
571.9670955265887
 20
149.4060857511674
 30
0.0
 42
0.0005432529
 70
     1
  0
VERTEX
  5
36E
330
355
100
AcDbEntity
  8
10000_FRONT
  6
Continuous
 62
     7
370
    50
100
AcDbVertex
100
AcDb2dVertex
 10
571.9656455265887
 20
149.4064657511674
 30
0.0
 42
0.0005637727
  0
VERTEX
  5
36F
330
355
100
AcDbEntity
  8
10000_FRONT
  6
Continuous
 62
     7
370
    50
100
AcDbVertex
100
AcDb2dVertex
 10
571.9642055265888
 20
149.4068357511673
 30
0.0
 42
0.0005831974
 70
     1
  0
VERTEX
  5
370
330
355
100
AcDbEntity
  8
10000_FRONT
  6
Continuous
 62
     7
370
    50
100
AcDbVertex
100
AcDb2dVertex
 10
571.9627755265888
 20
149.4071957511673
 30
0.0
 42
0.0006043469
  0
VERTEX
  5
371
330
355
100
AcDbEntity
  8
10000_FRONT
  6
Continuous
 62
     7
370
    50
100
AcDbVertex
100
AcDb2dVertex
 10
571.9613455265887
 20
149.4075557511673
 30
0.0
 42
0.0006244239
 70
     1
  0
VERTEX
  5
372
330
355
100
AcDbEntity
  8
10000_FRONT
  6
Continuous
 62
     7
370
    50
100
AcDbVertex
100
AcDb2dVertex
 10
571.9599255265887
 20
149.4079157511673
 30
0.0
 42
0.0006462512
  0
VERTEX
  5
373
330
355
100
AcDbEntity
  8
10000_FRONT
  6
Continuous
 62
     7
370
    50
100
AcDbVertex
100
AcDb2dVertex
 10
571.9585155265887
 20
149.4082557511673
 30
0.0
 42
0.000667009
 70
     1
  0
VERTEX
  5
374
330
355
100
AcDbEntity
  8
10000_FRONT
  6
Continuous
 62
     7
370
    50
100
AcDbVertex
100
AcDb2dVertex
 10
571.9571055265887
 20
149.4086057511674
 30
0.0
 42
0.0006895242
  0
VERTEX
  5
375
330
355
100
AcDbEntity
  8
10000_FRONT
  6
Continuous
 62
     7
370
    50
100
AcDbVertex
100
AcDb2dVertex
 10
571.9557055265887
 20
149.4089357511674
 30
0.0
 42
0.0007109787
 70
     1
  0
VERTEX
  5
376
330
355
100
AcDbEntity
  8
10000_FRONT
  6
Continuous
 62
     7
370
    50
100
AcDbVertex
100
AcDb2dVertex
 10
571.9543155265887
 20
149.4092757511674
 30
0.0
 42
0.0007342021
  0
VERTEX
  5
377
330
355
100
AcDbEntity
  8
10000_FRONT
  6
Continuous
 62
     7
370
    50
100
AcDbVertex
100
AcDb2dVertex
 10
571.9529355265887
 20
149.4095957511674
 30
0.0
 42
0.0007563696
 70
     1
  0
VERTEX
  5
378
330
355
100
AcDbEntity
  8
10000_FRONT
  6
Continuous
 62
     7
370
    50
100
AcDbVertex
100
AcDb2dVertex
 10
571.9515555265887
 20
149.4099157511674
 30
0.0
 42
0.0007803124
  0
VERTEX
  5
379
330
355
100
AcDbEntity
  8
10000_FRONT
  6
Continuous
 62
     7
370
    50
100
AcDbVertex
100
AcDb2dVertex
 10
571.9501855265887
 20
149.4102257511674
 30
0.0
 42
0.0008032158
 70
     1
  0
VERTEX
  5
37A
330
355
100
AcDbEntity
  8
10000_FRONT
  6
Continuous
 62
     7
370
    50
100
AcDbVertex
100
AcDb2dVertex
 10
571.9488155265887
 20
149.4105357511674
 30
0.0
 42
0.0008279122
  0
VERTEX
  5
37B
330
355
100
AcDbEntity
  8
10000_FRONT
  6
Continuous
 62
     7
370
    50
100
AcDbVertex
100
AcDb2dVertex
 10
571.9474555265888
 20
149.4108357511674
 30
0.0
 42
0.000851542
 70
     1
  0
VERTEX
  5
37C
330
355
100
AcDbEntity
  8
10000_FRONT
  6
Continuous
 62
     7
370
    50
100
AcDbVertex
100
AcDb2dVertex
 10
571.9461055265887
 20
149.4111257511674
 30
0.0
 42
0.0008769372
  0
VERTEX
  5
37D
330
355
100
AcDbEntity
  8
10000_FRONT
  6
Continuous
 62
     7
370
    50
100
AcDbVertex
100
AcDb2dVertex
 10
571.9447555265888
 20
149.4114157511674
 30
0.0
 42
0.0009014002
 70
     1
  0
VERTEX
  5
37E
330
355
100
AcDbEntity
  8
10000_FRONT
  6
Continuous
 62
     7
370
    50
100
AcDbVertex
100
AcDb2dVertex
 10
571.9434155265887
 20
149.4116957511673
 30
0.0
 42
0.0009277626
  0
VERTEX
  5
37F
330
355
100
AcDbEntity
  8
10000_FRONT
  6
Continuous
 62
     7
370
    50
100
AcDbVertex
100
AcDb2dVertex
 10
571.9420855265886
 20
149.4119757511674
 30
0.0
 42
0.0009527251
 70
     1
  0
VERTEX
  5
380
330
355
100
AcDbEntity
  8
10000_FRONT
  6
Continuous
 62
     7
370
    50
100
AcDbVertex
100
AcDb2dVertex
 10
571.9407655265887
 20
149.4122357511673
 30
0.0
 42
0.0009791259
  0
VERTEX
  5
381
330
355
100
AcDbEntity
  8
10000_FRONT
  6
Continuous
 62
     7
370
    50
100
AcDbVertex
100
AcDb2dVertex
 10
571.9394455265887
 20
149.4124957511674
 30
0.0
 42
0.0010058747
 70
     1
  0
VERTEX
  5
382
330
355
100
AcDbEntity
  8
10000_FRONT
  6
Continuous
 62
     7
370
    50
100
AcDbVertex
100
AcDb2dVertex
 10
571.9381255265886
 20
149.4127557511673
 30
0.0
 42
0.0010357263
  0
VERTEX
  5
383
330
355
100
AcDbEntity
  8
10000_FRONT
  6
Continuous
 62
     7
370
    50
100
AcDbVertex
100
AcDb2dVertex
 10
571.9368155265887
 20
149.4130057511673
 30
0.0
 42
0.0010596084
 70
     1
  0
VERTEX
  5
384
330
355
100
AcDbEntity
  8
10000_FRONT
  6
Continuous
 62
     7
370
    50
100
AcDbVertex
100
AcDb2dVertex
 10
571.9355155265886
 20
149.4132457511674
 30
0.0
 42
0.0010807778
  0
VERTEX
  5
385
330
355
100
AcDbEntity
  8
10000_FRONT
  6
Continuous
 62
     7
370
    50
100
AcDbVertex
100
AcDb2dVertex
 10
571.9342255265887
 20
149.4134757511673
 30
0.0
 42
0.0011185681
 70
     1
  0
VERTEX
  5
386
330
355
100
AcDbEntity
  8
10000_FRONT
  6
Continuous
 62
     7
370
    50
100
AcDbVertex
100
AcDb2dVertex
 10
571.9329355265887
 20
149.4136957511674
 30
0.0
 42
0.0011733742
  0
VERTEX
  5
387
330
355
100
AcDbEntity
  8
10000_FRONT
  6
Continuous
 62
     7
370
    50
100
AcDbVertex
100
AcDb2dVertex
 10
571.9316455265887
 20
149.4139157511674
 30
0.0
 42
0.0011659063
 70
     1
  0
VERTEX
  5
388
330
355
100
AcDbEntity
  8
10000_FRONT
  6
Continuous
 62
     7
370
    50
100
AcDbVertex
100
AcDb2dVertex
 10
571.9303755265887
 20
149.4141357511674
 30
0.0
 42
0.0011106347
  0
VERTEX
  5
389
330
355
100
AcDbEntity
  8
10000_FRONT
  6
Continuous
 62
     7
370
    50
100
AcDbVertex
100
AcDb2dVertex
 10
571.9291155265887
 20
149.4143357511673
 30
0.0
 42
0.0012624734
 70
     1
  0
VERTEX
  5
38A
330
355
100
AcDbEntity
  8
10000_FRONT
  6
Continuous
 62
     7
370
    50
100
AcDbVertex
100
AcDb2dVertex
 10
571.9278355265887
 20
149.4145357511673
 30
0.0
 42
0.0015578246
  0
VERTEX
  5
38B
330
355
100
AcDbEntity
  8
10000_FRONT
  6
Continuous
 62
     7
370
    50
100
AcDbVertex
100
AcDb2dVertex
 10
571.9265455265887
 20
149.4147257511674
 30
0.0
 42
0.0011987301
 70
     1
  0
VERTEX
  5
38C
330
355
100
AcDbEntity
  8
10000_FRONT
  6
Continuous
 62
     7
370
    50
100
AcDbVertex
100
AcDb2dVertex
 10
571.9253255265887
 20
149.4149057511674
 30
0.0
 42
0.0003864119
  0
VERTEX
  5
38D
330
355
100
AcDbEntity
  8
10000_FRONT
  6
Continuous
 62
     7
370
    50
100
AcDbVertex
100
AcDb2dVertex
 10
571.9242355265887
 20
149.4150557511673
 30
0.0
 42
0.001766178
 70
     1
  0
VERTEX
  5
38E
330
355
100
AcDbEntity
  8
10000_FRONT
  6
Continuous
 62
     7
370
    50
100
AcDbVertex
100
AcDb2dVertex
 10
571.9228455265887
 20
149.4152457511674
 30
0.0
 42
0.0031782541
  0
VERTEX
  5
38F
330
355
100
AcDbEntity
  8
10000_FRONT
  6
Continuous
 62
     7
370
    50
100
AcDbVertex
100
AcDb2dVertex
 10
571.9207155265888
 20
149.4154957511674
 30
0.0
 42
0.0015878832
 70
     1
  0
VERTEX
  5
390
330
355
100
AcDbEntity
  8
10000_FRONT
  6
Continuous
 62
     7
370
    50
100
AcDbVertex
100
AcDb2dVertex
 10
571.9179355265887
 20
149.4158257511674
 30
0.0
 42
0.0008447622
  0
SEQEND
  5
391
330
355
100
AcDbEntity
  8
10000_FRONT
  6
Continuous
 62
     7
370
    50
  0
POLYLINE
  5
392
330
D9F
100
AcDbEntity
  8
10000_FRONT
  6
Continuous
 62
     7
370
    50
100
AcDb2dPolyline
 66
     1
 10
0.0
 20
0.0
 30
0.0
 70
     2
  0
VERTEX
  5
393
330
392
100
AcDbEntity
  8
10000_FRONT
  6
Continuous
 62
     7
370
    50
100
AcDbVertex
100
AcDb2dVertex
 10
571.9846355265887
 20
149.4012857511674
 30
0.0
  0
VERTEX
  5
394
330
392
100
AcDbEntity
  8
10000_FRONT
  6
Continuous
 62
     7
370
    50
100
AcDbVertex
100
AcDb2dVertex
 10
571.9850655265887
 20
149.4011657511673
 30
0.0
 42
0.0031582246
 70
     1
  0
VERTEX
  5
395
330
392
100
AcDbEntity
  8
10000_FRONT
  6
Continuous
 62
     7
370
    50
100
AcDbVertex
100
AcDb2dVertex
 10
571.9862255265886
 20
149.4008257511673
 30
0.0
 42
0.0000309677
  0
VERTEX
  5
396
330
392
100
AcDbEntity
  8
10000_FRONT
  6
Continuous
 62
     7
370
    50
100
AcDbVertex
100
AcDb2dVertex
 10
571.9881455265887
 20
149.4002757511674
 30
0.0
 42
0.0002715276
 70
     1
  0
VERTEX
  5
397
330
392
100
AcDbEntity
  8
10000_FRONT
  6
Continuous
 62
     7
370
    50
100
AcDbVertex
100
AcDb2dVertex
 10
571.9907755265888
 20
149.3995257511674
 30
0.0
 42
0.0007300864
  0
VERTEX
  5
398
330
392
100
AcDbEntity
  8
10000_FRONT
  6
Continuous
 62
     7
370
    50
100
AcDbVertex
100
AcDb2dVertex
 10
571.9940755265887
 20
149.3985957511673
 30
0.0
 42
0.0008186722
 70
     1
  0
VERTEX
  5
399
330
392
100
AcDbEntity
  8
10000_FRONT
  6
Continuous
 62
     7
370
    50
100
AcDbVertex
100
AcDb2dVertex
 10
571.9979955265887
 20
149.3974957511673
 30
0.0
 42
0.0008699677
  0
VERTEX
  5
39A
330
392
100
AcDbEntity
  8
10000_FRONT
  6
Continuous
 62
     7
370
    50
100
AcDbVertex
100
AcDb2dVertex
 10
572.0025355265887
 20
149.3962557511673
 30
0.0
 42
0.0008969376
 70
     1
  0
VERTEX
  5
39B
330
392
100
AcDbEntity
  8
10000_FRONT
  6
Continuous
 62
     7
370
    50
100
AcDbVertex
100
AcDb2dVertex
 10
572.0076255265887
 20
149.3948757511674
 30
0.0
 42
0.0009847261
  0
VERTEX
  5
39C
330
392
100
AcDbEntity
  8
10000_FRONT
  6
Continuous
 62
     7
370
    50
100
AcDbVertex
100
AcDb2dVertex
 10
572.0132555265887
 20
149.3933757511673
 30
0.0
 42
0.0010281858
 70
     1
  0
VERTEX
  5
39D
330
392
100
AcDbEntity
  8
10000_FRONT
  6
Continuous
 62
     7
370
    50
100
AcDbVertex
100
AcDb2dVertex
 10
572.0193755265888
 20
149.3917757511673
 30
0.0
 42
0.001109164
  0
VERTEX
  5
39E
330
392
100
AcDbEntity
  8
10000_FRONT
  6
Continuous
 62
     7
370
    50
100
AcDbVertex
100
AcDb2dVertex
 10
572.0259555265887
 20
149.3900857511673
 30
0.0
 42
0.001160294
 70
     1
  0
VERTEX
  5
39F
330
392
100
AcDbEntity
  8
10000_FRONT
  6
Continuous
 62
     7
370
    50
100
AcDbVertex
100
AcDb2dVertex
 10
572.0329555265887
 20
149.3883157511674
 30
0.0
 42
0.0012508882
  0
VERTEX
  5
3A0
330
392
100
AcDbEntity
  8
10000_FRONT
  6
Continuous
 62
     7
370
    50
100
AcDbVertex
100
AcDb2dVertex
 10
572.0403455265887
 20
149.3864957511673
 30
0.0
 42
0.001316477
 70
     1
  0
VERTEX
  5
3A1
330
392
100
AcDbEntity
  8
10000_FRONT
  6
Continuous
 62
     7
370
    50
100
AcDbVertex
100
AcDb2dVertex
 10
572.0480955265887
 20
149.3846357511673
 30
0.0
 42
0.0014209391
  0
VERTEX
  5
3A2
330
392
100
AcDbEntity
  8
10000_FRONT
  6
Continuous
 62
     7
370
    50
100
AcDbVertex
100
AcDb2dVertex
 10
572.0561555265887
 20
149.3827457511673
 30
0.0
 42
0.0015007891
 70
     1
  0
VERTEX
  5
3A3
330
392
100
AcDbEntity
  8
10000_FRONT
  6
Continuous
 62
     7
370
    50
100
AcDbVertex
100
AcDb2dVertex
 10
572.0644955265887
 20
149.3808457511674
 30
0.0
 42
0.001617291
  0
VERTEX
  5
3A4
330
392
100
AcDbEntity
  8
10000_FRONT
  6
Continuous
 62
     7
370
    50
100
AcDbVertex
100
AcDb2dVertex
 10
572.0730855265887
 20
149.3789457511674
 30
0.0
 42
0.0017263087
 70
     1
  0
VERTEX
  5
3A5
330
392
100
AcDbEntity
  8
10000_FRONT
  6
Continuous
 62
     7
370
    50
100
AcDbVertex
100
AcDb2dVertex
 10
572.0818955265887
 20
149.3770757511673
 30
0.0
 42
0.0018864728
  0
VERTEX
  5
3A6
330
392
100
AcDbEntity
  8
10000_FRONT
  6
Continuous
 62
     7
370
    50
100
AcDbVertex
100
AcDb2dVertex
 10
572.0908755265887
 20
149.3752357511674
 30
0.0
 42
0.0019955469
 70
     1
  0
VERTEX
  5
3A7
330
392
100
AcDbEntity
  8
10000_FRONT
  6
Continuous
 62
     7
370
    50
100
AcDbVertex
100
AcDb2dVertex
 10
572.0999955265887
 20
149.3734457511673
 30
0.0
 42
0.0021168602
  0
VERTEX
  5
3A8
330
392
100
AcDbEntity
  8
10000_FRONT
  6
Continuous
 62
     7
370
    50
100
AcDbVertex
100
AcDb2dVertex
 10
572.1092155265887
 20
149.3717157511673
 30
0.0
 42
0.002360735
 70
     1
  0
VERTEX
  5
3A9
330
392
100
AcDbEntity
  8
10000_FRONT
  6
Continuous
 62
     7
370
    50
100
AcDbVertex
100
AcDb2dVertex
 10
572.1185255265887
 20
149.3700757511674
 30
0.0
 42
0.0027734702
  0
VERTEX
  5
3AA
330
392
100
AcDbEntity
  8
10000_FRONT
  6
Continuous
 62
     7
370
    50
100
AcDbVertex
100
AcDb2dVertex
 10
572.1279055265887
 20
149.3685257511674
 30
0.0
 42
0.0027227896
 70
     1
  0
VERTEX
  5
3AB
330
392
100
AcDbEntity
  8
10000_FRONT
  6
Continuous
 62
     7
370
    50
100
AcDbVertex
100
AcDb2dVertex
 10
572.1371955265887
 20
149.3670957511674
 30
0.0
 42
0.002331719
  0
VERTEX
  5
3AC
330
392
100
AcDbEntity
  8
10000_FRONT
  6
Continuous
 62
     7
370
    50
100
AcDbVertex
100
AcDb2dVertex
 10
572.1461955265887
 20
149.3657857511674
 30
0.0
 42
0.0019128269
 70
     1
  0
VERTEX
  5
3AD
330
392
100
AcDbEntity
  8
10000_FRONT
  6
Continuous
 62
     7
370
    50
100
AcDbVertex
100
AcDb2dVertex
 10
572.1547555265886
 20
149.3645957511674
 30
0.0
 42
0.0012202183
  0
VERTEX
  5
3AE
330
392
100
AcDbEntity
  8
10000_FRONT
  6
Continuous
 62
     7
370
    50
100
AcDbVertex
100
AcDb2dVertex
 10
572.1627055265887
 20
149.3635257511674
 30
0.0
 42
0.0010478637
 70
     1
  0
VERTEX
  5
3AF
330
392
100
AcDbEntity
  8
10000_FRONT
  6
Continuous
 62
     7
370
    50
100
AcDbVertex
100
AcDb2dVertex
 10
572.1701055265887
 20
149.3625657511674
 30
0.0
 42
0.0013576661
  0
VERTEX
  5
3B0
330
392
100
AcDbEntity
  8
10000_FRONT
  6
Continuous
 62
     7
370
    50
100
AcDbVertex
100
AcDb2dVertex
 10
572.1769955265886
 20
149.3617057511674
 30
0.0
 42
0.0015684174
 70
     1
  0
VERTEX
  5
3B1
330
392
100
AcDbEntity
  8
10000_FRONT
  6
Continuous
 62
     7
370
    50
100
AcDbVertex
100
AcDb2dVertex
 10
572.1834055265888
 20
149.3609557511673
 30
0.0
 42
0.0016460872
  0
VERTEX
  5
3B2
330
392
100
AcDbEntity
  8
10000_FRONT
  6
Continuous
 62
     7
370
    50
100
AcDbVertex
100
AcDb2dVertex
 10
572.1893355265887
 20
149.3603057511674
 30
0.0
 42
0.0018025922
 70
     1
  0
VERTEX
  5
3B3
330
392
100
AcDbEntity
  8
10000_FRONT
  6
Continuous
 62
     7
370
    50
100
AcDbVertex
100
AcDb2dVertex
 10
572.1948155265887
 20
149.3597457511674
 30
0.0
 42
0.0019928719
  0
VERTEX
  5
3B4
330
392
100
AcDbEntity
  8
10000_FRONT
  6
Continuous
 62
     7
370
    50
100
AcDbVertex
100
AcDb2dVertex
 10
572.1998455265888
 20
149.3592657511673
 30
0.0
 42
0.0022315751
 70
     1
  0
VERTEX
  5
3B5
330
392
100
AcDbEntity
  8
10000_FRONT
  6
Continuous
 62
     7
370
    50
100
AcDbVertex
100
AcDb2dVertex
 10
572.2044655265887
 20
149.3588757511673
 30
0.0
 42
0.002463361
  0
VERTEX
  5
3B6
330
392
100
AcDbEntity
  8
10000_FRONT
  6
Continuous
 62
     7
370
    50
100
AcDbVertex
100
AcDb2dVertex
 10
572.2086755265888
 20
149.3585657511673
 30
0.0
 42
0.002779495
 70
     1
  0
VERTEX
  5
3B7
330
392
100
AcDbEntity
  8
10000_FRONT
  6
Continuous
 62
     7
370
    50
100
AcDbVertex
100
AcDb2dVertex
 10
572.2125155265887
 20
149.3583257511674
 30
0.0
 42
0.0031051412
  0
VERTEX
  5
3B8
330
392
100
AcDbEntity
  8
10000_FRONT
  6
Continuous
 62
     7
370
    50
100
AcDbVertex
100
AcDb2dVertex
 10
572.2159855265886
 20
149.3581557511673
 30
0.0
 42
0.003548206
 70
     1
  0
VERTEX
  5
3B9
330
392
100
AcDbEntity
  8
10000_FRONT
  6
Continuous
 62
     7
370
    50
100
AcDbVertex
100
AcDb2dVertex
 10
572.2191055265887
 20
149.3580557511674
 30
0.0
 42
0.004008402
  0
VERTEX
  5
3BA
330
392
100
AcDbEntity
  8
10000_FRONT
  6
Continuous
 62
     7
370
    50
100
AcDbVertex
100
AcDb2dVertex
 10
572.2219055265886
 20
149.3580057511673
 30
0.0
 42
0.004645728
 70
     1
  0
VERTEX
  5
3BB
330
392
100
AcDbEntity
  8
10000_FRONT
  6
Continuous
 62
     7
370
    50
100
AcDbVertex
100
AcDb2dVertex
 10
572.2243955265887
 20
149.3580157511674
 30
0.0
 42
0.0053200397
  0
VERTEX
  5
3BC
330
392
100
AcDbEntity
  8
10000_FRONT
  6
Continuous
 62
     7
370
    50
100
AcDbVertex
100
AcDb2dVertex
 10
572.2265955265887
 20
149.3580757511674
 30
0.0
 42
0.006268763
 70
     1
  0
VERTEX
  5
3BD
330
392
100
AcDbEntity
  8
10000_FRONT
  6
Continuous
 62
     7
370
    50
100
AcDbVertex
100
AcDb2dVertex
 10
572.2285355265888
 20
149.3581857511673
 30
0.0
 42
0.0072892591
  0
VERTEX
  5
3BE
330
392
100
AcDbEntity
  8
10000_FRONT
  6
Continuous
 62
     7
370
    50
100
AcDbVertex
100
AcDb2dVertex
 10
572.2302055265887
 20
149.3583257511674
 30
0.0
 42
0.0087517673
 70
     1
  0
VERTEX
  5
3BF
330
392
100
AcDbEntity
  8
10000_FRONT
  6
Continuous
 62
     7
370
    50
100
AcDbVertex
100
AcDb2dVertex
 10
572.2316555265887
 20
149.3585057511674
 30
0.0
 42
0.010346459
  0
VERTEX
  5
3C0
330
392
100
AcDbEntity
  8
10000_FRONT
  6
Continuous
 62
     7
370
    50
100
AcDbVertex
100
AcDb2dVertex
 10
572.2328855265886
 20
149.3587257511673
 30
0.0
 42
0.012655208
 70
     1
  0
VERTEX
  5
3C1
330
392
100
AcDbEntity
  8
10000_FRONT
  6
Continuous
 62
     7
370
    50
100
AcDbVertex
100
AcDb2dVertex
 10
572.2339255265888
 20
149.3589557511674
 30
0.0
 42
0.015153336
  0
VERTEX
  5
3C2
330
392
100
AcDbEntity
  8
10000_FRONT
  6
Continuous
 62
     7
370
    50
100
AcDbVertex
100
AcDb2dVertex
 10
572.2347855265886
 20
149.3592157511673
 30
0.0
 42
0.018781803
 70
     1
  0
VERTEX
  5
3C3
330
392
100
AcDbEntity
  8
10000_FRONT
  6
Continuous
 62
     7
370
    50
100
AcDbVertex
100
AcDb2dVertex
 10
572.2354855265887
 20
149.3594957511674
 30
0.0
 42
0.02248047
  0
VERTEX
  5
3C4
330
392
100
AcDbEntity
  8
10000_FRONT
  6
Continuous
 62
     7
370
    50
100
AcDbVertex
100
AcDb2dVertex
 10
572.2360355265887
 20
149.3597857511673
 30
0.0
 42
0.027406209
 70
     1
  0
VERTEX
  5
3C5
330
392
100
AcDbEntity
  8
10000_FRONT
  6
Continuous
 62
     7
370
    50
100
AcDbVertex
100
AcDb2dVertex
 10
572.2364755265886
 20
149.3600757511673
 30
0.0
 42
0.031416618
  0
VERTEX
  5
3C6
330
392
100
AcDbEntity
  8
10000_FRONT
  6
Continuous
 62
     7
370
    50
100
AcDbVertex
100
AcDb2dVertex
 10
572.2368055265888
 20
149.3603757511674
 30
0.0
 42
0.035247192
 70
     1
  0
VERTEX
  5
3C7
330
392
100
AcDbEntity
  8
10000_FRONT
  6
Continuous
 62
     7
370
    50
100
AcDbVertex
100
AcDb2dVertex
 10
572.2370655265887
 20
149.3606757511674
 30
0.0
 42
0.032434365
  0
VERTEX
  5
3C8
330
392
100
AcDbEntity
  8
10000_FRONT
  6
Continuous
 62
     7
370
    50
100
AcDbVertex
100
AcDb2dVertex
 10
572.2372555265888
 20
149.3609657511674
 30
0.0
 42
0.031075832
 70
     1
  0
VERTEX
  5
3C9
330
392
100
AcDbEntity
  8
10000_FRONT
  6
Continuous
 62
     7
370
    50
100
AcDbVertex
100
AcDb2dVertex
 10
572.2373855265886
 20
149.3612457511673
 30
0.0
 42
0.037986142
  0
VERTEX
  5
3CA
330
392
100
AcDbEntity
  8
10000_FRONT
  6
Continuous
 62
     7
370
    50
100
AcDbVertex
100
AcDb2dVertex
 10
572.2374655265887
 20
149.3614857511674
 30
0.0
 42
0.007767204
 70
     1
  0
VERTEX
  5
3CB
330
392
100
AcDbEntity
  8
10000_FRONT
  6
Continuous
 62
     7
370
    50
100
AcDbVertex
100
AcDb2dVertex
 10
572.2375855265887
 20
149.3617457511674
 30
0.0
 42
-0.072073764
  0
VERTEX
  5
3CC
330
392
100
AcDbEntity
  8
10000_FRONT
  6
Continuous
 62
     7
370
    50
100
AcDbVertex
100
AcDb2dVertex
 10
572.2378655265887
 20
149.3620457511674
 30
0.0
 42
-0.046720177
 70
     1
  0
VERTEX
  5
3CD
330
392
100
AcDbEntity
  8
10000_FRONT
  6
Continuous
 62
     7
370
    50
100
AcDbVertex
100
AcDb2dVertex
 10
572.2382555265888
 20
149.3623957511673
 30
0.0
 42
-0.021385183
  0
SEQEND
  5
3CE
330
392
100
AcDbEntity
  8
10000_FRONT
  6
Continuous
 62
     7
370
    50
  0
LINE
  5
488
330
D9F
100
AcDbEntity
  8
11000_Left
  6
Continuous
 62
     7
370
    50
100
AcDbLine
 10
684.1498317873536
 20
159.3623857511674
 30
0.0
 11
700.1498317873536
 21
159.3623857511674
 31
0.0
  0
LINE
  5
489
330
D9F
100
AcDbEntity
  8
11000_Left
  6
Continuous
 62
     7
370
    15
100
AcDbLine
 10
684.1498317873536
 20
142.5582157511674
 30
0.0
 11
684.1498317873536
 21
147.5672657511674
 31
0.0
  0
LINE
  5
48A
330
D9F
100
AcDbEntity
  8
11000_Left
  6
Continuous
 62
     7
370
    15
100
AcDbLine
 10
684.1498317873536
 20
147.5672657511674
 30
0.0
 11
684.1498317873536
 21
149.3623857511674
 31
0.0
  0
LINE
  5
48D
330
D9F
100
AcDbEntity
  8
11000_Left
  6
Continuous
 62
     7
370
    50
100
AcDbLine
 10
684.1498317873536
 20
149.3623857511674
 30
0.0
 11
684.1498317873536
 21
159.3623857511674
 31
0.0
  0
LINE
  5
48E
330
D9F
100
AcDbEntity
  8
11000_Left
  6
Continuous
 62
     7
370
    50
100
AcDbLine
 10
693.1498317873535
 20
156.5623857511673
 30
0.0
 11
693.1498317873535
 21
150.1623857511674
 31
0.0
  0
LINE
  5
48F
330
D9F
100
AcDbEntity
  8
11000_Left
  6
Continuous
 62
     7
370
    50
100
AcDbLine
 10
695.3354717873537
 20
157.3623857511674
 30
0.0
 11
693.9498317873535
 21
157.3623857511674
 31
0.0
  0
LINE
  5
490
330
D9F
100
AcDbEntity
  8
11000_Left
  6
Continuous
 62
     7
370
    50
100
AcDbLine
 10
695.3354717873537
 20
157.3623857511674
 30
0.0
 11
700.1498317873536
 21
157.3623857511674
 31
0.0
  0
LINE
  5
491
330
D9F
100
AcDbEntity
  8
11000_Left
  6
Continuous
 62
     7
370
    50
100
AcDbLine
 10
692.3498317873536
 20
149.3623857511674
 30
0.0
 11
684.1498317873536
 21
149.3623857511674
 31
0.0
  0
LINE
  5
492
102
{ACAD_REACTORS
330
EB7
102
}
330
D9F
100
AcDbEntity
  8
11000_Left
  6
Continuous
 62
     7
370
    15
100
AcDbLine
 10
692.1498317873536
 20
149.3623857511674
 30
0.0
 11
692.1498317873536
 21
146.9394357511673
 31
0.0
  0
LINE
  5
493
330
D9F
100
AcDbEntity
  8
11000_Left
  6
Continuous
 62
     7
370
    15
100
AcDbLine
 10
692.1498317873536
 20
146.9394357511673
 30
0.0
 11
692.1498317873536
 21
143.5852857511673
 31
0.0
  0
LINE
  5
494
102
{ACAD_REACTORS
330
EB7
330
ED1
102
}
330
D9F
100
AcDbEntity
  8
11000_Left
  6
Continuous
 62
     7
370
    50
100
AcDbLine
 10
700.1498317873536
 20
159.3623857511674
 30
0.0
 11
700.1498317873536
 21
157.8623857511674
 31
0.0
  0
LINE
  5
495
330
D9F
100
AcDbEntity
  8
11000_Left
  6
Continuous
 62
     7
370
    50
100
AcDbLine
 10
700.1498317873536
 20
157.3623857511674
 30
0.0
 11
700.1498317873536
 21
157.8623857511674
 31
0.0
  0
ARC
  5
496
330
D9F
100
AcDbEntity
  8
11000_Left
  6
Continuous
 62
     7
370
    50
100
AcDbCircle
 10
693.9498317873535
 20
156.5623857511673
 30
0.0
 40
0.8
100
AcDbArc
 50
90.0
 51
180.0
  0
LINE
  5
515
330
D9F
100
AcDbEntity
  8
11000_Left
  6
Continuous
 62
     7
370
    15
100
AcDbLine
 10
691.1498317873536
 20
147.5672657511674
 30
0.0
 11
691.1498317873536
 21
149.3623857511674
 31
0.0
  0
LINE
  5
516
330
D9F
100
AcDbEntity
  8
11000_Left
  6
Continuous
 62
     7
370
    15
100
AcDbLine
 10
684.1498317873536
 20
147.5672657511674
 30
0.0
 11
691.1498317873536
 21
147.5672657511674
 31
0.0
  0
LINE
  5
518
330
D9F
100
AcDbEntity
  8
11000_Left
  6
Continuous
 62
     7
370
    15
100
AcDbLine
 10
691.1498317873536
 20
142.5582157511674
 30
0.0
 11
684.1498317873536
 21
142.5582157511674
 31
0.0
  0
LINE
  5
519
102
{ACAD_REACTORS
330
ED1
102
}
330
D9F
100
AcDbEntity
  8
11000_Left
  6
Continuous
 62
     7
370
    15
100
AcDbLine
 10
692.1498317873536
 20
143.5852857511673
 30
0.0
 11
691.1498317873536
 21
142.5582157511674
 31
0.0
  0
DIMENSION
  5
E9D
102
{ACAD_XDICTIONARY
360
EAC
102
}
102
{ACAD_REACTORS
330
EB7
102
}
330
D9F
100
AcDbEntity
  8
11100_LEFT_DIM
  6
Continuous
 62
     7
370
    13
100
AcDbDimension
  2
*D13
 10
715.1498317873536
 20
149.3623857511673
 30
0.0
 11
715.1498317873536
 21
154.3623857511675
 31
0.0
 70
    32
 71
     5
 42
10.0
  3
DSTYLE1
100
AcDbAlignedDimension
 13
700.1498317873536
 23
159.3623857511674
 33
0.0
 14
692.1498317873536
 24
149.3623857511674
 34
0.0
 50
90.0
100
AcDbRotatedDimension
1001
ACAD
1000
DSTYLE
1002
{
1070
    41
1040
2.0
1070
    42
1040
1.0
1070
    43
1040
1.0
1070
    47
1040
0.005
1070
    48
1040
-0.005
1070
    77
1070
     0
1070
    78
1070
     0
1070
   140
1040
3.5
1070
   143
1040
25.4
1070
   171
1070
     0
1070
   172
1070
     1
1070
   271
1070
     0
1070
   272
1070
     1
1070
   277
1070
     6
1070
   279
1070
     0
1002
}
  0
DIMENSION
  5
EB8
102
{ACAD_XDICTIONARY
360
EC6
102
}
102
{ACAD_REACTORS
330
ED1
102
}
330
D9F
100
AcDbEntity
  8
11100_LEFT_DIM
  6
Continuous
 62
     7
370
    13
100
AcDbDimension
  2
*D14
 10
725.1498317873536
 20
142.5582157511673
 30
0.0
 11
725.1498317873536
 21
150.9603007511674
 31
0.0
 70
    32
 71
     5
 42
16.80417
  3
DSTYLE1
100
AcDbAlignedDimension
 13
700.1498317873536
 23
159.3623857511674
 33
0.0
 14
691.1498317873536
 24
142.5582157511674
 34
0.0
 50
90.0
100
AcDbRotatedDimension
1001
ACAD
1000
DSTYLE
1002
{
1070
    41
1040
2.0
1070
    42
1040
1.0
1070
    43
1040
1.0
1070
    47
1040
0.005
1070
    48
1040
-0.005
1070
    77
1070
     0
1070
    78
1070
     0
1070
   140
1040
3.5
1070
   143
1040
25.4
1070
   171
1070
     0
1070
   172
1070
     1
1070
   271
1070
     0
1070
   272
1070
     1
1070
   277
1070
     6
1070
   279
1070
     0
1002
}
  0
DIMENSION
  5
ED2
102
{ACAD_XDICTIONARY
360
EE0
102
}
102
{ACAD_REACTORS
330
EEB
102
}
330
D9F
100
AcDbEntity
  8
10100_FRONT_DIM
  6
Continuous
 62
     7
370
    13
100
AcDbDimension
  2
*D15
 10
570.7382655265887
 20
124.3623857511674
 30
0.0
 11
619.2382655265888
 21
124.3623857511674
 31
0.0
 70
    32
 71
     5
 42
97.0
  3
DSTYLE1
100
AcDbAlignedDimension
 13
667.7382655265887
 23
150.8623857511674
 33
0.0
 14
570.7382655265887
 24
150.8623857511674
 34
0.0
100
AcDbRotatedDimension
1001
ACAD
1000
DSTYLE
1002
{
1070
    41
1040
2.0
1070
    42
1040
1.0
1070
    43
1040
1.0
1070
    47
1040
0.005
1070
    48
1040
-0.005
1070
    77
1070
     0
1070
    78
1070
     0
1070
   140
1040
3.5
1070
   143
1040
25.4
1070
   171
1070
     0
1070
   172
1070
     1
1070
   271
1070
     0
1070
   272
1070
     1
1070
   277
1070
     6
1070
   279
1070
     0
1002
}
  0
DIMENSION
  5
EEC
330
D9F
100
AcDbEntity
  8
10100_FRONT_DIM
  6
Continuous
 62
     7
370
    13
100
AcDbDimension
  2
*D16
 10
661.9882655265887
 20
134.3623857511674
 30
0.0
 11
619.2382655265888
 21
134.3623857511674
 31
0.0
 70
    32
 71
     5
 42
85.5
  3
DSTYLE1
100
AcDbAlignedDimension
 13
576.4882655265887
 23
140.7636621506233
 33
0.0
 14
661.9882655265887
 24
140.8242912505407
 34
0.0
100
AcDbRotatedDimension
1001
ACAD
1000
DSTYLE
1002
{
1070
    41
1040
2.0
1070
    42
1040
1.0
1070
    43
1040
1.0
1070
    47
1040
0.005
1070
    48
1040
-0.005
1070
    77
1070
     0
1070
    78
1070
     0
1070
   140
1040
3.5
1070
   143
1040
25.4
1070
   171
1070
     0
1070
   172
1070
     1
1070
   271
1070
     0
1070
   272
1070
     1
1070
   277
1070
     6
1070
   279
1070
     0
1002
}
  0
DIMENSION
  5
1BD2
330
D9F
100
AcDbEntity
  8
11100_LEFT_DIM
  6
Continuous
 62
     7
370
    13
100
AcDbDimension
  2
*D49
 10
700.1498317873536
 20
127.5582157511674
 30
0.0
 11
692.1498317873536
 21
127.5582157511674
 31
0.0
 70
    32
 71
     5
 42
16.0
  3
DSTYLE1
100
AcDbAlignedDimension
 13
684.1498317873536
 23
139.9062962698042
 33
0.0
 14
700.1498317873536
 24
140.3196742740395
 34
0.0
100
AcDbRotatedDimension
1001
ACAD
1000
DSTYLE
1002
{
1070
    41
1040
2.0
1070
    42
1040
1.0
1070
    43
1040
1.0
1070
    47
1040
0.005
1070
    48
1040
-0.005
1070
    77
1070
     0
1070
    78
1070
     0
1070
   140
1040
3.5
1070
   143
1040
25.4
1070
   171
1070
     0
1070
   172
1070
     1
1070
   271
1070
     0
1070
   272
1070
     1
1070
   277
1070
     6
1070
   279
1070
     0
1002
}
  0
ARC
  5
1CD2
330
D9F
100
AcDbEntity
  8
11000_Left
  6
Continuous
 62
     7
370
    50
100
AcDbCircle
 10
692.3498317873536
 20
150.1623857511674
 30
0.0
 40
0.8000000000000113
100
AcDbArc
 50
269.9999999999968
 51
0.0
  0
LINE
  5
1D55
330
D9F
100
AcDbEntity
  8
90000_FRAME
  6
Continuous
 62
     7
100
AcDbLine
 10
778.3091298598904
 20
35.74790720129312
 30
0.0
 11
778.3091298598906
 21
235.7479072012932
 31
0.0
  0
LINE
  5
1D56
330
D9F
100
AcDbEntity
  8
90000_FRAME
  6
Continuous
 62
     7
100
AcDbLine
 10
508.3091298598904
 20
35.74790720129312
 30
0.0
 11
508.3091298598904
 21
235.7479072012932
 31
0.0
  0
LINE
  5
1D57
330
D9F
100
AcDbEntity
  8
90000_FRAME
  6
Continuous
 62
     7
100
AcDbLine
 10
778.3091298598904
 20
35.74790720129312
 30
0.0
 11
508.3091298598904
 21
35.74790720129312
 31
0.0
  0
TEXT
  5
1D58
330
D9F
100
AcDbEntity
  8
91000_TIP
  6
Continuous
 62
     7
100
AcDbText
 10
513.6152401163831
 20
48.06564479267717
 30
0.0
 40
2.5
  1
Alle Bemassungswerte sind in Millimeter (mm) angegeben.
 41
0.5458157023561646
 72
     5
 11
587.3003599344654
 21
48.06564479267717
 31
0.0
100
AcDbText
  0
TEXT
  5
1D59
330
D9F
100
AcDbEntity
  8
91000_TIP
  6
Continuous
 62
     7
100
AcDbText
 10
513.6152401163831
 20
42.81564479267706
 30
0.0
 40
2.5
  1
All dimensions are in millimeters (mm).
 41
0.6327031827941268
 72
     5
 11
573.7220424818251
 21
42.81564479267706
 31
0.0
100
AcDbText
  0
LINE
  5
1D5A
330
D9F
100
AcDbEntity
  8
90000_FRAME
  6
Continuous
 62
     7
100
AcDbLine
 10
638.3091298598904
 20
58.74790720129311
 30
0.0
 11
773.3091298598903
 21
58.74790720129311
 31
0.0
  0
LINE
  5
1D5B
330
D9F
100
AcDbEntity
  8
90000_FRAME
  6
Continuous
 62
     7
100
AcDbLine
 10
638.3091298598904
 20
40.74790720129311
 30
0.0
 11
773.3091298598903
 21
40.74790720129311
 31
0.0
  0
LINE
  5
1D5C
330
D9F
100
AcDbEntity
  8
90000_FRAME
  6
Continuous
 62
     7
100
AcDbLine
 10
638.3091298598904
 20
40.74790720129311
 30
0.0
 11
638.3091298598904
 21
58.74790720129311
 31
0.0
  0
CIRCLE
  5
1D5D
330
D9F
100
AcDbEntity
  8
91000_TIP
  6
Continuous
 62
     7
100
AcDbCircle
 10
629.6237996269164
 20
49.57164477476371
 30
0.0
 40
4.9999998979
  0
LINE
  5
1D5E
330
D9F
100
AcDbEntity
  8
91000_TIP
  6
CENTER
 62
     7
100
AcDbLine
 10
611.8442894919154
 20
49.57164477476371
 30
0.0
 11
635.4462787560152
 21
49.57164477476371
 31
0.0
  0
LINE
  5
1D5F
330
D9F
100
AcDbEntity
  8
91000_TIP
  6
CENTER
 62
     7
100
AcDbLine
 10
629.6237996269164
 20
43.85016356836371
 30
0.0
 11
629.6237996269164
 21
55.13354956836344
 31
0.0
  0
LINE
  5
1D60
330
D9F
100
AcDbEntity
  8
91000_TIP
  6
Continuous
 62
     7
100
AcDbLine
 10
623.1237997597165
 20
54.57164467266375
 30
0.0
 11
623.1237997597165
 21
44.57164487686362
 31
0.0
  0
LINE
  5
1D61
330
D9F
100
AcDbEntity
  8
91000_TIP
  6
Continuous
 62
     7
100
AcDbLine
 10
613.1237999639163
 20
47.07164482586375
 30
0.0
 11
623.1237997597165
 21
44.57164487686362
 31
0.0
  0
LINE
  5
1D62
330
D9F
100
AcDbEntity
  8
91000_TIP
  6
Continuous
 62
     7
100
AcDbLine
 10
613.1237999639163
 20
52.07164472366372
 30
0.0
 11
623.1237997597165
 21
54.57164467266375
 31
0.0
  0
LINE
  5
1D63
330
D9F
100
AcDbEntity
  8
91000_TIP
  6
Continuous
 62
     7
100
AcDbLine
 10
613.1237999639163
 20
52.07164472366372
 30
0.0
 11
613.1237999639163
 21
47.07164482586375
 31
0.0
  0
CIRCLE
  5
1D64
330
D9F
100
AcDbEntity
  8
91000_TIP
  6
Continuous
 62
     7
100
AcDbCircle
 10
629.6237996269164
 20
49.57164477476371
 30
0.0
 40
2.499999948899997
  0
INSERT
  5
1D65
330
D9F
100
AcDbEntity
  8
90000_FRAME
  6
Continuous
 62
     7
100
AcDbBlockReference
  2
SIEMENS_OUTLINE_BL0
 10
570.9550272438113
 20
30.40964797368983
 30
0.0
  0
LINE
  5
1D66
330
D9F
100
AcDbEntity
  8
90000_FRAME
  6
Continuous
 62
     7
100
AcDbLine
 10
773.3091298598903
 20
40.74790720129311
 30
0.0
 11
773.3091298598903
 21
58.74790720129311
 31
0.0
  0
LINE
  5
1D67
330
D9F
100
AcDbEntity
  8
90000_FRAME
  6
Continuous
 62
     7
100
AcDbLine
 10
688.3091298598904
 20
40.74790720129311
 30
0.0
 11
688.3091298598904
 21
58.74790720129311
 31
0.0
  0
TEXT
  5
1D68
330
D9F
100
AcDbEntity
  8
90000_FRAME
  6
Continuous
 62
     7
100
AcDbText
 10
701.6150543838409
 20
48.04554462477639
 30
0.0
 40
3.5
  1
Seitenmodul für Hutschienenadapter
 41
0.5361139745316122
 72
     5
 11
764.7871510494826
 21
48.04554462477639
 31
0.0
100
AcDbText
  0
TEXT
  5
1D69
330
D9F
100
AcDbEntity
  8
90000_FRAME
  6
Continuous
 62
     7
100
AcDbText
 10
701.6150543838409
 20
53.62222970038934
 30
0.0
 40
3.5
  1
3RA1902_00001974_000_ALL
 41
0.6749960573744494
 72
     5
 11
757.5272278030245
 21
53.62222970038934
 31
0.0
100
AcDbText
  0
TEXT
  5
1D6A
330
D9F
100
AcDbEntity
  8
90000_FRAME
  6
Continuous
 62
     7
100
AcDbText
 10
731.4691298598904
 20
42.64790720129304
 30
0.0
 40
2.2
  1
Massstab / Scale: 1:1
 41
0.6852497096407963
 72
     5
 11
762.3738917646903
 21
42.64790720129304
 31
0.0
100
AcDbText
  0
LINE
  5
1D6B
330
D9F
100
AcDbEntity
  8
90000_FRAME
  6
Continuous
 62
     7
100
AcDbLine
 10
688.3091298598904
 20
46.74790720129311
 30
0.0
 11
773.3091298598903
 21
46.74790720129311
 31
0.0
  0
TEXT
  5
1D6C
330
D9F
100
AcDbEntity
  8
90000_FRAME
  6
Continuous
 62
     7
100
AcDbText
 10
688.9691298598904
 20
42.64790720129304
 30
0.0
 40
2.2
  1
Format / Size: DIN A4
 41
0.7350230414736054
 72
     5
 11
722.3881774788903
 21
42.64790720129304
 31
0.0
100
AcDbText
  0
LINE
  5
1D6D
330
D9F
100
AcDbEntity
  8
90000_FRAME
  6
Continuous
 62
     7
100
AcDbLine
 10
730.8091298598906
 20
40.74790720129311
 30
0.0
 11
730.8091298598906
 21
46.74790720129311
 31
0.0
  0
LINE
  5
1D6E
330
D9F
100
AcDbEntity
  8
90000_FRAME
  6
Continuous
 62
     7
100
AcDbLine
 10
778.3091298598904
 20
235.7479072012932
 30
0.0
 11
508.3091298598904
 21
235.7479072012932
 31
0.0
  0
ENDSEC
  0
SECTION
  2
OBJECTS
  0
DICTIONARY
  5
D75
330
0
100
AcDbDictionary
281
     1
  3
ACAD_COLOR
350
D98
  3
ACAD_GROUP
350
D76
  3
ACAD_LAYOUT
350
D97
  3
ACAD_MATERIAL
350
D79
  3
ACAD_MLINESTYLE
350
D94
  3
ACAD_PLOTSETTINGS
350
D96
  3
ACAD_PLOTSTYLENAME
350
D77
  3
ACAD_TABLESTYLE
350
D99
  3
ACAD_VISUALSTYLE
350
D7D
  3
AcDbVariableDictionary
350
1C36
  3
DWGPROPS
350
1DF4
  0
DICTIONARY
  5
1C31
330
D9F
100
AcDbDictionary
280
     1
281
     1
  3
ACAD_SORTENTS
360
1C32
  0
DICTIONARY
  5
EAC
330
E9D
100
AcDbDictionary
280
     1
281
     1
  3
ACAD_DIMASSOC
360
EB7
  0
DICTIONARY
  5
EC6
330
EB8
100
AcDbDictionary
280
     1
281
     1
  3
ACAD_DIMASSOC
360
ED1
  0
DICTIONARY
  5
EE0
330
ED2
100
AcDbDictionary
280
     1
281
     1
  3
ACAD_DIMASSOC
360
EEB
  0
DICTIONARY
  5
D98
102
{ACAD_REACTORS
330
D75
102
}
330
D75
100
AcDbDictionary
281
     1
  0
DICTIONARY
  5
D76
102
{ACAD_REACTORS
330
D75
102
}
330
D75
100
AcDbDictionary
281
     1
  0
DICTIONARY
  5
D97
102
{ACAD_REACTORS
330
D75
102
}
330
D75
100
AcDbDictionary
281
     1
  3
Layout1
350
D9E
  3
Model
350
DA2
  0
DICTIONARY
  5
D79
102
{ACAD_REACTORS
330
D75
102
}
330
D75
100
AcDbDictionary
281
     1
  3
ByBlock
350
D7B
  3
ByLayer
350
D7A
  3
Global
350
D7C
  0
DICTIONARY
  5
D94
102
{ACAD_REACTORS
330
D75
102
}
330
D75
100
AcDbDictionary
281
     1
  3
Standard
350
D95
  0
DICTIONARY
  5
D96
102
{ACAD_REACTORS
330
D75
102
}
330
D75
100
AcDbDictionary
281
     1
  0
ACDBDICTIONARYWDFLT
  5
D77
102
{ACAD_REACTORS
330
D75
102
}
330
D75
100
AcDbDictionary
281
     1
  3
Normal
350
D78
100
AcDbDictionaryWithDefault
340
D78
  0
DICTIONARY
  5
D99
102
{ACAD_REACTORS
330
D75
102
}
330
D75
100
AcDbDictionary
281
     1
  3
Standard
350
D9A
  0
DICTIONARY
  5
D7D
102
{ACAD_REACTORS
330
D75
102
}
330
D75
100
AcDbDictionary
281
     1
  3
2dWireframe
350
D83
  3
Basic
350
D82
  3
Brighten
350
D89
  3
ColorChange
350
D8D
  3
Dim
350
D88
  3
Facepattern
350
D8C
  3
Flat
350
D7E
  3
FlatWithEdges
350
D7F
  3
Gouraud
350
D80
  3
GouraudWithEdges
350
D81
  3
Linepattern
350
D8B
  3
Thicken
350
D8A
  0
DICTIONARY
  5
1C36
102
{ACAD_REACTORS
330
D75
102
}
330
D75
100
AcDbDictionary
281
     1
  3
CTABLESTYLE
350
1C37
  3
DIMASSOC
350
1DF3
  3
HIDETEXT
350
1DF2
  3
INDEXCTL
350
1DF1
  3
SORTENTS
350
1DF0
  0
XRECORD
  5
1DF4
102
{ACAD_REACTORS
330
D75
102
}
330
D75
100
AcDbXrecord
280
     1
  1
DWGPROPS COOKIE
  2

  3

  4

  6

  7

  8
adgsan0
  9

300
=
301
=
302
=
303
=
304
=
305
=
306
=
307
=
308
=
309
=
 40
0.0144232870370371
 41
2444975.041666666
 42
2454084.60495603
  1

 90
        0
  0
SORTENTSTABLE
  5
1C32
102
{ACAD_REACTORS
330
1C31
102
}
330
1C31
100
AcDbSortentsTable
330
D9F
331
488
  5
48E
331
127
  5
12C
331
519
  5
1665
331
116
  5
116
331
105
  5
105
331
125
  5
129
331
ED2
  5
166A
331
355
  5
48A
331
114
  5
114
331
123
  5
128
331
1CD2
  5
1CFF
331
495
  5
15F1
331
515
  5
15F4
331
134
  5
32C
331
1BD2
  5
1CFE
331
112
  5
112
331
121
  5
127
331
493
  5
497
331
110
  5
110
331
491
  5
495
331
11F
  5
125
331
10E
  5
10E
331
48F
  5
493
331
E9D
  5
1668
331
11D
  5
121
331
10C
  5
10C
331
48D
  5
491
331
12C
  5
130
331
11B
  5
120
331
119
  5
11F
331
108
  5
108
331
489
  5
48F
331
128
  5
12D
331
117
  5
11D
331
106
  5
106
331
126
  5
12B
331
518
  5
1662
331
496
  5
15F2
331
516
  5
15F5
331
135
  5
355
331
494
  5
4C0
331
133
  5
2DA
331
111
  5
111
331
120
  5
126
331
492
  5
496
331
131
  5
1E5
331
EEC
  5
166B
331
392
  5
48D
331
10F
  5
10F
331
490
  5
494
331
32C
  5
489
331
12F
  5
134
331
11E
  5
123
331
10D
  5
10D
331
48E
  5
492
331
12D
  5
131
331
EB8
  5
1669
331
10B
  5
10B
331
12B
  5
12F
331
109
  5
109
331
48A
  5
490
331
118
  5
11E
331
107
  5
107
  0
DIMASSOC
  5
EB7
102
{ACAD_REACTORS
330
EAC
102
}
330
EAC
100
AcDbDimAssoc
330
E9D
 90
        3
 70
     0
 71
     0
  1
AcDbOsnapPointRef
 72
    13
331
494
 73
     2
 91
        0
 40
0.0
 10
0.0
 20
0.0
 30
2.000000000000000E+50
 75
     0
  1
AcDbOsnapPointRef
 72
    13
331
492
 73
     2
 91
        0
 40
0.0
 10
0.0
 20
0.0
 30
2.000000000000000E+50
 75
     0
  0
DIMASSOC
  5
ED1
102
{ACAD_REACTORS
330
EC6
102
}
330
EC6
100
AcDbDimAssoc
330
EB8
 90
        3
 70
     0
 71
     0
  1
AcDbOsnapPointRef
 72
    13
331
494
 73
     2
 91
        0
 40
0.0
 10
0.0
 20
0.0
 30
2.000000000000000E+50
 75
     0
  1
AcDbOsnapPointRef
 72
     1
331
519
 73
     2
 91
        0
 40
1.0
 10
0.0
 20
0.0
 30
2.000000000000000E+50
 75
     0
  0
DIMASSOC
  5
EEB
102
{ACAD_REACTORS
330
EE0
102
}
330
EE0
100
AcDbDimAssoc
330
ED2
 90
        3
 70
     0
 71
     0
  1
AcDbOsnapPointRef
 72
     6
331
131
 73
     2
 91
        0
 40
0.9999999999999998
 10
0.0
 20
0.0
 30
0.0
332
12C
 74
     2
 92
        0
 75
     0
  1
AcDbOsnapPointRef
 72
    13
331
12B
 73
     2
 91
        0
 40
3.141592653589793
 10
0.0
 20
0.0
 30
2.000000000000000E+50
 75
     0
  0
LAYOUT
  5
D9E
102
{ACAD_XDICTIONARY
360
1DFD
102
}
102
{ACAD_REACTORS
330
D97
102
}
330
D97
100
AcDbPlotSettings
  1

  2
Microsoft Office Document Image Writer
  4

  6

 40
0.0
 41
0.0
 42
0.0
 43
0.0
 44
0.0
 45
0.0
 46
0.0
 47
0.0
 48
0.0
 49
0.0
140
0.0
141
0.0
142
1.0
143
1.0
 70
   688
 72
     0
 73
     0
 74
     5
  7

 75
    16
147
1.0
148
0.0
149
0.0
100
AcDbLayout
  1
Layout1
 70
     0
 71
     1
 10
0.0
 20
0.0
 11
594.0
 21
420.0
 12
0.0
 22
0.0
 32
0.0
 14
0.0
 24
0.0
 34
0.0
 15
594.0
 25
420.0
 35
0.0
146
0.0
 13
0.0
 23
0.0
 33
0.0
 16
1.0
 26
0.0
 36
0.0
 17
0.0
 27
1.0
 37
0.0
 76
     0
330
D9B
  0
LAYOUT
  5
DA2
102
{ACAD_XDICTIONARY
360
1DFF
102
}
102
{ACAD_REACTORS
330
D97
102
}
330
D97
100
AcDbPlotSettings
  1

  2
Microsoft Office Document Image Writer
  4
A4
  6

 40
3.174999952316284
 41
3.174999952316284
 42
3.17498779296875
 43
3.175003051757812
 44
297.0106506347656
 45
209.9733276367187
 46
0.0
 47
0.0
 48
0.0
 49
0.0
140
0.0
141
0.0
142
1.0
143
30.0476374713861
 70
 11952
 72
     0
 73
     0
 74
     0
  7

 75
     0
147
0.0332804867255299
148
-11973.04049514266
149
-892.3109062232905
100
AcDbLayout
  1
Model
 70
     1
 71
     0
 10
0.0
 20
0.0
 11
12.0
 21
9.0
 12
0.0
 22
0.0
 32
0.0
 14
0.0
 24
0.0
 34
0.0
 15
0.0
 25
0.0
 35
0.0
146
0.0
 13
0.0
 23
0.0
 33
0.0
 16
1.0
 26
0.0
 36
0.0
 17
0.0
 27
1.0
 37
0.0
 76
     0
330
D9F
331
DB6
1001
ACAD_PSEXT
1000
Microsoft Office Document Image Writer
1000
Microsoft Office Document Image Writer Driver
1000
Microsoft Document Imaging Writer Port:
1000

1070
     0
  0
MATERIAL
  5
D7B
102
{ACAD_XDICTIONARY
360
1DF7
102
}
102
{ACAD_REACTORS
330
D79
102
}
330
D79
100
AcDbMaterial
  1
ByBlock
  0
MATERIAL
  5
D7A
102
{ACAD_XDICTIONARY
360
1DF5
102
}
102
{ACAD_REACTORS
330
D79
102
}
330
D79
100
AcDbMaterial
  1
ByLayer
  0
MATERIAL
  5
D7C
102
{ACAD_XDICTIONARY
360
1DF9
102
}
102
{ACAD_REACTORS
330
D79
102
}
330
D79
100
AcDbMaterial
  1
Global
  0
MLINESTYLE
  5
D95
102
{ACAD_REACTORS
330
D94
102
}
330
D94
100
AcDbMlineStyle
  2
STANDARD
 70
     0
  3

 62
   256
 51
90.0
 52
90.0
 71
     2
 49
0.5
 62
   256
  6
BYLAYER
 49
-0.5
 62
   256
  6
BYLAYER
  0
ACDBPLACEHOLDER
  5
D78
102
{ACAD_REACTORS
330
D77
102
}
330
D77
  0
TABLESTYLE
  5
D9A
102
{ACAD_XDICTIONARY
360
1DFB
102
}
102
{ACAD_REACTORS
330
D99
102
}
330
D99
100
AcDbTableStyle
  3
Standard
 70
     0
 71
     0
 40
0.06
 41
0.06
280
     0
281
     0
  7
STANDARD
140
0.18
170
     2
 62
     0
 63
     7
283
     0
274
    -2
284
     1
 64
     0
275
    -2
285
     1
 65
     0
276
    -2
286
     1
 66
     0
277
    -2
287
     1
 67
     0
278
    -2
288
     1
 68
     0
279
    -2
289
     1
 69
     0
  7
STANDARD
140
0.25
170
     5
 62
     0
 63
     7
283
     0
274
    -2
284
     1
 64
     0
275
    -2
285
     1
 65
     0
276
    -2
286
     1
 66
     0
277
    -2
287
     1
 67
     0
278
    -2
288
     1
 68
     0
279
    -2
289
     1
 69
     0
  7
STANDARD
140
0.18
170
     5
 62
     0
 63
     7
283
     0
274
    -2
284
     1
 64
     0
275
    -2
285
     1
 65
     0
276
    -2
286
     1
 66
     0
277
    -2
287
     1
 67
     0
278
    -2
288
     1
 68
     0
279
    -2
289
     1
 69
     0
  0
VISUALSTYLE
  5
D83
102
{ACAD_REACTORS
330
D7D
102
}
330
D7D
100
AcDbVisualStyle
  2
2dWireframe
 70
     4
 71
     0
 72
     2
 73
     0
 90
        0
 40
-0.6
 41
-30.0
 62
     5
 63
     7
 74
     1
 91
        4
 64
     7
 65
   257
 75
     1
175
     1
 42
1.0
 92
        0
 66
   257
 43
1.0
 76
     1
 77
     6
 78
     2
 67
     7
 79
     5
170
     0
171
     0
290
     0
174
     0
 93
        1
 44
0.0
173
     0
291
     0
 45
0.0
1001
ACAD
1000
AcDbSavedByObjectVersion
1070
     0
  0
VISUALSTYLE
  5
D82
102
{ACAD_REACTORS
330
D7D
102
}
330
D7D
100
AcDbVisualStyle
  2
Basic
 70
     7
 71
     1
 72
     0
 73
     1
 90
        0
 40
-0.6
 41
-30.0
 62
     5
 63
     7
 74
     0
 91
        4
 64
     7
 65
   257
 75
     1
175
     1
 42
1.0
 92
        8
 66
     7
 43
1.0
 76
     1
 77
     6
 78
     2
 67
     7
 79
     5
170
     0
171
     0
290
     0
174
     0
 93
        1
 44
0.0
173
     0
291
     1
 45
0.0
1001
ACAD
1000
AcDbSavedByObjectVersion
1070
     0
  0
VISUALSTYLE
  5
D89
102
{ACAD_REACTORS
330
D7D
102
}
330
D7D
100
AcDbVisualStyle
  2
Brighten
 70
    12
 71
     2
 72
     2
 73
     0
 90
        0
 40
-0.6
 41
-30.0
 62
     5
 63
     7
 74
     1
 91
        4
 64
     7
 65
   257
 75
     1
175
     1
 42
1.0
 92
        8
 66
     7
 43
1.0
 76
     1
 77
     6
 78
     2
 67
     7
 79
     5
170
     0
171
     0
290
     0
174
     0
 93
        1
 44
50.0
173
     0
291
     1
 45
0.0
1001
ACAD
1000
AcDbSavedByObjectVersion
1070
     0
  0
VISUALSTYLE
  5
D8D
102
{ACAD_REACTORS
330
D7D
102
}
330
D7D
100
AcDbVisualStyle
  2
ColorChange
 70
    16
 71
     2
 72
     2
 73
     3
 90
        0
 40
-0.6
 41
-30.0
 62
     5
 63
     8
 74
     1
 91
        4
 64
     7
 65
   257
 75
     1
175
     1
 42
1.0
 92
        8
 66
     8
 43
1.0
 76
     1
 77
     6
 78
     2
 67
     7
 79
     5
170
     0
171
     0
290
     0
174
     0
 93
        1
 44
0.0
173
     0
291
     1
 45
0.0
1001
ACAD
1000
AcDbSavedByObjectVersion
1070
     0
  0
VISUALSTYLE
  5
D88
102
{ACAD_REACTORS
330
D7D
102
}
330
D7D
100
AcDbVisualStyle
  2
Dim
 70
    11
 71
     2
 72
     2
 73
     0
 90
        0
 40
-0.6
 41
-30.0
 62
     5
 63
     7
 74
     1
 91
        4
 64
     7
 65
   257
 75
     1
175
     1
 42
1.0
 92
        8
 66
     7
 43
1.0
 76
     1
 77
     6
 78
     2
 67
     7
 79
     5
170
     0
171
     0
290
     0
174
     0
 93
        1
 44
-50.0
173
     0
291
     1
 45
0.0
1001
ACAD
1000
AcDbSavedByObjectVersion
1070
     0
  0
VISUALSTYLE
  5
D8C
102
{ACAD_REACTORS
330
D7D
102
}
330
D7D
100
AcDbVisualStyle
  2
Facepattern
 70
    15
 71
     2
 72
     2
 73
     0
 90
        0
 40
-0.6
 41
-30.0
 62
     5
 63
     7
 74
     1
 91
        4
 64
     7
 65
   257
 75
     1
175
     1
 42
1.0
 92
        8
 66
     7
 43
1.0
 76
     1
 77
     6
 78
     2
 67
     7
 79
     5
170
     0
171
     0
290
     0
174
     0
 93
        1
 44
0.0
173
     0
291
     1
 45
0.0
1001
ACAD
1000
AcDbSavedByObjectVersion
1070
     0
  0
VISUALSTYLE
  5
D7E
102
{ACAD_REACTORS
330
D7D
102
}
330
D7D
100
AcDbVisualStyle
  2
Flat
 70
     0
 71
     2
 72
     1
 73
     1
 90
        2
 40
-0.6
 41
30.0
 62
     5
 63
     7
 74
     0
 91
        4
 64
     7
 65
   257
 75
     1
175
     1
 42
1.0
 92
        8
 66
     7
 43
1.0
 76
     1
 77
     6
 78
     2
 67
     7
 79
     5
170
     0
171
     0
290
     0
174
     0
 93
       13
 44
0.0
173
     0
291
     1
 45
0.0
1001
ACAD
1000
AcDbSavedByObjectVersion
1070
     0
  0
VISUALSTYLE
  5
D7F
102
{ACAD_REACTORS
330
D7D
102
}
330
D7D
100
AcDbVisualStyle
  2
FlatWithEdges
 70
     1
 71
     2
 72
     1
 73
     1
 90
        2
 40
-0.6
 41
30.0
 62
     5
 63
     7
 74
     1
 91
        4
 64
     7
 65
   257
 75
     1
175
     1
 42
1.0
 92
        0
 66
   257
 43
1.0
 76
     1
 77
     6
 78
     2
 67
     7
 79
     5
170
     0
171
     0
290
     0
174
     0
 93
       13
 44
0.0
173
     0
291
     1
 45
0.0
1001
ACAD
1000
AcDbSavedByObjectVersion
1070
     0
  0
VISUALSTYLE
  5
D80
102
{ACAD_REACTORS
330
D7D
102
}
330
D7D
100
AcDbVisualStyle
  2
Gouraud
 70
     2
 71
     2
 72
     2
 73
     1
 90
        2
 40
-0.6
 41
30.0
 62
     5
 63
     7
 74
     0
 91
        4
 64
     7
 65
   257
 75
     1
175
     1
 42
1.0
 92
        0
 66
     7
 43
1.0
 76
     1
 77
     6
 78
     2
 67
     7
 79
     5
170
     0
171
     0
290
     0
174
     0
 93
       13
 44
0.0
173
     0
291
     1
 45
0.0
1001
ACAD
1000
AcDbSavedByObjectVersion
1070
     0
  0
VISUALSTYLE
  5
D81
102
{ACAD_REACTORS
330
D7D
102
}
330
D7D
100
AcDbVisualStyle
  2
GouraudWithEdges
 70
     3
 71
     2
 72
     2
 73
     1
 90
        2
 40
-0.6
 41
30.0
 62
     5
 63
     7
 74
     1
 91
        4
 64
     7
 65
   257
 75
     1
175
     1
 42
1.0
 92
        0
 66
   257
 43
1.0
 76
     1
 77
     6
 78
     2
 67
     7
 79
     5
170
     0
171
     0
290
     0
174
     0
 93
       13
 44
0.0
173
     0
291
     1
 45
0.0
1001
ACAD
1000
AcDbSavedByObjectVersion
1070
     0
  0
VISUALSTYLE
  5
D8B
102
{ACAD_REACTORS
330
D7D
102
}
330
D7D
100
AcDbVisualStyle
  2
Linepattern
 70
    14
 71
     2
 72
     2
 73
     0
 90
        0
 40
-0.6
 41
-30.0
 62
     5
 63
     7
 74
     1
 91
        4
 64
     7
 65
   257
 75
     7
175
     7
 42
1.0
 92
        8
 66
     7
 43
1.0
 76
     1
 77
     6
 78
     2
 67
     7
 79
     5
170
     0
171
     0
290
     0
174
     0
 93
        1
 44
0.0
173
     0
291
     1
 45
0.0
1001
ACAD
1000
AcDbSavedByObjectVersion
1070
     0
  0
VISUALSTYLE
  5
D8A
102
{ACAD_REACTORS
330
D7D
102
}
330
D7D
100
AcDbVisualStyle
  2
Thicken
 70
    13
 71
     2
 72
     2
 73
     0
 90
        0
 40
-0.6
 41
-30.0
 62
     5
 63
     7
 74
     1
 91
        4
 64
     7
 65
   257
 75
     1
175
     1
 42
1.0
 92
       12
 66
     7
 43
1.0
 76
     1
 77
     6
 78
     2
 67
     7
 79
     5
170
     0
171
     0
290
     0
174
     0
 93
        1
 44
0.0
173
     0
291
     1
 45
0.0
1001
ACAD
1000
AcDbSavedByObjectVersion
1070
     0
  0
DICTIONARYVAR
  5
1C37
102
{ACAD_REACTORS
330
1C36
102
}
330
1C36
100
DictionaryVariables
280
     0
  1
STANDARD
  0
DICTIONARYVAR
  5
1DF3
102
{ACAD_REACTORS
330
1C36
102
}
330
1C36
100
DictionaryVariables
280
     0
  1
2
  0
DICTIONARYVAR
  5
1DF2
102
{ACAD_REACTORS
330
1C36
102
}
330
1C36
100
DictionaryVariables
280
     0
  1
1
  0
DICTIONARYVAR
  5
1DF1
102
{ACAD_REACTORS
330
1C36
102
}
330
1C36
100
DictionaryVariables
280
     0
  1
0
  0
DICTIONARYVAR
  5
1DF0
102
{ACAD_REACTORS
330
1C36
102
}
330
1C36
100
DictionaryVariables
280
     0
  1
127
  0
DICTIONARY
  5
1DFD
330
D9E
100
AcDbDictionary
280
     1
281
     1
  3
ACAD_XREC_ROUNDTRIP
360
1DFE
  0
DICTIONARY
  5
1DFF
330
DA2
100
AcDbDictionary
280
     1
281
     1
  3
ACAD_XREC_ROUNDTRIP
360
1E00
  0
DICTIONARY
  5
1DF7
330
D7B
100
AcDbDictionary
280
     1
281
     1
  3
ACAD_XREC_ROUNDTRIP
360
1DF8
  0
DICTIONARY
  5
1DF5
330
D7A
100
AcDbDictionary
280
     1
281
     1
  3
ACAD_XREC_ROUNDTRIP
360
1DF6
  0
DICTIONARY
  5
1DF9
330
D7C
100
AcDbDictionary
280
     1
281
     1
  3
ACAD_XREC_ROUNDTRIP
360
1DFA
  0
DICTIONARY
  5
1DFB
330
D9A
100
AcDbDictionary
280
     1
281
     1
  3
ACAD_XREC_ROUNDTRIP
360
1DFC
  0
XRECORD
  5
1DFE
102
{ACAD_REACTORS
330
1DFD
102
}
330
1DFD
100
AcDbXrecord
280
     1
102
SHADEPLOT
 70
     0
102
SHADEPLOTRESLEVEL
 70
     2
102
SHADEPLOTCUSTOMDPI
 70
   300
  0
XRECORD
  5
1E00
102
{ACAD_REACTORS
330
1DFF
102
}
330
1DFF
100
AcDbXrecord
280
     1
102
SHADEPLOT
 70
     0
102
SHADEPLOTRESLEVEL
 70
     2
102
SHADEPLOTCUSTOMDPI
 70
   300
  0
XRECORD
  5
1DF8
102
{ACAD_REACTORS
330
1DF7
102
}
330
1DF7
100
AcDbXrecord
280
     1
102
MATERIAL
148
0.0
149
0.0
149
0.0
 93
        0
 94
       63
282
     0
 72
     1
 77
     1
171
     1
175
     1
179
     1
273
     0
  0
XRECORD
  5
1DF6
102
{ACAD_REACTORS
330
1DF5
102
}
330
1DF5
100
AcDbXrecord
280
     1
102
MATERIAL
148
0.0
149
0.0
149
0.0
 93
        0
 94
       63
282
     0
 72
     1
 77
     1
171
     1
175
     1
179
     1
273
     0
  0
XRECORD
  5
1DFA
102
{ACAD_REACTORS
330
1DF9
102
}
330
1DF9
100
AcDbXrecord
280
     1
102
MATERIAL
148
0.0
149
0.0
149
0.0
 93
        0
 94
       63
282
     0
 72
     1
 77
     1
171
     1
175
     1
179
     1
273
     0
  0
XRECORD
  5
1DFC
102
{ACAD_REACTORS
330
1DFB
102
}
330
1DFB
100
AcDbXrecord
280
     1
102
ACAD_ROUNDTRIP_PRE2007_TABLESTYLE
 90
      512
 91
        0
  1

 92
      512
 93
        0
  2

 94
      512
 95
        0
  3

  0
ENDSEC
  0
EOF
