  0
SECTION
  2
HEADER
  9
$ACADVER
  1
AC1018
  9
$ACADMAINTVER
 70
     0
  9
$DWGCODEPAGE
  3
ANSI_1252
  9
$INSBASE
 10
0.0
 20
0.0
 30
0.0
  9
$EXTMIN
 10
-390.6500007148219
 20
-255.9407432677995
 30
0.0
  9
$EXTMAX
 10
-93.65000071482382
 20
-45.94074326779938
 30
0.0
  9
$LIMMIN
 10
0.0
 20
0.0
  9
$LIMMAX
 10
12.0
 20
9.0
  9
$ORTHOMODE
 70
     0
  9
$REGENMODE
 70
     1
  9
$FILLMODE
 70
     1
  9
$QTEXTMODE
 70
     0
  9
$MIRRTEXT
 70
     1
  9
$LTSCALE
 40
1.0
  9
$ATTMODE
 70
     1
  9
$TEXTSIZE
 40
0.2
  9
$TRACEWID
 40
0.05
  9
$TEXTSTYLE
  7
Standard
  9
$CLAYER
  8
0
  9
$CELTYPE
  6
ByLayer
  9
$CECOLOR
 62
   256
  9
$CELTSCALE
 40
1.0
  9
$DISPSILH
 70
     0
  9
$DIMSCALE
 40
1.0
  9
$DIMASZ
 40
0.18
  9
$DIMEXO
 40
0.0625
  9
$DIMDLI
 40
0.38
  9
$DIMRND
 40
0.0
  9
$DIMDLE
 40
0.0
  9
$DIMEXE
 40
0.18
  9
$DIMTP
 40
0.0
  9
$DIMTM
 40
0.0
  9
$DIMTXT
 40
0.18
  9
$DIMCEN
 40
0.09
  9
$DIMTSZ
 40
0.0
  9
$DIMTOL
 70
     0
  9
$DIMLIM
 70
     0
  9
$DIMTIH
 70
     1
  9
$DIMTOH
 70
     1
  9
$DIMSE1
 70
     0
  9
$DIMSE2
 70
     0
  9
$DIMTAD
 70
     0
  9
$DIMZIN
 70
     0
  9
$DIMBLK
  1

  9
$DIMASO
 70
     1
  9
$DIMSHO
 70
     1
  9
$DIMPOST
  1

  9
$DIMAPOST
  1

  9
$DIMALT
 70
     0
  9
$DIMALTD
 70
     2
  9
$DIMALTF
 40
25.4
  9
$DIMLFAC
 40
1.0
  9
$DIMTOFL
 70
     0
  9
$DIMTVP
 40
0.0
  9
$DIMTIX
 70
     0
  9
$DIMSOXD
 70
     0
  9
$DIMSAH
 70
     0
  9
$DIMBLK1
  1

  9
$DIMBLK2
  1

  9
$DIMSTYLE
  2
Standard
  9
$DIMCLRD
 70
     0
  9
$DIMCLRE
 70
     0
  9
$DIMCLRT
 70
     0
  9
$DIMTFAC
 40
1.0
  9
$DIMGAP
 40
0.09
  9
$DIMJUST
 70
     0
  9
$DIMSD1
 70
     0
  9
$DIMSD2
 70
     0
  9
$DIMTOLJ
 70
     1
  9
$DIMTZIN
 70
     0
  9
$DIMALTZ
 70
     0
  9
$DIMALTTZ
 70
     0
  9
$DIMUPT
 70
     0
  9
$DIMDEC
 70
     4
  9
$DIMTDEC
 70
     4
  9
$DIMALTU
 70
     2
  9
$DIMALTTD
 70
     2
  9
$DIMTXSTY
  7
Standard
  9
$DIMAUNIT
 70
     0
  9
$DIMADEC
 70
     0
  9
$DIMALTRND
 40
0.0
  9
$DIMAZIN
 70
     0
  9
$DIMDSEP
 70
    46
  9
$DIMATFIT
 70
     3
  9
$DIMFRAC
 70
     0
  9
$DIMLDRBLK
  1

  9
$DIMLUNIT
 70
     2
  9
$DIMLWD
 70
    -2
  9
$DIMLWE
 70
    -2
  9
$DIMTMOVE
 70
     0
  9
$LUNITS
 70
     2
  9
$LUPREC
 70
     4
  9
$SKETCHINC
 40
0.1
  9
$FILLETRAD
 40
0.5
  9
$AUNITS
 70
     0
  9
$AUPREC
 70
     0
  9
$MENU
  1
.
  9
$ELEVATION
 40
0.0
  9
$PELEVATION
 40
0.0
  9
$THICKNESS
 40
0.0
  9
$LIMCHECK
 70
     0
  9
$CHAMFERA
 40
0.5
  9
$CHAMFERB
 40
0.5
  9
$CHAMFERC
 40
1.0
  9
$CHAMFERD
 40
0.0
  9
$SKPOLY
 70
     0
  9
$TDCREATE
 40
2458137.849729734
  9
$TDUCREATE
 40
2458137.808063067
  9
$TDUPDATE
 40
2458137.849730278
  9
$TDUUPDATE
 40
2458137.808063611
  9
$TDINDWG
 40
0.0000000116
  9
$TDUSRTIMER
 40
0.0000000116
  9
$USRTIMER
 70
     1
  9
$ANGBASE
 50
0.0
  9
$ANGDIR
 70
     0
  9
$PDMODE
 70
     0
  9
$PDSIZE
 40
0.0
  9
$PLINEWID
 40
0.0
  9
$SPLFRAME
 70
     0
  9
$SPLINETYPE
 70
     6
  9
$SPLINESEGS
 70
     8
  9
$HANDSEED
  5
375
  9
$SURFTAB1
 70
     6
  9
$SURFTAB2
 70
     6
  9
$SURFTYPE
 70
     6
  9
$SURFU
 70
     6
  9
$SURFV
 70
     6
  9
$UCSBASE
  2

  9
$UCSNAME
  2

  9
$UCSORG
 10
0.0
 20
0.0
 30
0.0
  9
$UCSXDIR
 10
1.0
 20
0.0
 30
0.0
  9
$UCSYDIR
 10
0.0
 20
1.0
 30
0.0
  9
$UCSORTHOREF
  2

  9
$UCSORTHOVIEW
 70
     0
  9
$UCSORGTOP
 10
0.0
 20
0.0
 30
0.0
  9
$UCSORGBOTTOM
 10
0.0
 20
0.0
 30
0.0
  9
$UCSORGLEFT
 10
0.0
 20
0.0
 30
0.0
  9
$UCSORGRIGHT
 10
0.0
 20
0.0
 30
0.0
  9
$UCSORGFRONT
 10
0.0
 20
0.0
 30
0.0
  9
$UCSORGBACK
 10
0.0
 20
0.0
 30
0.0
  9
$PUCSBASE
  2

  9
$PUCSNAME
  2

  9
$PUCSORG
 10
0.0
 20
0.0
 30
0.0
  9
$PUCSXDIR
 10
1.0
 20
0.0
 30
0.0
  9
$PUCSYDIR
 10
0.0
 20
1.0
 30
0.0
  9
$PUCSORTHOREF
  2

  9
$PUCSORTHOVIEW
 70
     0
  9
$PUCSORGTOP
 10
0.0
 20
0.0
 30
0.0
  9
$PUCSORGBOTTOM
 10
0.0
 20
0.0
 30
0.0
  9
$PUCSORGLEFT
 10
0.0
 20
0.0
 30
0.0
  9
$PUCSORGRIGHT
 10
0.0
 20
0.0
 30
0.0
  9
$PUCSORGFRONT
 10
0.0
 20
0.0
 30
0.0
  9
$PUCSORGBACK
 10
0.0
 20
0.0
 30
0.0
  9
$USERI1
 70
     0
  9
$USERI2
 70
     0
  9
$USERI3
 70
     0
  9
$USERI4
 70
     0
  9
$USERI5
 70
     0
  9
$USERR1
 40
18.1
  9
$USERR2
 40
0.0
  9
$USERR3
 40
0.0
  9
$USERR4
 40
0.0
  9
$USERR5
 40
0.0
  9
$WORLDVIEW
 70
     1
  9
$SHADEDGE
 70
     3
  9
$SHADEDIF
 70
    70
  9
$TILEMODE
 70
     1
  9
$MAXACTVP
 70
    64
  9
$PINSBASE
 10
0.0
 20
0.0
 30
0.0
  9
$PLIMCHECK
 70
     0
  9
$PEXTMIN
 10
1.00000000000000E+20
 20
1.00000000000000E+20
 30
1.00000000000000E+20
  9
$PEXTMAX
 10
-1.00000000000000E+20
 20
-1.00000000000000E+20
 30
-1.00000000000000E+20
  9
$PLIMMIN
 10
0.0
 20
0.0
  9
$PLIMMAX
 10
12.0
 20
9.0
  9
$UNITMODE
 70
     0
  9
$VISRETAIN
 70
     1
  9
$PLINEGEN
 70
     0
  9
$PSLTSCALE
 70
     1
  9
$TREEDEPTH
 70
  3020
  9
$CMLSTYLE
  2
Standard
  9
$CMLJUST
 70
     0
  9
$CMLSCALE
 40
1.0
  9
$PROXYGRAPHICS
 70
     1
  9
$MEASUREMENT
 70
     1
  9
$CELWEIGHT
370
    -1
  9
$ENDCAPS
280
     0
  9
$JOINSTYLE
280
     0
  9
$LWDISPLAY
290
     0
  9
$INSUNITS
 70
     4
  9
$HYPERLINKBASE
  1

  9
$STYLESHEET
  1

  9
$XEDIT
290
     1
  9
$CEPSNTYPE
380
     0
  9
$PSTYLEMODE
290
     1
  9
$FINGERPRINTGUID
  2
{0FD6ECDF-432D-4E64-AF88-6081C988110D}
  9
$VERSIONGUID
  2
{FAEB1C32-E019-11D5-929B-00C0DF256EC4}
  9
$EXTNAMES
290
     1
  9
$PSVPSCALE
 40
0.0
  9
$OLESTARTUP
290
     0
  9
$SORTENTS
280
   127
  9
$INDEXCTL
280
     0
  9
$HIDETEXT
280
     1
  9
$XCLIPFRAME
290
     0
  9
$HALOGAP
280
     0
  9
$OBSCOLOR
 70
   257
  9
$OBSLTYPE
280
     0
  9
$INTERSECTIONDISPLAY
280
     0
  9
$INTERSECTIONCOLOR
 70
   257
  9
$DIMASSOC
280
     2
  9
$PROJECTNAME
  1

  0
ENDSEC
  0
SECTION
  2
CLASSES
  0
CLASS
  1
ACDBDICTIONARYWDFLT
  2
AcDbDictionaryWithDefault
  3
ObjectDBX Classes
 90
        0
 91
        4
280
     0
281
     0
  0
CLASS
  1
VISUALSTYLE
  2
AcDbVisualStyle
  3
ObjectDBX Classes
 90
     4095
 91
        4
280
     0
281
     0
  0
CLASS
  1
MATERIAL
  2
AcDbMaterial
  3
ObjectDBX Classes
 90
     1153
 91
        4
280
     0
281
     0
  0
ENDSEC
  0
SECTION
  2
TABLES
  0
TABLE
  2
VPORT
  5
8
330
0
100
AcDbSymbolTable
 70
     1
  0
VPORT
  5
29
330
8
100
AcDbSymbolTableRecord
100
AcDbViewportTableRecord
  2
*Active
 70
     0
 10
0.0
 20
0.0
 11
1.0
 21
1.0
 12
-242.1500007148229
 22
-150.9407432677994
 13
0.0
 23
0.0
 14
0.5
 24
0.5
 15
0.5
 25
0.5
 16
0.0
 26
0.0
 36
1.0
 17
0.0
 27
0.0
 37
0.0
 40
231.0000000000001
 41
1.60267857142857
 42
50.0
 43
0.0
 44
0.0
 50
0.0
 51
0.0
 71
     0
 72
   100
 73
     1
 74
     3
 75
     0
 76
     0
 77
     0
 78
     0
281
     0
 65
     1
110
0.0
120
0.0
130
0.0
111
1.0
121
0.0
131
0.0
112
0.0
122
1.0
132
0.0
 79
     0
146
0.0
  0
ENDTAB
  0
TABLE
  2
LTYPE
  5
5
330
0
100
AcDbSymbolTable
 70
     8
  0
LTYPE
  5
14
330
5
100
AcDbSymbolTableRecord
100
AcDbLinetypeTableRecord
  2
ByBlock
 70
     0
  3

 72
    65
 73
     0
 40
0.0
  0
LTYPE
  5
15
330
5
100
AcDbSymbolTableRecord
100
AcDbLinetypeTableRecord
  2
ByLayer
 70
     0
  3

 72
    65
 73
     0
 40
0.0
  0
LTYPE
  5
16
330
5
100
AcDbSymbolTableRecord
100
AcDbLinetypeTableRecord
  2
Continuous
 70
     0
  3
Solid line
 72
    65
 73
     0
 40
0.0
  0
LTYPE
  5
3F
330
5
100
AcDbSymbolTableRecord
100
AcDbLinetypeTableRecord
  2
DASHED
 70
     0
  3
Dashed
 72
    65
 73
     2
 40
15.0
 49
7.0
 74
     0
 49
-8.0
 74
     0
  0
LTYPE
  5
40
330
5
100
AcDbSymbolTableRecord
100
AcDbLinetypeTableRecord
  2
DOTTED
 70
     0
  3
Dotted
 72
    65
 73
     2
 40
1.0
 49
0.0
 74
     0
 49
-1.0
 74
     0
  0
LTYPE
  5
41
330
5
100
AcDbSymbolTableRecord
100
AcDbLinetypeTableRecord
  2
DOT_CENTER
 70
     0
  3
Dot_Center
 72
    65
 73
     4
 40
14.0
 49
12.0
 74
     0
 49
-1.0
 74
     0
 49
0.0
 74
     0
 49
-1.0
 74
     0
  0
LTYPE
  5
42
330
5
100
AcDbSymbolTableRecord
100
AcDbLinetypeTableRecord
  2
LONG_DASHED
 70
     0
  3
Long_Dashed
 72
    65
 73
     2
 40
15.0
 49
10.0
 74
     0
 49
-5.0
 74
     0
  0
LTYPE
  5
43
330
5
100
AcDbSymbolTableRecord
100
AcDbLinetypeTableRecord
  2
DASH_CENTER
 70
     0
  3
Dash_Center
 72
    65
 73
     4
 40
14.0
 49
11.0
 74
     0
 49
-1.0
 74
     0
 49
1.0
 74
     0
 49
-1.0
 74
     0
  0
LTYPE
  5
44
330
5
100
AcDbSymbolTableRecord
100
AcDbLinetypeTableRecord
  2
PHANTOM
 70
     0
  3
Phantom
 72
    65
 73
     6
 40
13.0
 49
10.0
 74
     0
 49
-1.0
 74
     0
 49
0.0
 74
     0
 49
-1.0
 74
     0
 49
0.0
 74
     0
 49
-1.0
 74
     0
  0
LTYPE
  5
45
330
5
100
AcDbSymbolTableRecord
100
AcDbLinetypeTableRecord
  2
CENTER_DASH_DASH
 70
     0
  3
Center_Dash_Dash
 72
    65
 73
     6
 40
14.0
 49
9.0
 74
     0
 49
-1.0
 74
     0
 49
1.0
 74
     0
 49
-1.0
 74
     0
 49
1.0
 74
     0
 49
-1.0
 74
     0
  0
ENDTAB
  0
TABLE
  2
LAYER
  5
2
330
0
100
AcDbSymbolTable
 70
     2
  0
LAYER
  5
10
330
2
100
AcDbSymbolTableRecord
100
AcDbLayerTableRecord
  2
0
 70
     0
 62
     7
  6
Continuous
370
    -3
390
F
  0
LAYER
  5
46
330
2
100
AcDbSymbolTableRecord
100
AcDbLayerTableRecord
  2
1
 70
     0
 62
     7
  6
Continuous
370
    -3
390
F
  0
ENDTAB
  0
TABLE
  2
STYLE
  5
3
330
0
100
AcDbSymbolTable
 70
     5
  0
STYLE
  5
11
330
3
100
AcDbSymbolTableRecord
100
AcDbTextStyleTableRecord
  2
Standard
 70
     0
 40
0.0
 41
1.0
 50
0.0
 71
     0
 42
0.2
  3
txt
  4

  0
STYLE
  5
17D
330
3
100
AcDbSymbolTableRecord
100
AcDbTextStyleTableRecord
  2
CONVERTER_11
 70
     0
 40
0.0
 41
0.9
 50
0.0
 71
     0
 42
0.2
  3
txt.shx
  4

  0
STYLE
  5
184
330
3
100
AcDbSymbolTableRecord
100
AcDbTextStyleTableRecord
  2
CONVERTER_12
 70
     0
 40
0.0
 41
0.81
 50
0.0
 71
     0
 42
0.2
  3
txt.shx
  4

  0
STYLE
  5
19A
330
3
100
AcDbSymbolTableRecord
100
AcDbTextStyleTableRecord
  2
CONVERTER_13
 70
     0
 40
0.0
 41
0.72
 50
0.0
 71
     0
 42
0.2
  3
txt.shx
  4

  0
STYLE
  5
19D
330
3
100
AcDbSymbolTableRecord
100
AcDbTextStyleTableRecord
  2
CONVERTER_14
 70
     0
 40
0.0
 41
0.855
 50
0.0
 71
     0
 42
0.2
  3
txt.shx
  4

  0
ENDTAB
  0
TABLE
  2
VIEW
  5
6
330
0
100
AcDbSymbolTable
 70
     0
  0
ENDTAB
  0
TABLE
  2
UCS
  5
7
330
0
100
AcDbSymbolTable
 70
     0
  0
ENDTAB
  0
TABLE
  2
APPID
  5
9
330
0
100
AcDbSymbolTable
 70
     1
  0
APPID
  5
12
330
9
100
AcDbSymbolTableRecord
100
AcDbRegAppTableRecord
  2
ACAD
 70
     0
  0
ENDTAB
  0
TABLE
  2
DIMSTYLE
  5
A
330
0
100
AcDbSymbolTable
 70
     4
100
AcDbDimStyleTable
  0
DIMSTYLE
105
27
330
A
100
AcDbSymbolTableRecord
100
AcDbDimStyleTableRecord
  2
Standard
 70
     0
178
     0
340
11
  0
DIMSTYLE
105
26C
102
{ACAD_REACTORS
330
26D
102
}
330
A
100
AcDbSymbolTableRecord
100
AcDbDimStyleTableRecord
  2
ME10_DIM_10
 70
     0
 41
7.0
 42
1.0
 44
3.0
 73
     0
 74
     0
 77
     1
 78
     8
140
7.0
147
4.0
172
     1
173
     1
174
     1
175
     1
176
     2
177
     2
271
     2
178
     3
271
     2
340
17D
  0
DIMSTYLE
105
340
102
{ACAD_REACTORS
330
341
102
}
330
A
100
AcDbSymbolTableRecord
100
AcDbDimStyleTableRecord
  2
ME10_DIM_11
 70
     0
 41
7.0
 42
1.0
 44
3.0
 73
     0
 74
     0
 77
     1
 78
     8
140
7.0
147
4.0
172
     1
173
     1
174
     1
175
     1
176
     2
177
     2
271
     2
178
     3
271
     2
340
17D
  0
DIMSTYLE
105
34B
102
{ACAD_REACTORS
330
34C
102
}
330
A
100
AcDbSymbolTableRecord
100
AcDbDimStyleTableRecord
  2
ME10_DIM_12
 70
     0
 41
7.0
 42
1.0
 44
3.0
 73
     0
 74
     0
 77
     1
 78
     8
140
7.0
147
4.0
172
     1
173
     1
174
     1
175
     1
176
     2
177
     2
271
     2
178
     3
271
     2
340
17D
  0
ENDTAB
  0
TABLE
  2
BLOCK_RECORD
  5
1
330
0
100
AcDbSymbolTable
 70
    20
  0
BLOCK_RECORD
  5
1F
330
1
100
AcDbSymbolTableRecord
100
AcDbBlockTableRecord
  2
*Model_Space
340
22
  0
BLOCK_RECORD
  5
1B
330
1
100
AcDbSymbolTableRecord
100
AcDbBlockTableRecord
  2
*Paper_Space
340
1E
  0
BLOCK_RECORD
  5
23
330
1
100
AcDbSymbolTableRecord
100
AcDbBlockTableRecord
  2
*Paper_Space0
340
26
  0
BLOCK_RECORD
  5
47
330
1
100
AcDbSymbolTableRecord
100
AcDbBlockTableRecord
  2
_rahmen
340
0
102
{BLKREFS
331
4E
102
}
  0
BLOCK_RECORD
  5
4A
330
1
100
AcDbSymbolTableRecord
100
AcDbBlockTableRecord
  2
_punkt
340
0
102
{BLKREFS
331
4F
102
}
  0
BLOCK_RECORD
  5
4D
330
1
100
AcDbSymbolTableRecord
100
AcDbBlockTableRecord
  2
A4I_CS
340
0
102
{BLKREFS
331
7D
102
}
  0
BLOCK_RECORD
  5
52
330
1
100
AcDbSymbolTableRecord
100
AcDbBlockTableRecord
  2
HC-RBO_16_BU-select__1
340
0
102
{BLKREFS
331
56
102
}
  0
BLOCK_RECORD
  5
55
330
1
100
AcDbSymbolTableRecord
100
AcDbBlockTableRecord
  2
Allg1
340
0
102
{BLKREFS
331
7E
102
}
  0
BLOCK_RECORD
  5
59
330
1
100
AcDbSymbolTableRecord
100
AcDbBlockTableRecord
  2
HC-RBO_16_BU-select__2
340
0
102
{BLKREFS
331
5D
102
}
  0
BLOCK_RECORD
  5
5C
330
1
100
AcDbSymbolTableRecord
100
AcDbBlockTableRecord
  2
Drfsicht1
340
0
102
{BLKREFS
331
7F
102
}
  0
BLOCK_RECORD
  5
60
330
1
100
AcDbSymbolTableRecord
100
AcDbBlockTableRecord
  2
HC-RBO_16_BU-select__3
340
0
102
{BLKREFS
331
64
102
}
  0
BLOCK_RECORD
  5
63
330
1
100
AcDbSymbolTableRecord
100
AcDbBlockTableRecord
  2
Rckans1
340
0
102
{BLKREFS
331
80
102
}
  0
BLOCK_RECORD
  5
67
330
1
100
AcDbSymbolTableRecord
100
AcDbBlockTableRecord
  2
HC-RBO_16_BU-select__4
340
0
102
{BLKREFS
331
6B
102
}
  0
BLOCK_RECORD
  5
6A
330
1
100
AcDbSymbolTableRecord
100
AcDbBlockTableRecord
  2
SA_Links1
340
0
102
{BLKREFS
331
81
102
}
  0
BLOCK_RECORD
  5
6E
330
1
100
AcDbSymbolTableRecord
100
AcDbBlockTableRecord
  2
HC-RBO_16_BU-select__5
340
0
102
{BLKREFS
331
72
102
}
  0
BLOCK_RECORD
  5
71
330
1
100
AcDbSymbolTableRecord
100
AcDbBlockTableRecord
  2
SA_Rechts1
340
0
102
{BLKREFS
331
82
102
}
  0
BLOCK_RECORD
  5
75
330
1
100
AcDbSymbolTableRecord
100
AcDbBlockTableRecord
  2
HC-RBO_16_BU-select__6
340
0
102
{BLKREFS
331
79
102
}
  0
BLOCK_RECORD
  5
78
330
1
100
AcDbSymbolTableRecord
100
AcDbBlockTableRecord
  2
Vordans1
340
0
102
{BLKREFS
331
83
102
}
  0
BLOCK_RECORD
  5
7C
330
1
100
AcDbSymbolTableRecord
100
AcDbBlockTableRecord
  2
1
340
0
102
{BLKREFS
331
86
102
}
  0
BLOCK_RECORD
  5
263
330
1
100
AcDbSymbolTableRecord
100
AcDbBlockTableRecord
  2
*D17
340
0
  0
BLOCK_RECORD
  5
337
330
1
100
AcDbSymbolTableRecord
100
AcDbBlockTableRecord
  2
*D18
340
0
  0
BLOCK_RECORD
  5
342
330
1
100
AcDbSymbolTableRecord
100
AcDbBlockTableRecord
  2
*D19
340
0
  0
ENDTAB
  0
ENDSEC
  0
SECTION
  2
BLOCKS
  0
BLOCK
  5
20
330
1F
100
AcDbEntity
  8
0
100
AcDbBlockBegin
  2
*Model_Space
 70
     0
 10
0.0
 20
0.0
 30
0.0
  3
*Model_Space
  1

  0
ENDBLK
  5
21
330
1F
100
AcDbEntity
  8
0
100
AcDbBlockEnd
  0
BLOCK
  5
1C
330
1B
100
AcDbEntity
 67
     1
  8
0
100
AcDbBlockBegin
  2
*Paper_Space
 70
     0
 10
0.0
 20
0.0
 30
0.0
  3
*Paper_Space
  1

  0
ENDBLK
  5
1D
330
1B
100
AcDbEntity
 67
     1
  8
0
100
AcDbBlockEnd
  0
BLOCK
  5
24
330
23
100
AcDbEntity
  8
0
100
AcDbBlockBegin
  2
*Paper_Space0
 70
     0
 10
0.0
 20
0.0
 30
0.0
  3
*Paper_Space0
  1

  0
ENDBLK
  5
25
330
23
100
AcDbEntity
  8
0
100
AcDbBlockEnd
  0
BLOCK
  5
48
330
47
100
AcDbEntity
  8
0
100
AcDbBlockBegin
  2
_rahmen
 70
     0
 10
-98.65000071482281
 20
-255.9407432677995
 30
0.0
  3
_rahmen
  1

  0
LINE
  5
87
330
47
100
AcDbEntity
  8
1
  6
Continuous
 62
     6
100
AcDbLine
 10
-228.1948052415728
 20
-225.4407432677994
 30
0.0
 11
-98.65000071482112
 21
-225.4407432677994
 31
0.0
  0
LINE
  5
88
330
47
100
AcDbEntity
  8
1
  6
Continuous
 62
     7
100
AcDbLine
 10
-209.9948052415728
 20
-246.6907432677994
 30
0.0
 11
-191.7948052415729
 21
-246.6907432677994
 31
0.0
  0
LINE
  5
89
330
47
100
AcDbEntity
  8
1
  6
Continuous
 62
     6
100
AcDbLine
 10
-209.9948052415728
 20
-250.9407432677994
 30
0.0
 11
-228.1948052415728
 21
-250.9407432677995
 31
0.0
  0
LINE
  5
8A
330
47
100
AcDbEntity
  8
1
  6
Continuous
 62
     7
100
AcDbLine
 10
-209.9948052415728
 20
-246.6907432677994
 30
0.0
 11
-209.9948052415728
 21
-250.9407432677994
 31
0.0
  0
LINE
  5
8B
330
47
100
AcDbEntity
  8
1
  6
Continuous
 62
     7
100
AcDbLine
 10
-191.7948052415729
 20
-246.6907432677994
 30
0.0
 11
-191.7948052415729
 21
-250.9407432677995
 31
0.0
  0
LINE
  5
8C
330
47
100
AcDbEntity
  8
1
  6
Continuous
 62
     7
100
AcDbLine
 10
-228.1948052415728
 20
-246.6907432677995
 30
0.0
 11
-228.1948052415728
 21
-250.9407432677995
 31
0.0
  0
LINE
  5
8D
330
47
100
AcDbEntity
  8
1
  6
Continuous
 62
     7
100
AcDbLine
 10
-228.1948052415728
 20
-246.6907432677995
 30
0.0
 11
-209.9948052415728
 21
-246.6907432677994
 31
0.0
  0
LINE
  5
8E
330
47
100
AcDbEntity
  8
1
  6
Continuous
 62
     2
100
AcDbLine
 10
-218.9581503550102
 20
-227.3157432677995
 30
0.0
 11
-218.9581503550102
 21
-232.3157432677995
 31
0.0
  0
LINE
  5
8F
330
47
100
AcDbEntity
  8
1
  6
Continuous
 62
     2
100
AcDbLine
 10
-218.9581503550102
 20
-232.3157432677995
 30
0.0
 11
-223.9581503550102
 21
-231.0657432677995
 31
0.0
  0
LINE
  5
90
330
47
100
AcDbEntity
  8
1
  6
Continuous
 62
     2
100
AcDbLine
 10
-223.9581503550102
 20
-231.0657432677995
 30
0.0
 11
-223.9581503550102
 21
-228.5657432677995
 31
0.0
  0
LINE
  5
91
330
47
100
AcDbEntity
  8
1
  6
Continuous
 62
     2
100
AcDbLine
 10
-223.9581503550102
 20
-228.5657432677995
 30
0.0
 11
-218.9581503550102
 21
-227.3157432677995
 31
0.0
  0
LINE
  5
92
330
47
100
AcDbEntity
  8
1
  6
Continuous
 62
     6
100
AcDbLine
 10
-350.650000714821
 20
-250.9407432677994
 30
0.0
 11
-385.6500007148209
 21
-250.9407432677994
 31
0.0
  0
LINE
  5
93
330
47
100
AcDbEntity
  8
1
  6
Continuous
 62
     6
100
AcDbLine
 10
-98.65000071482112
 20
-233.9407432677994
 30
0.0
 11
-98.65000071482152
 21
-242.4407432677994
 31
0.0
  0
LINE
  5
94
330
47
100
AcDbEntity
  8
1
  6
Continuous
 62
     6
100
AcDbLine
 10
-191.7948052415729
 20
-250.9407432677995
 30
0.0
 11
-192.1500007148228
 21
-250.9407432677994
 31
0.0
  0
LINE
  5
95
330
47
100
AcDbEntity
  8
1
  6
Continuous
 62
     6
100
AcDbLine
 10
-344.450000714823
 20
-250.9407432677995
 30
0.0
 11
-350.650000714821
 21
-250.9407432677994
 31
0.0
  0
LINE
  5
96
330
47
100
AcDbEntity
  8
1
  6
Continuous
 62
     7
100
AcDbLine
 10
-191.7948052415729
 20
-233.9407432677994
 30
0.0
 11
-191.7948052415729
 21
-246.6907432677994
 31
0.0
  0
LINE
  5
97
330
47
100
AcDbEntity
  8
1
  6
Continuous
 62
     7
100
AcDbLine
 10
-228.1948052415728
 20
-233.9407432677994
 30
0.0
 11
-228.1948052415728
 21
-246.6907432677995
 31
0.0
  0
LINE
  5
98
330
47
100
AcDbEntity
  8
1
  6
Continuous
 62
     6
100
AcDbLine
 10
-242.1500007148228
 20
-250.9407432677994
 30
0.0
 11
-292.150000714823
 21
-250.9407432677994
 31
0.0
  0
LINE
  5
99
330
47
100
AcDbEntity
  8
1
  6
Continuous
 62
     6
100
AcDbLine
 10
-344.450000714823
 20
-250.9407432677995
 30
0.0
 11
-342.1500007148228
 21
-250.9407432677994
 31
0.0
  0
LINE
  5
9A
330
47
100
AcDbEntity
  8
1
  6
Continuous
 62
     6
100
AcDbLine
 10
-191.7948052415729
 20
-250.9407432677995
 30
0.0
 11
-142.1500007148228
 21
-250.9407432677994
 31
0.0
  0
LINE
  5
9B
330
47
100
AcDbEntity
  8
1
  6
Continuous
 62
     6
100
AcDbLine
 10
-98.65000071482281
 20
-250.9407432677994
 30
0.0
 11
-98.65000071482152
 21
-242.4407432677994
 31
0.0
  0
LINE
  5
9C
330
47
100
AcDbEntity
  8
1
  6
Continuous
 62
     2
100
AcDbLine
 10
-390.6500007148219
 20
-250.9407432677994
 30
0.0
 11
-390.6500007148219
 21
-255.9407432677995
 31
0.0
  0
LINE
  5
9D
330
47
100
AcDbEntity
  8
1
  6
Continuous
 62
     2
100
AcDbLine
 10
-385.6500007148209
 20
-250.9407432677994
 30
0.0
 11
-390.6500007148219
 21
-250.9407432677994
 31
0.0
  0
LINE
  5
9E
330
47
100
AcDbEntity
  8
1
  6
Continuous
 62
     2
100
AcDbLine
 10
-385.6500007148209
 20
-255.9407432677995
 30
0.0
 11
-342.1500007148228
 21
-255.9407432677995
 31
0.0
  0
LINE
  5
9F
330
47
100
AcDbEntity
  8
1
  6
Continuous
 62
     2
100
AcDbLine
 10
-385.6500007148209
 20
-250.9407432677994
 30
0.0
 11
-385.6500007148209
 21
-255.9407432677995
 31
0.0
  0
LINE
  5
A0
330
47
100
AcDbEntity
  8
1
  6
Continuous
 62
     2
100
AcDbLine
 10
-142.1500007148228
 20
-255.9407432677995
 30
0.0
 11
-192.1500007148228
 21
-255.9407432677995
 31
0.0
  0
LINE
  5
A1
330
47
100
AcDbEntity
  8
1
  6
Continuous
 62
     2
100
AcDbLine
 10
-142.1500007148228
 20
-255.9407432677995
 30
0.0
 11
-142.1500007148228
 21
-250.9407432677994
 31
0.0
  0
LINE
  5
A2
330
47
100
AcDbEntity
  8
1
  6
Continuous
 62
     2
100
AcDbLine
 10
-192.1500007148228
 20
-255.9407432677995
 30
0.0
 11
-192.1500007148228
 21
-250.9407432677994
 31
0.0
  0
LINE
  5
A3
330
47
100
AcDbEntity
  8
1
  6
Continuous
 62
     2
100
AcDbLine
 10
-242.1500007148228
 20
-255.9407432677995
 30
0.0
 11
-192.1500007148228
 21
-255.9407432677995
 31
0.0
  0
LINE
  5
A4
330
47
100
AcDbEntity
  8
1
  6
Continuous
 62
     2
100
AcDbLine
 10
-242.1500007148228
 20
-255.9407432677995
 30
0.0
 11
-242.1500007148228
 21
-250.9407432677994
 31
0.0
  0
LINE
  5
A5
330
47
100
AcDbEntity
  8
1
  6
Continuous
 62
     2
100
AcDbLine
 10
-292.150000714823
 20
-255.9407432677995
 30
0.0
 11
-242.1500007148228
 21
-255.9407432677995
 31
0.0
  0
LINE
  5
A6
330
47
100
AcDbEntity
  8
1
  6
Continuous
 62
     2
100
AcDbLine
 10
-292.150000714823
 20
-255.9407432677995
 30
0.0
 11
-292.150000714823
 21
-250.9407432677994
 31
0.0
  0
LINE
  5
A7
330
47
100
AcDbEntity
  8
1
  6
Continuous
 62
     2
100
AcDbLine
 10
-342.1500007148228
 20
-255.9407432677995
 30
0.0
 11
-292.150000714823
 21
-255.9407432677995
 31
0.0
  0
LINE
  5
A8
330
47
100
AcDbEntity
  8
1
  6
Continuous
 62
     2
100
AcDbLine
 10
-342.1500007148228
 20
-255.9407432677995
 30
0.0
 11
-342.1500007148228
 21
-250.9407432677994
 31
0.0
  0
LINE
  5
A9
330
47
100
AcDbEntity
  8
1
  6
Continuous
 62
     6
100
AcDbLine
 10
-385.6500007148211
 20
-200.9407432677993
 30
0.0
 11
-385.6500007148209
 21
-250.9407432677994
 31
0.0
  0
LINE
  5
AA
330
47
100
AcDbEntity
  8
1
  6
Continuous
 62
     2
100
AcDbLine
 10
-390.6500007148219
 20
-200.9407432677993
 30
0.0
 11
-390.6500007148219
 21
-250.9407432677994
 31
0.0
  0
LINE
  5
AB
330
47
100
AcDbEntity
  8
1
  6
Continuous
 62
     2
100
AcDbLine
 10
-390.6500007148219
 20
-200.9407432677993
 30
0.0
 11
-385.6500007148211
 21
-200.9407432677993
 31
0.0
  0
LINE
  5
AC
330
47
100
AcDbEntity
  8
1
  6
Continuous
 62
     6
100
AcDbLine
 10
-385.6500007148213
 20
-150.9407432677995
 30
0.0
 11
-385.6500007148211
 21
-200.9407432677993
 31
0.0
  0
LINE
  5
AD
330
47
100
AcDbEntity
  8
1
  6
Continuous
 62
     2
100
AcDbLine
 10
-390.6500007148219
 20
-150.9407432677995
 30
0.0
 11
-390.6500007148219
 21
-200.9407432677993
 31
0.0
  0
LINE
  5
AE
330
47
100
AcDbEntity
  8
1
  6
Continuous
 62
     2
100
AcDbLine
 10
-390.6500007148219
 20
-150.9407432677995
 30
0.0
 11
-385.6500007148213
 21
-150.9407432677995
 31
0.0
  0
LINE
  5
AF
330
47
100
AcDbEntity
  8
1
  6
Continuous
 62
     6
100
AcDbLine
 10
-385.6500007148218
 20
-100.9407432677994
 30
0.0
 11
-385.6500007148213
 21
-150.9407432677995
 31
0.0
  0
LINE
  5
B0
330
47
100
AcDbEntity
  8
1
  6
Continuous
 62
     2
100
AcDbLine
 10
-390.6500007148219
 20
-100.9407432677994
 30
0.0
 11
-390.6500007148219
 21
-150.9407432677995
 31
0.0
  0
LINE
  5
B1
330
47
100
AcDbEntity
  8
1
  6
Continuous
 62
     2
100
AcDbLine
 10
-390.6500007148219
 20
-100.9407432677994
 30
0.0
 11
-385.6500007148218
 21
-100.9407432677994
 31
0.0
  0
LINE
  5
B2
330
47
100
AcDbEntity
  8
1
  6
Continuous
 62
     6
100
AcDbLine
 10
-385.6500007148219
 20
-65.94074326779938
 30
0.0
 11
-385.6500007148218
 21
-100.9407432677994
 31
0.0
  0
LINE
  5
B3
330
47
100
AcDbEntity
  8
1
  6
Continuous
 62
     2
100
AcDbLine
 10
-390.6500007148219
 20
-45.94074326779938
 30
0.0
 11
-390.6500007148219
 21
-100.9407432677994
 31
0.0
  0
LINE
  5
B4
330
47
100
AcDbEntity
  8
1
  6
Continuous
 62
     2
100
AcDbLine
 10
-390.6500007148219
 20
-255.9407432677995
 30
0.0
 11
-385.6500007148209
 21
-255.9407432677995
 31
0.0
  0
LINE
  5
B5
330
47
100
AcDbEntity
  8
1
  6
Continuous
 62
     2
100
AcDbLine
 10
-242.1500007148228
 20
-45.94074326779938
 30
0.0
 11
-242.1500007148228
 21
-55.1494351125007
 31
0.0
  0
LINE
  5
B6
330
47
100
AcDbEntity
  8
1
  6
Continuous
 62
     2
100
AcDbLine
 10
-242.1500007148228
 20
-45.94074326779938
 30
0.0
 11
-390.6500007148219
 21
-45.94074326779938
 31
0.0
  0
LINE
  5
B7
330
47
100
AcDbEntity
  8
1
  6
Continuous
 62
     2
100
AcDbLine
 10
-93.65000071482382
 20
-250.9407432677994
 30
0.0
 11
-93.65000071482382
 21
-200.9407432677993
 31
0.0
  0
LINE
  5
B8
330
47
100
AcDbEntity
  8
1
  6
Continuous
 62
     2
100
AcDbLine
 10
-93.65000071482382
 20
-100.9407432677994
 30
0.0
 11
-93.65000071482382
 21
-45.94074326779938
 31
0.0
  0
LINE
  5
B9
330
47
100
AcDbEntity
  8
1
  6
Continuous
 62
     6
100
AcDbLine
 10
-98.65000071482362
 20
-100.9407432677994
 30
0.0
 11
-98.65000071482382
 21
-65.94074326779938
 31
0.0
  0
LINE
  5
BA
330
47
100
AcDbEntity
  8
1
  6
Continuous
 62
     2
100
AcDbLine
 10
-98.65000071482362
 20
-100.9407432677994
 30
0.0
 11
-93.65000071482382
 21
-100.9407432677994
 31
0.0
  0
LINE
  5
BB
330
47
100
AcDbEntity
  8
1
  6
Continuous
 62
     2
100
AcDbLine
 10
-93.65000071482382
 20
-150.9407432677995
 30
0.0
 11
-93.65000071482382
 21
-100.9407432677994
 31
0.0
  0
LINE
  5
BC
330
47
100
AcDbEntity
  8
1
  6
Continuous
 62
     6
100
AcDbLine
 10
-98.65000071482241
 20
-150.9407432677995
 30
0.0
 11
-98.65000071482362
 21
-100.9407432677994
 31
0.0
  0
LINE
  5
BD
330
47
100
AcDbEntity
  8
1
  6
Continuous
 62
     2
100
AcDbLine
 10
-98.65000071482241
 20
-150.9407432677995
 30
0.0
 11
-93.65000071482382
 21
-150.9407432677995
 31
0.0
  0
LINE
  5
BE
330
47
100
AcDbEntity
  8
1
  6
Continuous
 62
     2
100
AcDbLine
 10
-93.65000071482382
 20
-200.9407432677993
 30
0.0
 11
-93.65000071482382
 21
-150.9407432677995
 31
0.0
  0
LINE
  5
BF
330
47
100
AcDbEntity
  8
1
  6
Continuous
 62
     6
100
AcDbLine
 10
-98.65000071482191
 20
-200.9407432677993
 30
0.0
 11
-98.65000071482241
 21
-150.9407432677995
 31
0.0
  0
LINE
  5
C0
330
47
100
AcDbEntity
  8
1
  6
Continuous
 62
     2
100
AcDbLine
 10
-98.65000071482191
 20
-200.9407432677993
 30
0.0
 11
-93.65000071482382
 21
-200.9407432677993
 31
0.0
  0
LINE
  5
C1
330
47
100
AcDbEntity
  8
1
  6
Continuous
 62
     6
100
AcDbLine
 10
-98.65000071482382
 20
-65.94074326779938
 30
0.0
 11
-385.6500007148219
 21
-65.94074326779938
 31
0.0
  0
LINE
  5
C2
330
47
100
AcDbEntity
  8
1
  6
Continuous
 62
     2
100
AcDbLine
 10
-93.65000071482382
 20
-45.94074326779938
 30
0.0
 11
-242.1500007148228
 21
-45.94074326779938
 31
0.0
  0
LINE
  5
C3
330
47
100
AcDbEntity
  8
1
  6
Continuous
 62
     6
100
AcDbLine
 10
-98.65000071482112
 20
-233.9407432677994
 30
0.0
 11
-98.65000071482191
 21
-200.9407432677993
 31
0.0
  0
LINE
  5
C4
330
47
100
AcDbEntity
  8
1
  6
Continuous
 62
     2
100
AcDbLine
 10
-98.65000071482281
 20
-255.9407432677995
 30
0.0
 11
-142.1500007148228
 21
-255.9407432677995
 31
0.0
  0
LINE
  5
C5
330
47
100
AcDbEntity
  8
1
  6
Continuous
 62
     2
100
AcDbLine
 10
-93.65000071482382
 20
-255.9407432677995
 30
0.0
 11
-98.65000071482281
 21
-255.9407432677995
 31
0.0
  0
LINE
  5
C6
330
47
100
AcDbEntity
  8
1
  6
Continuous
 62
     2
100
AcDbLine
 10
-93.65000071482382
 20
-255.9407432677995
 30
0.0
 11
-93.65000071482382
 21
-250.9407432677994
 31
0.0
  0
LINE
  5
C7
330
47
100
AcDbEntity
  8
1
  6
Continuous
 62
     6
100
AcDbLine
 10
-228.1948052415728
 20
-233.9407432677994
 30
0.0
 11
-191.7948052415729
 21
-233.9407432677994
 31
0.0
  0
LINE
  5
C8
330
47
100
AcDbEntity
  8
1
  6
Continuous
 62
     2
100
AcDbLine
 10
-98.65000071482281
 20
-250.9407432677994
 30
0.0
 11
-98.65000071482281
 21
-255.9407432677995
 31
0.0
  0
LINE
  5
C9
330
47
100
AcDbEntity
  8
1
  6
Continuous
 62
     2
100
AcDbLine
 10
-98.65000071482281
 20
-250.9407432677994
 30
0.0
 11
-93.65000071482382
 21
-250.9407432677994
 31
0.0
  0
LINE
  5
CA
330
47
100
AcDbEntity
  8
1
  6
Continuous
 62
     6
100
AcDbLine
 10
-192.1500007148228
 20
-250.9407432677994
 30
0.0
 11
-209.9948052415728
 21
-250.9407432677994
 31
0.0
  0
LINE
  5
CB
330
47
100
AcDbEntity
  8
1
  6
Continuous
 62
     6
100
AcDbLine
 10
-142.1500007148228
 20
-250.9407432677994
 30
0.0
 11
-98.65000071482281
 21
-250.9407432677994
 31
0.0
  0
LINE
  5
CC
330
47
100
AcDbEntity
  8
1
  6
Continuous
 62
     6
100
AcDbLine
 10
-292.150000714823
 20
-250.9407432677994
 30
0.0
 11
-297.1948052415728
 21
-250.9407432677994
 31
0.0
  0
LINE
  5
CD
330
47
100
AcDbEntity
  8
1
  6
Continuous
 62
     6
100
AcDbLine
 10
-242.1500007148228
 20
-250.9407432677994
 30
0.0
 11
-228.1948052415728
 21
-250.9407432677995
 31
0.0
  0
LINE
  5
CE
102
{ACAD_REACTORS
330
1B9
330
1BA
102
}
330
47
100
AcDbEntity
  8
0
  6
Continuous
 62
     2
100
AcDbLine
 10
-220.680179299426
 20
-238.8682285115873
 30
0.0
 11
-220.680179299426
 21
-238.2626932230805
 31
0.0
  0
LINE
  5
CF
102
{ACAD_REACTORS
330
1B9
330
1BA
102
}
330
47
100
AcDbEntity
  8
0
  6
Continuous
 62
     2
100
AcDbLine
 10
-220.680179299426
 20
-241.6683631182186
 30
0.0
 11
-220.680179299426
 21
-241.0865117115235
 31
0.0
  0
LINE
  5
D0
102
{ACAD_REACTORS
330
1BB
330
1BC
102
}
330
47
100
AcDbEntity
  8
0
  6
Continuous
 62
     2
100
AcDbLine
 10
-198.0506928639468
 20
-241.3786990500956
 30
0.0
 11
-198.0506928639468
 21
-243.6472432677831
 31
0.0
  0
LINE
  5
D1
102
{ACAD_REACTORS
330
1BB
330
1BC
102
}
330
47
100
AcDbEntity
  8
0
  6
Continuous
 62
     2
100
AcDbLine
 10
-199.4317466429344
 20
-240.5934337439725
 30
0.0
 11
-196.0468011243057
 21
-240.593433743972
 31
0.0
  0
LINE
  5
D2
102
{ACAD_REACTORS
330
1BB
330
1BC
102
}
330
47
100
AcDbEntity
  8
0
  6
Continuous
 62
     2
100
AcDbLine
 10
-196.0468011243057
 20
-241.3786990500956
 30
0.0
 11
-196.0468011243057
 21
-240.593433743972
 31
0.0
  0
LINE
  5
D3
102
{ACAD_REACTORS
330
1BB
330
1BC
102
}
330
47
100
AcDbEntity
  8
0
  6
Continuous
 62
     2
100
AcDbLine
 10
-196.8579001617791
 20
-241.3786990500956
 30
0.0
 11
-196.0468011243057
 21
-241.3786990500956
 31
0.0
  0
LINE
  5
D4
102
{ACAD_REACTORS
330
1BB
330
1BC
102
}
330
47
100
AcDbEntity
  8
0
  6
Continuous
 62
     2
100
AcDbLine
 10
-196.8579001617791
 20
-243.6472432677831
 30
0.0
 11
-196.8579001617791
 21
-241.3786990500956
 31
0.0
  0
LINE
  5
D5
102
{ACAD_REACTORS
330
1BB
330
1BC
102
}
330
47
100
AcDbEntity
  8
0
  6
Continuous
 62
     2
100
AcDbLine
 10
-198.0506928639468
 20
-243.6472432677831
 30
0.0
 11
-196.8579001617791
 21
-243.6472432677831
 31
0.0
  0
LINE
  5
D6
102
{ACAD_REACTORS
330
1B1
330
1B2
102
}
330
47
100
AcDbEntity
  8
0
  6
Continuous
 62
     2
100
AcDbLine
 10
-198.7472838020113
 20
-237.2342432677976
 30
0.0
 11
-200.1500080197606
 21
-237.2342432677976
 31
0.0
  0
LINE
  5
D7
102
{ACAD_REACTORS
330
1B1
330
1B2
102
}
330
47
100
AcDbEntity
  8
0
  6
Continuous
 62
     2
100
AcDbLine
 10
-198.7472838020113
 20
-237.2342432677976
 30
0.0
 11
-198.1461162801195
 21
-237.9140665893531
 31
0.0
  0
LINE
  5
D8
102
{ACAD_REACTORS
330
1B1
330
1B2
102
}
330
47
100
AcDbEntity
  8
0
  6
Continuous
 62
     2
100
AcDbLine
 10
-198.1461162801195
 20
-237.9140665893531
 30
0.0
 11
-197.5449487582267
 21
-237.2342432677976
 31
0.0
  0
LINE
  5
D9
102
{ACAD_REACTORS
330
1B1
330
1B2
102
}
330
47
100
AcDbEntity
  8
0
  6
Continuous
 62
     2
100
AcDbLine
 10
-197.444754171246
 20
-238.7071937978338
 30
0.0
 11
-196.1422245404795
 21
-237.2342432677976
 31
0.0
  0
LINE
  5
DA
102
{ACAD_REACTORS
330
1B1
330
1B2
102
}
330
47
100
AcDbEntity
  8
0
  6
Continuous
 62
     2
100
AcDbLine
 10
-197.444754171246
 20
-238.7071937978338
 30
0.0
 11
-196.0468011243057
 21
-240.2880527916088
 31
0.0
  0
LINE
  5
DB
102
{ACAD_REACTORS
330
1B1
330
1B2
102
}
330
47
100
AcDbEntity
  8
0
  6
Continuous
 62
     2
100
AcDbLine
 10
-197.449525342054
 20
-240.2880527916088
 30
0.0
 11
-196.0468011243057
 21
-240.2880527916088
 31
0.0
  0
LINE
  5
DC
102
{ACAD_REACTORS
330
1B1
330
1B2
102
}
330
47
100
AcDbEntity
  8
0
  6
Continuous
 62
     2
100
AcDbLine
 10
-198.1461162801195
 20
-239.5003210063151
 30
0.0
 11
-197.449525342054
 21
-240.2880527916088
 31
0.0
  0
LINE
  5
DD
102
{ACAD_REACTORS
330
1AF
330
1B0
102
}
330
47
100
AcDbEntity
  8
0
  6
Continuous
 62
     2
100
AcDbLine
 10
-201.6052151164032
 20
-237.2342432677976
 30
0.0
 11
-200.3647107061503
 21
-237.2342432677976
 31
0.0
  0
LINE
  5
DE
102
{ACAD_REACTORS
330
1AF
330
1B0
102
}
330
47
100
AcDbEntity
  8
0
  6
Continuous
 62
     2
100
AcDbLine
 10
-200.3647107061503
 20
-237.2342432677976
 30
0.0
 11
-200.3647107061503
 21
-240.2880527916088
 31
0.0
  0
LINE
  5
DF
102
{ACAD_REACTORS
330
1AF
330
1B0
102
}
330
47
100
AcDbEntity
  8
0
  6
Continuous
 62
     2
100
AcDbLine
 10
-201.6052151164032
 20
-240.2880527916088
 30
0.0
 11
-201.6052151164032
 21
-237.2342432677976
 31
0.0
  0
LINE
  5
E0
102
{ACAD_REACTORS
330
1AD
330
1AE
102
}
330
47
100
AcDbEntity
  8
0
  6
Continuous
 62
     2
100
AcDbLine
 10
-203.0735251989408
 20
-242.4257194582586
 30
0.0
 11
-202.7733599617484
 21
-241.6579044922719
 31
0.0
  0
LINE
  5
E1
102
{ACAD_REACTORS
330
1AD
330
1AE
102
}
330
47
100
AcDbEntity
  8
0
  6
Continuous
 62
     2
100
AcDbLine
 10
-203.5510608035616
 20
-243.6472432677831
 30
0.0
 11
-203.3395807500858
 21
-243.1062827235652
 31
0.0
  0
LINE
  5
E2
102
{ACAD_REACTORS
330
1AD
330
1AE
102
}
330
47
100
AcDbEntity
  8
0
  6
Continuous
 62
     2
100
AcDbLine
 10
-203.3936121668753
 20
-240.593433743972
 30
0.0
 11
-204.7915652138146
 21
-243.6472432677831
 31
0.0
  0
LINE
  5
E3
102
{ACAD_REACTORS
330
1AD
330
1AE
102
}
330
47
100
AcDbEntity
  8
0
  6
Continuous
 62
     2
100
AcDbLine
 10
-200.7551547096823
 20
-243.6472432677831
 30
0.0
 11
-201.9956591199362
 21
-243.6472432677831
 31
0.0
  0
LINE
  5
E4
102
{ACAD_REACTORS
330
1AD
330
1AE
102
}
330
47
100
AcDbEntity
  8
0
  6
Continuous
 62
     2
100
AcDbLine
 10
-203.3395807500858
 20
-243.1062827235652
 30
0.0
 11
-202.207139173412
 21
-243.1062827235652
 31
0.0
  0
LINE
  5
E5
102
{ACAD_REACTORS
330
1AB
330
1AC
102
}
330
47
100
AcDbEntity
  8
0
  6
Continuous
 62
     2
100
AcDbLine
 10
-206.9490773529968
 20
-241.3786990500956
 30
0.0
 11
-206.1379783155222
 21
-241.3786990500956
 31
0.0
  0
LINE
  5
E6
102
{ACAD_REACTORS
330
1AB
330
1AC
102
}
330
47
100
AcDbEntity
  8
0
  6
Continuous
 62
     2
100
AcDbLine
 10
-204.1340865758832
 20
-240.593433743972
 30
0.0
 11
-206.9490773529968
 21
-240.593433743972
 31
0.0
  0
LINE
  5
E7
102
{ACAD_REACTORS
330
1AB
330
1AC
102
}
330
47
100
AcDbEntity
  8
0
  6
Continuous
 62
     2
100
AcDbLine
 10
-204.1340865758832
 20
-241.3786990500956
 30
0.0
 11
-204.1340865758832
 21
-240.593433743972
 31
0.0
  0
LINE
  5
E8
102
{ACAD_REACTORS
330
1AB
330
1AC
102
}
330
47
100
AcDbEntity
  8
0
  6
Continuous
 62
     2
100
AcDbLine
 10
-204.9451856133557
 20
-241.3786990500956
 30
0.0
 11
-204.1340865758832
 21
-241.3786990500956
 31
0.0
  0
LINE
  5
E9
102
{ACAD_REACTORS
330
1AB
330
1AC
102
}
330
47
100
AcDbEntity
  8
0
  6
Continuous
 62
     2
100
AcDbLine
 10
-204.9451856133557
 20
-243.6472432677831
 30
0.0
 11
-204.9451856133557
 21
-241.3786990500956
 31
0.0
  0
LINE
  5
EA
102
{ACAD_REACTORS
330
1A9
330
1AA
102
}
330
47
100
AcDbEntity
  8
0
  6
Continuous
 62
     2
100
AcDbLine
 10
-204.2770707692577
 20
-240.2880527916088
 30
0.0
 11
-204.2770707692577
 21
-238.9792772814041
 31
0.0
  0
LINE
  5
EB
102
{ACAD_REACTORS
330
1A9
330
1AA
102
}
330
47
100
AcDbEntity
  8
0
  6
Continuous
 62
     2
100
AcDbLine
 10
-205.4698634714242
 20
-237.2342432677976
 30
0.0
 11
-205.4698634714242
 21
-240.2880527916088
 31
0.0
  0
LINE
  5
EC
102
{ACAD_REACTORS
330
1A9
330
1AA
102
}
330
47
100
AcDbEntity
  8
0
  6
Continuous
 62
     2
100
AcDbLine
 10
-204.2770707692577
 20
-237.2342432677976
 30
0.0
 11
-205.4698634714242
 21
-237.2342432677976
 31
0.0
  0
LINE
  5
ED
102
{ACAD_REACTORS
330
1A9
330
1AA
102
}
330
47
100
AcDbEntity
  8
0
  6
Continuous
 62
     2
100
AcDbLine
 10
-203.0365663590037
 20
-237.2342432677976
 30
0.0
 11
-203.0365663590037
 21
-238.5430187780028
 31
0.0
  0
LINE
  5
EE
102
{ACAD_REACTORS
330
1A7
330
1A8
102
}
330
47
100
AcDbEntity
  8
0
  6
Continuous
 62
     2
100
AcDbLine
 10
-210.7183022918439
 20
-240.593433743972
 30
0.0
 11
-210.7183022918439
 21
-243.6472432677831
 31
0.0
  0
LINE
  5
EF
102
{ACAD_REACTORS
330
1A7
330
1A8
102
}
330
47
100
AcDbEntity
  8
0
  6
Continuous
 62
     2
100
AcDbLine
 10
-209.5255095896763
 20
-240.593433743972
 30
0.0
 11
-210.7183022918439
 21
-240.593433743972
 31
0.0
  0
LINE
  5
F0
102
{ACAD_REACTORS
330
1A7
330
1A8
102
}
330
47
100
AcDbEntity
  8
0
  6
Continuous
 62
     2
100
AcDbLine
 10
-208.2850051794234
 20
-243.6472432677831
 30
0.0
 11
-207.092212477257
 21
-243.6472432677831
 31
0.0
  0
LINE
  5
F1
102
{ACAD_REACTORS
330
1A7
330
1A8
102
}
330
47
100
AcDbEntity
  8
0
  6
Continuous
 62
     2
100
AcDbLine
 10
-210.7183022918439
 20
-243.6472432677831
 30
0.0
 11
-209.5255095896763
 21
-243.6472432677831
 31
0.0
  0
LINE
  5
F2
102
{ACAD_REACTORS
330
1B7
330
1B8
102
}
330
47
100
AcDbEntity
  8
0
  6
Continuous
 62
     2
100
AcDbLine
 10
-207.0443498382848
 20
-238.4121412269823
 30
0.0
 11
-207.0443498382848
 21
-237.9322568732406
 31
0.0
  0
LINE
  5
F3
102
{ACAD_REACTORS
330
1B7
330
1B8
102
}
330
47
100
AcDbEntity
  8
0
  6
Continuous
 62
     2
100
AcDbLine
 10
-205.7084220118571
 20
-238.4121412269823
 30
0.0
 11
-207.0443498382848
 21
-238.4121412269823
 31
0.0
  0
LINE
  5
F4
102
{ACAD_REACTORS
330
1B7
330
1B8
102
}
330
47
100
AcDbEntity
  8
0
  6
Continuous
 62
     2
100
AcDbLine
 10
-205.7084220118571
 20
-239.1101548324246
 30
0.0
 11
-205.7084220118571
 21
-238.4121412269823
 31
0.0
  0
LINE
  5
F5
102
{ACAD_REACTORS
330
1B7
330
1B8
102
}
330
47
100
AcDbEntity
  8
0
  6
Continuous
 62
     2
100
AcDbLine
 10
-207.0443498382848
 20
-239.1101548324246
 30
0.0
 11
-205.7084220118571
 21
-239.1101548324246
 31
0.0
  0
LINE
  5
F6
102
{ACAD_REACTORS
330
1A5
330
1A6
102
}
330
47
100
AcDbEntity
  8
0
  6
Continuous
 62
     2
100
AcDbLine
 10
-210.5273045286117
 20
-237.2342432677976
 30
0.0
 11
-210.5273045286117
 21
-240.2880527916088
 31
0.0
  0
LINE
  5
F7
102
{ACAD_REACTORS
330
1A5
330
1A6
102
}
330
47
100
AcDbEntity
  8
0
  6
Continuous
 62
     2
100
AcDbLine
 10
-210.5273045286117
 20
-240.2880527916088
 30
0.0
 11
-211.7200972307781
 21
-240.2880527916088
 31
0.0
  0
LINE
  5
F8
102
{ACAD_REACTORS
330
1A5
330
1A6
102
}
330
47
100
AcDbEntity
  8
0
  6
Continuous
 62
     2
100
AcDbLine
 10
-211.7200972307781
 20
-240.2880527916088
 30
0.0
 11
-211.7200972307781
 21
-239.153780682765
 31
0.0
  0
LINE
  5
F9
102
{ACAD_REACTORS
330
1A5
330
1A6
102
}
330
47
100
AcDbEntity
  8
0
  6
Continuous
 62
     2
100
AcDbLine
 10
-212.7697548086856
 20
-240.2880527916088
 30
0.0
 11
-213.9625475108522
 21
-240.2880527916088
 31
0.0
  0
LINE
  5
FA
102
{ACAD_REACTORS
330
1A5
330
1A6
102
}
330
47
100
AcDbEntity
  8
0
  6
Continuous
 62
     2
100
AcDbLine
 10
-213.9625475108522
 20
-237.2342432677976
 30
0.0
 11
-212.7697548086856
 21
-237.2342432677976
 31
0.0
  0
LINE
  5
FB
102
{ACAD_REACTORS
330
1A5
330
1A6
102
}
330
47
100
AcDbEntity
  8
0
  6
Continuous
 62
     2
100
AcDbLine
 10
-212.7697548086856
 20
-237.2342432677976
 30
0.0
 11
-212.7697548086856
 21
-238.3030766011322
 31
0.0
  0
LINE
  5
FC
102
{ACAD_REACTORS
330
1A5
330
1A6
102
}
330
47
100
AcDbEntity
  8
0
  6
Continuous
 62
     2
100
AcDbLine
 10
-212.7697548086856
 20
-238.3030766011322
 30
0.0
 11
-211.7200972307781
 21
-238.3030766011322
 31
0.0
  0
LINE
  5
FD
102
{ACAD_REACTORS
330
1B3
330
1B4
102
}
330
47
100
AcDbEntity
  8
0
  6
Continuous
 62
     2
100
AcDbLine
 10
-215.9187275424058
 20
-237.8973491132377
 30
0.0
 11
-215.6014324808639
 21
-237.8973491132377
 31
0.0
  0
LINE
  5
FE
102
{ACAD_REACTORS
330
1B3
330
1B4
102
}
330
47
100
AcDbEntity
  8
0
  6
Continuous
 62
     2
100
AcDbLine
 10
-215.9187275424058
 20
-238.6030767625799
 30
0.0
 11
-215.6014324808639
 21
-238.6030767625799
 31
0.0
  0
LINE
  5
FF
102
{ACAD_REACTORS
330
1B3
330
1B4
102
}
330
47
100
AcDbEntity
  8
0
  6
Continuous
 62
     2
100
AcDbLine
 10
-217.1592319526599
 20
-237.2342432677976
 30
0.0
 11
-217.1592319526599
 21
-240.2880527916088
 31
0.0
  0
LINE
  5
100
102
{ACAD_REACTORS
330
1B3
330
1B4
102
}
330
47
100
AcDbEntity
  8
0
  6
Continuous
 62
     2
100
AcDbLine
 10
-217.1592319526599
 20
-237.2342432677976
 30
0.0
 11
-215.1599599546255
 21
-237.2342432677976
 31
0.0
  0
LINE
  5
101
102
{ACAD_REACTORS
330
1B3
330
1B4
102
}
330
47
100
AcDbEntity
  8
0
  6
Continuous
 62
     2
100
AcDbLine
 10
-215.9187275424058
 20
-239.344974550465
 30
0.0
 11
-215.1599599546255
 21
-239.344974550465
 31
0.0
  0
LINE
  5
102
102
{ACAD_REACTORS
330
1B9
330
1BA
102
}
330
47
100
AcDbEntity
  8
0
  6
Continuous
 62
     2
100
AcDbLine
 10
-223.2557279859566
 20
-238.2625157464324
 30
0.0
 11
-223.2557279859566
 21
-242.6189707891495
 31
0.0
  0
LINE
  5
103
102
{ACAD_REACTORS
330
1B9
330
1BA
102
}
330
47
100
AcDbEntity
  8
0
  6
Continuous
 62
     2
100
AcDbLine
 10
-222.9400110628809
 20
-237.9467988233562
 30
0.0
 11
-221.4641778018713
 21
-237.9467988233562
 31
0.0
  0
LINE
  5
104
102
{ACAD_REACTORS
330
1B9
330
1BA
102
}
330
47
100
AcDbEntity
  8
0
  6
Continuous
 62
     2
100
AcDbLine
 10
-221.1484608787947
 20
-238.8665403654929
 30
0.0
 11
-221.1484608787947
 21
-238.2625157464324
 31
0.0
  0
LINE
  5
105
102
{ACAD_REACTORS
330
1B9
330
1BA
102
}
330
47
100
AcDbEntity
  8
0
  6
Continuous
 62
     2
100
AcDbLine
 10
-221.1484608787947
 20
-242.6189707891495
 30
0.0
 11
-221.1484608787947
 21
-241.0881998576179
 31
0.0
  0
LINE
  5
106
102
{ACAD_REACTORS
330
1B9
330
1BA
102
}
330
47
100
AcDbEntity
  8
0
  6
Continuous
 62
     2
100
AcDbLine
 10
-218.0605936489106
 20
-243.6472432677831
 30
0.0
 11
-223.5339057396274
 21
-243.6472432677831
 31
0.0
  0
LINE
  5
107
102
{ACAD_REACTORS
330
1B9
330
1BA
102
}
330
47
100
AcDbEntity
  8
0
  6
Continuous
 62
     2
100
AcDbLine
 10
-217.6363490335267
 20
-237.6584878831996
 30
0.0
 11
-217.6363490335267
 21
-243.2229986523998
 31
0.0
  0
LINE
  5
108
102
{ACAD_REACTORS
330
1B9
330
1BA
102
}
330
47
100
AcDbEntity
  8
0
  6
Continuous
 62
     2
100
AcDbLine
 10
-223.5339057396274
 20
-237.2342432678158
 30
0.0
 11
-218.0605936489106
 21
-237.2342432678158
 31
0.0
  0
LINE
  5
109
102
{ACAD_REACTORS
330
1B9
330
1BA
102
}
330
47
100
AcDbEntity
  8
0
  6
Continuous
 62
     2
100
AcDbLine
 10
-223.9581503550102
 20
-237.6584878831996
 30
0.0
 11
-223.9581503550102
 21
-243.2229986523998
 31
0.0
  0
LINE
  5
10A
102
{ACAD_REACTORS
330
1B9
330
1BA
102
}
330
47
100
AcDbEntity
  8
0
  6
Continuous
 62
     2
100
AcDbLine
 10
-221.4641778018713
 20
-242.9346877122262
 30
0.0
 11
-222.9400110628809
 21
-242.9346877122262
 31
0.0
  0
LINE
  5
10B
102
{ACAD_REACTORS
330
1B3
330
1B4
102
}
330
47
100
AcDbEntity
  8
0
  6
Continuous
 62
     2
100
AcDbLine
 10
-215.9187275424058
 20
-240.2880527916088
 30
0.0
 11
-215.9187275424058
 21
-239.344974550465
 31
0.0
  0
LINE
  5
10C
102
{ACAD_REACTORS
330
1B3
330
1B4
102
}
330
47
100
AcDbEntity
  8
0
  6
Continuous
 62
     2
100
AcDbLine
 10
-217.1592319526599
 20
-240.2880527916088
 30
0.0
 11
-215.9187275424058
 21
-240.2880527916088
 31
0.0
  0
LINE
  5
10D
102
{ACAD_REACTORS
330
1B3
330
1B4
102
}
330
47
100
AcDbEntity
  8
0
  6
Continuous
 62
     2
100
AcDbLine
 10
-215.9187275424058
 20
-238.6030767625799
 30
0.0
 11
-215.9187275424058
 21
-237.8973491132377
 31
0.0
  0
LINE
  5
10E
102
{ACAD_REACTORS
330
1A5
330
1A6
102
}
330
47
100
AcDbEntity
  8
0
  6
Continuous
 62
     2
100
AcDbLine
 10
-213.9625475108522
 20
-237.2342432677976
 30
0.0
 11
-213.9625475108522
 21
-240.2880527916088
 31
0.0
  0
LINE
  5
10F
102
{ACAD_REACTORS
330
1A5
330
1A6
102
}
330
47
100
AcDbEntity
  8
0
  6
Continuous
 62
     2
100
AcDbLine
 10
-212.7697548086856
 20
-239.153780682765
 30
0.0
 11
-212.7697548086856
 21
-240.2880527916088
 31
0.0
  0
LINE
  5
110
102
{ACAD_REACTORS
330
1A5
330
1A6
102
}
330
47
100
AcDbEntity
  8
0
  6
Continuous
 62
     2
100
AcDbLine
 10
-211.7200972307781
 20
-239.153780682765
 30
0.0
 11
-212.7697548086856
 21
-239.153780682765
 31
0.0
  0
LINE
  5
111
102
{ACAD_REACTORS
330
1A5
330
1A6
102
}
330
47
100
AcDbEntity
  8
0
  6
Continuous
 62
     2
100
AcDbLine
 10
-211.7200972307781
 20
-237.2342432677976
 30
0.0
 11
-210.5273045286117
 21
-237.2342432677976
 31
0.0
  0
LINE
  5
112
102
{ACAD_REACTORS
330
1A5
330
1A6
102
}
330
47
100
AcDbEntity
  8
0
  6
Continuous
 62
     2
100
AcDbLine
 10
-211.7200972307781
 20
-238.3030766011322
 30
0.0
 11
-211.7200972307781
 21
-237.2342432677976
 31
0.0
  0
LINE
  5
113
102
{ACAD_REACTORS
330
1B7
330
1B8
102
}
330
47
100
AcDbEntity
  8
0
  6
Continuous
 62
     2
100
AcDbLine
 10
-205.7084220118571
 20
-237.9322568732406
 30
0.0
 11
-205.7084220118571
 21
-237.2342432677976
 31
0.0
  0
LINE
  5
114
102
{ACAD_REACTORS
330
1B7
330
1B8
102
}
330
47
100
AcDbEntity
  8
0
  6
Continuous
 62
     2
100
AcDbLine
 10
-208.8587417356381
 20
-237.2342432677976
 30
0.0
 11
-205.7084220118571
 21
-237.2342432677976
 31
0.0
  0
LINE
  5
115
102
{ACAD_REACTORS
330
1B7
330
1B8
102
}
330
47
100
AcDbEntity
  8
0
  6
Continuous
 62
     2
100
AcDbLine
 10
-208.8587417356381
 20
-240.2880527916088
 30
0.0
 11
-205.7084220118571
 21
-240.2880527916088
 31
0.0
  0
LINE
  5
116
102
{ACAD_REACTORS
330
1B7
330
1B8
102
}
330
47
100
AcDbEntity
  8
0
  6
Continuous
 62
     2
100
AcDbLine
 10
-205.7084220118571
 20
-240.2880527916088
 30
0.0
 11
-205.7084220118571
 21
-239.5900391861663
 31
0.0
  0
LINE
  5
117
102
{ACAD_REACTORS
330
1B7
330
1B8
102
}
330
47
100
AcDbEntity
  8
0
  6
Continuous
 62
     2
100
AcDbLine
 10
-205.7084220118571
 20
-239.5900391861663
 30
0.0
 11
-207.0443498382848
 21
-239.5900391861663
 31
0.0
  0
LINE
  5
118
102
{ACAD_REACTORS
330
1B7
330
1B8
102
}
330
47
100
AcDbEntity
  8
0
  6
Continuous
 62
     2
100
AcDbLine
 10
-207.0443498382848
 20
-239.5900391861663
 30
0.0
 11
-207.0443498382848
 21
-239.1101548324246
 31
0.0
  0
LINE
  5
119
102
{ACAD_REACTORS
330
1B7
330
1B8
102
}
330
47
100
AcDbEntity
  8
0
  6
Continuous
 62
     2
100
AcDbLine
 10
-207.0443498382848
 20
-237.9322568732406
 30
0.0
 11
-205.7084220118571
 21
-237.9322568732406
 31
0.0
  0
LINE
  5
11A
102
{ACAD_REACTORS
330
1A7
330
1A8
102
}
330
47
100
AcDbEntity
  8
0
  6
Continuous
 62
     2
100
AcDbLine
 10
-209.5255095896763
 20
-243.6472432677831
 30
0.0
 11
-209.5255095896763
 21
-242.3384677575785
 31
0.0
  0
LINE
  5
11B
102
{ACAD_REACTORS
330
1A7
330
1A8
102
}
330
47
100
AcDbEntity
  8
0
  6
Continuous
 62
     2
100
AcDbLine
 10
-209.5255095896763
 20
-242.3384677575785
 30
0.0
 11
-208.2850051794234
 21
-243.6472432677831
 31
0.0
  0
LINE
  5
11C
102
{ACAD_REACTORS
330
1A7
330
1A8
102
}
330
47
100
AcDbEntity
  8
0
  6
Continuous
 62
     2
100
AcDbLine
 10
-207.092212477257
 20
-243.6472432677831
 30
0.0
 11
-207.092212477257
 21
-240.593433743972
 31
0.0
  0
LINE
  5
11D
102
{ACAD_REACTORS
330
1A7
330
1A8
102
}
330
47
100
AcDbEntity
  8
0
  6
Continuous
 62
     2
100
AcDbLine
 10
-207.092212477257
 20
-240.593433743972
 30
0.0
 11
-208.2850051794234
 21
-240.593433743972
 31
0.0
  0
LINE
  5
11E
102
{ACAD_REACTORS
330
1A7
330
1A8
102
}
330
47
100
AcDbEntity
  8
0
  6
Continuous
 62
     2
100
AcDbLine
 10
-208.2850051794234
 20
-240.593433743972
 30
0.0
 11
-208.2850051794234
 21
-241.9022092541771
 31
0.0
  0
LINE
  5
11F
102
{ACAD_REACTORS
330
1A7
330
1A8
102
}
330
47
100
AcDbEntity
  8
0
  6
Continuous
 62
     2
100
AcDbLine
 10
-208.2850051794234
 20
-241.9022092541771
 30
0.0
 11
-209.5255095896763
 21
-240.593433743972
 31
0.0
  0
LINE
  5
120
102
{ACAD_REACTORS
330
1A9
330
1AA
102
}
330
47
100
AcDbEntity
  8
0
  6
Continuous
 62
     2
100
AcDbLine
 10
-204.2770707692577
 20
-238.9792772814041
 30
0.0
 11
-203.0365663590037
 21
-240.2880527916088
 31
0.0
  0
LINE
  5
121
102
{ACAD_REACTORS
330
1A9
330
1AA
102
}
330
47
100
AcDbEntity
  8
0
  6
Continuous
 62
     2
100
AcDbLine
 10
-203.0365663590037
 20
-240.2880527916088
 30
0.0
 11
-201.8437736568371
 21
-240.2880527916088
 31
0.0
  0
LINE
  5
122
102
{ACAD_REACTORS
330
1A9
330
1AA
102
}
330
47
100
AcDbEntity
  8
0
  6
Continuous
 62
     2
100
AcDbLine
 10
-201.8437736568371
 20
-240.2880527916088
 30
0.0
 11
-201.8437736568371
 21
-237.2342432677976
 31
0.0
  0
LINE
  5
123
102
{ACAD_REACTORS
330
1A9
330
1AA
102
}
330
47
100
AcDbEntity
  8
0
  6
Continuous
 62
     2
100
AcDbLine
 10
-201.8437736568371
 20
-237.2342432677976
 30
0.0
 11
-203.0365663590037
 21
-237.2342432677976
 31
0.0
  0
LINE
  5
124
102
{ACAD_REACTORS
330
1A9
330
1AA
102
}
330
47
100
AcDbEntity
  8
0
  6
Continuous
 62
     2
100
AcDbLine
 10
-203.0365663590037
 20
-238.5430187780028
 30
0.0
 11
-204.2770707692577
 21
-237.2342432677976
 31
0.0
  0
LINE
  5
125
102
{ACAD_REACTORS
330
1A9
330
1AA
102
}
330
47
100
AcDbEntity
  8
0
  6
Continuous
 62
     2
100
AcDbLine
 10
-205.4698634714242
 20
-240.2880527916088
 30
0.0
 11
-204.2770707692577
 21
-240.2880527916088
 31
0.0
  0
LINE
  5
126
102
{ACAD_REACTORS
330
1AB
330
1AC
102
}
330
47
100
AcDbEntity
  8
0
  6
Continuous
 62
     2
100
AcDbLine
 10
-206.9490773529968
 20
-240.593433743972
 30
0.0
 11
-206.9490773529968
 21
-241.3786990500956
 31
0.0
  0
LINE
  5
127
102
{ACAD_REACTORS
330
1AB
330
1AC
102
}
330
47
100
AcDbEntity
  8
0
  6
Continuous
 62
     2
100
AcDbLine
 10
-206.1379783155222
 20
-241.3786990500956
 30
0.0
 11
-206.1379783155222
 21
-243.6472432677831
 31
0.0
  0
LINE
  5
128
102
{ACAD_REACTORS
330
1AB
330
1AC
102
}
330
47
100
AcDbEntity
  8
0
  6
Continuous
 62
     2
100
AcDbLine
 10
-206.1379783155222
 20
-243.6472432677831
 30
0.0
 11
-204.9451856133557
 21
-243.6472432677831
 31
0.0
  0
LINE
  5
129
102
{ACAD_REACTORS
330
1AD
330
1AE
102
}
330
47
100
AcDbEntity
  8
0
  6
Continuous
 62
     2
100
AcDbLine
 10
-201.9956591199362
 20
-243.6472432677831
 30
0.0
 11
-202.207139173412
 21
-243.1062827235652
 31
0.0
  0
LINE
  5
12A
102
{ACAD_REACTORS
330
1AD
330
1AE
102
}
330
47
100
AcDbEntity
  8
0
  6
Continuous
 62
     2
100
AcDbLine
 10
-202.1531077566226
 20
-240.593433743972
 30
0.0
 11
-200.7551547096823
 21
-243.6472432677831
 31
0.0
  0
LINE
  5
12B
102
{ACAD_REACTORS
330
1AD
330
1AE
102
}
330
47
100
AcDbEntity
  8
0
  6
Continuous
 62
     2
100
AcDbLine
 10
-203.3936121668753
 20
-240.593433743972
 30
0.0
 11
-202.1531077566226
 21
-240.593433743972
 31
0.0
  0
LINE
  5
12C
102
{ACAD_REACTORS
330
1AD
330
1AE
102
}
330
47
100
AcDbEntity
  8
0
  6
Continuous
 62
     2
100
AcDbLine
 10
-204.7915652138146
 20
-243.6472432677831
 30
0.0
 11
-203.5510608035616
 21
-243.6472432677831
 31
0.0
  0
LINE
  5
12D
102
{ACAD_REACTORS
330
1AD
330
1AE
102
}
330
47
100
AcDbEntity
  8
0
  6
Continuous
 62
     2
100
AcDbLine
 10
-203.0735251989408
 20
-242.4257194582586
 30
0.0
 11
-202.4731947245583
 21
-242.4257194582586
 31
0.0
  0
LINE
  5
12E
102
{ACAD_REACTORS
330
1AD
330
1AE
102
}
330
47
100
AcDbEntity
  8
0
  6
Continuous
 62
     2
100
AcDbLine
 10
-202.4731947245583
 20
-242.4257194582586
 30
0.0
 11
-202.7733599617484
 21
-241.6579044922719
 31
0.0
  0
LINE
  5
12F
102
{ACAD_REACTORS
330
1AF
330
1B0
102
}
330
47
100
AcDbEntity
  8
0
  6
Continuous
 62
     2
100
AcDbLine
 10
-200.3647107061503
 20
-240.2880527916088
 30
0.0
 11
-201.6052151164032
 21
-240.2880527916088
 31
0.0
  0
LINE
  5
130
102
{ACAD_REACTORS
330
1B1
330
1B2
102
}
330
47
100
AcDbEntity
  8
0
  6
Continuous
 62
     2
100
AcDbLine
 10
-198.8427072181852
 20
-240.2880527916088
 30
0.0
 11
-200.2454314359334
 21
-240.2880527916088
 31
0.0
  0
LINE
  5
131
102
{ACAD_REACTORS
330
1B1
330
1B2
102
}
330
47
100
AcDbEntity
  8
0
  6
Continuous
 62
     2
100
AcDbLine
 10
-198.8427072181852
 20
-240.2880527916088
 30
0.0
 11
-198.1461162801195
 21
-239.5003210063151
 31
0.0
  0
LINE
  5
132
102
{ACAD_REACTORS
330
1B1
330
1B2
102
}
330
47
100
AcDbEntity
  8
0
  6
Continuous
 62
     2
100
AcDbLine
 10
-197.5449487582267
 20
-237.2342432677976
 30
0.0
 11
-196.1422245404795
 21
-237.2342432677976
 31
0.0
  0
LINE
  5
133
102
{ACAD_REACTORS
330
1B1
330
1B2
102
}
330
47
100
AcDbEntity
  8
0
  6
Continuous
 62
     2
100
AcDbLine
 10
-200.1500080197606
 20
-237.2342432677976
 30
0.0
 11
-198.8474783889931
 21
-238.7071937978338
 31
0.0
  0
LINE
  5
134
102
{ACAD_REACTORS
330
1B1
330
1B2
102
}
330
47
100
AcDbEntity
  8
0
  6
Continuous
 62
     2
100
AcDbLine
 10
-200.2454314359334
 20
-240.2880527916088
 30
0.0
 11
-198.8474783889931
 21
-238.7071937978338
 31
0.0
  0
LINE
  5
135
102
{ACAD_REACTORS
330
1BB
330
1BC
102
}
330
47
100
AcDbEntity
  8
0
  6
Continuous
 62
     2
100
AcDbLine
 10
-198.3846748205535
 20
-242.6002228596195
 30
0.0
 11
-198.3846748205535
 21
-243.4727398664228
 31
0.0
  0
LINE
  5
136
102
{ACAD_REACTORS
330
1BB
330
1BC
102
}
330
47
100
AcDbEntity
  8
0
  6
Continuous
 62
     2
100
AcDbLine
 10
-199.1543321635149
 20
-241.3786990500956
 30
0.0
 11
-198.0506928639468
 21
-241.3786990500956
 31
0.0
  0
LINE
  5
137
102
{ACAD_REACTORS
330
1BD
330
1BE
102
}
330
47
100
AcDbEntity
  8
0
  6
Continuous
 62
     2
100
AcDbLine
 10
-214.4873762998054
 20
-242.600222859619
 30
0.0
 11
-214.4873762998054
 21
-243.4727398664222
 31
0.0
  0
LINE
  5
138
102
{ACAD_REACTORS
330
1BD
330
1BE
102
}
330
47
100
AcDbEntity
  8
0
  6
Continuous
 62
     2
100
AcDbLine
 10
-214.4873762998054
 20
-241.6404541521361
 30
0.0
 11
-214.4873762998054
 21
-240.7679371453328
 31
0.0
  0
LINE
  5
139
330
47
100
AcDbEntity
  8
1
  6
Continuous
 62
     7
100
AcDbLine
 10
-98.65000071482152
 20
-242.4407432677994
 30
0.0
 11
-191.7948052415729
 21
-242.4407432677994
 31
0.0
  0
LINE
  5
13A
330
47
100
AcDbEntity
  8
1
  6
Continuous
 62
     6
100
AcDbLine
 10
-297.1948052415728
 20
-250.9407432677994
 30
0.0
 11
-342.1500007148228
 21
-250.9407432677994
 31
0.0
  0
LINE
  5
13B
330
47
100
AcDbEntity
  8
1
  6
Continuous
 62
     7
100
AcDbLine
 10
-107.5684089965003
 20
-225.4407432677994
 30
0.0
 11
-107.5684089965003
 21
-233.9407432677994
 31
0.0
  0
LINE
  5
13C
330
47
100
AcDbEntity
  8
1
  6
Continuous
 62
     7
100
AcDbLine
 10
-134.0684089964999
 20
-225.4407432677994
 30
0.0
 11
-134.0684089964999
 21
-233.9407432677994
 31
0.0
  0
LINE
  5
13D
330
47
100
AcDbEntity
  8
1
  6
Continuous
 62
     7
100
AcDbLine
 10
-191.7948052415729
 20
-233.9407432677994
 30
0.0
 11
-191.7948052415729
 21
-225.4407432677994
 31
0.0
  0
LINE
  5
13E
330
47
100
AcDbEntity
  8
1
  6
Continuous
 62
     7
100
AcDbLine
 10
-228.1948052415728
 20
-233.9407432677994
 30
0.0
 11
-228.1948052415728
 21
-225.4407432677994
 31
0.0
  0
LINE
  5
13F
330
47
100
AcDbEntity
  8
1
  6
Continuous
 62
     6
100
AcDbLine
 10
-191.7948052415729
 20
-233.9407432677994
 30
0.0
 11
-98.65000071482112
 21
-233.9407432677994
 31
0.0
  0
LINE
  5
140
330
47
100
AcDbEntity
  8
1
  6
Continuous
 62
     7
100
AcDbLine
 10
-163.8948052415728
 20
-242.4407432677995
 30
0.0
 11
-163.8948052415728
 21
-233.9407432677994
 31
0.0
  0
LINE
  5
141
330
47
100
AcDbEntity
  8
1
  6
PHANTOM
 62
     2
100
AcDbLine
 10
-212.7081503550102
 20
-229.8157432677995
 30
0.0
 11
-218.2081503550102
 21
-229.8157432677995
 31
0.0
  0
LINE
  5
142
330
47
100
AcDbEntity
  8
1
  6
PHANTOM
 62
     2
100
AcDbLine
 10
-215.4581503550102
 20
-227.0657432677995
 30
0.0
 11
-215.4581503550102
 21
-232.5657432677995
 31
0.0
  0
LINE
  5
143
330
47
100
AcDbEntity
  8
1
  6
DOT_CENTER
 62
     2
100
AcDbLine
 10
-224.2081503550102
 20
-229.8157432677995
 30
0.0
 11
-218.7081503550102
 21
-229.8157432677995
 31
0.0
  0
ARC
  5
144
102
{ACAD_REACTORS
330
1BD
330
1BE
102
}
330
47
100
AcDbEntity
  8
0
  6
Continuous
 62
     2
100
AcDbCircle
 10
-215.8233042169232
 20
-245.4330194511337
 30
0.0
 40
4.852596863498068
100
AcDbArc
 50
74.02000874164739
 51
84.84185523037506
  0
ARC
  5
145
102
{ACAD_REACTORS
330
1BD
330
1BE
102
}
330
47
100
AcDbEntity
  8
0
  6
Continuous
 62
     2
100
AcDbCircle
 10
-215.2472636081695
 20
-242.2772590952494
 30
0.0
 40
0.9059297849853588
100
AcDbArc
 50
71.55192388185235
 51
113.372277888129
  0
ARC
  5
146
102
{ACAD_REACTORS
330
1BD
330
1BE
102
}
330
47
100
AcDbEntity
  8
0
  6
Continuous
 62
     2
100
AcDbCircle
 10
-215.4037036408715
 20
-242.3254099352163
 30
0.0
 40
0.5115800601948034
100
AcDbArc
 50
208.5214732576956
 51
246.6277221118245
  0
ARC
  5
147
102
{ACAD_REACTORS
330
1BD
330
1BE
102
}
330
47
100
AcDbEntity
  8
0
  6
Continuous
 62
     2
100
AcDbCircle
 10
-215.2472636081695
 20
-241.9634179165063
 30
0.0
 40
0.9059297849849192
100
AcDbArc
 50
246.627722111871
 51
288.4480761181601
  0
ARC
  5
148
102
{ACAD_REACTORS
330
1BD
330
1BE
102
}
330
47
100
AcDbEntity
  8
0
  6
Continuous
 62
     2
100
AcDbCircle
 10
-215.6654313418303
 20
-240.7098721404691
 30
0.0
 40
2.227384008972773
100
AcDbArc
 50
288.4480761181333
 51
301.9309089499595
  0
ARC
  5
149
102
{ACAD_REACTORS
330
1B9
330
1BA
102
}
330
47
100
AcDbEntity
  8
0
  6
Continuous
 62
     2
100
AcDbCircle
 10
-220.8905050744371
 20
-239.9773701115551
 30
0.0
 40
0.911848150144459
100
AcDbArc
 50
295.3740086781764
 51
64.62599132180748
  0
ARC
  5
14A
102
{ACAD_REACTORS
330
1B9
330
1BA
102
}
330
47
100
AcDbEntity
  8
0
  6
Continuous
 62
     2
100
AcDbCircle
 10
-220.3644623763492
 20
-238.2626932230805
 30
0.0
 40
0.3157169230760711
100
AcDbArc
 50
90.18896704255108
 51
180.0
  0
ARC
  5
14B
102
{ACAD_REACTORS
330
1BB
330
1BC
102
}
330
47
100
AcDbEntity
  8
0
  6
Continuous
 62
     2
100
AcDbCircle
 10
-199.1543321635149
 20
-242.3332220569217
 30
0.0
 40
0.9545230068260935
100
AcDbArc
 50
90.0
 51
109.3371432194298
  0
ARC
  5
14C
102
{ACAD_REACTORS
330
1BB
330
1BC
102
}
330
47
100
AcDbEntity
  8
0
  6
Continuous
 62
     2
100
AcDbCircle
 10
-198.9236449035372
 20
-242.1203385058778
 30
0.0
 40
0.9410597353348924
100
AcDbArc
 50
151.4785267423624
 51
208.5214732576695
  0
ARC
  5
14D
102
{ACAD_REACTORS
330
1BB
330
1BC
102
}
330
47
100
AcDbEntity
  8
0
  6
Continuous
 62
     2
100
AcDbCircle
 10
-199.1445621289155
 20
-241.9634179165063
 30
0.0
 40
0.9059297849852688
100
AcDbArc
 50
246.6277221118199
 51
288.4480761180817
  0
ARC
  5
14E
102
{ACAD_REACTORS
330
1BB
330
1BC
102
}
330
47
100
AcDbEntity
  8
0
  6
Continuous
 62
     2
100
AcDbCircle
 10
-199.5627298625774
 20
-240.7098721404697
 30
0.0
 40
2.227384008972746
100
AcDbArc
 50
288.4480761181335
 51
301.9309089499397
  0
ARC
  5
14F
102
{ACAD_REACTORS
330
1BB
330
1BC
102
}
330
47
100
AcDbEntity
  8
0
  6
Continuous
 62
     2
100
AcDbCircle
 10
-199.7206027376702
 20
-238.8076575606214
 30
0.0
 40
4.852596863498822
100
AcDbArc
 50
275.158144769636
 51
285.9799912583383
  0
ARC
  5
150
102
{ACAD_REACTORS
330
1BB
330
1BC
102
}
330
47
100
AcDbEntity
  8
0
  6
Continuous
 62
     2
100
AcDbCircle
 10
-199.4317466429344
 20
-242.007548143843
 30
0.0
 40
1.639695123940421
100
AcDbArc
 50
195.0618917771015
 51
275.1581447696762
  0
ARC
  5
151
102
{ACAD_REACTORS
330
1B3
330
1B4
102
}
330
47
100
AcDbEntity
  8
0
  6
Continuous
 62
     2
100
AcDbCircle
 10
-215.1599599546255
 20
-238.2896089091313
 30
0.0
 40
1.055365641333708
100
AcDbArc
 50
270.0
 51
90.0
  0
ARC
  5
152
102
{ACAD_REACTORS
330
1B9
330
1BA
102
}
330
47
100
AcDbEntity
  8
0
  6
Continuous
 62
     2
100
AcDbCircle
 10
-222.9400110628809
 20
-242.6189707891495
 30
0.0
 40
0.315716923075712
100
AcDbArc
 50
180.0
 51
270.0
  0
ARC
  5
153
102
{ACAD_REACTORS
330
1B9
330
1BA
102
}
330
47
100
AcDbEntity
  8
0
  6
Continuous
 62
     2
100
AcDbCircle
 10
-221.4641778018713
 20
-238.2625157464324
 30
0.0
 40
0.315716923076593
100
AcDbArc
 50
0.0
 51
90.0
  0
ARC
  5
154
102
{ACAD_REACTORS
330
1B9
330
1BA
102
}
330
47
100
AcDbEntity
  8
0
  6
Continuous
 62
     2
100
AcDbCircle
 10
-221.4641778018713
 20
-238.8665403654929
 30
0.0
 40
0.3157169230761203
100
AcDbArc
 50
295.1944106485397
 51
0.0
  0
ARC
  5
155
102
{ACAD_REACTORS
330
1B9
330
1BA
102
}
330
47
100
AcDbEntity
  8
0
  6
Continuous
 62
     2
100
AcDbCircle
 10
-221.4641778018713
 20
-242.6189707891495
 30
0.0
 40
0.3157169230767067
100
AcDbArc
 50
270.0
 51
0.0
  0
ARC
  5
156
102
{ACAD_REACTORS
330
1B9
330
1BA
102
}
330
47
100
AcDbEntity
  8
0
  6
Continuous
 62
     2
100
AcDbCircle
 10
-223.5339057396274
 20
-237.6584878831996
 30
0.0
 40
0.4242446153837989
100
AcDbArc
 50
90.0
 51
180.0
  0
ARC
  5
157
102
{ACAD_REACTORS
330
1B9
330
1BA
102
}
330
47
100
AcDbEntity
  8
0
  6
Continuous
 62
     2
100
AcDbCircle
 10
-218.0605936489106
 20
-237.6584878831996
 30
0.0
 40
0.4242446153839126
100
AcDbArc
 50
0.0
 51
90.0
  0
ARC
  5
158
102
{ACAD_REACTORS
330
1B9
330
1BA
102
}
330
47
100
AcDbEntity
  8
0
  6
Continuous
 62
     2
100
AcDbCircle
 10
-218.0605936489106
 20
-243.2229986523998
 30
0.0
 40
0.4242446153832873
100
AcDbArc
 50
270.0
 51
0.0
  0
ARC
  5
159
102
{ACAD_REACTORS
330
1B7
330
1B8
102
}
330
47
100
AcDbEntity
  8
0
  6
Continuous
 62
     2
100
AcDbCircle
 10
-208.8422097618191
 20
-238.7611480297035
 30
0.0
 40
0.7717997786796421
100
AcDbArc
 50
321.8795802028467
 51
38.12041979715826
  0
ARC
  5
15A
102
{ACAD_REACTORS
330
1B7
330
1B8
102
}
330
47
100
AcDbEntity
  8
0
  6
Continuous
 62
     2
100
AcDbCircle
 10
-208.6424697254729
 20
-238.9178792078239
 30
0.0
 40
0.5179085730134595
100
AcDbArc
 50
218.1204197971492
 51
321.8795802028566
  0
ARC
  5
15B
102
{ACAD_REACTORS
330
1B5
330
1B6
102
}
330
47
100
AcDbEntity
  8
0
  6
Continuous
 62
     2
100
AcDbCircle
 10
-212.3224773144331
 20
-242.1203385058778
 30
0.0
 40
1.458034083652003
100
AcDbArc
 50
297.548148175701
 51
62.45185182429896
  0
ARC
  5
15C
102
{ACAD_REACTORS
330
1B5
330
1B6
102
}
330
47
100
AcDbEntity
  8
0
  6
Continuous
 62
     2
100
AcDbCircle
 10
-212.8843570980997
 20
-242.1203385058778
 30
0.0
 40
1.45803408365149
100
AcDbArc
 50
117.5481481756624
 51
242.4518518243375
  0
ARC
  5
15D
102
{ACAD_REACTORS
330
1B5
330
1B6
102
}
330
47
100
AcDbEntity
  8
0
  6
Continuous
 62
     2
100
AcDbCircle
 10
-212.6034172062664
 20
-242.6589135161806
 30
0.0
 40
2.065479772208581
100
AcDbArc
 50
62.45185182430567
 51
117.5481481756664
  0
ARC
  5
15E
102
{ACAD_REACTORS
330
1B5
330
1B6
102
}
330
47
100
AcDbEntity
  8
0
  6
Continuous
 62
     2
100
AcDbCircle
 10
-212.6034172062664
 20
-241.5817634955745
 30
0.0
 40
2.065479772208509
100
AcDbArc
 50
242.4518518243402
 51
297.5481481756877
  0
ARC
  5
15F
102
{ACAD_REACTORS
330
1B7
330
1B8
102
}
330
47
100
AcDbEntity
  8
0
  6
Continuous
 62
     2
100
AcDbCircle
 10
-208.4427296891266
 20
-238.7611480297035
 30
0.0
 40
0.7717997786796947
100
AcDbArc
 50
141.8795802028417
 51
218.1204197971533
  0
ARC
  5
160
102
{ACAD_REACTORS
330
1B7
330
1B8
102
}
330
47
100
AcDbEntity
  8
0
  6
Continuous
 62
     2
100
AcDbCircle
 10
-208.6424697254729
 20
-238.604416851583
 30
0.0
 40
0.5179085730135266
100
AcDbArc
 50
38.12041979714334
 51
141.8795802028508
  0
ARC
  5
161
102
{ACAD_REACTORS
330
1B9
330
1BA
102
}
330
47
100
AcDbEntity
  8
0
  6
Continuous
 62
     2
100
AcDbCircle
 10
-223.5339057396274
 20
-243.2229986523998
 30
0.0
 40
0.4242446153828041
100
AcDbArc
 50
180.0
 51
270.0
  0
ARC
  5
162
102
{ACAD_REACTORS
330
1B9
330
1BA
102
}
330
47
100
AcDbEntity
  8
0
  6
Continuous
 62
     2
100
AcDbCircle
 10
-221.4641778018713
 20
-241.0881998576179
 30
0.0
 40
0.315716923076593
100
AcDbArc
 50
0.0
 51
64.80558935146249
  0
ARC
  5
163
102
{ACAD_REACTORS
330
1B9
330
1BA
102
}
330
47
100
AcDbEntity
  8
0
  6
Continuous
 62
     2
100
AcDbCircle
 10
-220.9415933542963
 20
-239.9773701115551
 30
0.0
 40
0.9118975235576268
100
AcDbArc
 50
115.1944106485298
 51
244.8055893514854
  0
ARC
  5
164
102
{ACAD_REACTORS
330
1B9
330
1BA
102
}
330
47
100
AcDbEntity
  8
0
  6
Continuous
 62
     2
100
AcDbCircle
 10
-222.9400110628809
 20
-238.2625157464324
 30
0.0
 40
0.3157169230761951
100
AcDbArc
 50
90.0
 51
180.0
  0
ARC
  5
165
102
{ACAD_REACTORS
330
1B3
330
1B4
102
}
330
47
100
AcDbEntity
  8
0
  6
Continuous
 62
     2
100
AcDbCircle
 10
-215.6014324808639
 20
-238.2502129379088
 30
0.0
 40
0.3528638246710898
100
AcDbArc
 50
270.0
 51
90.0
  0
ARC
  5
166
102
{ACAD_REACTORS
330
1B7
330
1B8
102
}
330
47
100
AcDbEntity
  8
0
  6
Continuous
 62
     2
100
AcDbCircle
 10
-208.8587417356381
 20
-238.7611480297035
 30
0.0
 40
1.526904761905882
100
AcDbArc
 50
90.0
 51
270.0
  0
ARC
  5
167
102
{ACAD_REACTORS
330
1BB
330
1BC
102
}
330
47
100
AcDbEntity
  8
0
  6
Continuous
 62
     2
100
AcDbCircle
 10
-199.4317466429344
 20
-242.2331288679127
 30
0.0
 40
1.639695123940214
100
AcDbArc
 50
90.0
 51
164.9381082228947
  0
ARC
  5
168
102
{ACAD_REACTORS
330
1BB
330
1BC
102
}
330
47
100
AcDbEntity
  8
0
  6
Continuous
 62
     2
100
AcDbCircle
 10
-199.850874486396
 20
-242.1203385058778
 30
0.0
 40
1.205656168392975
100
AcDbArc
 50
164.9381082229024
 51
195.0618917770962
  0
ARC
  5
169
102
{ACAD_REACTORS
330
1BB
330
1BC
102
}
330
47
100
AcDbEntity
  8
0
  6
Continuous
 62
     2
100
AcDbCircle
 10
-199.3010021616186
 20
-242.3254099352163
 30
0.0
 40
0.5115800601959967
100
AcDbArc
 50
208.5214732576881
 51
246.6277221118478
  0
ARC
  5
16A
102
{ACAD_REACTORS
330
1BB
330
1BC
102
}
330
47
100
AcDbEntity
  8
0
  6
Continuous
 62
     2
100
AcDbCircle
 10
-199.3010021616186
 20
-241.9152670765388
 30
0.0
 40
0.5115800601944317
100
AcDbArc
 50
109.3371432194812
 51
151.4785267424209
  0
ARC
  5
16B
102
{ACAD_REACTORS
330
1B9
330
1BA
102
}
330
47
100
AcDbEntity
  8
0
  6
Continuous
 62
     2
100
AcDbCircle
 10
-220.3644623763492
 20
-241.6683631182186
 30
0.0
 40
0.315716923076792
100
AcDbArc
 50
180.0
 51
269.811032957449
  0
ARC
  5
16C
102
{ACAD_REACTORS
330
1B9
330
1BA
102
}
330
47
100
AcDbEntity
  8
0
  6
Continuous
 62
     2
100
AcDbCircle
 10
-220.3588462410392
 20
-239.9655281706496
 30
0.0
 40
2.018561131933237
100
AcDbArc
 50
269.8110329575858
 51
90.18896704241416
  0
ARC
  5
16D
102
{ACAD_REACTORS
330
1B9
330
1BA
102
}
330
47
100
AcDbEntity
  8
0
  6
Continuous
 62
     2
100
AcDbCircle
 10
-220.3644623763492
 20
-238.8682285115873
 30
0.0
 40
0.315716923076792
100
AcDbArc
 50
180.0
 51
244.6259913216435
  0
ARC
  5
16E
102
{ACAD_REACTORS
330
1B9
330
1BA
102
}
330
47
100
AcDbEntity
  8
0
  6
Continuous
 62
     2
100
AcDbCircle
 10
-220.3644623763492
 20
-241.0865117115235
 30
0.0
 40
0.315716923076545
100
AcDbArc
 50
115.3740086783565
 51
180.0
  0
ARC
  5
16F
102
{ACAD_REACTORS
330
1BD
330
1BE
102
}
330
47
100
AcDbEntity
  8
0
  6
Continuous
 62
     2
100
AcDbCircle
 10
-215.5344481221873
 20
-242.2331288679127
 30
0.0
 40
1.639695123940509
100
AcDbArc
 50
84.84185523036136
 51
164.9381082228864
  0
ARC
  5
170
102
{ACAD_REACTORS
330
1BD
330
1BE
102
}
330
47
100
AcDbEntity
  8
0
  6
Continuous
 62
     2
100
AcDbCircle
 10
-215.9535759656501
 20
-242.1203385058778
 30
0.0
 40
1.205656168390971
100
AcDbArc
 50
164.9381082228768
 51
195.0618917770945
  0
ARC
  5
171
102
{ACAD_REACTORS
330
1BD
330
1BE
102
}
330
47
100
AcDbEntity
  8
0
  6
Continuous
 62
     2
100
AcDbCircle
 10
-215.5344481221873
 20
-242.007548143843
 30
0.0
 40
1.639695123939387
100
AcDbArc
 50
195.0618917770896
 51
275.1581447696406
  0
ARC
  5
172
102
{ACAD_REACTORS
330
1BD
330
1BE
102
}
330
47
100
AcDbEntity
  8
0
  6
Continuous
 62
     2
100
AcDbCircle
 10
-215.8233042169232
 20
-238.8076575606214
 30
0.0
 40
4.852596863498138
100
AcDbArc
 50
275.1581447696249
 51
285.979991258353
  0
ARC
  5
173
102
{ACAD_REACTORS
330
1BD
330
1BE
102
}
330
47
100
AcDbEntity
  8
0
  6
Continuous
 62
     2
100
AcDbCircle
 10
-215.0263463827912
 20
-242.1203385058778
 30
0.0
 40
0.9410597353332545
100
AcDbArc
 50
151.4785267422669
 51
208.5214732577057
  0
ARC
  5
174
102
{ACAD_REACTORS
330
1BD
330
1BE
102
}
330
47
100
AcDbEntity
  8
0
  6
Continuous
 62
     2
100
AcDbCircle
 10
-215.4037036408715
 20
-241.9152670765388
 30
0.0
 40
0.5115800601948891
100
AcDbArc
 50
113.3722778882021
 51
151.4785267423044
  0
ARC
  5
175
102
{ACAD_REACTORS
330
1BD
330
1BE
102
}
330
47
100
AcDbEntity
  8
0
  6
Continuous
 62
     2
100
AcDbCircle
 10
-215.6654313418303
 20
-243.530804871286
 30
0.0
 40
2.227384008973492
100
AcDbArc
 50
58.0690910500401
 51
71.55192388186676
  0
ARC
  5
176
102
{ACAD_REACTORS
330
1B5
330
1B6
102
}
330
47
100
AcDbEntity
  8
0
  6
Continuous
 62
     2
100
AcDbCircle
 10
-212.6034172062664
 20
-241.9636073277573
 30
0.0
 40
0.5179085730133174
100
AcDbArc
 50
38.1204197971495
 51
141.8795802028563
  0
ARC
  5
177
102
{ACAD_REACTORS
330
1B5
330
1B6
102
}
330
47
100
AcDbEntity
  8
0
  6
Continuous
 62
     2
100
AcDbCircle
 10
-212.4036771699203
 20
-242.1203385058778
 30
0.0
 40
0.7717997786795031
100
AcDbArc
 50
141.879580202836
 51
218.1204197971674
  0
ARC
  5
178
102
{ACAD_REACTORS
330
1B5
330
1B6
102
}
330
47
100
AcDbEntity
  8
0
  6
Continuous
 62
     2
100
AcDbCircle
 10
-212.6034172062664
 20
-242.2770696839978
 30
0.0
 40
0.5179085730137354
100
AcDbArc
 50
218.1204197971931
 51
321.879580202801
  0
ARC
  5
179
102
{ACAD_REACTORS
330
1B5
330
1B6
102
}
330
47
100
AcDbEntity
  8
0
  6
Continuous
 62
     2
100
AcDbCircle
 10
-212.8031572426128
 20
-242.1203385058778
 30
0.0
 40
0.7717997786796724
100
AcDbArc
 50
321.8795802028404
 51
38.12041979715625
  0
CIRCLE
  5
17A
330
47
100
AcDbEntity
  8
1
  6
Continuous
 62
     2
100
AcDbCircle
 10
-215.4581503550102
 20
-229.8157432677995
 30
0.0
 40
2.5
  0
CIRCLE
  5
17B
330
47
100
AcDbEntity
  8
1
  6
Continuous
 62
     2
100
AcDbCircle
 10
-215.4581503550102
 20
-229.8157432677995
 30
0.0
 40
1.249999999999886
  0
CIRCLE
  5
17C
102
{ACAD_REACTORS
330
1B9
330
1BA
102
}
330
47
100
AcDbEntity
  8
0
  6
Continuous
 62
     2
100
AcDbCircle
 10
-220.9143200891099
 20
-239.9773701115551
 30
0.0
 40
0.4709789327785074
  0
MTEXT
  5
17E
330
47
100
AcDbEntity
  8
1
 62
     3
100
AcDbMText
 10
-385.644932928751
 20
-64.14943511250058
 30
0.0
 40
1.8
 41
0.0
 71
     7
 72
     1
  3
Weitergabe sowie Vervielf\U+00e4ltigung dieses Dokuments, Verwertung und \PMitteilung seines Inhalts sind verboten, soweit nicht ausdr\U+00fccklich gestattet. \PZuwiderhandlungen verpflichten zu Schadenersatz. Alle Rechte f\U+00fcr den Fall\Pder Pat
  1
ent-, Gebrauchsmuster- oder Designeintragung vorbehalten.
  7
CONVERTER_11
 73
     1
 44
0.99639855942377
  0
MTEXT
  5
17F
330
47
100
AcDbEntity
  8
1
 62
     3
100
AcDbMText
 10
-202.7918230899629
 20
-64.14943511250058
 30
0.0
 40
1.8
 41
0.0
 71
     7
 72
     1
  3
Transfer or duplication of this document as well as the utilisation or\Pcommunication of its content are not permitted unless express consent\Pis granted. Violations give rise to claims for damages. All rights reserved\Pin case of patent, utility mo
  1
del or design patent registrations.
  7
CONVERTER_11
 73
     1
 44
0.99639855942377
  0
TEXT
  5
180
330
47
100
AcDbEntity
  8
1
 62
     2
100
AcDbText
 10
-208.994805241573
 20
-249.699760482791
 30
0.0
 40
1.8
  1
of
 41
0.9
  7
CONVERTER_11
100
AcDbText
  0
TEXT
  5
181
330
47
100
AcDbEntity
  8
1
 62
     2
100
AcDbText
 10
-227.1948052415728
 20
-249.6997604827911
 30
0.0
 40
1.8
  1
page
 41
0.9
  7
CONVERTER_11
100
AcDbText
  0
TEXT
  5
182
330
47
100
AcDbEntity
  8
1
 62
     2
100
AcDbText
 10
-218.5485402712308
 20
-249.7399919216014
 30
0.0
 40
1.8
  1
1
 41
0.9
  7
CONVERTER_11
100
AcDbText
  0
TEXT
  5
183
330
47
100
AcDbEntity
  8
1
 62
     2
100
AcDbText
 10
-203.7594964317593
 20
-249.6907432677995
 30
0.0
 40
1.8
  1
1
 41
0.9
  7
CONVERTER_11
100
AcDbText
  0
MTEXT
  5
185
330
47
100
AcDbEntity
  8
1
 62
     7
100
AcDbMText
 10
-145.2224029781973
 20
-247.6907432677992
 30
0.0
 40
3.0
 41
0.0
 71
     5
 72
     1
  1
HC-RBO 16 BU
  7
CONVERTER_12
 73
     1
 44
1.20048019207683
  0
MTEXT
  5
186
330
47
100
AcDbEntity
  8
1
 62
     2
100
AcDbMText
 10
-190.7948052415729
 20
-243.4407432677994
 30
0.0
 40
1.8
 41
0.0
 71
     1
 72
     1
  1
description
  7
CONVERTER_11
 73
     1
 44
1.20048019207683
  0
MTEXT
  5
187
330
47
100
AcDbEntity
  8
1
 62
     3
100
AcDbMText
 10
-201.9948052415729
 20
-229.8157432677994
 30
0.0
 40
2.5
 41
0.0
 71
     5
 72
     1
  1
DIN A4
  7
CONVERTER_11
 73
     1
 44
1.20048019207683
  0
MTEXT
  5
188
330
47
100
AcDbEntity
  8
1
 62
     7
100
AcDbMText
 10
-388.1500007148219
 20
-228.4407432677994
 30
0.0
 40
3.5
 41
0.0
 71
     5
 72
     1
  1
D
  7
CONVERTER_11
 73
     1
 44
1.20048019207683
  0
MTEXT
  5
189
330
47
100
AcDbEntity
  8
1
 62
     7
100
AcDbMText
 10
-388.1500007148219
 20
-175.9407432677994
 30
0.0
 40
3.5
 41
0.0
 71
     5
 72
     1
  1
C
  7
CONVERTER_11
 73
     1
 44
1.20048019207683
  0
MTEXT
  5
18A
330
47
100
AcDbEntity
  8
1
 62
     7
100
AcDbMText
 10
-388.1500007148219
 20
-125.9407432677994
 30
0.0
 40
3.5
 41
0.0
 71
     5
 72
     1
  1
B
  7
CONVERTER_11
 73
     1
 44
1.20048019207683
  0
MTEXT
  5
18B
330
47
100
AcDbEntity
  8
1
 62
     7
100
AcDbMText
 10
-388.1500007148219
 20
-73.44074326779938
 30
0.0
 40
3.5
 41
0.0
 71
     5
 72
     1
  1
A
  7
CONVERTER_11
 73
     1
 44
1.20048019207683
  0
MTEXT
  5
18C
330
47
100
AcDbEntity
  8
1
 62
     7
100
AcDbMText
 10
-117.9000007148236
 20
-253.4407432677995
 30
0.0
 40
3.5
 41
0.0
 71
     5
 72
     1
  1
6
  7
CONVERTER_11
 73
     1
 44
1.20048019207683
  0
MTEXT
  5
18D
330
47
100
AcDbEntity
  8
1
 62
     7
100
AcDbMText
 10
-167.1500007148228
 20
-253.4407432677995
 30
0.0
 40
3.5
 41
0.0
 71
     5
 72
     1
  1
5
  7
CONVERTER_11
 73
     1
 44
1.20048019207683
  0
MTEXT
  5
18E
330
47
100
AcDbEntity
  8
1
 62
     7
100
AcDbMText
 10
-217.1500007148229
 20
-253.4407432677995
 30
0.0
 40
3.5
 41
0.0
 71
     5
 72
     1
  1
4
  7
CONVERTER_11
 73
     1
 44
1.20048019207683
  0
MTEXT
  5
18F
330
47
100
AcDbEntity
  8
1
 62
     7
100
AcDbMText
 10
-267.1500007148228
 20
-253.4407432677995
 30
0.0
 40
3.5
 41
0.0
 71
     5
 72
     1
  1
3
  7
CONVERTER_11
 73
     1
 44
1.20048019207683
  0
MTEXT
  5
190
330
47
100
AcDbEntity
  8
1
 62
     7
100
AcDbMText
 10
-317.1500007148228
 20
-253.4407432677995
 30
0.0
 40
3.5
 41
0.0
 71
     5
 72
     1
  1
2
  7
CONVERTER_11
 73
     1
 44
1.20048019207683
  0
MTEXT
  5
191
330
47
100
AcDbEntity
  8
1
 62
     7
100
AcDbMText
 10
-366.4000007148224
 20
-253.4407432677995
 30
0.0
 40
3.5
 41
0.0
 71
     5
 72
     1
  1
1
  7
CONVERTER_11
 73
     1
 44
1.20048019207683
  0
MTEXT
  5
192
330
47
100
AcDbEntity
  8
1
 62
     7
100
AcDbMText
 10
-96.15000071482382
 20
-228.4407432677994
 30
0.0
 40
3.5
 41
0.0
 71
     5
 72
     1
  1
D
  7
CONVERTER_11
 73
     1
 44
1.20048019207683
  0
MTEXT
  5
193
330
47
100
AcDbEntity
  8
1
 62
     7
100
AcDbMText
 10
-96.15000071482382
 20
-125.9407432677975
 30
0.0
 40
3.5
 41
0.0
 71
     5
 72
     1
  1
B
  7
CONVERTER_11
 73
     1
 44
1.20048019207683
  0
MTEXT
  5
194
330
47
100
AcDbEntity
  8
1
 62
     7
100
AcDbMText
 10
-96.15000071482382
 20
-73.44074326779938
 30
0.0
 40
3.5
 41
0.0
 71
     5
 72
     1
  1
A
  7
CONVERTER_11
 73
     1
 44
1.20048019207683
  0
MTEXT
  5
195
330
47
100
AcDbEntity
  8
1
 62
     7
100
AcDbMText
 10
-96.15000071482382
 20
-175.9407432677975
 30
0.0
 40
3.5
 41
0.0
 71
     5
 72
     1
  1
C
  7
CONVERTER_11
 73
     1
 44
1.20048019207683
  0
MTEXT
  5
196
330
47
100
AcDbEntity
  8
1
 62
     2
100
AcDbMText
 10
-262.6328199666203
 20
-238.1907432677995
 30
0.0
 40
2.0
 41
0.0
 71
     5
 72
     1
  1
General Information\P- Simplified representation\P- Document excluded from change process\P- Linear dimensions [mm]
  7
CONVERTER_11
 73
     1
 44
1.20048019207683
  0
TEXT
  5
197
330
47
100
AcDbEntity
  8
1
 62
     7
100
AcDbText
 10
-190.2948052415731
 20
-241.1407432677995
 30
0.0
 40
2.5
  1
3247998
 41
0.81
  7
CONVERTER_12
100
AcDbText
  0
MTEXT
  5
198
330
47
100
AcDbEntity
  8
1
 62
     2
100
AcDbMText
 10
-190.6948052415728
 20
-234.9407432677994
 30
0.0
 40
1.8
 41
0.0
 71
     1
 72
     1
  1
ident.-No.
  7
CONVERTER_11
 73
     1
 44
1.20048019207683
  0
MTEXT
  5
199
330
47
100
AcDbEntity
  8
1
 62
     2
100
AcDbMText
 10
-106.4684089965001
 20
-226.4407432677994
 30
0.0
 40
1.8
 41
0.0
 71
     1
 72
     1
  1
scale
  7
CONVERTER_11
 73
     1
 44
1.20048019207683
  0
MTEXT
  5
19B
330
47
100
AcDbEntity
  8
1
 62
     3
100
AcDbMText
 10
-103.1092048556605
 20
-232.6407432677993
 30
0.0
 40
2.5
 41
0.0
 71
     8
 72
     1
  1
1:2
  7
CONVERTER_13
 73
     1
 44
1.32052821128451
  0
TEXT
  5
19C
330
47
100
AcDbEntity
  8
1
 62
     7
100
AcDbText
 10
-190.6948052415728
 20
-232.6407432677995
 30
0.0
 40
2.5
  1
01095277
 41
0.81
  7
CONVERTER_12
100
AcDbText
  0
MTEXT
  5
19E
330
47
100
AcDbEntity
  8
1
 62
     2
100
AcDbMText
 10
-190.6948052415728
 20
-226.4407432677994
 30
0.0
 40
1.8
 41
0.0
 71
     1
 72
     1
  1
document-No. / RI
  7
CONVERTER_14
 73
     1
 44
1.32052821128451
  0
TEXT
  5
19F
330
47
100
AcDbEntity
  8
1
 62
     3
100
AcDbText
 10
-162.8948052415728
 20
-241.1407432677995
 30
0.0
 40
2.5
  1
TECDOC 2D_Productdrawing
 41
0.81
  7
CONVERTER_12
100
AcDbText
  0
MTEXT
  5
1A0
330
47
100
AcDbEntity
  8
1
 62
     2
100
AcDbMText
 10
-162.8948052415728
 20
-234.9407432677995
 30
0.0
 40
1.8
 41
0.0
 71
     1
 72
     1
  1
document-type
  7
CONVERTER_11
 73
     1
 44
1.20048019207683
  0
MTEXT
  5
1A1
330
47
100
AcDbEntity
  8
1
 62
     2
100
AcDbMText
 10
-133.0684089964999
 20
-226.4407432677995
 30
0.0
 40
1.8
 41
0.0
 71
     1
 72
     1
  1
date
  7
CONVERTER_11
 73
     1
 44
1.32052821128451
  0
TEXT
  5
1A2
330
47
100
AcDbEntity
  8
1
 62
     3
100
AcDbText
 10
-133.0684089964999
 20
-232.6407432677995
 30
0.0
 40
2.5
  1
13.01.2018
 41
0.81
  7
CONVERTER_12
100
AcDbText
  0
TEXT
  5
1A3
330
47
100
AcDbEntity
  8
1
 62
     7
100
AcDbText
 10
-170.664893022517
 20
-232.6407432677995
 30
0.0
 40
2.5
  1
00
 41
0.81
  7
CONVERTER_12
100
AcDbText
  0
TEXT
  5
1A4
330
47
100
AcDbEntity
  8
1
 62
     7
100
AcDbText
 10
-172.821257519559
 20
-232.6407432677995
 30
0.0
 40
2.5
  1
/
 41
0.9
  7
CONVERTER_11
100
AcDbText
  0
HATCH
  5
1A5
330
47
100
AcDbEntity
  8
1
  6
Continuous
 62
     2
100
AcDbHatch
 10
0.0
 20
0.0
 30
0.0
210
0.0
220
0.0
230
1.0
  2
_USER
 70
     0
 71
     1
 91
        1
 92
        1
 93
       12
 72
     1
 10
-210.5273045286117
 20
-240.2880527916088
 11
-211.7200972307781
 21
-240.2880527916088
 72
     1
 10
-211.7200972307781
 20
-240.2880527916088
 11
-211.7200972307781
 21
-239.153780682765
 72
     1
 10
-211.7200972307781
 20
-239.153780682765
 11
-212.7697548086856
 21
-239.153780682765
 72
     1
 10
-212.7697548086856
 20
-239.153780682765
 11
-212.7697548086856
 21
-240.2880527916088
 72
     1
 10
-212.7697548086856
 20
-240.2880527916088
 11
-213.9625475108522
 21
-240.2880527916088
 72
     1
 10
-213.9625475108522
 20
-240.2880527916088
 11
-213.9625475108522
 21
-237.2342432677976
 72
     1
 10
-213.9625475108522
 20
-237.2342432677976
 11
-212.7697548086856
 21
-237.2342432677976
 72
     1
 10
-212.7697548086856
 20
-237.2342432677976
 11
-212.7697548086856
 21
-238.3030766011322
 72
     1
 10
-212.7697548086856
 20
-238.3030766011322
 11
-211.7200972307781
 21
-238.3030766011322
 72
     1
 10
-211.7200972307781
 20
-238.3030766011322
 11
-211.7200972307781
 21
-237.2342432677976
 72
     1
 10
-211.7200972307781
 20
-237.2342432677976
 11
-210.5273045286117
 21
-237.2342432677976
 72
     1
 10
-210.5273045286117
 20
-237.2342432677976
 11
-210.5273045286117
 21
-240.2880527916088
 97
       12
330
111
330
112
330
FC
330
FB
330
FA
330
10E
330
F9
330
10F
330
110
330
F8
330
F7
330
F6
 75
     1
 76
     0
 52
45.0
 41
0.1
 77
     0
 78
     1
 53
45.0
 43
0.0
 44
0.0
 45
-0.0707106781186548
 46
0.0707106781186548
 79
     0
 98
        1
 10
0.0
 20
0.0
  0
HATCH
  5
1A6
330
47
100
AcDbEntity
  8
1
  6
Continuous
 62
     2
100
AcDbHatch
 10
0.0
 20
0.0
 30
0.0
210
0.0
220
0.0
230
1.0
  2
_USER
 70
     0
 71
     1
 91
        1
 92
        1
 93
       12
 72
     1
 10
-210.5273045286117
 20
-240.2880527916088
 11
-211.7200972307781
 21
-240.2880527916088
 72
     1
 10
-211.7200972307781
 20
-240.2880527916088
 11
-211.7200972307781
 21
-239.153780682765
 72
     1
 10
-211.7200972307781
 20
-239.153780682765
 11
-212.7697548086856
 21
-239.153780682765
 72
     1
 10
-212.7697548086856
 20
-239.153780682765
 11
-212.7697548086856
 21
-240.2880527916088
 72
     1
 10
-212.7697548086856
 20
-240.2880527916088
 11
-213.9625475108522
 21
-240.2880527916088
 72
     1
 10
-213.9625475108522
 20
-240.2880527916088
 11
-213.9625475108522
 21
-237.2342432677976
 72
     1
 10
-213.9625475108522
 20
-237.2342432677976
 11
-212.7697548086856
 21
-237.2342432677976
 72
     1
 10
-212.7697548086856
 20
-237.2342432677976
 11
-212.7697548086856
 21
-238.3030766011322
 72
     1
 10
-212.7697548086856
 20
-238.3030766011322
 11
-211.7200972307781
 21
-238.3030766011322
 72
     1
 10
-211.7200972307781
 20
-238.3030766011322
 11
-211.7200972307781
 21
-237.2342432677976
 72
     1
 10
-211.7200972307781
 20
-237.2342432677976
 11
-210.5273045286117
 21
-237.2342432677976
 72
     1
 10
-210.5273045286117
 20
-237.2342432677976
 11
-210.5273045286117
 21
-240.2880527916088
 97
       12
330
111
330
112
330
FC
330
FB
330
FA
330
10E
330
F9
330
10F
330
110
330
F8
330
F7
330
F6
 75
     1
 76
     0
 52
45.0
 41
0.1
 77
     0
 78
     1
 53
45.0
 43
0.0
 44
0.0
 45
-0.0707106781186548
 46
0.0707106781186548
 79
     0
 98
        1
 10
0.0
 20
0.0
  0
HATCH
  5
1A7
330
47
100
AcDbEntity
  8
1
  6
Continuous
 62
     2
100
AcDbHatch
 10
0.0
 20
0.0
 30
0.0
210
0.0
220
0.0
230
1.0
  2
_USER
 70
     0
 71
     1
 91
        1
 92
        1
 93
       10
 72
     1
 10
-208.2850051794234
 20
-241.9022092541771
 11
-209.5255095896763
 21
-240.593433743972
 72
     1
 10
-209.5255095896763
 20
-240.593433743972
 11
-210.7183022918439
 21
-240.593433743972
 72
     1
 10
-210.7183022918439
 20
-240.593433743972
 11
-210.7183022918439
 21
-243.6472432677831
 72
     1
 10
-210.7183022918439
 20
-243.6472432677831
 11
-209.5255095896763
 21
-243.6472432677831
 72
     1
 10
-209.5255095896763
 20
-243.6472432677831
 11
-209.5255095896763
 21
-242.3384677575785
 72
     1
 10
-209.5255095896763
 20
-242.3384677575785
 11
-208.2850051794234
 21
-243.6472432677831
 72
     1
 10
-208.2850051794234
 20
-243.6472432677831
 11
-207.092212477257
 21
-243.6472432677831
 72
     1
 10
-207.092212477257
 20
-243.6472432677831
 11
-207.092212477257
 21
-240.593433743972
 72
     1
 10
-207.092212477257
 20
-240.593433743972
 11
-208.2850051794234
 21
-240.593433743972
 72
     1
 10
-208.2850051794234
 20
-240.593433743972
 11
-208.2850051794234
 21
-241.9022092541771
 97
       10
330
11F
330
EF
330
EE
330
F1
330
11A
330
11B
330
F0
330
11C
330
11D
330
11E
 75
     1
 76
     0
 52
45.0
 41
0.1
 77
     0
 78
     1
 53
45.0
 43
0.0
 44
0.0
 45
-0.0707106781186548
 46
0.0707106781186548
 79
     0
 98
        1
 10
0.0
 20
0.0
  0
HATCH
  5
1A8
330
47
100
AcDbEntity
  8
1
  6
Continuous
 62
     2
100
AcDbHatch
 10
0.0
 20
0.0
 30
0.0
210
0.0
220
0.0
230
1.0
  2
_USER
 70
     0
 71
     1
 91
        1
 92
        1
 93
       10
 72
     1
 10
-208.2850051794234
 20
-241.9022092541771
 11
-209.5255095896763
 21
-240.593433743972
 72
     1
 10
-209.5255095896763
 20
-240.593433743972
 11
-210.7183022918439
 21
-240.593433743972
 72
     1
 10
-210.7183022918439
 20
-240.593433743972
 11
-210.7183022918439
 21
-243.6472432677831
 72
     1
 10
-210.7183022918439
 20
-243.6472432677831
 11
-209.5255095896763
 21
-243.6472432677831
 72
     1
 10
-209.5255095896763
 20
-243.6472432677831
 11
-209.5255095896763
 21
-242.3384677575785
 72
     1
 10
-209.5255095896763
 20
-242.3384677575785
 11
-208.2850051794234
 21
-243.6472432677831
 72
     1
 10
-208.2850051794234
 20
-243.6472432677831
 11
-207.092212477257
 21
-243.6472432677831
 72
     1
 10
-207.092212477257
 20
-243.6472432677831
 11
-207.092212477257
 21
-240.593433743972
 72
     1
 10
-207.092212477257
 20
-240.593433743972
 11
-208.2850051794234
 21
-240.593433743972
 72
     1
 10
-208.2850051794234
 20
-240.593433743972
 11
-208.2850051794234
 21
-241.9022092541771
 97
       10
330
11F
330
EF
330
EE
330
F1
330
11A
330
11B
330
F0
330
11C
330
11D
330
11E
 75
     1
 76
     0
 52
45.0
 41
0.1
 77
     0
 78
     1
 53
45.0
 43
0.0
 44
0.0
 45
-0.0707106781186548
 46
0.0707106781186548
 79
     0
 98
        1
 10
0.0
 20
0.0
  0
HATCH
  5
1A9
330
47
100
AcDbEntity
  8
1
  6
Continuous
 62
     2
100
AcDbHatch
 10
0.0
 20
0.0
 30
0.0
210
0.0
220
0.0
230
1.0
  2
_USER
 70
     0
 71
     1
 91
        1
 92
        1
 93
       10
 72
     1
 10
-203.0365663590037
 20
-238.5430187780028
 11
-204.2770707692577
 21
-237.2342432677976
 72
     1
 10
-204.2770707692577
 20
-237.2342432677976
 11
-205.4698634714242
 21
-237.2342432677976
 72
     1
 10
-205.4698634714242
 20
-237.2342432677976
 11
-205.4698634714242
 21
-240.2880527916088
 72
     1
 10
-205.4698634714242
 20
-240.2880527916088
 11
-204.2770707692577
 21
-240.2880527916088
 72
     1
 10
-204.2770707692577
 20
-240.2880527916088
 11
-204.2770707692577
 21
-238.9792772814041
 72
     1
 10
-204.2770707692577
 20
-238.9792772814041
 11
-203.0365663590037
 21
-240.2880527916088
 72
     1
 10
-203.0365663590037
 20
-240.2880527916088
 11
-201.8437736568371
 21
-240.2880527916088
 72
     1
 10
-201.8437736568371
 20
-240.2880527916088
 11
-201.8437736568371
 21
-237.2342432677976
 72
     1
 10
-201.8437736568371
 20
-237.2342432677976
 11
-203.0365663590037
 21
-237.2342432677976
 72
     1
 10
-203.0365663590037
 20
-237.2342432677976
 11
-203.0365663590037
 21
-238.5430187780028
 97
       10
330
124
330
EC
330
EB
330
125
330
EA
330
120
330
121
330
122
330
123
330
ED
 75
     1
 76
     0
 52
45.0
 41
0.1
 77
     0
 78
     1
 53
45.0
 43
0.0
 44
0.0
 45
-0.0707106781186548
 46
0.0707106781186548
 79
     0
 98
        1
 10
0.0
 20
0.0
  0
HATCH
  5
1AA
330
47
100
AcDbEntity
  8
1
  6
Continuous
 62
     2
100
AcDbHatch
 10
0.0
 20
0.0
 30
0.0
210
0.0
220
0.0
230
1.0
  2
_USER
 70
     0
 71
     1
 91
        1
 92
        1
 93
       10
 72
     1
 10
-203.0365663590037
 20
-238.5430187780028
 11
-204.2770707692577
 21
-237.2342432677976
 72
     1
 10
-204.2770707692577
 20
-237.2342432677976
 11
-205.4698634714242
 21
-237.2342432677976
 72
     1
 10
-205.4698634714242
 20
-237.2342432677976
 11
-205.4698634714242
 21
-240.2880527916088
 72
     1
 10
-205.4698634714242
 20
-240.2880527916088
 11
-204.2770707692577
 21
-240.2880527916088
 72
     1
 10
-204.2770707692577
 20
-240.2880527916088
 11
-204.2770707692577
 21
-238.9792772814041
 72
     1
 10
-204.2770707692577
 20
-238.9792772814041
 11
-203.0365663590037
 21
-240.2880527916088
 72
     1
 10
-203.0365663590037
 20
-240.2880527916088
 11
-201.8437736568371
 21
-240.2880527916088
 72
     1
 10
-201.8437736568371
 20
-240.2880527916088
 11
-201.8437736568371
 21
-237.2342432677976
 72
     1
 10
-201.8437736568371
 20
-237.2342432677976
 11
-203.0365663590037
 21
-237.2342432677976
 72
     1
 10
-203.0365663590037
 20
-237.2342432677976
 11
-203.0365663590037
 21
-238.5430187780028
 97
       10
330
124
330
EC
330
EB
330
125
330
EA
330
120
330
121
330
122
330
123
330
ED
 75
     1
 76
     0
 52
45.0
 41
0.1
 77
     0
 78
     1
 53
45.0
 43
0.0
 44
0.0
 45
-0.0707106781186548
 46
0.0707106781186548
 79
     0
 98
        1
 10
0.0
 20
0.0
  0
HATCH
  5
1AB
330
47
100
AcDbEntity
  8
1
  6
Continuous
 62
     2
100
AcDbHatch
 10
0.0
 20
0.0
 30
0.0
210
0.0
220
0.0
230
1.0
  2
_USER
 70
     0
 71
     1
 91
        1
 92
        1
 93
        8
 72
     1
 10
-204.1340865758832
 20
-240.593433743972
 11
-206.9490773529968
 21
-240.593433743972
 72
     1
 10
-206.9490773529968
 20
-240.593433743972
 11
-206.9490773529968
 21
-241.3786990500956
 72
     1
 10
-206.9490773529968
 20
-241.3786990500956
 11
-206.1379783155222
 21
-241.3786990500956
 72
     1
 10
-206.1379783155222
 20
-241.3786990500956
 11
-206.1379783155222
 21
-243.6472432677831
 72
     1
 10
-206.1379783155222
 20
-243.6472432677831
 11
-204.9451856133557
 21
-243.6472432677831
 72
     1
 10
-204.9451856133557
 20
-243.6472432677831
 11
-204.9451856133557
 21
-241.3786990500956
 72
     1
 10
-204.9451856133557
 20
-241.3786990500956
 11
-204.1340865758832
 21
-241.3786990500956
 72
     1
 10
-204.1340865758832
 20
-241.3786990500956
 11
-204.1340865758832
 21
-240.593433743972
 97
        8
330
E6
330
126
330
E5
330
127
330
128
330
E9
330
E8
330
E7
 75
     1
 76
     0
 52
45.0
 41
0.1
 77
     0
 78
     1
 53
45.0
 43
0.0
 44
0.0
 45
-0.0707106781186548
 46
0.0707106781186548
 79
     0
 98
        1
 10
0.0
 20
0.0
  0
HATCH
  5
1AC
330
47
100
AcDbEntity
  8
1
  6
Continuous
 62
     2
100
AcDbHatch
 10
0.0
 20
0.0
 30
0.0
210
0.0
220
0.0
230
1.0
  2
_USER
 70
     0
 71
     1
 91
        1
 92
        1
 93
        8
 72
     1
 10
-204.1340865758832
 20
-240.593433743972
 11
-206.9490773529968
 21
-240.593433743972
 72
     1
 10
-206.9490773529968
 20
-240.593433743972
 11
-206.9490773529968
 21
-241.3786990500956
 72
     1
 10
-206.9490773529968
 20
-241.3786990500956
 11
-206.1379783155222
 21
-241.3786990500956
 72
     1
 10
-206.1379783155222
 20
-241.3786990500956
 11
-206.1379783155222
 21
-243.6472432677831
 72
     1
 10
-206.1379783155222
 20
-243.6472432677831
 11
-204.9451856133557
 21
-243.6472432677831
 72
     1
 10
-204.9451856133557
 20
-243.6472432677831
 11
-204.9451856133557
 21
-241.3786990500956
 72
     1
 10
-204.9451856133557
 20
-241.3786990500956
 11
-204.1340865758832
 21
-241.3786990500956
 72
     1
 10
-204.1340865758832
 20
-241.3786990500956
 11
-204.1340865758832
 21
-240.593433743972
 97
        8
330
E6
330
126
330
E5
330
127
330
128
330
E9
330
E8
330
E7
 75
     1
 76
     0
 52
45.0
 41
0.1
 77
     0
 78
     1
 53
45.0
 43
0.0
 44
0.0
 45
-0.0707106781186548
 46
0.0707106781186548
 79
     0
 98
        1
 10
0.0
 20
0.0
  0
HATCH
  5
1AD
330
47
100
AcDbEntity
  8
1
  6
Continuous
 62
     2
100
AcDbHatch
 10
0.0
 20
0.0
 30
0.0
210
0.0
220
0.0
230
1.0
  2
_USER
 70
     0
 71
     1
 91
        2
 92
        1
 93
        8
 72
     1
 10
-201.9956591199362
 20
-243.6472432677831
 11
-202.207139173412
 21
-243.1062827235652
 72
     1
 10
-202.207139173412
 20
-243.1062827235652
 11
-203.3395807500858
 21
-243.1062827235652
 72
     1
 10
-203.3395807500858
 20
-243.1062827235652
 11
-203.5510608035616
 21
-243.6472432677831
 72
     1
 10
-203.5510608035616
 20
-243.6472432677831
 11
-204.7915652138146
 21
-243.6472432677831
 72
     1
 10
-204.7915652138146
 20
-243.6472432677831
 11
-203.3936121668753
 21
-240.593433743972
 72
     1
 10
-203.3936121668753
 20
-240.593433743972
 11
-202.1531077566226
 21
-240.593433743972
 72
     1
 10
-202.1531077566226
 20
-240.593433743972
 11
-200.7551547096823
 21
-243.6472432677831
 72
     1
 10
-200.7551547096823
 20
-243.6472432677831
 11
-201.9956591199362
 21
-243.6472432677831
 97
        8
330
12A
330
12B
330
E2
330
12C
330
E1
330
E4
330
129
330
E3
 92
       16
 93
        3
 72
     1
 10
-203.0735251989408
 20
-242.4257194582586
 11
-202.7733599617484
 21
-241.6579044922719
 72
     1
 10
-202.7733599617484
 20
-241.6579044922719
 11
-202.4731947245583
 21
-242.4257194582586
 72
     1
 10
-202.4731947245583
 20
-242.4257194582586
 11
-203.0735251989408
 21
-242.4257194582586
 97
        3
330
E0
330
12E
330
12D
 75
     1
 76
     0
 52
45.0
 41
0.1
 77
     0
 78
     1
 53
45.0
 43
0.0
 44
0.0
 45
-0.0707106781186548
 46
0.0707106781186548
 79
     0
 98
        1
 10
0.0
 20
0.0
  0
HATCH
  5
1AE
330
47
100
AcDbEntity
  8
1
  6
Continuous
 62
     2
100
AcDbHatch
 10
0.0
 20
0.0
 30
0.0
210
0.0
220
0.0
230
1.0
  2
_USER
 70
     0
 71
     1
 91
        2
 92
        1
 93
        8
 72
     1
 10
-201.9956591199362
 20
-243.6472432677831
 11
-202.207139173412
 21
-243.1062827235652
 72
     1
 10
-202.207139173412
 20
-243.1062827235652
 11
-203.3395807500858
 21
-243.1062827235652
 72
     1
 10
-203.3395807500858
 20
-243.1062827235652
 11
-203.5510608035616
 21
-243.6472432677831
 72
     1
 10
-203.5510608035616
 20
-243.6472432677831
 11
-204.7915652138146
 21
-243.6472432677831
 72
     1
 10
-204.7915652138146
 20
-243.6472432677831
 11
-203.3936121668753
 21
-240.593433743972
 72
     1
 10
-203.3936121668753
 20
-240.593433743972
 11
-202.1531077566226
 21
-240.593433743972
 72
     1
 10
-202.1531077566226
 20
-240.593433743972
 11
-200.7551547096823
 21
-243.6472432677831
 72
     1
 10
-200.7551547096823
 20
-243.6472432677831
 11
-201.9956591199362
 21
-243.6472432677831
 97
        8
330
12A
330
12B
330
E2
330
12C
330
E1
330
E4
330
129
330
E3
 92
       16
 93
        3
 72
     1
 10
-203.0735251989408
 20
-242.4257194582586
 11
-202.7733599617484
 21
-241.6579044922719
 72
     1
 10
-202.7733599617484
 20
-241.6579044922719
 11
-202.4731947245583
 21
-242.4257194582586
 72
     1
 10
-202.4731947245583
 20
-242.4257194582586
 11
-203.0735251989408
 21
-242.4257194582586
 97
        3
330
E0
330
12E
330
12D
 75
     1
 76
     0
 52
45.0
 41
0.1
 77
     0
 78
     1
 53
45.0
 43
0.0
 44
0.0
 45
-0.0707106781186548
 46
0.0707106781186548
 79
     0
 98
        1
 10
0.0
 20
0.0
  0
HATCH
  5
1AF
330
47
100
AcDbEntity
  8
1
  6
Continuous
 62
     2
100
AcDbHatch
 10
0.0
 20
0.0
 30
0.0
210
0.0
220
0.0
230
1.0
  2
_USER
 70
     0
 71
     1
 91
        1
 92
        1
 93
        4
 72
     1
 10
-200.3647107061503
 20
-240.2880527916088
 11
-201.6052151164032
 21
-240.2880527916088
 72
     1
 10
-201.6052151164032
 20
-240.2880527916088
 11
-201.6052151164032
 21
-237.2342432677976
 72
     1
 10
-201.6052151164032
 20
-237.2342432677976
 11
-200.3647107061503
 21
-237.2342432677976
 72
     1
 10
-200.3647107061503
 20
-237.2342432677976
 11
-200.3647107061503
 21
-240.2880527916088
 97
        4
330
DD
330
DF
330
12F
330
DE
 75
     1
 76
     0
 52
45.0
 41
0.1
 77
     0
 78
     1
 53
45.0
 43
0.0
 44
0.0
 45
-0.0707106781186548
 46
0.0707106781186548
 79
     0
 98
        1
 10
0.0
 20
0.0
  0
HATCH
  5
1B0
330
47
100
AcDbEntity
  8
1
  6
Continuous
 62
     2
100
AcDbHatch
 10
0.0
 20
0.0
 30
0.0
210
0.0
220
0.0
230
1.0
  2
_USER
 70
     0
 71
     1
 91
        1
 92
        1
 93
        4
 72
     1
 10
-200.3647107061503
 20
-240.2880527916088
 11
-201.6052151164032
 21
-240.2880527916088
 72
     1
 10
-201.6052151164032
 20
-240.2880527916088
 11
-201.6052151164032
 21
-237.2342432677976
 72
     1
 10
-201.6052151164032
 20
-237.2342432677976
 11
-200.3647107061503
 21
-237.2342432677976
 72
     1
 10
-200.3647107061503
 20
-237.2342432677976
 11
-200.3647107061503
 21
-240.2880527916088
 97
        4
330
DD
330
DF
330
12F
330
DE
 75
     1
 76
     0
 52
45.0
 41
0.1
 77
     0
 78
     1
 53
45.0
 43
0.0
 44
0.0
 45
-0.0707106781186548
 46
0.0707106781186548
 79
     0
 98
        1
 10
0.0
 20
0.0
  0
HATCH
  5
1B1
330
47
100
AcDbEntity
  8
1
  6
Continuous
 62
     2
100
AcDbHatch
 10
0.0
 20
0.0
 30
0.0
210
0.0
220
0.0
230
1.0
  2
_USER
 70
     0
 71
     1
 91
        1
 92
        1
 93
       12
 72
     1
 10
-196.1422245404795
 20
-237.2342432677976
 11
-197.444754171246
 21
-238.7071937978338
 72
     1
 10
-197.444754171246
 20
-238.7071937978338
 11
-196.0468011243057
 21
-240.2880527916088
 72
     1
 10
-196.0468011243057
 20
-240.2880527916088
 11
-197.449525342054
 21
-240.2880527916088
 72
     1
 10
-197.449525342054
 20
-240.2880527916088
 11
-198.1461162801195
 21
-239.5003210063151
 72
     1
 10
-198.1461162801195
 20
-239.5003210063151
 11
-198.8427072181852
 21
-240.2880527916088
 72
     1
 10
-198.8427072181852
 20
-240.2880527916088
 11
-200.2454314359334
 21
-240.2880527916088
 72
     1
 10
-200.2454314359334
 20
-240.2880527916088
 11
-198.8474783889931
 21
-238.7071937978338
 72
     1
 10
-198.8474783889931
 20
-238.7071937978338
 11
-200.1500080197606
 21
-237.2342432677976
 72
     1
 10
-200.1500080197606
 20
-237.2342432677976
 11
-198.7472838020113
 21
-237.2342432677976
 72
     1
 10
-198.7472838020113
 20
-237.2342432677976
 11
-198.1461162801195
 21
-237.9140665893531
 72
     1
 10
-198.1461162801195
 20
-237.9140665893531
 11
-197.5449487582267
 21
-237.2342432677976
 72
     1
 10
-197.5449487582267
 20
-237.2342432677976
 11
-196.1422245404795
 21
-237.2342432677976
 97
       12
330
D8
330
D7
330
D6
330
133
330
134
330
130
330
131
330
DC
330
DB
330
DA
330
D9
330
132
 75
     1
 76
     0
 52
45.0
 41
0.1
 77
     0
 78
     1
 53
45.0
 43
0.0
 44
0.0
 45
-0.0707106781186548
 46
0.0707106781186548
 79
     0
 98
        1
 10
0.0
 20
0.0
  0
HATCH
  5
1B2
330
47
100
AcDbEntity
  8
1
  6
Continuous
 62
     2
100
AcDbHatch
 10
0.0
 20
0.0
 30
0.0
210
0.0
220
0.0
230
1.0
  2
_USER
 70
     0
 71
     1
 91
        1
 92
        1
 93
       12
 72
     1
 10
-196.1422245404795
 20
-237.2342432677976
 11
-197.444754171246
 21
-238.7071937978338
 72
     1
 10
-197.444754171246
 20
-238.7071937978338
 11
-196.0468011243057
 21
-240.2880527916088
 72
     1
 10
-196.0468011243057
 20
-240.2880527916088
 11
-197.449525342054
 21
-240.2880527916088
 72
     1
 10
-197.449525342054
 20
-240.2880527916088
 11
-198.1461162801195
 21
-239.5003210063151
 72
     1
 10
-198.1461162801195
 20
-239.5003210063151
 11
-198.8427072181852
 21
-240.2880527916088
 72
     1
 10
-198.8427072181852
 20
-240.2880527916088
 11
-200.2454314359334
 21
-240.2880527916088
 72
     1
 10
-200.2454314359334
 20
-240.2880527916088
 11
-198.8474783889931
 21
-238.7071937978338
 72
     1
 10
-198.8474783889931
 20
-238.7071937978338
 11
-200.1500080197606
 21
-237.2342432677976
 72
     1
 10
-200.1500080197606
 20
-237.2342432677976
 11
-198.7472838020113
 21
-237.2342432677976
 72
     1
 10
-198.7472838020113
 20
-237.2342432677976
 11
-198.1461162801195
 21
-237.9140665893531
 72
     1
 10
-198.1461162801195
 20
-237.9140665893531
 11
-197.5449487582267
 21
-237.2342432677976
 72
     1
 10
-197.5449487582267
 20
-237.2342432677976
 11
-196.1422245404795
 21
-237.2342432677976
 97
       12
330
D8
330
D7
330
D6
330
133
330
134
330
130
330
131
330
DC
330
DB
330
DA
330
D9
330
132
 75
     1
 76
     0
 52
45.0
 41
0.1
 77
     0
 78
     1
 53
45.0
 43
0.0
 44
0.0
 45
-0.0707106781186548
 46
0.0707106781186548
 79
     0
 98
        1
 10
0.0
 20
0.0
  0
HATCH
  5
1B3
330
47
100
AcDbEntity
  8
1
  6
Continuous
 62
     2
100
AcDbHatch
 10
0.0
 20
0.0
 30
0.0
210
0.0
220
0.0
230
1.0
  2
_USER
 70
     0
 71
     1
 91
        2
 92
        1
 93
        6
 72
     1
 10
-215.1599599546255
 20
-239.344974550465
 11
-215.9187275424058
 21
-239.344974550465
 72
     1
 10
-215.9187275424058
 20
-239.344974550465
 11
-215.9187275424058
 21
-240.2880527916088
 72
     1
 10
-215.9187275424058
 20
-240.2880527916088
 11
-217.1592319526599
 21
-240.2880527916088
 72
     1
 10
-217.1592319526599
 20
-240.2880527916088
 11
-217.1592319526599
 21
-237.2342432677976
 72
     1
 10
-217.1592319526599
 20
-237.2342432677976
 11
-215.1599599546255
 21
-237.2342432677976
 72
     2
 10
-215.1599599546255
 20
-238.2896089091313
 40
1.055365641333708
 50
270.0
 51
450.0
 73
     0
 97
        6
330
100
330
FF
330
10C
330
10B
330
101
330
151
 92
       16
 93
        4
 72
     2
 10
-215.6014324808639
 20
-238.2502129379088
 40
0.3528638246710898
 50
270.0
 51
450.0
 73
     1
 72
     1
 10
-215.6014324808639
 20
-237.8973491132377
 11
-215.9187275424058
 21
-237.8973491132377
 72
     1
 10
-215.9187275424058
 20
-237.8973491132377
 11
-215.9187275424058
 21
-238.6030767625799
 72
     1
 10
-215.9187275424058
 20
-238.6030767625799
 11
-215.6014324808639
 21
-238.6030767625799
 97
        4
330
165
330
FD
330
10D
330
FE
 75
     1
 76
     0
 52
45.0
 41
0.1
 77
     0
 78
     1
 53
45.0
 43
0.0
 44
0.0
 45
-0.0707106781186548
 46
0.0707106781186548
 79
     0
 98
        1
 10
0.0
 20
0.0
  0
HATCH
  5
1B4
330
47
100
AcDbEntity
  8
1
  6
Continuous
 62
     2
100
AcDbHatch
 10
0.0
 20
0.0
 30
0.0
210
0.0
220
0.0
230
1.0
  2
_USER
 70
     0
 71
     1
 91
        2
 92
        1
 93
        6
 72
     1
 10
-215.1599599546255
 20
-239.344974550465
 11
-215.9187275424058
 21
-239.344974550465
 72
     1
 10
-215.9187275424058
 20
-239.344974550465
 11
-215.9187275424058
 21
-240.2880527916088
 72
     1
 10
-215.9187275424058
 20
-240.2880527916088
 11
-217.1592319526599
 21
-240.2880527916088
 72
     1
 10
-217.1592319526599
 20
-240.2880527916088
 11
-217.1592319526599
 21
-237.2342432677976
 72
     1
 10
-217.1592319526599
 20
-237.2342432677976
 11
-215.1599599546255
 21
-237.2342432677976
 72
     2
 10
-215.1599599546255
 20
-238.2896089091313
 40
1.055365641333708
 50
270.0
 51
450.0
 73
     0
 97
        6
330
100
330
FF
330
10C
330
10B
330
101
330
151
 92
       16
 93
        4
 72
     2
 10
-215.6014324808639
 20
-238.2502129379088
 40
0.3528638246710898
 50
270.0
 51
450.0
 73
     1
 72
     1
 10
-215.6014324808639
 20
-237.8973491132377
 11
-215.9187275424058
 21
-237.8973491132377
 72
     1
 10
-215.9187275424058
 20
-237.8973491132377
 11
-215.9187275424058
 21
-238.6030767625799
 72
     1
 10
-215.9187275424058
 20
-238.6030767625799
 11
-215.6014324808639
 21
-238.6030767625799
 97
        4
330
165
330
FD
330
10D
330
FE
 75
     1
 76
     0
 52
45.0
 41
0.1
 77
     0
 78
     1
 53
45.0
 43
0.0
 44
0.0
 45
-0.0707106781186548
 46
0.0707106781186548
 79
     0
 98
        1
 10
0.0
 20
0.0
  0
HATCH
  5
1B5
330
47
100
AcDbEntity
  8
1
  6
Continuous
 62
     2
100
AcDbHatch
 10
0.0
 20
0.0
 30
0.0
210
0.0
220
0.0
230
1.0
  2
_USER
 70
     0
 71
     1
 91
        2
 92
        1
 93
        4
 72
     2
 10
-212.6034172062664
 20
-242.6589135161806
 40
2.065479772208581
 50
62.45185182430567
 51
117.5481481756664
 73
     1
 72
     2
 10
-212.8843570980997
 20
-242.1203385058778
 40
1.45803408365149
 50
117.5481481756624
 51
242.4518518243375
 73
     1
 72
     2
 10
-212.6034172062664
 20
-241.5817634955745
 40
2.065479772208509
 50
242.4518518243402
 51
297.5481481756877
 73
     1
 72
     2
 10
-212.3224773144331
 20
-242.1203385058778
 40
1.458034083652003
 50
297.548148175701
 51
422.451851824299
 73
     1
 97
        4
330
15D
330
15C
330
15E
330
15B
 92
       16
 93
        4
 72
     2
 10
-212.8031572426128
 20
-242.1203385058778
 40
0.7717997786796724
 50
321.8795802028404
 51
398.1204197971563
 73
     1
 72
     2
 10
-212.6034172062664
 20
-241.9636073277573
 40
0.5179085730133174
 50
38.1204197971495
 51
141.8795802028563
 73
     1
 72
     2
 10
-212.4036771699203
 20
-242.1203385058778
 40
0.7717997786795031
 50
141.879580202836
 51
218.1204197971674
 73
     1
 72
     2
 10
-212.6034172062664
 20
-242.2770696839978
 40
0.5179085730137354
 50
218.1204197971931
 51
321.879580202801
 73
     1
 97
        4
330
179
330
176
330
177
330
178
 75
     1
 76
     0
 52
45.0
 41
0.1
 77
     0
 78
     1
 53
45.0
 43
0.0
 44
0.0
 45
-0.0707106781186548
 46
0.0707106781186548
 79
     0
 98
        1
 10
0.0
 20
0.0
  0
HATCH
  5
1B6
330
47
100
AcDbEntity
  8
1
  6
Continuous
 62
     2
100
AcDbHatch
 10
0.0
 20
0.0
 30
0.0
210
0.0
220
0.0
230
1.0
  2
_USER
 70
     0
 71
     1
 91
        2
 92
        1
 93
        4
 72
     2
 10
-212.6034172062664
 20
-242.6589135161806
 40
2.065479772208581
 50
62.45185182430567
 51
117.5481481756664
 73
     1
 72
     2
 10
-212.8843570980997
 20
-242.1203385058778
 40
1.45803408365149
 50
117.5481481756624
 51
242.4518518243375
 73
     1
 72
     2
 10
-212.6034172062664
 20
-241.5817634955745
 40
2.065479772208509
 50
242.4518518243402
 51
297.5481481756877
 73
     1
 72
     2
 10
-212.3224773144331
 20
-242.1203385058778
 40
1.458034083652003
 50
297.548148175701
 51
422.451851824299
 73
     1
 97
        4
330
15D
330
15C
330
15E
330
15B
 92
       16
 93
        4
 72
     2
 10
-212.8031572426128
 20
-242.1203385058778
 40
0.7717997786796724
 50
321.8795802028404
 51
398.1204197971563
 73
     1
 72
     2
 10
-212.6034172062664
 20
-241.9636073277573
 40
0.5179085730133174
 50
38.1204197971495
 51
141.8795802028563
 73
     1
 72
     2
 10
-212.4036771699203
 20
-242.1203385058778
 40
0.7717997786795031
 50
141.879580202836
 51
218.1204197971674
 73
     1
 72
     2
 10
-212.6034172062664
 20
-242.2770696839978
 40
0.5179085730137354
 50
218.1204197971931
 51
321.879580202801
 73
     1
 97
        4
330
179
330
176
330
177
330
178
 75
     1
 76
     0
 52
45.0
 41
0.1
 77
     0
 78
     1
 53
45.0
 43
0.0
 44
0.0
 45
-0.0707106781186548
 46
0.0707106781186548
 79
     0
 98
        1
 10
0.0
 20
0.0
  0
HATCH
  5
1B7
330
47
100
AcDbEntity
  8
1
  6
Continuous
 62
     2
100
AcDbHatch
 10
0.0
 20
0.0
 30
0.0
210
0.0
220
0.0
230
1.0
  2
_USER
 70
     0
 71
     1
 91
        2
 92
        1
 93
       12
 72
     1
 10
-205.7084220118571
 20
-237.9322568732406
 11
-207.0443498382848
 21
-237.9322568732406
 72
     1
 10
-207.0443498382848
 20
-237.9322568732406
 11
-207.0443498382848
 21
-238.4121412269823
 72
     1
 10
-207.0443498382848
 20
-238.4121412269823
 11
-205.7084220118571
 21
-238.4121412269823
 72
     1
 10
-205.7084220118571
 20
-238.4121412269823
 11
-205.7084220118571
 21
-239.1101548324246
 72
     1
 10
-205.7084220118571
 20
-239.1101548324246
 11
-207.0443498382848
 21
-239.1101548324246
 72
     1
 10
-207.0443498382848
 20
-239.1101548324246
 11
-207.0443498382848
 21
-239.5900391861663
 72
     1
 10
-207.0443498382848
 20
-239.5900391861663
 11
-205.7084220118571
 21
-239.5900391861663
 72
     1
 10
-205.7084220118571
 20
-239.5900391861663
 11
-205.7084220118571
 21
-240.2880527916088
 72
     1
 10
-205.7084220118571
 20
-240.2880527916088
 11
-208.8587417356381
 21
-240.2880527916088
 72
     2
 10
-208.8587417356381
 20
-238.7611480297035
 40
1.526904761905882
 50
90.0
 51
270.0
 73
     0
 72
     1
 10
-208.8587417356381
 20
-237.2342432677976
 11
-205.7084220118571
 21
-237.2342432677976
 72
     1
 10
-205.7084220118571
 20
-237.2342432677976
 11
-205.7084220118571
 21
-237.9322568732406
 97
       12
330
114
330
166
330
115
330
116
330
117
330
118
330
F5
330
F4
330
F3
330
F2
330
119
330
113
 92
       16
 93
        4
 72
     2
 10
-208.6424697254729
 20
-238.604416851583
 40
0.5179085730135266
 50
38.12041979714334
 51
141.8795802028508
 73
     1
 72
     2
 10
-208.4427296891266
 20
-238.7611480297035
 40
0.7717997786796947
 50
141.8795802028417
 51
218.1204197971533
 73
     1
 72
     2
 10
-208.6424697254729
 20
-238.9178792078239
 40
0.5179085730134595
 50
218.1204197971492
 51
321.8795802028566
 73
     1
 72
     2
 10
-208.8422097618191
 20
-238.7611480297035
 40
0.7717997786796421
 50
321.8795802028467
 51
398.1204197971583
 73
     1
 97
        4
330
160
330
15F
330
15A
330
159
 75
     1
 76
     0
 52
45.0
 41
0.1
 77
     0
 78
     1
 53
45.0
 43
0.0
 44
0.0
 45
-0.0707106781186548
 46
0.0707106781186548
 79
     0
 98
        1
 10
0.0
 20
0.0
  0
HATCH
  5
1B8
330
47
100
AcDbEntity
  8
1
  6
Continuous
 62
     2
100
AcDbHatch
 10
0.0
 20
0.0
 30
0.0
210
0.0
220
0.0
230
1.0
  2
_USER
 70
     0
 71
     1
 91
        2
 92
        1
 93
       12
 72
     1
 10
-205.7084220118571
 20
-237.9322568732406
 11
-207.0443498382848
 21
-237.9322568732406
 72
     1
 10
-207.0443498382848
 20
-237.9322568732406
 11
-207.0443498382848
 21
-238.4121412269823
 72
     1
 10
-207.0443498382848
 20
-238.4121412269823
 11
-205.7084220118571
 21
-238.4121412269823
 72
     1
 10
-205.7084220118571
 20
-238.4121412269823
 11
-205.7084220118571
 21
-239.1101548324246
 72
     1
 10
-205.7084220118571
 20
-239.1101548324246
 11
-207.0443498382848
 21
-239.1101548324246
 72
     1
 10
-207.0443498382848
 20
-239.1101548324246
 11
-207.0443498382848
 21
-239.5900391861663
 72
     1
 10
-207.0443498382848
 20
-239.5900391861663
 11
-205.7084220118571
 21
-239.5900391861663
 72
     1
 10
-205.7084220118571
 20
-239.5900391861663
 11
-205.7084220118571
 21
-240.2880527916088
 72
     1
 10
-205.7084220118571
 20
-240.2880527916088
 11
-208.8587417356381
 21
-240.2880527916088
 72
     2
 10
-208.8587417356381
 20
-238.7611480297035
 40
1.526904761905882
 50
90.0
 51
270.0
 73
     0
 72
     1
 10
-208.8587417356381
 20
-237.2342432677976
 11
-205.7084220118571
 21
-237.2342432677976
 72
     1
 10
-205.7084220118571
 20
-237.2342432677976
 11
-205.7084220118571
 21
-237.9322568732406
 97
       12
330
114
330
166
330
115
330
116
330
117
330
118
330
F5
330
F4
330
F3
330
F2
330
119
330
113
 92
       16
 93
        4
 72
     2
 10
-208.6424697254729
 20
-238.604416851583
 40
0.5179085730135266
 50
38.12041979714334
 51
141.8795802028508
 73
     1
 72
     2
 10
-208.4427296891266
 20
-238.7611480297035
 40
0.7717997786796947
 50
141.8795802028417
 51
218.1204197971533
 73
     1
 72
     2
 10
-208.6424697254729
 20
-238.9178792078239
 40
0.5179085730134595
 50
218.1204197971492
 51
321.8795802028566
 73
     1
 72
     2
 10
-208.8422097618191
 20
-238.7611480297035
 40
0.7717997786796421
 50
321.8795802028467
 51
398.1204197971583
 73
     1
 97
        4
330
160
330
15F
330
15A
330
159
 75
     1
 76
     0
 52
45.0
 41
0.1
 77
     0
 78
     1
 53
45.0
 43
0.0
 44
0.0
 45
-0.0707106781186548
 46
0.0707106781186548
 79
     0
 98
        1
 10
0.0
 20
0.0
  0
HATCH
  5
1B9
330
47
100
AcDbEntity
  8
1
  6
Continuous
 62
     2
100
AcDbHatch
 10
0.0
 20
0.0
 30
0.0
210
0.0
220
0.0
230
1.0
  2
_USER
 70
     0
 71
     1
 91
        4
 92
        1
 93
        8
 72
     1
 10
-217.6363490335267
 20
-237.6584878831996
 11
-217.6363490335267
 21
-243.2229986523998
 72
     2
 10
-218.0605936489106
 20
-243.2229986523998
 40
0.4242446153832873
 50
0.0
 51
90.0
 73
     0
 72
     1
 10
-218.0605936489106
 20
-243.6472432677831
 11
-223.5339057396274
 21
-243.6472432677831
 72
     2
 10
-223.5339057396274
 20
-243.2229986523998
 40
0.4242446153828041
 50
90.0
 51
180.0
 73
     0
 72
     1
 10
-223.9581503550102
 20
-243.2229986523998
 11
-223.9581503550102
 21
-237.6584878831996
 72
     2
 10
-223.5339057396274
 20
-237.6584878831996
 40
0.4242446153837989
 50
180.0
 51
270.0
 73
     0
 72
     1
 10
-223.5339057396274
 20
-237.2342432678158
 11
-218.0605936489106
 21
-237.2342432678158
 72
     2
 10
-218.0605936489106
 20
-237.6584878831996
 40
0.4242446153839126
 50
270.0
 51
360.0
 73
     0
 97
        8
330
108
330
156
330
109
330
161
330
106
330
158
330
107
330
157
 92
       16
 93
        1
 72
     2
 10
-220.9143200891099
 20
-239.9773701115551
 40
0.4709789327785074
 50
0.0
 51
360.0
 73
     1
 97
        1
330
17C
 92
       16
 93
        8
 72
     2
 10
-220.3644623763492
 20
-241.0865117115235
 40
0.315716923076545
 50
115.3740086783565
 51
180.0
 73
     1
 72
     1
 10
-220.680179299426
 20
-241.0865117115235
 11
-220.680179299426
 21
-241.6683631182186
 72
     2
 10
-220.3644623763492
 20
-241.6683631182186
 40
0.315716923076792
 50
180.0
 51
269.811032957449
 73
     1
 72
     2
 10
-220.3588462410392
 20
-239.9655281706496
 40
2.018561131933237
 50
269.8110329575858
 51
450.1889670424142
 73
     1
 72
     2
 10
-220.3644623763492
 20
-238.2626932230805
 40
0.3157169230760711
 50
90.18896704255108
 51
180.0
 73
     1
 72
     1
 10
-220.680179299426
 20
-238.2626932230805
 11
-220.680179299426
 21
-238.8682285115873
 72
     2
 10
-220.3644623763492
 20
-238.8682285115873
 40
0.315716923076792
 50
180.0
 51
244.6259913216435
 73
     1
 72
     2
 10
-220.8905050744371
 20
-239.9773701115551
 40
0.911848150144459
 50
295.3740086781925
 51
424.6259913218236
 73
     0
 97
        8
330
16E
330
CF
330
16B
330
16C
330
14A
330
CE
330
16D
330
149
 92
       16
 93
       12
 72
     2
 10
-222.9400110628809
 20
-242.6189707891495
 40
0.315716923075712
 50
180.0
 51
270.0
 73
     1
 72
     1
 10
-222.9400110628809
 20
-242.9346877122262
 11
-221.4641778018713
 21
-242.9346877122262
 72
     2
 10
-221.4641778018713
 20
-242.6189707891495
 40
0.3157169230767067
 50
270.0
 51
360.0
 73
     1
 72
     1
 10
-221.1484608787947
 20
-242.6189707891495
 11
-221.1484608787947
 21
-241.0881998576179
 72
     2
 10
-221.4641778018713
 20
-241.0881998576179
 40
0.315716923076593
 50
0.0
 51
64.80558935146249
 73
     1
 72
     2
 10
-220.9415933542963
 20
-239.9773701115551
 40
0.9118975235576268
 50
115.1944106485146
 51
244.8055893514702
 73
     0
 72
     2
 10
-221.4641778018713
 20
-238.8665403654929
 40
0.3157169230761203
 50
295.1944106485397
 51
360.0
 73
     1
 72
     1
 10
-221.1484608787947
 20
-238.8665403654929
 11
-221.1484608787947
 21
-238.2625157464324
 72
     2
 10
-221.4641778018713
 20
-238.2625157464324
 40
0.315716923076593
 50
0.0
 51
90.0
 73
     1
 72
     1
 10
-221.4641778018713
 20
-237.9467988233562
 11
-222.9400110628809
 21
-237.9467988233562
 72
     2
 10
-222.9400110628809
 20
-238.2625157464324
 40
0.3157169230761951
 50
90.0
 51
180.0
 73
     1
 72
     1
 10
-223.2557279859566
 20
-238.2625157464324
 11
-223.2557279859566
 21
-242.6189707891495
 97
       12
330
152
330
10A
330
155
330
105
330
162
330
163
330
154
330
104
330
153
330
103
330
164
330
102
 75
     1
 76
     0
 52
45.0
 41
0.1
 77
     0
 78
     1
 53
45.0
 43
0.0
 44
0.0
 45
-0.0707106781186548
 46
0.0707106781186548
 79
     0
 98
        1
 10
0.0
 20
0.0
  0
HATCH
  5
1BA
330
47
100
AcDbEntity
  8
1
  6
Continuous
 62
     2
100
AcDbHatch
 10
0.0
 20
0.0
 30
0.0
210
0.0
220
0.0
230
1.0
  2
_USER
 70
     0
 71
     1
 91
        4
 92
        1
 93
        8
 72
     1
 10
-217.6363490335267
 20
-237.6584878831996
 11
-217.6363490335267
 21
-243.2229986523998
 72
     2
 10
-218.0605936489106
 20
-243.2229986523998
 40
0.4242446153832873
 50
0.0
 51
90.0
 73
     0
 72
     1
 10
-218.0605936489106
 20
-243.6472432677831
 11
-223.5339057396274
 21
-243.6472432677831
 72
     2
 10
-223.5339057396274
 20
-243.2229986523998
 40
0.4242446153828041
 50
90.0
 51
180.0
 73
     0
 72
     1
 10
-223.9581503550102
 20
-243.2229986523998
 11
-223.9581503550102
 21
-237.6584878831996
 72
     2
 10
-223.5339057396274
 20
-237.6584878831996
 40
0.4242446153837989
 50
180.0
 51
270.0
 73
     0
 72
     1
 10
-223.5339057396274
 20
-237.2342432678158
 11
-218.0605936489106
 21
-237.2342432678158
 72
     2
 10
-218.0605936489106
 20
-237.6584878831996
 40
0.4242446153839126
 50
270.0
 51
360.0
 73
     0
 97
        8
330
108
330
156
330
109
330
161
330
106
330
158
330
107
330
157
 92
       16
 93
        1
 72
     2
 10
-220.9143200891099
 20
-239.9773701115551
 40
0.4709789327785074
 50
0.0
 51
360.0
 73
     1
 97
        1
330
17C
 92
       16
 93
        8
 72
     2
 10
-220.3644623763492
 20
-241.0865117115235
 40
0.315716923076545
 50
115.3740086783565
 51
180.0
 73
     1
 72
     1
 10
-220.680179299426
 20
-241.0865117115235
 11
-220.680179299426
 21
-241.6683631182186
 72
     2
 10
-220.3644623763492
 20
-241.6683631182186
 40
0.315716923076792
 50
180.0
 51
269.811032957449
 73
     1
 72
     2
 10
-220.3588462410392
 20
-239.9655281706496
 40
2.018561131933237
 50
269.8110329575858
 51
450.1889670424142
 73
     1
 72
     2
 10
-220.3644623763492
 20
-238.2626932230805
 40
0.3157169230760711
 50
90.18896704255108
 51
180.0
 73
     1
 72
     1
 10
-220.680179299426
 20
-238.2626932230805
 11
-220.680179299426
 21
-238.8682285115873
 72
     2
 10
-220.3644623763492
 20
-238.8682285115873
 40
0.315716923076792
 50
180.0
 51
244.6259913216435
 73
     1
 72
     2
 10
-220.8905050744371
 20
-239.9773701115551
 40
0.911848150144459
 50
295.3740086781925
 51
424.6259913218236
 73
     0
 97
        8
330
16E
330
CF
330
16B
330
16C
330
14A
330
CE
330
16D
330
149
 92
       16
 93
       12
 72
     2
 10
-222.9400110628809
 20
-242.6189707891495
 40
0.315716923075712
 50
180.0
 51
270.0
 73
     1
 72
     1
 10
-222.9400110628809
 20
-242.9346877122262
 11
-221.4641778018713
 21
-242.9346877122262
 72
     2
 10
-221.4641778018713
 20
-242.6189707891495
 40
0.3157169230767067
 50
270.0
 51
360.0
 73
     1
 72
     1
 10
-221.1484608787947
 20
-242.6189707891495
 11
-221.1484608787947
 21
-241.0881998576179
 72
     2
 10
-221.4641778018713
 20
-241.0881998576179
 40
0.315716923076593
 50
0.0
 51
64.80558935146249
 73
     1
 72
     2
 10
-220.9415933542963
 20
-239.9773701115551
 40
0.9118975235576268
 50
115.1944106485146
 51
244.8055893514702
 73
     0
 72
     2
 10
-221.4641778018713
 20
-238.8665403654929
 40
0.3157169230761203
 50
295.1944106485397
 51
360.0
 73
     1
 72
     1
 10
-221.1484608787947
 20
-238.8665403654929
 11
-221.1484608787947
 21
-238.2625157464324
 72
     2
 10
-221.4641778018713
 20
-238.2625157464324
 40
0.315716923076593
 50
0.0
 51
90.0
 73
     1
 72
     1
 10
-221.4641778018713
 20
-237.9467988233562
 11
-222.9400110628809
 21
-237.9467988233562
 72
     2
 10
-222.9400110628809
 20
-238.2625157464324
 40
0.3157169230761951
 50
90.0
 51
180.0
 73
     1
 72
     1
 10
-223.2557279859566
 20
-238.2625157464324
 11
-223.2557279859566
 21
-242.6189707891495
 97
       12
330
152
330
10A
330
155
330
105
330
162
330
163
330
154
330
104
330
153
330
103
330
164
330
102
 75
     1
 76
     0
 52
45.0
 41
0.1
 77
     0
 78
     1
 53
45.0
 43
0.0
 44
0.0
 45
-0.0707106781186548
 46
0.0707106781186548
 79
     0
 98
        1
 10
0.0
 20
0.0
  0
HATCH
  5
1BB
330
47
100
AcDbEntity
  8
1
  6
Continuous
 62
     2
100
AcDbHatch
 10
0.0
 20
0.0
 30
0.0
210
0.0
220
0.0
230
1.0
  2
_USER
 70
     0
 71
     1
 91
        1
 92
        1
 93
       18
 72
     1
 10
-196.0468011243057
 20
-241.3786990500956
 11
-196.8579001617791
 21
-241.3786990500956
 72
     1
 10
-196.8579001617791
 20
-241.3786990500956
 11
-196.8579001617791
 21
-243.6472432677831
 72
     1
 10
-196.8579001617791
 20
-243.6472432677831
 11
-198.0506928639468
 21
-243.6472432677831
 72
     1
 10
-198.0506928639468
 20
-243.6472432677831
 11
-198.0506928639468
 21
-241.3786990500956
 72
     1
 10
-198.0506928639468
 20
-241.3786990500956
 11
-199.1543321635149
 21
-241.3786990500956
 72
     2
 10
-199.1543321635149
 20
-242.3332220569217
 40
0.9545230068260935
 50
90.0
 51
109.3371432194298
 73
     1
 72
     2
 10
-199.3010021616186
 20
-241.9152670765388
 40
0.5115800601944317
 50
109.3371432194812
 51
151.4785267424209
 73
     1
 72
     2
 10
-198.9236449035372
 20
-242.1203385058778
 40
0.9410597353348924
 50
151.4785267423624
 51
208.5214732576695
 73
     1
 72
     2
 10
-199.3010021616186
 20
-242.3254099352163
 40
0.5115800601959967
 50
208.5214732576881
 51
246.6277221118478
 73
     1
 72
     2
 10
-199.1445621289155
 20
-241.9634179165063
 40
0.9059297849852688
 50
246.6277221118199
 51
288.4480761180817
 73
     1
 72
     2
 10
-199.5627298625774
 20
-240.7098721404697
 40
2.227384008972746
 50
288.4480761181335
 51
301.9309089499397
 73
     1
 72
     1
 10
-198.3846748205535
 20
-242.6002228596195
 11
-198.3846748205535
 21
-243.4727398664228
 72
     2
 10
-199.7206027376702
 20
-238.8076575606214
 40
4.852596863498822
 50
74.02000874166164
 51
84.84185523036402
 73
     0
 72
     2
 10
-199.4317466429344
 20
-242.007548143843
 40
1.639695123940421
 50
84.8418552303238
 51
164.9381082228985
 73
     0
 72
     2
 10
-199.850874486396
 20
-242.1203385058778
 40
1.205656168392975
 50
164.9381082229037
 51
195.0618917770975
 73
     0
 72
     2
 10
-199.4317466429344
 20
-242.2331288679127
 40
1.639695123940214
 50
195.0618917771053
 51
270.0
 73
     0
 72
     1
 10
-199.4317466429344
 20
-240.5934337439725
 11
-196.0468011243057
 21
-240.593433743972
 72
     1
 10
-196.0468011243057
 20
-240.593433743972
 11
-196.0468011243057
 21
-241.3786990500956
 97
       18
330
D1
330
167
330
168
330
150
330
14F
330
135
330
14E
330
14D
330
169
330
14C
330
16A
330
14B
330
136
330
D0
330
D5
330
D4
330
D3
330
D2
 75
     1
 76
     0
 52
45.0
 41
0.1
 77
     0
 78
     1
 53
45.0
 43
0.0
 44
0.0
 45
-0.0707106781186548
 46
0.0707106781186548
 79
     0
 98
        1
 10
0.0
 20
0.0
  0
HATCH
  5
1BC
330
47
100
AcDbEntity
  8
1
  6
Continuous
 62
     2
100
AcDbHatch
 10
0.0
 20
0.0
 30
0.0
210
0.0
220
0.0
230
1.0
  2
_USER
 70
     0
 71
     1
 91
        1
 92
        1
 93
       18
 72
     1
 10
-196.0468011243057
 20
-241.3786990500956
 11
-196.8579001617791
 21
-241.3786990500956
 72
     1
 10
-196.8579001617791
 20
-241.3786990500956
 11
-196.8579001617791
 21
-243.6472432677831
 72
     1
 10
-196.8579001617791
 20
-243.6472432677831
 11
-198.0506928639468
 21
-243.6472432677831
 72
     1
 10
-198.0506928639468
 20
-243.6472432677831
 11
-198.0506928639468
 21
-241.3786990500956
 72
     1
 10
-198.0506928639468
 20
-241.3786990500956
 11
-199.1543321635149
 21
-241.3786990500956
 72
     2
 10
-199.1543321635149
 20
-242.3332220569217
 40
0.9545230068260935
 50
90.0
 51
109.3371432194298
 73
     1
 72
     2
 10
-199.3010021616186
 20
-241.9152670765388
 40
0.5115800601944317
 50
109.3371432194812
 51
151.4785267424209
 73
     1
 72
     2
 10
-198.9236449035372
 20
-242.1203385058778
 40
0.9410597353348924
 50
151.4785267423624
 51
208.5214732576695
 73
     1
 72
     2
 10
-199.3010021616186
 20
-242.3254099352163
 40
0.5115800601959967
 50
208.5214732576881
 51
246.6277221118478
 73
     1
 72
     2
 10
-199.1445621289155
 20
-241.9634179165063
 40
0.9059297849852688
 50
246.6277221118199
 51
288.4480761180817
 73
     1
 72
     2
 10
-199.5627298625774
 20
-240.7098721404697
 40
2.227384008972746
 50
288.4480761181335
 51
301.9309089499397
 73
     1
 72
     1
 10
-198.3846748205535
 20
-242.6002228596195
 11
-198.3846748205535
 21
-243.4727398664228
 72
     2
 10
-199.7206027376702
 20
-238.8076575606214
 40
4.852596863498822
 50
74.02000874166164
 51
84.84185523036402
 73
     0
 72
     2
 10
-199.4317466429344
 20
-242.007548143843
 40
1.639695123940421
 50
84.8418552303238
 51
164.9381082228985
 73
     0
 72
     2
 10
-199.850874486396
 20
-242.1203385058778
 40
1.205656168392975
 50
164.9381082229037
 51
195.0618917770975
 73
     0
 72
     2
 10
-199.4317466429344
 20
-242.2331288679127
 40
1.639695123940214
 50
195.0618917771053
 51
270.0
 73
     0
 72
     1
 10
-199.4317466429344
 20
-240.5934337439725
 11
-196.0468011243057
 21
-240.593433743972
 72
     1
 10
-196.0468011243057
 20
-240.593433743972
 11
-196.0468011243057
 21
-241.3786990500956
 97
       18
330
D1
330
167
330
168
330
150
330
14F
330
135
330
14E
330
14D
330
169
330
14C
330
16A
330
14B
330
136
330
D0
330
D5
330
D4
330
D3
330
D2
 75
     1
 76
     0
 52
45.0
 41
0.1
 77
     0
 78
     1
 53
45.0
 43
0.0
 44
0.0
 45
-0.0707106781186548
 46
0.0707106781186548
 79
     0
 98
        1
 10
0.0
 20
0.0
  0
HATCH
  5
1BD
330
47
100
AcDbEntity
  8
1
  6
Continuous
 62
     2
100
AcDbHatch
 10
0.0
 20
0.0
 30
0.0
210
0.0
220
0.0
230
1.0
  2
_USER
 70
     0
 71
     1
 91
        1
 92
        1
 93
       14
 72
     2
 10
-215.5344481221873
 20
-242.2331288679127
 40
1.639695123940509
 50
84.84185523036136
 51
164.9381082228864
 73
     1
 72
     2
 10
-215.9535759656501
 20
-242.1203385058778
 40
1.205656168390971
 50
164.9381082228768
 51
195.0618917770945
 73
     1
 72
     2
 10
-215.5344481221873
 20
-242.007548143843
 40
1.639695123939387
 50
195.0618917770896
 51
275.1581447696406
 73
     1
 72
     2
 10
-215.8233042169232
 20
-238.8076575606214
 40
4.852596863498138
 50
275.1581447696249
 51
285.979991258353
 73
     1
 72
     1
 10
-214.4873762998054
 20
-243.4727398664222
 11
-214.4873762998054
 21
-242.600222859619
 72
     2
 10
-215.6654313418303
 20
-240.7098721404691
 40
2.227384008972773
 50
58.06909105004051
 51
71.55192388186677
 73
     0
 72
     2
 10
-215.2472636081695
 20
-241.9634179165063
 40
0.9059297849849192
 50
71.55192388183985
 51
113.372277888129
 73
     0
 72
     2
 10
-215.4037036408715
 20
-242.3254099352163
 40
0.5115800601948034
 50
113.3722778881755
 51
151.4785267423044
 73
     0
 72
     2
 10
-215.0263463827912
 20
-242.1203385058778
 40
0.9410597353332545
 50
151.4785267422943
 51
208.5214732577331
 73
     0
 72
     2
 10
-215.4037036408715
 20
-241.9152670765388
 40
0.5115800601948891
 50
208.5214732576956
 51
246.627722111798
 73
     0
 72
     2
 10
-215.2472636081695
 20
-242.2772590952494
 40
0.9059297849853588
 50
246.627722111871
 51
288.4480761181476
 73
     0
 72
     2
 10
-215.6654313418303
 20
-243.530804871286
 40
2.227384008973492
 50
288.4480761181333
 51
301.9309089499599
 73
     0
 72
     1
 10
-214.4873762998054
 20
-241.6404541521361
 11
-214.4873762998054
 21
-240.7679371453328
 72
     2
 10
-215.8233042169232
 20
-245.4330194511337
 40
4.852596863498068
 50
74.02000874164739
 51
84.84185523037506
 73
     1
 97
       14
330
16F
330
170
330
171
330
172
330
137
330
148
330
147
330
146
330
173
330
174
330
145
330
175
330
138
330
144
 75
     1
 76
     0
 52
45.0
 41
0.1
 77
     0
 78
     1
 53
45.0
 43
0.0
 44
0.0
 45
-0.0707106781186548
 46
0.0707106781186548
 79
     0
 98
        1
 10
0.0
 20
0.0
  0
HATCH
  5
1BE
330
47
100
AcDbEntity
  8
1
  6
Continuous
 62
     2
100
AcDbHatch
 10
0.0
 20
0.0
 30
0.0
210
0.0
220
0.0
230
1.0
  2
_USER
 70
     0
 71
     1
 91
        1
 92
        1
 93
       14
 72
     2
 10
-215.5344481221873
 20
-242.2331288679127
 40
1.639695123940509
 50
84.84185523036136
 51
164.9381082228864
 73
     1
 72
     2
 10
-215.9535759656501
 20
-242.1203385058778
 40
1.205656168390971
 50
164.9381082228768
 51
195.0618917770945
 73
     1
 72
     2
 10
-215.5344481221873
 20
-242.007548143843
 40
1.639695123939387
 50
195.0618917770896
 51
275.1581447696406
 73
     1
 72
     2
 10
-215.8233042169232
 20
-238.8076575606214
 40
4.852596863498138
 50
275.1581447696249
 51
285.979991258353
 73
     1
 72
     1
 10
-214.4873762998054
 20
-243.4727398664222
 11
-214.4873762998054
 21
-242.600222859619
 72
     2
 10
-215.6654313418303
 20
-240.7098721404691
 40
2.227384008972773
 50
58.06909105004051
 51
71.55192388186677
 73
     0
 72
     2
 10
-215.2472636081695
 20
-241.9634179165063
 40
0.9059297849849192
 50
71.55192388183985
 51
113.372277888129
 73
     0
 72
     2
 10
-215.4037036408715
 20
-242.3254099352163
 40
0.5115800601948034
 50
113.3722778881755
 51
151.4785267423044
 73
     0
 72
     2
 10
-215.0263463827912
 20
-242.1203385058778
 40
0.9410597353332545
 50
151.4785267422943
 51
208.5214732577331
 73
     0
 72
     2
 10
-215.4037036408715
 20
-241.9152670765388
 40
0.5115800601948891
 50
208.5214732576956
 51
246.627722111798
 73
     0
 72
     2
 10
-215.2472636081695
 20
-242.2772590952494
 40
0.9059297849853588
 50
246.627722111871
 51
288.4480761181476
 73
     0
 72
     2
 10
-215.6654313418303
 20
-243.530804871286
 40
2.227384008973492
 50
288.4480761181333
 51
301.9309089499599
 73
     0
 72
     1
 10
-214.4873762998054
 20
-241.6404541521361
 11
-214.4873762998054
 21
-240.7679371453328
 72
     2
 10
-215.8233042169232
 20
-245.4330194511337
 40
4.852596863498068
 50
74.02000874164739
 51
84.84185523037506
 73
     1
 97
       14
330
16F
330
170
330
171
330
172
330
137
330
148
330
147
330
146
330
173
330
174
330
145
330
175
330
138
330
144
 75
     1
 76
     0
 52
45.0
 41
0.1
 77
     0
 78
     1
 53
45.0
 43
0.0
 44
0.0
 45
-0.0707106781186548
 46
0.0707106781186548
 79
     0
 98
        1
 10
0.0
 20
0.0
  0
ENDBLK
  5
49
330
47
100
AcDbEntity
  8
0
100
AcDbBlockEnd
  0
BLOCK
  5
4B
330
4A
100
AcDbEntity
  8
0
100
AcDbBlockBegin
  2
_punkt
 70
     0
 10
-98.65000071482281
 20
-250.9407432677994
 30
0.0
  3
_punkt
  1

  0
LINE
  5
1BF
330
4A
100
AcDbEntity
  8
1
  6
Continuous
 62
     2
100
AcDbLine
 10
-98.65000071482281
 20
-250.9407432677994
 30
0.0
 11
-93.65000071482382
 21
-250.9407432677994
 31
0.0
  0
LINE
  5
1C0
330
4A
100
AcDbEntity
  8
1
  6
Continuous
 62
     2
100
AcDbLine
 10
-98.65000071482281
 20
-250.9407432677994
 30
0.0
 11
-98.65000071482281
 21
-255.9407432677995
 31
0.0
  0
ENDBLK
  5
4C
330
4A
100
AcDbEntity
  8
0
100
AcDbBlockEnd
  0
BLOCK
  5
50
330
4D
100
AcDbEntity
  8
0
100
AcDbBlockBegin
  2
A4I_CS
 70
     0
 10
-98.65000071482281
 20
-255.9407432677995
 30
0.0
  3
A4I_CS
  1

  0
INSERT
  5
4E
330
4D
100
AcDbEntity
  8
1
100
AcDbBlockReference
  2
_rahmen
 10
-98.65000071482281
 20
-255.9407432677995
 30
0.0
  0
INSERT
  5
4F
330
4D
100
AcDbEntity
  8
1
100
AcDbBlockReference
  2
_punkt
 10
-98.65000071482281
 20
-250.9407432677994
 30
0.0
  0
ENDBLK
  5
51
330
4D
100
AcDbEntity
  8
0
100
AcDbBlockEnd
  0
BLOCK
  5
53
330
52
100
AcDbEntity
  8
0
100
AcDbBlockBegin
  2
HC-RBO_16_BU-select__1
 70
     0
 10
-402.9062818925762
 20
-409.762973046641
 30
0.0
  3
HC-RBO_16_BU-select__1
  1

  0
LINE
  5
1C1
330
52
100
AcDbEntity
  8
0
  6
Continuous
 62
     7
100
AcDbLine
 10
-267.1049330454916
 20
-317.2624853245227
 30
0.0
 11
-327.4250988565728
 21
-299.8495533401245
 31
0.0
  0
LINE
  5
1C2
330
52
100
AcDbEntity
  8
0
  6
Continuous
 62
     7
100
AcDbLine
 10
-337.6248023432536
 20
-396.4114714603855
 30
0.0
 11
-291.3738441341465
 21
-409.762973046641
 31
0.0
  0
LINE
  5
1C3
330
52
100
AcDbEntity
  8
0
  6
Continuous
 62
     7
100
AcDbLine
 10
-337.2303982111775
 20
-319.2975332778168
 30
0.0
 11
-325.9428591812157
 21
-309.5222377315853
 31
0.0
  0
LINE
  5
1C4
330
52
100
AcDbEntity
  8
0
  6
Continuous
 62
     7
100
AcDbLine
 10
-325.9428591812157
 20
-309.5222377315853
 30
0.0
 11
-326.9821087190704
 21
-308.6222344315017
 31
0.0
  0
LINE
  5
1C5
330
52
100
AcDbEntity
  8
0
  6
Continuous
 62
     7
100
AcDbLine
 10
-326.0928602812351
 20
-309.6521424947987
 30
0.0
 11
-326.9821087190708
 21
-308.8820420526104
 31
0.0
  0
LINE
  5
1C6
330
52
100
AcDbEntity
  8
0
  6
Continuous
 62
     7
100
AcDbLine
 10
-326.9821087190708
 20
-308.8820420526104
 30
0.0
 11
-326.9821087190704
 21
-308.6222344315017
 31
0.0
  0
LINE
  5
1C7
330
52
100
AcDbEntity
  8
0
  6
Continuous
 62
     7
100
AcDbLine
 10
-294.404933047488
 20
-340.9049788496125
 30
0.0
 11
-394.5660293497823
 21
-311.9909608931998
 31
0.0
  0
LINE
  5
1C8
330
52
100
AcDbEntity
  8
0
  6
Continuous
 62
     7
100
AcDbLine
 10
-294.404933047488
 20
-340.9049788496125
 30
0.0
 11
-267.1049330454916
 21
-317.2624853245227
 31
0.0
  0
LINE
  5
1C9
330
52
100
AcDbEntity
  8
0
  6
Continuous
 62
     2
100
AcDbLine
 10
-270.2362796994685
 20
-339.3948191506767
 30
0.0
 11
-269.0238441342
 21
-339.7448191506658
 31
0.0
  0
LINE
  5
1CA
330
52
100
AcDbEntity
  8
0
  6
Continuous
 62
     7
100
AcDbLine
 10
-339.3088744228244
 20
-319.2975266775305
 30
0.0
 11
-337.2303982111775
 21
-319.2975332778168
 31
0.0
  0
LINE
  5
1CB
330
52
100
AcDbEntity
  8
0
  6
Continuous
 62
     7
100
AcDbLine
 10
-347.6182203577974
 20
-340.058856775874
 30
0.0
 11
-352.7485927691271
 21
-329.6917801512026
 31
0.0
  0
LINE
  5
1CC
330
52
100
AcDbEntity
  8
0
  6
Continuous
 62
     7
100
AcDbLine
 10
-286.4238441341562
 20
-380.4768806418138
 30
0.0
 11
-268.236279699942
 21
-385.7271782528424
 31
0.0
  0
LINE
  5
1CD
330
52
100
AcDbEntity
  8
0
  6
Continuous
 62
     7
100
AcDbLine
 10
-259.7437171133092
 20
-323.7176123434916
 30
0.0
 11
-287.0437171152809
 21
-347.3601058683906
 31
0.0
  0
LINE
  5
1CE
330
52
100
AcDbEntity
  8
0
  6
Continuous
 62
     7
100
AcDbLine
 10
-264.073844132281
 20
-321.1685742377304
 30
0.0
 11
-267.1049330454916
 21
-317.2624853245227
 31
0.0
  0
LINE
  5
1CF
330
52
100
AcDbEntity
  8
0
  6
Continuous
 62
     7
100
AcDbLine
 10
-287.0437171152831
 20
-346.0610677628454
 30
0.0
 11
-259.7437171133092
 21
-322.4185742377491
 31
0.0
  0
LINE
  5
1D0
330
52
100
AcDbEntity
  8
0
  6
Continuous
 62
     7
100
AcDbLine
 10
-264.073844132281
 20
-321.1685742377304
 30
0.0
 11
-291.3738441342538
 21
-344.8110677627795
 31
0.0
  0
LINE
  5
1D1
330
52
100
AcDbEntity
  8
0
  6
Continuous
 62
     7
100
AcDbLine
 10
-259.7437171133092
 20
-322.4185742377491
 30
0.0
 11
-264.073844132281
 21
-321.1685742377304
 31
0.0
  0
LINE
  5
1D2
330
52
100
AcDbEntity
  8
0
  6
Continuous
 62
     7
100
AcDbLine
 10
-259.7437171133092
 20
-323.7176123434916
 30
0.0
 11
-259.7437171133092
 21
-322.4185742377491
 31
0.0
  0
LINE
  5
1D3
330
52
100
AcDbEntity
  8
0
  6
Continuous
 62
     7
100
AcDbLine
 10
-291.3738441342538
 20
-344.8110677627795
 30
0.0
 11
-287.0437171152831
 21
-346.0610677628454
 31
0.0
  0
LINE
  5
1D4
330
52
100
AcDbEntity
  8
0
  6
Continuous
 62
     7
100
AcDbLine
 10
-294.404933047488
 20
-340.9049788496125
 30
0.0
 11
-291.3738441342538
 21
-344.8110677627795
 31
0.0
  0
LINE
  5
1D5
330
52
100
AcDbEntity
  8
0
  6
Continuous
 62
     7
100
AcDbLine
 10
-287.0437171152831
 20
-346.0610677628454
 30
0.0
 11
-287.0437171152809
 21
-347.3601058683906
 31
0.0
  0
LINE
  5
1D6
330
52
100
AcDbEntity
  8
0
  6
Continuous
 62
     7
100
AcDbLine
 10
-287.0437171152809
 20
-347.3601058683906
 30
0.0
 11
-291.3738441342011
 21
-346.1101058683971
 31
0.0
  0
LINE
  5
1D7
330
52
100
AcDbEntity
  8
0
  6
Continuous
 62
     7
100
AcDbLine
 10
-289.9274929095232
 20
-408.5103961433825
 30
0.0
 11
-291.3738441341465
 21
-409.762973046641
 31
0.0
  0
LINE
  5
1D8
330
52
100
AcDbEntity
  8
0
  6
Continuous
 62
     7
100
AcDbLine
 10
-286.4238441341291
 20
-399.4077327925176
 30
0.0
 11
-286.4238441341931
 21
-354.8136611765087
 31
0.0
  0
LINE
  5
1D9
330
52
100
AcDbEntity
  8
0
  6
Continuous
 62
     7
100
AcDbLine
 10
-289.9274929095232
 20
-408.5103961433825
 30
0.0
 11
-286.4238441341291
 21
-399.4077327925176
 31
0.0
  0
LINE
  5
1DA
330
52
100
AcDbEntity
  8
0
  6
Continuous
 62
     7
100
AcDbLine
 10
-266.7362796996442
 20
-387.0262163587644
 30
0.0
 11
-270.2362796997119
 21
-383.9951274454894
 31
0.0
  0
LINE
  5
1DB
330
52
100
AcDbEntity
  8
0
  6
Continuous
 62
     7
100
AcDbLine
 10
-269.0238441342319
 20
-384.3451274455395
 30
0.0
 11
-265.523844134157
 21
-387.3762163588181
 31
0.0
  0
LINE
  5
1DC
330
52
100
AcDbEntity
  8
0
  6
Continuous
 62
     7
100
AcDbLine
 10
-266.7362796996442
 20
-387.0262163587644
 30
0.0
 11
-265.523844134157
 21
-387.3762163588181
 31
0.0
  0
LINE
  5
1DD
330
52
100
AcDbEntity
  8
0
  6
Continuous
 62
     7
100
AcDbLine
 10
-270.2362796997119
 20
-383.9951274454894
 30
0.0
 11
-269.0238441342319
 21
-384.3451274455395
 31
0.0
  0
LINE
  5
1DE
330
52
100
AcDbEntity
  8
0
  6
Continuous
 62
     7
100
AcDbLine
 10
-291.3738441342011
 20
-346.1101058683971
 30
0.0
 11
-291.3738441341465
 21
-409.762973046641
 31
0.0
  0
LINE
  5
1DF
330
52
100
AcDbEntity
  8
0
  6
Continuous
 62
     7
100
AcDbLine
 10
-270.2362796994685
 20
-339.3948191506767
 30
0.0
 11
-270.2362796997119
 21
-383.9951274454894
 31
0.0
  0
LINE
  5
1E0
330
52
100
AcDbEntity
  8
0
  6
Continuous
 62
     7
100
AcDbLine
 10
-269.0238441342
 20
-339.7448191506658
 30
0.0
 11
-269.0238441342319
 21
-384.3451274455395
 31
0.0
  0
LINE
  5
1E1
330
52
100
AcDbEntity
  8
0
  6
Continuous
 62
     7
100
AcDbLine
 10
-264.0738441321736
 20
-386.120479521592
 30
0.0
 11
-264.0738441322239
 21
-327.4676123434169
 31
0.0
  0
LINE
  5
1E2
330
52
100
AcDbEntity
  8
0
  6
Continuous
 62
     7
100
AcDbLine
 10
-264.0738441321736
 20
-386.120479521592
 30
0.0
 11
-265.523844134157
 21
-387.3762163588181
 31
0.0
  0
LINE
  5
1E3
330
52
100
AcDbEntity
  8
0
  6
Continuous
 62
     7
100
AcDbLine
 10
-270.2362796994995
 20
-371.5820962873764
 30
0.0
 11
-286.4238441341757
 21
-366.9091489454655
 31
0.0
  0
LINE
  5
1E4
330
52
100
AcDbEntity
  8
0
  6
Continuous
 62
     7
100
AcDbLine
 10
-347.6182203577974
 20
-340.058856775874
 30
0.0
 11
-347.6182203579319
 21
-389.8893134739956
 31
0.0
  0
LINE
  5
1E5
330
52
100
AcDbEntity
  8
0
  6
Continuous
 62
     7
100
AcDbLine
 10
-350.5959282249802
 20
-309.5223646043838
 30
0.0
 11
-339.3088744228244
 21
-319.2975266775305
 31
0.0
  0
LINE
  5
1E6
330
52
100
AcDbEntity
  8
0
  6
Continuous
 62
     7
100
AcDbLine
 10
-347.6182203579319
 20
-389.8893134739956
 30
0.0
 11
-337.6248023432536
 21
-396.4114714603855
 31
0.0
  0
LINE
  5
1E7
330
52
100
AcDbEntity
  8
0
  6
Continuous
 62
     7
100
AcDbLine
 10
-351.381926102544
 20
-332.4534389387579
 30
0.0
 11
-397.1003218488224
 21
-319.2556748933803
 31
0.0
  0
LINE
  5
1E8
330
52
100
AcDbEntity
  8
0
  6
Continuous
 62
     7
100
AcDbLine
 10
-402.906281892565
 20
-315.175574574068
 30
0.0
 11
-378.3062818926868
 21
-293.8713496410292
 31
0.0
  0
LINE
  5
1E9
330
52
100
AcDbEntity
  8
0
  6
Continuous
 62
     7
100
AcDbLine
 10
-367.266029347813
 20
-288.3484673681257
 30
0.0
 11
-394.5660293497823
 21
-311.9909608931998
 31
0.0
  0
LINE
  5
1EA
330
52
100
AcDbEntity
  8
0
  6
Continuous
 62
     7
100
AcDbLine
 10
-374.2451944744549
 20
-293.5217667895881
 30
0.0
 11
-398.8451944743907
 21
-314.8259917226747
 31
0.0
  0
LINE
  5
1EB
330
52
100
AcDbEntity
  8
0
  6
Continuous
 62
     7
100
AcDbLine
 10
-378.3062818926868
 20
-293.8713496410292
 30
0.0
 11
-376.7843640842136
 21
-292.7887716607311
 31
0.0
  0
LINE
  5
1EC
330
52
100
AcDbEntity
  8
0
  6
Continuous
 62
     7
100
AcDbLine
 10
-371.5003218468373
 20
-291.3604249099778
 30
0.0
 11
-367.266029347813
 21
-288.3484673681257
 31
0.0
  0
LINE
  5
1ED
330
52
100
AcDbEntity
  8
0
  6
Continuous
 62
     7
100
AcDbLine
 10
-372.8503218488301
 20
-292.5295592069123
 30
0.0
 11
-371.5003218468373
 21
-291.3604249099778
 31
0.0
  0
LINE
  5
1EE
330
52
100
AcDbEntity
  8
0
  6
Continuous
 62
     7
100
AcDbLine
 10
-376.7843640842136
 20
-292.7887716607311
 30
0.0
 11
-374.2451944744549
 21
-293.5217667895881
 31
0.0
  0
LINE
  5
1EF
330
52
100
AcDbEntity
  8
0
  6
Continuous
 62
     7
100
AcDbLine
 10
-372.8503218488301
 20
-292.5295592069123
 30
0.0
 11
-374.2451944744549
 21
-293.5217667895881
 31
0.0
  0
LINE
  5
1F0
330
52
100
AcDbEntity
  8
0
  6
Continuous
 62
     7
100
AcDbLine
 10
-376.7843640842136
 20
-292.7887716607311
 30
0.0
 11
-401.3843640840881
 21
-314.092996593834
 31
0.0
  0
LINE
  5
1F1
330
52
100
AcDbEntity
  8
0
  6
Continuous
 62
     7
100
AcDbLine
 10
-398.8451944743907
 20
-314.8259917226747
 30
0.0
 11
-401.3843640840881
 21
-314.092996593834
 31
0.0
  0
LINE
  5
1F2
330
52
100
AcDbEntity
  8
0
  6
Continuous
 62
     7
100
AcDbLine
 10
-398.8451944743907
 20
-314.8259917226747
 30
0.0
 11
-397.4503218487453
 21
-313.8337841399843
 31
0.0
  0
LINE
  5
1F3
330
52
100
AcDbEntity
  8
0
  6
Continuous
 62
     7
100
AcDbLine
 10
-401.3843640840881
 20
-314.092996593834
 30
0.0
 11
-402.906281892565
 21
-315.175574574068
 31
0.0
  0
LINE
  5
1F4
330
52
100
AcDbEntity
  8
0
  6
Continuous
 62
     7
100
AcDbLine
 10
-352.7485927691271
 20
-329.6917801512026
 30
0.0
 11
-398.8003218487665
 21
-316.3977910607115
 31
0.0
  0
LINE
  5
1F5
330
52
100
AcDbEntity
  8
0
  6
Continuous
 62
     7
100
AcDbLine
 10
-398.8003218487665
 20
-316.3977910607115
 30
0.0
 11
-398.800321848777
 21
-315.002918435123
 31
0.0
  0
LINE
  5
1F6
330
52
100
AcDbEntity
  8
0
  6
Continuous
 62
     7
100
AcDbLine
 10
-394.5660293497823
 20
-311.9909608931998
 30
0.0
 11
-398.800321848777
 21
-315.002918435123
 31
0.0
  0
LINE
  5
1F7
330
52
100
AcDbEntity
  8
0
  6
Continuous
 62
     7
100
AcDbLine
 10
-398.800321848777
 20
-315.002918435123
 30
0.0
 11
-397.4503218487453
 21
-313.8337841399843
 31
0.0
  0
LINE
  5
1F8
330
52
100
AcDbEntity
  8
0
  6
Continuous
 62
     7
100
AcDbLine
 10
-349.5567129830081
 20
-308.6223778048289
 30
0.0
 11
-350.5959282249802
 21
-309.5223646043838
 31
0.0
  0
LINE
  5
1F9
330
52
100
AcDbEntity
  8
0
  6
Continuous
 62
     7
100
AcDbLine
 10
-397.450321848751
 20
-316.7875024924221
 30
0.0
 11
-397.4503218487535
 21
-319.5587837845746
 31
0.0
  0
LINE
  5
1FA
330
52
100
AcDbEntity
  8
0
  6
Continuous
 62
     7
100
AcDbLine
 10
-397.4503218487535
 20
-319.5587837845746
 30
0.0
 11
-397.1003218488224
 21
-319.2556748933803
 31
0.0
  0
LINE
  5
1FB
330
52
100
AcDbEntity
  8
0
  6
Continuous
 62
     7
100
AcDbLine
 10
-397.1003218488224
 20
-319.2556748933803
 30
0.0
 11
-397.1003218488189
 21
-316.8885387895114
 31
0.0
  0
LINE
  5
1FC
330
52
100
AcDbEntity
  8
0
  6
Continuous
 62
     7
100
AcDbLine
 10
-402.2801887784463
 20
-318.0929836247559
 30
0.0
 11
-402.9062818925762
 21
-317.5507710827846
 31
0.0
  0
LINE
  5
1FD
330
52
100
AcDbEntity
  8
0
  6
Continuous
 62
     7
100
AcDbLine
 10
-397.4503218487535
 20
-319.5587837845746
 30
0.0
 11
-399.9125617575396
 21
-318.8479963475047
 31
0.0
  0
LINE
  5
1FE
330
52
100
AcDbEntity
  8
0
  6
Continuous
 62
     7
100
AcDbLine
 10
-399.7488983398542
 20
-318.7300972199758
 30
0.0
 11
-398.9988983398332
 21
-318.0805781671165
 31
0.0
  0
LINE
  5
1FF
330
52
100
AcDbEntity
  8
0
  6
Continuous
 62
     7
100
AcDbLine
 10
-402.3675130226926
 20
-315.7063814359075
 30
0.0
 11
-401.6175130226716
 21
-315.0568623830483
 31
0.0
  0
LINE
  5
200
330
52
100
AcDbEntity
  8
0
  6
Continuous
 62
     7
100
AcDbLine
 10
-402.9062818925762
 20
-317.5507710827846
 30
0.0
 11
-402.906281892565
 21
-315.175574574068
 31
0.0
  0
LINE
  5
201
330
52
100
AcDbEntity
  8
0
  6
Continuous
 62
     7
100
AcDbLine
 10
-335.0955978414189
 20
-297.6352710132571
 30
0.0
 11
-367.266029347813
 21
-288.3484673681257
 31
0.0
  0
LINE
  5
202
330
52
100
AcDbEntity
  8
0
  6
Continuous
 62
     7
100
AcDbLine
 10
-349.5567129830085
 20
-308.8821854259321
 30
0.0
 11
-350.4459304250977
 21
-309.6522703202747
 31
0.0
  0
LINE
  5
203
330
52
100
AcDbEntity
  8
0
  6
Continuous
 62
     7
100
AcDbLine
 10
-326.9821087190708
 20
-308.8820420526104
 30
0.0
 11
-349.5567129830085
 21
-308.8821854259321
 31
0.0
  0
LINE
  5
204
330
52
100
AcDbEntity
  8
0
  6
Continuous
 62
     7
100
AcDbLine
 10
-335.3581205946501
 20
-299.176067978232
 30
0.0
 11
-328.0835072028577
 21
-301.2760679782404
 31
0.0
  0
LINE
  5
205
330
52
100
AcDbEntity
  8
0
  6
Continuous
 62
     7
100
AcDbLine
 10
-333.4528647063233
 20
-299.4662603573084
 30
0.0
 11
-329.9887630911842
 21
-300.4662603573124
 31
0.0
  0
LINE
  5
206
330
52
100
AcDbEntity
  8
0
  6
Continuous
 62
     2
100
AcDbLine
 10
-328.0835072028576
 20
-301.0162603573147
 30
0.0
 11
-327.3835072027742
 21
-300.4100425745922
 31
0.0
  0
LINE
  5
207
330
52
100
AcDbEntity
  8
0
  6
Continuous
 62
     7
100
AcDbLine
 10
-327.3835072027742
 20
-300.6698501955172
 30
0.0
 11
-328.0835072028577
 21
-301.2760679782404
 31
0.0
  0
LINE
  5
208
330
52
100
AcDbEntity
  8
0
  6
Continuous
 62
     7
100
AcDbLine
 10
-327.3835072027742
 20
-300.6698501955172
 30
0.0
 11
-327.3835072027742
 21
-300.4100425745922
 31
0.0
  0
LINE
  5
209
330
52
100
AcDbEntity
  8
0
  6
Continuous
 62
     7
100
AcDbLine
 10
-328.0835072028576
 20
-301.0162603573147
 30
0.0
 11
-328.0835072028577
 21
-301.2760679782404
 31
0.0
  0
LINE
  5
20A
330
52
100
AcDbEntity
  8
0
  6
Continuous
 62
     7
100
AcDbLine
 10
-349.5567129830085
 20
-308.8821854259321
 30
0.0
 11
-349.5567129830081
 21
-308.6223778048289
 31
0.0
  0
LINE
  5
20B
330
52
100
AcDbEntity
  8
0
  6
Continuous
 62
     7
100
AcDbLine
 10
-326.9821087190704
 20
-308.6222344315017
 30
0.0
 11
-349.5567129830081
 21
-308.6223778048289
 31
0.0
  0
LINE
  5
20C
330
52
100
AcDbEntity
  8
0
  6
Continuous
 62
     7
100
AcDbLine
 10
-329.2996224508588
 20
-296.6526137534477
 30
0.0
 11
-332.7420053464718
 21
-295.6588834077259
 31
0.0
  0
LINE
  5
20D
330
52
100
AcDbEntity
  8
0
  6
Continuous
 62
     7
100
AcDbLine
 10
-333.4420053465557
 20
-296.2651011904487
 30
0.0
 11
-332.7420053464718
 21
-295.6588834077259
 31
0.0
  0
LINE
  5
20E
330
52
100
AcDbEntity
  8
0
  6
Continuous
 62
     7
100
AcDbLine
 10
-329.9996224509422
 20
-297.2588315361703
 30
0.0
 11
-333.4420053465557
 21
-296.2651011904487
 31
0.0
  0
LINE
  5
20F
330
52
100
AcDbEntity
  8
0
  6
Continuous
 62
     7
100
AcDbLine
 10
-329.9996224509422
 20
-297.2588315361703
 30
0.0
 11
-329.2996224508588
 21
-296.6526137534477
 31
0.0
  0
LINE
  5
210
330
52
100
AcDbEntity
  8
0
  6
Continuous
 62
     7
100
AcDbLine
 10
-333.7703593156464
 20
-296.1851410013127
 30
0.0
 11
-334.4703593157302
 21
-296.7913587840354
 31
0.0
  0
LINE
  5
211
330
52
100
AcDbEntity
  8
0
  6
Continuous
 62
     7
100
AcDbLine
 10
-335.3581205946501
 20
-299.176067978232
 30
0.0
 11
-335.3581205946501
 21
-298.9162603573061
 31
0.0
  0
LINE
  5
212
330
52
100
AcDbEntity
  8
0
  6
Continuous
 62
     7
100
AcDbLine
 10
-330.18893052639
 20
-299.6001866190488
 30
0.0
 11
-332.7528647062397
 21
-298.8600425745856
 31
0.0
  0
LINE
  5
213
330
52
100
AcDbEntity
  8
0
  6
Continuous
 62
     7
100
AcDbLine
 10
-330.644167875365
 20
-298.9202881578514
 30
0.0
 11
-332.6637279755308
 21
-298.3372913741118
 31
0.0
  0
LINE
  5
214
330
52
100
AcDbEntity
  8
0
  6
Continuous
 62
     7
100
AcDbLine
 10
-333.4528647063233
 20
-299.4662603573084
 30
0.0
 11
-332.7528647062397
 21
-298.8600425745856
 31
0.0
  0
SPLINE
  5
215
330
52
100
AcDbEntity
  8
0
  6
Continuous
 62
     7
100
AcDbSpline
210
0.0
220
0.0
230
1.0
 70
     8
 71
     3
 72
    11
 73
     7
 74
     5
 42
0.000000001
 43
0.0000000001
 44
0.00000001
 40
0.0
 40
0.0
 40
0.0
 40
0.0
 40
2.055426212073383
 40
3.899739673547037
 40
5.514028626618957
 40
6.901325652242035
 40
6.901325652242035
 40
6.901325652242035
 40
6.901325652242035
 10
-269.0238441342
 20
-339.7448191506658
 30
0.0
 10
-269.0409439384835
 20
-339.058873731111
 30
0.0
 10
-269.0733872409516
 20
-337.7574363217667
 30
0.0
 10
-269.3805621651171
 20
-335.9425896236929
 30
0.0
 10
-269.838782686539
 20
-334.3780680340722
 30
0.0
 10
-270.3665480002523
 20
-333.5234806094913
 30
0.0
 10
-270.610474802249
 20
-333.1285005588464
 30
0.0
 11
-269.0238441342
 21
-339.7448191506658
 31
0.0
 11
-269.1264818570833
 21
-337.6919571478996
 31
0.0
 11
-269.4315853265391
 21
-335.8730552747883
 31
0.0
 11
-269.9308043410966
 21
-334.3378975598927
 31
0.0
 11
-270.610474802249
 21
-333.1285005588464
 31
0.0
  0
SPLINE
  5
216
330
52
100
AcDbEntity
  8
0
  6
Continuous
 62
     7
100
AcDbSpline
210
0.0
220
0.0
230
1.0
 70
     8
 71
     3
 72
    11
 73
     7
 74
     5
 42
0.000000001
 43
0.0000000001
 44
0.00000001
 40
0.0
 40
0.0
 40
0.0
 40
0.0
 40
1.666830184707743
 40
3.200936069996789
 40
4.589865012864162
 40
5.828860640621039
 40
5.828860640621039
 40
5.828860640621039
 40
5.828860640621039
 10
-270.2362796994685
 20
-339.3948191506767
 30
0.0
 10
-270.2476810014443
 20
-338.8388708837367
 30
0.0
 10
-270.2695757712477
 20
-337.7712427139498
 30
0.0
 10
-270.4704645967589
 20
-336.2526879615048
 30
0.0
 10
-270.7731497755526
 20
-334.8928597926459
 30
0.0
 10
-271.1129324902921
 20
-334.0838186592923
 30
0.0
 10
-271.2731308918939
 20
-333.7023775664544
 30
0.0
 11
-270.2362796994685
 21
-339.3948191506767
 31
0.0
 11
-270.302535907886
 21
-337.7293063235957
 31
0.0
 11
-270.5001337619939
 21
-336.2079792848263
 31
0.0
 11
-270.825582174338
 21
-334.8577174790493
 31
0.0
 11
-271.2731308918939
 21
-333.7023775664544
 31
0.0
  0
SPLINE
  5
217
330
52
100
AcDbEntity
  8
0
  6
Continuous
 62
     7
100
AcDbSpline
210
0.0
220
0.0
230
1.0
 70
     8
 71
     3
 72
    11
 73
     7
 74
     5
 42
0.000000001
 43
0.0000000001
 44
0.00000001
 40
0.0
 40
0.0
 40
0.0
 40
0.0
 40
2.232995827334217
 40
4.600097653203754
 40
7.051302587118657
 40
9.532816368088785
 40
9.532816368088785
 40
9.532816368088785
 40
9.532816368088785
 10
-286.4238441341931
 20
-354.8136611765087
 30
0.0
 10
-286.4027855591173
 20
-354.0691275089563
 30
0.0
 10
-286.3594036886611
 20
-352.5353460601997
 30
0.0
 10
-286.0361972714552
 20
-350.2035643994562
 30
0.0
 10
-285.5512626368144
 20
-347.8165464121219
 30
0.0
 10
-285.0762028550281
 20
-346.2415530622795
 30
0.0
 10
-284.8372134661636
 20
-345.4492176548666
 30
0.0
 11
-286.4238441341931
 21
-354.8136611765087
 31
0.0
 11
-286.3212064113029
 21
-352.5830254229595
 31
0.0
 11
-286.016102941852
 21
-350.2356688392073
 31
0.0
 11
-285.5168839273039
 21
-347.8358384270144
 31
0.0
 11
-284.8372134661636
 21
-345.4492176548666
 31
0.0
  0
SPLINE
  5
218
330
52
100
AcDbEntity
  8
0
  6
Continuous
 62
     7
100
AcDbSpline
210
0.0
220
0.0
230
1.0
 70
     8
 71
     3
 72
    15
 73
    11
 74
     9
 42
0.000000001
 43
0.0000000001
 44
0.00000001
 40
0.0
 40
0.0
 40
0.0
 40
0.0
 40
0.2676406647976102
 40
0.5808314313499338
 40
0.9601912813221098
 40
1.403844019237743
 40
1.896442423891361
 40
2.415200668482637
 40
2.933958913350085
 40
3.426557327259346
 40
3.426557327259346
 40
3.426557327259346
 40
3.426557327259346
 10
-371.7350696593816
 20
-303.3973791728574
 30
0.0
 10
-371.7198300739848
 20
-303.307764752017
 30
0.0
 10
-371.6867572465977
 20
-303.113284324459
 30
0.0
 10
-371.4574470524802
 20
-302.8698296217171
 30
0.0
 10
-371.1369353873142
 20
-302.6681658313908
 30
0.0
 10
-370.7222605614134
 20
-302.5151284971998
 30
0.0
 10
-370.2455262331752
 20
-302.4187662080822
 30
0.0
 10
-369.7353196863302
 20
-302.3872932910186
 30
0.0
 10
-369.2236382491334
 20
-302.4153184390768
 30
0.0
 10
-368.8950931309838
 20
-302.4933480976148
 30
0.0
 10
-368.7350696593732
 20
-302.5313537690784
 30
0.0
 11
-371.7350696593816
 21
-303.3973791728574
 31
0.0
 11
-371.6669207969162
 21
-303.1385601967568
 31
0.0
 11
-371.4671204669487
 21
-302.8973791728563
 31
0.0
 11
-371.1492828447139
 21
-302.6902725801884
 31
0.0
 11
-370.7350696593767
 21
-302.5313537690722
 31
0.0
 11
-370.2527076115749
 21
-302.43145360409
 31
0.0
 11
-369.7350696593738
 21
-302.397379172859
 31
0.0
 11
-369.2174317071734
 21
-302.4314536040932
 31
0.0
 11
-368.7350696593732
 21
-302.5313537690784
 31
0.0
  0
SPLINE
  5
219
330
52
100
AcDbEntity
  8
0
  6
Continuous
 62
     7
100
AcDbSpline
210
0.0
220
0.0
230
1.0
 70
     8
 71
     3
 72
    11
 73
     7
 74
     5
 42
0.000000001
 43
0.0000000001
 44
0.00000001
 40
0.0
 40
0.0
 40
0.0
 40
0.0
 40
0.4436527430913316
 40
0.8230125885536451
 40
1.136203351169816
 40
1.403844020347332
 40
1.403844020347332
 40
1.403844020347332
 40
1.403844020347332
 10
-368.7350696593732
 20
-302.5313537690784
 30
0.0
 10
-368.5941072782767
 20
-302.5784363382506
 30
0.0
 10
-368.3326103890992
 20
-302.6657784143031
 30
0.0
 10
-368.0128120833383
 20
-302.8703115094953
 30
0.0
 10
-367.7833591944726
 20
-303.11319229286
 30
0.0
 10
-367.7503020278464
 20
-303.3077357211339
 30
0.0
 10
-367.7350696593816
 20
-303.3973791728635
 30
0.0
 11
-368.7350696593732
 21
-302.5313537690784
 31
0.0
 11
-368.3208564740405
 21
-302.6902725801959
 31
0.0
 11
-368.0030188518099
 21
-302.8973791728641
 31
0.0
 11
-367.8032185218453
 21
-303.1385601967641
 31
0.0
 11
-367.7350696593816
 21
-303.3973791728635
 31
0.0
  0
SPLINE
  5
21A
330
52
100
AcDbEntity
  8
0
  6
Continuous
 62
     7
100
AcDbSpline
210
0.0
220
0.0
230
1.0
 70
     8
 71
     3
 72
    19
 73
    15
 74
    13
 42
0.000000001
 43
0.0000000001
 44
0.00000001
 40
0.0
 40
0.0
 40
0.0
 40
0.0
 40
0.2676406686773627
 40
0.5808314346125738
 40
0.9601912858934912
 40
1.403844025770933
 40
1.896442433305548
 40
2.415200681654662
 40
2.933958930003592
 40
3.426557337538106
 40
3.870210077415604
 40
4.24956992869662
 40
4.562760694631797
 40
4.830401363309385
 40
4.830401363309385
 40
4.830401363309385
 40
4.830401363309385
 10
-367.7350696593816
 20
-303.3973791728635
 30
0.0
 10
-367.7503092057969
 20
-303.4869934355891
 30
0.0
 10
-367.7833819541856
 20
-303.6814735160737
 30
0.0
 10
-368.0126929151712
 20
-303.9249313778978
 30
0.0
 10
-368.3332007103675
 20
-304.1265794084813
 30
0.0
 10
-368.7478936573392
 20
-304.2796904310145
 30
0.0
 10
-369.2245495955469
 20
-304.3757339401279
 30
0.0
 10
-369.7350696593831
 20
-304.4084817431118
 30
0.0
 10
-370.245589723219
 20
-304.3757339401265
 30
0.0
 10
-370.7222456614264
 20
-304.2796904310115
 30
0.0
 10
-371.1369386083977
 20
-304.1265794084771
 30
0.0
 10
-371.4574464035934
 20
-303.924931377893
 30
0.0
 10
-371.6867573645785
 20
-303.6814735160679
 30
0.0
 10
-371.7198301129666
 20
-303.486993435583
 30
0.0
 10
-371.7350696593816
 20
-303.3973791728574
 30
0.0
 11
-367.7350696593816
 21
-303.3973791728635
 31
0.0
 11
-367.8032185218466
 21
-303.6561981489635
 31
0.0
 11
-368.0030188518135
 21
-303.8973791728637
 31
0.0
 11
-368.320856474047
 21
-304.1044857655313
 31
0.0
 11
-368.7350696593828
 21
-304.2634045766475
 31
0.0
 11
-369.2174317071832
 21
-304.3633047416302
 31
0.0
 11
-369.7350696593831
 21
-304.3973791728619
 31
0.0
 11
-370.2527076115827
 21
-304.3633047416287
 31
0.0
 11
-370.7350696593827
 21
-304.2634045766446
 31
0.0
 11
-371.1492828447181
 21
-304.1044857655272
 31
0.0
 11
-371.4671204669511
 21
-303.8973791728586
 31
0.0
 11
-371.6669207969173
 21
-303.6561981489579
 31
0.0
 11
-371.7350696593816
 21
-303.3973791728574
 31
0.0
  0
SPLINE
  5
21B
330
52
100
AcDbEntity
  8
0
  6
Continuous
 62
     7
100
AcDbSpline
210
0.0
220
0.0
230
1.0
 70
     8
 71
     3
 72
    13
 73
     9
 74
     7
 42
0.000000001
 43
0.0000000001
 44
0.00000001
 40
0.0
 40
0.0
 40
0.0
 40
0.0
 40
0.3229120854381867
 40
0.6615040571463847
 40
1.021013069690529
 40
1.402476610945356
 40
1.803214835830138
 40
2.217737545754545
 40
2.217737545754545
 40
2.217737545754545
 40
2.217737545754545
 10
-376.1038496051393
 20
-292.9852192695721
 30
0.0
 10
-376.0064801116966
 20
-292.9378451288895
 30
0.0
 10
-375.8070130751747
 20
-292.8407964788656
 30
0.0
 10
-375.4634866136929
 20
-292.8000045565386
 30
0.0
 10
-375.1032302839725
 20
-292.8338111826556
 30
0.0
 10
-374.7379114102324
 20
-292.9484835692081
 30
0.0
 10
-374.3805823749152
 20
-293.1319704241681
 30
0.0
 10
-374.1694120387519
 20
-293.3040109269177
 30
0.0
 10
-374.0620416341168
 20
-293.3914856200867
 30
0.0
 11
-376.1038496051393
 21
-292.9852192695721
 31
0.0
 11
-375.8062365808839
 21
-292.8599247976088
 31
0.0
 11
-375.4709761036329
 21
-292.8125440179061
 31
0.0
 11
-375.112951567973
 21
-292.8451808673789
 31
0.0
 11
-374.7480572490362
 21
-292.9563859506164
 31
0.0
 11
-374.3924923121792
 21
-293.1412229082826
 31
0.0
 11
-374.0620416341168
 21
-293.3914856200867
 31
0.0
  0
SPLINE
  5
21C
330
52
100
AcDbEntity
  8
0
  6
Continuous
 62
     7
100
AcDbSpline
210
0.0
220
0.0
230
1.0
 70
     8
 71
     3
 72
    19
 73
    15
 74
    13
 42
0.000000001
 43
0.0000000001
 44
0.00000001
 40
0.0
 40
0.0
 40
0.0
 40
0.0
 40
0.3941644373872801
 40
0.8074425663562658
 40
1.251886396918355
 40
1.72979510805849
 40
2.234897317658743
 40
2.755052536218922
 40
3.275207754779064
 40
3.780309964379323
 40
4.25821867551948
 40
4.702662506081483
 40
5.115940635050475
 40
5.510105072437701
 40
5.510105072437701
 40
5.510105072437701
 40
5.510105072437701
 10
-399.7488983398542
 20
-318.7300972199758
 30
0.0
 10
-399.8576968179515
 20
-318.8060561841521
 30
0.0
 10
-400.080569600715
 20
-318.9616574777725
 30
0.0
 10
-400.5021859948972
 20
-319.0387096061373
 30
0.0
 10
-400.9491160688203
 20
-318.9984777276325
 30
0.0
 10
-401.4017859660367
 20
-318.8365902840397
 30
0.0
 10
-401.8291027681245
 20
-318.5685167326221
 30
0.0
 10
-402.2048672295209
 20
-318.211277358271
 30
0.0
 10
-402.5047618760892
 20
-317.788332796898
 30
0.0
 10
-402.7090406250616
 20
-317.3271026254711
 30
0.0
 10
-402.8046005125529
 20
-316.8559488415094
 30
0.0
 10
-402.7805725920827
 20
-316.4078553757426
 30
0.0
 10
-402.6440798493957
 20
-316.0015708134928
 30
0.0
 10
-402.4582355397023
 20
-315.8032127220831
 30
0.0
 10
-402.3675130226926
 20
-315.7063814359075
 30
0.0
 11
-399.7488983398542
 21
-318.7300972199758
 31
0.0
 11
-400.0869853765399
 21
-318.9327367113302
 31
0.0
 11
-400.4912589717557
 21
-319.0185369223873
 31
0.0
 11
-400.9341693403031
 21
-318.9816489002851
 31
0.0
 11
-401.3855325166239
 21
-318.8245883382315
 31
0.0
 11
-401.8145887414614
 21
-318.5580569184053
 31
0.0
 11
-402.1920991002988
 21
-318.2002198340058
 31
0.0
 11
-402.4923359124736
 21
-317.7754618951557
 31
0.0
 11
-402.694839858043
 21
-317.3127304461972
 31
0.0
 11
-402.7858090461948
 21
-316.8435595350167
 31
0.0
 11
-402.7590458098166
 21
-316.3999222395602
 31
0.0
 11
-402.6163722534439
 21
-316.0120523228123
 31
0.0
 11
-402.3675130226926
 21
-315.7063814359075
 31
0.0
  0
SPLINE
  5
21D
330
52
100
AcDbEntity
  8
0
  6
Continuous
 62
     7
100
AcDbSpline
210
0.0
220
0.0
230
1.0
 70
     8
 71
     3
 72
    17
 73
    13
 74
    11
 42
0.000000001
 43
0.0000000001
 44
0.00000001
 40
0.0
 40
0.0
 40
0.0
 40
0.0
 40
0.3653522826161793
 40
0.7461405152739453
 40
1.152800120593028
 40
1.588562857865708
 40
2.049955914037108
 40
2.528535877780876
 40
3.012912096491576
 40
3.490759028512845
 40
3.95080600000809
 40
4.384852940519922
 40
4.384852940519922
 40
4.384852940519922
 40
4.384852940519922
 10
-402.3675130226926
 20
-315.7063814359075
 30
0.0
 10
-402.2673688590418
 20
-315.6352625108485
 30
0.0
 10
-402.0628494843539
 20
-315.4900199337129
 30
0.0
 10
-401.6787825032234
 20
-315.4049391317695
 30
0.0
 10
-401.2683278909834
 20
-315.4208597825698
 30
0.0
 10
-400.8469774846803
 20
-315.5431479991326
 30
0.0
 10
-400.4400140400366
 20
-315.7606839416155
 30
0.0
 10
-400.0692356867062
 20
-316.0614628855851
 30
0.0
 10
-399.7545898660326
 20
-316.4281730346939
 30
0.0
 10
-399.5167289182796
 20
-316.8403506330139
 30
0.0
 10
-399.3583743652238
 20
-317.2749010619249
 30
0.0
 10
-399.33668445366
 20
-317.5733528737908
 30
0.0
 10
-399.3261548737036
 20
-317.7182393279435
 30
0.0
 11
-402.3675130226926
 21
-315.7063814359075
 31
0.0
 11
-402.0565153959199
 21
-315.5146452354101
 31
0.0
 11
-401.6869607791514
 21
-315.4228352810163
 31
0.0
 11
-401.2805254041344
 21
-315.4363379719376
 31
0.0
 11
-400.861049613306
 21
-315.5543601104276
 31
0.0
 11
-400.453138365341
 21
-315.769980069409
 31
0.0
 11
-400.0807180279082
 21
-316.0705493198469
 31
0.0
 11
-399.7656339823898
 21
-316.4384383866578
 31
0.0
 11
-399.5263671977174
 21
-316.8520675632238
 31
0.0
 11
-399.3769531474059
 21
-317.2871752015591
 31
0.0
 11
-399.3261548737036
 21
-317.7182393279435
 31
0.0
  0
SPLINE
  5
21E
330
52
100
AcDbEntity
  8
0
  6
Continuous
 62
     7
100
AcDbSpline
210
0.0
220
0.0
230
1.0
 70
     8
 71
     3
 72
    11
 73
     7
 74
     5
 42
0.000000001
 43
0.0000000001
 44
0.00000001
 40
0.0
 40
0.0
 40
0.0
 40
0.0
 40
0.3007359728961856
 40
0.5867218291852707
 40
0.861187365128299
 40
1.129302987309897
 40
1.129302987309897
 40
1.129302987309897
 40
1.129302987309897
 10
-399.3261548737036
 20
-317.7182393279435
 30
0.0
 10
-399.3311231064499
 20
-317.8187207455705
 30
0.0
 10
-399.3408159109429
 20
-318.0147552940994
 30
0.0
 10
-399.4254051860518
 20
-318.2914981171266
 30
0.0
 10
-399.5564224925887
 20
-318.5384844518167
 30
0.0
 10
-399.6852422531761
 20
-318.6667265798501
 30
0.0
 10
-399.7488983398542
 20
-318.7300972199758
 30
0.0
 11
-399.3261548737036
 21
-317.7182393279435
 31
0.0
 11
-399.3536540624407
 21
-318.0177154043151
 31
0.0
 11
-399.4352782586719
 21
-318.291805538632
 31
0.0
 11
-399.5684358017371
 21
-318.5318063728889
 31
0.0
 11
-399.7488983398542
 21
-318.7300972199758
 31
0.0
  0
SPLINE
  5
21F
330
52
100
AcDbEntity
  8
0
  6
Continuous
 62
     7
100
AcDbSpline
210
0.0
220
0.0
230
1.0
 70
     8
 71
     3
 72
    11
 73
     7
 74
     5
 42
0.000000001
 43
0.0000000001
 44
0.00000001
 40
0.0
 40
0.0
 40
0.0
 40
0.0
 40
0.4914183231044094
 40
0.9480289858255451
 40
1.37171157189875
 40
1.775014765176467
 40
1.775014765176467
 40
1.775014765176467
 40
1.775014765176467
 10
-398.6857076072995
 20
-316.4308773422936
 30
0.0
 10
-398.6426914930502
 20
-316.5899329546285
 30
0.0
 10
-398.5597061539294
 20
-316.8967781109478
 30
0.0
 10
-398.582156928778
 20
-317.3592013783351
 30
0.0
 10
-398.7161595291203
 20
-317.7774045476633
 30
0.0
 10
-398.9062132289314
 20
-317.9811942923249
 30
0.0
 10
-398.9988983398332
 20
-318.0805781671165
 30
0.0
 11
-398.6857076072995
 21
-316.4308773422936
 31
0.0
 11
-398.5831261787504
 21
-316.9114697047034
 31
0.0
 11
-398.6035451587537
 21
-317.3676235877195
 31
0.0
 11
-398.745510657099
 21
-317.7668136853594
 31
0.0
 11
-398.9988983398332
 21
-318.0805781671165
 31
0.0
  0
SPLINE
  5
220
330
52
100
AcDbEntity
  8
0
  6
Continuous
 62
     7
100
AcDbSpline
210
0.0
220
0.0
230
1.0
 70
     8
 71
     3
 72
    15
 73
    11
 74
     9
 42
0.000000001
 43
0.0000000001
 44
0.00000001
 40
0.0
 40
0.0
 40
0.0
 40
0.0
 40
0.3598922931459552
 40
0.7345764197205553
 40
1.134176865191393
 40
1.562041270757995
 40
2.015142222868309
 40
2.485659473325686
 40
2.96285438612444
 40
3.434940306556969
 40
3.434940306556969
 40
3.434940306556969
 40
3.434940306556969
 10
-401.6175130226716
 20
-315.0568623830483
 30
0.0
 10
-401.5189950969312
 20
-314.9866743283739
 30
0.0
 10
-401.3179100804304
 20
-314.8434134510325
 30
0.0
 10
-400.9408860429498
 20
-314.757079271277
 30
0.0
 10
-400.5373896979341
 20
-314.7687479088902
 30
0.0
 10
-400.1222940101799
 20
-314.8839703592283
 30
0.0
 10
-399.7194348199886
 20
-315.0921096803291
 30
0.0
 10
-399.351472666384
 20
-315.3829241837847
 30
0.0
 10
-399.0311270576642
 20
-315.736533323477
 30
0.0
 10
-398.8769803772389
 20
-316.0138649616879
 30
0.0
 10
-398.8003218487667
 20
-316.1517844904469
 30
0.0
 11
-401.6175130226716
 21
-315.0568623830483
 31
0.0
 11
-401.3116129720108
 21
-314.8672637932336
 31
0.0
 11
-400.9485840010028
 21
-314.7745375031532
 31
0.0
 11
-400.5490947516826
 21
-314.7839639580828
 31
0.0
 11
-400.1358905008432
 21
-314.8950053827383
 31
0.0
 11
-399.7324971059329
 21
-315.1013406499676
 31
0.0
 11
-399.3618816364427
 21
-315.3912210682981
 31
0.0
 11
-399.0451456269266
 21
-315.7481430267114
 31
0.0
 11
-398.8003218487667
 21
-316.1517844904469
 31
0.0
  0
SPLINE
  5
221
330
52
100
AcDbEntity
  8
0
  6
Continuous
 62
     7
100
AcDbSpline
210
0.0
220
0.0
230
1.0
 70
     8
 71
     3
 72
    13
 73
     9
 74
     7
 42
0.000000001
 43
0.0000000001
 44
0.00000001
 40
0.0
 40
0.0
 40
0.0
 40
0.0
 40
0.372850170178927
 40
0.7898908361234069
 40
1.237382560954989
 40
1.698320110839586
 40
2.154390866023772
 40
2.58774743223167
 40
2.58774743223167
 40
2.58774743223167
 40
2.58774743223167
 10
-371.2557602920405
 20
-304.0468982256486
 30
0.0
 10
-371.1445514557766
 20
-303.990767710538
 30
0.0
 10
-370.9089532180461
 20
-303.8718540611949
 30
0.0
 10
-370.5077490281905
 20
-303.7658649006866
 30
0.0
 10
-370.0700440547688
 20
-303.7011844628322
 30
0.0
 10
-369.6144510810964
 20
-303.6903895103601
 30
0.0
 10
-369.1640692506724
 20
-303.72594433873
 30
0.0
 10
-368.8756139993674
 20
-303.7961738650035
 30
0.0
 10
-368.7350696593751
 20
-303.8303918746592
 30
0.0
 11
-371.2557602920405
 21
-304.0468982256486
 31
0.0
 11
-370.9175632921617
 21
-303.8899267645718
 31
0.0
 11
-370.5164173049137
 21
-303.7758881022551
 31
0.0
 11
-370.0736765918683
 21
-303.710853438211
 31
0.0
 11
-369.6129104426385
 21
-303.698284380755
 31
0.0
 11
-369.1586473898897
 21
-303.7388505242895
 31
0.0
 11
-368.7350696593751
 21
-303.8303918746592
 31
0.0
  0
SPLINE
  5
222
330
52
100
AcDbEntity
  8
0
  6
Continuous
 62
     7
100
AcDbSpline
210
0.0
220
0.0
230
1.0
 70
     8
 71
     3
 72
     9
 73
     5
 74
     3
 42
0.000000001
 43
0.0000000001
 44
0.00000001
 40
0.0
 40
0.0
 40
0.0
 40
0.0
 40
0.2952485976066542
 40
0.56497648786362
 40
0.56497648786362
 40
0.56497648786362
 40
0.56497648786362
 10
-368.7350696593751
 20
-303.8303918746592
 30
0.0
 10
-368.6409118095676
 20
-303.8598594127511
 30
0.0
 10
-368.4607349362681
 20
-303.9162473916003
 30
0.0
 10
-368.2939869205217
 20
-304.0046794717444
 30
0.0
 10
-368.2143790267245
 20
-304.0468982256531
 30
0.0
 11
-368.7350696593751
 21
-303.8303918746592
 31
0.0
 11
-368.4562634775076
 21
-303.9275456069823
 31
0.0
 11
-368.2143790267245
 21
-304.0468982256531
 31
0.0
  0
SPLINE
  5
223
330
52
100
AcDbEntity
  8
0
  6
Continuous
 62
     7
100
AcDbSpline
210
0.0
220
0.0
230
1.0
 70
     8
 71
     3
 72
     9
 73
     5
 74
     3
 42
0.000000001
 43
0.0000000001
 44
0.00000001
 40
0.0
 40
0.0
 40
0.0
 40
0.0
 40
0.5887205472498755
 40
1.163297581366946
 40
1.163297581366946
 40
1.163297581366946
 40
1.163297581366946
 10
-332.7420053464718
 20
-295.6588834077259
 30
0.0
 10
-332.9312696267576
 20
-295.7169174471491
 30
0.0
 10
-333.3052512651047
 20
-295.8315913253585
 30
0.0
 10
-333.6165850467479
 20
-296.0682502128863
 30
0.0
 10
-333.7703593156464
 20
-296.1851410013127
 30
0.0
 11
-332.7420053464718
 21
-295.6588834077259
 31
0.0
 11
-333.2937530643585
 21
-295.8642278499419
 31
0.0
 11
-333.7703593156464
 21
-296.1851410013127
 31
0.0
  0
SPLINE
  5
224
330
52
100
AcDbEntity
  8
0
  6
Continuous
 62
     7
100
AcDbSpline
210
0.0
220
0.0
230
1.0
 70
     8
 71
     3
 72
    13
 73
     9
 74
     7
 42
0.000000001
 43
0.0000000001
 44
0.00000001
 40
0.0
 40
0.0
 40
0.0
 40
0.0
 40
0.6693774140007122
 40
1.370389706390496
 40
2.097478788038334
 40
2.84248277376194
 40
3.595588133818898
 40
4.346266989705629
 40
4.346266989705629
 40
4.346266989705629
 40
4.346266989705629
 10
-328.0835072028576
 20
-301.0162603573147
 30
0.0
 10
-328.0954128584979
 20
-300.7929257087927
 30
0.0
 10
-328.1197868475856
 20
-300.3357015836044
 30
0.0
 10
-328.3034697620628
 20
-299.6563565124838
 30
0.0
 10
-328.5858234048794
 20
-298.9872410409333
 30
0.0
 10
-328.9714824503679
 20
-298.3511792965845
 30
0.0
 10
-329.4388401887761
 20
-297.7608325546821
 30
0.0
 10
-329.8128962189643
 20
-297.4259851023432
 30
0.0
 10
-329.9996224509422
 20
-297.2588315361703
 30
0.0
 11
-328.0835072028576
 21
-301.0162603573147
 31
0.0
 11
-328.1420419167041
 21
-300.3494471814398
 31
0.0
 11
-328.3157616830239
 21
-299.6703008939094
 31
0.0
 11
-328.5990755934442
 21
-299.0006802823523
 31
0.0
 11
-328.9828646367615
 21
-298.3621374796525
 31
0.0
 11
-329.4547766182741
 21
-297.7752245676769
 31
0.0
 11
-329.9996224509422
 21
-297.2588315361703
 31
0.0
  0
SPLINE
  5
225
330
52
100
AcDbEntity
  8
0
  6
Continuous
 62
     7
100
AcDbSpline
210
0.0
220
0.0
230
1.0
 70
     8
 71
     3
 72
    13
 73
     9
 74
     7
 42
0.000000001
 43
0.0000000001
 44
0.00000001
 40
0.0
 40
0.0
 40
0.0
 40
0.0
 40
0.6693774140009336
 40
1.370389706390813
 40
2.097478788038451
 40
2.842482773762076
 40
3.595588133818981
 40
4.34626698970588
 40
4.34626698970588
 40
4.34626698970588
 40
4.34626698970588
 10
-327.3835072027742
 20
-300.4100425745922
 30
0.0
 10
-327.3954128584144
 20
-300.18670792607
 30
0.0
 10
-327.419786847502
 20
-299.7294838008818
 30
0.0
 10
-327.6034697619792
 20
-299.050138729761
 30
0.0
 10
-327.8858234047958
 20
-298.3810232582106
 30
0.0
 10
-328.2714824502841
 20
-297.7449615138617
 30
0.0
 10
-328.7388401886924
 20
-297.1546147719594
 30
0.0
 10
-329.112896218881
 20
-296.8197673196207
 30
0.0
 10
-329.2996224508588
 20
-296.6526137534477
 30
0.0
 11
-327.3835072027742
 21
-300.4100425745922
 31
0.0
 11
-327.4420419166206
 21
-299.743229398717
 31
0.0
 11
-327.6157616829403
 21
-299.0640831111865
 31
0.0
 11
-327.8990755933605
 21
-298.3944624996296
 31
0.0
 11
-328.2828646366778
 21
-297.7559196969297
 31
0.0
 11
-328.7547766181905
 21
-297.1690067849543
 31
0.0
 11
-329.2996224508588
 21
-296.6526137534477
 31
0.0
  0
SPLINE
  5
226
330
52
100
AcDbEntity
  8
0
  6
Continuous
 62
     7
100
AcDbSpline
210
0.0
220
0.0
230
1.0
 70
     8
 71
     3
 72
     9
 73
     5
 74
     3
 42
0.000000001
 43
0.0000000001
 44
0.00000001
 40
0.0
 40
0.0
 40
0.0
 40
0.0
 40
0.588720547249603
 40
1.163297581366879
 40
1.163297581366879
 40
1.163297581366879
 40
1.163297581366879
 10
-333.4420053465557
 20
-296.2651011904487
 30
0.0
 10
-333.6312696268416
 20
-296.3231352298719
 30
0.0
 10
-334.0052512651886
 20
-296.4378091080812
 30
0.0
 10
-334.3165850468316
 20
-296.6744679956089
 30
0.0
 10
-334.4703593157302
 20
-296.7913587840354
 30
0.0
 11
-333.4420053465557
 21
-296.2651011904487
 31
0.0
 11
-333.9937530644422
 21
-296.4704456326645
 31
0.0
 11
-334.4703593157302
 21
-296.7913587840354
 31
0.0
  0
SPLINE
  5
227
330
52
100
AcDbEntity
  8
0
  6
Continuous
 62
     7
100
AcDbSpline
210
0.0
220
0.0
230
1.0
 70
     8
 71
     3
 72
    11
 73
     7
 74
     5
 42
0.000000001
 43
0.0000000001
 44
0.00000001
 40
0.0
 40
0.0
 40
0.0
 40
0.0
 40
0.5630428083142053
 40
1.139420436397872
 40
1.739990736803932
 40
2.371536280447364
 40
2.371536280447364
 40
2.371536280447364
 40
2.371536280447364
 10
-334.4703593157302
 20
-296.7913587840354
 30
0.0
 10
-334.6040370981657
 20
-296.9244371287088
 30
0.0
 10
-334.8745586086234
 20
-297.1937455877845
 30
0.0
 10
-335.1496949467789
 20
-297.7124168972826
 30
0.0
 10
-335.3273324324302
 20
-298.2935768255278
 30
0.0
 10
-335.3476873058738
 20
-298.705249380102
 30
0.0
 10
-335.3581205946501
 20
-298.9162603573061
 30
0.0
 11
-334.4703593157302
 21
-296.7913587840354
 31
0.0
 11
-334.8493306457771
 21
-297.2077695629183
 31
0.0
 11
-335.1289614862151
 21
-297.7117713148582
 31
0.0
 11
-335.3003722983016
 21
-298.2873605969245
 31
0.0
 11
-335.3581205946501
 21
-298.9162603573061
 31
0.0
  0
SPLINE
  5
228
330
52
100
AcDbEntity
  8
0
  6
Continuous
 62
     7
100
AcDbSpline
210
0.0
220
0.0
230
1.0
 70
     8
 71
     3
 72
    11
 73
     7
 74
     5
 42
0.000000001
 43
0.0000000001
 44
0.00000001
 40
0.0
 40
0.0
 40
0.0
 40
0.0
 40
0.2681156221821073
 40
0.54258115812545
 40
0.828567014415117
 40
1.129302987311879
 40
1.129302987311879
 40
1.129302987311879
 40
1.129302987311879
 10
-333.0301212401712
 20
-298.4544024652747
 30
0.0
 10
-333.0937773268495
 20
-298.5177731054004
 30
0.0
 10
-333.2225970874372
 20
-298.646015233434
 30
0.0
 10
-333.3536143939743
 20
-298.8930015681242
 30
0.0
 10
-333.4382036690839
 20
-299.1697443911519
 30
0.0
 10
-333.4478964735772
 20
-299.3657789396813
 30
0.0
 10
-333.4528647063233
 20
-299.4662603573084
 30
0.0
 11
-333.0301212401712
 21
-298.4544024652747
 31
0.0
 11
-333.2105837782888
 21
-298.6526933123618
 31
0.0
 11
-333.3437413213544
 21
-298.8926941466189
 31
0.0
 11
-333.4253655175861
 21
-299.1667842809362
 31
0.0
 11
-333.4528647063233
 21
-299.4662603573084
 31
0.0
  0
SPLINE
  5
229
330
52
100
AcDbEntity
  8
0
  6
Continuous
 62
     7
100
AcDbSpline
210
0.0
220
0.0
230
1.0
 70
     8
 71
     3
 72
     9
 73
     5
 74
     3
 42
0.000000001
 43
0.0000000001
 44
0.00000001
 40
0.0
 40
0.0
 40
0.0
 40
0.0
 40
0.3177156676559397
 40
0.6535755191509929
 40
0.6535755191509929
 40
0.6535755191509929
 40
0.6535755191509929
 10
-332.6161862851556
 20
-298.2251193008425
 30
0.0
 10
-332.6558734035112
 20
-298.3241689174053
 30
0.0
 10
-332.7375140827975
 20
-298.5279247055595
 30
0.0
 10
-332.7476540055684
 20
-298.7473065005058
 30
0.0
 10
-332.7528647062397
 20
-298.8600425745856
 30
0.0
 11
-332.6161862851556
 21
-298.2251193008425
 31
0.0
 11
-332.7183511472193
 21
-298.5259607659784
 31
0.0
 11
-332.7528647062397
 21
-298.8600425745856
 31
0.0
  0
SPLINE
  5
22A
330
52
100
AcDbEntity
  8
0
  6
Continuous
 62
     7
100
AcDbSpline
210
0.0
220
0.0
230
1.0
 70
     8
 71
     3
 72
    17
 73
    13
 74
    11
 42
0.000000001
 43
0.0000000001
 44
0.00000001
 40
0.0
 40
0.0
 40
0.0
 40
0.0
 40
0.4340469405119251
 40
0.8940939120070945
 40
1.371940844028193
 40
1.856317062738764
 40
2.334897026482338
 40
2.796290082653542
 40
3.23205281992601
 40
3.638712425244934
 40
4.019500657902783
 40
4.384852940519144
 40
4.384852940519144
 40
4.384852940519144
 40
4.384852940519144
 10
-329.9887630911842
 20
-300.4662603573124
 30
0.0
 10
-329.9992926711406
 20
-300.3213739031597
 30
0.0
 10
-330.0209825827042
 20
-300.0229220912938
 30
0.0
 10
-330.1793371357595
 20
-299.5883716623827
 30
0.0
 10
-330.4171980835123
 20
-299.1761940640627
 30
0.0
 10
-330.7318439041854
 20
-298.8094839149537
 30
0.0
 10
-331.1026222575155
 20
-298.508704970984
 30
0.0
 10
-331.5095857021588
 20
-298.2911690285007
 30
0.0
 10
-331.9309361084619
 20
-298.168880811938
 30
0.0
 10
-332.3413907207015
 20
-298.1529601611371
 30
0.0
 10
-332.7254577018323
 20
-298.2380409630804
 30
0.0
 10
-332.9299770765203
 20
-298.3832835402158
 30
0.0
 10
-333.0301212401712
 20
-298.4544024652747
 30
0.0
 11
-329.9887630911842
 21
-300.4662603573124
 31
0.0
 11
-330.0395613648863
 21
-300.0351962309279
 31
0.0
 11
-330.1889754151974
 21
-299.6000885925926
 31
0.0
 11
-330.4282421998694
 21
-299.1864594160265
 31
0.0
 11
-330.7433262453875
 21
-298.8185703492155
 31
0.0
 11
-331.11574658282
 21
-298.5180010987775
 31
0.0
 11
-331.5236578307846
 21
-298.3023811397959
 31
0.0
 11
-331.9431336216127
 21
-298.1843590013057
 31
0.0
 11
-332.3495689966295
 21
-298.170856310384
 31
0.0
 11
-332.7191236133982
 21
-298.2626662647775
 31
0.0
 11
-333.0301212401712
 21
-298.4544024652747
 31
0.0
  0
ENDBLK
  5
54
330
52
100
AcDbEntity
  8
0
100
AcDbBlockEnd
  0
BLOCK
  5
57
330
55
100
AcDbEntity
  8
0
100
AcDbBlockBegin
  2
Allg1
 70
     0
 10
-332.0000000000406
 20
-346.54999999968
 30
0.0
  3
Allg1
  1

  0
INSERT
  5
56
330
55
100
AcDbEntity
  8
0
100
AcDbBlockReference
  2
HC-RBO_16_BU-select__1
 10
-402.9062818925762
 20
-409.762973046641
 30
0.0
  0
MTEXT
  5
22B
330
55
100
AcDbEntity
  8
1
 62
     6
100
AcDbMText
 10
-332.00000000004
 20
-421.0129714010946
 30
0.0
 40
10.0
 41
0.0
 71
     2
 72
     1
  1
 
  7
CONVERTER_11
 73
     1
 44
1.32052821128451
  0
ENDBLK
  5
58
330
55
100
AcDbEntity
  8
0
100
AcDbBlockEnd
  0
BLOCK
  5
5A
330
59
100
AcDbEntity
  8
0
100
AcDbBlockBegin
  2
HC-RBO_16_BU-select__2
 70
     0
 10
-618.6454121262685
 20
-403.8500003849896
 30
0.0
  3
HC-RBO_16_BU-select__2
  1

  0
LINE
  5
22C
330
59
100
AcDbEntity
  8
1
  6
DOT_CENTER
 62
     2
100
AcDbLine
 10
-594.5454121261604
 20
-374.3500003810105
 30
0.0
 11
-594.5454121261604
 21
-378.7500003810105
 31
0.0
  0
LINE
  5
22D
330
59
100
AcDbEntity
  8
1
  6
DOT_CENTER
 62
     2
100
AcDbLine
 10
-592.3454121261603
 20
-376.5500003810105
 30
0.0
 11
-596.7454121261604
 21
-376.5500003810105
 31
0.0
  0
LINE
  5
22E
330
59
100
AcDbEntity
  8
1
  6
DOT_CENTER
 62
     2
100
AcDbLine
 10
-615.6454121262279
 20
-402.6500003849733
 30
0.0
 11
-615.6454121262279
 21
-401.1500003849246
 31
0.0
  0
LINE
  5
22F
330
59
100
AcDbEntity
  8
1
  6
DOT_CENTER
 62
     2
100
AcDbLine
 10
-615.6454121263242
 20
-351.9500003850282
 30
0.0
 11
-615.6454121263242
 21
-350.4500003850199
 31
0.0
  0
LINE
  5
230
330
59
100
AcDbEntity
  8
0
  6
Continuous
 62
     7
100
AcDbLine
 10
-552.2954066062564
 20
-364.2232346809252
 30
0.0
 11
-571.8454440058588
 21
-375.5107851428178
 31
0.0
  0
LINE
  5
231
330
59
100
AcDbEntity
  8
0
  6
Continuous
 62
     7
100
AcDbLine
 10
-483.300000473065
 20
-403.8500003848727
 30
0.0
 11
-483.3000004731132
 21
-349.2500003808514
 31
0.0
  0
LINE
  5
232
330
59
100
AcDbEntity
  8
0
  6
Continuous
 62
     7
100
AcDbLine
 10
-488.3000004731682
 20
-349.2500003808559
 30
0.0
 11
-488.3000004731185
 21
-403.8500003848772
 31
0.0
  0
LINE
  5
233
330
59
100
AcDbEntity
  8
0
  6
Continuous
 62
     7
100
AcDbLine
 10
-491.8000004731039
 20
-403.8500003848806
 30
0.0
 11
-491.800000473126
 21
-349.2500003808593
 31
0.0
  0
LINE
  5
234
330
59
100
AcDbEntity
  8
0
  6
Continuous
 62
     7
100
AcDbLine
 10
-612.3454121263107
 20
-349.2500003809425
 30
0.0
 11
-607.4560722980355
 21
-349.2500003809362
 31
0.0
  0
LINE
  5
235
330
59
100
AcDbEntity
  8
0
  6
Continuous
 62
     7
100
AcDbLine
 10
-483.3000004731132
 20
-349.2500003808514
 30
0.0
 11
-488.3000004731682
 21
-349.2500003808559
 31
0.0
  0
LINE
  5
236
330
59
100
AcDbEntity
  8
0
  6
Continuous
 62
     7
100
AcDbLine
 10
-491.800000473126
 20
-349.2500003808593
 30
0.0
 11
-607.4560722980355
 21
-349.2500003809362
 31
0.0
  0
LINE
  5
237
330
59
100
AcDbEntity
  8
0
  6
Continuous
 62
     7
100
AcDbLine
 10
-488.3000004731682
 20
-349.2500003808559
 30
0.0
 11
-491.800000473126
 21
-349.2500003808593
 31
0.0
  0
LINE
  5
238
330
59
100
AcDbEntity
  8
0
  6
Continuous
 62
     7
100
AcDbLine
 10
-617.6454121262279
 20
-402.6500003849733
 30
0.0
 11
-613.6454121262279
 21
-402.650000384969
 31
0.0
  0
LINE
  5
239
330
59
100
AcDbEntity
  8
0
  6
Continuous
 62
     7
100
AcDbLine
 10
-612.3454121262081
 20
-403.8500003849896
 30
0.0
 11
-612.3454121262075
 21
-401.1500003849276
 31
0.0
  0
LINE
  5
23A
330
59
100
AcDbEntity
  8
0
  6
Continuous
 62
     7
100
AcDbLine
 10
-613.6454121262295
 20
-401.1500003849246
 30
0.0
 11
-612.3454121262075
 21
-401.1500003849276
 31
0.0
  0
LINE
  5
23B
330
59
100
AcDbEntity
  8
0
  6
Continuous
 62
     7
100
AcDbLine
 10
-613.956072298011
 20
-401.1500003849276
 30
0.0
 11
-616.8880528133632
 21
-401.1500003849307
 31
0.0
  0
LINE
  5
23C
330
59
100
AcDbEntity
  8
0
  6
Continuous
 62
     7
100
AcDbLine
 10
-613.956072298011
 20
-401.1500003849276
 30
0.0
 11
-613.6454121262295
 21
-401.1500003849246
 31
0.0
  0
LINE
  5
23D
330
59
100
AcDbEntity
  8
0
  6
Continuous
 62
     7
100
AcDbLine
 10
-617.6454121262295
 20
-401.1500003849288
 30
0.0
 11
-618.6454121261804
 21
-401.1500003849307
 31
0.0
  0
LINE
  5
23E
330
59
100
AcDbEntity
  8
0
  6
Continuous
 62
     7
100
AcDbLine
 10
-616.8880528133632
 20
-401.1500003849307
 30
0.0
 11
-617.6454121262295
 21
-401.1500003849288
 31
0.0
  0
LINE
  5
23F
330
59
100
AcDbEntity
  8
0
  6
Continuous
 62
     7
100
AcDbLine
 10
-617.6454121262279
 20
-402.6500003849733
 30
0.0
 11
-617.6454121262295
 21
-401.1500003849288
 31
0.0
  0
LINE
  5
240
330
59
100
AcDbEntity
  8
0
  6
Continuous
 62
     7
100
AcDbLine
 10
-617.6454121263272
 20
-350.4500003850276
 30
0.0
 11
-613.6454121263271
 21
-350.4500003850199
 31
0.0
  0
LINE
  5
241
330
59
100
AcDbEntity
  8
0
  6
Continuous
 62
     7
100
AcDbLine
 10
-562.80795143471
 20
-352.0500003849454
 30
0.0
 11
-566.7828728175805
 21
-352.0500003849488
 31
0.0
  0
LINE
  5
242
330
59
100
AcDbEntity
  8
0
  6
Continuous
 62
     7
100
AcDbLine
 10
-562.8079514347113
 20
-350.6500003847765
 30
0.0
 11
-566.7828728175816
 21
-350.6500003847793
 31
0.0
  0
LINE
  5
243
330
59
100
AcDbEntity
  8
0
  6
Continuous
 62
     7
100
AcDbLine
 10
-566.7828728175816
 20
-350.6500003847793
 30
0.0
 11
-568.995412126152
 21
-350.6500003847807
 31
0.0
  0
LINE
  5
244
330
59
100
AcDbEntity
  8
0
  6
Continuous
 62
     7
100
AcDbLine
 10
-560.595412126152
 20
-350.6500003847747
 30
0.0
 11
-562.8079514347113
 21
-350.6500003847765
 31
0.0
  0
LINE
  5
245
330
59
100
AcDbEntity
  8
0
  6
Continuous
 62
     7
100
AcDbLine
 10
-617.6454121263242
 20
-351.9500003850282
 30
0.0
 11
-617.6454121263272
 21
-350.4500003850276
 31
0.0
  0
LINE
  5
246
330
59
100
AcDbEntity
  8
0
  6
Continuous
 62
     7
100
AcDbLine
 10
-613.6454121263242
 20
-351.9500003850205
 30
0.0
 11
-613.6454121263271
 21
-350.4500003850199
 31
0.0
  0
LINE
  5
247
330
59
100
AcDbEntity
  8
0
  6
Continuous
 62
     7
100
AcDbLine
 10
-612.3454121262562
 20
-351.9500003850223
 30
0.0
 11
-613.6454121263242
 21
-351.9500003850205
 31
0.0
  0
LINE
  5
248
330
59
100
AcDbEntity
  8
0
  6
Continuous
 62
     7
100
AcDbLine
 10
-613.6454121263242
 20
-351.9500003850205
 30
0.0
 11
-613.9560722980349
 21
-351.9500003850237
 31
0.0
  0
LINE
  5
249
330
59
100
AcDbEntity
  8
0
  6
Continuous
 62
     7
100
AcDbLine
 10
-612.3454121262562
 20
-351.9500003850223
 30
0.0
 11
-612.3454121263107
 21
-349.2500003809425
 31
0.0
  0
LINE
  5
24A
330
59
100
AcDbEntity
  8
0
  6
Continuous
 62
     7
100
AcDbLine
 10
-616.8880528134563
 20
-351.9500003850294
 30
0.0
 11
-613.9560722980349
 21
-351.9500003850237
 31
0.0
  0
LINE
  5
24B
330
59
100
AcDbEntity
  8
0
  6
Continuous
 62
     7
100
AcDbLine
 10
-617.6454121263242
 20
-351.9500003850282
 30
0.0
 11
-616.8880528134563
 21
-351.9500003850294
 31
0.0
  0
LINE
  5
24C
330
59
100
AcDbEntity
  8
0
  6
Continuous
 62
     7
100
AcDbLine
 10
-618.6454121262685
 20
-351.9500003850309
 30
0.0
 11
-617.6454121263242
 21
-351.9500003850282
 31
0.0
  0
LINE
  5
24D
330
59
100
AcDbEntity
  8
0
  6
Continuous
 62
     7
100
AcDbLine
 10
-560.595412126152
 20
-350.6500003847747
 30
0.0
 11
-560.5954121261534
 21
-352.050000384943
 31
0.0
  0
LINE
  5
24E
330
59
100
AcDbEntity
  8
0
  6
Continuous
 62
     7
100
AcDbLine
 10
-562.80795143471
 20
-352.0500003849454
 30
0.0
 11
-562.8079514347113
 21
-350.6500003847765
 31
0.0
  0
LINE
  5
24F
330
59
100
AcDbEntity
  8
0
  6
Continuous
 62
     7
100
AcDbLine
 10
-560.5954121261534
 20
-352.050000384943
 30
0.0
 11
-562.80795143471
 21
-352.0500003849454
 31
0.0
  0
LINE
  5
250
330
59
100
AcDbEntity
  8
0
  6
Continuous
 62
     7
100
AcDbLine
 10
-566.7828728175805
 20
-352.0500003849488
 30
0.0
 11
-566.7828728175816
 21
-350.6500003847793
 31
0.0
  0
LINE
  5
251
330
59
100
AcDbEntity
  8
0
  6
Continuous
 62
     7
100
AcDbLine
 10
-568.995412126152
 20
-350.6500003847807
 30
0.0
 11
-568.9954121261509
 21
-352.0500003849505
 31
0.0
  0
LINE
  5
252
330
59
100
AcDbEntity
  8
0
  6
Continuous
 62
     7
100
AcDbLine
 10
-566.7828728175805
 20
-352.0500003849488
 30
0.0
 11
-568.9954121261509
 21
-352.0500003849505
 31
0.0
  0
LINE
  5
253
330
59
100
AcDbEntity
  8
0
  6
Continuous
 62
     7
100
AcDbLine
 10
-607.4560722979818
 20
-403.8500003849574
 30
0.0
 11
-612.3454121262081
 21
-403.8500003849896
 31
0.0
  0
LINE
  5
254
330
59
100
AcDbEntity
  8
0
  6
Continuous
 62
     7
100
AcDbLine
 10
-488.3000004731185
 20
-403.8500003848772
 30
0.0
 11
-483.300000473065
 21
-403.8500003848727
 31
0.0
  0
LINE
  5
255
330
59
100
AcDbEntity
  8
0
  6
Continuous
 62
     7
100
AcDbLine
 10
-491.8000004731039
 20
-403.8500003848806
 30
0.0
 11
-607.4560722979818
 21
-403.8500003849574
 31
0.0
  0
LINE
  5
256
330
59
100
AcDbEntity
  8
0
  6
Continuous
 62
     7
100
AcDbLine
 10
-491.8000004731039
 20
-403.8500003848806
 30
0.0
 11
-488.3000004731185
 21
-403.8500003848772
 31
0.0
  0
LINE
  5
257
330
59
100
AcDbEntity
  8
0
  6
Continuous
 62
     7
100
AcDbLine
 10
-607.4560722980355
 20
-349.2500003809362
 30
0.0
 11
-607.4560722979818
 21
-403.8500003849574
 31
0.0
  0
LINE
  5
258
330
59
100
AcDbEntity
  8
0
  6
Continuous
 62
     7
100
AcDbLine
 10
-618.6454121261804
 20
-401.1500003849307
 30
0.0
 11
-618.6454121262685
 21
-351.9500003850309
 31
0.0
  0
LINE
  5
259
330
59
100
AcDbEntity
  8
0
  6
Continuous
 62
     7
100
AcDbLine
 10
-616.8880528134563
 20
-351.9500003850294
 30
0.0
 11
-616.8880528133632
 21
-401.1500003849307
 31
0.0
  0
LINE
  5
25A
330
59
100
AcDbEntity
  8
0
  6
Continuous
 62
     7
100
AcDbLine
 10
-552.2954066061877
 20
-388.8767660885472
 30
0.0
 11
-550.4953868054556
 21
-387.8375394147518
 31
0.0
  0
LINE
  5
25B
330
59
100
AcDbEntity
  8
0
  6
Continuous
 62
     7
100
AcDbLine
 10
-550.4953868054556
 20
-387.8375394147518
 30
0.0
 11
-550.4953868055221
 21
-365.2624613547171
 31
0.0
  0
LINE
  5
25C
330
59
100
AcDbEntity
  8
0
  6
Continuous
 62
     7
100
AcDbLine
 10
-550.4953868055221
 20
-365.2624613547171
 30
0.0
 11
-552.2954066062564
 21
-364.2232346809252
 31
0.0
  0
LINE
  5
25D
330
59
100
AcDbEntity
  8
0
  6
Continuous
 62
     7
100
AcDbLine
 10
-571.8454440058525
 20
-377.5892156267722
 30
0.0
 11
-552.2954066061877
 21
-388.8767660885472
 31
0.0
  0
LINE
  5
25E
330
59
100
AcDbEntity
  8
0
  6
Continuous
 62
     7
100
AcDbLine
 10
-571.8454440058588
 20
-375.5107851428178
 30
0.0
 11
-571.8454440058525
 21
-377.5892156267722
 31
0.0
  0
LINE
  5
25F
330
59
100
AcDbEntity
  8
0
  6
Continuous
 62
     7
100
AcDbLine
 10
-613.6454121262279
 20
-402.650000384969
 30
0.0
 11
-613.6454121262295
 21
-401.1500003849246
 31
0.0
  0
LINE
  5
260
330
59
100
AcDbEntity
  8
0
  6
Continuous
 62
     7
100
AcDbLine
 10
-613.9560722980349
 20
-351.9500003850237
 30
0.0
 11
-613.956072298011
 21
-401.1500003849276
 31
0.0
  0
CIRCLE
  5
261
330
59
100
AcDbEntity
  8
0
  6
Continuous
 62
     7
100
AcDbCircle
 10
-594.5454121261604
 20
-376.5500003810105
 30
0.0
 40
2.0
  0
ENDBLK
  5
5B
330
59
100
AcDbEntity
  8
0
100
AcDbBlockEnd
  0
BLOCK
  5
5E
330
5C
100
AcDbEntity
  8
0
100
AcDbBlockBegin
  2
Drfsicht1
 70
     0
 10
-550.9727072049868
 20
-376.549999809003
 30
0.0
  3
Drfsicht1
  1

  0
INSERT
  5
5D
330
5C
100
AcDbEntity
  8
0
100
AcDbBlockReference
  2
HC-RBO_16_BU-select__2
 10
-618.6454121262685
 20
-403.8500003849896
 30
0.0
  0
MTEXT
  5
262
330
5C
100
AcDbEntity
  8
1
 62
     6
100
AcDbMText
 10
-550.9727072049861
 20
-413.8499999999417
 30
0.0
 40
10.0
 41
0.0
 71
     2
 72
     1
  1
 
  7
CONVERTER_11
 73
     1
 44
1.32052821128451
  0
DIMENSION
  5
26D
330
5C
100
AcDbEntity
  8
1
100
AcDbDimension
  2
*D17
 10
-638.9019807725444
 20
-403.8500003849896
 30
0.0
 11
-646.7519807725445
 21
-375.2548375274535
 31
0.0
 70
    32
  1
<>
 71
     5
 42
-1.0
 53
90.0
  3
ME10_DIM_10
100
AcDbAlignedDimension
 13
-612.3454121263107
 23
-349.2500003809425
 33
0.0
 14
-612.3454121262081
 24
-403.8500003849896
 34
0.0
 50
90.0
100
AcDbRotatedDimension
  0
ENDBLK
  5
5F
330
5C
100
AcDbEntity
  8
0
100
AcDbBlockEnd
  0
BLOCK
  5
61
330
60
100
AcDbEntity
  8
0
100
AcDbBlockBegin
  2
HC-RBO_16_BU-select__3
 70
     0
 10
-360.6999995265943
 20
-245.2500016703138
 30
0.0
  3
HC-RBO_16_BU-select__3
  1

  0
LINE
  5
26E
330
60
100
AcDbEntity
  8
1
  6
DOT_CENTER
 62
     2
100
AcDbLine
 10
-228.3545878733829
 20
-173.5500016700776
 30
0.0
 11
-228.3545878733829
 21
-177.9500016700775
 31
0.0
  0
LINE
  5
26F
330
60
100
AcDbEntity
  8
1
  6
DOT_CENTER
 62
     2
100
AcDbLine
 10
-226.1545878733829
 20
-175.7500016700776
 30
0.0
 11
-230.5545878733828
 21
-175.7500016700776
 31
0.0
  0
LINE
  5
270
330
60
100
AcDbEntity
  8
0
  6
Continuous
 62
     7
100
AcDbLine
 10
-289.5647425542319
 20
-183.5996231457688
 30
0.0
 11
-283.5773136198893
 21
-173.2500016702253
 31
0.0
  0
LINE
  5
271
330
60
100
AcDbEntity
  8
0
  6
Continuous
 62
     7
100
AcDbLine
 10
-355.6999995266002
 20
-171.7500016704021
 30
0.0
 11
-360.6999995265942
 21
-171.7500016703979
 31
0.0
  0
LINE
  5
272
330
60
100
AcDbEntity
  8
0
  6
Continuous
 62
     7
100
AcDbLine
 10
-275.0045878735539
 20
-173.2500016702018
 30
0.0
 11
-231.6545878733942
 21
-173.2500016700824
 31
0.0
  0
LINE
  5
273
330
60
100
AcDbEntity
  8
0
  6
Continuous
 62
     7
100
AcDbLine
 10
-283.5773136198893
 20
-173.2500016702253
 30
0.0
 11
-275.0045878735539
 21
-173.2500016702018
 31
0.0
  0
LINE
  5
274
330
60
100
AcDbEntity
  8
0
  6
Continuous
 62
     7
100
AcDbLine
 10
-284.83054423497
 20
-173.2500016702288
 30
0.0
 11
-283.5773136198893
 21
-173.2500016702253
 31
0.0
  0
LINE
  5
275
330
60
100
AcDbEntity
  8
0
  6
Continuous
 62
     7
100
AcDbLine
 10
-231.6545878736158
 20
-178.2500016701659
 30
0.0
 11
-275.0045878735519
 21
-178.25000167013
 31
0.0
  0
LINE
  5
276
330
60
100
AcDbEntity
  8
0
  6
Continuous
 62
     7
100
AcDbLine
 10
-225.3545878734406
 20
-177.7500016702228
 30
0.0
 11
-226.2206132772361
 21
-178.2500016701414
 31
0.0
  0
LINE
  5
277
330
60
100
AcDbEntity
  8
0
  6
Continuous
 62
     7
100
AcDbLine
 10
-225.3545878734448
 20
-175.0073609829385
 30
0.0
 11
-227.1119471862569
 21
-173.250001670094
 31
0.0
  0
LINE
  5
278
330
60
100
AcDbEntity
  8
0
  6
Continuous
 62
     7
100
AcDbLine
 10
-231.6545878733967
 20
-171.6393414982724
 30
0.0
 11
-236.543927701672
 21
-166.750001670116
 31
0.0
  0
LINE
  5
279
330
60
100
AcDbEntity
  8
0
  6
Continuous
 62
     7
100
AcDbLine
 10
-231.6545878733942
 20
-173.2500016700824
 30
0.0
 11
-231.6545878733967
 21
-171.6393414982724
 31
0.0
  0
LINE
  5
27A
330
60
100
AcDbEntity
  8
0
  6
Continuous
 62
     7
100
AcDbLine
 10
-231.6545878733942
 20
-173.2500016700824
 30
0.0
 11
-231.6545878736158
 21
-178.2500016701659
 31
0.0
  0
LINE
  5
27B
330
60
100
AcDbEntity
  8
0
  6
Continuous
 62
     7
100
AcDbLine
 10
-286.4698971546239
 20
-178.2500016701205
 30
0.0
 11
-287.7172955807969
 21
-178.2500016701194
 31
0.0
  0
LINE
  5
27C
330
60
100
AcDbEntity
  8
0
  6
Continuous
 62
     7
100
AcDbLine
 10
-283.4045878735583
 20
-166.75000167024
 30
0.0
 11
-275.0045878735583
 21
-166.7500016702271
 31
0.0
  0
LINE
  5
27D
330
60
100
AcDbEntity
  8
0
  6
Continuous
 62
     7
100
AcDbLine
 10
-227.1119471862569
 20
-173.250001670094
 30
0.0
 11
-230.0439277016783
 21
-173.2500016700985
 31
0.0
  0
LINE
  5
27E
330
60
100
AcDbEntity
  8
0
  6
Continuous
 62
     7
100
AcDbLine
 10
-231.6545878733967
 20
-171.6393414982724
 30
0.0
 11
-230.0439277016783
 21
-173.2500016700985
 31
0.0
  0
LINE
  5
27F
330
60
100
AcDbEntity
  8
0
  6
Continuous
 62
     7
100
AcDbLine
 10
-225.3545878734448
 20
-175.0073609829385
 30
0.0
 11
-225.3545878734406
 21
-177.7500016702228
 31
0.0
  0
LINE
  5
280
330
60
100
AcDbEntity
  8
0
  6
Continuous
 62
     7
100
AcDbLine
 10
-226.2206132772361
 20
-178.2500016701414
 30
0.0
 11
-231.6545878736158
 21
-178.2500016701659
 31
0.0
  0
LINE
  5
281
330
60
100
AcDbEntity
  8
0
  6
Continuous
 62
     7
100
AcDbLine
 10
-275.0045878735539
 20
-173.2500016702018
 30
0.0
 11
-275.0045878735496
 21
-184.1000018140016
 31
0.0
  0
LINE
  5
282
330
60
100
AcDbEntity
  8
0
  6
Continuous
 62
     7
100
AcDbLine
 10
-275.0045878735496
 20
-184.1000018140016
 30
0.0
 11
-289.2761404047429
 21
-184.1000018139898
 31
0.0
  0
LINE
  5
283
330
60
100
AcDbEntity
  8
0
  6
Continuous
 62
     7
100
AcDbLine
 10
-355.6999995265393
 20
-170.2500016703141
 30
0.0
 11
-352.1999995265813
 21
-166.7500016703441
 31
0.0
  0
LINE
  5
284
330
60
100
AcDbEntity
  8
0
  6
Continuous
 62
     7
100
AcDbLine
 10
-360.6999995265943
 20
-170.2500016703218
 30
0.0
 11
-355.6999995265393
 21
-170.2500016703141
 31
0.0
  0
LINE
  5
285
330
60
100
AcDbEntity
  8
0
  6
Continuous
 62
     7
100
AcDbLine
 10
-360.6999995265942
 20
-171.7500016703979
 30
0.0
 11
-360.6999995265943
 21
-170.2500016703218
 31
0.0
  0
LINE
  5
286
330
60
100
AcDbEntity
  8
0
  6
Continuous
 62
     7
100
AcDbLine
 10
-290.754588020281
 20
-241.0500016700842
 30
0.0
 11
-302.2939931820737
 21
-245.2500016701434
 31
0.0
  0
LINE
  5
287
330
60
100
AcDbEntity
  8
0
  6
Continuous
 62
     7
100
AcDbLine
 10
-355.6999995266613
 20
-245.2500016703138
 30
0.0
 11
-355.6999995266002
 21
-171.7500016704021
 31
0.0
  0
LINE
  5
288
330
60
100
AcDbEntity
  8
0
  6
Continuous
 62
     7
100
AcDbLine
 10
-290.7545880204278
 20
-183.5107464930385
 30
0.0
 11
-290.754588020281
 21
-241.0500016700842
 31
0.0
  0
LINE
  5
289
330
60
100
AcDbEntity
  8
0
  6
Continuous
 62
     7
100
AcDbLine
 10
-289.5647425542319
 20
-183.5996231457688
 30
0.0
 11
-289.2761404047429
 21
-184.1000018139898
 31
0.0
  0
LINE
  5
28A
330
60
100
AcDbEntity
  8
0
  6
Continuous
 62
     7
100
AcDbLine
 10
-284.83054423497
 20
-173.2500016702288
 30
0.0
 11
-290.7545880204278
 21
-183.5107464930385
 31
0.0
  0
LINE
  5
28B
330
60
100
AcDbEntity
  8
0
  6
Continuous
 62
     7
100
AcDbLine
 10
-302.2939931820737
 20
-245.2500016701434
 30
0.0
 11
-355.6999995266613
 21
-245.2500016703138
 31
0.0
  0
LINE
  5
28C
330
60
100
AcDbEntity
  8
0
  6
Continuous
 62
     7
100
AcDbLine
 10
-275.0045878735583
 20
-166.7500016702271
 30
0.0
 11
-236.543927701672
 21
-166.750001670116
 31
0.0
  0
LINE
  5
28D
330
60
100
AcDbEntity
  8
0
  6
Continuous
 62
     7
100
AcDbLine
 10
-352.1999995265813
 20
-166.7500016703441
 30
0.0
 11
-283.4045878735583
 21
-166.75000167024
 31
0.0
  0
LINE
  5
28E
330
60
100
AcDbEntity
  8
0
  6
Continuous
 62
     7
100
AcDbLine
 10
-281.1920485649993
 20
-162.7500016704794
 30
0.0
 11
-277.2171271821288
 21
-162.7500016704733
 31
0.0
  0
LINE
  5
28F
330
60
100
AcDbEntity
  8
0
  6
Continuous
 62
     7
100
AcDbLine
 10
-283.4045878735583
 20
-166.75000167024
 30
0.0
 11
-283.4045878735583
 21
-166.4500016704828
 31
0.0
  0
LINE
  5
290
330
60
100
AcDbEntity
  8
0
  6
Continuous
 62
     7
100
AcDbLine
 10
-275.0045878735584
 20
-166.4500016704697
 30
0.0
 11
-275.0045878735583
 21
-166.7500016702271
 31
0.0
  0
LINE
  5
291
330
60
100
AcDbEntity
  8
0
  6
Continuous
 62
     7
100
AcDbLine
 10
-281.2045878735584
 20
-166.4500016704794
 30
0.0
 11
-277.2045878735584
 21
-166.4500016704732
 31
0.0
  0
ARC
  5
292
330
60
100
AcDbEntity
  8
0
  6
Continuous
 62
     7
100
AcDbCircle
 10
-279.2045878735584
 20
-166.4500016704763
 30
0.0
 40
4.199999999999989
100
AcDbArc
 50
0.00000000008995
 51
61.75746281565179
  0
ARC
  5
293
330
60
100
AcDbEntity
  8
0
  6
Continuous
 62
     7
100
AcDbCircle
 10
-279.2045878735584
 20
-166.4500016704763
 30
0.0
 40
4.199999999999969
100
AcDbArc
 50
118.2425371845236
 51
180.0000000000888
  0
ARC
  5
294
330
60
100
AcDbEntity
  8
0
  6
Continuous
 62
     7
100
AcDbCircle
 10
-279.2045878735584
 20
-166.4500016704763
 30
0.0
 40
2.0
100
AcDbArc
 50
0.00000000008875
 51
180.0000000000888
  0
CIRCLE
  5
295
330
60
100
AcDbEntity
  8
0
  6
Continuous
 62
     7
100
AcDbCircle
 10
-228.3545878733829
 20
-175.7500016700776
 30
0.0
 40
2.0
  0
ENDBLK
  5
62
330
60
100
AcDbEntity
  8
0
100
AcDbBlockEnd
  0
BLOCK
  5
65
330
63
100
AcDbEntity
  8
0
100
AcDbBlockBegin
  2
Rckans1
 70
     0
 10
-293.0272927950138
 20
-203.9999999996301
 30
0.0
  3
Rckans1
  1

  0
INSERT
  5
64
330
63
100
AcDbEntity
  8
0
100
AcDbBlockReference
  2
HC-RBO_16_BU-select__3
 10
-360.6999995265943
 20
-245.2500016703138
 30
0.0
  0
MTEXT
  5
296
330
63
100
AcDbEntity
  8
1
 62
     6
100
AcDbMText
 10
-293.0272927950136
 20
-255.249999999688
 30
0.0
 40
10.0
 41
0.0
 71
     2
 72
     1
  1
 
  7
CONVERTER_11
 73
     1
 44
1.32052821128451
  0
ENDBLK
  5
66
330
63
100
AcDbEntity
  8
0
100
AcDbBlockEnd
  0
BLOCK
  5
68
330
67
100
AcDbEntity
  8
0
100
AcDbBlockBegin
  2
HC-RBO_16_BU-select__4
 70
     0
 10
-455.2999994280422
 20
-245.2500016699915
 30
0.0
  3
HC-RBO_16_BU-select__4
  1

  0
LINE
  5
297
330
67
100
AcDbEntity
  8
1
  6
DOT_CENTER
 62
     2
100
AcDbLine
 10
-401.8999994239698
 20
-175.7500016697623
 30
0.0
 11
-403.3999994240152
 21
-175.7500016697623
 31
0.0
  0
LINE
  5
298
330
67
100
AcDbEntity
  8
1
  6
DOT_CENTER
 62
     2
100
AcDbLine
 10
-452.599999423915
 20
-175.7500016697807
 30
0.0
 11
-454.0999994239214
 21
-175.7500016697807
 31
0.0
  0
LINE
  5
299
330
67
100
AcDbEntity
  8
0
  6
Continuous
 62
     7
100
AcDbLine
 10
-400.6999994239786
 20
-173.2500016697147
 30
0.0
 11
-402.0999994277508
 21
-173.2500016698758
 31
0.0
  0
LINE
  5
29A
330
67
100
AcDbEntity
  8
0
  6
Continuous
 62
     7
100
AcDbLine
 10
-400.6999994239534
 20
-171.6393414979637
 30
0.0
 11
-403.3999994240154
 21
-171.6393414979602
 31
0.0
  0
LINE
  5
29B
330
67
100
AcDbEntity
  8
0
  6
Continuous
 62
     7
100
AcDbLine
 10
-452.5999994239193
 20
-173.2500016697283
 30
0.0
 11
-403.3999994240154
 21
-173.2500016697588
 31
0.0
  0
LINE
  5
29C
330
67
100
AcDbEntity
  8
0
  6
Continuous
 62
     7
100
AcDbLine
 10
-402.0999994277508
 20
-173.2500016698758
 30
0.0
 11
-403.3999994240154
 21
-173.2500016697588
 31
0.0
  0
LINE
  5
29D
330
67
100
AcDbEntity
  8
0
  6
Continuous
 62
     7
100
AcDbLine
 10
-400.6999994239786
 20
-173.2500016697147
 30
0.0
 11
-400.6999994239534
 21
-171.6393414979637
 31
0.0
  0
LINE
  5
29E
330
67
100
AcDbEntity
  8
0
  6
Continuous
 62
     7
100
AcDbLine
 10
-402.0999994277722
 20
-183.510746492736
 30
0.0
 11
-400.6999994240076
 21
-183.5107464926648
 31
0.0
  0
LINE
  5
29F
330
67
100
AcDbEntity
  8
0
  6
Continuous
 62
     7
100
AcDbLine
 10
-403.3999994240166
 20
-178.250001669917
 30
0.0
 11
-403.3999994240152
 21
-177.7500016699044
 31
0.0
  0
LINE
  5
2A0
330
67
100
AcDbEntity
  8
0
  6
Continuous
 62
     7
100
AcDbLine
 10
-404.0999994239455
 20
-178.2500016698942
 30
0.0
 11
-403.3999994240166
 21
-178.250001669917
 31
0.0
  0
LINE
  5
2A1
330
67
100
AcDbEntity
  8
0
  6
Continuous
 62
     7
100
AcDbLine
 10
-405.5999994240429
 20
-178.2500016698926
 30
0.0
 11
-404.0999994239455
 21
-178.2500016698942
 31
0.0
  0
LINE
  5
2A2
330
67
100
AcDbEntity
  8
0
  6
Continuous
 62
     7
100
AcDbLine
 10
-401.899999423974
 20
-177.7500016697623
 30
0.0
 11
-403.3999994240152
 21
-177.7500016699044
 31
0.0
  0
LINE
  5
2A3
330
67
100
AcDbEntity
  8
0
  6
Continuous
 62
     7
100
AcDbLine
 10
-402.0999994277722
 20
-183.510746492736
 30
0.0
 11
-402.0999994278653
 21
-177.7500016697621
 31
0.0
  0
LINE
  5
2A4
330
67
100
AcDbEntity
  8
0
  6
Continuous
 62
     7
100
AcDbLine
 10
-402.0999994278611
 20
-173.7500016697621
 30
0.0
 11
-402.0999994277508
 21
-173.2500016698758
 31
0.0
  0
LINE
  5
2A5
330
67
100
AcDbEntity
  8
0
  6
Continuous
 62
     7
100
AcDbLine
 10
-401.8999994239698
 20
-173.7500016697623
 30
0.0
 11
-403.3999994240141
 21
-173.7500016697607
 31
0.0
  0
LINE
  5
2A6
330
67
100
AcDbEntity
  8
0
  6
Continuous
 62
     7
100
AcDbLine
 10
-403.3999994240154
 20
-173.2500016697588
 30
0.0
 11
-403.3999994240141
 21
-173.7500016697607
 31
0.0
  0
LINE
  5
2A7
330
67
100
AcDbEntity
  8
0
  6
Continuous
 62
     7
100
AcDbLine
 10
-400.6999994240076
 20
-183.5107464926648
 30
0.0
 11
-400.6999994239786
 21
-173.2500016697147
 31
0.0
  0
LINE
  5
2A8
330
67
100
AcDbEntity
  8
0
  6
Continuous
 62
     7
100
AcDbLine
 10
-401.899999423974
 20
-177.7500016697623
 30
0.0
 11
-401.8999994239698
 21
-173.7500016697623
 31
0.0
  0
LINE
  5
2A9
330
67
100
AcDbEntity
  8
0
  6
Continuous
 62
     7
100
AcDbLine
 10
-402.099999427837
 20
-227.2500012421444
 30
0.0
 11
-402.0999994277722
 21
-183.510746492736
 31
0.0
  0
LINE
  5
2AA
330
67
100
AcDbEntity
  8
0
  6
Continuous
 62
     7
100
AcDbLine
 10
-400.6999994240076
 20
-183.5107464926648
 30
0.0
 11
-400.6999994240103
 21
-241.0500016697165
 31
0.0
  0
LINE
  5
2AB
330
67
100
AcDbEntity
  8
0
  6
Continuous
 62
     7
100
AcDbLine
 10
-402.0999994278328
 20
-241.050001669741
 30
0.0
 11
-402.099999427837
 21
-227.2500012421444
 31
0.0
  0
LINE
  5
2AC
330
67
100
AcDbEntity
  8
0
  6
Continuous
 62
     7
100
AcDbLine
 10
-455.2999994280288
 20
-183.5107464926682
 30
0.0
 11
-455.2999994280315
 21
-241.050001669714
 31
0.0
  0
LINE
  5
2AD
330
67
100
AcDbEntity
  8
0
  6
Continuous
 62
     7
100
AcDbLine
 10
-452.3999994241124
 20
-245.2500016699612
 30
0.0
 11
-445.399999423968
 21
-238.2500016698535
 31
0.0
  0
LINE
  5
2AE
330
67
100
AcDbEntity
  8
0
  6
Continuous
 62
     7
100
AcDbLine
 10
-453.8999994242673
 20
-227.2500012420898
 30
0.0
 11
-453.8999994242032
 21
-184.1000018136313
 31
0.0
  0
LINE
  5
2AF
330
67
100
AcDbEntity
  8
0
  6
Continuous
 62
     7
100
AcDbLine
 10
-453.8999994242632
 20
-241.0500016697348
 30
0.0
 11
-453.8999994242673
 21
-227.2500012420898
 31
0.0
  0
LINE
  5
2B0
330
67
100
AcDbEntity
  8
0
  6
Continuous
 62
     7
100
AcDbLine
 10
-454.5999994241627
 20
-173.2500016698315
 30
0.0
 11
-454.5999994241632
 21
-184.1000018136313
 31
0.0
  0
LINE
  5
2B1
330
67
100
AcDbEntity
  8
0
  6
Continuous
 62
     7
100
AcDbLine
 10
-455.2999994279999
 20
-173.2500016697121
 30
0.0
 11
-455.2999994280288
 21
-183.5107464926682
 31
0.0
  0
LINE
  5
2B2
330
67
100
AcDbEntity
  8
0
  6
Continuous
 62
     7
100
AcDbLine
 10
-452.799999423993
 20
-177.7500016697087
 30
0.0
 11
-452.7999994239934
 21
-184.1000018136314
 31
0.0
  0
LINE
  5
2B3
330
67
100
AcDbEntity
  8
0
  6
Continuous
 62
     7
100
AcDbLine
 10
-455.2999994280005
 20
-171.6393414979021
 30
0.0
 11
-455.2999994280068
 21
-166.7500016697458
 31
0.0
  0
LINE
  5
2B4
330
67
100
AcDbEntity
  8
0
  6
Continuous
 62
     7
100
AcDbLine
 10
-452.5999994239121
 20
-175.0073609825683
 30
0.0
 11
-452.599999423915
 21
-177.7500016698525
 31
0.0
  0
LINE
  5
2B5
330
67
100
AcDbEntity
  8
0
  6
Continuous
 62
     7
100
AcDbLine
 10
-452.5999994239207
 20
-171.6393414979545
 30
0.0
 11
-452.5999994239193
 21
-173.2500016697283
 31
0.0
  0
LINE
  5
2B6
330
67
100
AcDbEntity
  8
0
  6
Continuous
 62
     7
100
AcDbLine
 10
-452.5999994239121
 20
-175.0073609825683
 30
0.0
 11
-452.5999994239165
 21
-173.7500016697089
 31
0.0
  0
LINE
  5
2B7
330
67
100
AcDbEntity
  8
0
  6
Continuous
 62
     7
100
AcDbLine
 10
-452.5999994239165
 20
-173.7500016697089
 30
0.0
 11
-452.5999994239193
 21
-173.2500016697283
 31
0.0
  0
LINE
  5
2B8
330
67
100
AcDbEntity
  8
0
  6
Continuous
 62
     7
100
AcDbLine
 10
-452.5999994239165
 20
-173.7500016697089
 30
0.0
 11
-454.0999994239172
 21
-173.7500016697073
 31
0.0
  0
LINE
  5
2B9
330
67
100
AcDbEntity
  8
0
  6
Continuous
 62
     7
100
AcDbLine
 10
-452.599999423915
 20
-177.7500016698525
 30
0.0
 11
-454.0999994239214
 21
-177.7500016697073
 31
0.0
  0
LINE
  5
2BA
330
67
100
AcDbEntity
  8
0
  6
Continuous
 62
     7
100
AcDbLine
 10
-454.0999994239214
 20
-177.7500016697073
 30
0.0
 11
-454.0999994239172
 21
-173.7500016697073
 31
0.0
  0
LINE
  5
2BB
330
67
100
AcDbEntity
  8
0
  6
Continuous
 62
     7
100
AcDbLine
 10
-452.5999994239193
 20
-173.2500016697283
 30
0.0
 11
-454.5999994241627
 21
-173.2500016698315
 31
0.0
  0
LINE
  5
2BC
330
67
100
AcDbEntity
  8
0
  6
Continuous
 62
     7
100
AcDbLine
 10
-455.2999994280315
 20
-241.050001669714
 30
0.0
 11
-453.8999994242632
 21
-241.0500016697348
 31
0.0
  0
LINE
  5
2BD
330
67
100
AcDbEntity
  8
0
  6
Continuous
 62
     7
100
AcDbLine
 10
-452.599999423915
 20
-177.7500016698525
 30
0.0
 11
-452.5999994239172
 21
-178.2500016697711
 31
0.0
  0
LINE
  5
2BE
330
67
100
AcDbEntity
  8
0
  6
Continuous
 62
     7
100
AcDbLine
 10
-455.2999994279999
 20
-173.2500016697121
 30
0.0
 11
-455.2999994280005
 21
-171.6393414979021
 31
0.0
  0
LINE
  5
2BF
330
67
100
AcDbEntity
  8
0
  6
Continuous
 62
     7
100
AcDbLine
 10
-454.5999994241627
 20
-173.2500016698315
 30
0.0
 11
-455.2999994279999
 21
-173.2500016697121
 31
0.0
  0
LINE
  5
2C0
330
67
100
AcDbEntity
  8
0
  6
Continuous
 62
     7
100
AcDbLine
 10
-455.2999994280288
 20
-183.5107464926682
 30
0.0
 11
-454.5999994241631
 21
-183.5107464926882
 31
0.0
  0
LINE
  5
2C1
330
67
100
AcDbEntity
  8
0
  6
Continuous
 62
     7
100
AcDbLine
 10
-455.2999994280315
 20
-241.050001669714
 30
0.0
 11
-455.2999994280422
 21
-245.2500016697731
 31
0.0
  0
LINE
  5
2C2
330
67
100
AcDbEntity
  8
0
  6
Continuous
 62
     7
100
AcDbLine
 10
-454.5999994241632
 20
-184.1000018136313
 30
0.0
 11
-452.7999994239934
 21
-184.1000018136314
 31
0.0
  0
LINE
  5
2C3
330
67
100
AcDbEntity
  8
0
  6
Continuous
 62
     7
100
AcDbLine
 10
-455.2999994280422
 20
-245.2500016697731
 30
0.0
 11
-453.8999994242882
 21
-245.2500016697939
 31
0.0
  0
LINE
  5
2C4
330
67
100
AcDbEntity
  8
0
  6
Continuous
 62
     7
100
AcDbLine
 10
-453.8999994242882
 20
-245.2500016697939
 30
0.0
 11
-453.8999994242632
 21
-241.0500016697348
 31
0.0
  0
LINE
  5
2C5
330
67
100
AcDbEntity
  8
0
  6
Continuous
 62
     7
100
AcDbLine
 10
-452.3999994241124
 20
-245.2500016699612
 30
0.0
 11
-453.8999994242882
 21
-245.2500016697939
 31
0.0
  0
LINE
  5
2C6
330
67
100
AcDbEntity
  8
0
  6
Continuous
 62
     7
100
AcDbLine
 10
-445.3999994241283
 20
-186.7500016699784
 30
0.0
 11
-445.399999423968
 21
-238.2500016698535
 31
0.0
  0
LINE
  5
2C7
330
67
100
AcDbEntity
  8
0
  6
Continuous
 62
     7
100
AcDbLine
 10
-453.8999994242673
 20
-227.2500012420898
 30
0.0
 11
-451.8999994240091
 21
-227.2500012420919
 31
0.0
  0
LINE
  5
2C8
330
67
100
AcDbEntity
  8
0
  6
Continuous
 62
     7
100
AcDbLine
 10
-451.8999994240032
 20
-192.9011522420952
 30
0.0
 11
-451.8999994240091
 21
-227.2500012420919
 31
0.0
  0
LINE
  5
2C9
330
67
100
AcDbEntity
  8
0
  6
Continuous
 62
     7
100
AcDbLine
 10
-451.8999994240091
 20
-227.2500012420919
 30
0.0
 11
-450.399999424062
 21
-227.2500012420969
 31
0.0
  0
LINE
  5
2CA
330
67
100
AcDbEntity
  8
0
  6
Continuous
 62
     7
100
AcDbLine
 10
-450.399999424062
 20
-227.2500012420969
 30
0.0
 11
-450.3999994240258
 21
-192.9011522420968
 31
0.0
  0
LINE
  5
2CB
330
67
100
AcDbEntity
  8
0
  6
Continuous
 62
     7
100
AcDbLine
 10
-450.3999994240258
 20
-192.9011522420968
 30
0.0
 11
-451.8999994240032
 21
-192.9011522420952
 31
0.0
  0
LINE
  5
2CC
330
67
100
AcDbEntity
  8
0
  6
Continuous
 62
     7
100
AcDbLine
 10
-451.8999994239936
 20
-178.2500016698438
 30
0.0
 11
-451.8999994240032
 21
-192.9011522420952
 31
0.0
  0
LINE
  5
2CD
330
67
100
AcDbEntity
  8
0
  6
Continuous
 62
     7
100
AcDbLine
 10
-450.3999994240258
 20
-192.9011522420968
 30
0.0
 11
-450.3999994239953
 21
-178.2500016698454
 31
0.0
  0
LINE
  5
2CE
330
67
100
AcDbEntity
  8
0
  6
Continuous
 62
     7
100
AcDbLine
 10
-402.0999994279503
 20
-245.2500016699915
 30
0.0
 11
-403.5927018733436
 21
-245.2500016699694
 31
0.0
  0
LINE
  5
2CF
330
67
100
AcDbEntity
  8
0
  6
Continuous
 62
     7
100
AcDbLine
 10
-404.0999994239568
 20
-227.2500012421457
 30
0.0
 11
-404.0999994239551
 21
-192.9011522421456
 31
0.0
  0
LINE
  5
2D0
330
67
100
AcDbEntity
  8
0
  6
Continuous
 62
     7
100
AcDbLine
 10
-403.3999994240141
 20
-173.7500016697607
 30
0.0
 11
-403.3999994240123
 21
-175.0073609825271
 31
0.0
  0
LINE
  5
2D1
330
67
100
AcDbEntity
  8
0
  6
Continuous
 62
     7
100
AcDbLine
 10
-403.3999994240154
 20
-173.2500016697588
 30
0.0
 11
-403.3999994240154
 21
-171.6393414979602
 31
0.0
  0
LINE
  5
2D2
330
67
100
AcDbEntity
  8
0
  6
Continuous
 62
     7
100
AcDbLine
 10
-450.3999994239953
 20
-178.2500016698454
 30
0.0
 11
-405.5999994240429
 21
-178.2500016698926
 31
0.0
  0
LINE
  5
2D3
330
67
100
AcDbEntity
  8
0
  6
Continuous
 62
     7
100
AcDbLine
 10
-452.599999423915
 20
-177.7500016698525
 30
0.0
 11
-403.3999994240152
 21
-177.7500016699044
 31
0.0
  0
LINE
  5
2D4
330
67
100
AcDbEntity
  8
0
  6
Continuous
 62
     7
100
AcDbLine
 10
-452.5999994239172
 20
-178.2500016697711
 30
0.0
 11
-451.8999994239936
 21
-178.2500016698438
 31
0.0
  0
LINE
  5
2D5
330
67
100
AcDbEntity
  8
0
  6
Continuous
 62
     7
100
AcDbLine
 10
-451.8999994239936
 20
-178.2500016698438
 30
0.0
 11
-450.3999994239953
 21
-178.2500016698454
 31
0.0
  0
LINE
  5
2D6
330
67
100
AcDbEntity
  8
0
  6
Continuous
 62
     7
100
AcDbLine
 10
-403.3999994240123
 20
-175.0073609825271
 30
0.0
 11
-452.5999994239121
 21
-175.0073609825683
 31
0.0
  0
LINE
  5
2D7
330
67
100
AcDbEntity
  8
0
  6
Continuous
 62
     7
100
AcDbLine
 10
-410.5999994241255
 20
-238.2428001734741
 30
0.0
 11
-403.5927018733436
 21
-245.2500016699694
 31
0.0
  0
LINE
  5
2D8
330
67
100
AcDbEntity
  8
0
  6
Continuous
 62
     7
100
AcDbLine
 10
-404.0999994239568
 20
-227.2500012421457
 30
0.0
 11
-402.099999427837
 21
-227.2500012421444
 31
0.0
  0
LINE
  5
2D9
330
67
100
AcDbEntity
  8
0
  6
Continuous
 62
     7
100
AcDbLine
 10
-402.0999994278328
 20
-241.050001669741
 30
0.0
 11
-400.6999994240103
 21
-241.0500016697165
 31
0.0
  0
LINE
  5
2DA
330
67
100
AcDbEntity
  8
0
  6
Continuous
 62
     7
100
AcDbLine
 10
-405.5999994239045
 20
-227.2500012421441
 30
0.0
 11
-404.0999994239568
 21
-227.2500012421457
 31
0.0
  0
LINE
  5
2DB
330
67
100
AcDbEntity
  8
0
  6
Continuous
 62
     7
100
AcDbLine
 10
-402.0999994279503
 20
-245.2500016699915
 30
0.0
 11
-402.0999994278328
 21
-241.050001669741
 31
0.0
  0
LINE
  5
2DC
330
67
100
AcDbEntity
  8
0
  6
Continuous
 62
     7
100
AcDbLine
 10
-402.0999994279503
 20
-245.2500016699915
 30
0.0
 11
-400.6999994240209
 21
-245.2500016697757
 31
0.0
  0
LINE
  5
2DD
330
67
100
AcDbEntity
  8
0
  6
Continuous
 62
     7
100
AcDbLine
 10
-400.6999994240103
 20
-241.0500016697165
 30
0.0
 11
-400.6999994240209
 21
-245.2500016697757
 31
0.0
  0
LINE
  5
2DE
330
67
100
AcDbEntity
  8
0
  6
Continuous
 62
     7
100
AcDbLine
 10
-410.5999994241255
 20
-238.2428001734741
 30
0.0
 11
-410.5999994240713
 21
-186.750001669931
 31
0.0
  0
LINE
  5
2DF
330
67
100
AcDbEntity
  8
0
  6
Continuous
 62
     7
100
AcDbLine
 10
-405.5999994240121
 20
-192.901152242144
 30
0.0
 11
-405.5999994239045
 21
-227.2500012421441
 31
0.0
  0
LINE
  5
2E0
330
67
100
AcDbEntity
  8
0
  6
Continuous
 62
     7
100
AcDbLine
 10
-404.0999994239551
 20
-192.9011522421456
 30
0.0
 11
-405.5999994240121
 21
-192.901152242144
 31
0.0
  0
LINE
  5
2E1
330
67
100
AcDbEntity
  8
0
  6
Continuous
 62
     7
100
AcDbLine
 10
-405.5999994240429
 20
-178.2500016698926
 30
0.0
 11
-405.5999994240121
 21
-192.901152242144
 31
0.0
  0
LINE
  5
2E2
330
67
100
AcDbEntity
  8
0
  6
Continuous
 62
     7
100
AcDbLine
 10
-404.0999994239551
 20
-192.9011522421456
 30
0.0
 11
-404.0999994239455
 21
-178.2500016698942
 31
0.0
  0
LINE
  5
2E3
330
67
100
AcDbEntity
  8
0
  6
Continuous
 62
     7
100
AcDbLine
 10
-403.3999994240152
 20
-177.7500016699044
 30
0.0
 11
-403.3999994240123
 21
-175.0073609825271
 31
0.0
  0
LINE
  5
2E4
330
67
100
AcDbEntity
  8
0
  6
Continuous
 62
     7
100
AcDbLine
 10
-452.4999994239942
 20
-162.7500016701031
 30
0.0
 11
-452.4999994239925
 21
-166.4500016700996
 31
0.0
  0
LINE
  5
2E5
330
67
100
AcDbEntity
  8
0
  6
Continuous
 62
     7
100
AcDbLine
 10
-453.8999994241623
 20
-166.7500016698569
 30
0.0
 11
-452.4999994239925
 21
-166.7500016698578
 31
0.0
  0
LINE
  5
2E6
330
67
100
AcDbEntity
  8
0
  6
Continuous
 62
     7
100
AcDbLine
 10
-400.6999994239856
 20
-166.7500016697525
 30
0.0
 11
-400.6999994239534
 21
-171.6393414979637
 31
0.0
  0
LINE
  5
2E7
330
67
100
AcDbEntity
  8
0
  6
Continuous
 62
     7
100
AcDbLine
 10
-452.5999994239207
 20
-171.6393414979545
 30
0.0
 11
-455.2999994280005
 21
-171.6393414979021
 31
0.0
  0
LINE
  5
2E8
330
67
100
AcDbEntity
  8
0
  6
Continuous
 62
     7
100
AcDbLine
 10
-452.4999994239925
 20
-166.7500016698578
 30
0.0
 11
-400.6999994239856
 21
-166.7500016697525
 31
0.0
  0
LINE
  5
2E9
330
67
100
AcDbEntity
  8
0
  6
Continuous
 62
     7
100
AcDbLine
 10
-455.2999994280068
 20
-166.7500016697458
 30
0.0
 11
-453.8999994241623
 21
-166.7500016698569
 31
0.0
  0
LINE
  5
2EA
330
67
100
AcDbEntity
  8
0
  6
Continuous
 62
     7
100
AcDbLine
 10
-453.8999994241623
 20
-166.4500016700995
 30
0.0
 11
-453.8999994241623
 21
-166.7500016698569
 31
0.0
  0
LINE
  5
2EB
330
67
100
AcDbEntity
  8
0
  6
Continuous
 62
     2
100
AcDbLine
 10
-452.4999994239925
 20
-166.4500016700996
 30
0.0
 11
-453.8999994241623
 21
-166.4500016700995
 31
0.0
  0
LINE
  5
2EC
330
67
100
AcDbEntity
  8
0
  6
Continuous
 62
     7
100
AcDbLine
 10
-452.4999994239925
 20
-166.7500016698578
 30
0.0
 11
-452.4999994239925
 21
-166.4500016700996
 31
0.0
  0
LINE
  5
2ED
330
67
100
AcDbEntity
  8
0
  6
Continuous
 62
     7
100
AcDbLine
 10
-452.4999994239942
 20
-162.7500016701031
 30
0.0
 11
-453.8999994241637
 21
-162.7500016701031
 31
0.0
  0
LINE
  5
2EE
330
67
100
AcDbEntity
  8
0
  6
Continuous
 62
     7
100
AcDbLine
 10
-453.8999994241637
 20
-162.7500016701031
 30
0.0
 11
-453.8999994241623
 21
-166.4500016700995
 31
0.0
  0
ARC
  5
2EF
330
67
100
AcDbEntity
  8
0
  6
Continuous
 62
     7
100
AcDbCircle
 10
-425.5999994240713
 20
-186.7500016699152
 30
0.0
 40
15.0
100
AcDbArc
 50
359.9999999999396
 51
34.51810784110158
  0
ARC
  5
2F0
330
67
100
AcDbEntity
  8
0
  6
Continuous
 62
     7
100
AcDbCircle
 10
-430.3999994241283
 20
-186.7500016699314
 30
0.0
 40
14.99999999999997
100
AcDbArc
 50
145.4818921587384
 51
180.0000000001795
  0
ENDBLK
  5
69
330
67
100
AcDbEntity
  8
0
100
AcDbBlockEnd
  0
BLOCK
  5
6C
330
6A
100
AcDbEntity
  8
0
100
AcDbBlockBegin
  2
SA_Links1
 70
     0
 10
-427.99999999994
 20
-203.9999999992598
 30
0.0
  3
SA_Links1
  1

  0
INSERT
  5
6B
330
6A
100
AcDbEntity
  8
0
100
AcDbBlockReference
  2
HC-RBO_16_BU-select__4
 10
-455.2999994280422
 20
-245.2500016699915
 30
0.0
  0
MTEXT
  5
2F1
330
6A
100
AcDbEntity
  8
1
 62
     6
100
AcDbMText
 10
-427.99999999994
 20
-255.2499999993181
 30
0.0
 40
10.0
 41
0.0
 71
     2
 72
     1
  1
 
  7
CONVERTER_11
 73
     1
 44
1.32052821128451
  0
ENDBLK
  5
6D
330
6A
100
AcDbEntity
  8
0
100
AcDbBlockEnd
  0
BLOCK
  5
6F
330
6E
100
AcDbEntity
  8
0
100
AcDbBlockBegin
  2
HC-RBO_16_BU-select__5
 70
     0
 10
-727.2454149858507
 20
-245.2500016703644
 30
0.0
  3
HC-RBO_16_BU-select__5
  1

  0
LINE
  5
2F2
330
6E
100
AcDbEntity
  8
0
  6
Continuous
 62
     7
100
AcDbLine
 10
-682.5454149859428
 20
-238.2500016702223
 30
0.0
 11
-675.5454149857934
 21
-245.2500016703351
 31
0.0
  0
LINE
  5
2F3
330
6E
100
AcDbEntity
  8
0
  6
Continuous
 62
     7
100
AcDbLine
 10
-724.3527125365932
 20
-245.2500016703644
 30
0.0
 11
-717.3454149857852
 21
-238.2428001738429
 31
0.0
  0
LINE
  5
2F4
330
6E
100
AcDbEntity
  8
0
  6
Continuous
 62
     7
100
AcDbLine
 10
-724.3527125365932
 20
-245.2500016703644
 30
0.0
 11
-727.2454149858438
 21
-245.2500016702924
 31
0.0
  0
LINE
  5
2F5
330
6E
100
AcDbEntity
  8
0
  6
Continuous
 62
     7
100
AcDbLine
 10
-714.7046220800631
 20
-178.250001670161
 30
0.0
 11
-685.1862078915825
 21
-178.2500016701427
 31
0.0
  0
LINE
  5
2F6
330
6E
100
AcDbEntity
  8
0
  6
Continuous
 62
     7
100
AcDbLine
 10
-709.8472181570693
 20
-173.760661841789
 30
0.0
 11
-690.0436118144735
 21
-173.7606618418511
 31
0.0
  0
LINE
  5
2F7
330
6E
100
AcDbEntity
  8
0
  6
Continuous
 62
     7
100
AcDbLine
 10
-675.4454149859135
 20
-166.7500016702406
 30
0.0
 11
-674.0454149857449
 21
-166.7500016702397
 31
0.0
  0
LINE
  5
2F8
330
6E
100
AcDbEntity
  8
0
  6
Continuous
 62
     7
100
AcDbLine
 10
-727.2454149858507
 20
-166.7500016703777
 30
0.0
 11
-675.4454149859135
 21
-166.7500016702406
 31
0.0
  0
LINE
  5
2F9
330
6E
100
AcDbEntity
  8
0
  6
Continuous
 62
     7
100
AcDbLine
 10
-674.0454149857449
 20
-166.7500016702397
 30
0.0
 11
-672.6454149818295
 21
-166.7500016703439
 31
0.0
  0
LINE
  5
2FA
330
6E
100
AcDbEntity
  8
0
  6
Continuous
 62
     7
100
AcDbLine
 10
-674.0454149857449
 20
-166.7500016702397
 30
0.0
 11
-674.045414985745
 21
-166.4500016704826
 31
0.0
  0
LINE
  5
2FB
330
6E
100
AcDbEntity
  8
0
  6
Continuous
 62
     7
100
AcDbLine
 10
-675.4454149859135
 20
-166.4500016704827
 30
0.0
 11
-675.4454149859135
 21
-166.7500016702406
 31
0.0
  0
LINE
  5
2FC
330
6E
100
AcDbEntity
  8
0
  6
Continuous
 62
     2
100
AcDbLine
 10
-675.4454149859135
 20
-166.4500016704827
 30
0.0
 11
-674.045414985745
 21
-166.4500016704826
 31
0.0
  0
LINE
  5
2FD
330
6E
100
AcDbEntity
  8
0
  6
Continuous
 62
     7
100
AcDbLine
 10
-675.4454149859156
 20
-162.7500016704792
 30
0.0
 11
-674.0454149857467
 21
-162.7500016704792
 31
0.0
  0
LINE
  5
2FE
330
6E
100
AcDbEntity
  8
0
  6
Continuous
 62
     7
100
AcDbLine
 10
-674.045414985745
 20
-166.4500016704826
 30
0.0
 11
-674.0454149857467
 21
-162.7500016704792
 31
0.0
  0
LINE
  5
2FF
330
6E
100
AcDbEntity
  8
0
  6
Continuous
 62
     7
100
AcDbLine
 10
-675.4454149859135
 20
-166.4500016704827
 30
0.0
 11
-675.4454149859156
 21
-162.7500016704792
 31
0.0
  0
LINE
  5
300
330
6E
100
AcDbEntity
  8
0
  6
Continuous
 62
     7
100
AcDbLine
 10
-682.5454149857824
 20
-186.7500016703473
 30
0.0
 11
-682.5454149859428
 21
-238.2500016702223
 31
0.0
  0
LINE
  5
301
330
6E
100
AcDbEntity
  8
0
  6
Continuous
 62
     7
100
AcDbLine
 10
-672.6454149818215
 20
-171.7500016703976
 30
0.0
 11
-672.6454149818261
 21
-170.2500016703139
 31
0.0
  0
LINE
  5
302
330
6E
100
AcDbEntity
  8
0
  6
Continuous
 62
     7
100
AcDbLine
 10
-727.2454149858474
 20
-170.2500016702928
 30
0.0
 11
-672.6454149818261
 21
-170.2500016703139
 31
0.0
  0
LINE
  5
303
330
6E
100
AcDbEntity
  8
0
  6
Continuous
 62
     7
100
AcDbLine
 10
-672.6454149818226
 20
-245.2500016703136
 30
0.0
 11
-672.6454149818215
 21
-171.7500016703976
 31
0.0
  0
LINE
  5
304
330
6E
100
AcDbEntity
  8
0
  6
Continuous
 62
     7
100
AcDbLine
 10
-672.6454149818261
 20
-170.2500016703139
 30
0.0
 11
-672.6454149818295
 21
-166.7500016703439
 31
0.0
  0
LINE
  5
305
330
6E
100
AcDbEntity
  8
0
  6
Continuous
 62
     7
100
AcDbLine
 10
-672.6454149818226
 20
-245.2500016703136
 30
0.0
 11
-675.5454149857934
 21
-245.2500016703351
 31
0.0
  0
LINE
  5
306
330
6E
100
AcDbEntity
  8
0
  6
Continuous
 62
     7
100
AcDbLine
 10
-717.3454149857852
 20
-238.2428001738429
 30
0.0
 11
-717.3454149858394
 21
-186.7500016702998
 31
0.0
  0
LINE
  5
307
330
6E
100
AcDbEntity
  8
0
  6
Continuous
 62
     7
100
AcDbLine
 10
-672.6454149818215
 20
-171.7500016703976
 30
0.0
 11
-697.5454149857354
 21
-171.7500016702905
 31
0.0
  0
LINE
  5
308
330
6E
100
AcDbEntity
  8
0
  6
Continuous
 62
     7
100
AcDbLine
 10
-702.3454149857924
 20
-171.750001670284
 30
0.0
 11
-727.2454149858428
 21
-171.750001670203
 31
0.0
  0
LINE
  5
309
330
6E
100
AcDbEntity
  8
0
  6
Continuous
 62
     7
100
AcDbLine
 10
-697.5454149857354
 20
-171.7500016702905
 30
0.0
 11
-702.3454149857924
 21
-171.750001670284
 31
0.0
  0
LINE
  5
30A
330
6E
100
AcDbEntity
  8
0
  6
Continuous
 62
     7
100
AcDbLine
 10
-727.2454149858428
 20
-171.750001670203
 30
0.0
 11
-727.2454149858438
 21
-245.2500016702924
 31
0.0
  0
LINE
  5
30B
330
6E
100
AcDbEntity
  8
0
  6
Continuous
 62
     7
100
AcDbLine
 10
-727.2454149858474
 20
-170.2500016702928
 30
0.0
 11
-727.2454149858428
 21
-171.750001670203
 31
0.0
  0
LINE
  5
30C
330
6E
100
AcDbEntity
  8
0
  6
Continuous
 62
     7
100
AcDbLine
 10
-727.2454149858507
 20
-166.7500016703777
 30
0.0
 11
-727.2454149858474
 21
-170.2500016702928
 31
0.0
  0
ARC
  5
30D
330
6E
100
AcDbEntity
  8
0
  6
Continuous
 62
     7
100
AcDbCircle
 10
-702.3454149858394
 20
-186.750001670284
 30
0.0
 40
15.0
100
AcDbArc
 50
89.99999999982066
 51
180.0000000000603
  0
ARC
  5
30E
330
6E
100
AcDbEntity
  8
0
  6
Continuous
 62
     7
100
AcDbCircle
 10
-697.5454149857874
 20
-186.7500016702954
 30
0.0
 40
15.000000000005
100
AcDbArc
 50
359.9999999998018
 51
89.99999999980155
  0
ENDBLK
  5
70
330
6E
100
AcDbEntity
  8
0
100
AcDbBlockEnd
  0
BLOCK
  5
73
330
71
100
AcDbEntity
  8
0
100
AcDbBlockBegin
  2
SA_Rechts1
 70
     0
 10
-699.9454144099732
 20
-203.9999999996298
 30
0.0
  3
SA_Rechts1
  1

  0
INSERT
  5
72
330
71
100
AcDbEntity
  8
0
100
AcDbBlockReference
  2
HC-RBO_16_BU-select__5
 10
-727.2454149858507
 20
-245.2500016703644
 30
0.0
  0
MTEXT
  5
30F
330
71
100
AcDbEntity
  8
1
 62
     6
100
AcDbMText
 10
-699.9454144099732
 20
-255.249999999688
 30
0.0
 40
10.0
 41
0.0
 71
     2
 72
     1
  1
 
  7
CONVERTER_11
 73
     1
 44
1.32052821128451
  0
ENDBLK
  5
74
330
71
100
AcDbEntity
  8
0
100
AcDbBlockEnd
  0
BLOCK
  5
76
330
75
100
AcDbEntity
  8
0
100
AcDbBlockBegin
  2
HC-RBO_16_BU-select__6
 70
     0
 10
-618.6454121259077
 20
-245.2500016702924
 30
0.0
  3
HC-RBO_16_BU-select__6
  1

  0
LINE
  5
310
330
75
100
AcDbEntity
  8
1
  6
DOT_CENTER
 62
     2
100
AcDbLine
 10
-615.6454121259374
 20
-173.5500016701323
 30
0.0
 11
-615.6454121259374
 21
-177.9500016701323
 31
0.0
  0
LINE
  5
311
330
75
100
AcDbEntity
  8
1
  6
DOT_CENTER
 62
     2
100
AcDbLine
 10
-613.4454121259373
 20
-175.7500016701323
 30
0.0
 11
-617.8454121259374
 21
-175.7500016701323
 31
0.0
  0
LINE
  5
312
330
75
100
AcDbEntity
  8
0
  6
Continuous
 62
     7
100
AcDbLine
 10
-483.3000004727692
 20
-171.750001670203
 30
0.0
 11
-488.3000004727646
 21
-171.7500016702071
 31
0.0
  0
LINE
  5
313
330
75
100
AcDbEntity
  8
0
  6
Continuous
 62
     7
100
AcDbLine
 10
-488.3000004728253
 20
-170.2500016702928
 30
0.0
 11
-483.3000004727718
 21
-170.2500016703554
 31
0.0
  0
LINE
  5
314
330
75
100
AcDbEntity
  8
0
  6
Continuous
 62
     7
100
AcDbLine
 10
-556.2827044185717
 20
-178.2500016700914
 30
0.0
 11
-559.1694557643868
 21
-173.2500016702311
 31
0.0
  0
LINE
  5
315
330
75
100
AcDbEntity
  8
0
  6
Continuous
 62
     7
100
AcDbLine
 10
-559.1694557643868
 20
-173.2500016702311
 30
0.0
 11
-612.3454121259173
 21
-173.2500016700847
 31
0.0
  0
LINE
  5
316
330
75
100
AcDbEntity
  8
0
  6
Continuous
 62
     7
100
AcDbLine
 10
-556.2827044185717
 20
-178.2500016700914
 30
0.0
 11
-612.3454121260928
 21
-178.250001670138
 31
0.0
  0
LINE
  5
317
330
75
100
AcDbEntity
  8
0
  6
Continuous
 62
     7
100
AcDbLine
 10
-568.995412125975
 20
-178.250001670102
 30
0.0
 11
-568.9954121259773
 21
-184.1000018140014
 31
0.0
  0
LINE
  5
318
330
75
100
AcDbEntity
  8
0
  6
Continuous
 62
     7
100
AcDbLine
 10
-568.9954121259773
 20
-184.1000018140014
 30
0.0
 11
-554.723859594784
 21
-184.1000018139896
 31
0.0
  0
LINE
  5
319
330
75
100
AcDbEntity
  8
0
  6
Continuous
 62
     7
100
AcDbLine
 10
-617.7793867221044
 20
-178.250001670287
 30
0.0
 11
-618.6454121259077
 21
-177.7500016702744
 31
0.0
  0
LINE
  5
31A
330
75
100
AcDbEntity
  8
0
  6
Continuous
 62
     7
100
AcDbLine
 10
-618.6454121259077
 20
-177.7500016702744
 30
0.0
 11
-618.645412125893
 21
-175.0073609828971
 31
0.0
  0
LINE
  5
31B
330
75
100
AcDbEntity
  8
0
  6
Continuous
 62
     7
100
AcDbLine
 10
-616.8880528130758
 20
-173.2500016701243
 30
0.0
 11
-618.645412125893
 21
-175.0073609828971
 31
0.0
  0
LINE
  5
31C
330
75
100
AcDbEntity
  8
0
  6
Continuous
 62
     7
100
AcDbLine
 10
-613.9560722977236
 20
-173.2500016701288
 30
0.0
 11
-612.3454121259148
 21
-171.6393414983338
 31
0.0
  0
LINE
  5
31D
330
75
100
AcDbEntity
  8
0
  6
Continuous
 62
     7
100
AcDbLine
 10
-607.4560722976886
 20
-166.7500016701225
 30
0.0
 11
-612.3454121259148
 21
-171.6393414983338
 31
0.0
  0
LINE
  5
31E
330
75
100
AcDbEntity
  8
0
  6
Continuous
 62
     7
100
AcDbLine
 10
-612.3454121259173
 20
-173.2500016700847
 30
0.0
 11
-612.3454121259148
 21
-171.6393414983338
 31
0.0
  0
LINE
  5
31F
330
75
100
AcDbEntity
  8
0
  6
Continuous
 62
     7
100
AcDbLine
 10
-613.9560722977236
 20
-173.2500016701288
 30
0.0
 11
-616.8880528130758
 21
-173.2500016701243
 31
0.0
  0
LINE
  5
320
330
75
100
AcDbEntity
  8
0
  6
Continuous
 62
     7
100
AcDbLine
 10
-612.3454121259173
 20
-173.2500016700847
 30
0.0
 11
-612.3454121260928
 21
-178.250001670138
 31
0.0
  0
LINE
  5
321
330
75
100
AcDbEntity
  8
0
  6
Continuous
 62
     7
100
AcDbLine
 10
-612.3454121260928
 20
-178.250001670138
 30
0.0
 11
-617.7793867221044
 21
-178.250001670287
 31
0.0
  0
LINE
  5
322
330
75
100
AcDbEntity
  8
0
  6
Continuous
 62
     7
100
AcDbLine
 10
-491.8000004728106
 20
-166.7500016703777
 30
0.0
 11
-488.3000004728253
 21
-170.2500016702928
 31
0.0
  0
LINE
  5
323
330
75
100
AcDbEntity
  8
0
  6
Continuous
 62
     7
100
AcDbLine
 10
-488.3000004727646
 20
-171.7500016702071
 30
0.0
 11
-488.3000004727035
 21
-245.2500016702924
 31
0.0
  0
LINE
  5
324
330
75
100
AcDbEntity
  8
0
  6
Continuous
 62
     7
100
AcDbLine
 10
-541.7060068172912
 20
-245.2500016701457
 30
0.0
 11
-488.3000004727035
 21
-245.2500016702924
 31
0.0
  0
LINE
  5
325
330
75
100
AcDbEntity
  8
0
  6
Continuous
 62
     7
100
AcDbLine
 10
-483.3000004727718
 20
-170.2500016703554
 30
0.0
 11
-483.3000004727692
 21
-171.750001670203
 31
0.0
  0
LINE
  5
326
330
75
100
AcDbEntity
  8
0
  6
Continuous
 62
     7
100
AcDbLine
 10
-554.4352574452951
 20
-183.5996231457686
 30
0.0
 11
-557.530102844919
 21
-178.2500016700924
 31
0.0
  0
LINE
  5
327
330
75
100
AcDbEntity
  8
0
  6
Continuous
 62
     7
100
AcDbLine
 10
-554.723859594784
 20
-184.1000018139896
 30
0.0
 11
-554.4352574452951
 21
-183.5996231457686
 31
0.0
  0
LINE
  5
328
330
75
100
AcDbEntity
  8
0
  6
Continuous
 62
     7
100
AcDbLine
 10
-553.2454119789267
 20
-183.5107464930348
 30
0.0
 11
-553.2454119790837
 21
-241.0500016700865
 31
0.0
  0
LINE
  5
329
330
75
100
AcDbEntity
  8
0
  6
Continuous
 62
     7
100
AcDbLine
 10
-553.2454119789267
 20
-183.5107464930348
 30
0.0
 11
-556.2827044185717
 21
-178.2500016700914
 31
0.0
  0
LINE
  5
32A
330
75
100
AcDbEntity
  8
0
  6
Continuous
 62
     7
100
AcDbLine
 10
-553.2454119790837
 20
-241.0500016700865
 30
0.0
 11
-541.7060068172912
 21
-245.2500016701457
 31
0.0
  0
LINE
  5
32B
330
75
100
AcDbEntity
  8
0
  6
Continuous
 62
     7
100
AcDbLine
 10
-560.5954121259696
 20
-166.7500016702406
 30
0.0
 11
-568.9954121259696
 21
-166.7500016702278
 31
0.0
  0
LINE
  5
32C
330
75
100
AcDbEntity
  8
0
  6
Continuous
 62
     7
100
AcDbLine
 10
-568.9954121259696
 20
-166.7500016702278
 30
0.0
 11
-607.4560722976886
 21
-166.7500016701225
 31
0.0
  0
LINE
  5
32D
330
75
100
AcDbEntity
  8
0
  6
Continuous
 62
     7
100
AcDbLine
 10
-491.8000004728106
 20
-166.7500016703777
 30
0.0
 11
-560.5954121259696
 21
-166.7500016702406
 31
0.0
  0
LINE
  5
32E
330
75
100
AcDbEntity
  8
0
  6
Continuous
 62
     7
100
AcDbLine
 10
-568.9954121259696
 20
-166.7500016702278
 30
0.0
 11
-568.9954121259694
 21
-166.4500016704696
 31
0.0
  0
LINE
  5
32F
330
75
100
AcDbEntity
  8
0
  6
Continuous
 62
     7
100
AcDbLine
 10
-560.5954121259695
 20
-166.4500016704827
 30
0.0
 11
-560.5954121259696
 21
-166.7500016702406
 31
0.0
  0
LINE
  5
330
330
75
100
AcDbEntity
  8
0
  6
Continuous
 62
     7
100
AcDbLine
 10
-566.7954121259695
 20
-166.4500016704731
 30
0.0
 11
-562.7954121259695
 21
-166.4500016704792
 31
0.0
  0
LINE
  5
331
330
75
100
AcDbEntity
  8
0
  6
Continuous
 62
     7
100
AcDbLine
 10
-562.8079514345286
 20
-162.7500016704792
 30
0.0
 11
-566.782872817399
 21
-162.7500016704731
 31
0.0
  0
ARC
  5
332
330
75
100
AcDbEntity
  8
0
  6
Continuous
 62
     7
100
AcDbCircle
 10
-564.7954121259695
 20
-166.4500016704761
 30
0.0
 40
4.199999999999972
100
AcDbArc
 50
118.2425371843475
 51
179.9999999999112
  0
ARC
  5
333
330
75
100
AcDbEntity
  8
0
  6
Continuous
 62
     7
100
AcDbCircle
 10
-564.7954121259695
 20
-166.4500016704761
 30
0.0
 40
2.0
100
AcDbArc
 50
359.9999999999112
 51
179.9999999999145
  0
ARC
  5
334
330
75
100
AcDbEntity
  8
0
  6
Continuous
 62
     7
100
AcDbCircle
 10
-564.7954121259695
 20
-166.4500016704761
 30
0.0
 40
4.200000000000045
100
AcDbArc
 50
359.99999999991
 51
61.7574628154764
  0
CIRCLE
  5
335
330
75
100
AcDbEntity
  8
0
  6
Continuous
 62
     7
100
AcDbCircle
 10
-615.6454121259374
 20
-175.7500016701323
 30
0.0
 40
2.0
  0
ENDBLK
  5
77
330
75
100
AcDbEntity
  8
0
100
AcDbBlockEnd
  0
BLOCK
  5
7A
330
78
100
AcDbEntity
  8
0
100
AcDbBlockBegin
  2
Vordans1
 70
     0
 10
-550.9727072049868
 20
-203.9999999996298
 30
0.0
  3
Vordans1
  1

  0
INSERT
  5
79
330
78
100
AcDbEntity
  8
0
100
AcDbBlockReference
  2
HC-RBO_16_BU-select__6
 10
-618.6454121259077
 20
-245.2500016702924
 30
0.0
  0
MTEXT
  5
336
330
78
100
AcDbEntity
  8
1
 62
     6
100
AcDbMText
 10
-550.9727072049861
 20
-255.249999999688
 30
0.0
 40
10.0
 41
0.0
 71
     2
 72
     1
  1
 
  7
CONVERTER_11
 73
     1
 44
1.32052821128451
  0
DIMENSION
  5
341
330
78
100
AcDbEntity
  8
1
100
AcDbDimension
  2
*D18
 10
-483.3000004727692
 20
-277.898337099542
 30
0.0
 11
-547.6021917960744
 21
-270.048337099542
 31
0.0
 70
    32
  1
<>
 71
     5
 42
-1.0
 53
0.00013888888889
  3
ME10_DIM_11
100
AcDbAlignedDimension
 13
-618.645412125893
 23
-175.0073609828971
 33
0.0
 14
-483.3000004727692
 24
-171.750001670203
 34
0.0
100
AcDbRotatedDimension
  0
DIMENSION
  5
34C
330
78
100
AcDbEntity
  8
1
100
AcDbDimension
  2
*D19
 10
-638.9019807725444
 20
-162.7500016704792
 30
0.0
 11
-646.7519807725445
 21
-199.3907550734106
 31
0.0
 70
    32
  1
<>
 71
     5
 42
-1.0
 53
90.0
  3
ME10_DIM_12
100
AcDbAlignedDimension
 13
-488.3000004727035
 23
-245.2500016702924
 33
0.0
 14
-562.8079514345286
 24
-162.7500016704792
 34
0.0
 50
90.0
100
AcDbRotatedDimension
  0
ENDBLK
  5
7B
330
78
100
AcDbEntity
  8
0
100
AcDbBlockEnd
  0
BLOCK
  5
84
330
7C
100
AcDbEntity
  8
0
100
AcDbBlockBegin
  2
1
 70
     0
 10
0.0
 20
0.0
 30
0.0
  3
1
  1

  0
INSERT
  5
7D
330
7C
100
AcDbEntity
  8
0
100
AcDbBlockReference
  2
A4I_CS
 10
-98.65000071482281
 20
-255.9407432677995
 30
0.0
  0
INSERT
  5
7E
330
7C
100
AcDbEntity
  8
0
100
AcDbBlockReference
  2
Allg1
 10
-166.0000000000203
 20
-173.27499999984
 30
0.0
 41
0.5
 42
0.5
 43
0.5
  0
INSERT
  5
7F
330
7C
100
AcDbEntity
  8
0
100
AcDbBlockReference
  2
Drfsicht1
 10
-275.4863536024934
 20
-188.2749999045015
 30
0.0
 41
0.5
 42
0.5
 43
0.5
  0
INSERT
  5
80
330
7C
100
AcDbEntity
  8
0
100
AcDbBlockReference
  2
Rckans1
 10
-146.5136463975069
 20
-101.999999999815
 30
0.0
 41
0.5
 42
0.5
 43
0.5
  0
INSERT
  5
81
330
7C
100
AcDbEntity
  8
0
100
AcDbBlockReference
  2
SA_Links1
 10
-213.99999999997
 20
-101.9999999996299
 30
0.0
 41
0.5
 42
0.5
 43
0.5
  0
INSERT
  5
82
330
7C
100
AcDbEntity
  8
0
100
AcDbBlockReference
  2
SA_Rechts1
 10
-349.9727072049866
 20
-101.9999999998149
 30
0.0
 41
0.5
 42
0.5
 43
0.5
  0
INSERT
  5
83
330
7C
100
AcDbEntity
  8
0
100
AcDbBlockReference
  2
Vordans1
 10
-275.4863536024934
 20
-101.9999999998149
 30
0.0
 41
0.5
 42
0.5
 43
0.5
  0
ENDBLK
  5
85
330
7C
100
AcDbEntity
  8
0
100
AcDbBlockEnd
  0
BLOCK
  5
26A
330
263
100
AcDbEntity
  8
0
100
AcDbBlockBegin
  2
*D17
 70
     1
 10
0.0
 20
0.0
 30
0.0
  3
*D17
  1

  0
LINE
  5
264
330
263
100
AcDbEntity
  8
1
  6
Continuous
 62
     2
100
AcDbLine
 10
-638.9019807725444
 20
-403.8500003849896
 30
0.0
 11
-638.9019807725444
 21
-349.2500003809425
 31
0.0
  0
LINE
  5
265
330
263
100
AcDbEntity
  8
1
  6
Continuous
 62
     2
100
AcDbLine
 10
-613.3454121262081
 20
-403.8500003849896
 30
0.0
 11
-641.9019807725444
 21
-403.8500003849896
 31
0.0
  0
LINE
  5
266
330
263
100
AcDbEntity
  8
1
  6
Continuous
 62
     2
100
AcDbLine
 10
-613.3454121263107
 20
-349.2500003809425
 30
0.0
 11
-641.9019807725444
 21
-349.2500003809425
 31
0.0
  0
SOLID
  5
267
330
263
100
AcDbEntity
  8
1
 62
     2
100
AcDbTrace
 10
-639.8235482556562
 20
-396.8500003849896
 30
0.0
 11
-637.9804132894327
 21
-396.8500003849896
 31
0.0
 12
-638.9019807725444
 22
-403.8500003849896
 32
0.0
 13
-638.9019807725444
 23
-403.8500003849896
 33
0.0
  0
SOLID
  5
268
330
263
100
AcDbEntity
  8
1
 62
     2
100
AcDbTrace
 10
-637.9804132894327
 20
-356.2500003809425
 30
0.0
 11
-639.8235482556562
 21
-356.2500003809425
 31
0.0
 12
-638.9019807725444
 22
-349.2500003809425
 32
0.0
 13
-638.9019807725444
 23
-349.2500003809425
 33
0.0
  0
MTEXT
  5
269
330
263
100
AcDbEntity
  8
1
 62
     3
100
AcDbMText
 10
-643.6019807725445
 20
-384.8798375274535
 30
0.0
 40
7.0
 41
0.0
 71
     7
 72
     1
  1
54,6
  7
CONVERTER_11
 11
0.0
 21
1.0
 31
0.0
 73
     1
 44
0.60024009603842
  0
ENDBLK
  5
26B
330
263
100
AcDbEntity
  8
0
100
AcDbBlockEnd
  0
BLOCK
  5
33E
330
337
100
AcDbEntity
  8
0
100
AcDbBlockBegin
  2
*D18
 70
     1
 10
0.0
 20
0.0
 30
0.0
  3
*D18
  1

  0
LINE
  5
338
330
337
100
AcDbEntity
  8
1
  6
Continuous
 62
     2
100
AcDbLine
 10
-483.3000004727692
 20
-277.898337099542
 30
0.0
 11
-618.645412125893
 21
-277.898337099542
 31
0.0
  0
LINE
  5
339
330
337
100
AcDbEntity
  8
1
  6
Continuous
 62
     2
100
AcDbLine
 10
-618.645412125893
 20
-176.007360982897
 30
0.0
 11
-618.645412125893
 21
-280.8983370995419
 31
0.0
  0
LINE
  5
33A
330
337
100
AcDbEntity
  8
1
  6
Continuous
 62
     2
100
AcDbLine
 10
-483.3000004727692
 20
-172.7500016702029
 30
0.0
 11
-483.3000004727692
 21
-280.8983370995419
 31
0.0
  0
SOLID
  5
33B
330
337
100
AcDbEntity
  8
1
 62
     2
100
AcDbTrace
 10
-490.3000004727692
 20
-278.8199045826537
 30
0.0
 11
-490.3000004727692
 21
-276.9767696164303
 31
0.0
 12
-483.3000004727692
 22
-277.898337099542
 32
0.0
 13
-483.3000004727692
 23
-277.898337099542
 33
0.0
  0
SOLID
  5
33C
330
337
100
AcDbEntity
  8
1
 62
     2
100
AcDbTrace
 10
-611.645412125893
 20
-276.9767696164303
 30
0.0
 11
-611.645412125893
 21
-278.8199045826537
 31
0.0
 12
-618.645412125893
 22
-277.898337099542
 32
0.0
 13
-618.645412125893
 23
-277.898337099542
 33
0.0
  0
MTEXT
  5
33D
330
337
100
AcDbEntity
  8
1
 62
     3
100
AcDbMText
 10
-562.4771917960744
 20
-273.198337099542
 30
0.0
 40
7.0
 41
0.0
 71
     7
 72
     1
  1
135,35
  7
CONVERTER_11
 11
0.9999999999970619
 21
2.424068405545306E-6
 31
0.0
 73
     1
 44
0.60024009603842
  0
ENDBLK
  5
33F
330
337
100
AcDbEntity
  8
0
100
AcDbBlockEnd
  0
BLOCK
  5
349
330
342
100
AcDbEntity
  8
0
100
AcDbBlockBegin
  2
*D19
 70
     1
 10
0.0
 20
0.0
 30
0.0
  3
*D19
  1

  0
LINE
  5
343
330
342
100
AcDbEntity
  8
1
  6
Continuous
 62
     2
100
AcDbLine
 10
-638.9019807725444
 20
-162.7500016704792
 30
0.0
 11
-638.9019807725444
 21
-245.2500016702924
 31
0.0
  0
LINE
  5
344
330
342
100
AcDbEntity
  8
1
  6
Continuous
 62
     2
100
AcDbLine
 10
-563.8079514345286
 20
-162.7500016704792
 30
0.0
 11
-641.9019807725444
 21
-162.7500016704792
 31
0.0
  0
LINE
  5
345
330
342
100
AcDbEntity
  8
1
  6
Continuous
 62
     2
100
AcDbLine
 10
-489.3000004727035
 20
-245.2500016702924
 30
0.0
 11
-641.9019807725444
 21
-245.2500016702924
 31
0.0
  0
SOLID
  5
346
330
342
100
AcDbEntity
  8
1
 62
     2
100
AcDbTrace
 10
-637.9804132894327
 20
-169.7500016704792
 30
0.0
 11
-639.8235482556562
 21
-169.7500016704792
 31
0.0
 12
-638.9019807725444
 22
-162.7500016704792
 32
0.0
 13
-638.9019807725444
 23
-162.7500016704792
 33
0.0
  0
SOLID
  5
347
330
342
100
AcDbEntity
  8
1
 62
     2
100
AcDbTrace
 10
-639.8235482556562
 20
-238.2500016702924
 30
0.0
 11
-637.9804132894327
 21
-238.2500016702924
 31
0.0
 12
-638.9019807725444
 22
-245.2500016702924
 32
0.0
 13
-638.9019807725444
 23
-245.2500016702924
 33
0.0
  0
MTEXT
  5
348
330
342
100
AcDbEntity
  8
1
 62
     3
100
AcDbMText
 10
-643.6019807725445
 20
-209.0157550734106
 30
0.0
 40
7.0
 41
0.0
 71
     7
 72
     1
  1
82,5
  7
CONVERTER_11
 11
0.0
 21
1.0
 31
0.0
 73
     1
 44
0.60024009603842
  0
ENDBLK
  5
34A
330
342
100
AcDbEntity
  8
0
100
AcDbBlockEnd
  0
ENDSEC
  0
SECTION
  2
ENTITIES
  0
INSERT
  5
86
330
1F
100
AcDbEntity
  8
1
100
AcDbBlockReference
  2
1
 10
0.0
 20
0.0
 30
0.0
  0
ENDSEC
  0
SECTION
  2
OBJECTS
  0
DICTIONARY
  5
C
330
0
100
AcDbDictionary
281
     1
  3
ACAD_GROUP
350
D
  3
ACAD_LAYOUT
350
1A
  3
ACAD_MATERIAL
350
3B
  3
ACAD_MLEADERSTYLE
350
374
  3
ACAD_MLINESTYLE
350
17
  3
ACAD_PLOTSETTINGS
350
19
  3
ACAD_PLOTSTYLENAME
350
E
  3
ACAD_TABLESTYLE
350
373
  3
ACAD_VISUALSTYLE
350
2A
  0
DICTIONARY
  5
D
102
{ACAD_REACTORS
330
C
102
}
330
C
100
AcDbDictionary
281
     1
  0
DICTIONARY
  5
1A
102
{ACAD_REACTORS
330
C
102
}
330
C
100
AcDbDictionary
281
     1
  3
Layout1
350
1E
  3
Layout2
350
26
  3
Model
350
22
  0
DICTIONARY
  5
3B
102
{ACAD_REACTORS
330
C
102
}
330
C
100
AcDbDictionary
281
     1
  3
ByBlock
350
3D
  3
ByLayer
350
3C
  3
Global
350
3E
  0
DICTIONARY
  5
374
102
{ACAD_REACTORS
330
C
102
}
330
C
100
AcDbDictionary
281
     1
  0
DICTIONARY
  5
17
102
{ACAD_REACTORS
330
C
102
}
330
C
100
AcDbDictionary
281
     1
  3
Standard
350
18
  0
DICTIONARY
  5
19
102
{ACAD_REACTORS
330
C
102
}
330
C
100
AcDbDictionary
281
     1
  0
ACDBDICTIONARYWDFLT
  5
E
102
{ACAD_REACTORS
330
C
102
}
330
C
100
AcDbDictionary
281
     1
  3
Normal
350
F
100
AcDbDictionaryWithDefault
340
F
  0
DICTIONARY
  5
373
102
{ACAD_REACTORS
330
C
102
}
330
C
100
AcDbDictionary
281
     1
  0
DICTIONARY
  5
2A
102
{ACAD_REACTORS
330
C
102
}
330
C
100
AcDbDictionary
281
     1
  3
2dWireframe
350
2F
  3
3D Hidden
350
31
  3
3dWireframe
350
30
  3
Basic
350
32
  3
Brighten
350
36
  3
ColorChange
350
3A
  3
Conceptual
350
34
  3
Dim
350
35
  3
Facepattern
350
39
  3
Flat
350
2B
  3
FlatWithEdges
350
2C
  3
Gouraud
350
2D
  3
GouraudWithEdges
350
2E
  3
Linepattern
350
38
  3
Realistic
350
33
  3
Thicken
350
37
  0
LAYOUT
  5
1E
102
{ACAD_REACTORS
330
1A
102
}
330
1A
100
AcDbPlotSettings
  1

  2
none_device
  4

  6

 40
0.0
 41
0.0
 42
0.0
 43
0.0
 44
0.0
 45
0.0
 46
0.0
 47
0.0
 48
0.0
 49
0.0
140
0.0
141
0.0
142
1.0
143
1.0
 70
   688
 72
     0
 73
     0
 74
     5
  7

 75
    16
 76
     0
 77
     2
 78
   300
147
1.0
148
0.0
149
0.0
100
AcDbLayout
  1
Layout1
 70
     1
 71
     1
 10
0.0
 20
0.0
 11
12.0
 21
9.0
 12
0.0
 22
0.0
 32
0.0
 14
1.00000000000000E+20
 24
1.00000000000000E+20
 34
1.00000000000000E+20
 15
-1.00000000000000E+20
 25
-1.00000000000000E+20
 35
-1.00000000000000E+20
146
0.0
 13
0.0
 23
0.0
 33
0.0
 16
1.0
 26
0.0
 36
0.0
 17
0.0
 27
1.0
 37
0.0
 76
     0
330
1B
  0
LAYOUT
  5
26
102
{ACAD_REACTORS
330
1A
102
}
330
1A
100
AcDbPlotSettings
  1

  2
none_device
  4

  6

 40
0.0
 41
0.0
 42
0.0
 43
0.0
 44
0.0
 45
0.0
 46
0.0
 47
0.0
 48
0.0
 49
0.0
140
0.0
141
0.0
142
1.0
143
1.0
 70
   688
 72
     0
 73
     0
 74
     5
  7

 75
    16
 76
     0
 77
     2
 78
   300
147
1.0
148
0.0
149
0.0
100
AcDbLayout
  1
Layout2
 70
     1
 71
     2
 10
0.0
 20
0.0
 11
0.0
 21
0.0
 12
0.0
 22
0.0
 32
0.0
 14
0.0
 24
0.0
 34
0.0
 15
0.0
 25
0.0
 35
0.0
146
0.0
 13
0.0
 23
0.0
 33
0.0
 16
1.0
 26
0.0
 36
0.0
 17
0.0
 27
1.0
 37
0.0
 76
     0
330
23
  0
LAYOUT
  5
22
102
{ACAD_REACTORS
330
1A
102
}
330
1A
100
AcDbPlotSettings
  1

  2
none_device
  4

  6

 40
0.0
 41
0.0
 42
0.0
 43
0.0
 44
0.0
 45
0.0
 46
0.0
 47
0.0
 48
0.0
 49
0.0
140
0.0
141
0.0
142
1.0
143
1.0
 70
  1712
 72
     0
 73
     0
 74
     0
  7

 75
     0
 76
     0
 77
     2
 78
   300
147
1.0
148
0.0
149
0.0
100
AcDbLayout
  1
Model
 70
     1
 71
     0
 10
0.0
 20
0.0
 11
12.0
 21
9.0
 12
0.0
 22
0.0
 32
0.0
 14
-390.6500007148219
 24
-255.9407432677995
 34
0.0
 15
-93.65000071482382
 25
-45.94074326779938
 35
0.0
146
0.0
 13
0.0
 23
0.0
 33
0.0
 16
1.0
 26
0.0
 36
0.0
 17
0.0
 27
1.0
 37
0.0
 76
     0
330
1F
331
29
  0
MATERIAL
  5
3D
102
{ACAD_REACTORS
330
3B
102
}
102
{ACAD_XDICTIONARY
360
36F
102
}
330
3B
100
AcDbMaterial
  1
ByBlock
  0
MATERIAL
  5
3C
102
{ACAD_REACTORS
330
3B
102
}
102
{ACAD_XDICTIONARY
360
36D
102
}
330
3B
100
AcDbMaterial
  1
ByLayer
  0
MATERIAL
  5
3E
102
{ACAD_REACTORS
330
3B
102
}
102
{ACAD_XDICTIONARY
360
371
102
}
330
3B
100
AcDbMaterial
  1
Global
  0
MLINESTYLE
  5
18
102
{ACAD_REACTORS
330
17
102
}
330
17
100
AcDbMlineStyle
  2
Standard
 70
     0
  3

 62
   256
 51
90.0
 52
90.0
 71
     2
 49
0.5
 62
   256
  6
BYLAYER
 49
-0.5
 62
   256
  6
BYLAYER
  0
ACDBPLACEHOLDER
  5
F
102
{ACAD_REACTORS
330
E
102
}
330
E
  0
VISUALSTYLE
  5
2F
102
{ACAD_REACTORS
330
2A
102
}
102
{ACAD_XDICTIONARY
360
355
102
}
330
2A
100
AcDbVisualStyle
  2
2dWireframe
 70
     4
 71
     0
 72
     2
 73
     0
 90
        0
 40
-0.6
 41
-30.0
 62
     5
 63
     7
421
 16777215
 74
     1
 91
        4
 64
     7
 65
   257
 75
     1
175
     1
 42
1.0
 92
        0
 66
   257
 43
1.0
 76
     1
 77
     6
 78
     2
 67
     7
 79
     5
170
     0
171
     0
290
     0
174
     0
 93
        1
 44
0.0
173
     0
291
     0
 45
0.0
1001
ACAD
1000
AcDbSavedByObjectVersion
1070
     0
  0
VISUALSTYLE
  5
31
102
{ACAD_REACTORS
330
2A
102
}
102
{ACAD_XDICTIONARY
360
359
102
}
330
2A
100
AcDbVisualStyle
  2
3D Hidden
 70
     6
 71
     1
 72
     2
 73
     2
 90
        0
 40
-0.6
 41
-30.0
 62
     5
 63
     7
421
 16777215
 74
     2
 91
        2
 64
     7
 65
   257
 75
     2
175
     1
 42
40.0
 92
        0
 66
   257
 43
1.0
 76
     1
 77
     6
 78
     2
 67
     7
 79
     3
170
     0
171
     0
290
     0
174
     0
 93
        1
 44
0.0
173
     0
291
     0
 45
0.0
1001
ACAD
1000
AcDbSavedByObjectVersion
1070
     0
  0
VISUALSTYLE
  5
30
102
{ACAD_REACTORS
330
2A
102
}
102
{ACAD_XDICTIONARY
360
357
102
}
330
2A
100
AcDbVisualStyle
  2
3dWireframe
 70
     5
 71
     0
 72
     2
 73
     0
 90
        0
 40
-0.6
 41
-30.0
 62
     5
 63
     7
421
 16777215
 74
     1
 91
        4
 64
     7
 65
   257
 75
     1
175
     1
 42
1.0
 92
        0
 66
   257
 43
1.0
 76
     1
 77
     6
 78
     2
 67
     7
 79
     5
170
     0
171
     0
290
     0
174
     0
 93
        1
 44
0.0
173
     0
291
     0
 45
0.0
1001
ACAD
1000
AcDbSavedByObjectVersion
1070
     0
  0
VISUALSTYLE
  5
32
102
{ACAD_REACTORS
330
2A
102
}
102
{ACAD_XDICTIONARY
360
35B
102
}
330
2A
100
AcDbVisualStyle
  2
Basic
 70
     7
 71
     1
 72
     0
 73
     1
 90
        0
 40
-0.6
 41
-30.0
 62
     5
 63
     7
421
 16777215
 74
     0
 91
        4
 64
     7
 65
   257
 75
     1
175
     1
 42
1.0
 92
        8
 66
     7
 43
1.0
 76
     1
 77
     6
 78
     2
 67
     7
 79
     5
170
     0
171
     0
290
     0
174
     0
 93
        1
 44
0.0
173
     0
291
     1
 45
0.0
1001
ACAD
1000
AcDbSavedByObjectVersion
1070
     0
  0
VISUALSTYLE
  5
36
102
{ACAD_REACTORS
330
2A
102
}
102
{ACAD_XDICTIONARY
360
363
102
}
330
2A
100
AcDbVisualStyle
  2
Brighten
 70
    12
 71
     2
 72
     2
 73
     0
 90
        0
 40
-0.6
 41
-30.0
 62
     5
 63
     7
421
 16777215
 74
     1
 91
        4
 64
     7
 65
   257
 75
     1
175
     1
 42
1.0
 92
        8
 66
     7
 43
1.0
 76
     1
 77
     6
 78
     2
 67
     7
 79
     5
170
     0
171
     0
290
     0
174
     0
 93
        1
 44
50.0
173
     0
291
     1
 45
0.0
1001
ACAD
1000
AcDbSavedByObjectVersion
1070
     0
  0
VISUALSTYLE
  5
3A
102
{ACAD_REACTORS
330
2A
102
}
102
{ACAD_XDICTIONARY
360
36B
102
}
330
2A
100
AcDbVisualStyle
  2
ColorChange
 70
    16
 71
     2
 72
     2
 73
     3
 90
        0
 40
-0.6
 41
-30.0
 62
     5
 63
     8
421
  8421504
 74
     1
 91
        4
 64
     7
 65
   257
 75
     1
175
     1
 42
1.0
 92
        8
 66
     8
424
  8421504
 43
1.0
 76
     1
 77
     6
 78
     2
 67
     7
 79
     5
170
     0
171
     0
290
     0
174
     0
 93
        1
 44
0.0
173
     0
291
     1
 45
0.0
1001
ACAD
1000
AcDbSavedByObjectVersion
1070
     0
  0
VISUALSTYLE
  5
34
102
{ACAD_REACTORS
330
2A
102
}
102
{ACAD_XDICTIONARY
360
35F
102
}
330
2A
100
AcDbVisualStyle
  2
Conceptual
 70
     9
 71
     3
 72
     2
 73
     0
 90
        0
 40
-0.6
 41
-30.0
 62
     5
 63
     7
421
 16777215
 74
     2
 91
        2
 64
     7
 65
   257
 75
     1
175
     1
 42
40.0
 92
        8
 66
     7
 43
1.0
 76
     1
 77
     6
 78
     2
 67
     7
 79
     3
170
     0
171
     0
290
     0
174
     0
 93
        1
 44
0.0
173
     0
291
     0
 45
0.0
1001
ACAD
1000
AcDbSavedByObjectVersion
1070
     0
  0
VISUALSTYLE
  5
35
102
{ACAD_REACTORS
330
2A
102
}
102
{ACAD_XDICTIONARY
360
361
102
}
330
2A
100
AcDbVisualStyle
  2
Dim
 70
    11
 71
     2
 72
     2
 73
     0
 90
        0
 40
-0.6
 41
-30.0
 62
     5
 63
     7
421
 16777215
 74
     1
 91
        4
 64
     7
 65
   257
 75
     1
175
     1
 42
1.0
 92
        8
 66
     7
 43
1.0
 76
     1
 77
     6
 78
     2
 67
     7
 79
     5
170
     0
171
     0
290
     0
174
     0
 93
        1
 44
-50.0
173
     0
291
     1
 45
0.0
1001
ACAD
1000
AcDbSavedByObjectVersion
1070
     0
  0
VISUALSTYLE
  5
39
102
{ACAD_REACTORS
330
2A
102
}
102
{ACAD_XDICTIONARY
360
369
102
}
330
2A
100
AcDbVisualStyle
  2
Facepattern
 70
    15
 71
     2
 72
     2
 73
     0
 90
        0
 40
-0.6
 41
-30.0
 62
     5
 63
     7
421
 16777215
 74
     1
 91
        4
 64
     7
 65
   257
 75
     1
175
     1
 42
1.0
 92
        8
 66
     7
 43
1.0
 76
     1
 77
     6
 78
     2
 67
     7
 79
     5
170
     0
171
     0
290
     0
174
     0
 93
        1
 44
0.0
173
     0
291
     1
 45
0.0
1001
ACAD
1000
AcDbSavedByObjectVersion
1070
     0
  0
VISUALSTYLE
  5
2B
102
{ACAD_REACTORS
330
2A
102
}
102
{ACAD_XDICTIONARY
360
34D
102
}
330
2A
100
AcDbVisualStyle
  2
Flat
 70
     0
 71
     2
 72
     1
 73
     1
 90
        2
 40
-0.6
 41
30.0
 62
     5
 63
     7
421
 16777215
 74
     0
 91
        4
 64
     7
 65
   257
 75
     1
175
     1
 42
1.0
 92
        8
 66
     7
 43
1.0
 76
     1
 77
     6
 78
     2
 67
     7
 79
     5
170
     0
171
     0
290
     0
174
     0
 93
       13
 44
0.0
173
     0
291
     1
 45
0.0
1001
ACAD
1000
AcDbSavedByObjectVersion
1070
     0
  0
VISUALSTYLE
  5
2C
102
{ACAD_REACTORS
330
2A
102
}
102
{ACAD_XDICTIONARY
360
34F
102
}
330
2A
100
AcDbVisualStyle
  2
FlatWithEdges
 70
     1
 71
     2
 72
     1
 73
     1
 90
        2
 40
-0.6
 41
30.0
 62
     5
 63
     7
421
 16777215
 74
     1
 91
        4
 64
     7
 65
   257
 75
     1
175
     1
 42
1.0
 92
        0
 66
   257
 43
1.0
 76
     1
 77
     6
 78
     2
 67
     7
 79
     5
170
     0
171
     0
290
     0
174
     0
 93
       13
 44
0.0
173
     0
291
     1
 45
0.0
1001
ACAD
1000
AcDbSavedByObjectVersion
1070
     0
  0
VISUALSTYLE
  5
2D
102
{ACAD_REACTORS
330
2A
102
}
102
{ACAD_XDICTIONARY
360
351
102
}
330
2A
100
AcDbVisualStyle
  2
Gouraud
 70
     2
 71
     2
 72
     2
 73
     1
 90
        2
 40
-0.6
 41
30.0
 62
     5
 63
     7
421
 16777215
 74
     0
 91
        4
 64
     7
 65
   257
 75
     1
175
     1
 42
1.0
 92
        0
 66
     7
 43
1.0
 76
     1
 77
     6
 78
     2
 67
     7
 79
     5
170
     0
171
     0
290
     0
174
     0
 93
       13
 44
0.0
173
     0
291
     1
 45
0.0
1001
ACAD
1000
AcDbSavedByObjectVersion
1070
     0
  0
VISUALSTYLE
  5
2E
102
{ACAD_REACTORS
330
2A
102
}
102
{ACAD_XDICTIONARY
360
353
102
}
330
2A
100
AcDbVisualStyle
  2
GouraudWithEdges
 70
     3
 71
     2
 72
     2
 73
     1
 90
        2
 40
-0.6
 41
30.0
 62
     5
 63
     7
421
 16777215
 74
     1
 91
        4
 64
     7
 65
   257
 75
     1
175
     1
 42
1.0
 92
        0
 66
   257
 43
1.0
 76
     1
 77
     6
 78
     2
 67
     7
 79
     5
170
     0
171
     0
290
     0
174
     0
 93
       13
 44
0.0
173
     0
291
     1
 45
0.0
1001
ACAD
1000
AcDbSavedByObjectVersion
1070
     0
  0
VISUALSTYLE
  5
38
102
{ACAD_REACTORS
330
2A
102
}
102
{ACAD_XDICTIONARY
360
367
102
}
330
2A
100
AcDbVisualStyle
  2
Linepattern
 70
    14
 71
     2
 72
     2
 73
     0
 90
        0
 40
-0.6
 41
-30.0
 62
     5
 63
     7
421
 16777215
 74
     1
 91
        4
 64
     7
 65
   257
 75
     7
175
     7
 42
1.0
 92
        8
 66
     7
 43
1.0
 76
     1
 77
     6
 78
     2
 67
     7
 79
     5
170
     0
171
     0
290
     0
174
     0
 93
        1
 44
0.0
173
     0
291
     1
 45
0.0
1001
ACAD
1000
AcDbSavedByObjectVersion
1070
     0
  0
VISUALSTYLE
  5
33
102
{ACAD_REACTORS
330
2A
102
}
102
{ACAD_XDICTIONARY
360
35D
102
}
330
2A
100
AcDbVisualStyle
  2
Realistic
 70
     8
 71
     2
 72
     2
 73
     0
 90
        0
 40
-0.6
 41
-30.0
 62
     5
 63
     7
421
 16777215
 74
     1
 91
        0
 64
     7
 65
   257
 75
     1
175
     1
 42
1.0
 92
        8
 66
     8
424
  7895160
 43
1.0
 76
     1
 77
     6
 78
     2
 67
     7
 79
     5
170
     0
171
     0
290
     0
174
     0
 93
       13
 44
0.0
173
     0
291
     0
 45
0.0
1001
ACAD
1000
AcDbSavedByObjectVersion
1070
     0
  0
VISUALSTYLE
  5
37
102
{ACAD_REACTORS
330
2A
102
}
102
{ACAD_XDICTIONARY
360
365
102
}
330
2A
100
AcDbVisualStyle
  2
Thicken
 70
    13
 71
     2
 72
     2
 73
     0
 90
        0
 40
-0.6
 41
-30.0
 62
     5
 63
     7
421
 16777215
 74
     1
 91
        4
 64
     7
 65
   257
 75
     1
175
     1
 42
1.0
 92
       12
 66
     7
 43
1.0
 76
     1
 77
     6
 78
     2
 67
     7
 79
     5
170
     0
171
     0
290
     0
174
     0
 93
        1
 44
0.0
173
     0
291
     1
 45
0.0
1001
ACAD
1000
AcDbSavedByObjectVersion
1070
     0
  0
DICTIONARY
  5
36F
330
3D
100
AcDbDictionary
280
     1
281
     1
  3
ACAD_XREC_ROUNDTRIP
360
370
  0
DICTIONARY
  5
36D
330
3C
100
AcDbDictionary
280
     1
281
     1
  3
ACAD_XREC_ROUNDTRIP
360
36E
  0
DICTIONARY
  5
371
330
3E
100
AcDbDictionary
280
     1
281
     1
  3
ACAD_XREC_ROUNDTRIP
360
372
  0
DICTIONARY
  5
355
330
2F
100
AcDbDictionary
280
     1
281
     1
  3
ACAD_XREC_ROUNDTRIP
360
356
  0
DICTIONARY
  5
359
330
31
100
AcDbDictionary
280
     1
281
     1
  3
ACAD_XREC_ROUNDTRIP
360
35A
  0
DICTIONARY
  5
357
330
30
100
AcDbDictionary
280
     1
281
     1
  3
ACAD_XREC_ROUNDTRIP
360
358
  0
DICTIONARY
  5
35B
330
32
100
AcDbDictionary
280
     1
281
     1
  3
ACAD_XREC_ROUNDTRIP
360
35C
  0
DICTIONARY
  5
363
330
36
100
AcDbDictionary
280
     1
281
     1
  3
ACAD_XREC_ROUNDTRIP
360
364
  0
DICTIONARY
  5
36B
330
3A
100
AcDbDictionary
280
     1
281
     1
  3
ACAD_XREC_ROUNDTRIP
360
36C
  0
DICTIONARY
  5
35F
330
34
100
AcDbDictionary
280
     1
281
     1
  3
ACAD_XREC_ROUNDTRIP
360
360
  0
DICTIONARY
  5
361
330
35
100
AcDbDictionary
280
     1
281
     1
  3
ACAD_XREC_ROUNDTRIP
360
362
  0
DICTIONARY
  5
369
330
39
100
AcDbDictionary
280
     1
281
     1
  3
ACAD_XREC_ROUNDTRIP
360
36A
  0
DICTIONARY
  5
34D
330
2B
100
AcDbDictionary
280
     1
281
     1
  3
ACAD_XREC_ROUNDTRIP
360
34E
  0
DICTIONARY
  5
34F
330
2C
100
AcDbDictionary
280
     1
281
     1
  3
ACAD_XREC_ROUNDTRIP
360
350
  0
DICTIONARY
  5
351
330
2D
100
AcDbDictionary
280
     1
281
     1
  3
ACAD_XREC_ROUNDTRIP
360
352
  0
DICTIONARY
  5
353
330
2E
100
AcDbDictionary
280
     1
281
     1
  3
ACAD_XREC_ROUNDTRIP
360
354
  0
DICTIONARY
  5
367
330
38
100
AcDbDictionary
280
     1
281
     1
  3
ACAD_XREC_ROUNDTRIP
360
368
  0
DICTIONARY
  5
35D
330
33
100
AcDbDictionary
280
     1
281
     1
  3
ACAD_XREC_ROUNDTRIP
360
35E
  0
DICTIONARY
  5
365
330
37
100
AcDbDictionary
280
     1
281
     1
  3
ACAD_XREC_ROUNDTRIP
360
366
  0
XRECORD
  5
370
102
{ACAD_REACTORS
330
36F
102
}
330
36F
100
AcDbXrecord
280
     1
102
MATERIAL
148
0.0
149
0.0
149
0.0
 93
        0
 94
      127
282
     0
 72
     1
 77
     1
171
     1
175
     1
179
     1
273
     0
  0
XRECORD
  5
36E
102
{ACAD_REACTORS
330
36D
102
}
330
36D
100
AcDbXrecord
280
     1
102
MATERIAL
148
0.0
149
0.0
149
0.0
 93
        0
 94
      127
282
     0
 72
     1
 77
     1
171
     1
175
     1
179
     1
273
     0
  0
XRECORD
  5
372
102
{ACAD_REACTORS
330
371
102
}
330
371
100
AcDbXrecord
280
     1
102
MATERIAL
148
0.0
149
0.0
149
0.0
 93
        0
 94
      127
282
     0
 72
     1
 77
     1
171
     1
175
     1
179
     1
273
     0
  0
XRECORD
  5
356
102
{ACAD_REACTORS
330
355
102
}
330
355
100
AcDbXrecord
280
     1
102
RTVSPropertyOp0
 70
     1
102
RTVSPropertyOp1
 70
     1
102
RTVSPropertyOp2
 70
     1
102
RTVSPropertyOp3
 70
     1
102
RTVSPropertyOp4
 70
     1
102
RTVSPropertyOp5
 70
     1
102
RTVSPropertyOp6
 70
     1
102
RTVSPropertyOp7
 70
     1
102
RTVSPropertyOp8
 70
     1
102
RTVSPropertyOp9
 70
     1
102
RTVSPropertyOp10
 70
     1
102
RTVSPropertyOp11
 70
     1
102
RTVSPropertyOp12
 70
     1
102
RTVSPropertyOp13
 70
     1
102
RTVSPropertyOp14
 70
     1
102
RTVSPropertyOp15
 70
     1
102
RTVSPropertyOp16
 70
     1
102
RTVSPropertyOp17
 70
     1
102
RTVSPropertyOp18
 70
     1
102
RTVSPropertyOp19
 70
     1
102
RTVSPropertyOp20
 70
     1
102
RTVSPropertyOp21
 70
     1
102
RTVSPropertyOp22
 70
     1
102
RTVSPropertyOp23
 70
     1
102
RTVSPropertyOp24
 70
     1
102
RTVSPropertyOp25
 70
     1
102
RTVSPropertyOp26
 70
     1
102
RTVSPropertyOp27
 70
     1
102
RTVSPropertyOp28
 70
     1
102
RTVSPropertyOp29
 70
     1
102
RTVSPropertyOp30
 70
     1
102
RTVSPropertyOp31
 70
     1
102
RTVSPropertyOp32
 70
     1
  0
XRECORD
  5
35A
102
{ACAD_REACTORS
330
359
102
}
330
359
100
AcDbXrecord
280
     1
102
RTVSPropertyOp0
 70
     1
102
RTVSPropertyOp1
 70
     1
102
RTVSPropertyOp2
 70
     1
102
RTVSPropertyOp3
 70
     1
102
RTVSPropertyOp4
 70
     1
102
RTVSPropertyOp5
 70
     1
102
RTVSPropertyOp6
 70
     1
102
RTVSPropertyOp7
 70
     1
102
RTVSPropertyOp8
 70
     1
102
RTVSPropertyOp9
 70
     1
102
RTVSPropertyOp10
 70
     1
102
RTVSPropertyOp11
 70
     1
102
RTVSPropertyOp12
 70
     1
102
RTVSPropertyOp13
 70
     1
102
RTVSPropertyOp14
 70
     1
102
RTVSPropertyOp15
 70
     1
102
RTVSPropertyOp16
 70
     1
102
RTVSPropertyOp17
 70
     1
102
RTVSPropertyOp18
 70
     1
102
RTVSPropertyOp19
 70
     1
102
RTVSPropertyOp20
 70
     1
102
RTVSPropertyOp21
 70
     1
102
RTVSPropertyOp22
 70
     1
102
RTVSPropertyOp23
 70
     1
102
RTVSPropertyOp24
 70
     1
102
RTVSPropertyOp25
 70
     1
102
RTVSPropertyOp26
 70
     1
102
RTVSPropertyOp27
 70
     1
102
RTVSPropertyOp28
 70
     1
102
RTVSPropertyOp29
 70
     1
102
RTVSPropertyOp30
 70
     1
102
RTVSPropertyOp31
 70
     1
102
RTVSPropertyOp32
 70
     1
  0
XRECORD
  5
358
102
{ACAD_REACTORS
330
357
102
}
330
357
100
AcDbXrecord
280
     1
102
RTVSPropertyOp0
 70
     1
102
RTVSPropertyOp1
 70
     1
102
RTVSPropertyOp2
 70
     1
102
RTVSPropertyOp3
 70
     1
102
RTVSPropertyOp4
 70
     1
102
RTVSPropertyOp5
 70
     1
102
RTVSPropertyOp6
 70
     1
102
RTVSPropertyOp7
 70
     1
102
RTVSPropertyOp8
 70
     1
102
RTVSPropertyOp9
 70
     1
102
RTVSPropertyOp10
 70
     1
102
RTVSPropertyOp11
 70
     1
102
RTVSPropertyOp12
 70
     1
102
RTVSPropertyOp13
 70
     1
102
RTVSPropertyOp14
 70
     1
102
RTVSPropertyOp15
 70
     1
102
RTVSPropertyOp16
 70
     1
102
RTVSPropertyOp17
 70
     1
102
RTVSPropertyOp18
 70
     1
102
RTVSPropertyOp19
 70
     1
102
RTVSPropertyOp20
 70
     1
102
RTVSPropertyOp21
 70
     1
102
RTVSPropertyOp22
 70
     1
102
RTVSPropertyOp23
 70
     1
102
RTVSPropertyOp24
 70
     1
102
RTVSPropertyOp25
 70
     1
102
RTVSPropertyOp26
 70
     1
102
RTVSPropertyOp27
 70
     1
102
RTVSPropertyOp28
 70
     1
102
RTVSPropertyOp29
 70
     1
102
RTVSPropertyOp30
 70
     1
102
RTVSPropertyOp31
 70
     1
102
RTVSPropertyOp32
 70
     1
  0
XRECORD
  5
35C
102
{ACAD_REACTORS
330
35B
102
}
330
35B
100
AcDbXrecord
280
     1
102
RTVSPropertyOp0
 70
     1
102
RTVSPropertyOp1
 70
     1
102
RTVSPropertyOp2
 70
     1
102
RTVSPropertyOp3
 70
     1
102
RTVSPropertyOp4
 70
     1
102
RTVSPropertyOp5
 70
     1
102
RTVSPropertyOp6
 70
     1
102
RTVSPropertyOp7
 70
     1
102
RTVSPropertyOp8
 70
     1
102
RTVSPropertyOp9
 70
     1
102
RTVSPropertyOp10
 70
     1
102
RTVSPropertyOp11
 70
     1
102
RTVSPropertyOp12
 70
     1
102
RTVSPropertyOp13
 70
     1
102
RTVSPropertyOp14
 70
     1
102
RTVSPropertyOp15
 70
     1
102
RTVSPropertyOp16
 70
     1
102
RTVSPropertyOp17
 70
     1
102
RTVSPropertyOp18
 70
     1
102
RTVSPropertyOp19
 70
     1
102
RTVSPropertyOp20
 70
     1
102
RTVSPropertyOp21
 70
     1
102
RTVSPropertyOp22
 70
     1
102
RTVSPropertyOp23
 70
     1
102
RTVSPropertyOp24
 70
     1
102
RTVSPropertyOp25
 70
     1
102
RTVSPropertyOp26
 70
     1
102
RTVSPropertyOp27
 70
     1
102
RTVSPropertyOp28
 70
     1
102
RTVSPropertyOp29
 70
     1
102
RTVSPropertyOp30
 70
     1
102
RTVSPropertyOp31
 70
     1
102
RTVSPropertyOp32
 70
     1
  0
XRECORD
  5
364
102
{ACAD_REACTORS
330
363
102
}
330
363
100
AcDbXrecord
280
     1
102
RTVSPropertyOp0
 70
     1
102
RTVSPropertyOp1
 70
     1
102
RTVSPropertyOp2
 70
     1
102
RTVSPropertyOp3
 70
     1
102
RTVSPropertyOp4
 70
     1
102
RTVSPropertyOp5
 70
     1
102
RTVSPropertyOp6
 70
     1
102
RTVSPropertyOp7
 70
     1
102
RTVSPropertyOp8
 70
     1
102
RTVSPropertyOp9
 70
     1
102
RTVSPropertyOp10
 70
     1
102
RTVSPropertyOp11
 70
     1
102
RTVSPropertyOp12
 70
     1
102
RTVSPropertyOp13
 70
     1
102
RTVSPropertyOp14
 70
     1
102
RTVSPropertyOp15
 70
     1
102
RTVSPropertyOp16
 70
     1
102
RTVSPropertyOp17
 70
     1
102
RTVSPropertyOp18
 70
     1
102
RTVSPropertyOp19
 70
     1
102
RTVSPropertyOp20
 70
     1
102
RTVSPropertyOp21
 70
     1
102
RTVSPropertyOp22
 70
     1
102
RTVSPropertyOp23
 70
     1
102
RTVSPropertyOp24
 70
     1
102
RTVSPropertyOp25
 70
     1
102
RTVSPropertyOp26
 70
     1
102
RTVSPropertyOp27
 70
     1
102
RTVSPropertyOp28
 70
     1
102
RTVSPropertyOp29
 70
     1
102
RTVSPropertyOp30
 70
     1
102
RTVSPropertyOp31
 70
     1
102
RTVSPropertyOp32
 70
     1
  0
XRECORD
  5
36C
102
{ACAD_REACTORS
330
36B
102
}
330
36B
100
AcDbXrecord
280
     1
102
RTVSPropertyOp0
 70
     1
102
RTVSPropertyOp1
 70
     1
102
RTVSPropertyOp2
 70
     1
102
RTVSPropertyOp3
 70
     1
102
RTVSPropertyOp4
 70
     1
102
RTVSPropertyOp5
 70
     1
102
RTVSPropertyOp6
 70
     1
102
RTVSPropertyOp7
 70
     1
102
RTVSPropertyOp8
 70
     1
102
RTVSPropertyOp9
 70
     1
102
RTVSPropertyOp10
 70
     1
102
RTVSPropertyOp11
 70
     1
102
RTVSPropertyOp12
 70
     1
102
RTVSPropertyOp13
 70
     1
102
RTVSPropertyOp14
 70
     1
102
RTVSPropertyOp15
 70
     1
102
RTVSPropertyOp16
 70
     1
102
RTVSPropertyOp17
 70
     1
102
RTVSPropertyOp18
 70
     1
102
RTVSPropertyOp19
 70
     1
102
RTVSPropertyOp20
 70
     1
102
RTVSPropertyOp21
 70
     1
102
RTVSPropertyOp22
 70
     1
102
RTVSPropertyOp23
 70
     1
102
RTVSPropertyOp24
 70
     1
102
RTVSPropertyOp25
 70
     1
102
RTVSPropertyOp26
 70
     1
102
RTVSPropertyOp27
 70
     1
102
RTVSPropertyOp28
 70
     1
102
RTVSPropertyOp29
 70
     1
102
RTVSPropertyOp30
 70
     1
102
RTVSPropertyOp31
 70
     1
102
RTVSPropertyOp32
 70
     1
  0
XRECORD
  5
360
102
{ACAD_REACTORS
330
35F
102
}
330
35F
100
AcDbXrecord
280
     1
102
RTVSPropertyOp0
 70
     1
102
RTVSPropertyOp1
 70
     1
102
RTVSPropertyOp2
 70
     1
102
RTVSPropertyOp3
 70
     1
102
RTVSPropertyOp4
 70
     1
102
RTVSPropertyOp5
 70
     1
102
RTVSPropertyOp6
 70
     1
102
RTVSPropertyOp7
 70
     1
102
RTVSPropertyOp8
 70
     1
102
RTVSPropertyOp9
 70
     1
102
RTVSPropertyOp10
 70
     1
102
RTVSPropertyOp11
 70
     1
102
RTVSPropertyOp12
 70
     1
102
RTVSPropertyOp13
 70
     1
102
RTVSPropertyOp14
 70
     1
102
RTVSPropertyOp15
 70
     1
102
RTVSPropertyOp16
 70
     1
102
RTVSPropertyOp17
 70
     1
102
RTVSPropertyOp18
 70
     1
102
RTVSPropertyOp19
 70
     1
102
RTVSPropertyOp20
 70
     1
102
RTVSPropertyOp21
 70
     1
102
RTVSPropertyOp22
 70
     1
102
RTVSPropertyOp23
 70
     1
102
RTVSPropertyOp24
 70
     1
102
RTVSPropertyOp25
 70
     1
102
RTVSPropertyOp26
 70
     1
102
RTVSPropertyOp27
 70
     1
102
RTVSPropertyOp28
 70
     1
102
RTVSPropertyOp29
 70
     1
102
RTVSPropertyOp30
 70
     1
102
RTVSPropertyOp31
 70
     1
102
RTVSPropertyOp32
 70
     1
  0
XRECORD
  5
362
102
{ACAD_REACTORS
330
361
102
}
330
361
100
AcDbXrecord
280
     1
102
RTVSPropertyOp0
 70
     1
102
RTVSPropertyOp1
 70
     1
102
RTVSPropertyOp2
 70
     1
102
RTVSPropertyOp3
 70
     1
102
RTVSPropertyOp4
 70
     1
102
RTVSPropertyOp5
 70
     1
102
RTVSPropertyOp6
 70
     1
102
RTVSPropertyOp7
 70
     1
102
RTVSPropertyOp8
 70
     1
102
RTVSPropertyOp9
 70
     1
102
RTVSPropertyOp10
 70
     1
102
RTVSPropertyOp11
 70
     1
102
RTVSPropertyOp12
 70
     1
102
RTVSPropertyOp13
 70
     1
102
RTVSPropertyOp14
 70
     1
102
RTVSPropertyOp15
 70
     1
102
RTVSPropertyOp16
 70
     1
102
RTVSPropertyOp17
 70
     1
102
RTVSPropertyOp18
 70
     1
102
RTVSPropertyOp19
 70
     1
102
RTVSPropertyOp20
 70
     1
102
RTVSPropertyOp21
 70
     1
102
RTVSPropertyOp22
 70
     1
102
RTVSPropertyOp23
 70
     1
102
RTVSPropertyOp24
 70
     1
102
RTVSPropertyOp25
 70
     1
102
RTVSPropertyOp26
 70
     1
102
RTVSPropertyOp27
 70
     1
102
RTVSPropertyOp28
 70
     1
102
RTVSPropertyOp29
 70
     1
102
RTVSPropertyOp30
 70
     1
102
RTVSPropertyOp31
 70
     1
102
RTVSPropertyOp32
 70
     1
  0
XRECORD
  5
36A
102
{ACAD_REACTORS
330
369
102
}
330
369
100
AcDbXrecord
280
     1
102
RTVSPropertyOp0
 70
     1
102
RTVSPropertyOp1
 70
     1
102
RTVSPropertyOp2
 70
     1
102
RTVSPropertyOp3
 70
     1
102
RTVSPropertyOp4
 70
     1
102
RTVSPropertyOp5
 70
     1
102
RTVSPropertyOp6
 70
     1
102
RTVSPropertyOp7
 70
     1
102
RTVSPropertyOp8
 70
     1
102
RTVSPropertyOp9
 70
     1
102
RTVSPropertyOp10
 70
     1
102
RTVSPropertyOp11
 70
     1
102
RTVSPropertyOp12
 70
     1
102
RTVSPropertyOp13
 70
     1
102
RTVSPropertyOp14
 70
     1
102
RTVSPropertyOp15
 70
     1
102
RTVSPropertyOp16
 70
     1
102
RTVSPropertyOp17
 70
     1
102
RTVSPropertyOp18
 70
     1
102
RTVSPropertyOp19
 70
     1
102
RTVSPropertyOp20
 70
     1
102
RTVSPropertyOp21
 70
     1
102
RTVSPropertyOp22
 70
     1
102
RTVSPropertyOp23
 70
     1
102
RTVSPropertyOp24
 70
     1
102
RTVSPropertyOp25
 70
     1
102
RTVSPropertyOp26
 70
     1
102
RTVSPropertyOp27
 70
     1
102
RTVSPropertyOp28
 70
     1
102
RTVSPropertyOp29
 70
     1
102
RTVSPropertyOp30
 70
     1
102
RTVSPropertyOp31
 70
     1
102
RTVSPropertyOp32
 70
     1
  0
XRECORD
  5
34E
102
{ACAD_REACTORS
330
34D
102
}
330
34D
100
AcDbXrecord
280
     1
102
RTVSPropertyOp0
 70
     1
102
RTVSPropertyOp1
 70
     1
102
RTVSPropertyOp2
 70
     1
102
RTVSPropertyOp3
 70
     1
102
RTVSPropertyOp4
 70
     1
102
RTVSPropertyOp5
 70
     1
102
RTVSPropertyOp6
 70
     1
102
RTVSPropertyOp7
 70
     1
102
RTVSPropertyOp8
 70
     1
102
RTVSPropertyOp9
 70
     1
102
RTVSPropertyOp10
 70
     1
102
RTVSPropertyOp11
 70
     1
102
RTVSPropertyOp12
 70
     1
102
RTVSPropertyOp13
 70
     1
102
RTVSPropertyOp14
 70
     1
102
RTVSPropertyOp15
 70
     1
102
RTVSPropertyOp16
 70
     1
102
RTVSPropertyOp17
 70
     1
102
RTVSPropertyOp18
 70
     1
102
RTVSPropertyOp19
 70
     1
102
RTVSPropertyOp20
 70
     1
102
RTVSPropertyOp21
 70
     1
102
RTVSPropertyOp22
 70
     1
102
RTVSPropertyOp23
 70
     1
102
RTVSPropertyOp24
 70
     1
102
RTVSPropertyOp25
 70
     1
102
RTVSPropertyOp26
 70
     1
102
RTVSPropertyOp27
 70
     1
102
RTVSPropertyOp28
 70
     1
102
RTVSPropertyOp29
 70
     1
102
RTVSPropertyOp30
 70
     1
102
RTVSPropertyOp31
 70
     1
102
RTVSPropertyOp32
 70
     1
  0
XRECORD
  5
350
102
{ACAD_REACTORS
330
34F
102
}
330
34F
100
AcDbXrecord
280
     1
102
RTVSPropertyOp0
 70
     1
102
RTVSPropertyOp1
 70
     1
102
RTVSPropertyOp2
 70
     1
102
RTVSPropertyOp3
 70
     1
102
RTVSPropertyOp4
 70
     1
102
RTVSPropertyOp5
 70
     1
102
RTVSPropertyOp6
 70
     1
102
RTVSPropertyOp7
 70
     1
102
RTVSPropertyOp8
 70
     1
102
RTVSPropertyOp9
 70
     1
102
RTVSPropertyOp10
 70
     1
102
RTVSPropertyOp11
 70
     1
102
RTVSPropertyOp12
 70
     1
102
RTVSPropertyOp13
 70
     1
102
RTVSPropertyOp14
 70
     1
102
RTVSPropertyOp15
 70
     1
102
RTVSPropertyOp16
 70
     1
102
RTVSPropertyOp17
 70
     1
102
RTVSPropertyOp18
 70
     1
102
RTVSPropertyOp19
 70
     1
102
RTVSPropertyOp20
 70
     1
102
RTVSPropertyOp21
 70
     1
102
RTVSPropertyOp22
 70
     1
102
RTVSPropertyOp23
 70
     1
102
RTVSPropertyOp24
 70
     1
102
RTVSPropertyOp25
 70
     1
102
RTVSPropertyOp26
 70
     1
102
RTVSPropertyOp27
 70
     1
102
RTVSPropertyOp28
 70
     1
102
RTVSPropertyOp29
 70
     1
102
RTVSPropertyOp30
 70
     1
102
RTVSPropertyOp31
 70
     1
102
RTVSPropertyOp32
 70
     1
  0
XRECORD
  5
352
102
{ACAD_REACTORS
330
351
102
}
330
351
100
AcDbXrecord
280
     1
102
RTVSPropertyOp0
 70
     1
102
RTVSPropertyOp1
 70
     1
102
RTVSPropertyOp2
 70
     1
102
RTVSPropertyOp3
 70
     1
102
RTVSPropertyOp4
 70
     1
102
RTVSPropertyOp5
 70
     1
102
RTVSPropertyOp6
 70
     1
102
RTVSPropertyOp7
 70
     1
102
RTVSPropertyOp8
 70
     1
102
RTVSPropertyOp9
 70
     1
102
RTVSPropertyOp10
 70
     1
102
RTVSPropertyOp11
 70
     1
102
RTVSPropertyOp12
 70
     1
102
RTVSPropertyOp13
 70
     1
102
RTVSPropertyOp14
 70
     1
102
RTVSPropertyOp15
 70
     1
102
RTVSPropertyOp16
 70
     1
102
RTVSPropertyOp17
 70
     1
102
RTVSPropertyOp18
 70
     1
102
RTVSPropertyOp19
 70
     1
102
RTVSPropertyOp20
 70
     1
102
RTVSPropertyOp21
 70
     1
102
RTVSPropertyOp22
 70
     1
102
RTVSPropertyOp23
 70
     1
102
RTVSPropertyOp24
 70
     1
102
RTVSPropertyOp25
 70
     1
102
RTVSPropertyOp26
 70
     1
102
RTVSPropertyOp27
 70
     1
102
RTVSPropertyOp28
 70
     1
102
RTVSPropertyOp29
 70
     1
102
RTVSPropertyOp30
 70
     1
102
RTVSPropertyOp31
 70
     1
102
RTVSPropertyOp32
 70
     1
  0
XRECORD
  5
354
102
{ACAD_REACTORS
330
353
102
}
330
353
100
AcDbXrecord
280
     1
102
RTVSPropertyOp0
 70
     1
102
RTVSPropertyOp1
 70
     1
102
RTVSPropertyOp2
 70
     1
102
RTVSPropertyOp3
 70
     1
102
RTVSPropertyOp4
 70
     1
102
RTVSPropertyOp5
 70
     1
102
RTVSPropertyOp6
 70
     1
102
RTVSPropertyOp7
 70
     1
102
RTVSPropertyOp8
 70
     1
102
RTVSPropertyOp9
 70
     1
102
RTVSPropertyOp10
 70
     1
102
RTVSPropertyOp11
 70
     1
102
RTVSPropertyOp12
 70
     1
102
RTVSPropertyOp13
 70
     1
102
RTVSPropertyOp14
 70
     1
102
RTVSPropertyOp15
 70
     1
102
RTVSPropertyOp16
 70
     1
102
RTVSPropertyOp17
 70
     1
102
RTVSPropertyOp18
 70
     1
102
RTVSPropertyOp19
 70
     1
102
RTVSPropertyOp20
 70
     1
102
RTVSPropertyOp21
 70
     1
102
RTVSPropertyOp22
 70
     1
102
RTVSPropertyOp23
 70
     1
102
RTVSPropertyOp24
 70
     1
102
RTVSPropertyOp25
 70
     1
102
RTVSPropertyOp26
 70
     1
102
RTVSPropertyOp27
 70
     1
102
RTVSPropertyOp28
 70
     1
102
RTVSPropertyOp29
 70
     1
102
RTVSPropertyOp30
 70
     1
102
RTVSPropertyOp31
 70
     1
102
RTVSPropertyOp32
 70
     1
  0
XRECORD
  5
368
102
{ACAD_REACTORS
330
367
102
}
330
367
100
AcDbXrecord
280
     1
102
RTVSPropertyOp0
 70
     1
102
RTVSPropertyOp1
 70
     1
102
RTVSPropertyOp2
 70
     1
102
RTVSPropertyOp3
 70
     1
102
RTVSPropertyOp4
 70
     1
102
RTVSPropertyOp5
 70
     1
102
RTVSPropertyOp6
 70
     1
102
RTVSPropertyOp7
 70
     1
102
RTVSPropertyOp8
 70
     1
102
RTVSPropertyOp9
 70
     1
102
RTVSPropertyOp10
 70
     1
102
RTVSPropertyOp11
 70
     1
102
RTVSPropertyOp12
 70
     1
102
RTVSPropertyOp13
 70
     1
102
RTVSPropertyOp14
 70
     1
102
RTVSPropertyOp15
 70
     1
102
RTVSPropertyOp16
 70
     1
102
RTVSPropertyOp17
 70
     1
102
RTVSPropertyOp18
 70
     1
102
RTVSPropertyOp19
 70
     1
102
RTVSPropertyOp20
 70
     1
102
RTVSPropertyOp21
 70
     1
102
RTVSPropertyOp22
 70
     1
102
RTVSPropertyOp23
 70
     1
102
RTVSPropertyOp24
 70
     1
102
RTVSPropertyOp25
 70
     1
102
RTVSPropertyOp26
 70
     1
102
RTVSPropertyOp27
 70
     1
102
RTVSPropertyOp28
 70
     1
102
RTVSPropertyOp29
 70
     1
102
RTVSPropertyOp30
 70
     1
102
RTVSPropertyOp31
 70
     1
102
RTVSPropertyOp32
 70
     1
  0
XRECORD
  5
35E
102
{ACAD_REACTORS
330
35D
102
}
330
35D
100
AcDbXrecord
280
     1
102
RTVSPropertyOp0
 70
     1
102
RTVSPropertyOp1
 70
     1
102
RTVSPropertyOp2
 70
     1
102
RTVSPropertyOp3
 70
     1
102
RTVSPropertyOp4
 70
     1
102
RTVSPropertyOp5
 70
     1
102
RTVSPropertyOp6
 70
     1
102
RTVSPropertyOp7
 70
     1
102
RTVSPropertyOp8
 70
     1
102
RTVSPropertyOp9
 70
     1
102
RTVSPropertyOp10
 70
     1
102
RTVSPropertyOp11
 70
     1
102
RTVSPropertyOp12
 70
     1
102
RTVSPropertyOp13
 70
     1
102
RTVSPropertyOp14
 70
     1
102
RTVSPropertyOp15
 70
     1
102
RTVSPropertyOp16
 70
     1
102
RTVSPropertyOp17
 70
     1
102
RTVSPropertyOp18
 70
     1
102
RTVSPropertyOp19
 70
     1
102
RTVSPropertyOp20
 70
     1
102
RTVSPropertyOp21
 70
     1
102
RTVSPropertyOp22
 70
     1
102
RTVSPropertyOp23
 70
     1
102
RTVSPropertyOp24
 70
     1
102
RTVSPropertyOp25
 70
     1
102
RTVSPropertyOp26
 70
     1
102
RTVSPropertyOp27
 70
     1
102
RTVSPropertyOp28
 70
     1
102
RTVSPropertyOp29
 70
     1
102
RTVSPropertyOp30
 70
     1
102
RTVSPropertyOp31
 70
     1
102
RTVSPropertyOp32
 70
     1
  0
XRECORD
  5
366
102
{ACAD_REACTORS
330
365
102
}
330
365
100
AcDbXrecord
280
     1
102
RTVSPropertyOp0
 70
     1
102
RTVSPropertyOp1
 70
     1
102
RTVSPropertyOp2
 70
     1
102
RTVSPropertyOp3
 70
     1
102
RTVSPropertyOp4
 70
     1
102
RTVSPropertyOp5
 70
     1
102
RTVSPropertyOp6
 70
     1
102
RTVSPropertyOp7
 70
     1
102
RTVSPropertyOp8
 70
     1
102
RTVSPropertyOp9
 70
     1
102
RTVSPropertyOp10
 70
     1
102
RTVSPropertyOp11
 70
     1
102
RTVSPropertyOp12
 70
     1
102
RTVSPropertyOp13
 70
     1
102
RTVSPropertyOp14
 70
     1
102
RTVSPropertyOp15
 70
     1
102
RTVSPropertyOp16
 70
     1
102
RTVSPropertyOp17
 70
     1
102
RTVSPropertyOp18
 70
     1
102
RTVSPropertyOp19
 70
     1
102
RTVSPropertyOp20
 70
     1
102
RTVSPropertyOp21
 70
     1
102
RTVSPropertyOp22
 70
     1
102
RTVSPropertyOp23
 70
     1
102
RTVSPropertyOp24
 70
     1
102
RTVSPropertyOp25
 70
     1
102
RTVSPropertyOp26
 70
     1
102
RTVSPropertyOp27
 70
     1
102
RTVSPropertyOp28
 70
     1
102
RTVSPropertyOp29
 70
     1
102
RTVSPropertyOp30
 70
     1
102
RTVSPropertyOp31
 70
     1
102
RTVSPropertyOp32
 70
     1
  0
ENDSEC
  0
EOF
