  0
SECTION
  2
HEADER
  9
$ACADVER
  1
AC1018
  9
$ACADMAINTVER
 70
     0
  9
$DWGCODEPAGE
  3
ANSI_1252
  9
$INSBASE
 10
0.0
 20
0.0
 30
0.0
  9
$EXTMIN
 10
-224.6999990814924
 20
19.09570433615568
 30
0.0
  9
$EXTMAX
 10
72.30000091850565
 20
229.0957043361558
 30
0.0
  9
$LIMMIN
 10
0.0
 20
0.0
  9
$LIMMAX
 10
12.0
 20
9.0
  9
$ORTHOMODE
 70
     0
  9
$REGENMODE
 70
     1
  9
$FILLMODE
 70
     1
  9
$QTEXTMODE
 70
     0
  9
$MIRRTEXT
 70
     1
  9
$LTSCALE
 40
1.0
  9
$ATTMODE
 70
     1
  9
$TEXTSIZE
 40
0.2
  9
$TRACEWID
 40
0.05
  9
$TEXTSTYLE
  7
Standard
  9
$CLAYER
  8
0
  9
$CELTYPE
  6
ByLayer
  9
$CECOLOR
 62
   256
  9
$CELTSCALE
 40
1.0
  9
$DISPSILH
 70
     0
  9
$DIMSCALE
 40
1.0
  9
$DIMASZ
 40
0.18
  9
$DIMEXO
 40
0.0625
  9
$DIMDLI
 40
0.38
  9
$DIMRND
 40
0.0
  9
$DIMDLE
 40
0.0
  9
$DIMEXE
 40
0.18
  9
$DIMTP
 40
0.0
  9
$DIMTM
 40
0.0
  9
$DIMTXT
 40
0.18
  9
$DIMCEN
 40
0.09
  9
$DIMTSZ
 40
0.0
  9
$DIMTOL
 70
     0
  9
$DIMLIM
 70
     0
  9
$DIMTIH
 70
     1
  9
$DIMTOH
 70
     1
  9
$DIMSE1
 70
     0
  9
$DIMSE2
 70
     0
  9
$DIMTAD
 70
     0
  9
$DIMZIN
 70
     0
  9
$DIMBLK
  1

  9
$DIMASO
 70
     1
  9
$DIMSHO
 70
     1
  9
$DIMPOST
  1

  9
$DIMAPOST
  1

  9
$DIMALT
 70
     0
  9
$DIMALTD
 70
     2
  9
$DIMALTF
 40
25.4
  9
$DIMLFAC
 40
1.0
  9
$DIMTOFL
 70
     0
  9
$DIMTVP
 40
0.0
  9
$DIMTIX
 70
     0
  9
$DIMSOXD
 70
     0
  9
$DIMSAH
 70
     0
  9
$DIMBLK1
  1

  9
$DIMBLK2
  1

  9
$DIMSTYLE
  2
Standard
  9
$DIMCLRD
 70
     0
  9
$DIMCLRE
 70
     0
  9
$DIMCLRT
 70
     0
  9
$DIMTFAC
 40
1.0
  9
$DIMGAP
 40
0.09
  9
$DIMJUST
 70
     0
  9
$DIMSD1
 70
     0
  9
$DIMSD2
 70
     0
  9
$DIMTOLJ
 70
     1
  9
$DIMTZIN
 70
     0
  9
$DIMALTZ
 70
     0
  9
$DIMALTTZ
 70
     0
  9
$DIMUPT
 70
     0
  9
$DIMDEC
 70
     4
  9
$DIMTDEC
 70
     4
  9
$DIMALTU
 70
     2
  9
$DIMALTTD
 70
     2
  9
$DIMTXSTY
  7
Standard
  9
$DIMAUNIT
 70
     0
  9
$DIMADEC
 70
     0
  9
$DIMALTRND
 40
0.0
  9
$DIMAZIN
 70
     0
  9
$DIMDSEP
 70
    46
  9
$DIMATFIT
 70
     3
  9
$DIMFRAC
 70
     0
  9
$DIMLDRBLK
  1

  9
$DIMLUNIT
 70
     2
  9
$DIMLWD
 70
    -2
  9
$DIMLWE
 70
    -2
  9
$DIMTMOVE
 70
     0
  9
$LUNITS
 70
     2
  9
$LUPREC
 70
     4
  9
$SKETCHINC
 40
0.1
  9
$FILLETRAD
 40
0.5
  9
$AUNITS
 70
     0
  9
$AUPREC
 70
     0
  9
$MENU
  1
.
  9
$ELEVATION
 40
0.0
  9
$PELEVATION
 40
0.0
  9
$THICKNESS
 40
0.0
  9
$LIMCHECK
 70
     0
  9
$CHAMFERA
 40
0.5
  9
$CHAMFERB
 40
0.5
  9
$CHAMFERC
 40
1.0
  9
$CHAMFERD
 40
0.0
  9
$SKPOLY
 70
     0
  9
$TDCREATE
 40
2458137.84971728
  9
$TDUCREATE
 40
2458137.808050613
  9
$TDUPDATE
 40
2458137.849717824
  9
$TDUUPDATE
 40
2458137.808051157
  9
$TDINDWG
 40
0.0000000116
  9
$TDUSRTIMER
 40
0.0000000116
  9
$USRTIMER
 70
     1
  9
$ANGBASE
 50
0.0
  9
$ANGDIR
 70
     0
  9
$PDMODE
 70
     0
  9
$PDSIZE
 40
0.0
  9
$PLINEWID
 40
0.0
  9
$SPLFRAME
 70
     0
  9
$SPLINETYPE
 70
     6
  9
$SPLINESEGS
 70
     8
  9
$HANDSEED
  5
3B6
  9
$SURFTAB1
 70
     6
  9
$SURFTAB2
 70
     6
  9
$SURFTYPE
 70
     6
  9
$SURFU
 70
     6
  9
$SURFV
 70
     6
  9
$UCSBASE
  2

  9
$UCSNAME
  2

  9
$UCSORG
 10
0.0
 20
0.0
 30
0.0
  9
$UCSXDIR
 10
1.0
 20
0.0
 30
0.0
  9
$UCSYDIR
 10
0.0
 20
1.0
 30
0.0
  9
$UCSORTHOREF
  2

  9
$UCSORTHOVIEW
 70
     0
  9
$UCSORGTOP
 10
0.0
 20
0.0
 30
0.0
  9
$UCSORGBOTTOM
 10
0.0
 20
0.0
 30
0.0
  9
$UCSORGLEFT
 10
0.0
 20
0.0
 30
0.0
  9
$UCSORGRIGHT
 10
0.0
 20
0.0
 30
0.0
  9
$UCSORGFRONT
 10
0.0
 20
0.0
 30
0.0
  9
$UCSORGBACK
 10
0.0
 20
0.0
 30
0.0
  9
$PUCSBASE
  2

  9
$PUCSNAME
  2

  9
$PUCSORG
 10
0.0
 20
0.0
 30
0.0
  9
$PUCSXDIR
 10
1.0
 20
0.0
 30
0.0
  9
$PUCSYDIR
 10
0.0
 20
1.0
 30
0.0
  9
$PUCSORTHOREF
  2

  9
$PUCSORTHOVIEW
 70
     0
  9
$PUCSORGTOP
 10
0.0
 20
0.0
 30
0.0
  9
$PUCSORGBOTTOM
 10
0.0
 20
0.0
 30
0.0
  9
$PUCSORGLEFT
 10
0.0
 20
0.0
 30
0.0
  9
$PUCSORGRIGHT
 10
0.0
 20
0.0
 30
0.0
  9
$PUCSORGFRONT
 10
0.0
 20
0.0
 30
0.0
  9
$PUCSORGBACK
 10
0.0
 20
0.0
 30
0.0
  9
$USERI1
 70
     0
  9
$USERI2
 70
     0
  9
$USERI3
 70
     0
  9
$USERI4
 70
     0
  9
$USERI5
 70
     0
  9
$USERR1
 40
18.1
  9
$USERR2
 40
0.0
  9
$USERR3
 40
0.0
  9
$USERR4
 40
0.0
  9
$USERR5
 40
0.0
  9
$WORLDVIEW
 70
     1
  9
$SHADEDGE
 70
     3
  9
$SHADEDIF
 70
    70
  9
$TILEMODE
 70
     1
  9
$MAXACTVP
 70
    64
  9
$PINSBASE
 10
0.0
 20
0.0
 30
0.0
  9
$PLIMCHECK
 70
     0
  9
$PEXTMIN
 10
1.00000000000000E+20
 20
1.00000000000000E+20
 30
1.00000000000000E+20
  9
$PEXTMAX
 10
-1.00000000000000E+20
 20
-1.00000000000000E+20
 30
-1.00000000000000E+20
  9
$PLIMMIN
 10
0.0
 20
0.0
  9
$PLIMMAX
 10
12.0
 20
9.0
  9
$UNITMODE
 70
     0
  9
$VISRETAIN
 70
     1
  9
$PLINEGEN
 70
     0
  9
$PSLTSCALE
 70
     1
  9
$TREEDEPTH
 70
  3020
  9
$CMLSTYLE
  2
Standard
  9
$CMLJUST
 70
     0
  9
$CMLSCALE
 40
1.0
  9
$PROXYGRAPHICS
 70
     1
  9
$MEASUREMENT
 70
     1
  9
$CELWEIGHT
370
    -1
  9
$ENDCAPS
280
     0
  9
$JOINSTYLE
280
     0
  9
$LWDISPLAY
290
     0
  9
$INSUNITS
 70
     4
  9
$HYPERLINKBASE
  1

  9
$STYLESHEET
  1

  9
$XEDIT
290
     1
  9
$CEPSNTYPE
380
     0
  9
$PSTYLEMODE
290
     1
  9
$FINGERPRINTGUID
  2
{D22F73A0-C90C-49EF-A7F1-D15458963A26}
  9
$VERSIONGUID
  2
{FAEB1C32-E019-11D5-929B-00C0DF256EC4}
  9
$EXTNAMES
290
     1
  9
$PSVPSCALE
 40
0.0
  9
$OLESTARTUP
290
     0
  9
$SORTENTS
280
   127
  9
$INDEXCTL
280
     0
  9
$HIDETEXT
280
     1
  9
$XCLIPFRAME
290
     0
  9
$HALOGAP
280
     0
  9
$OBSCOLOR
 70
   257
  9
$OBSLTYPE
280
     0
  9
$INTERSECTIONDISPLAY
280
     0
  9
$INTERSECTIONCOLOR
 70
   257
  9
$DIMASSOC
280
     2
  9
$PROJECTNAME
  1

  0
ENDSEC
  0
SECTION
  2
CLASSES
  0
CLASS
  1
ACDBDICTIONARYWDFLT
  2
AcDbDictionaryWithDefault
  3
ObjectDBX Classes
 90
        0
 91
        4
280
     0
281
     0
  0
CLASS
  1
VISUALSTYLE
  2
AcDbVisualStyle
  3
ObjectDBX Classes
 90
     4095
 91
        4
280
     0
281
     0
  0
CLASS
  1
MATERIAL
  2
AcDbMaterial
  3
ObjectDBX Classes
 90
     1153
 91
        4
280
     0
281
     0
  0
ENDSEC
  0
SECTION
  2
TABLES
  0
TABLE
  2
VPORT
  5
8
330
0
100
AcDbSymbolTable
 70
     1
  0
VPORT
  5
29
330
8
100
AcDbSymbolTableRecord
100
AcDbViewportTableRecord
  2
*Active
 70
     0
 10
0.0
 20
0.0
 11
1.0
 21
1.0
 12
-76.19999908149337
 22
124.0957043361557
 13
0.0
 23
0.0
 14
0.5
 24
0.5
 15
0.5
 25
0.5
 16
0.0
 26
0.0
 36
1.0
 17
0.0
 27
0.0
 37
0.0
 40
231.0000000000001
 41
1.60267857142857
 42
50.0
 43
0.0
 44
0.0
 50
0.0
 51
0.0
 71
     0
 72
   100
 73
     1
 74
     3
 75
     0
 76
     0
 77
     0
 78
     0
281
     0
 65
     1
110
0.0
120
0.0
130
0.0
111
1.0
121
0.0
131
0.0
112
0.0
122
1.0
132
0.0
 79
     0
146
0.0
  0
ENDTAB
  0
TABLE
  2
LTYPE
  5
5
330
0
100
AcDbSymbolTable
 70
     8
  0
LTYPE
  5
14
330
5
100
AcDbSymbolTableRecord
100
AcDbLinetypeTableRecord
  2
ByBlock
 70
     0
  3

 72
    65
 73
     0
 40
0.0
  0
LTYPE
  5
15
330
5
100
AcDbSymbolTableRecord
100
AcDbLinetypeTableRecord
  2
ByLayer
 70
     0
  3

 72
    65
 73
     0
 40
0.0
  0
LTYPE
  5
16
330
5
100
AcDbSymbolTableRecord
100
AcDbLinetypeTableRecord
  2
Continuous
 70
     0
  3
Solid line
 72
    65
 73
     0
 40
0.0
  0
LTYPE
  5
3F
330
5
100
AcDbSymbolTableRecord
100
AcDbLinetypeTableRecord
  2
DASHED
 70
     0
  3
Dashed
 72
    65
 73
     2
 40
15.0
 49
7.0
 74
     0
 49
-8.0
 74
     0
  0
LTYPE
  5
40
330
5
100
AcDbSymbolTableRecord
100
AcDbLinetypeTableRecord
  2
DOTTED
 70
     0
  3
Dotted
 72
    65
 73
     2
 40
1.0
 49
0.0
 74
     0
 49
-1.0
 74
     0
  0
LTYPE
  5
41
330
5
100
AcDbSymbolTableRecord
100
AcDbLinetypeTableRecord
  2
DOT_CENTER
 70
     0
  3
Dot_Center
 72
    65
 73
     4
 40
14.0
 49
12.0
 74
     0
 49
-1.0
 74
     0
 49
0.0
 74
     0
 49
-1.0
 74
     0
  0
LTYPE
  5
42
330
5
100
AcDbSymbolTableRecord
100
AcDbLinetypeTableRecord
  2
LONG_DASHED
 70
     0
  3
Long_Dashed
 72
    65
 73
     2
 40
15.0
 49
10.0
 74
     0
 49
-5.0
 74
     0
  0
LTYPE
  5
43
330
5
100
AcDbSymbolTableRecord
100
AcDbLinetypeTableRecord
  2
DASH_CENTER
 70
     0
  3
Dash_Center
 72
    65
 73
     4
 40
14.0
 49
11.0
 74
     0
 49
-1.0
 74
     0
 49
1.0
 74
     0
 49
-1.0
 74
     0
  0
LTYPE
  5
44
330
5
100
AcDbSymbolTableRecord
100
AcDbLinetypeTableRecord
  2
PHANTOM
 70
     0
  3
Phantom
 72
    65
 73
     6
 40
13.0
 49
10.0
 74
     0
 49
-1.0
 74
     0
 49
0.0
 74
     0
 49
-1.0
 74
     0
 49
0.0
 74
     0
 49
-1.0
 74
     0
  0
LTYPE
  5
45
330
5
100
AcDbSymbolTableRecord
100
AcDbLinetypeTableRecord
  2
CENTER_DASH_DASH
 70
     0
  3
Center_Dash_Dash
 72
    65
 73
     6
 40
14.0
 49
9.0
 74
     0
 49
-1.0
 74
     0
 49
1.0
 74
     0
 49
-1.0
 74
     0
 49
1.0
 74
     0
 49
-1.0
 74
     0
  0
ENDTAB
  0
TABLE
  2
LAYER
  5
2
330
0
100
AcDbSymbolTable
 70
     2
  0
LAYER
  5
10
330
2
100
AcDbSymbolTableRecord
100
AcDbLayerTableRecord
  2
0
 70
     0
 62
     7
  6
Continuous
370
    -3
390
F
  0
LAYER
  5
46
330
2
100
AcDbSymbolTableRecord
100
AcDbLayerTableRecord
  2
1
 70
     0
 62
     7
  6
Continuous
370
    -3
390
F
  0
ENDTAB
  0
TABLE
  2
STYLE
  5
3
330
0
100
AcDbSymbolTable
 70
     5
  0
STYLE
  5
11
330
3
100
AcDbSymbolTableRecord
100
AcDbTextStyleTableRecord
  2
Standard
 70
     0
 40
0.0
 41
1.0
 50
0.0
 71
     0
 42
0.2
  3
txt
  4

  0
STYLE
  5
17D
330
3
100
AcDbSymbolTableRecord
100
AcDbTextStyleTableRecord
  2
CONVERTER_11
 70
     0
 40
0.0
 41
0.9
 50
0.0
 71
     0
 42
0.2
  3
txt.shx
  4

  0
STYLE
  5
184
330
3
100
AcDbSymbolTableRecord
100
AcDbTextStyleTableRecord
  2
CONVERTER_12
 70
     0
 40
0.0
 41
0.81
 50
0.0
 71
     0
 42
0.2
  3
txt.shx
  4

  0
STYLE
  5
19A
330
3
100
AcDbSymbolTableRecord
100
AcDbTextStyleTableRecord
  2
CONVERTER_13
 70
     0
 40
0.0
 41
0.72
 50
0.0
 71
     0
 42
0.2
  3
txt.shx
  4

  0
STYLE
  5
19D
330
3
100
AcDbSymbolTableRecord
100
AcDbTextStyleTableRecord
  2
CONVERTER_14
 70
     0
 40
0.0
 41
0.855
 50
0.0
 71
     0
 42
0.2
  3
txt.shx
  4

  0
ENDTAB
  0
TABLE
  2
VIEW
  5
6
330
0
100
AcDbSymbolTable
 70
     0
  0
ENDTAB
  0
TABLE
  2
UCS
  5
7
330
0
100
AcDbSymbolTable
 70
     0
  0
ENDTAB
  0
TABLE
  2
APPID
  5
9
330
0
100
AcDbSymbolTable
 70
     1
  0
APPID
  5
12
330
9
100
AcDbSymbolTableRecord
100
AcDbRegAppTableRecord
  2
ACAD
 70
     0
  0
ENDTAB
  0
TABLE
  2
DIMSTYLE
  5
A
330
0
100
AcDbSymbolTable
 70
     4
100
AcDbDimStyleTable
  0
DIMSTYLE
105
27
330
A
100
AcDbSymbolTableRecord
100
AcDbDimStyleTableRecord
  2
Standard
 70
     0
178
     0
340
11
  0
DIMSTYLE
105
297
102
{ACAD_REACTORS
330
298
102
}
330
A
100
AcDbSymbolTableRecord
100
AcDbDimStyleTableRecord
  2
ME10_DIM_10
 70
     0
 41
7.0
 42
1.0
 44
3.0
 73
     0
 74
     0
 77
     1
 78
     8
140
7.0
147
4.0
172
     1
173
     1
174
     1
175
     1
176
     2
177
     2
271
     2
178
     3
271
     2
340
17D
  0
DIMSTYLE
105
381
102
{ACAD_REACTORS
330
382
102
}
330
A
100
AcDbSymbolTableRecord
100
AcDbDimStyleTableRecord
  2
ME10_DIM_11
 70
     0
 41
7.0
 42
1.0
 44
3.0
 73
     0
 74
     0
 77
     1
 78
     8
140
7.0
147
4.0
172
     1
173
     1
174
     1
175
     1
176
     2
177
     2
271
     2
178
     3
271
     2
340
17D
  0
DIMSTYLE
105
38C
102
{ACAD_REACTORS
330
38D
102
}
330
A
100
AcDbSymbolTableRecord
100
AcDbDimStyleTableRecord
  2
ME10_DIM_12
 70
     0
 41
7.0
 42
1.0
 44
3.0
 73
     0
 74
     0
 77
     1
 78
     8
140
7.0
147
4.0
172
     1
173
     1
174
     1
175
     1
176
     2
177
     2
271
     2
178
     3
271
     2
340
17D
  0
ENDTAB
  0
TABLE
  2
BLOCK_RECORD
  5
1
330
0
100
AcDbSymbolTable
 70
    20
  0
BLOCK_RECORD
  5
1F
330
1
100
AcDbSymbolTableRecord
100
AcDbBlockTableRecord
  2
*Model_Space
340
22
  0
BLOCK_RECORD
  5
1B
330
1
100
AcDbSymbolTableRecord
100
AcDbBlockTableRecord
  2
*Paper_Space
340
1E
  0
BLOCK_RECORD
  5
23
330
1
100
AcDbSymbolTableRecord
100
AcDbBlockTableRecord
  2
*Paper_Space0
340
26
  0
BLOCK_RECORD
  5
47
330
1
100
AcDbSymbolTableRecord
100
AcDbBlockTableRecord
  2
_rahmen
340
0
102
{BLKREFS
331
4E
102
}
  0
BLOCK_RECORD
  5
4A
330
1
100
AcDbSymbolTableRecord
100
AcDbBlockTableRecord
  2
_punkt
340
0
102
{BLKREFS
331
4F
102
}
  0
BLOCK_RECORD
  5
4D
330
1
100
AcDbSymbolTableRecord
100
AcDbBlockTableRecord
  2
A4I_CS
340
0
102
{BLKREFS
331
7D
102
}
  0
BLOCK_RECORD
  5
52
330
1
100
AcDbSymbolTableRecord
100
AcDbBlockTableRecord
  2
HC-RBO_12-FE-select__1
340
0
102
{BLKREFS
331
56
102
}
  0
BLOCK_RECORD
  5
55
330
1
100
AcDbSymbolTableRecord
100
AcDbBlockTableRecord
  2
AllgSicht1
340
0
102
{BLKREFS
331
7E
102
}
  0
BLOCK_RECORD
  5
59
330
1
100
AcDbSymbolTableRecord
100
AcDbBlockTableRecord
  2
HC-RBO_12-FE-select__2
340
0
102
{BLKREFS
331
5D
102
}
  0
BLOCK_RECORD
  5
5C
330
1
100
AcDbSymbolTableRecord
100
AcDbBlockTableRecord
  2
Drfsicht1
340
0
102
{BLKREFS
331
7F
102
}
  0
BLOCK_RECORD
  5
60
330
1
100
AcDbSymbolTableRecord
100
AcDbBlockTableRecord
  2
HC-RBO_12-FE-select__3
340
0
102
{BLKREFS
331
64
102
}
  0
BLOCK_RECORD
  5
63
330
1
100
AcDbSymbolTableRecord
100
AcDbBlockTableRecord
  2
Rckans1
340
0
102
{BLKREFS
331
80
102
}
  0
BLOCK_RECORD
  5
67
330
1
100
AcDbSymbolTableRecord
100
AcDbBlockTableRecord
  2
HC-RBO_12-FE-select__4
340
0
102
{BLKREFS
331
6B
102
}
  0
BLOCK_RECORD
  5
6A
330
1
100
AcDbSymbolTableRecord
100
AcDbBlockTableRecord
  2
SA_Links1
340
0
102
{BLKREFS
331
81
102
}
  0
BLOCK_RECORD
  5
6E
330
1
100
AcDbSymbolTableRecord
100
AcDbBlockTableRecord
  2
HC-RBO_12-FE-select__5
340
0
102
{BLKREFS
331
72
102
}
  0
BLOCK_RECORD
  5
71
330
1
100
AcDbSymbolTableRecord
100
AcDbBlockTableRecord
  2
SA_Rechts1
340
0
102
{BLKREFS
331
82
102
}
  0
BLOCK_RECORD
  5
75
330
1
100
AcDbSymbolTableRecord
100
AcDbBlockTableRecord
  2
HC-RBO_12-FE-select__6
340
0
102
{BLKREFS
331
79
102
}
  0
BLOCK_RECORD
  5
78
330
1
100
AcDbSymbolTableRecord
100
AcDbBlockTableRecord
  2
Vordans1
340
0
102
{BLKREFS
331
83
102
}
  0
BLOCK_RECORD
  5
7C
330
1
100
AcDbSymbolTableRecord
100
AcDbBlockTableRecord
  2
1
340
0
102
{BLKREFS
331
86
102
}
  0
BLOCK_RECORD
  5
28E
330
1
100
AcDbSymbolTableRecord
100
AcDbBlockTableRecord
  2
*D17
340
0
  0
BLOCK_RECORD
  5
378
330
1
100
AcDbSymbolTableRecord
100
AcDbBlockTableRecord
  2
*D18
340
0
  0
BLOCK_RECORD
  5
383
330
1
100
AcDbSymbolTableRecord
100
AcDbBlockTableRecord
  2
*D19
340
0
  0
ENDTAB
  0
ENDSEC
  0
SECTION
  2
BLOCKS
  0
BLOCK
  5
20
330
1F
100
AcDbEntity
  8
0
100
AcDbBlockBegin
  2
*Model_Space
 70
     0
 10
0.0
 20
0.0
 30
0.0
  3
*Model_Space
  1

  0
ENDBLK
  5
21
330
1F
100
AcDbEntity
  8
0
100
AcDbBlockEnd
  0
BLOCK
  5
1C
330
1B
100
AcDbEntity
 67
     1
  8
0
100
AcDbBlockBegin
  2
*Paper_Space
 70
     0
 10
0.0
 20
0.0
 30
0.0
  3
*Paper_Space
  1

  0
ENDBLK
  5
1D
330
1B
100
AcDbEntity
 67
     1
  8
0
100
AcDbBlockEnd
  0
BLOCK
  5
24
330
23
100
AcDbEntity
  8
0
100
AcDbBlockBegin
  2
*Paper_Space0
 70
     0
 10
0.0
 20
0.0
 30
0.0
  3
*Paper_Space0
  1

  0
ENDBLK
  5
25
330
23
100
AcDbEntity
  8
0
100
AcDbBlockEnd
  0
BLOCK
  5
48
330
47
100
AcDbEntity
  8
0
100
AcDbBlockBegin
  2
_rahmen
 70
     0
 10
67.30000091850665
 20
19.09570433615568
 30
0.0
  3
_rahmen
  1

  0
LINE
  5
87
330
47
100
AcDbEntity
  8
1
  6
Continuous
 62
     6
100
AcDbLine
 10
-62.24480360824336
 20
49.59570433615579
 30
0.0
 11
67.30000091850835
 21
49.59570433615579
 31
0.0
  0
LINE
  5
88
330
47
100
AcDbEntity
  8
1
  6
Continuous
 62
     7
100
AcDbLine
 10
-44.04480360824334
 20
28.34570433615579
 30
0.0
 11
-25.84480360824344
 21
28.34570433615579
 31
0.0
  0
LINE
  5
89
330
47
100
AcDbEntity
  8
1
  6
Continuous
 62
     6
100
AcDbLine
 10
-44.04480360824334
 20
24.09570433615579
 30
0.0
 11
-62.24480360824336
 21
24.09570433615568
 31
0.0
  0
LINE
  5
8A
330
47
100
AcDbEntity
  8
1
  6
Continuous
 62
     7
100
AcDbLine
 10
-44.04480360824334
 20
28.34570433615579
 30
0.0
 11
-44.04480360824334
 21
24.09570433615579
 31
0.0
  0
LINE
  5
8B
330
47
100
AcDbEntity
  8
1
  6
Continuous
 62
     7
100
AcDbLine
 10
-25.84480360824344
 20
28.34570433615579
 30
0.0
 11
-25.84480360824344
 21
24.09570433615568
 31
0.0
  0
LINE
  5
8C
330
47
100
AcDbEntity
  8
1
  6
Continuous
 62
     7
100
AcDbLine
 10
-62.24480360824336
 20
28.34570433615568
 30
0.0
 11
-62.24480360824336
 21
24.09570433615568
 31
0.0
  0
LINE
  5
8D
330
47
100
AcDbEntity
  8
1
  6
Continuous
 62
     7
100
AcDbLine
 10
-62.24480360824336
 20
28.34570433615568
 30
0.0
 11
-44.04480360824334
 21
28.34570433615579
 31
0.0
  0
LINE
  5
8E
330
47
100
AcDbEntity
  8
1
  6
Continuous
 62
     2
100
AcDbLine
 10
-53.00814872168076
 20
47.72070433615571
 30
0.0
 11
-53.00814872168076
 21
42.72070433615571
 31
0.0
  0
LINE
  5
8F
330
47
100
AcDbEntity
  8
1
  6
Continuous
 62
     2
100
AcDbLine
 10
-53.00814872168076
 20
42.72070433615571
 30
0.0
 11
-58.00814872168076
 21
43.97070433615571
 31
0.0
  0
LINE
  5
90
330
47
100
AcDbEntity
  8
1
  6
Continuous
 62
     2
100
AcDbLine
 10
-58.00814872168076
 20
43.97070433615571
 30
0.0
 11
-58.00814872168076
 21
46.47070433615571
 31
0.0
  0
LINE
  5
91
330
47
100
AcDbEntity
  8
1
  6
Continuous
 62
     2
100
AcDbLine
 10
-58.00814872168076
 20
46.47070433615571
 30
0.0
 11
-53.00814872168076
 21
47.72070433615571
 31
0.0
  0
LINE
  5
92
330
47
100
AcDbEntity
  8
1
  6
Continuous
 62
     6
100
AcDbLine
 10
-184.6999990814916
 20
24.09570433615579
 30
0.0
 11
-219.6999990814915
 21
24.09570433615579
 31
0.0
  0
LINE
  5
93
330
47
100
AcDbEntity
  8
1
  6
Continuous
 62
     6
100
AcDbLine
 10
67.30000091850835
 20
41.09570433615579
 30
0.0
 11
67.30000091850795
 21
32.59570433615579
 31
0.0
  0
LINE
  5
94
330
47
100
AcDbEntity
  8
1
  6
Continuous
 62
     6
100
AcDbLine
 10
-25.84480360824344
 20
24.09570433615568
 30
0.0
 11
-26.19999908149336
 21
24.09570433615579
 31
0.0
  0
LINE
  5
95
330
47
100
AcDbEntity
  8
1
  6
Continuous
 62
     6
100
AcDbLine
 10
-178.4999990814936
 20
24.09570433615568
 30
0.0
 11
-184.6999990814916
 21
24.09570433615579
 31
0.0
  0
LINE
  5
96
330
47
100
AcDbEntity
  8
1
  6
Continuous
 62
     7
100
AcDbLine
 10
-25.84480360824344
 20
41.09570433615579
 30
0.0
 11
-25.84480360824344
 21
28.34570433615579
 31
0.0
  0
LINE
  5
97
330
47
100
AcDbEntity
  8
1
  6
Continuous
 62
     7
100
AcDbLine
 10
-62.24480360824336
 20
41.09570433615579
 30
0.0
 11
-62.24480360824336
 21
28.34570433615568
 31
0.0
  0
LINE
  5
98
330
47
100
AcDbEntity
  8
1
  6
Continuous
 62
     6
100
AcDbLine
 10
-76.19999908149333
 20
24.09570433615579
 30
0.0
 11
-126.1999990814936
 21
24.09570433615579
 31
0.0
  0
LINE
  5
99
330
47
100
AcDbEntity
  8
1
  6
Continuous
 62
     6
100
AcDbLine
 10
-178.4999990814936
 20
24.09570433615568
 30
0.0
 11
-176.1999990814933
 21
24.09570433615579
 31
0.0
  0
LINE
  5
9A
330
47
100
AcDbEntity
  8
1
  6
Continuous
 62
     6
100
AcDbLine
 10
-25.84480360824344
 20
24.09570433615568
 30
0.0
 11
23.80000091850664
 21
24.09570433615579
 31
0.0
  0
LINE
  5
9B
330
47
100
AcDbEntity
  8
1
  6
Continuous
 62
     6
100
AcDbLine
 10
67.30000091850665
 20
24.09570433615579
 30
0.0
 11
67.30000091850795
 21
32.59570433615579
 31
0.0
  0
LINE
  5
9C
330
47
100
AcDbEntity
  8
1
  6
Continuous
 62
     2
100
AcDbLine
 10
-224.6999990814924
 20
24.09570433615579
 30
0.0
 11
-224.6999990814924
 21
19.09570433615568
 31
0.0
  0
LINE
  5
9D
330
47
100
AcDbEntity
  8
1
  6
Continuous
 62
     2
100
AcDbLine
 10
-219.6999990814915
 20
24.09570433615579
 30
0.0
 11
-224.6999990814924
 21
24.09570433615579
 31
0.0
  0
LINE
  5
9E
330
47
100
AcDbEntity
  8
1
  6
Continuous
 62
     2
100
AcDbLine
 10
-219.6999990814915
 20
19.09570433615568
 30
0.0
 11
-176.1999990814933
 21
19.09570433615568
 31
0.0
  0
LINE
  5
9F
330
47
100
AcDbEntity
  8
1
  6
Continuous
 62
     2
100
AcDbLine
 10
-219.6999990814915
 20
24.09570433615579
 30
0.0
 11
-219.6999990814915
 21
19.09570433615568
 31
0.0
  0
LINE
  5
A0
330
47
100
AcDbEntity
  8
1
  6
Continuous
 62
     2
100
AcDbLine
 10
23.80000091850664
 20
19.09570433615568
 30
0.0
 11
-26.19999908149336
 21
19.09570433615568
 31
0.0
  0
LINE
  5
A1
330
47
100
AcDbEntity
  8
1
  6
Continuous
 62
     2
100
AcDbLine
 10
23.80000091850664
 20
19.09570433615568
 30
0.0
 11
23.80000091850664
 21
24.09570433615579
 31
0.0
  0
LINE
  5
A2
330
47
100
AcDbEntity
  8
1
  6
Continuous
 62
     2
100
AcDbLine
 10
-26.19999908149336
 20
19.09570433615568
 30
0.0
 11
-26.19999908149336
 21
24.09570433615579
 31
0.0
  0
LINE
  5
A3
330
47
100
AcDbEntity
  8
1
  6
Continuous
 62
     2
100
AcDbLine
 10
-76.19999908149333
 20
19.09570433615568
 30
0.0
 11
-26.19999908149336
 21
19.09570433615568
 31
0.0
  0
LINE
  5
A4
330
47
100
AcDbEntity
  8
1
  6
Continuous
 62
     2
100
AcDbLine
 10
-76.19999908149333
 20
19.09570433615568
 30
0.0
 11
-76.19999908149333
 21
24.09570433615579
 31
0.0
  0
LINE
  5
A5
330
47
100
AcDbEntity
  8
1
  6
Continuous
 62
     2
100
AcDbLine
 10
-126.1999990814936
 20
19.09570433615568
 30
0.0
 11
-76.19999908149333
 21
19.09570433615568
 31
0.0
  0
LINE
  5
A6
330
47
100
AcDbEntity
  8
1
  6
Continuous
 62
     2
100
AcDbLine
 10
-126.1999990814936
 20
19.09570433615568
 30
0.0
 11
-126.1999990814936
 21
24.09570433615579
 31
0.0
  0
LINE
  5
A7
330
47
100
AcDbEntity
  8
1
  6
Continuous
 62
     2
100
AcDbLine
 10
-176.1999990814933
 20
19.09570433615568
 30
0.0
 11
-126.1999990814936
 21
19.09570433615568
 31
0.0
  0
LINE
  5
A8
330
47
100
AcDbEntity
  8
1
  6
Continuous
 62
     2
100
AcDbLine
 10
-176.1999990814933
 20
19.09570433615568
 30
0.0
 11
-176.1999990814933
 21
24.09570433615579
 31
0.0
  0
LINE
  5
A9
330
47
100
AcDbEntity
  8
1
  6
Continuous
 62
     6
100
AcDbLine
 10
-219.6999990814916
 20
74.0957043361559
 30
0.0
 11
-219.6999990814915
 21
24.09570433615579
 31
0.0
  0
LINE
  5
AA
330
47
100
AcDbEntity
  8
1
  6
Continuous
 62
     2
100
AcDbLine
 10
-224.6999990814924
 20
74.0957043361559
 30
0.0
 11
-224.6999990814924
 21
24.09570433615579
 31
0.0
  0
LINE
  5
AB
330
47
100
AcDbEntity
  8
1
  6
Continuous
 62
     2
100
AcDbLine
 10
-224.6999990814924
 20
74.0957043361559
 30
0.0
 11
-219.6999990814916
 21
74.0957043361559
 31
0.0
  0
LINE
  5
AC
330
47
100
AcDbEntity
  8
1
  6
Continuous
 62
     6
100
AcDbLine
 10
-219.6999990814919
 20
124.0957043361557
 30
0.0
 11
-219.6999990814916
 21
74.0957043361559
 31
0.0
  0
LINE
  5
AD
330
47
100
AcDbEntity
  8
1
  6
Continuous
 62
     2
100
AcDbLine
 10
-224.6999990814924
 20
124.0957043361557
 30
0.0
 11
-224.6999990814924
 21
74.0957043361559
 31
0.0
  0
LINE
  5
AE
330
47
100
AcDbEntity
  8
1
  6
Continuous
 62
     2
100
AcDbLine
 10
-224.6999990814924
 20
124.0957043361557
 30
0.0
 11
-219.6999990814919
 21
124.0957043361557
 31
0.0
  0
LINE
  5
AF
330
47
100
AcDbEntity
  8
1
  6
Continuous
 62
     6
100
AcDbLine
 10
-219.6999990814924
 20
174.0957043361558
 30
0.0
 11
-219.6999990814919
 21
124.0957043361557
 31
0.0
  0
LINE
  5
B0
330
47
100
AcDbEntity
  8
1
  6
Continuous
 62
     2
100
AcDbLine
 10
-224.6999990814924
 20
174.0957043361558
 30
0.0
 11
-224.6999990814924
 21
124.0957043361557
 31
0.0
  0
LINE
  5
B1
330
47
100
AcDbEntity
  8
1
  6
Continuous
 62
     2
100
AcDbLine
 10
-224.6999990814924
 20
174.0957043361558
 30
0.0
 11
-219.6999990814924
 21
174.0957043361558
 31
0.0
  0
LINE
  5
B2
330
47
100
AcDbEntity
  8
1
  6
Continuous
 62
     6
100
AcDbLine
 10
-219.6999990814924
 20
209.0957043361558
 30
0.0
 11
-219.6999990814924
 21
174.0957043361558
 31
0.0
  0
LINE
  5
B3
330
47
100
AcDbEntity
  8
1
  6
Continuous
 62
     2
100
AcDbLine
 10
-224.6999990814924
 20
229.0957043361558
 30
0.0
 11
-224.6999990814924
 21
174.0957043361558
 31
0.0
  0
LINE
  5
B4
330
47
100
AcDbEntity
  8
1
  6
Continuous
 62
     2
100
AcDbLine
 10
-224.6999990814924
 20
19.09570433615568
 30
0.0
 11
-219.6999990814915
 21
19.09570433615568
 31
0.0
  0
LINE
  5
B5
330
47
100
AcDbEntity
  8
1
  6
Continuous
 62
     2
100
AcDbLine
 10
-76.19999908149333
 20
229.0957043361558
 30
0.0
 11
-76.19999908149333
 21
219.8870124914545
 31
0.0
  0
LINE
  5
B6
330
47
100
AcDbEntity
  8
1
  6
Continuous
 62
     2
100
AcDbLine
 10
-76.19999908149333
 20
229.0957043361558
 30
0.0
 11
-224.6999990814924
 21
229.0957043361558
 31
0.0
  0
LINE
  5
B7
330
47
100
AcDbEntity
  8
1
  6
Continuous
 62
     2
100
AcDbLine
 10
72.30000091850565
 20
24.09570433615579
 30
0.0
 11
72.30000091850565
 21
74.0957043361559
 31
0.0
  0
LINE
  5
B8
330
47
100
AcDbEntity
  8
1
  6
Continuous
 62
     2
100
AcDbLine
 10
72.30000091850565
 20
174.0957043361558
 30
0.0
 11
72.30000091850565
 21
229.0957043361558
 31
0.0
  0
LINE
  5
B9
330
47
100
AcDbEntity
  8
1
  6
Continuous
 62
     6
100
AcDbLine
 10
67.30000091850584
 20
174.0957043361558
 30
0.0
 11
67.30000091850565
 21
209.0957043361558
 31
0.0
  0
LINE
  5
BA
330
47
100
AcDbEntity
  8
1
  6
Continuous
 62
     2
100
AcDbLine
 10
67.30000091850584
 20
174.0957043361558
 30
0.0
 11
72.30000091850565
 21
174.0957043361558
 31
0.0
  0
LINE
  5
BB
330
47
100
AcDbEntity
  8
1
  6
Continuous
 62
     2
100
AcDbLine
 10
72.30000091850565
 20
124.0957043361557
 30
0.0
 11
72.30000091850565
 21
174.0957043361558
 31
0.0
  0
LINE
  5
BC
330
47
100
AcDbEntity
  8
1
  6
Continuous
 62
     6
100
AcDbLine
 10
67.30000091850705
 20
124.0957043361557
 30
0.0
 11
67.30000091850584
 21
174.0957043361558
 31
0.0
  0
LINE
  5
BD
330
47
100
AcDbEntity
  8
1
  6
Continuous
 62
     2
100
AcDbLine
 10
67.30000091850705
 20
124.0957043361557
 30
0.0
 11
72.30000091850565
 21
124.0957043361557
 31
0.0
  0
LINE
  5
BE
330
47
100
AcDbEntity
  8
1
  6
Continuous
 62
     2
100
AcDbLine
 10
72.30000091850565
 20
74.0957043361559
 30
0.0
 11
72.30000091850565
 21
124.0957043361557
 31
0.0
  0
LINE
  5
BF
330
47
100
AcDbEntity
  8
1
  6
Continuous
 62
     6
100
AcDbLine
 10
67.30000091850755
 20
74.0957043361559
 30
0.0
 11
67.30000091850705
 21
124.0957043361557
 31
0.0
  0
LINE
  5
C0
330
47
100
AcDbEntity
  8
1
  6
Continuous
 62
     2
100
AcDbLine
 10
67.30000091850755
 20
74.0957043361559
 30
0.0
 11
72.30000091850565
 21
74.0957043361559
 31
0.0
  0
LINE
  5
C1
330
47
100
AcDbEntity
  8
1
  6
Continuous
 62
     6
100
AcDbLine
 10
67.30000091850565
 20
209.0957043361558
 30
0.0
 11
-219.6999990814924
 21
209.0957043361558
 31
0.0
  0
LINE
  5
C2
330
47
100
AcDbEntity
  8
1
  6
Continuous
 62
     2
100
AcDbLine
 10
72.30000091850565
 20
229.0957043361558
 30
0.0
 11
-76.19999908149333
 21
229.0957043361558
 31
0.0
  0
LINE
  5
C3
330
47
100
AcDbEntity
  8
1
  6
Continuous
 62
     6
100
AcDbLine
 10
67.30000091850835
 20
41.09570433615579
 30
0.0
 11
67.30000091850755
 21
74.0957043361559
 31
0.0
  0
LINE
  5
C4
330
47
100
AcDbEntity
  8
1
  6
Continuous
 62
     2
100
AcDbLine
 10
67.30000091850665
 20
19.09570433615568
 30
0.0
 11
23.80000091850664
 21
19.09570433615568
 31
0.0
  0
LINE
  5
C5
330
47
100
AcDbEntity
  8
1
  6
Continuous
 62
     2
100
AcDbLine
 10
72.30000091850565
 20
19.09570433615568
 30
0.0
 11
67.30000091850665
 21
19.09570433615568
 31
0.0
  0
LINE
  5
C6
330
47
100
AcDbEntity
  8
1
  6
Continuous
 62
     2
100
AcDbLine
 10
72.30000091850565
 20
19.09570433615568
 30
0.0
 11
72.30000091850565
 21
24.09570433615579
 31
0.0
  0
LINE
  5
C7
330
47
100
AcDbEntity
  8
1
  6
Continuous
 62
     6
100
AcDbLine
 10
-62.24480360824336
 20
41.09570433615579
 30
0.0
 11
-25.84480360824344
 21
41.09570433615579
 31
0.0
  0
LINE
  5
C8
330
47
100
AcDbEntity
  8
1
  6
Continuous
 62
     2
100
AcDbLine
 10
67.30000091850665
 20
24.09570433615579
 30
0.0
 11
67.30000091850665
 21
19.09570433615568
 31
0.0
  0
LINE
  5
C9
330
47
100
AcDbEntity
  8
1
  6
Continuous
 62
     2
100
AcDbLine
 10
67.30000091850665
 20
24.09570433615579
 30
0.0
 11
72.30000091850565
 21
24.09570433615579
 31
0.0
  0
LINE
  5
CA
330
47
100
AcDbEntity
  8
1
  6
Continuous
 62
     6
100
AcDbLine
 10
-26.19999908149336
 20
24.09570433615579
 30
0.0
 11
-44.04480360824334
 21
24.09570433615579
 31
0.0
  0
LINE
  5
CB
330
47
100
AcDbEntity
  8
1
  6
Continuous
 62
     6
100
AcDbLine
 10
23.80000091850664
 20
24.09570433615579
 30
0.0
 11
67.30000091850665
 21
24.09570433615579
 31
0.0
  0
LINE
  5
CC
330
47
100
AcDbEntity
  8
1
  6
Continuous
 62
     6
100
AcDbLine
 10
-126.1999990814936
 20
24.09570433615579
 30
0.0
 11
-131.2448036082433
 21
24.09570433615579
 31
0.0
  0
LINE
  5
CD
330
47
100
AcDbEntity
  8
1
  6
Continuous
 62
     6
100
AcDbLine
 10
-76.19999908149333
 20
24.09570433615579
 30
0.0
 11
-62.24480360824336
 21
24.09570433615568
 31
0.0
  0
LINE
  5
CE
102
{ACAD_REACTORS
330
1B9
330
1BA
102
}
330
47
100
AcDbEntity
  8
0
  6
Continuous
 62
     2
100
AcDbLine
 10
-54.73017766609655
 20
36.16821909236791
 30
0.0
 11
-54.73017766609655
 21
36.77375438087469
 31
0.0
  0
LINE
  5
CF
102
{ACAD_REACTORS
330
1B9
330
1BA
102
}
330
47
100
AcDbEntity
  8
0
  6
Continuous
 62
     2
100
AcDbLine
 10
-54.73017766609655
 20
33.3680844857366
 30
0.0
 11
-54.73017766609655
 21
33.94993589243168
 31
0.0
  0
LINE
  5
D0
102
{ACAD_REACTORS
330
1BB
330
1BC
102
}
330
47
100
AcDbEntity
  8
0
  6
Continuous
 62
     2
100
AcDbLine
 10
-32.10069123061734
 20
33.65774855385959
 30
0.0
 11
-32.10069123061734
 21
31.3892043361721
 31
0.0
  0
LINE
  5
D1
102
{ACAD_REACTORS
330
1BB
330
1BC
102
}
330
47
100
AcDbEntity
  8
0
  6
Continuous
 62
     2
100
AcDbLine
 10
-33.48174500960494
 20
34.4430138599827
 30
0.0
 11
-30.09679949097625
 21
34.44301385998318
 31
0.0
  0
LINE
  5
D2
102
{ACAD_REACTORS
330
1BB
330
1BC
102
}
330
47
100
AcDbEntity
  8
0
  6
Continuous
 62
     2
100
AcDbLine
 10
-30.09679949097625
 20
33.65774855385959
 30
0.0
 11
-30.09679949097625
 21
34.44301385998318
 31
0.0
  0
LINE
  5
D3
102
{ACAD_REACTORS
330
1BB
330
1BC
102
}
330
47
100
AcDbEntity
  8
0
  6
Continuous
 62
     2
100
AcDbLine
 10
-30.90789852844964
 20
33.65774855385959
 30
0.0
 11
-30.09679949097625
 21
33.65774855385959
 31
0.0
  0
LINE
  5
D4
102
{ACAD_REACTORS
330
1BB
330
1BC
102
}
330
47
100
AcDbEntity
  8
0
  6
Continuous
 62
     2
100
AcDbLine
 10
-30.90789852844964
 20
31.3892043361721
 30
0.0
 11
-30.90789852844964
 21
33.65774855385959
 31
0.0
  0
LINE
  5
D5
102
{ACAD_REACTORS
330
1BB
330
1BC
102
}
330
47
100
AcDbEntity
  8
0
  6
Continuous
 62
     2
100
AcDbLine
 10
-32.10069123061734
 20
31.3892043361721
 30
0.0
 11
-30.90789852844964
 21
31.3892043361721
 31
0.0
  0
LINE
  5
D6
102
{ACAD_REACTORS
330
1B1
330
1B2
102
}
330
47
100
AcDbEntity
  8
0
  6
Continuous
 62
     2
100
AcDbLine
 10
-32.79728216868185
 20
37.80220433615759
 30
0.0
 11
-34.20000638643114
 21
37.80220433615759
 31
0.0
  0
LINE
  5
D7
102
{ACAD_REACTORS
330
1B1
330
1B2
102
}
330
47
100
AcDbEntity
  8
0
  6
Continuous
 62
     2
100
AcDbLine
 10
-32.79728216868185
 20
37.80220433615759
 30
0.0
 11
-32.19611464679005
 21
37.1223810146021
 31
0.0
  0
LINE
  5
D8
102
{ACAD_REACTORS
330
1B1
330
1B2
102
}
330
47
100
AcDbEntity
  8
0
  6
Continuous
 62
     2
100
AcDbLine
 10
-32.19611464679005
 20
37.1223810146021
 30
0.0
 11
-31.59494712489726
 21
37.80220433615759
 31
0.0
  0
LINE
  5
D9
102
{ACAD_REACTORS
330
1B1
330
1B2
102
}
330
47
100
AcDbEntity
  8
0
  6
Continuous
 62
     2
100
AcDbLine
 10
-31.49475253791655
 20
36.32925380612139
 30
0.0
 11
-30.19222290715004
 21
37.80220433615759
 31
0.0
  0
LINE
  5
DA
102
{ACAD_REACTORS
330
1B1
330
1B2
102
}
330
47
100
AcDbEntity
  8
0
  6
Continuous
 62
     2
100
AcDbLine
 10
-31.49475253791655
 20
36.32925380612139
 30
0.0
 11
-30.09679949097625
 21
34.74839481234639
 31
0.0
  0
LINE
  5
DB
102
{ACAD_REACTORS
330
1B1
330
1B2
102
}
330
47
100
AcDbEntity
  8
0
  6
Continuous
 62
     2
100
AcDbLine
 10
-31.49952370872455
 20
34.74839481234639
 30
0.0
 11
-30.09679949097625
 21
34.74839481234639
 31
0.0
  0
LINE
  5
DC
102
{ACAD_REACTORS
330
1B1
330
1B2
102
}
330
47
100
AcDbEntity
  8
0
  6
Continuous
 62
     2
100
AcDbLine
 10
-32.19611464679005
 20
35.53612659764011
 30
0.0
 11
-31.49952370872455
 21
34.74839481234639
 31
0.0
  0
LINE
  5
DD
102
{ACAD_REACTORS
330
1AF
330
1B0
102
}
330
47
100
AcDbEntity
  8
0
  6
Continuous
 62
     2
100
AcDbLine
 10
-35.65521348307374
 20
37.80220433615759
 30
0.0
 11
-34.41470907282084
 21
37.80220433615759
 31
0.0
  0
LINE
  5
DE
102
{ACAD_REACTORS
330
1AF
330
1B0
102
}
330
47
100
AcDbEntity
  8
0
  6
Continuous
 62
     2
100
AcDbLine
 10
-34.41470907282084
 20
37.80220433615759
 30
0.0
 11
-34.41470907282084
 21
34.74839481234639
 31
0.0
  0
LINE
  5
DF
102
{ACAD_REACTORS
330
1AF
330
1B0
102
}
330
47
100
AcDbEntity
  8
0
  6
Continuous
 62
     2
100
AcDbLine
 10
-35.65521348307374
 20
34.74839481234639
 30
0.0
 11
-35.65521348307374
 21
37.80220433615759
 31
0.0
  0
LINE
  5
E0
102
{ACAD_REACTORS
330
1AD
330
1AE
102
}
330
47
100
AcDbEntity
  8
0
  6
Continuous
 62
     2
100
AcDbLine
 10
-37.12352356561135
 20
32.61072814569658
 30
0.0
 11
-36.82335832841895
 21
33.37854311168329
 31
0.0
  0
LINE
  5
E1
102
{ACAD_REACTORS
330
1AD
330
1AE
102
}
330
47
100
AcDbEntity
  8
0
  6
Continuous
 62
     2
100
AcDbLine
 10
-37.60105917023216
 20
31.3892043361721
 30
0.0
 11
-37.38957911675635
 21
31.93016488038998
 31
0.0
  0
LINE
  5
E2
102
{ACAD_REACTORS
330
1AD
330
1AE
102
}
330
47
100
AcDbEntity
  8
0
  6
Continuous
 62
     2
100
AcDbLine
 10
-37.44361053354584
 20
34.44301385998318
 30
0.0
 11
-38.84156358048514
 21
31.3892043361721
 31
0.0
  0
LINE
  5
E3
102
{ACAD_REACTORS
330
1AD
330
1AE
102
}
330
47
100
AcDbEntity
  8
0
  6
Continuous
 62
     2
100
AcDbLine
 10
-34.80515307635284
 20
31.3892043361721
 30
0.0
 11
-36.04565748660676
 21
31.3892043361721
 31
0.0
  0
LINE
  5
E4
102
{ACAD_REACTORS
330
1AD
330
1AE
102
}
330
47
100
AcDbEntity
  8
0
  6
Continuous
 62
     2
100
AcDbLine
 10
-37.38957911675635
 20
31.93016488038998
 30
0.0
 11
-36.25713754008254
 21
31.93016488038998
 31
0.0
  0
LINE
  5
E5
102
{ACAD_REACTORS
330
1AB
330
1AC
102
}
330
47
100
AcDbEntity
  8
0
  6
Continuous
 62
     2
100
AcDbLine
 10
-40.99907571966736
 20
33.65774855385959
 30
0.0
 11
-40.18797668219276
 21
33.65774855385959
 31
0.0
  0
LINE
  5
E6
102
{ACAD_REACTORS
330
1AB
330
1AC
102
}
330
47
100
AcDbEntity
  8
0
  6
Continuous
 62
     2
100
AcDbLine
 10
-38.18408494255374
 20
34.44301385998318
 30
0.0
 11
-40.99907571966736
 21
34.44301385998318
 31
0.0
  0
LINE
  5
E7
102
{ACAD_REACTORS
330
1AB
330
1AC
102
}
330
47
100
AcDbEntity
  8
0
  6
Continuous
 62
     2
100
AcDbLine
 10
-38.18408494255374
 20
33.65774855385959
 30
0.0
 11
-38.18408494255374
 21
34.44301385998318
 31
0.0
  0
LINE
  5
E8
102
{ACAD_REACTORS
330
1AB
330
1AC
102
}
330
47
100
AcDbEntity
  8
0
  6
Continuous
 62
     2
100
AcDbLine
 10
-38.99518398002624
 20
33.65774855385959
 30
0.0
 11
-38.18408494255374
 21
33.65774855385959
 31
0.0
  0
LINE
  5
E9
102
{ACAD_REACTORS
330
1AB
330
1AC
102
}
330
47
100
AcDbEntity
  8
0
  6
Continuous
 62
     2
100
AcDbLine
 10
-38.99518398002624
 20
31.3892043361721
 30
0.0
 11
-38.99518398002624
 21
33.65774855385959
 31
0.0
  0
LINE
  5
EA
102
{ACAD_REACTORS
330
1A9
330
1AA
102
}
330
47
100
AcDbEntity
  8
0
  6
Continuous
 62
     2
100
AcDbLine
 10
-38.32706913592824
 20
34.74839481234639
 30
0.0
 11
-38.32706913592824
 21
36.05717032255109
 31
0.0
  0
LINE
  5
EB
102
{ACAD_REACTORS
330
1A9
330
1AA
102
}
330
47
100
AcDbEntity
  8
0
  6
Continuous
 62
     2
100
AcDbLine
 10
-39.51986183809476
 20
37.80220433615759
 30
0.0
 11
-39.51986183809476
 21
34.74839481234639
 31
0.0
  0
LINE
  5
EC
102
{ACAD_REACTORS
330
1A9
330
1AA
102
}
330
47
100
AcDbEntity
  8
0
  6
Continuous
 62
     2
100
AcDbLine
 10
-38.32706913592824
 20
37.80220433615759
 30
0.0
 11
-39.51986183809476
 21
37.80220433615759
 31
0.0
  0
LINE
  5
ED
102
{ACAD_REACTORS
330
1A9
330
1AA
102
}
330
47
100
AcDbEntity
  8
0
  6
Continuous
 62
     2
100
AcDbLine
 10
-37.08656472567424
 20
37.80220433615759
 30
0.0
 11
-37.08656472567424
 21
36.49342882595241
 31
0.0
  0
LINE
  5
EE
102
{ACAD_REACTORS
330
1A7
330
1A8
102
}
330
47
100
AcDbEntity
  8
0
  6
Continuous
 62
     2
100
AcDbLine
 10
-44.76830065851445
 20
34.44301385998318
 30
0.0
 11
-44.76830065851445
 21
31.3892043361721
 31
0.0
  0
LINE
  5
EF
102
{ACAD_REACTORS
330
1A7
330
1A8
102
}
330
47
100
AcDbEntity
  8
0
  6
Continuous
 62
     2
100
AcDbLine
 10
-43.57550795634685
 20
34.44301385998318
 30
0.0
 11
-44.76830065851445
 21
34.44301385998318
 31
0.0
  0
LINE
  5
F0
102
{ACAD_REACTORS
330
1A7
330
1A8
102
}
330
47
100
AcDbEntity
  8
0
  6
Continuous
 62
     2
100
AcDbLine
 10
-42.33500354609396
 20
31.3892043361721
 30
0.0
 11
-41.14221084392756
 21
31.3892043361721
 31
0.0
  0
LINE
  5
F1
102
{ACAD_REACTORS
330
1A7
330
1A8
102
}
330
47
100
AcDbEntity
  8
0
  6
Continuous
 62
     2
100
AcDbLine
 10
-44.76830065851445
 20
31.3892043361721
 30
0.0
 11
-43.57550795634685
 21
31.3892043361721
 31
0.0
  0
LINE
  5
F2
102
{ACAD_REACTORS
330
1B7
330
1B8
102
}
330
47
100
AcDbEntity
  8
0
  6
Continuous
 62
     2
100
AcDbLine
 10
-41.09434820495534
 20
36.6243063769729
 30
0.0
 11
-41.09434820495534
 21
37.10419073071461
 31
0.0
  0
LINE
  5
F3
102
{ACAD_REACTORS
330
1B7
330
1B8
102
}
330
47
100
AcDbEntity
  8
0
  6
Continuous
 62
     2
100
AcDbLine
 10
-39.75842037852766
 20
36.6243063769729
 30
0.0
 11
-41.09434820495534
 21
36.6243063769729
 31
0.0
  0
LINE
  5
F4
102
{ACAD_REACTORS
330
1B7
330
1B8
102
}
330
47
100
AcDbEntity
  8
0
  6
Continuous
 62
     2
100
AcDbLine
 10
-39.75842037852766
 20
35.9262927715306
 30
0.0
 11
-39.75842037852766
 21
36.6243063769729
 31
0.0
  0
LINE
  5
F5
102
{ACAD_REACTORS
330
1B7
330
1B8
102
}
330
47
100
AcDbEntity
  8
0
  6
Continuous
 62
     2
100
AcDbLine
 10
-41.09434820495534
 20
35.9262927715306
 30
0.0
 11
-39.75842037852766
 21
35.9262927715306
 31
0.0
  0
LINE
  5
F6
102
{ACAD_REACTORS
330
1A5
330
1A6
102
}
330
47
100
AcDbEntity
  8
0
  6
Continuous
 62
     2
100
AcDbLine
 10
-44.57730289528226
 20
37.80220433615759
 30
0.0
 11
-44.57730289528226
 21
34.74839481234639
 31
0.0
  0
LINE
  5
F7
102
{ACAD_REACTORS
330
1A5
330
1A6
102
}
330
47
100
AcDbEntity
  8
0
  6
Continuous
 62
     2
100
AcDbLine
 10
-44.57730289528226
 20
34.74839481234639
 30
0.0
 11
-45.77009559744866
 21
34.74839481234639
 31
0.0
  0
LINE
  5
F8
102
{ACAD_REACTORS
330
1A5
330
1A6
102
}
330
47
100
AcDbEntity
  8
0
  6
Continuous
 62
     2
100
AcDbLine
 10
-45.77009559744866
 20
34.74839481234639
 30
0.0
 11
-45.77009559744866
 21
35.88266692119021
 31
0.0
  0
LINE
  5
F9
102
{ACAD_REACTORS
330
1A5
330
1A6
102
}
330
47
100
AcDbEntity
  8
0
  6
Continuous
 62
     2
100
AcDbLine
 10
-46.81975317535614
 20
34.74839481234639
 30
0.0
 11
-48.01254587752274
 21
34.74839481234639
 31
0.0
  0
LINE
  5
FA
102
{ACAD_REACTORS
330
1A5
330
1A6
102
}
330
47
100
AcDbEntity
  8
0
  6
Continuous
 62
     2
100
AcDbLine
 10
-48.01254587752274
 20
37.80220433615759
 30
0.0
 11
-46.81975317535614
 21
37.80220433615759
 31
0.0
  0
LINE
  5
FB
102
{ACAD_REACTORS
330
1A5
330
1A6
102
}
330
47
100
AcDbEntity
  8
0
  6
Continuous
 62
     2
100
AcDbLine
 10
-46.81975317535614
 20
37.80220433615759
 30
0.0
 11
-46.81975317535614
 21
36.73337100282299
 31
0.0
  0
LINE
  5
FC
102
{ACAD_REACTORS
330
1A5
330
1A6
102
}
330
47
100
AcDbEntity
  8
0
  6
Continuous
 62
     2
100
AcDbLine
 10
-46.81975317535614
 20
36.73337100282299
 30
0.0
 11
-45.77009559744866
 21
36.73337100282299
 31
0.0
  0
LINE
  5
FD
102
{ACAD_REACTORS
330
1B3
330
1B4
102
}
330
47
100
AcDbEntity
  8
0
  6
Continuous
 62
     2
100
AcDbLine
 10
-49.96872590907634
 20
37.13909849071749
 30
0.0
 11
-49.65143084753444
 21
37.13909849071749
 31
0.0
  0
LINE
  5
FE
102
{ACAD_REACTORS
330
1B3
330
1B4
102
}
330
47
100
AcDbEntity
  8
0
  6
Continuous
 62
     2
100
AcDbLine
 10
-49.96872590907634
 20
36.43337084137528
 30
0.0
 11
-49.65143084753444
 21
36.43337084137528
 31
0.0
  0
LINE
  5
FF
102
{ACAD_REACTORS
330
1B3
330
1B4
102
}
330
47
100
AcDbEntity
  8
0
  6
Continuous
 62
     2
100
AcDbLine
 10
-51.20923031933046
 20
37.80220433615759
 30
0.0
 11
-51.20923031933046
 21
34.74839481234639
 31
0.0
  0
LINE
  5
100
102
{ACAD_REACTORS
330
1B3
330
1B4
102
}
330
47
100
AcDbEntity
  8
0
  6
Continuous
 62
     2
100
AcDbLine
 10
-51.20923031933046
 20
37.80220433615759
 30
0.0
 11
-49.20995832129606
 21
37.80220433615759
 31
0.0
  0
LINE
  5
101
102
{ACAD_REACTORS
330
1B3
330
1B4
102
}
330
47
100
AcDbEntity
  8
0
  6
Continuous
 62
     2
100
AcDbLine
 10
-49.96872590907634
 20
35.6914730534902
 30
0.0
 11
-49.20995832129606
 21
35.6914730534902
 31
0.0
  0
LINE
  5
102
102
{ACAD_REACTORS
330
1B9
330
1BA
102
}
330
47
100
AcDbEntity
  8
0
  6
Continuous
 62
     2
100
AcDbLine
 10
-57.30572635262715
 20
36.7739318575228
 30
0.0
 11
-57.30572635262715
 21
32.4174768148057
 31
0.0
  0
LINE
  5
103
102
{ACAD_REACTORS
330
1B9
330
1BA
102
}
330
47
100
AcDbEntity
  8
0
  6
Continuous
 62
     2
100
AcDbLine
 10
-56.99000942955146
 20
37.08964878059899
 30
0.0
 11
-55.51417616854184
 21
37.08964878059899
 31
0.0
  0
LINE
  5
104
102
{ACAD_REACTORS
330
1B9
330
1BA
102
}
330
47
100
AcDbEntity
  8
0
  6
Continuous
 62
     2
100
AcDbLine
 10
-55.19845924546524
 20
36.16990723846229
 30
0.0
 11
-55.19845924546524
 21
36.7739318575228
 31
0.0
  0
LINE
  5
105
102
{ACAD_REACTORS
330
1B9
330
1BA
102
}
330
47
100
AcDbEntity
  8
0
  6
Continuous
 62
     2
100
AcDbLine
 10
-55.19845924546524
 20
32.4174768148057
 30
0.0
 11
-55.19845924546524
 21
33.9482477463373
 31
0.0
  0
LINE
  5
106
102
{ACAD_REACTORS
330
1B9
330
1BA
102
}
330
47
100
AcDbEntity
  8
0
  6
Continuous
 62
     2
100
AcDbLine
 10
-52.11059201558115
 20
31.3892043361721
 30
0.0
 11
-57.58390410629795
 21
31.3892043361721
 31
0.0
  0
LINE
  5
107
102
{ACAD_REACTORS
330
1B9
330
1BA
102
}
330
47
100
AcDbEntity
  8
0
  6
Continuous
 62
     2
100
AcDbLine
 10
-51.68634740019726
 20
37.3779597207556
 30
0.0
 11
-51.68634740019726
 21
31.81344895155539
 31
0.0
  0
LINE
  5
108
102
{ACAD_REACTORS
330
1B9
330
1BA
102
}
330
47
100
AcDbEntity
  8
0
  6
Continuous
 62
     2
100
AcDbLine
 10
-57.58390410629795
 20
37.8022043361394
 30
0.0
 11
-52.11059201558115
 21
37.8022043361394
 31
0.0
  0
LINE
  5
109
102
{ACAD_REACTORS
330
1B9
330
1BA
102
}
330
47
100
AcDbEntity
  8
0
  6
Continuous
 62
     2
100
AcDbLine
 10
-58.00814872168076
 20
37.3779597207556
 30
0.0
 11
-58.00814872168076
 21
31.81344895155539
 31
0.0
  0
LINE
  5
10A
102
{ACAD_REACTORS
330
1B9
330
1BA
102
}
330
47
100
AcDbEntity
  8
0
  6
Continuous
 62
     2
100
AcDbLine
 10
-55.51417616854184
 20
32.10175989172899
 30
0.0
 11
-56.99000942955146
 21
32.10175989172899
 31
0.0
  0
LINE
  5
10B
102
{ACAD_REACTORS
330
1B3
330
1B4
102
}
330
47
100
AcDbEntity
  8
0
  6
Continuous
 62
     2
100
AcDbLine
 10
-49.96872590907634
 20
34.74839481234639
 30
0.0
 11
-49.96872590907634
 21
35.6914730534902
 31
0.0
  0
LINE
  5
10C
102
{ACAD_REACTORS
330
1B3
330
1B4
102
}
330
47
100
AcDbEntity
  8
0
  6
Continuous
 62
     2
100
AcDbLine
 10
-51.20923031933046
 20
34.74839481234639
 30
0.0
 11
-49.96872590907634
 21
34.74839481234639
 31
0.0
  0
LINE
  5
10D
102
{ACAD_REACTORS
330
1B3
330
1B4
102
}
330
47
100
AcDbEntity
  8
0
  6
Continuous
 62
     2
100
AcDbLine
 10
-49.96872590907634
 20
36.43337084137528
 30
0.0
 11
-49.96872590907634
 21
37.13909849071749
 31
0.0
  0
LINE
  5
10E
102
{ACAD_REACTORS
330
1A5
330
1A6
102
}
330
47
100
AcDbEntity
  8
0
  6
Continuous
 62
     2
100
AcDbLine
 10
-48.01254587752274
 20
37.80220433615759
 30
0.0
 11
-48.01254587752274
 21
34.74839481234639
 31
0.0
  0
LINE
  5
10F
102
{ACAD_REACTORS
330
1A5
330
1A6
102
}
330
47
100
AcDbEntity
  8
0
  6
Continuous
 62
     2
100
AcDbLine
 10
-46.81975317535614
 20
35.88266692119021
 30
0.0
 11
-46.81975317535614
 21
34.74839481234639
 31
0.0
  0
LINE
  5
110
102
{ACAD_REACTORS
330
1A5
330
1A6
102
}
330
47
100
AcDbEntity
  8
0
  6
Continuous
 62
     2
100
AcDbLine
 10
-45.77009559744866
 20
35.88266692119021
 30
0.0
 11
-46.81975317535614
 21
35.88266692119021
 31
0.0
  0
LINE
  5
111
102
{ACAD_REACTORS
330
1A5
330
1A6
102
}
330
47
100
AcDbEntity
  8
0
  6
Continuous
 62
     2
100
AcDbLine
 10
-45.77009559744866
 20
37.80220433615759
 30
0.0
 11
-44.57730289528226
 21
37.80220433615759
 31
0.0
  0
LINE
  5
112
102
{ACAD_REACTORS
330
1A5
330
1A6
102
}
330
47
100
AcDbEntity
  8
0
  6
Continuous
 62
     2
100
AcDbLine
 10
-45.77009559744866
 20
36.73337100282299
 30
0.0
 11
-45.77009559744866
 21
37.80220433615759
 31
0.0
  0
LINE
  5
113
102
{ACAD_REACTORS
330
1B7
330
1B8
102
}
330
47
100
AcDbEntity
  8
0
  6
Continuous
 62
     2
100
AcDbLine
 10
-39.75842037852766
 20
37.10419073071461
 30
0.0
 11
-39.75842037852766
 21
37.80220433615759
 31
0.0
  0
LINE
  5
114
102
{ACAD_REACTORS
330
1B7
330
1B8
102
}
330
47
100
AcDbEntity
  8
0
  6
Continuous
 62
     2
100
AcDbLine
 10
-42.90874010230866
 20
37.80220433615759
 30
0.0
 11
-39.75842037852766
 21
37.80220433615759
 31
0.0
  0
LINE
  5
115
102
{ACAD_REACTORS
330
1B7
330
1B8
102
}
330
47
100
AcDbEntity
  8
0
  6
Continuous
 62
     2
100
AcDbLine
 10
-42.90874010230866
 20
34.74839481234639
 30
0.0
 11
-39.75842037852766
 21
34.74839481234639
 31
0.0
  0
LINE
  5
116
102
{ACAD_REACTORS
330
1B7
330
1B8
102
}
330
47
100
AcDbEntity
  8
0
  6
Continuous
 62
     2
100
AcDbLine
 10
-39.75842037852766
 20
34.74839481234639
 30
0.0
 11
-39.75842037852766
 21
35.44640841778889
 31
0.0
  0
LINE
  5
117
102
{ACAD_REACTORS
330
1B7
330
1B8
102
}
330
47
100
AcDbEntity
  8
0
  6
Continuous
 62
     2
100
AcDbLine
 10
-39.75842037852766
 20
35.44640841778889
 30
0.0
 11
-41.09434820495534
 21
35.44640841778889
 31
0.0
  0
LINE
  5
118
102
{ACAD_REACTORS
330
1B7
330
1B8
102
}
330
47
100
AcDbEntity
  8
0
  6
Continuous
 62
     2
100
AcDbLine
 10
-41.09434820495534
 20
35.44640841778889
 30
0.0
 11
-41.09434820495534
 21
35.9262927715306
 31
0.0
  0
LINE
  5
119
102
{ACAD_REACTORS
330
1B7
330
1B8
102
}
330
47
100
AcDbEntity
  8
0
  6
Continuous
 62
     2
100
AcDbLine
 10
-41.09434820495534
 20
37.10419073071461
 30
0.0
 11
-39.75842037852766
 21
37.10419073071461
 31
0.0
  0
LINE
  5
11A
102
{ACAD_REACTORS
330
1A7
330
1A8
102
}
330
47
100
AcDbEntity
  8
0
  6
Continuous
 62
     2
100
AcDbLine
 10
-43.57550795634685
 20
31.3892043361721
 30
0.0
 11
-43.57550795634685
 21
32.69797984637668
 31
0.0
  0
LINE
  5
11B
102
{ACAD_REACTORS
330
1A7
330
1A8
102
}
330
47
100
AcDbEntity
  8
0
  6
Continuous
 62
     2
100
AcDbLine
 10
-43.57550795634685
 20
32.69797984637668
 30
0.0
 11
-42.33500354609396
 21
31.3892043361721
 31
0.0
  0
LINE
  5
11C
102
{ACAD_REACTORS
330
1A7
330
1A8
102
}
330
47
100
AcDbEntity
  8
0
  6
Continuous
 62
     2
100
AcDbLine
 10
-41.14221084392756
 20
31.3892043361721
 30
0.0
 11
-41.14221084392756
 21
34.44301385998318
 31
0.0
  0
LINE
  5
11D
102
{ACAD_REACTORS
330
1A7
330
1A8
102
}
330
47
100
AcDbEntity
  8
0
  6
Continuous
 62
     2
100
AcDbLine
 10
-41.14221084392756
 20
34.44301385998318
 30
0.0
 11
-42.33500354609396
 21
34.44301385998318
 31
0.0
  0
LINE
  5
11E
102
{ACAD_REACTORS
330
1A7
330
1A8
102
}
330
47
100
AcDbEntity
  8
0
  6
Continuous
 62
     2
100
AcDbLine
 10
-42.33500354609396
 20
34.44301385998318
 30
0.0
 11
-42.33500354609396
 21
33.13423834977809
 31
0.0
  0
LINE
  5
11F
102
{ACAD_REACTORS
330
1A7
330
1A8
102
}
330
47
100
AcDbEntity
  8
0
  6
Continuous
 62
     2
100
AcDbLine
 10
-42.33500354609396
 20
33.13423834977809
 30
0.0
 11
-43.57550795634685
 21
34.44301385998318
 31
0.0
  0
LINE
  5
120
102
{ACAD_REACTORS
330
1A9
330
1AA
102
}
330
47
100
AcDbEntity
  8
0
  6
Continuous
 62
     2
100
AcDbLine
 10
-38.32706913592824
 20
36.05717032255109
 30
0.0
 11
-37.08656472567424
 21
34.74839481234639
 31
0.0
  0
LINE
  5
121
102
{ACAD_REACTORS
330
1A9
330
1AA
102
}
330
47
100
AcDbEntity
  8
0
  6
Continuous
 62
     2
100
AcDbLine
 10
-37.08656472567424
 20
34.74839481234639
 30
0.0
 11
-35.89377202350764
 21
34.74839481234639
 31
0.0
  0
LINE
  5
122
102
{ACAD_REACTORS
330
1A9
330
1AA
102
}
330
47
100
AcDbEntity
  8
0
  6
Continuous
 62
     2
100
AcDbLine
 10
-35.89377202350764
 20
34.74839481234639
 30
0.0
 11
-35.89377202350764
 21
37.80220433615759
 31
0.0
  0
LINE
  5
123
102
{ACAD_REACTORS
330
1A9
330
1AA
102
}
330
47
100
AcDbEntity
  8
0
  6
Continuous
 62
     2
100
AcDbLine
 10
-35.89377202350764
 20
37.80220433615759
 30
0.0
 11
-37.08656472567424
 21
37.80220433615759
 31
0.0
  0
LINE
  5
124
102
{ACAD_REACTORS
330
1A9
330
1AA
102
}
330
47
100
AcDbEntity
  8
0
  6
Continuous
 62
     2
100
AcDbLine
 10
-37.08656472567424
 20
36.49342882595241
 30
0.0
 11
-38.32706913592824
 21
37.80220433615759
 31
0.0
  0
LINE
  5
125
102
{ACAD_REACTORS
330
1A9
330
1AA
102
}
330
47
100
AcDbEntity
  8
0
  6
Continuous
 62
     2
100
AcDbLine
 10
-39.51986183809476
 20
34.74839481234639
 30
0.0
 11
-38.32706913592824
 21
34.74839481234639
 31
0.0
  0
LINE
  5
126
102
{ACAD_REACTORS
330
1AB
330
1AC
102
}
330
47
100
AcDbEntity
  8
0
  6
Continuous
 62
     2
100
AcDbLine
 10
-40.99907571966736
 20
34.44301385998318
 30
0.0
 11
-40.99907571966736
 21
33.65774855385959
 31
0.0
  0
LINE
  5
127
102
{ACAD_REACTORS
330
1AB
330
1AC
102
}
330
47
100
AcDbEntity
  8
0
  6
Continuous
 62
     2
100
AcDbLine
 10
-40.18797668219276
 20
33.65774855385959
 30
0.0
 11
-40.18797668219276
 21
31.3892043361721
 31
0.0
  0
LINE
  5
128
102
{ACAD_REACTORS
330
1AB
330
1AC
102
}
330
47
100
AcDbEntity
  8
0
  6
Continuous
 62
     2
100
AcDbLine
 10
-40.18797668219276
 20
31.3892043361721
 30
0.0
 11
-38.99518398002624
 21
31.3892043361721
 31
0.0
  0
LINE
  5
129
102
{ACAD_REACTORS
330
1AD
330
1AE
102
}
330
47
100
AcDbEntity
  8
0
  6
Continuous
 62
     2
100
AcDbLine
 10
-36.04565748660676
 20
31.3892043361721
 30
0.0
 11
-36.25713754008254
 21
31.93016488038998
 31
0.0
  0
LINE
  5
12A
102
{ACAD_REACTORS
330
1AD
330
1AE
102
}
330
47
100
AcDbEntity
  8
0
  6
Continuous
 62
     2
100
AcDbLine
 10
-36.20310612329314
 20
34.44301385998318
 30
0.0
 11
-34.80515307635284
 21
31.3892043361721
 31
0.0
  0
LINE
  5
12B
102
{ACAD_REACTORS
330
1AD
330
1AE
102
}
330
47
100
AcDbEntity
  8
0
  6
Continuous
 62
     2
100
AcDbLine
 10
-37.44361053354584
 20
34.44301385998318
 30
0.0
 11
-36.20310612329314
 21
34.44301385998318
 31
0.0
  0
LINE
  5
12C
102
{ACAD_REACTORS
330
1AD
330
1AE
102
}
330
47
100
AcDbEntity
  8
0
  6
Continuous
 62
     2
100
AcDbLine
 10
-38.84156358048514
 20
31.3892043361721
 30
0.0
 11
-37.60105917023216
 21
31.3892043361721
 31
0.0
  0
LINE
  5
12D
102
{ACAD_REACTORS
330
1AD
330
1AE
102
}
330
47
100
AcDbEntity
  8
0
  6
Continuous
 62
     2
100
AcDbLine
 10
-37.12352356561135
 20
32.61072814569658
 30
0.0
 11
-36.52319309122885
 21
32.61072814569658
 31
0.0
  0
LINE
  5
12E
102
{ACAD_REACTORS
330
1AD
330
1AE
102
}
330
47
100
AcDbEntity
  8
0
  6
Continuous
 62
     2
100
AcDbLine
 10
-36.52319309122885
 20
32.61072814569658
 30
0.0
 11
-36.82335832841895
 21
33.37854311168329
 31
0.0
  0
LINE
  5
12F
102
{ACAD_REACTORS
330
1AF
330
1B0
102
}
330
47
100
AcDbEntity
  8
0
  6
Continuous
 62
     2
100
AcDbLine
 10
-34.41470907282084
 20
34.74839481234639
 30
0.0
 11
-35.65521348307374
 21
34.74839481234639
 31
0.0
  0
LINE
  5
130
102
{ACAD_REACTORS
330
1B1
330
1B2
102
}
330
47
100
AcDbEntity
  8
0
  6
Continuous
 62
     2
100
AcDbLine
 10
-32.89270558485575
 20
34.74839481234639
 30
0.0
 11
-34.29542980260396
 21
34.74839481234639
 31
0.0
  0
LINE
  5
131
102
{ACAD_REACTORS
330
1B1
330
1B2
102
}
330
47
100
AcDbEntity
  8
0
  6
Continuous
 62
     2
100
AcDbLine
 10
-32.89270558485575
 20
34.74839481234639
 30
0.0
 11
-32.19611464679005
 21
35.53612659764011
 31
0.0
  0
LINE
  5
132
102
{ACAD_REACTORS
330
1B1
330
1B2
102
}
330
47
100
AcDbEntity
  8
0
  6
Continuous
 62
     2
100
AcDbLine
 10
-31.59494712489726
 20
37.80220433615759
 30
0.0
 11
-30.19222290715004
 21
37.80220433615759
 31
0.0
  0
LINE
  5
133
102
{ACAD_REACTORS
330
1B1
330
1B2
102
}
330
47
100
AcDbEntity
  8
0
  6
Continuous
 62
     2
100
AcDbLine
 10
-34.20000638643114
 20
37.80220433615759
 30
0.0
 11
-32.89747675566366
 21
36.32925380612139
 31
0.0
  0
LINE
  5
134
102
{ACAD_REACTORS
330
1B1
330
1B2
102
}
330
47
100
AcDbEntity
  8
0
  6
Continuous
 62
     2
100
AcDbLine
 10
-34.29542980260396
 20
34.74839481234639
 30
0.0
 11
-32.89747675566366
 21
36.32925380612139
 31
0.0
  0
LINE
  5
135
102
{ACAD_REACTORS
330
1BB
330
1BC
102
}
330
47
100
AcDbEntity
  8
0
  6
Continuous
 62
     2
100
AcDbLine
 10
-32.43467318722404
 20
32.4362247443357
 30
0.0
 11
-32.43467318722404
 21
31.56370773753238
 31
0.0
  0
LINE
  5
136
102
{ACAD_REACTORS
330
1BB
330
1BC
102
}
330
47
100
AcDbEntity
  8
0
  6
Continuous
 62
     2
100
AcDbLine
 10
-33.20433053018545
 20
33.65774855385959
 30
0.0
 11
-32.10069123061734
 21
33.65774855385959
 31
0.0
  0
LINE
  5
137
102
{ACAD_REACTORS
330
1BD
330
1BE
102
}
330
47
100
AcDbEntity
  8
0
  6
Continuous
 62
     2
100
AcDbLine
 10
-48.53737466647596
 20
32.43622474433619
 30
0.0
 11
-48.53737466647596
 21
31.56370773753298
 31
0.0
  0
LINE
  5
138
102
{ACAD_REACTORS
330
1BD
330
1BE
102
}
330
47
100
AcDbEntity
  8
0
  6
Continuous
 62
     2
100
AcDbLine
 10
-48.53737466647596
 20
33.3959934518191
 30
0.0
 11
-48.53737466647596
 21
34.26851045862239
 31
0.0
  0
LINE
  5
139
330
47
100
AcDbEntity
  8
1
  6
Continuous
 62
     7
100
AcDbLine
 10
67.30000091850795
 20
32.59570433615579
 30
0.0
 11
-25.84480360824344
 21
32.59570433615579
 31
0.0
  0
LINE
  5
13A
330
47
100
AcDbEntity
  8
1
  6
Continuous
 62
     6
100
AcDbLine
 10
-131.2448036082433
 20
24.09570433615579
 30
0.0
 11
-176.1999990814933
 21
24.09570433615579
 31
0.0
  0
LINE
  5
13B
330
47
100
AcDbEntity
  8
1
  6
Continuous
 62
     7
100
AcDbLine
 10
58.38159263682914
 20
49.59570433615579
 30
0.0
 11
58.38159263682914
 21
41.09570433615579
 31
0.0
  0
LINE
  5
13C
330
47
100
AcDbEntity
  8
1
  6
Continuous
 62
     7
100
AcDbLine
 10
31.88159263682954
 20
49.59570433615579
 30
0.0
 11
31.88159263682954
 21
41.09570433615579
 31
0.0
  0
LINE
  5
13D
330
47
100
AcDbEntity
  8
1
  6
Continuous
 62
     7
100
AcDbLine
 10
-25.84480360824344
 20
41.09570433615579
 30
0.0
 11
-25.84480360824344
 21
49.59570433615579
 31
0.0
  0
LINE
  5
13E
330
47
100
AcDbEntity
  8
1
  6
Continuous
 62
     7
100
AcDbLine
 10
-62.24480360824336
 20
41.09570433615579
 30
0.0
 11
-62.24480360824336
 21
49.59570433615579
 31
0.0
  0
LINE
  5
13F
330
47
100
AcDbEntity
  8
1
  6
Continuous
 62
     6
100
AcDbLine
 10
-25.84480360824344
 20
41.09570433615579
 30
0.0
 11
67.30000091850835
 21
41.09570433615579
 31
0.0
  0
LINE
  5
140
330
47
100
AcDbEntity
  8
1
  6
Continuous
 62
     7
100
AcDbLine
 10
2.05519639175665
 20
32.59570433615571
 30
0.0
 11
2.05519639175665
 21
41.09570433615579
 31
0.0
  0
LINE
  5
141
330
47
100
AcDbEntity
  8
1
  6
PHANTOM
 62
     2
100
AcDbLine
 10
-46.75814872168076
 20
45.22070433615571
 30
0.0
 11
-52.25814872168076
 21
45.22070433615571
 31
0.0
  0
LINE
  5
142
330
47
100
AcDbEntity
  8
1
  6
PHANTOM
 62
     2
100
AcDbLine
 10
-49.50814872168076
 20
47.97070433615571
 30
0.0
 11
-49.50814872168076
 21
42.47070433615571
 31
0.0
  0
LINE
  5
143
330
47
100
AcDbEntity
  8
1
  6
DOT_CENTER
 62
     2
100
AcDbLine
 10
-58.25814872168076
 20
45.22070433615571
 30
0.0
 11
-52.75814872168076
 21
45.22070433615571
 31
0.0
  0
ARC
  5
144
102
{ACAD_REACTORS
330
1BD
330
1BE
102
}
330
47
100
AcDbEntity
  8
0
  6
Continuous
 62
     2
100
AcDbCircle
 10
-49.87330258359376
 20
29.60342815282149
 30
0.0
 40
4.852596863498071
100
AcDbArc
 50
74.02000874164739
 51
84.84185523037499
  0
ARC
  5
145
102
{ACAD_REACTORS
330
1BD
330
1BE
102
}
330
47
100
AcDbEntity
  8
0
  6
Continuous
 62
     2
100
AcDbCircle
 10
-49.29726197484004
 20
32.75918850870579
 30
0.0
 40
0.9059297849853228
100
AcDbArc
 50
71.55192388185348
 51
113.3722778881291
  0
ARC
  5
146
102
{ACAD_REACTORS
330
1BD
330
1BE
102
}
330
47
100
AcDbEntity
  8
0
  6
Continuous
 62
     2
100
AcDbCircle
 10
-49.45370200754206
 20
32.7110376687389
 30
0.0
 40
0.5115800601948067
100
AcDbArc
 50
208.5214732576963
 51
246.6277221118277
  0
ARC
  5
147
102
{ACAD_REACTORS
330
1BD
330
1BE
102
}
330
47
100
AcDbEntity
  8
0
  6
Continuous
 62
     2
100
AcDbCircle
 10
-49.29726197484004
 20
33.07302968744889
 30
0.0
 40
0.9059297849849127
100
AcDbArc
 50
246.6277221118709
 51
288.4480761181586
  0
ARC
  5
148
102
{ACAD_REACTORS
330
1BD
330
1BE
102
}
330
47
100
AcDbEntity
  8
0
  6
Continuous
 62
     2
100
AcDbCircle
 10
-49.71542970850084
 20
34.32657546348608
 30
0.0
 40
2.227384008972739
100
AcDbArc
 50
288.448076118133
 51
301.9309089499593
  0
ARC
  5
149
102
{ACAD_REACTORS
330
1B9
330
1BA
102
}
330
47
100
AcDbEntity
  8
0
  6
Continuous
 62
     2
100
AcDbCircle
 10
-54.94050344110764
 20
35.05907749240009
 30
0.0
 40
0.911848150144456
100
AcDbArc
 50
295.374008678176
 51
64.62599132180786
  0
ARC
  5
14A
102
{ACAD_REACTORS
330
1B9
330
1BA
102
}
330
47
100
AcDbEntity
  8
0
  6
Continuous
 62
     2
100
AcDbCircle
 10
-54.41446074301976
 20
36.77375438087469
 30
0.0
 40
0.3157169230760711
100
AcDbArc
 50
90.18896704254594
 51
180.0
  0
ARC
  5
14B
102
{ACAD_REACTORS
330
1BB
330
1BC
102
}
330
47
100
AcDbEntity
  8
0
  6
Continuous
 62
     2
100
AcDbCircle
 10
-33.20433053018545
 20
32.7032255470335
 30
0.0
 40
0.9545230068260935
100
AcDbArc
 50
90.0
 51
109.337143219432
  0
ARC
  5
14C
102
{ACAD_REACTORS
330
1BB
330
1BC
102
}
330
47
100
AcDbEntity
  8
0
  6
Continuous
 62
     2
100
AcDbCircle
 10
-32.97364327020776
 20
32.91610909807739
 30
0.0
 40
0.9410597353348953
100
AcDbArc
 50
151.478526742363
 51
208.5214732576693
  0
ARC
  5
14D
102
{ACAD_REACTORS
330
1BB
330
1BC
102
}
330
47
100
AcDbEntity
  8
0
  6
Continuous
 62
     2
100
AcDbCircle
 10
-33.19456049558605
 20
33.07302968744889
 30
0.0
 40
0.9059297849852708
100
AcDbArc
 50
246.6277221118185
 51
288.4480761180823
  0
ARC
  5
14E
102
{ACAD_REACTORS
330
1BB
330
1BC
102
}
330
47
100
AcDbEntity
  8
0
  6
Continuous
 62
     2
100
AcDbCircle
 10
-33.61272822924795
 20
34.32657546348548
 30
0.0
 40
2.227384008972746
100
AcDbArc
 50
288.4480761181335
 51
301.9309089499396
  0
ARC
  5
14F
102
{ACAD_REACTORS
330
1BB
330
1BC
102
}
330
47
100
AcDbEntity
  8
0
  6
Continuous
 62
     2
100
AcDbCircle
 10
-33.77060110434076
 20
36.22879004333379
 30
0.0
 40
4.852596863498825
100
AcDbArc
 50
275.1581447696364
 51
285.9799912583387
  0
ARC
  5
150
102
{ACAD_REACTORS
330
1BB
330
1BC
102
}
330
47
100
AcDbEntity
  8
0
  6
Continuous
 62
     2
100
AcDbCircle
 10
-33.48174500960494
 20
33.0288994601122
 30
0.0
 40
1.639695123940442
100
AcDbArc
 50
195.0618917771013
 51
275.1581447696765
  0
ARC
  5
151
102
{ACAD_REACTORS
330
1B3
330
1B4
102
}
330
47
100
AcDbEntity
  8
0
  6
Continuous
 62
     2
100
AcDbCircle
 10
-49.20995832129606
 20
36.74683869482391
 30
0.0
 40
1.055365641333708
100
AcDbArc
 50
270.0
 51
90.0
  0
ARC
  5
152
102
{ACAD_REACTORS
330
1B9
330
1BA
102
}
330
47
100
AcDbEntity
  8
0
  6
Continuous
 62
     2
100
AcDbCircle
 10
-56.99000942955146
 20
32.4174768148057
 30
0.0
 40
0.3157169230756836
100
AcDbArc
 50
180.0
 51
270.0
  0
ARC
  5
153
102
{ACAD_REACTORS
330
1B9
330
1BA
102
}
330
47
100
AcDbEntity
  8
0
  6
Continuous
 62
     2
100
AcDbCircle
 10
-55.51417616854184
 20
36.7739318575228
 30
0.0
 40
0.3157169230766002
100
AcDbArc
 50
0.0
 51
90.0
  0
ARC
  5
154
102
{ACAD_REACTORS
330
1B9
330
1BA
102
}
330
47
100
AcDbEntity
  8
0
  6
Continuous
 62
     2
100
AcDbCircle
 10
-55.51417616854184
 20
36.16990723846229
 30
0.0
 40
0.3157169230761203
100
AcDbArc
 50
295.1944106485397
 51
0.0
  0
ARC
  5
155
102
{ACAD_REACTORS
330
1B9
330
1BA
102
}
330
47
100
AcDbEntity
  8
0
  6
Continuous
 62
     2
100
AcDbCircle
 10
-55.51417616854184
 20
32.4174768148057
 30
0.0
 40
0.3157169230767138
100
AcDbArc
 50
270.0
 51
0.0
  0
ARC
  5
156
102
{ACAD_REACTORS
330
1B9
330
1BA
102
}
330
47
100
AcDbEntity
  8
0
  6
Continuous
 62
     2
100
AcDbCircle
 10
-57.58390410629795
 20
37.3779597207556
 30
0.0
 40
0.4242446153837989
100
AcDbArc
 50
90.0
 51
180.0
  0
ARC
  5
157
102
{ACAD_REACTORS
330
1B9
330
1BA
102
}
330
47
100
AcDbEntity
  8
0
  6
Continuous
 62
     2
100
AcDbCircle
 10
-52.11059201558115
 20
37.3779597207556
 30
0.0
 40
0.4242446153838841
100
AcDbArc
 50
0.0
 51
90.0
  0
ARC
  5
158
102
{ACAD_REACTORS
330
1B9
330
1BA
102
}
330
47
100
AcDbEntity
  8
0
  6
Continuous
 62
     2
100
AcDbCircle
 10
-52.11059201558115
 20
31.81344895155539
 30
0.0
 40
0.4242446153832908
100
AcDbArc
 50
270.0
 51
0.0
  0
ARC
  5
159
102
{ACAD_REACTORS
330
1B7
330
1B8
102
}
330
47
100
AcDbEntity
  8
0
  6
Continuous
 62
     2
100
AcDbCircle
 10
-42.89220812848964
 20
36.2752995742517
 30
0.0
 40
0.7717997786796329
100
AcDbArc
 50
321.8795802028442
 51
38.12041979715956
  0
ARC
  5
15A
102
{ACAD_REACTORS
330
1B7
330
1B8
102
}
330
47
100
AcDbEntity
  8
0
  6
Continuous
 62
     2
100
AcDbCircle
 10
-42.69246809214346
 20
36.11856839613128
 30
0.0
 40
0.5179085730134372
100
AcDbArc
 50
218.1204197971511
 51
321.8795802028566
  0
ARC
  5
15B
102
{ACAD_REACTORS
330
1B5
330
1B6
102
}
330
47
100
AcDbEntity
  8
0
  6
Continuous
 62
     2
100
AcDbCircle
 10
-46.37247568110365
 20
32.91610909807739
 30
0.0
 40
1.458034083652002
100
AcDbArc
 50
297.5481481757007
 51
62.45185182429893
  0
ARC
  5
15C
102
{ACAD_REACTORS
330
1B5
330
1B6
102
}
330
47
100
AcDbEntity
  8
0
  6
Continuous
 62
     2
100
AcDbCircle
 10
-46.93435546477025
 20
32.91610909807739
 30
0.0
 40
1.458034083651478
100
AcDbArc
 50
117.5481481756627
 51
242.4518518243376
  0
ARC
  5
15D
102
{ACAD_REACTORS
330
1B5
330
1B6
102
}
330
47
100
AcDbEntity
  8
0
  6
Continuous
 62
     2
100
AcDbCircle
 10
-46.65341557293695
 20
32.37753408777459
 30
0.0
 40
2.065479772208558
100
AcDbArc
 50
62.45185182430646
 51
117.5481481756665
  0
ARC
  5
15E
102
{ACAD_REACTORS
330
1B5
330
1B6
102
}
330
47
100
AcDbEntity
  8
0
  6
Continuous
 62
     2
100
AcDbCircle
 10
-46.65341557293695
 20
33.45468410838069
 30
0.0
 40
2.065479772208505
100
AcDbArc
 50
242.4518518243401
 51
297.5481481756869
  0
ARC
  5
15F
102
{ACAD_REACTORS
330
1B7
330
1B8
102
}
330
47
100
AcDbEntity
  8
0
  6
Continuous
 62
     2
100
AcDbCircle
 10
-42.49272805579716
 20
36.2752995742517
 30
0.0
 40
0.7717997786796724
100
AcDbArc
 50
141.8795802028404
 51
218.1204197971558
  0
ARC
  5
160
102
{ACAD_REACTORS
330
1B7
330
1B8
102
}
330
47
100
AcDbEntity
  8
0
  6
Continuous
 62
     2
100
AcDbCircle
 10
-42.69246809214346
 20
36.43203075237219
 30
0.0
 40
0.5179085730135178
100
AcDbArc
 50
38.12041979714211
 51
141.8795802028501
  0
ARC
  5
161
102
{ACAD_REACTORS
330
1B9
330
1BA
102
}
330
47
100
AcDbEntity
  8
0
  6
Continuous
 62
     2
100
AcDbCircle
 10
-57.58390410629795
 20
31.81344895155539
 30
0.0
 40
0.4242446153828112
100
AcDbArc
 50
180.0
 51
270.0
  0
ARC
  5
162
102
{ACAD_REACTORS
330
1B9
330
1BA
102
}
330
47
100
AcDbEntity
  8
0
  6
Continuous
 62
     2
100
AcDbCircle
 10
-55.51417616854184
 20
33.9482477463373
 30
0.0
 40
0.3157169230766002
100
AcDbArc
 50
0.0
 51
64.80558935146027
  0
ARC
  5
163
102
{ACAD_REACTORS
330
1B9
330
1BA
102
}
330
47
100
AcDbEntity
  8
0
  6
Continuous
 62
     2
100
AcDbCircle
 10
-54.99159172096685
 20
35.05907749240009
 30
0.0
 40
0.9118975235576147
100
AcDbArc
 50
115.1944106485282
 51
244.8055893514878
  0
ARC
  5
164
102
{ACAD_REACTORS
330
1B9
330
1BA
102
}
330
47
100
AcDbEntity
  8
0
  6
Continuous
 62
     2
100
AcDbCircle
 10
-56.99000942955146
 20
36.7739318575228
 30
0.0
 40
0.3157169230761951
100
AcDbArc
 50
90.0
 51
180.0
  0
ARC
  5
165
102
{ACAD_REACTORS
330
1B3
330
1B4
102
}
330
47
100
AcDbEntity
  8
0
  6
Continuous
 62
     2
100
AcDbCircle
 10
-49.65143084753444
 20
36.7862346660464
 30
0.0
 40
0.3528638246711182
100
AcDbArc
 50
270.0
 51
90.0
  0
ARC
  5
166
102
{ACAD_REACTORS
330
1B7
330
1B8
102
}
330
47
100
AcDbEntity
  8
0
  6
Continuous
 62
     2
100
AcDbCircle
 10
-42.90874010230866
 20
36.2752995742517
 30
0.0
 40
1.52690476190589
100
AcDbArc
 50
90.0
 51
270.0
  0
ARC
  5
167
102
{ACAD_REACTORS
330
1BB
330
1BC
102
}
330
47
100
AcDbEntity
  8
0
  6
Continuous
 62
     2
100
AcDbCircle
 10
-33.48174500960494
 20
32.80331873604249
 30
0.0
 40
1.639695123940207
100
AcDbArc
 50
90.0
 51
164.9381082228952
  0
ARC
  5
168
102
{ACAD_REACTORS
330
1BB
330
1BC
102
}
330
47
100
AcDbEntity
  8
0
  6
Continuous
 62
     2
100
AcDbCircle
 10
-33.90087285306655
 20
32.91610909807739
 30
0.0
 40
1.205656168392994
100
AcDbArc
 50
164.9381082229031
 51
195.0618917770963
  0
ARC
  5
169
102
{ACAD_REACTORS
330
1BB
330
1BC
102
}
330
47
100
AcDbEntity
  8
0
  6
Continuous
 62
     2
100
AcDbCircle
 10
-33.35100052828915
 20
32.7110376687389
 30
0.0
 40
0.5115800601960279
100
AcDbArc
 50
208.5214732576862
 51
246.6277221118452
  0
ARC
  5
16A
102
{ACAD_REACTORS
330
1BB
330
1BC
102
}
330
47
100
AcDbEntity
  8
0
  6
Continuous
 62
     2
100
AcDbCircle
 10
-33.35100052828915
 20
33.12118052741639
 30
0.0
 40
0.5115800601944099
100
AcDbArc
 50
109.3371432194863
 51
151.4785267424235
  0
ARC
  5
16B
102
{ACAD_REACTORS
330
1B9
330
1BA
102
}
330
47
100
AcDbEntity
  8
0
  6
Continuous
 62
     2
100
AcDbCircle
 10
-54.41446074301976
 20
33.3680844857366
 30
0.0
 40
0.315716923076792
100
AcDbArc
 50
180.0
 51
269.8110329574542
  0
ARC
  5
16C
102
{ACAD_REACTORS
330
1B9
330
1BA
102
}
330
47
100
AcDbEntity
  8
0
  6
Continuous
 62
     2
100
AcDbCircle
 10
-54.40884460770974
 20
35.07091943330559
 30
0.0
 40
2.018561131933266
100
AcDbArc
 50
269.8110329575858
 51
90.18896704241416
  0
ARC
  5
16D
102
{ACAD_REACTORS
330
1B9
330
1BA
102
}
330
47
100
AcDbEntity
  8
0
  6
Continuous
 62
     2
100
AcDbCircle
 10
-54.41446074301976
 20
36.16821909236791
 30
0.0
 40
0.315716923076792
100
AcDbArc
 50
180.0
 51
244.6259913216475
  0
ARC
  5
16E
102
{ACAD_REACTORS
330
1B9
330
1BA
102
}
330
47
100
AcDbEntity
  8
0
  6
Continuous
 62
     2
100
AcDbCircle
 10
-54.41446074301976
 20
33.94993589243168
 30
0.0
 40
0.3157169230765359
100
AcDbArc
 50
115.374008678353
 51
180.0
  0
ARC
  5
16F
102
{ACAD_REACTORS
330
1BD
330
1BE
102
}
330
47
100
AcDbEntity
  8
0
  6
Continuous
 62
     2
100
AcDbCircle
 10
-49.58444648885785
 20
32.80331873604249
 30
0.0
 40
1.639695123940507
100
AcDbArc
 50
84.84185523036236
 51
164.9381082228868
  0
ARC
  5
170
102
{ACAD_REACTORS
330
1BD
330
1BE
102
}
330
47
100
AcDbEntity
  8
0
  6
Continuous
 62
     2
100
AcDbCircle
 10
-50.00357433232065
 20
32.91610909807739
 30
0.0
 40
1.205656168390949
100
AcDbArc
 50
164.9381082228769
 51
195.0618917770951
  0
ARC
  5
171
102
{ACAD_REACTORS
330
1BD
330
1BE
102
}
330
47
100
AcDbEntity
  8
0
  6
Continuous
 62
     2
100
AcDbCircle
 10
-49.58444648885785
 20
33.0288994601122
 30
0.0
 40
1.639695123939394
100
AcDbArc
 50
195.0618917770895
 51
275.1581447696395
  0
ARC
  5
172
102
{ACAD_REACTORS
330
1BD
330
1BE
102
}
330
47
100
AcDbEntity
  8
0
  6
Continuous
 62
     2
100
AcDbCircle
 10
-49.87330258359376
 20
36.22879004333379
 30
0.0
 40
4.852596863498135
100
AcDbArc
 50
275.158144769625
 51
285.9799912583529
  0
ARC
  5
173
102
{ACAD_REACTORS
330
1BD
330
1BE
102
}
330
47
100
AcDbEntity
  8
0
  6
Continuous
 62
     2
100
AcDbCircle
 10
-49.07634474946175
 20
32.91610909807739
 30
0.0
 40
0.9410597353332607
100
AcDbArc
 50
151.4785267422671
 51
208.5214732577059
  0
ARC
  5
174
102
{ACAD_REACTORS
330
1BD
330
1BE
102
}
330
47
100
AcDbEntity
  8
0
  6
Continuous
 62
     2
100
AcDbCircle
 10
-49.45370200754206
 20
33.12118052741639
 30
0.0
 40
0.5115800601948648
100
AcDbArc
 50
113.3722778881998
 51
151.4785267423044
  0
ARC
  5
175
102
{ACAD_REACTORS
330
1BD
330
1BE
102
}
330
47
100
AcDbEntity
  8
0
  6
Continuous
 62
     2
100
AcDbCircle
 10
-49.71542970850084
 20
31.5056427326692
 30
0.0
 40
2.227384008973484
100
AcDbArc
 50
58.06909105004083
 51
71.55192388186705
  0
ARC
  5
176
102
{ACAD_REACTORS
330
1B5
330
1B6
102
}
330
47
100
AcDbEntity
  8
0
  6
Continuous
 62
     2
100
AcDbCircle
 10
-46.65341557293695
 20
33.07284027619789
 30
0.0
 40
0.5179085730133043
100
AcDbArc
 50
38.12041979714765
 51
141.8795802028582
  0
ARC
  5
177
102
{ACAD_REACTORS
330
1B5
330
1B6
102
}
330
47
100
AcDbEntity
  8
0
  6
Continuous
 62
     2
100
AcDbCircle
 10
-46.45367553659085
 20
32.91610909807739
 30
0.0
 40
0.7717997786794588
100
AcDbArc
 50
141.8795802028367
 51
218.1204197971687
  0
ARC
  5
178
102
{ACAD_REACTORS
330
1B5
330
1B6
102
}
330
47
100
AcDbEntity
  8
0
  6
Continuous
 62
     2
100
AcDbCircle
 10
-46.65341557293695
 20
32.75937791995739
 30
0.0
 40
0.517908573013731
100
AcDbArc
 50
218.1204197971925
 51
321.8795802028016
  0
ARC
  5
179
102
{ACAD_REACTORS
330
1B5
330
1B6
102
}
330
47
100
AcDbEntity
  8
0
  6
Continuous
 62
     2
100
AcDbCircle
 10
-46.85315560928336
 20
32.91610909807739
 30
0.0
 40
0.7717997786796947
100
AcDbArc
 50
321.8795802028417
 51
38.12041979715287
  0
CIRCLE
  5
17A
330
47
100
AcDbEntity
  8
1
  6
Continuous
 62
     2
100
AcDbCircle
 10
-49.50814872168076
 20
45.22070433615571
 30
0.0
 40
2.5
  0
CIRCLE
  5
17B
330
47
100
AcDbEntity
  8
1
  6
Continuous
 62
     2
100
AcDbCircle
 10
-49.50814872168076
 20
45.22070433615571
 30
0.0
 40
1.249999999999922
  0
CIRCLE
  5
17C
102
{ACAD_REACTORS
330
1B9
330
1BA
102
}
330
47
100
AcDbEntity
  8
0
  6
Continuous
 62
     2
100
AcDbCircle
 10
-54.96431845578044
 20
35.05907749240009
 30
0.0
 40
0.4709789327785003
  0
MTEXT
  5
17E
330
47
100
AcDbEntity
  8
1
 62
     3
100
AcDbMText
 10
-219.6949312954216
 20
210.8870124914546
 30
0.0
 40
1.8
 41
0.0
 71
     7
 72
     1
  3
Weitergabe sowie Vervielf\U+00e4ltigung dieses Dokuments, Verwertung und \PMitteilung seines Inhalts sind verboten, soweit nicht ausdr\U+00fccklich gestattet. \PZuwiderhandlungen verpflichten zu Schadenersatz. Alle Rechte f\U+00fcr den Fall\Pder Pat
  1
ent-, Gebrauchsmuster- oder Designeintragung vorbehalten.
  7
CONVERTER_11
 73
     1
 44
0.99639855942377
  0
MTEXT
  5
17F
330
47
100
AcDbEntity
  8
1
 62
     3
100
AcDbMText
 10
-36.84182145663345
 20
210.8870124914546
 30
0.0
 40
1.8
 41
0.0
 71
     7
 72
     1
  3
Transfer or duplication of this document as well as the utilisation or\Pcommunication of its content are not permitted unless express consent\Pis granted. Violations give rise to claims for damages. All rights reserved\Pin case of patent, utility mo
  1
del or design patent registrations.
  7
CONVERTER_11
 73
     1
 44
0.99639855942377
  0
TEXT
  5
180
330
47
100
AcDbEntity
  8
1
 62
     2
100
AcDbText
 10
-43.04480360824354
 20
25.33668712116418
 30
0.0
 40
1.8
  1
of
 41
0.9
  7
CONVERTER_11
100
AcDbText
  0
TEXT
  5
181
330
47
100
AcDbEntity
  8
1
 62
     2
100
AcDbText
 10
-61.24480360824336
 20
25.33668712116412
 30
0.0
 40
1.8
  1
page
 41
0.9
  7
CONVERTER_11
100
AcDbText
  0
TEXT
  5
182
330
47
100
AcDbEntity
  8
1
 62
     2
100
AcDbText
 10
-52.59853863790136
 20
25.29645568235378
 30
0.0
 40
1.8
  1
1
 41
0.9
  7
CONVERTER_11
100
AcDbText
  0
TEXT
  5
183
330
47
100
AcDbEntity
  8
1
 62
     2
100
AcDbText
 10
-37.80949479842985
 20
25.34570433615568
 30
0.0
 40
1.8
  1
1
 41
0.9
  7
CONVERTER_11
100
AcDbText
  0
MTEXT
  5
185
330
47
100
AcDbEntity
  8
1
 62
     7
100
AcDbMText
 10
20.72759865513214
 20
27.34570433615602
 30
0.0
 40
3.0
 41
0.0
 71
     5
 72
     1
  1
HC-RBO 12-FE
  7
CONVERTER_12
 73
     1
 44
1.20048019207683
  0
MTEXT
  5
186
330
47
100
AcDbEntity
  8
1
 62
     2
100
AcDbMText
 10
-24.84480360824344
 20
31.59570433615579
 30
0.0
 40
1.8
 41
0.0
 71
     1
 72
     1
  1
description
  7
CONVERTER_11
 73
     1
 44
1.20048019207683
  0
MTEXT
  5
187
330
47
100
AcDbEntity
  8
1
 62
     3
100
AcDbMText
 10
-36.04480360824346
 20
45.22070433615579
 30
0.0
 40
2.5
 41
0.0
 71
     5
 72
     1
  1
DIN A4
  7
CONVERTER_11
 73
     1
 44
1.20048019207683
  0
MTEXT
  5
188
330
47
100
AcDbEntity
  8
1
 62
     7
100
AcDbMText
 10
-222.1999990814924
 20
46.59570433615579
 30
0.0
 40
3.5
 41
0.0
 71
     5
 72
     1
  1
D
  7
CONVERTER_11
 73
     1
 44
1.20048019207683
  0
MTEXT
  5
189
330
47
100
AcDbEntity
  8
1
 62
     7
100
AcDbMText
 10
-222.1999990814924
 20
99.09570433615579
 30
0.0
 40
3.5
 41
0.0
 71
     5
 72
     1
  1
C
  7
CONVERTER_11
 73
     1
 44
1.20048019207683
  0
MTEXT
  5
18A
330
47
100
AcDbEntity
  8
1
 62
     7
100
AcDbMText
 10
-222.1999990814924
 20
149.0957043361558
 30
0.0
 40
3.5
 41
0.0
 71
     5
 72
     1
  1
B
  7
CONVERTER_11
 73
     1
 44
1.20048019207683
  0
MTEXT
  5
18B
330
47
100
AcDbEntity
  8
1
 62
     7
100
AcDbMText
 10
-222.1999990814924
 20
201.5957043361558
 30
0.0
 40
3.5
 41
0.0
 71
     5
 72
     1
  1
A
  7
CONVERTER_11
 73
     1
 44
1.20048019207683
  0
MTEXT
  5
18C
330
47
100
AcDbEntity
  8
1
 62
     7
100
AcDbMText
 10
48.05000091850585
 20
21.59570433615568
 30
0.0
 40
3.5
 41
0.0
 71
     5
 72
     1
  1
6
  7
CONVERTER_11
 73
     1
 44
1.20048019207683
  0
MTEXT
  5
18D
330
47
100
AcDbEntity
  8
1
 62
     7
100
AcDbMText
 10
-1.19999908149336
 20
21.59570433615568
 30
0.0
 40
3.5
 41
0.0
 71
     5
 72
     1
  1
5
  7
CONVERTER_11
 73
     1
 44
1.20048019207683
  0
MTEXT
  5
18E
330
47
100
AcDbEntity
  8
1
 62
     7
100
AcDbMText
 10
-51.19999908149345
 20
21.59570433615568
 30
0.0
 40
3.5
 41
0.0
 71
     5
 72
     1
  1
4
  7
CONVERTER_11
 73
     1
 44
1.20048019207683
  0
MTEXT
  5
18F
330
47
100
AcDbEntity
  8
1
 62
     7
100
AcDbMText
 10
-101.1999990814933
 20
21.59570433615568
 30
0.0
 40
3.5
 41
0.0
 71
     5
 72
     1
  1
3
  7
CONVERTER_11
 73
     1
 44
1.20048019207683
  0
MTEXT
  5
190
330
47
100
AcDbEntity
  8
1
 62
     7
100
AcDbMText
 10
-151.1999990814933
 20
21.59570433615568
 30
0.0
 40
3.5
 41
0.0
 71
     5
 72
     1
  1
2
  7
CONVERTER_11
 73
     1
 44
1.20048019207683
  0
MTEXT
  5
191
330
47
100
AcDbEntity
  8
1
 62
     7
100
AcDbMText
 10
-200.4499990814929
 20
21.59570433615568
 30
0.0
 40
3.5
 41
0.0
 71
     5
 72
     1
  1
1
  7
CONVERTER_11
 73
     1
 44
1.20048019207683
  0
MTEXT
  5
192
330
47
100
AcDbEntity
  8
1
 62
     7
100
AcDbMText
 10
69.80000091850565
 20
46.59570433615579
 30
0.0
 40
3.5
 41
0.0
 71
     5
 72
     1
  1
D
  7
CONVERTER_11
 73
     1
 44
1.20048019207683
  0
MTEXT
  5
193
330
47
100
AcDbEntity
  8
1
 62
     7
100
AcDbMText
 10
69.80000091850565
 20
149.0957043361577
 30
0.0
 40
3.5
 41
0.0
 71
     5
 72
     1
  1
B
  7
CONVERTER_11
 73
     1
 44
1.20048019207683
  0
MTEXT
  5
194
330
47
100
AcDbEntity
  8
1
 62
     7
100
AcDbMText
 10
69.80000091850565
 20
201.5957043361558
 30
0.0
 40
3.5
 41
0.0
 71
     5
 72
     1
  1
A
  7
CONVERTER_11
 73
     1
 44
1.20048019207683
  0
MTEXT
  5
195
330
47
100
AcDbEntity
  8
1
 62
     7
100
AcDbMText
 10
69.80000091850565
 20
99.0957043361577
 30
0.0
 40
3.5
 41
0.0
 71
     5
 72
     1
  1
C
  7
CONVERTER_11
 73
     1
 44
1.20048019207683
  0
MTEXT
  5
196
330
47
100
AcDbEntity
  8
1
 62
     2
100
AcDbMText
 10
-96.68281833329087
 20
36.84570433615571
 30
0.0
 40
2.0
 41
0.0
 71
     5
 72
     1
  1
General Information\P- Simplified representation\P- Document excluded from change process\P- Linear dimensions [mm]
  7
CONVERTER_11
 73
     1
 44
1.20048019207683
  0
TEXT
  5
197
330
47
100
AcDbEntity
  8
1
 62
     7
100
AcDbText
 10
-24.34480360824364
 20
33.89570433615569
 30
0.0
 40
2.5
  1
3247984
 41
0.81
  7
CONVERTER_12
100
AcDbText
  0
MTEXT
  5
198
330
47
100
AcDbEntity
  8
1
 62
     2
100
AcDbMText
 10
-24.74480360824336
 20
40.09570433615579
 30
0.0
 40
1.8
 41
0.0
 71
     1
 72
     1
  1
ident.-No.
  7
CONVERTER_11
 73
     1
 44
1.20048019207683
  0
MTEXT
  5
199
330
47
100
AcDbEntity
  8
1
 62
     2
100
AcDbMText
 10
59.48159263682936
 20
48.59570433615579
 30
0.0
 40
1.8
 41
0.0
 71
     1
 72
     1
  1
scale
  7
CONVERTER_11
 73
     1
 44
1.20048019207683
  0
MTEXT
  5
19B
330
47
100
AcDbEntity
  8
1
 62
     3
100
AcDbMText
 10
62.84079677766896
 20
42.39570433615589
 30
0.0
 40
2.5
 41
0.0
 71
     8
 72
     1
  1
1:2
  7
CONVERTER_13
 73
     1
 44
1.32052821128451
  0
TEXT
  5
19C
330
47
100
AcDbEntity
  8
1
 62
     7
100
AcDbText
 10
-24.74480360824336
 20
42.39570433615569
 30
0.0
 40
2.5
  1
00638911
 41
0.81
  7
CONVERTER_12
100
AcDbText
  0
MTEXT
  5
19E
330
47
100
AcDbEntity
  8
1
 62
     2
100
AcDbMText
 10
-24.74480360824336
 20
48.59570433615579
 30
0.0
 40
1.8
 41
0.0
 71
     1
 72
     1
  1
document-No. / RI
  7
CONVERTER_14
 73
     1
 44
1.32052821128451
  0
TEXT
  5
19F
330
47
100
AcDbEntity
  8
1
 62
     3
100
AcDbText
 10
3.05519639175665
 20
33.89570433615569
 30
0.0
 40
2.5
  1
TECDOC 2D_Productdrawing
 41
0.81
  7
CONVERTER_12
100
AcDbText
  0
MTEXT
  5
1A0
330
47
100
AcDbEntity
  8
1
 62
     2
100
AcDbMText
 10
3.05519639175665
 20
40.09570433615571
 30
0.0
 40
1.8
 41
0.0
 71
     1
 72
     1
  1
document-type
  7
CONVERTER_11
 73
     1
 44
1.20048019207683
  0
MTEXT
  5
1A1
330
47
100
AcDbEntity
  8
1
 62
     2
100
AcDbMText
 10
32.88159263682954
 20
48.59570433615571
 30
0.0
 40
1.8
 41
0.0
 71
     1
 72
     1
  1
date
  7
CONVERTER_11
 73
     1
 44
1.32052821128451
  0
TEXT
  5
1A2
330
47
100
AcDbEntity
  8
1
 62
     3
100
AcDbText
 10
32.88159263682954
 20
42.39570433615569
 30
0.0
 40
2.5
  1
13.01.2018
 41
0.81
  7
CONVERTER_12
100
AcDbText
  0
TEXT
  5
1A3
330
47
100
AcDbEntity
  8
1
 62
     7
100
AcDbText
 10
-4.71489138918756
 20
42.39570433615569
 30
0.0
 40
2.5
  1
01
 41
0.81
  7
CONVERTER_12
100
AcDbText
  0
TEXT
  5
1A4
330
47
100
AcDbEntity
  8
1
 62
     7
100
AcDbText
 10
-6.87125588622956
 20
42.39570433615569
 30
0.0
 40
2.5
  1
/
 41
0.9
  7
CONVERTER_11
100
AcDbText
  0
HATCH
  5
1A5
330
47
100
AcDbEntity
  8
1
  6
Continuous
 62
     2
100
AcDbHatch
 10
0.0
 20
0.0
 30
0.0
210
0.0
220
0.0
230
1.0
  2
_USER
 70
     0
 71
     1
 91
        1
 92
        1
 93
       12
 72
     1
 10
-44.57730289528226
 20
34.74839481234639
 11
-45.77009559744866
 21
34.74839481234639
 72
     1
 10
-45.77009559744866
 20
34.74839481234639
 11
-45.77009559744866
 21
35.88266692119021
 72
     1
 10
-45.77009559744866
 20
35.88266692119021
 11
-46.81975317535614
 21
35.88266692119021
 72
     1
 10
-46.81975317535614
 20
35.88266692119021
 11
-46.81975317535614
 21
34.74839481234639
 72
     1
 10
-46.81975317535614
 20
34.74839481234639
 11
-48.01254587752274
 21
34.74839481234639
 72
     1
 10
-48.01254587752274
 20
34.74839481234639
 11
-48.01254587752274
 21
37.80220433615759
 72
     1
 10
-48.01254587752274
 20
37.80220433615759
 11
-46.81975317535614
 21
37.80220433615759
 72
     1
 10
-46.81975317535614
 20
37.80220433615759
 11
-46.81975317535614
 21
36.73337100282299
 72
     1
 10
-46.81975317535614
 20
36.73337100282299
 11
-45.77009559744866
 21
36.73337100282299
 72
     1
 10
-45.77009559744866
 20
36.73337100282299
 11
-45.77009559744866
 21
37.80220433615759
 72
     1
 10
-45.77009559744866
 20
37.80220433615759
 11
-44.57730289528226
 21
37.80220433615759
 72
     1
 10
-44.57730289528226
 20
37.80220433615759
 11
-44.57730289528226
 21
34.74839481234639
 97
       12
330
111
330
112
330
FC
330
FB
330
FA
330
10E
330
F9
330
10F
330
110
330
F8
330
F7
330
F6
 75
     1
 76
     0
 52
45.0
 41
0.1
 77
     0
 78
     1
 53
45.0
 43
0.0
 44
0.0
 45
-0.0707106781186548
 46
0.0707106781186548
 79
     0
 98
        1
 10
0.0
 20
0.0
  0
HATCH
  5
1A6
330
47
100
AcDbEntity
  8
1
  6
Continuous
 62
     2
100
AcDbHatch
 10
0.0
 20
0.0
 30
0.0
210
0.0
220
0.0
230
1.0
  2
_USER
 70
     0
 71
     1
 91
        1
 92
        1
 93
       12
 72
     1
 10
-44.57730289528226
 20
34.74839481234639
 11
-45.77009559744866
 21
34.74839481234639
 72
     1
 10
-45.77009559744866
 20
34.74839481234639
 11
-45.77009559744866
 21
35.88266692119021
 72
     1
 10
-45.77009559744866
 20
35.88266692119021
 11
-46.81975317535614
 21
35.88266692119021
 72
     1
 10
-46.81975317535614
 20
35.88266692119021
 11
-46.81975317535614
 21
34.74839481234639
 72
     1
 10
-46.81975317535614
 20
34.74839481234639
 11
-48.01254587752274
 21
34.74839481234639
 72
     1
 10
-48.01254587752274
 20
34.74839481234639
 11
-48.01254587752274
 21
37.80220433615759
 72
     1
 10
-48.01254587752274
 20
37.80220433615759
 11
-46.81975317535614
 21
37.80220433615759
 72
     1
 10
-46.81975317535614
 20
37.80220433615759
 11
-46.81975317535614
 21
36.73337100282299
 72
     1
 10
-46.81975317535614
 20
36.73337100282299
 11
-45.77009559744866
 21
36.73337100282299
 72
     1
 10
-45.77009559744866
 20
36.73337100282299
 11
-45.77009559744866
 21
37.80220433615759
 72
     1
 10
-45.77009559744866
 20
37.80220433615759
 11
-44.57730289528226
 21
37.80220433615759
 72
     1
 10
-44.57730289528226
 20
37.80220433615759
 11
-44.57730289528226
 21
34.74839481234639
 97
       12
330
111
330
112
330
FC
330
FB
330
FA
330
10E
330
F9
330
10F
330
110
330
F8
330
F7
330
F6
 75
     1
 76
     0
 52
45.0
 41
0.1
 77
     0
 78
     1
 53
45.0
 43
0.0
 44
0.0
 45
-0.0707106781186548
 46
0.0707106781186548
 79
     0
 98
        1
 10
0.0
 20
0.0
  0
HATCH
  5
1A7
330
47
100
AcDbEntity
  8
1
  6
Continuous
 62
     2
100
AcDbHatch
 10
0.0
 20
0.0
 30
0.0
210
0.0
220
0.0
230
1.0
  2
_USER
 70
     0
 71
     1
 91
        1
 92
        1
 93
       10
 72
     1
 10
-42.33500354609396
 20
33.13423834977809
 11
-43.57550795634685
 21
34.44301385998318
 72
     1
 10
-43.57550795634685
 20
34.44301385998318
 11
-44.76830065851445
 21
34.44301385998318
 72
     1
 10
-44.76830065851445
 20
34.44301385998318
 11
-44.76830065851445
 21
31.3892043361721
 72
     1
 10
-44.76830065851445
 20
31.3892043361721
 11
-43.57550795634685
 21
31.3892043361721
 72
     1
 10
-43.57550795634685
 20
31.3892043361721
 11
-43.57550795634685
 21
32.69797984637668
 72
     1
 10
-43.57550795634685
 20
32.69797984637668
 11
-42.33500354609396
 21
31.3892043361721
 72
     1
 10
-42.33500354609396
 20
31.3892043361721
 11
-41.14221084392756
 21
31.3892043361721
 72
     1
 10
-41.14221084392756
 20
31.3892043361721
 11
-41.14221084392756
 21
34.44301385998318
 72
     1
 10
-41.14221084392756
 20
34.44301385998318
 11
-42.33500354609396
 21
34.44301385998318
 72
     1
 10
-42.33500354609396
 20
34.44301385998318
 11
-42.33500354609396
 21
33.13423834977809
 97
       10
330
11F
330
EF
330
EE
330
F1
330
11A
330
11B
330
F0
330
11C
330
11D
330
11E
 75
     1
 76
     0
 52
45.0
 41
0.1
 77
     0
 78
     1
 53
45.0
 43
0.0
 44
0.0
 45
-0.0707106781186548
 46
0.0707106781186548
 79
     0
 98
        1
 10
0.0
 20
0.0
  0
HATCH
  5
1A8
330
47
100
AcDbEntity
  8
1
  6
Continuous
 62
     2
100
AcDbHatch
 10
0.0
 20
0.0
 30
0.0
210
0.0
220
0.0
230
1.0
  2
_USER
 70
     0
 71
     1
 91
        1
 92
        1
 93
       10
 72
     1
 10
-42.33500354609396
 20
33.13423834977809
 11
-43.57550795634685
 21
34.44301385998318
 72
     1
 10
-43.57550795634685
 20
34.44301385998318
 11
-44.76830065851445
 21
34.44301385998318
 72
     1
 10
-44.76830065851445
 20
34.44301385998318
 11
-44.76830065851445
 21
31.3892043361721
 72
     1
 10
-44.76830065851445
 20
31.3892043361721
 11
-43.57550795634685
 21
31.3892043361721
 72
     1
 10
-43.57550795634685
 20
31.3892043361721
 11
-43.57550795634685
 21
32.69797984637668
 72
     1
 10
-43.57550795634685
 20
32.69797984637668
 11
-42.33500354609396
 21
31.3892043361721
 72
     1
 10
-42.33500354609396
 20
31.3892043361721
 11
-41.14221084392756
 21
31.3892043361721
 72
     1
 10
-41.14221084392756
 20
31.3892043361721
 11
-41.14221084392756
 21
34.44301385998318
 72
     1
 10
-41.14221084392756
 20
34.44301385998318
 11
-42.33500354609396
 21
34.44301385998318
 72
     1
 10
-42.33500354609396
 20
34.44301385998318
 11
-42.33500354609396
 21
33.13423834977809
 97
       10
330
11F
330
EF
330
EE
330
F1
330
11A
330
11B
330
F0
330
11C
330
11D
330
11E
 75
     1
 76
     0
 52
45.0
 41
0.1
 77
     0
 78
     1
 53
45.0
 43
0.0
 44
0.0
 45
-0.0707106781186548
 46
0.0707106781186548
 79
     0
 98
        1
 10
0.0
 20
0.0
  0
HATCH
  5
1A9
330
47
100
AcDbEntity
  8
1
  6
Continuous
 62
     2
100
AcDbHatch
 10
0.0
 20
0.0
 30
0.0
210
0.0
220
0.0
230
1.0
  2
_USER
 70
     0
 71
     1
 91
        1
 92
        1
 93
       10
 72
     1
 10
-37.08656472567424
 20
36.49342882595241
 11
-38.32706913592824
 21
37.80220433615759
 72
     1
 10
-38.32706913592824
 20
37.80220433615759
 11
-39.51986183809476
 21
37.80220433615759
 72
     1
 10
-39.51986183809476
 20
37.80220433615759
 11
-39.51986183809476
 21
34.74839481234639
 72
     1
 10
-39.51986183809476
 20
34.74839481234639
 11
-38.32706913592824
 21
34.74839481234639
 72
     1
 10
-38.32706913592824
 20
34.74839481234639
 11
-38.32706913592824
 21
36.05717032255109
 72
     1
 10
-38.32706913592824
 20
36.05717032255109
 11
-37.08656472567424
 21
34.74839481234639
 72
     1
 10
-37.08656472567424
 20
34.74839481234639
 11
-35.89377202350764
 21
34.74839481234639
 72
     1
 10
-35.89377202350764
 20
34.74839481234639
 11
-35.89377202350764
 21
37.80220433615759
 72
     1
 10
-35.89377202350764
 20
37.80220433615759
 11
-37.08656472567424
 21
37.80220433615759
 72
     1
 10
-37.08656472567424
 20
37.80220433615759
 11
-37.08656472567424
 21
36.49342882595241
 97
       10
330
124
330
EC
330
EB
330
125
330
EA
330
120
330
121
330
122
330
123
330
ED
 75
     1
 76
     0
 52
45.0
 41
0.1
 77
     0
 78
     1
 53
45.0
 43
0.0
 44
0.0
 45
-0.0707106781186548
 46
0.0707106781186548
 79
     0
 98
        1
 10
0.0
 20
0.0
  0
HATCH
  5
1AA
330
47
100
AcDbEntity
  8
1
  6
Continuous
 62
     2
100
AcDbHatch
 10
0.0
 20
0.0
 30
0.0
210
0.0
220
0.0
230
1.0
  2
_USER
 70
     0
 71
     1
 91
        1
 92
        1
 93
       10
 72
     1
 10
-37.08656472567424
 20
36.49342882595241
 11
-38.32706913592824
 21
37.80220433615759
 72
     1
 10
-38.32706913592824
 20
37.80220433615759
 11
-39.51986183809476
 21
37.80220433615759
 72
     1
 10
-39.51986183809476
 20
37.80220433615759
 11
-39.51986183809476
 21
34.74839481234639
 72
     1
 10
-39.51986183809476
 20
34.74839481234639
 11
-38.32706913592824
 21
34.74839481234639
 72
     1
 10
-38.32706913592824
 20
34.74839481234639
 11
-38.32706913592824
 21
36.05717032255109
 72
     1
 10
-38.32706913592824
 20
36.05717032255109
 11
-37.08656472567424
 21
34.74839481234639
 72
     1
 10
-37.08656472567424
 20
34.74839481234639
 11
-35.89377202350764
 21
34.74839481234639
 72
     1
 10
-35.89377202350764
 20
34.74839481234639
 11
-35.89377202350764
 21
37.80220433615759
 72
     1
 10
-35.89377202350764
 20
37.80220433615759
 11
-37.08656472567424
 21
37.80220433615759
 72
     1
 10
-37.08656472567424
 20
37.80220433615759
 11
-37.08656472567424
 21
36.49342882595241
 97
       10
330
124
330
EC
330
EB
330
125
330
EA
330
120
330
121
330
122
330
123
330
ED
 75
     1
 76
     0
 52
45.0
 41
0.1
 77
     0
 78
     1
 53
45.0
 43
0.0
 44
0.0
 45
-0.0707106781186548
 46
0.0707106781186548
 79
     0
 98
        1
 10
0.0
 20
0.0
  0
HATCH
  5
1AB
330
47
100
AcDbEntity
  8
1
  6
Continuous
 62
     2
100
AcDbHatch
 10
0.0
 20
0.0
 30
0.0
210
0.0
220
0.0
230
1.0
  2
_USER
 70
     0
 71
     1
 91
        1
 92
        1
 93
        8
 72
     1
 10
-38.18408494255374
 20
34.44301385998318
 11
-40.99907571966736
 21
34.44301385998318
 72
     1
 10
-40.99907571966736
 20
34.44301385998318
 11
-40.99907571966736
 21
33.65774855385959
 72
     1
 10
-40.99907571966736
 20
33.65774855385959
 11
-40.18797668219276
 21
33.65774855385959
 72
     1
 10
-40.18797668219276
 20
33.65774855385959
 11
-40.18797668219276
 21
31.3892043361721
 72
     1
 10
-40.18797668219276
 20
31.3892043361721
 11
-38.99518398002624
 21
31.3892043361721
 72
     1
 10
-38.99518398002624
 20
31.3892043361721
 11
-38.99518398002624
 21
33.65774855385959
 72
     1
 10
-38.99518398002624
 20
33.65774855385959
 11
-38.18408494255374
 21
33.65774855385959
 72
     1
 10
-38.18408494255374
 20
33.65774855385959
 11
-38.18408494255374
 21
34.44301385998318
 97
        8
330
E6
330
126
330
E5
330
127
330
128
330
E9
330
E8
330
E7
 75
     1
 76
     0
 52
45.0
 41
0.1
 77
     0
 78
     1
 53
45.0
 43
0.0
 44
0.0
 45
-0.0707106781186548
 46
0.0707106781186548
 79
     0
 98
        1
 10
0.0
 20
0.0
  0
HATCH
  5
1AC
330
47
100
AcDbEntity
  8
1
  6
Continuous
 62
     2
100
AcDbHatch
 10
0.0
 20
0.0
 30
0.0
210
0.0
220
0.0
230
1.0
  2
_USER
 70
     0
 71
     1
 91
        1
 92
        1
 93
        8
 72
     1
 10
-38.18408494255374
 20
34.44301385998318
 11
-40.99907571966736
 21
34.44301385998318
 72
     1
 10
-40.99907571966736
 20
34.44301385998318
 11
-40.99907571966736
 21
33.65774855385959
 72
     1
 10
-40.99907571966736
 20
33.65774855385959
 11
-40.18797668219276
 21
33.65774855385959
 72
     1
 10
-40.18797668219276
 20
33.65774855385959
 11
-40.18797668219276
 21
31.3892043361721
 72
     1
 10
-40.18797668219276
 20
31.3892043361721
 11
-38.99518398002624
 21
31.3892043361721
 72
     1
 10
-38.99518398002624
 20
31.3892043361721
 11
-38.99518398002624
 21
33.65774855385959
 72
     1
 10
-38.99518398002624
 20
33.65774855385959
 11
-38.18408494255374
 21
33.65774855385959
 72
     1
 10
-38.18408494255374
 20
33.65774855385959
 11
-38.18408494255374
 21
34.44301385998318
 97
        8
330
E6
330
126
330
E5
330
127
330
128
330
E9
330
E8
330
E7
 75
     1
 76
     0
 52
45.0
 41
0.1
 77
     0
 78
     1
 53
45.0
 43
0.0
 44
0.0
 45
-0.0707106781186548
 46
0.0707106781186548
 79
     0
 98
        1
 10
0.0
 20
0.0
  0
HATCH
  5
1AD
330
47
100
AcDbEntity
  8
1
  6
Continuous
 62
     2
100
AcDbHatch
 10
0.0
 20
0.0
 30
0.0
210
0.0
220
0.0
230
1.0
  2
_USER
 70
     0
 71
     1
 91
        2
 92
        1
 93
        8
 72
     1
 10
-36.04565748660676
 20
31.3892043361721
 11
-36.25713754008254
 21
31.93016488038998
 72
     1
 10
-36.25713754008254
 20
31.93016488038998
 11
-37.38957911675635
 21
31.93016488038998
 72
     1
 10
-37.38957911675635
 20
31.93016488038998
 11
-37.60105917023216
 21
31.3892043361721
 72
     1
 10
-37.60105917023216
 20
31.3892043361721
 11
-38.84156358048514
 21
31.3892043361721
 72
     1
 10
-38.84156358048514
 20
31.3892043361721
 11
-37.44361053354584
 21
34.44301385998318
 72
     1
 10
-37.44361053354584
 20
34.44301385998318
 11
-36.20310612329314
 21
34.44301385998318
 72
     1
 10
-36.20310612329314
 20
34.44301385998318
 11
-34.80515307635284
 21
31.3892043361721
 72
     1
 10
-34.80515307635284
 20
31.3892043361721
 11
-36.04565748660676
 21
31.3892043361721
 97
        8
330
12A
330
12B
330
E2
330
12C
330
E1
330
E4
330
129
330
E3
 92
       16
 93
        3
 72
     1
 10
-37.12352356561135
 20
32.61072814569658
 11
-36.82335832841895
 21
33.37854311168329
 72
     1
 10
-36.82335832841895
 20
33.37854311168329
 11
-36.52319309122885
 21
32.61072814569658
 72
     1
 10
-36.52319309122885
 20
32.61072814569658
 11
-37.12352356561135
 21
32.61072814569658
 97
        3
330
E0
330
12E
330
12D
 75
     1
 76
     0
 52
45.0
 41
0.1
 77
     0
 78
     1
 53
45.0
 43
0.0
 44
0.0
 45
-0.0707106781186548
 46
0.0707106781186548
 79
     0
 98
        1
 10
0.0
 20
0.0
  0
HATCH
  5
1AE
330
47
100
AcDbEntity
  8
1
  6
Continuous
 62
     2
100
AcDbHatch
 10
0.0
 20
0.0
 30
0.0
210
0.0
220
0.0
230
1.0
  2
_USER
 70
     0
 71
     1
 91
        2
 92
        1
 93
        8
 72
     1
 10
-36.04565748660676
 20
31.3892043361721
 11
-36.25713754008254
 21
31.93016488038998
 72
     1
 10
-36.25713754008254
 20
31.93016488038998
 11
-37.38957911675635
 21
31.93016488038998
 72
     1
 10
-37.38957911675635
 20
31.93016488038998
 11
-37.60105917023216
 21
31.3892043361721
 72
     1
 10
-37.60105917023216
 20
31.3892043361721
 11
-38.84156358048514
 21
31.3892043361721
 72
     1
 10
-38.84156358048514
 20
31.3892043361721
 11
-37.44361053354584
 21
34.44301385998318
 72
     1
 10
-37.44361053354584
 20
34.44301385998318
 11
-36.20310612329314
 21
34.44301385998318
 72
     1
 10
-36.20310612329314
 20
34.44301385998318
 11
-34.80515307635284
 21
31.3892043361721
 72
     1
 10
-34.80515307635284
 20
31.3892043361721
 11
-36.04565748660676
 21
31.3892043361721
 97
        8
330
12A
330
12B
330
E2
330
12C
330
E1
330
E4
330
129
330
E3
 92
       16
 93
        3
 72
     1
 10
-37.12352356561135
 20
32.61072814569658
 11
-36.82335832841895
 21
33.37854311168329
 72
     1
 10
-36.82335832841895
 20
33.37854311168329
 11
-36.52319309122885
 21
32.61072814569658
 72
     1
 10
-36.52319309122885
 20
32.61072814569658
 11
-37.12352356561135
 21
32.61072814569658
 97
        3
330
E0
330
12E
330
12D
 75
     1
 76
     0
 52
45.0
 41
0.1
 77
     0
 78
     1
 53
45.0
 43
0.0
 44
0.0
 45
-0.0707106781186548
 46
0.0707106781186548
 79
     0
 98
        1
 10
0.0
 20
0.0
  0
HATCH
  5
1AF
330
47
100
AcDbEntity
  8
1
  6
Continuous
 62
     2
100
AcDbHatch
 10
0.0
 20
0.0
 30
0.0
210
0.0
220
0.0
230
1.0
  2
_USER
 70
     0
 71
     1
 91
        1
 92
        1
 93
        4
 72
     1
 10
-34.41470907282084
 20
34.74839481234639
 11
-35.65521348307374
 21
34.74839481234639
 72
     1
 10
-35.65521348307374
 20
34.74839481234639
 11
-35.65521348307374
 21
37.80220433615759
 72
     1
 10
-35.65521348307374
 20
37.80220433615759
 11
-34.41470907282084
 21
37.80220433615759
 72
     1
 10
-34.41470907282084
 20
37.80220433615759
 11
-34.41470907282084
 21
34.74839481234639
 97
        4
330
DD
330
DF
330
12F
330
DE
 75
     1
 76
     0
 52
45.0
 41
0.1
 77
     0
 78
     1
 53
45.0
 43
0.0
 44
0.0
 45
-0.0707106781186548
 46
0.0707106781186548
 79
     0
 98
        1
 10
0.0
 20
0.0
  0
HATCH
  5
1B0
330
47
100
AcDbEntity
  8
1
  6
Continuous
 62
     2
100
AcDbHatch
 10
0.0
 20
0.0
 30
0.0
210
0.0
220
0.0
230
1.0
  2
_USER
 70
     0
 71
     1
 91
        1
 92
        1
 93
        4
 72
     1
 10
-34.41470907282084
 20
34.74839481234639
 11
-35.65521348307374
 21
34.74839481234639
 72
     1
 10
-35.65521348307374
 20
34.74839481234639
 11
-35.65521348307374
 21
37.80220433615759
 72
     1
 10
-35.65521348307374
 20
37.80220433615759
 11
-34.41470907282084
 21
37.80220433615759
 72
     1
 10
-34.41470907282084
 20
37.80220433615759
 11
-34.41470907282084
 21
34.74839481234639
 97
        4
330
DD
330
DF
330
12F
330
DE
 75
     1
 76
     0
 52
45.0
 41
0.1
 77
     0
 78
     1
 53
45.0
 43
0.0
 44
0.0
 45
-0.0707106781186548
 46
0.0707106781186548
 79
     0
 98
        1
 10
0.0
 20
0.0
  0
HATCH
  5
1B1
330
47
100
AcDbEntity
  8
1
  6
Continuous
 62
     2
100
AcDbHatch
 10
0.0
 20
0.0
 30
0.0
210
0.0
220
0.0
230
1.0
  2
_USER
 70
     0
 71
     1
 91
        1
 92
        1
 93
       12
 72
     1
 10
-30.19222290715004
 20
37.80220433615759
 11
-31.49475253791655
 21
36.32925380612139
 72
     1
 10
-31.49475253791655
 20
36.32925380612139
 11
-30.09679949097625
 21
34.74839481234639
 72
     1
 10
-30.09679949097625
 20
34.74839481234639
 11
-31.49952370872455
 21
34.74839481234639
 72
     1
 10
-31.49952370872455
 20
34.74839481234639
 11
-32.19611464679005
 21
35.53612659764011
 72
     1
 10
-32.19611464679005
 20
35.53612659764011
 11
-32.89270558485575
 21
34.74839481234639
 72
     1
 10
-32.89270558485575
 20
34.74839481234639
 11
-34.29542980260396
 21
34.74839481234639
 72
     1
 10
-34.29542980260396
 20
34.74839481234639
 11
-32.89747675566366
 21
36.32925380612139
 72
     1
 10
-32.89747675566366
 20
36.32925380612139
 11
-34.20000638643114
 21
37.80220433615759
 72
     1
 10
-34.20000638643114
 20
37.80220433615759
 11
-32.79728216868185
 21
37.80220433615759
 72
     1
 10
-32.79728216868185
 20
37.80220433615759
 11
-32.19611464679005
 21
37.1223810146021
 72
     1
 10
-32.19611464679005
 20
37.1223810146021
 11
-31.59494712489726
 21
37.80220433615759
 72
     1
 10
-31.59494712489726
 20
37.80220433615759
 11
-30.19222290715004
 21
37.80220433615759
 97
       12
330
D8
330
D7
330
D6
330
133
330
134
330
130
330
131
330
DC
330
DB
330
DA
330
D9
330
132
 75
     1
 76
     0
 52
45.0
 41
0.1
 77
     0
 78
     1
 53
45.0
 43
0.0
 44
0.0
 45
-0.0707106781186548
 46
0.0707106781186548
 79
     0
 98
        1
 10
0.0
 20
0.0
  0
HATCH
  5
1B2
330
47
100
AcDbEntity
  8
1
  6
Continuous
 62
     2
100
AcDbHatch
 10
0.0
 20
0.0
 30
0.0
210
0.0
220
0.0
230
1.0
  2
_USER
 70
     0
 71
     1
 91
        1
 92
        1
 93
       12
 72
     1
 10
-30.19222290715004
 20
37.80220433615759
 11
-31.49475253791655
 21
36.32925380612139
 72
     1
 10
-31.49475253791655
 20
36.32925380612139
 11
-30.09679949097625
 21
34.74839481234639
 72
     1
 10
-30.09679949097625
 20
34.74839481234639
 11
-31.49952370872455
 21
34.74839481234639
 72
     1
 10
-31.49952370872455
 20
34.74839481234639
 11
-32.19611464679005
 21
35.53612659764011
 72
     1
 10
-32.19611464679005
 20
35.53612659764011
 11
-32.89270558485575
 21
34.74839481234639
 72
     1
 10
-32.89270558485575
 20
34.74839481234639
 11
-34.29542980260396
 21
34.74839481234639
 72
     1
 10
-34.29542980260396
 20
34.74839481234639
 11
-32.89747675566366
 21
36.32925380612139
 72
     1
 10
-32.89747675566366
 20
36.32925380612139
 11
-34.20000638643114
 21
37.80220433615759
 72
     1
 10
-34.20000638643114
 20
37.80220433615759
 11
-32.79728216868185
 21
37.80220433615759
 72
     1
 10
-32.79728216868185
 20
37.80220433615759
 11
-32.19611464679005
 21
37.1223810146021
 72
     1
 10
-32.19611464679005
 20
37.1223810146021
 11
-31.59494712489726
 21
37.80220433615759
 72
     1
 10
-31.59494712489726
 20
37.80220433615759
 11
-30.19222290715004
 21
37.80220433615759
 97
       12
330
D8
330
D7
330
D6
330
133
330
134
330
130
330
131
330
DC
330
DB
330
DA
330
D9
330
132
 75
     1
 76
     0
 52
45.0
 41
0.1
 77
     0
 78
     1
 53
45.0
 43
0.0
 44
0.0
 45
-0.0707106781186548
 46
0.0707106781186548
 79
     0
 98
        1
 10
0.0
 20
0.0
  0
HATCH
  5
1B3
330
47
100
AcDbEntity
  8
1
  6
Continuous
 62
     2
100
AcDbHatch
 10
0.0
 20
0.0
 30
0.0
210
0.0
220
0.0
230
1.0
  2
_USER
 70
     0
 71
     1
 91
        2
 92
        1
 93
        6
 72
     1
 10
-49.20995832129606
 20
35.6914730534902
 11
-49.96872590907634
 21
35.6914730534902
 72
     1
 10
-49.96872590907634
 20
35.6914730534902
 11
-49.96872590907634
 21
34.74839481234639
 72
     1
 10
-49.96872590907634
 20
34.74839481234639
 11
-51.20923031933046
 21
34.74839481234639
 72
     1
 10
-51.20923031933046
 20
34.74839481234639
 11
-51.20923031933046
 21
37.80220433615759
 72
     1
 10
-51.20923031933046
 20
37.80220433615759
 11
-49.20995832129606
 21
37.80220433615759
 72
     2
 10
-49.20995832129606
 20
36.74683869482391
 40
1.055365641333708
 50
270.0
 51
450.0
 73
     0
 97
        6
330
100
330
FF
330
10C
330
10B
330
101
330
151
 92
       16
 93
        4
 72
     2
 10
-49.65143084753444
 20
36.7862346660464
 40
0.3528638246711182
 50
270.0
 51
450.0
 73
     1
 72
     1
 10
-49.65143084753444
 20
37.13909849071749
 11
-49.96872590907634
 21
37.13909849071749
 72
     1
 10
-49.96872590907634
 20
37.13909849071749
 11
-49.96872590907634
 21
36.43337084137528
 72
     1
 10
-49.96872590907634
 20
36.43337084137528
 11
-49.65143084753444
 21
36.43337084137528
 97
        4
330
165
330
FD
330
10D
330
FE
 75
     1
 76
     0
 52
45.0
 41
0.1
 77
     0
 78
     1
 53
45.0
 43
0.0
 44
0.0
 45
-0.0707106781186548
 46
0.0707106781186548
 79
     0
 98
        1
 10
0.0
 20
0.0
  0
HATCH
  5
1B4
330
47
100
AcDbEntity
  8
1
  6
Continuous
 62
     2
100
AcDbHatch
 10
0.0
 20
0.0
 30
0.0
210
0.0
220
0.0
230
1.0
  2
_USER
 70
     0
 71
     1
 91
        2
 92
        1
 93
        6
 72
     1
 10
-49.20995832129606
 20
35.6914730534902
 11
-49.96872590907634
 21
35.6914730534902
 72
     1
 10
-49.96872590907634
 20
35.6914730534902
 11
-49.96872590907634
 21
34.74839481234639
 72
     1
 10
-49.96872590907634
 20
34.74839481234639
 11
-51.20923031933046
 21
34.74839481234639
 72
     1
 10
-51.20923031933046
 20
34.74839481234639
 11
-51.20923031933046
 21
37.80220433615759
 72
     1
 10
-51.20923031933046
 20
37.80220433615759
 11
-49.20995832129606
 21
37.80220433615759
 72
     2
 10
-49.20995832129606
 20
36.74683869482391
 40
1.055365641333708
 50
270.0
 51
450.0
 73
     0
 97
        6
330
100
330
FF
330
10C
330
10B
330
101
330
151
 92
       16
 93
        4
 72
     2
 10
-49.65143084753444
 20
36.7862346660464
 40
0.3528638246711182
 50
270.0
 51
450.0
 73
     1
 72
     1
 10
-49.65143084753444
 20
37.13909849071749
 11
-49.96872590907634
 21
37.13909849071749
 72
     1
 10
-49.96872590907634
 20
37.13909849071749
 11
-49.96872590907634
 21
36.43337084137528
 72
     1
 10
-49.96872590907634
 20
36.43337084137528
 11
-49.65143084753444
 21
36.43337084137528
 97
        4
330
165
330
FD
330
10D
330
FE
 75
     1
 76
     0
 52
45.0
 41
0.1
 77
     0
 78
     1
 53
45.0
 43
0.0
 44
0.0
 45
-0.0707106781186548
 46
0.0707106781186548
 79
     0
 98
        1
 10
0.0
 20
0.0
  0
HATCH
  5
1B5
330
47
100
AcDbEntity
  8
1
  6
Continuous
 62
     2
100
AcDbHatch
 10
0.0
 20
0.0
 30
0.0
210
0.0
220
0.0
230
1.0
  2
_USER
 70
     0
 71
     1
 91
        2
 92
        1
 93
        4
 72
     2
 10
-46.65341557293695
 20
32.37753408777459
 40
2.065479772208558
 50
62.45185182430646
 51
117.5481481756665
 73
     1
 72
     2
 10
-46.93435546477025
 20
32.91610909807739
 40
1.458034083651478
 50
117.5481481756627
 51
242.4518518243376
 73
     1
 72
     2
 10
-46.65341557293695
 20
33.45468410838069
 40
2.065479772208505
 50
242.4518518243401
 51
297.5481481756869
 73
     1
 72
     2
 10
-46.37247568110365
 20
32.91610909807739
 40
1.458034083652002
 50
297.5481481757007
 51
422.451851824299
 73
     1
 97
        4
330
15D
330
15C
330
15E
330
15B
 92
       16
 93
        4
 72
     2
 10
-46.85315560928336
 20
32.91610909807739
 40
0.7717997786796947
 50
321.8795802028417
 51
398.1204197971529
 73
     1
 72
     2
 10
-46.65341557293695
 20
33.07284027619789
 40
0.5179085730133043
 50
38.12041979714765
 51
141.8795802028582
 73
     1
 72
     2
 10
-46.45367553659085
 20
32.91610909807739
 40
0.7717997786794588
 50
141.8795802028367
 51
218.1204197971687
 73
     1
 72
     2
 10
-46.65341557293695
 20
32.75937791995739
 40
0.517908573013731
 50
218.1204197971925
 51
321.8795802028016
 73
     1
 97
        4
330
179
330
176
330
177
330
178
 75
     1
 76
     0
 52
45.0
 41
0.1
 77
     0
 78
     1
 53
45.0
 43
0.0
 44
0.0
 45
-0.0707106781186548
 46
0.0707106781186548
 79
     0
 98
        1
 10
0.0
 20
0.0
  0
HATCH
  5
1B6
330
47
100
AcDbEntity
  8
1
  6
Continuous
 62
     2
100
AcDbHatch
 10
0.0
 20
0.0
 30
0.0
210
0.0
220
0.0
230
1.0
  2
_USER
 70
     0
 71
     1
 91
        2
 92
        1
 93
        4
 72
     2
 10
-46.65341557293695
 20
32.37753408777459
 40
2.065479772208558
 50
62.45185182430646
 51
117.5481481756665
 73
     1
 72
     2
 10
-46.93435546477025
 20
32.91610909807739
 40
1.458034083651478
 50
117.5481481756627
 51
242.4518518243376
 73
     1
 72
     2
 10
-46.65341557293695
 20
33.45468410838069
 40
2.065479772208505
 50
242.4518518243401
 51
297.5481481756869
 73
     1
 72
     2
 10
-46.37247568110365
 20
32.91610909807739
 40
1.458034083652002
 50
297.5481481757007
 51
422.451851824299
 73
     1
 97
        4
330
15D
330
15C
330
15E
330
15B
 92
       16
 93
        4
 72
     2
 10
-46.85315560928336
 20
32.91610909807739
 40
0.7717997786796947
 50
321.8795802028417
 51
398.1204197971529
 73
     1
 72
     2
 10
-46.65341557293695
 20
33.07284027619789
 40
0.5179085730133043
 50
38.12041979714765
 51
141.8795802028582
 73
     1
 72
     2
 10
-46.45367553659085
 20
32.91610909807739
 40
0.7717997786794588
 50
141.8795802028367
 51
218.1204197971687
 73
     1
 72
     2
 10
-46.65341557293695
 20
32.75937791995739
 40
0.517908573013731
 50
218.1204197971925
 51
321.8795802028016
 73
     1
 97
        4
330
179
330
176
330
177
330
178
 75
     1
 76
     0
 52
45.0
 41
0.1
 77
     0
 78
     1
 53
45.0
 43
0.0
 44
0.0
 45
-0.0707106781186548
 46
0.0707106781186548
 79
     0
 98
        1
 10
0.0
 20
0.0
  0
HATCH
  5
1B7
330
47
100
AcDbEntity
  8
1
  6
Continuous
 62
     2
100
AcDbHatch
 10
0.0
 20
0.0
 30
0.0
210
0.0
220
0.0
230
1.0
  2
_USER
 70
     0
 71
     1
 91
        2
 92
        1
 93
       12
 72
     1
 10
-39.75842037852766
 20
37.10419073071461
 11
-41.09434820495534
 21
37.10419073071461
 72
     1
 10
-41.09434820495534
 20
37.10419073071461
 11
-41.09434820495534
 21
36.6243063769729
 72
     1
 10
-41.09434820495534
 20
36.6243063769729
 11
-39.75842037852766
 21
36.6243063769729
 72
     1
 10
-39.75842037852766
 20
36.6243063769729
 11
-39.75842037852766
 21
35.9262927715306
 72
     1
 10
-39.75842037852766
 20
35.9262927715306
 11
-41.09434820495534
 21
35.9262927715306
 72
     1
 10
-41.09434820495534
 20
35.9262927715306
 11
-41.09434820495534
 21
35.44640841778889
 72
     1
 10
-41.09434820495534
 20
35.44640841778889
 11
-39.75842037852766
 21
35.44640841778889
 72
     1
 10
-39.75842037852766
 20
35.44640841778889
 11
-39.75842037852766
 21
34.74839481234639
 72
     1
 10
-39.75842037852766
 20
34.74839481234639
 11
-42.90874010230866
 21
34.74839481234639
 72
     2
 10
-42.90874010230866
 20
36.2752995742517
 40
1.52690476190589
 50
90.0
 51
270.0
 73
     0
 72
     1
 10
-42.90874010230866
 20
37.80220433615759
 11
-39.75842037852766
 21
37.80220433615759
 72
     1
 10
-39.75842037852766
 20
37.80220433615759
 11
-39.75842037852766
 21
37.10419073071461
 97
       12
330
114
330
166
330
115
330
116
330
117
330
118
330
F5
330
F4
330
F3
330
F2
330
119
330
113
 92
       16
 93
        4
 72
     2
 10
-42.69246809214346
 20
36.43203075237219
 40
0.5179085730135178
 50
38.12041979714211
 51
141.8795802028501
 73
     1
 72
     2
 10
-42.49272805579716
 20
36.2752995742517
 40
0.7717997786796724
 50
141.8795802028404
 51
218.1204197971558
 73
     1
 72
     2
 10
-42.69246809214346
 20
36.11856839613128
 40
0.5179085730134372
 50
218.1204197971511
 51
321.8795802028566
 73
     1
 72
     2
 10
-42.89220812848964
 20
36.2752995742517
 40
0.7717997786796329
 50
321.8795802028442
 51
398.1204197971596
 73
     1
 97
        4
330
160
330
15F
330
15A
330
159
 75
     1
 76
     0
 52
45.0
 41
0.1
 77
     0
 78
     1
 53
45.0
 43
0.0
 44
0.0
 45
-0.0707106781186548
 46
0.0707106781186548
 79
     0
 98
        1
 10
0.0
 20
0.0
  0
HATCH
  5
1B8
330
47
100
AcDbEntity
  8
1
  6
Continuous
 62
     2
100
AcDbHatch
 10
0.0
 20
0.0
 30
0.0
210
0.0
220
0.0
230
1.0
  2
_USER
 70
     0
 71
     1
 91
        2
 92
        1
 93
       12
 72
     1
 10
-39.75842037852766
 20
37.10419073071461
 11
-41.09434820495534
 21
37.10419073071461
 72
     1
 10
-41.09434820495534
 20
37.10419073071461
 11
-41.09434820495534
 21
36.6243063769729
 72
     1
 10
-41.09434820495534
 20
36.6243063769729
 11
-39.75842037852766
 21
36.6243063769729
 72
     1
 10
-39.75842037852766
 20
36.6243063769729
 11
-39.75842037852766
 21
35.9262927715306
 72
     1
 10
-39.75842037852766
 20
35.9262927715306
 11
-41.09434820495534
 21
35.9262927715306
 72
     1
 10
-41.09434820495534
 20
35.9262927715306
 11
-41.09434820495534
 21
35.44640841778889
 72
     1
 10
-41.09434820495534
 20
35.44640841778889
 11
-39.75842037852766
 21
35.44640841778889
 72
     1
 10
-39.75842037852766
 20
35.44640841778889
 11
-39.75842037852766
 21
34.74839481234639
 72
     1
 10
-39.75842037852766
 20
34.74839481234639
 11
-42.90874010230866
 21
34.74839481234639
 72
     2
 10
-42.90874010230866
 20
36.2752995742517
 40
1.52690476190589
 50
90.0
 51
270.0
 73
     0
 72
     1
 10
-42.90874010230866
 20
37.80220433615759
 11
-39.75842037852766
 21
37.80220433615759
 72
     1
 10
-39.75842037852766
 20
37.80220433615759
 11
-39.75842037852766
 21
37.10419073071461
 97
       12
330
114
330
166
330
115
330
116
330
117
330
118
330
F5
330
F4
330
F3
330
F2
330
119
330
113
 92
       16
 93
        4
 72
     2
 10
-42.69246809214346
 20
36.43203075237219
 40
0.5179085730135178
 50
38.12041979714211
 51
141.8795802028501
 73
     1
 72
     2
 10
-42.49272805579716
 20
36.2752995742517
 40
0.7717997786796724
 50
141.8795802028404
 51
218.1204197971558
 73
     1
 72
     2
 10
-42.69246809214346
 20
36.11856839613128
 40
0.5179085730134372
 50
218.1204197971511
 51
321.8795802028566
 73
     1
 72
     2
 10
-42.89220812848964
 20
36.2752995742517
 40
0.7717997786796329
 50
321.8795802028442
 51
398.1204197971596
 73
     1
 97
        4
330
160
330
15F
330
15A
330
159
 75
     1
 76
     0
 52
45.0
 41
0.1
 77
     0
 78
     1
 53
45.0
 43
0.0
 44
0.0
 45
-0.0707106781186548
 46
0.0707106781186548
 79
     0
 98
        1
 10
0.0
 20
0.0
  0
HATCH
  5
1B9
330
47
100
AcDbEntity
  8
1
  6
Continuous
 62
     2
100
AcDbHatch
 10
0.0
 20
0.0
 30
0.0
210
0.0
220
0.0
230
1.0
  2
_USER
 70
     0
 71
     1
 91
        4
 92
        1
 93
        8
 72
     1
 10
-51.68634740019726
 20
37.3779597207556
 11
-51.68634740019726
 21
31.81344895155539
 72
     2
 10
-52.11059201558115
 20
31.81344895155539
 40
0.4242446153832908
 50
0.0
 51
90.0
 73
     0
 72
     1
 10
-52.11059201558115
 20
31.3892043361721
 11
-57.58390410629795
 21
31.3892043361721
 72
     2
 10
-57.58390410629795
 20
31.81344895155539
 40
0.4242446153828112
 50
90.0
 51
180.0
 73
     0
 72
     1
 10
-58.00814872168076
 20
31.81344895155539
 11
-58.00814872168076
 21
37.3779597207556
 72
     2
 10
-57.58390410629795
 20
37.3779597207556
 40
0.4242446153837989
 50
180.0
 51
270.0
 73
     0
 72
     1
 10
-57.58390410629795
 20
37.8022043361394
 11
-52.11059201558115
 21
37.8022043361394
 72
     2
 10
-52.11059201558115
 20
37.3779597207556
 40
0.4242446153838841
 50
270.0
 51
360.0
 73
     0
 97
        8
330
108
330
156
330
109
330
161
330
106
330
158
330
107
330
157
 92
       16
 93
        1
 72
     2
 10
-54.96431845578044
 20
35.05907749240009
 40
0.4709789327785003
 50
0.0
 51
360.0
 73
     1
 97
        1
330
17C
 92
       16
 93
        8
 72
     2
 10
-54.41446074301976
 20
33.94993589243168
 40
0.3157169230765359
 50
115.374008678353
 51
180.0
 73
     1
 72
     1
 10
-54.73017766609655
 20
33.94993589243168
 11
-54.73017766609655
 21
33.3680844857366
 72
     2
 10
-54.41446074301976
 20
33.3680844857366
 40
0.315716923076792
 50
180.0
 51
269.8110329574542
 73
     1
 72
     2
 10
-54.40884460770974
 20
35.07091943330559
 40
2.018561131933266
 50
269.8110329575858
 51
450.1889670424142
 73
     1
 72
     2
 10
-54.41446074301976
 20
36.77375438087469
 40
0.3157169230760711
 50
90.18896704254594
 51
180.0
 73
     1
 72
     1
 10
-54.73017766609655
 20
36.77375438087469
 11
-54.73017766609655
 21
36.16821909236791
 72
     2
 10
-54.41446074301976
 20
36.16821909236791
 40
0.315716923076792
 50
180.0
 51
244.6259913216475
 73
     1
 72
     2
 10
-54.94050344110764
 20
35.05907749240009
 40
0.911848150144456
 50
295.3740086781921
 51
424.625991321824
 73
     0
 97
        8
330
16E
330
CF
330
16B
330
16C
330
14A
330
CE
330
16D
330
149
 92
       16
 93
       12
 72
     2
 10
-56.99000942955146
 20
32.4174768148057
 40
0.3157169230756836
 50
180.0
 51
270.0
 73
     1
 72
     1
 10
-56.99000942955146
 20
32.10175989172899
 11
-55.51417616854184
 21
32.10175989172899
 72
     2
 10
-55.51417616854184
 20
32.4174768148057
 40
0.3157169230767138
 50
270.0
 51
360.0
 73
     1
 72
     1
 10
-55.19845924546524
 20
32.4174768148057
 11
-55.19845924546524
 21
33.9482477463373
 72
     2
 10
-55.51417616854184
 20
33.9482477463373
 40
0.3157169230766002
 50
0.0
 51
64.80558935146027
 73
     1
 72
     2
 10
-54.99159172096685
 20
35.05907749240009
 40
0.9118975235576147
 50
115.1944106485122
 51
244.8055893514718
 73
     0
 72
     2
 10
-55.51417616854184
 20
36.16990723846229
 40
0.3157169230761203
 50
295.1944106485397
 51
360.0
 73
     1
 72
     1
 10
-55.19845924546524
 20
36.16990723846229
 11
-55.19845924546524
 21
36.7739318575228
 72
     2
 10
-55.51417616854184
 20
36.7739318575228
 40
0.3157169230766002
 50
0.0
 51
90.0
 73
     1
 72
     1
 10
-55.51417616854184
 20
37.08964878059899
 11
-56.99000942955146
 21
37.08964878059899
 72
     2
 10
-56.99000942955146
 20
36.7739318575228
 40
0.3157169230761951
 50
90.0
 51
180.0
 73
     1
 72
     1
 10
-57.30572635262715
 20
36.7739318575228
 11
-57.30572635262715
 21
32.4174768148057
 97
       12
330
152
330
10A
330
155
330
105
330
162
330
163
330
154
330
104
330
153
330
103
330
164
330
102
 75
     1
 76
     0
 52
45.0
 41
0.1
 77
     0
 78
     1
 53
45.0
 43
0.0
 44
0.0
 45
-0.0707106781186548
 46
0.0707106781186548
 79
     0
 98
        1
 10
0.0
 20
0.0
  0
HATCH
  5
1BA
330
47
100
AcDbEntity
  8
1
  6
Continuous
 62
     2
100
AcDbHatch
 10
0.0
 20
0.0
 30
0.0
210
0.0
220
0.0
230
1.0
  2
_USER
 70
     0
 71
     1
 91
        4
 92
        1
 93
        8
 72
     1
 10
-51.68634740019726
 20
37.3779597207556
 11
-51.68634740019726
 21
31.81344895155539
 72
     2
 10
-52.11059201558115
 20
31.81344895155539
 40
0.4242446153832908
 50
0.0
 51
90.0
 73
     0
 72
     1
 10
-52.11059201558115
 20
31.3892043361721
 11
-57.58390410629795
 21
31.3892043361721
 72
     2
 10
-57.58390410629795
 20
31.81344895155539
 40
0.4242446153828112
 50
90.0
 51
180.0
 73
     0
 72
     1
 10
-58.00814872168076
 20
31.81344895155539
 11
-58.00814872168076
 21
37.3779597207556
 72
     2
 10
-57.58390410629795
 20
37.3779597207556
 40
0.4242446153837989
 50
180.0
 51
270.0
 73
     0
 72
     1
 10
-57.58390410629795
 20
37.8022043361394
 11
-52.11059201558115
 21
37.8022043361394
 72
     2
 10
-52.11059201558115
 20
37.3779597207556
 40
0.4242446153838841
 50
270.0
 51
360.0
 73
     0
 97
        8
330
108
330
156
330
109
330
161
330
106
330
158
330
107
330
157
 92
       16
 93
        1
 72
     2
 10
-54.96431845578044
 20
35.05907749240009
 40
0.4709789327785003
 50
0.0
 51
360.0
 73
     1
 97
        1
330
17C
 92
       16
 93
        8
 72
     2
 10
-54.41446074301976
 20
33.94993589243168
 40
0.3157169230765359
 50
115.374008678353
 51
180.0
 73
     1
 72
     1
 10
-54.73017766609655
 20
33.94993589243168
 11
-54.73017766609655
 21
33.3680844857366
 72
     2
 10
-54.41446074301976
 20
33.3680844857366
 40
0.315716923076792
 50
180.0
 51
269.8110329574542
 73
     1
 72
     2
 10
-54.40884460770974
 20
35.07091943330559
 40
2.018561131933266
 50
269.8110329575858
 51
450.1889670424142
 73
     1
 72
     2
 10
-54.41446074301976
 20
36.77375438087469
 40
0.3157169230760711
 50
90.18896704254594
 51
180.0
 73
     1
 72
     1
 10
-54.73017766609655
 20
36.77375438087469
 11
-54.73017766609655
 21
36.16821909236791
 72
     2
 10
-54.41446074301976
 20
36.16821909236791
 40
0.315716923076792
 50
180.0
 51
244.6259913216475
 73
     1
 72
     2
 10
-54.94050344110764
 20
35.05907749240009
 40
0.911848150144456
 50
295.3740086781921
 51
424.625991321824
 73
     0
 97
        8
330
16E
330
CF
330
16B
330
16C
330
14A
330
CE
330
16D
330
149
 92
       16
 93
       12
 72
     2
 10
-56.99000942955146
 20
32.4174768148057
 40
0.3157169230756836
 50
180.0
 51
270.0
 73
     1
 72
     1
 10
-56.99000942955146
 20
32.10175989172899
 11
-55.51417616854184
 21
32.10175989172899
 72
     2
 10
-55.51417616854184
 20
32.4174768148057
 40
0.3157169230767138
 50
270.0
 51
360.0
 73
     1
 72
     1
 10
-55.19845924546524
 20
32.4174768148057
 11
-55.19845924546524
 21
33.9482477463373
 72
     2
 10
-55.51417616854184
 20
33.9482477463373
 40
0.3157169230766002
 50
0.0
 51
64.80558935146027
 73
     1
 72
     2
 10
-54.99159172096685
 20
35.05907749240009
 40
0.9118975235576147
 50
115.1944106485122
 51
244.8055893514718
 73
     0
 72
     2
 10
-55.51417616854184
 20
36.16990723846229
 40
0.3157169230761203
 50
295.1944106485397
 51
360.0
 73
     1
 72
     1
 10
-55.19845924546524
 20
36.16990723846229
 11
-55.19845924546524
 21
36.7739318575228
 72
     2
 10
-55.51417616854184
 20
36.7739318575228
 40
0.3157169230766002
 50
0.0
 51
90.0
 73
     1
 72
     1
 10
-55.51417616854184
 20
37.08964878059899
 11
-56.99000942955146
 21
37.08964878059899
 72
     2
 10
-56.99000942955146
 20
36.7739318575228
 40
0.3157169230761951
 50
90.0
 51
180.0
 73
     1
 72
     1
 10
-57.30572635262715
 20
36.7739318575228
 11
-57.30572635262715
 21
32.4174768148057
 97
       12
330
152
330
10A
330
155
330
105
330
162
330
163
330
154
330
104
330
153
330
103
330
164
330
102
 75
     1
 76
     0
 52
45.0
 41
0.1
 77
     0
 78
     1
 53
45.0
 43
0.0
 44
0.0
 45
-0.0707106781186548
 46
0.0707106781186548
 79
     0
 98
        1
 10
0.0
 20
0.0
  0
HATCH
  5
1BB
330
47
100
AcDbEntity
  8
1
  6
Continuous
 62
     2
100
AcDbHatch
 10
0.0
 20
0.0
 30
0.0
210
0.0
220
0.0
230
1.0
  2
_USER
 70
     0
 71
     1
 91
        1
 92
        1
 93
       18
 72
     1
 10
-30.09679949097625
 20
33.65774855385959
 11
-30.90789852844964
 21
33.65774855385959
 72
     1
 10
-30.90789852844964
 20
33.65774855385959
 11
-30.90789852844964
 21
31.3892043361721
 72
     1
 10
-30.90789852844964
 20
31.3892043361721
 11
-32.10069123061734
 21
31.3892043361721
 72
     1
 10
-32.10069123061734
 20
31.3892043361721
 11
-32.10069123061734
 21
33.65774855385959
 72
     1
 10
-32.10069123061734
 20
33.65774855385959
 11
-33.20433053018545
 21
33.65774855385959
 72
     2
 10
-33.20433053018545
 20
32.7032255470335
 40
0.9545230068260935
 50
90.0
 51
109.337143219432
 73
     1
 72
     2
 10
-33.35100052828915
 20
33.12118052741639
 40
0.5115800601944099
 50
109.3371432194863
 51
151.4785267424235
 73
     1
 72
     2
 10
-32.97364327020776
 20
32.91610909807739
 40
0.9410597353348953
 50
151.478526742363
 51
208.5214732576693
 73
     1
 72
     2
 10
-33.35100052828915
 20
32.7110376687389
 40
0.5115800601960279
 50
208.5214732576862
 51
246.6277221118452
 73
     1
 72
     2
 10
-33.19456049558605
 20
33.07302968744889
 40
0.9059297849852708
 50
246.6277221118185
 51
288.4480761180823
 73
     1
 72
     2
 10
-33.61272822924795
 20
34.32657546348548
 40
2.227384008972746
 50
288.4480761181335
 51
301.9309089499396
 73
     1
 72
     1
 10
-32.43467318722404
 20
32.4362247443357
 11
-32.43467318722404
 21
31.56370773753238
 72
     2
 10
-33.77060110434076
 20
36.22879004333379
 40
4.852596863498825
 50
74.02000874166129
 51
84.8418552303636
 73
     0
 72
     2
 10
-33.48174500960494
 20
33.0288994601122
 40
1.639695123940442
 50
84.84185523032356
 51
164.9381082228987
 73
     0
 72
     2
 10
-33.90087285306655
 20
32.91610909807739
 40
1.205656168392994
 50
164.9381082229037
 51
195.0618917770969
 73
     0
 72
     2
 10
-33.48174500960494
 20
32.80331873604249
 40
1.639695123940207
 50
195.0618917771049
 51
270.0
 73
     0
 72
     1
 10
-33.48174500960494
 20
34.4430138599827
 11
-30.09679949097625
 21
34.44301385998318
 72
     1
 10
-30.09679949097625
 20
34.44301385998318
 11
-30.09679949097625
 21
33.65774855385959
 97
       18
330
D1
330
167
330
168
330
150
330
14F
330
135
330
14E
330
14D
330
169
330
14C
330
16A
330
14B
330
136
330
D0
330
D5
330
D4
330
D3
330
D2
 75
     1
 76
     0
 52
45.0
 41
0.1
 77
     0
 78
     1
 53
45.0
 43
0.0
 44
0.0
 45
-0.0707106781186548
 46
0.0707106781186548
 79
     0
 98
        1
 10
0.0
 20
0.0
  0
HATCH
  5
1BC
330
47
100
AcDbEntity
  8
1
  6
Continuous
 62
     2
100
AcDbHatch
 10
0.0
 20
0.0
 30
0.0
210
0.0
220
0.0
230
1.0
  2
_USER
 70
     0
 71
     1
 91
        1
 92
        1
 93
       18
 72
     1
 10
-30.09679949097625
 20
33.65774855385959
 11
-30.90789852844964
 21
33.65774855385959
 72
     1
 10
-30.90789852844964
 20
33.65774855385959
 11
-30.90789852844964
 21
31.3892043361721
 72
     1
 10
-30.90789852844964
 20
31.3892043361721
 11
-32.10069123061734
 21
31.3892043361721
 72
     1
 10
-32.10069123061734
 20
31.3892043361721
 11
-32.10069123061734
 21
33.65774855385959
 72
     1
 10
-32.10069123061734
 20
33.65774855385959
 11
-33.20433053018545
 21
33.65774855385959
 72
     2
 10
-33.20433053018545
 20
32.7032255470335
 40
0.9545230068260935
 50
90.0
 51
109.337143219432
 73
     1
 72
     2
 10
-33.35100052828915
 20
33.12118052741639
 40
0.5115800601944099
 50
109.3371432194863
 51
151.4785267424235
 73
     1
 72
     2
 10
-32.97364327020776
 20
32.91610909807739
 40
0.9410597353348953
 50
151.478526742363
 51
208.5214732576693
 73
     1
 72
     2
 10
-33.35100052828915
 20
32.7110376687389
 40
0.5115800601960279
 50
208.5214732576862
 51
246.6277221118452
 73
     1
 72
     2
 10
-33.19456049558605
 20
33.07302968744889
 40
0.9059297849852708
 50
246.6277221118185
 51
288.4480761180823
 73
     1
 72
     2
 10
-33.61272822924795
 20
34.32657546348548
 40
2.227384008972746
 50
288.4480761181335
 51
301.9309089499396
 73
     1
 72
     1
 10
-32.43467318722404
 20
32.4362247443357
 11
-32.43467318722404
 21
31.56370773753238
 72
     2
 10
-33.77060110434076
 20
36.22879004333379
 40
4.852596863498825
 50
74.02000874166129
 51
84.8418552303636
 73
     0
 72
     2
 10
-33.48174500960494
 20
33.0288994601122
 40
1.639695123940442
 50
84.84185523032356
 51
164.9381082228987
 73
     0
 72
     2
 10
-33.90087285306655
 20
32.91610909807739
 40
1.205656168392994
 50
164.9381082229037
 51
195.0618917770969
 73
     0
 72
     2
 10
-33.48174500960494
 20
32.80331873604249
 40
1.639695123940207
 50
195.0618917771049
 51
270.0
 73
     0
 72
     1
 10
-33.48174500960494
 20
34.4430138599827
 11
-30.09679949097625
 21
34.44301385998318
 72
     1
 10
-30.09679949097625
 20
34.44301385998318
 11
-30.09679949097625
 21
33.65774855385959
 97
       18
330
D1
330
167
330
168
330
150
330
14F
330
135
330
14E
330
14D
330
169
330
14C
330
16A
330
14B
330
136
330
D0
330
D5
330
D4
330
D3
330
D2
 75
     1
 76
     0
 52
45.0
 41
0.1
 77
     0
 78
     1
 53
45.0
 43
0.0
 44
0.0
 45
-0.0707106781186548
 46
0.0707106781186548
 79
     0
 98
        1
 10
0.0
 20
0.0
  0
HATCH
  5
1BD
330
47
100
AcDbEntity
  8
1
  6
Continuous
 62
     2
100
AcDbHatch
 10
0.0
 20
0.0
 30
0.0
210
0.0
220
0.0
230
1.0
  2
_USER
 70
     0
 71
     1
 91
        1
 92
        1
 93
       14
 72
     2
 10
-49.58444648885785
 20
32.80331873604249
 40
1.639695123940507
 50
84.84185523036236
 51
164.9381082228868
 73
     1
 72
     2
 10
-50.00357433232065
 20
32.91610909807739
 40
1.205656168390949
 50
164.9381082228769
 51
195.0618917770951
 73
     1
 72
     2
 10
-49.58444648885785
 20
33.0288994601122
 40
1.639695123939394
 50
195.0618917770895
 51
275.1581447696395
 73
     1
 72
     2
 10
-49.87330258359376
 20
36.22879004333379
 40
4.852596863498135
 50
275.158144769625
 51
285.9799912583529
 73
     1
 72
     1
 10
-48.53737466647596
 20
31.56370773753298
 11
-48.53737466647596
 21
32.43622474433619
 72
     2
 10
-49.71542970850084
 20
34.32657546348608
 40
2.227384008972739
 50
58.0690910500407
 51
71.55192388186703
 73
     0
 72
     2
 10
-49.29726197484004
 20
33.07302968744889
 40
0.9059297849849127
 50
71.55192388184138
 51
113.3722778881291
 73
     0
 72
     2
 10
-49.45370200754206
 20
32.7110376687389
 40
0.5115800601948067
 50
113.3722778881723
 51
151.4785267423038
 73
     0
 72
     2
 10
-49.07634474946175
 20
32.91610909807739
 40
0.9410597353332607
 50
151.4785267422941
 51
208.5214732577329
 73
     0
 72
     2
 10
-49.45370200754206
 20
33.12118052741639
 40
0.5115800601948648
 50
208.5214732576956
 51
246.6277221118002
 73
     0
 72
     2
 10
-49.29726197484004
 20
32.75918850870579
 40
0.9059297849853228
 50
246.6277221118709
 51
288.4480761181465
 73
     0
 72
     2
 10
-49.71542970850084
 20
31.5056427326692
 40
2.227384008973484
 50
288.448076118133
 51
301.9309089499592
 73
     0
 72
     1
 10
-48.53737466647596
 20
33.3959934518191
 11
-48.53737466647596
 21
34.26851045862239
 72
     2
 10
-49.87330258359376
 20
29.60342815282149
 40
4.852596863498071
 50
74.02000874164739
 51
84.84185523037499
 73
     1
 97
       14
330
16F
330
170
330
171
330
172
330
137
330
148
330
147
330
146
330
173
330
174
330
145
330
175
330
138
330
144
 75
     1
 76
     0
 52
45.0
 41
0.1
 77
     0
 78
     1
 53
45.0
 43
0.0
 44
0.0
 45
-0.0707106781186548
 46
0.0707106781186548
 79
     0
 98
        1
 10
0.0
 20
0.0
  0
HATCH
  5
1BE
330
47
100
AcDbEntity
  8
1
  6
Continuous
 62
     2
100
AcDbHatch
 10
0.0
 20
0.0
 30
0.0
210
0.0
220
0.0
230
1.0
  2
_USER
 70
     0
 71
     1
 91
        1
 92
        1
 93
       14
 72
     2
 10
-49.58444648885785
 20
32.80331873604249
 40
1.639695123940507
 50
84.84185523036236
 51
164.9381082228868
 73
     1
 72
     2
 10
-50.00357433232065
 20
32.91610909807739
 40
1.205656168390949
 50
164.9381082228769
 51
195.0618917770951
 73
     1
 72
     2
 10
-49.58444648885785
 20
33.0288994601122
 40
1.639695123939394
 50
195.0618917770895
 51
275.1581447696395
 73
     1
 72
     2
 10
-49.87330258359376
 20
36.22879004333379
 40
4.852596863498135
 50
275.158144769625
 51
285.9799912583529
 73
     1
 72
     1
 10
-48.53737466647596
 20
31.56370773753298
 11
-48.53737466647596
 21
32.43622474433619
 72
     2
 10
-49.71542970850084
 20
34.32657546348608
 40
2.227384008972739
 50
58.0690910500407
 51
71.55192388186703
 73
     0
 72
     2
 10
-49.29726197484004
 20
33.07302968744889
 40
0.9059297849849127
 50
71.55192388184138
 51
113.3722778881291
 73
     0
 72
     2
 10
-49.45370200754206
 20
32.7110376687389
 40
0.5115800601948067
 50
113.3722778881723
 51
151.4785267423038
 73
     0
 72
     2
 10
-49.07634474946175
 20
32.91610909807739
 40
0.9410597353332607
 50
151.4785267422941
 51
208.5214732577329
 73
     0
 72
     2
 10
-49.45370200754206
 20
33.12118052741639
 40
0.5115800601948648
 50
208.5214732576956
 51
246.6277221118002
 73
     0
 72
     2
 10
-49.29726197484004
 20
32.75918850870579
 40
0.9059297849853228
 50
246.6277221118709
 51
288.4480761181465
 73
     0
 72
     2
 10
-49.71542970850084
 20
31.5056427326692
 40
2.227384008973484
 50
288.448076118133
 51
301.9309089499592
 73
     0
 72
     1
 10
-48.53737466647596
 20
33.3959934518191
 11
-48.53737466647596
 21
34.26851045862239
 72
     2
 10
-49.87330258359376
 20
29.60342815282149
 40
4.852596863498071
 50
74.02000874164739
 51
84.84185523037499
 73
     1
 97
       14
330
16F
330
170
330
171
330
172
330
137
330
148
330
147
330
146
330
173
330
174
330
145
330
175
330
138
330
144
 75
     1
 76
     0
 52
45.0
 41
0.1
 77
     0
 78
     1
 53
45.0
 43
0.0
 44
0.0
 45
-0.0707106781186548
 46
0.0707106781186548
 79
     0
 98
        1
 10
0.0
 20
0.0
  0
ENDBLK
  5
49
330
47
100
AcDbEntity
  8
0
100
AcDbBlockEnd
  0
BLOCK
  5
4B
330
4A
100
AcDbEntity
  8
0
100
AcDbBlockBegin
  2
_punkt
 70
     0
 10
67.30000091850665
 20
24.09570433615579
 30
0.0
  3
_punkt
  1

  0
LINE
  5
1BF
330
4A
100
AcDbEntity
  8
1
  6
Continuous
 62
     2
100
AcDbLine
 10
67.30000091850665
 20
24.09570433615579
 30
0.0
 11
72.30000091850565
 21
24.09570433615579
 31
0.0
  0
LINE
  5
1C0
330
4A
100
AcDbEntity
  8
1
  6
Continuous
 62
     2
100
AcDbLine
 10
67.30000091850665
 20
24.09570433615579
 30
0.0
 11
67.30000091850665
 21
19.09570433615568
 31
0.0
  0
ENDBLK
  5
4C
330
4A
100
AcDbEntity
  8
0
100
AcDbBlockEnd
  0
BLOCK
  5
50
330
4D
100
AcDbEntity
  8
0
100
AcDbBlockBegin
  2
A4I_CS
 70
     0
 10
67.30000091850665
 20
19.09570433615568
 30
0.0
  3
A4I_CS
  1

  0
INSERT
  5
4E
330
4D
100
AcDbEntity
  8
1
100
AcDbBlockReference
  2
_rahmen
 10
67.30000091850665
 20
19.09570433615568
 30
0.0
  0
INSERT
  5
4F
330
4D
100
AcDbEntity
  8
1
100
AcDbBlockReference
  2
_punkt
 10
67.30000091850665
 20
24.09570433615579
 30
0.0
  0
ENDBLK
  5
51
330
4D
100
AcDbEntity
  8
0
100
AcDbBlockEnd
  0
BLOCK
  5
53
330
52
100
AcDbEntity
  8
0
100
AcDbBlockBegin
  2
HC-RBO_12-FE-select__1
 70
     0
 10
-53.38972980503442
 20
140.632513879153
 30
0.0
  3
HC-RBO_12-FE-select__1
  1

  0
LINE
  5
1C1
330
52
100
AcDbEntity
  8
0
  6
Continuous
 62
     7
100
AcDbLine
 10
46.98351216253786
 20
202.1290797005324
 30
0.0
 11
-45.0483653788784
 21
228.6877949198502
 31
0.0
  0
LINE
  5
1C2
330
52
100
AcDbEntity
  8
0
  6
Continuous
 62
     7
100
AcDbLine
 10
1.9032425239252
 20
158.153948757188
 30
0.0
 11
11.89746918357758
 21
151.6324911911296
 31
0.0
  0
LINE
  5
1C3
330
52
100
AcDbEntity
  8
0
  6
Continuous
 62
     7
100
AcDbLine
 10
16.48209244179321
 20
225.0174378502847
 30
0.0
 11
10.83969318947391
 21
220.1293945775233
 31
0.0
  0
LINE
  5
1C4
330
52
100
AcDbEntity
  8
0
  6
Continuous
 62
     7
100
AcDbLine
 10
13.16206440617617
 20
238.7051015780758
 30
0.0
 11
16.62644632862407
 21
237.7053443706159
 31
0.0
  0
LINE
  5
1C5
330
52
100
AcDbEntity
  8
0
  6
Continuous
 62
     7
100
AcDbLine
 10
11.25665434883007
 20
238.9951604212443
 30
0.0
 11
18.5318563859708
 21
236.8956702855678
 31
0.0
  0
LINE
  5
1C6
330
52
100
AcDbEntity
  8
0
  6
Continuous
 62
     7
100
AcDbLine
 10
18.53185638597051
 20
237.1554779065129
 30
0.0
 11
18.5318563859708
 21
236.8956702855678
 31
0.0
  0
LINE
  5
1C7
330
52
100
AcDbEntity
  8
0
  6
Continuous
 62
     7
100
AcDbLine
 10
16.42629720516089
 20
238.5713287211476
 30
0.0
 11
13.86189445147801
 21
239.3113684145812
 31
0.0
  0
LINE
  5
1C8
330
52
100
AcDbEntity
  8
0
  6
Continuous
 62
     7
100
AcDbLine
 10
16.61558609014696
 20
240.9127724306402
 30
0.0
 11
17.31541613544846
 21
241.5190392671454
 31
0.0
  0
LINE
  5
1C9
330
52
100
AcDbEntity
  8
0
  6
Continuous
 62
     7
100
AcDbLine
 10
11.25665434883007
 20
238.9951604212443
 30
0.0
 11
11.2566543488299
 21
239.2549680421787
 31
0.0
  0
LINE
  5
1CA
330
52
100
AcDbEntity
  8
0
  6
Continuous
 62
     7
100
AcDbLine
 10
15.97115333502501
 20
239.251092269031
 30
0.0
 11
13.9510165610335
 21
239.8340667634976
 31
0.0
  0
LINE
  5
1CB
330
52
100
AcDbEntity
  8
0
  6
Continuous
 62
     7
100
AcDbLine
 10
13.16206440617617
 20
238.7051015780758
 30
0.0
 11
13.86189445147801
 21
239.3113684145812
 31
0.0
  0
LINE
  5
1CC
330
52
100
AcDbEntity
  8
0
  6
Continuous
 62
     7
100
AcDbLine
 10
16.61558609014696
 20
240.9127724306402
 30
0.0
 11
13.17292464465498
 21
241.9062615060429
 31
0.0
  0
LINE
  5
1CD
330
52
100
AcDbEntity
  8
0
  6
Continuous
 62
     7
100
AcDbLine
 10
17.31541613544846
 20
241.5190392671454
 30
0.0
 11
13.87275468995676
 21
242.5125283425484
 31
0.0
  0
LINE
  5
1CE
330
52
100
AcDbEntity
  8
0
  6
Continuous
 62
     7
100
AcDbLine
 10
1.9032425239252
 20
158.153948757188
 30
0.0
 11
1.90324252410079
 21
200.6231895231036
 31
0.0
  0
LINE
  5
1CF
330
52
100
AcDbEntity
  8
0
  6
Continuous
 62
     7
100
AcDbLine
 10
10.83969318947391
 20
220.1293945775233
 30
0.0
 11
8.76121699638156
 21
220.1292555071115
 31
0.0
  0
LINE
  5
1D0
330
52
100
AcDbEntity
  8
0
  6
Continuous
 62
     7
100
AcDbLine
 10
-3.22754502538712
 20
210.9899065692539
 30
0.0
 11
-49.28300050724181
 21
224.2806679785061
 31
0.0
  0
LINE
  5
1D1
330
52
100
AcDbEntity
  8
0
  6
Continuous
 62
     7
100
AcDbLine
 10
-1.86067606449723
 20
208.2281582762212
 30
0.0
 11
-47.583413254546
 21
221.4229032765373
 31
0.0
  0
LINE
  5
1D2
330
52
100
AcDbEntity
  8
0
  6
Continuous
 62
     2
100
AcDbLine
 10
-21.063196183765
 20
235.8523208829008
 30
0.0
 11
-2.00909561033109
 21
230.3536562418113
 31
0.0
  0
LINE
  5
1D3
330
52
100
AcDbEntity
  8
0
  6
Continuous
 62
     2
100
AcDbLine
 10
-42.54236410305521
 20
234.8997326361084
 30
0.0
 11
-41.02032314430301
 21
235.9824172848838
 31
0.0
  0
LINE
  5
1D4
330
52
100
AcDbEntity
  8
0
  6
Continuous
 62
     7
100
AcDbLine
 10
-1.48961414878164
 20
230.5438784306774
 30
0.0
 11
-2.00909561033194
 21
230.0938486206774
 31
0.0
  0
LINE
  5
1D5
330
52
100
AcDbEntity
  8
0
  6
Continuous
 62
     7
100
AcDbLine
 10
-2.00909561033194
 20
230.0938486206774
 30
0.0
 11
-2.37857928786349
 21
229.7737627629426
 31
0.0
  0
LINE
  5
1D6
330
52
100
AcDbEntity
  8
0
  6
Continuous
 62
     7
100
AcDbLine
 10
-2.52857707704462
 20
229.9036264273402
 30
0.0
 11
-2.00909561033109
 21
230.3536562418113
 31
0.0
  0
LINE
  5
1D7
330
52
100
AcDbEntity
  8
0
  6
Continuous
 62
     2
100
AcDbLine
 10
-2.00909561033194
 20
230.0938486206774
 30
0.0
 11
-2.00909561033109
 21
230.3536562418113
 31
0.0
  0
LINE
  5
1D8
330
52
100
AcDbEntity
  8
0
  6
Continuous
 62
     7
100
AcDbLine
 10
-1.48961414878164
 20
230.5438784306774
 30
0.0
 11
-1.48961414878124
 21
230.8036860518091
 31
0.0
  0
LINE
  5
1D9
330
52
100
AcDbEntity
  8
0
  6
Continuous
 62
     2
100
AcDbLine
 10
-38.4809480707612
 20
235.2496001218323
 30
0.0
 11
-41.02032314430301
 21
235.9824172848838
 31
0.0
  0
LINE
  5
1DA
330
52
100
AcDbEntity
  8
0
  6
Continuous
 62
     2
100
AcDbLine
 10
-24.52757810622032
 20
236.8520780903594
 30
0.0
 11
-24.52757810620952
 21
235.8523208877398
 31
0.0
  0
LINE
  5
1DB
330
52
100
AcDbEntity
  8
0
  6
Continuous
 62
     7
100
AcDbLine
 10
8.76121699638156
 20
220.1292555071115
 30
0.0
 11
-2.52857707704462
 21
229.9036264273402
 31
0.0
  0
LINE
  5
1DC
330
52
100
AcDbEntity
  8
0
  6
Continuous
 62
     2
100
AcDbLine
 10
-2.00909561033194
 20
230.0938486206774
 30
0.0
 11
16.25712886804649
 21
224.8225505985865
 31
0.0
  0
LINE
  5
1DD
330
52
100
AcDbEntity
  8
0
  6
Continuous
 62
     7
100
AcDbLine
 10
11.89746918357758
 20
151.6324911911296
 30
0.0
 11
50.0148463447116
 21
140.632513879153
 31
0.0
  0
LINE
  5
1DE
330
52
100
AcDbEntity
  8
0
  6
Continuous
 62
     7
100
AcDbLine
 10
19.23168643127201
 20
237.5019371220705
 30
0.0
 11
18.5318563859708
 21
236.8956702855678
 31
0.0
  0
LINE
  5
1DF
330
52
100
AcDbEntity
  8
0
  6
Continuous
 62
     7
100
AcDbLine
 10
46.98351216253786
 20
202.1290797005324
 30
0.0
 11
50.01484634462929
 21
198.2232032307586
 31
0.0
  0
LINE
  5
1E0
330
52
100
AcDbEntity
  8
0
  6
Continuous
 62
     7
100
AcDbLine
 10
50.01484634474247
 20
196.9240929561839
 30
0.0
 11
50.0148463447116
 21
140.632513879153
 31
0.0
  0
LINE
  5
1E1
330
52
100
AcDbEntity
  8
0
  6
Continuous
 62
     7
100
AcDbLine
 10
-53.38972980503442
 20
225.5025966704191
 30
0.0
 11
-42.54236410305521
 21
234.8997326361084
 31
0.0
  0
LINE
  5
1E2
330
52
100
AcDbEntity
  8
0
  6
Continuous
 62
     7
100
AcDbLine
 10
-45.0483653788784
 20
228.6877949198502
 30
0.0
 11
-32.85132744683563
 21
239.2541597842417
 31
0.0
  0
LINE
  5
1E3
330
52
100
AcDbEntity
  8
0
  6
Continuous
 62
     7
100
AcDbLine
 10
-38.4809480707612
 20
235.2496001218323
 30
0.0
 11
-49.32831377273283
 21
225.8524641562717
 31
0.0
  0
LINE
  5
1E4
330
52
100
AcDbEntity
  8
0
  6
Continuous
 62
     7
100
AcDbLine
 10
-51.86768884617041
 20
226.5852813192742
 30
0.0
 11
-41.02032314430301
 21
235.9824172848838
 31
0.0
  0
LINE
  5
1E5
330
52
100
AcDbEntity
  8
0
  6
Continuous
 62
     7
100
AcDbLine
 10
-47.58341325454191
 20
223.7901982082385
 30
0.0
 11
-47.583413254546
 21
221.4229032765373
 31
0.0
  0
LINE
  5
1E6
330
52
100
AcDbEntity
  8
0
  6
Continuous
 62
     7
100
AcDbLine
 10
-47.93332827708611
 20
221.1197698583055
 30
0.0
 11
-47.93332827708292
 21
223.8911772785664
 31
0.0
  0
LINE
  5
1E7
330
52
100
AcDbEntity
  8
0
  6
Continuous
 62
     7
100
AcDbLine
 10
-47.93332827708611
 20
221.1197698583055
 30
0.0
 11
-47.583413254546
 21
221.4229032765373
 31
0.0
  0
LINE
  5
1E8
330
52
100
AcDbEntity
  8
0
  6
Continuous
 62
     7
100
AcDbLine
 10
-47.93332827708611
 20
221.1197698583055
 30
0.0
 11
-50.39560410656611
 21
221.8303375909162
 31
0.0
  0
LINE
  5
1E9
330
52
100
AcDbEntity
  8
0
  6
Continuous
 62
     7
100
AcDbLine
 10
-49.32831377273283
 20
225.8524641562717
 30
0.0
 11
-51.86768884617041
 21
226.5852813192742
 31
0.0
  0
LINE
  5
1EA
330
52
100
AcDbEntity
  8
0
  6
Continuous
 62
     7
100
AcDbLine
 10
-53.38972980488933
 20
223.1274001619738
 30
0.0
 11
-52.76283995718291
 21
222.5845854893892
 31
0.0
  0
LINE
  5
1EB
330
52
100
AcDbEntity
  8
0
  6
Continuous
 62
     7
100
AcDbLine
 10
-53.38972980488933
 20
223.1274001619738
 30
0.0
 11
-53.38972980503442
 21
225.5025966704191
 31
0.0
  0
LINE
  5
1EC
330
52
100
AcDbEntity
  8
0
  6
Continuous
 62
     7
100
AcDbLine
 10
-49.28300050724181
 20
224.2806679785061
 30
0.0
 11
-49.2830005072378
 21
225.6755406041722
 31
0.0
  0
LINE
  5
1ED
330
52
100
AcDbEntity
  8
0
  6
Continuous
 62
     7
100
AcDbLine
 10
-52.85081081068952
 20
224.9717095597559
 30
0.0
 11
-52.10099290507762
 21
225.6212811702393
 31
0.0
  0
LINE
  5
1EE
330
52
100
AcDbEntity
  8
0
  6
Continuous
 62
     7
100
AcDbLine
 10
-50.23171172674122
 20
221.9484133472651
 30
0.0
 11
-49.48189382112932
 21
222.5979849577486
 31
0.0
  0
LINE
  5
1EF
330
52
100
AcDbEntity
  8
0
  6
Continuous
 62
     7
100
AcDbLine
 10
-51.86768884617041
 20
226.5852813192742
 30
0.0
 11
-53.38972980503442
 21
225.5025966704191
 31
0.0
  0
LINE
  5
1F0
330
52
100
AcDbEntity
  8
0
  6
Continuous
 62
     7
100
AcDbLine
 10
-45.0483653788784
 20
228.6877949198502
 30
0.0
 11
-49.2830005072378
 21
225.6755406041722
 31
0.0
  0
LINE
  5
1F1
330
52
100
AcDbEntity
  8
0
  6
Continuous
 62
     7
100
AcDbLine
 10
-49.2830005072378
 20
225.6755406041722
 30
0.0
 11
-47.93332827727312
 21
226.8447695029273
 31
0.0
  0
LINE
  5
1F2
330
52
100
AcDbEntity
  8
0
  6
Continuous
 62
     7
100
AcDbLine
 10
-49.32831377273283
 20
225.8524641562717
 30
0.0
 11
-47.93332827727312
 21
226.8447695029273
 31
0.0
  0
LINE
  5
1F3
330
52
100
AcDbEntity
  8
0
  6
Continuous
 62
     7
100
AcDbLine
 10
-42.54236410305521
 20
234.8997326361084
 30
0.0
 11
-31.69499840324153
 21
244.2968685999217
 31
0.0
  0
LINE
  5
1F4
330
52
100
AcDbEntity
  8
0
  6
Continuous
 62
     2
100
AcDbLine
 10
-38.4809480707612
 20
235.2496001218323
 30
0.0
 11
-32.85132744683563
 21
239.2541597842417
 31
0.0
  0
LINE
  5
1F5
330
52
100
AcDbEntity
  8
0
  6
Continuous
 62
     7
100
AcDbLine
 10
-41.02032314430301
 20
235.9824172848838
 30
0.0
 11
-30.17295744460031
 21
245.3795532486183
 31
0.0
  0
LINE
  5
1F6
330
52
100
AcDbEntity
  8
0
  6
Continuous
 62
     7
100
AcDbLine
 10
-27.6335823709434
 20
244.6467360855272
 30
0.0
 11
-38.4809480707612
 21
235.2496001218323
 31
0.0
  0
LINE
  5
1F7
330
52
100
AcDbEntity
  8
0
  6
Continuous
 62
     7
100
AcDbLine
 10
-30.17295744460031
 20
245.3795532486183
 30
0.0
 11
-27.6335823709434
 21
244.6467360855272
 31
0.0
  0
LINE
  5
1F8
330
52
100
AcDbEntity
  8
0
  6
Continuous
 62
     7
100
AcDbLine
 10
-20.65428951479751
 20
249.8205246486122
 30
0.0
 11
-24.88892464337141
 21
246.8082703327816
 31
0.0
  0
LINE
  5
1F9
330
52
100
AcDbEntity
  8
0
  6
Continuous
 62
     7
100
AcDbLine
 10
1.90324252410079
 20
200.6231895231036
 30
0.0
 11
-3.22754502538712
 21
210.9899065692539
 31
0.0
  0
LINE
  5
1FA
330
52
100
AcDbEntity
  8
0
  6
Continuous
 62
     7
100
AcDbLine
 10
13.17292464465498
 20
241.9062615060429
 30
0.0
 11
13.87275468995676
 21
242.5125283425484
 31
0.0
  0
LINE
  5
1FB
330
52
100
AcDbEntity
  8
0
  6
Continuous
 62
     7
100
AcDbLine
 10
12.84403137455917
 20
241.9859508339692
 30
0.0
 11
12.14420132925761
 21
241.3796839974638
 31
0.0
  0
LINE
  5
1FC
330
52
100
AcDbEntity
  8
0
  6
Continuous
 62
     7
100
AcDbLine
 10
74.4089222086534
 20
219.3559329594703
 30
0.0
 11
62.2118842767553
 21
208.7895680951474
 31
0.0
  0
LINE
  5
1FD
330
52
100
AcDbEntity
  8
0
  6
Continuous
 62
     7
100
AcDbLine
 10
21.08498985328799
 20
230.8054115737826
 30
0.0
 11
-1.48961414878124
 21
230.8036860518091
 31
0.0
  0
LINE
  5
1FE
330
52
100
AcDbEntity
  8
0
  6
Continuous
 62
     2
100
AcDbLine
 10
59.1805500945931
 20
212.6954445649203
 30
0.0
 11
62.2118842767553
 21
208.7895680951474
 31
0.0
  0
LINE
  5
1FF
330
52
100
AcDbEntity
  8
0
  6
Continuous
 62
     7
100
AcDbLine
 10
66.5423616798116
 20
206.2407613111876
 30
0.0
 11
78.7393996117201
 21
216.8071261754191
 31
0.0
  0
LINE
  5
200
330
52
100
AcDbEntity
  8
0
  6
Continuous
 62
     2
100
AcDbLine
 10
62.2118842767553
 20
208.7895680951474
 30
0.0
 11
66.5423616798123
 21
207.5398715858077
 31
0.0
  0
LINE
  5
201
330
52
100
AcDbEntity
  8
0
  6
Continuous
 62
     7
100
AcDbLine
 10
74.4089222086534
 20
219.3559329594703
 30
0.0
 11
71.3775880265342
 21
223.2618094292095
 31
0.0
  0
LINE
  5
202
330
52
100
AcDbEntity
  8
0
  6
Continuous
 62
     7
100
AcDbLine
 10
21.08498985328748
 20
230.5456039526706
 30
0.0
 11
21.08498985328799
 21
230.8054115737826
 31
0.0
  0
LINE
  5
203
330
52
100
AcDbEntity
  8
0
  6
Continuous
 62
     7
100
AcDbLine
 10
62.2118842767553
 20
208.7895680951474
 30
0.0
 11
50.01484634462929
 21
198.2232032307586
 31
0.0
  0
LINE
  5
204
330
52
100
AcDbEntity
  8
0
  6
Continuous
 62
     7
100
AcDbLine
 10
59.1805500945931
 20
212.6954445649203
 30
0.0
 11
46.98351216253786
 21
202.1290797005324
 31
0.0
  0
LINE
  5
205
330
52
100
AcDbEntity
  8
0
  6
Continuous
 62
     7
100
AcDbLine
 10
54.34532374778911
 20
195.6743964468575
 30
0.0
 11
66.5423616798116
 21
206.2407613111876
 31
0.0
  0
LINE
  5
206
330
52
100
AcDbEntity
  8
0
  6
Continuous
 62
     2
100
AcDbLine
 10
16.48209244179321
 20
225.0174378502847
 30
0.0
 11
59.1805500945931
 21
212.6954445649203
 31
0.0
  0
LINE
  5
207
330
52
100
AcDbEntity
  8
0
  6
Continuous
 62
     7
100
AcDbLine
 10
59.1805500945931
 20
212.6954445649203
 30
0.0
 11
71.3775880265342
 21
223.2618094292095
 31
0.0
  0
LINE
  5
208
330
52
100
AcDbEntity
  8
0
  6
Continuous
 62
     7
100
AcDbLine
 10
50.01484634474247
 20
196.9240929561839
 30
0.0
 11
54.34532374778911
 21
195.6743964468575
 31
0.0
  0
LINE
  5
209
330
52
100
AcDbEntity
  8
0
  6
Continuous
 62
     7
100
AcDbLine
 10
54.34532374778991
 20
196.9735067213891
 30
0.0
 11
54.34532374778911
 21
195.6743964468575
 31
0.0
  0
LINE
  5
20A
330
52
100
AcDbEntity
  8
0
  6
Continuous
 62
     2
100
AcDbLine
 10
69.2473475643393
 20
201.9953516694781
 30
0.0
 11
70.4598812372091
 21
201.6454366468649
 31
0.0
  0
LINE
  5
20B
330
52
100
AcDbEntity
  8
0
  6
Continuous
 62
     7
100
AcDbLine
 10
54.34532374778991
 20
196.9735067213891
 30
0.0
 11
66.5423616798123
 21
207.5398715858077
 31
0.0
  0
LINE
  5
20C
330
52
100
AcDbEntity
  8
0
  6
Continuous
 62
     2
100
AcDbLine
 10
66.5423616798123
 20
207.5398715858077
 30
0.0
 11
66.5423616798116
 21
206.2407613111876
 31
0.0
  0
LINE
  5
20D
330
52
100
AcDbEntity
  8
0
  6
Continuous
 62
     7
100
AcDbLine
 10
50.01484634462929
 20
198.2232032307586
 30
0.0
 11
54.34532374778991
 21
196.9735067213891
 31
0.0
  0
LINE
  5
20E
330
52
100
AcDbEntity
  8
0
  6
Continuous
 62
     7
100
AcDbLine
 10
69.2473475642894
 20
181.0797016014687
 30
0.0
 11
53.96388731419137
 21
185.4902284665589
 31
0.0
  0
LINE
  5
20F
330
52
100
AcDbEntity
  8
0
  6
Continuous
 62
     7
100
AcDbLine
 10
70.4598812372091
 20
201.6454366468649
 30
0.0
 11
70.4598812371472
 21
162.6742934766201
 31
0.0
  0
LINE
  5
210
330
52
100
AcDbEntity
  8
0
  6
Continuous
 62
     7
100
AcDbLine
 10
69.2473475643393
 20
201.9953516694781
 30
0.0
 11
69.2473475642463
 21
163.0242084992421
 31
0.0
  0
LINE
  5
211
330
52
100
AcDbEntity
  8
0
  6
Continuous
 62
     7
100
AcDbLine
 10
53.96388731419199
 20
166.8570814537351
 30
0.0
 11
70.2474687244901
 21
162.1579379288947
 31
0.0
  0
LINE
  5
212
330
52
100
AcDbEntity
  8
0
  6
Continuous
 62
     7
100
AcDbLine
 10
71.7467405829475
 20
160.8593201818165
 30
0.0
 11
69.2473475642463
 21
163.0242084992421
 31
0.0
  0
LINE
  5
213
330
52
100
AcDbEntity
  8
0
  6
Continuous
 62
     7
100
AcDbLine
 10
69.2473475642463
 20
163.0242084992421
 30
0.0
 11
70.4598812371472
 21
162.6742934766201
 31
0.0
  0
LINE
  5
214
330
52
100
AcDbEntity
  8
0
  6
Continuous
 62
     7
100
AcDbLine
 10
72.9592742558243
 20
160.5094051592213
 30
0.0
 11
71.7467405829475
 21
160.8593201818165
 31
0.0
  0
LINE
  5
215
330
52
100
AcDbEntity
  8
0
  6
Continuous
 62
     7
100
AcDbLine
 10
70.4598812371472
 20
162.6742934766201
 30
0.0
 11
72.9592742558243
 21
160.5094051592213
 31
0.0
  0
LINE
  5
216
330
52
100
AcDbEntity
  8
0
  6
Continuous
 62
     7
100
AcDbLine
 10
74.4089222086426
 20
161.7652436078489
 30
0.0
 11
74.4089222086707
 21
213.0556084272268
 31
0.0
  0
LINE
  5
217
330
52
100
AcDbEntity
  8
0
  6
Continuous
 62
     7
100
AcDbLine
 10
74.4089222086426
 20
161.7652436078489
 30
0.0
 11
72.9592742558243
 21
160.5094051592213
 31
0.0
  0
LINE
  5
218
330
52
100
AcDbEntity
  8
0
  6
Continuous
 62
     7
100
AcDbLine
 10
71.3775880265342
 20
223.2618094292095
 30
0.0
 11
19.19010138812547
 21
238.322162783597
 31
0.0
  0
LINE
  5
219
330
52
100
AcDbEntity
  8
0
  6
Continuous
 62
     7
100
AcDbLine
 10
-32.85132744683563
 20
239.2541597842417
 30
0.0
 11
-20.65428951479751
 21
249.8205246486122
 31
0.0
  0
LINE
  5
21A
330
52
100
AcDbEntity
  8
0
  6
Continuous
 62
     2
100
AcDbLine
 10
-32.85132744683563
 20
239.2541597842417
 30
0.0
 11
-24.52757810622032
 21
236.8520780903594
 31
0.0
  0
LINE
  5
21B
330
52
100
AcDbEntity
  8
0
  6
Continuous
 62
     7
100
AcDbLine
 10
-31.69499840324153
 20
244.2968685999217
 30
0.0
 11
-30.17295744460031
 21
245.3795532486183
 31
0.0
  0
LINE
  5
21C
330
52
100
AcDbEntity
  8
0
  6
Continuous
 62
     7
100
AcDbLine
 10
-26.23859687548651
 20
245.6390414321809
 30
0.0
 11
-24.88892464337141
 21
246.8082703327816
 31
0.0
  0
LINE
  5
21D
330
52
100
AcDbEntity
  8
0
  6
Continuous
 62
     7
100
AcDbLine
 10
-26.23859687548651
 20
245.6390414321809
 30
0.0
 11
-27.6335823709434
 21
244.6467360855272
 31
0.0
  0
LINE
  5
21E
330
52
100
AcDbEntity
  8
0
  6
Continuous
 62
     7
100
AcDbLine
 10
11.5191457578045
 20
240.5358601620302
 30
0.0
 11
-20.65428951479751
 21
249.8205246486122
 31
0.0
  0
LINE
  5
21F
330
52
100
AcDbEntity
  8
0
  6
Continuous
 62
     2
100
AcDbLine
 10
18.53185638597051
 20
237.1554779065129
 30
0.0
 11
19.23168643127207
 21
237.7617447430184
 31
0.0
  0
LINE
  5
220
330
52
100
AcDbEntity
  8
0
  6
Continuous
 62
     7
100
AcDbLine
 10
19.23168643127201
 20
237.5019371220705
 30
0.0
 11
19.23168643127207
 21
237.7617447430184
 31
0.0
  0
LINE
  5
221
330
52
100
AcDbEntity
  8
0
  6
Continuous
 62
     7
100
AcDbLine
 10
51.46608117041751
 20
141.8897270449881
 30
0.0
 11
53.96388731419347
 21
148.3809095125203
 31
0.0
  0
LINE
  5
222
330
52
100
AcDbEntity
  8
0
  6
Continuous
 62
     7
100
AcDbLine
 10
51.46608117041751
 20
141.8897270449881
 30
0.0
 11
50.0148463447116
 21
140.632513879153
 31
0.0
  0
LINE
  5
223
330
52
100
AcDbEntity
  8
0
  6
Continuous
 62
     7
100
AcDbLine
 10
16.48209244179321
 20
225.0174378502847
 30
0.0
 11
22.12449168907847
 21
229.9054811186852
 31
0.0
  0
LINE
  5
224
330
52
100
AcDbEntity
  8
0
  6
Continuous
 62
     7
100
AcDbLine
 10
22.12449168907847
 20
229.9054811186852
 30
0.0
 11
21.08498985328799
 21
230.8054115737826
 31
0.0
  0
LINE
  5
225
330
52
100
AcDbEntity
  8
0
  6
Continuous
 62
     7
100
AcDbLine
 10
53.96388731419347
 20
148.3809095125203
 30
0.0
 11
53.9638873142224
 21
187.3548612167465
 31
0.0
  0
LINE
  5
226
330
52
100
AcDbEntity
  8
0
  6
Continuous
 62
     7
100
AcDbLine
 10
78.7393996117207
 20
218.1062364501277
 30
0.0
 11
74.4089222086534
 21
219.3559329594703
 31
0.0
  0
LINE
  5
227
330
52
100
AcDbEntity
  8
0
  6
Continuous
 62
     7
100
AcDbLine
 10
66.5423616798123
 20
207.5398715858077
 30
0.0
 11
78.7393996117207
 21
218.1062364501277
 31
0.0
  0
LINE
  5
228
330
52
100
AcDbEntity
  8
0
  6
Continuous
 62
     7
100
AcDbLine
 10
-1.48961414878124
 20
230.8036860518091
 30
0.0
 11
-2.00909561033109
 21
230.3536562418113
 31
0.0
  0
LINE
  5
229
330
52
100
AcDbEntity
  8
0
  6
Continuous
 62
     7
100
AcDbLine
 10
78.7393996117201
 20
216.8071261754191
 30
0.0
 11
78.7393996117207
 21
218.1062364501277
 31
0.0
  0
LINE
  5
22A
330
52
100
AcDbEntity
  8
0
  6
Continuous
 62
     7
100
AcDbLine
 10
21.97449060137859
 20
229.7755343044222
 30
0.0
 11
21.08498985328748
 21
230.5456039526706
 31
0.0
  0
LINE
  5
22B
330
52
100
AcDbEntity
  8
0
  6
Continuous
 62
     7
100
AcDbLine
 10
21.08498985328748
 20
230.5456039526706
 30
0.0
 11
-1.48961414878164
 21
230.5438784306774
 31
0.0
  0
SPLINE
  5
22C
330
52
100
AcDbEntity
  8
0
  6
Continuous
 62
     7
100
AcDbSpline
210
0.0
220
0.0
230
1.0
 70
     8
 71
     3
 72
    13
 73
     9
 74
     7
 42
0.000000001
 43
0.0000000001
 44
0.00000001
 40
0.0
 40
0.0
 40
0.0
 40
0.0
 40
0.6693737413340581
 40
1.370377721511263
 40
2.09745744914269
 40
2.842454378946309
 40
3.595557892414753
 40
4.346242480519884
 40
4.346242480519884
 40
4.346242480519884
 40
4.346242480519884
 10
18.53185638597051
 20
237.1554779065129
 30
0.0
 10
18.5199498602222
 20
237.3788113816672
 30
0.0
 10
18.49557416923623
 20
237.8360316146145
 30
0.0
 10
18.31187622685467
 20
238.5153661550324
 30
0.0
 10
18.02949895789062
 20
239.1844631487566
 30
0.0
 10
17.64380791351112
 20
239.8204988906026
 30
0.0
 10
17.17641076858773
 20
240.4108137399257
 30
0.0
 10
16.80232707496023
 20
240.7456323953048
 30
0.0
 10
16.61558609014696
 20
240.9127724306402
 30
0.0
 11
18.53185638597051
 21
237.1554779065129
 31
0.0
 11
18.47331693562575
 21
237.8222869797958
 31
0.0
 11
18.29958311229253
 21
238.5014210916246
 31
0.0
 11
18.01624627674736
 21
239.1710218462271
 31
0.0
 11
17.63242617808351
 21
239.8095377498542
 31
0.0
 11
17.16047601051453
 21
240.3964175863817
 31
0.0
 11
16.61558609014696
 21
240.9127724306402
 31
0.0
  0
SPLINE
  5
22D
330
52
100
AcDbEntity
  8
0
  6
Continuous
 62
     7
100
AcDbSpline
210
0.0
220
0.0
230
1.0
 70
     8
 71
     3
 72
    17
 73
    13
 74
    11
 42
0.000000001
 43
0.0000000001
 44
0.00000001
 40
0.0
 40
0.0
 40
0.0
 40
0.0
 40
0.4340659692684652
 40
0.8941312967356625
 40
1.371998489358145
 40
1.856398443053248
 40
2.335006406453667
 40
2.796432003601964
 40
3.232231795381993
 40
3.638932699264482
 40
4.019765791194907
 40
4.385165073225311
 40
4.385165073225311
 40
4.385165073225311
 40
4.385165073225311
 10
16.62644632862407
 20
237.7053443706159
 30
0.0
 10
16.61591490940712
 20
237.8502372485992
 30
0.0
 10
16.59422125312608
 20
238.1487016878584
 30
0.0
 10
16.43583800938861
 20
238.5832639596104
 30
0.0
 10
16.19793490353916
 20
238.9954419419045
 30
0.0
 10
15.88323546057608
 20
239.362138917064
 30
0.0
 10
15.51239733343677
 20
239.6628899430322
 30
0.0
 10
15.10537326022541
 20
239.8803830947155
 30
0.0
 10
14.68396707744074
 20
240.0026145004103
 30
0.0
 10
14.27346805829301
 20
240.0184668100661
 30
0.0
 10
13.88937181902363
 20
239.9333094406257
 30
0.0
 10
13.68485116782111
 20
239.7880155331938
 30
0.0
 10
13.58470582542759
 20
239.7168710805925
 30
0.0
 11
16.62644632862407
 21
237.7053443706159
 31
0.0
 11
16.57563894021476
 21
238.1364265832633
 31
0.0
 11
16.426198374395
 21
238.5715445238413
 31
0.0
 11
16.18689009177034
 21
238.985173100181
 31
0.0
 11
15.87175338298704
 21
239.3530483098431
 31
0.0
 11
15.49927412657573
 21
239.6535891332252
 31
0.0
 11
15.09130331215511
 21
239.8691660265358
 31
0.0
 11
14.67177315850623
 21
239.9871317408987
 31
0.0
 11
14.26529423691131
 21
240.0005672776493
 31
0.0
 11
13.89571179286019
 21
239.9086833001101
 31
0.0
 11
13.58470582542759
 21
239.7168710805925
 31
0.0
  0
SPLINE
  5
22E
330
52
100
AcDbEntity
  8
0
  6
Continuous
 62
     7
100
AcDbSpline
210
0.0
220
0.0
230
1.0
 70
     8
 71
     3
 72
    11
 73
     7
 74
     5
 42
0.000000001
 43
0.0000000001
 44
0.00000001
 40
0.0
 40
0.0
 40
0.0
 40
0.0
 40
0.5629925989721505
 40
1.139309693670812
 40
1.739801772233828
 40
2.371248490563553
 40
2.371248490563553
 40
2.371248490563553
 40
2.371248490563553
 10
12.14420132925761
 20
241.3796839974638
 30
0.0
 10
12.01055468559776
 20
241.2465988466762
 30
0.0
 10
11.74009835866871
 20
240.9772787735714
 30
0.0
 10
11.46503022249887
 20
240.4586473528546
 30
0.0
 10
11.28743580038143
 20
239.877558927936
 30
0.0
 10
11.26708527533557
 20
239.4659458400961
 30
0.0
 10
11.2566543488299
 20
239.2549680421787
 30
0.0
 11
12.14420132925761
 21
241.3796839974638
 31
0.0
 11
11.76531825627707
 21
240.9632607929249
 31
0.0
 11
11.4857556578086
 21
240.4592904069837
 31
0.0
 11
11.31438792446868
 21
239.8837699131817
 31
0.0
 11
11.2566543488299
 21
239.2549680421787
 31
0.0
  0
SPLINE
  5
22F
330
52
100
AcDbEntity
  8
0
  6
Continuous
 62
     7
100
AcDbSpline
210
0.0
220
0.0
230
1.0
 70
     8
 71
     3
 72
    11
 73
     7
 74
     5
 42
0.000000001
 43
0.0000000001
 44
0.00000001
 40
0.0
 40
0.0
 40
0.0
 40
0.0
 40
0.2680917129718938
 40
0.5425284234942677
 40
0.828477031287338
 40
1.129165944510732
 40
1.129165944510732
 40
1.129165944510732
 40
1.129165944510732
 10
13.58470582542759
 20
239.7168710805925
 30
0.0
 10
13.52106456673764
 20
239.65349719946
 30
0.0
 10
13.39227584592589
 20
239.525249540937
 30
0.0
 10
13.26129101652418
 20
239.278282200904
 30
0.0
 10
13.17672224785953
 20
239.0015734270793
 30
0.0
 10
13.16703151403162
 20
238.8055671960425
 30
0.0
 10
13.16206440617617
 20
238.7051015780758
 30
0.0
 11
13.58470582542759
 21
239.7168710805925
 31
0.0
 11
13.40428531448441
 21
239.5185743165263
 31
0.0
 11
13.27116026759463
 21
239.2785884184591
 31
0.0
 11
13.18955658505182
 21
239.0045310404582
 31
0.0
 11
13.16206440617617
 21
238.7051015780758
 31
0.0
  0
SPLINE
  5
230
330
52
100
AcDbEntity
  8
0
  6
Continuous
 62
     7
100
AcDbSpline
210
0.0
220
0.0
230
1.0
 70
     8
 71
     3
 72
     9
 73
     5
 74
     3
 42
0.000000001
 43
0.0000000001
 44
0.00000001
 40
0.0
 40
0.0
 40
0.0
 40
0.0
 40
0.3176811264012059
 40
0.6534947988764015
 40
0.6534947988764015
 40
0.6534947988764015
 40
0.6534947988764015
 10
13.99854337143529
 20
239.9462170182787
 30
0.0
 10
13.95886476098178
 20
239.8471766852869
 30
0.0
 10
13.87724279055876
 20
239.6434430076608
 30
0.0
 10
13.86710432858249
 20
239.4240887570618
 30
0.0
 10
13.86189445147801
 20
239.3113684145812
 30
0.0
 11
13.99854337143529
 21
239.9462170182787
 31
0.0
 11
13.89640045683376
 21
239.6454045787426
 31
0.0
 11
13.86189445147801
 21
239.3113684145812
 31
0.0
  0
SPLINE
  5
231
330
52
100
AcDbEntity
  8
0
  6
Continuous
 62
     7
100
AcDbSpline
210
0.0
220
0.0
230
1.0
 70
     8
 71
     3
 72
     9
 73
     5
 74
     3
 42
0.000000001
 43
0.0000000001
 44
0.00000001
 40
0.0
 40
0.0
 40
0.0
 40
0.0
 40
0.26756596995501
 40
0.5806491213113706
 40
0.5806491213113706
 40
0.5806491213113706
 40
0.5806491213113706
 10
-20.79538714219871
 20
236.3521994890447
 30
0.0
 10
-20.81021531740157
 20
236.2619032012824
 30
0.0
 10
-20.84239419191574
 20
236.0659498130883
 30
0.0
 10
-20.98584708198858
 20
235.9271571817492
 30
0.0
 10
-21.063196183765
 20
235.8523208829008
 30
0.0
 11
-20.79538714219871
 21
236.3521994890447
 31
0.0
 11
-20.86349973047396
 21
236.093448209339
 31
0.0
 11
-21.063196183765
 21
235.8523208829008
 31
0.0
  0
SPLINE
  5
232
330
52
100
AcDbEntity
  8
0
  6
Continuous
 62
     7
100
AcDbSpline
210
0.0
220
0.0
230
1.0
 70
     8
 71
     3
 72
     9
 73
     5
 74
     3
 42
0.000000001
 43
0.0000000001
 44
0.00000001
 40
0.0
 40
0.0
 40
0.0
 40
0.0
 40
0.295384409271068
 40
0.565228779003951
 40
0.565228779003951
 40
0.565228779003951
 40
0.565228779003951
 10
-21.79562993474121
 20
235.9192568640096
 30
0.0
 10
-21.70142622799489
 20
235.8897833350408
 30
0.0
 10
-21.52116402611906
 20
235.8333846498976
 30
0.0
 10
-21.35433967559887
 20
235.7449160189518
 30
0.0
 10
-21.2746965096002
 20
235.70268043622
 30
0.0
 11
-21.79562993474121
 21
235.9192568640096
 31
0.0
 11
-21.51668873682236
 21
235.8220778657258
 31
0.0
 11
-21.2746965096002
 21
235.70268043622
 31
0.0
  0
SPLINE
  5
233
330
52
100
AcDbEntity
  8
0
  6
Continuous
 62
     7
100
AcDbSpline
210
0.0
220
0.0
230
1.0
 70
     8
 71
     3
 72
     9
 73
     5
 74
     3
 42
0.000000001
 43
0.0000000001
 44
0.00000001
 40
0.0
 40
0.0
 40
0.0
 40
0.0
 40
0.2675659669763049
 40
0.5806491140417334
 40
0.5806491140417334
 40
0.5806491140417334
 40
0.5806491140417334
 10
-24.79538714219871
 20
236.3521994890564
 30
0.0
 10
-24.78055896736183
 20
236.4424957758169
 30
0.0
 10
-24.74838009368652
 20
236.6384491615656
 30
0.0
 10
-24.60492720640173
 20
236.7772417920568
 30
0.0
 10
-24.52757810622032
 20
236.8520780903594
 30
0.0
 11
-24.79538714219871
 21
236.3521994890564
 31
0.0
 11
-24.72727455536974
 21
236.6109507660626
 31
0.0
 11
-24.52757810622032
 21
236.8520780903594
 31
0.0
  0
SPLINE
  5
234
330
52
100
AcDbEntity
  8
0
  6
Continuous
 62
     7
100
AcDbSpline
210
0.0
220
0.0
230
1.0
 70
     8
 71
     3
 72
    17
 73
    13
 74
    11
 42
0.000000001
 43
0.0000000001
 44
0.00000001
 40
0.0
 40
0.0
 40
0.0
 40
0.0
 40
0.3793453900013484
 40
0.8229952267435274
 40
1.315604425464445
 40
1.83438563737788
 40
2.35317542891338
 40
2.845809312311317
 40
3.289496586734081
 40
3.668885753022275
 40
3.982098047597816
 40
4.249753652119199
 40
4.249753652119199
 40
4.249753652119199
 40
4.249753652119199
 10
-21.063196183765
 20
235.8523208829008
 30
0.0
 10
-21.16645610580164
 20
235.7784091268254
 30
0.0
 10
-21.39047998399256
 20
235.6180565301247
 30
0.0
 10
-21.80893501689053
 20
235.4715488314381
 30
0.0
 10
-22.28440964902694
 20
235.3733913444032
 30
0.0
 10
-22.79529574866773
 20
235.3412264962403
 30
0.0
 10
-23.30575392720525
 20
235.3737928005733
 30
0.0
 10
-23.78246982163349
 20
235.4698673706716
 30
0.0
 10
-24.19719398977777
 20
235.6229665269142
 30
0.0
 10
-24.51773344776589
 20
235.8246208457496
 30
0.0
 10
-24.74706881711674
 20
236.0680879659144
 30
0.0
 10
-24.78014576406148
 20
236.2625802357114
 30
0.0
 10
-24.79538714219871
 20
236.3521994890564
 30
0.0
 11
-21.063196183765
 21
235.8523208829008
 31
0.0
 11
-21.38099556370015
 21
235.6451821043321
 31
0.0
 11
-21.79519292617476
 21
235.4862301578565
 31
0.0
 11
-22.27755964410116
 21
235.3862993196845
 31
0.0
 11
-22.79521894074396
 21
235.3521994925825
 31
0.0
 11
-23.31288970134509
 21
235.3862557836812
 31
0.0
 11
-23.79529002947261
 21
235.48614605305
 31
0.0
 11
-24.20954085798505
 21
235.6450631629795
 31
0.0
 11
-24.52740991551217
 21
235.8521752114605
 31
0.0
 11
-24.72723102375799
 21
236.0933669738287
 31
0.0
 11
-24.79538714219871
 21
236.3521994890564
 31
0.0
  0
SPLINE
  5
235
330
52
100
AcDbEntity
  8
0
  6
Continuous
 62
     7
100
AcDbSpline
210
0.0
220
0.0
230
1.0
 70
     8
 71
     3
 72
    13
 73
     9
 74
     7
 42
0.000000001
 43
0.0000000001
 44
0.00000001
 40
0.0
 40
0.0
 40
0.0
 40
0.0
 40
0.372810175299863
 40
0.7898031309373672
 40
1.237244211181733
 40
1.698133859109543
 40
2.154165112950503
 40
2.587495334103952
 40
2.587495334103952
 40
2.587495334103952
 40
2.587495334103952
 10
-24.3160777748011
 20
235.7026804362288
 30
0.0
 10
-24.20488126946663
 20
235.758805622624
 30
0.0
 10
-23.96931004246738
 20
235.8777075350672
 30
0.0
 10
-23.56815356286691
 20
235.9836941128719
 30
0.0
 10
-23.13049896086294
 20
236.0483807499708
 30
0.0
 10
-22.67495262488292
 20
236.059193216299
 30
0.0
 10
-22.22460745024487
 20
236.0236641443745
 30
0.0
 10
-21.93616829364294
 20
235.9534619900729
 30
0.0
 10
-21.79562993474121
 20
235.9192568640096
 30
0.0
 11
-24.3160777748011
 21
235.7026804362288
 31
0.0
 11
-23.97791845679384
 21
235.8596380845583
 31
0.0
 11
-23.57682080761947
 21
235.9736723049245
 31
0.0
 11
-23.134132220982
 21
236.0387133556007
 31
0.0
 11
-22.67341447123796
 21
236.0512999844418
 31
0.0
 11
-22.21918858120615
 21
236.0107617967146
 31
0.0
 11
-21.79562993474121
 21
235.9192568640096
 31
0.0
  0
SPLINE
  5
236
330
52
100
AcDbEntity
  8
0
  6
Continuous
 62
     7
100
AcDbSpline
210
0.0
220
0.0
230
1.0
 70
     8
 71
     3
 72
    17
 73
    13
 74
    11
 42
0.000000001
 43
0.0000000001
 44
0.00000001
 40
0.0
 40
0.0
 40
0.0
 40
0.0
 40
0.3793453894244994
 40
0.8229952260507654
 40
1.315604425201974
 40
1.83438563803115
 40
2.353175430824512
 40
2.845809315637103
 40
3.289496591437056
 40
3.668885758894278
 40
3.982098054328174
 40
4.249753659445317
 40
4.249753659445317
 40
4.249753659445317
 40
4.249753659445317
 10
-24.52757810622032
 20
236.8520780903594
 30
0.0
 10
-24.42431818473045
 20
236.925989846883
 30
0.0
 10
-24.20029430757369
 20
237.0863424446647
 30
0.0
 10
-23.78183927511137
 20
237.2328501445666
 30
0.0
 10
-23.30636464280702
 20
237.3310076327805
 30
0.0
 10
-22.79547854233838
 20
237.3631724819052
 30
0.0
 10
-22.28502036255183
 20
237.3306061782748
 30
0.0
 10
-21.80830446666209
 20
237.234531608572
 30
0.0
 10
-21.39358029705801
 20
237.0814324524247
 30
0.0
 10
-21.07304083785305
 20
236.8797781334196
 30
0.0
 10
-20.84370546752003
 20
236.6363110128691
 30
0.0
 10
-20.81062852040854
 20
236.441818742588
 30
0.0
 10
-20.79538714219871
 20
236.3521994890447
 30
0.0
 11
-24.52757810622032
 21
236.8520780903594
 31
0.0
 11
-24.20977872781029
 21
237.0592168702116
 31
0.0
 11
-23.79558136596687
 21
237.2181688180085
 31
0.0
 11
-23.31321464785444
 21
237.3180996574036
 31
0.0
 11
-22.79555535036062
 21
237.3521994855183
 31
0.0
 11
-22.27788458845131
 21
237.318143195143
 31
0.0
 11
-21.79548425879742
 21
237.2182529261688
 31
0.0
 11
-21.38123342878388
 21
237.0593358163072
 31
0.0
 11
-21.06336437000321
 21
236.8522237676086
 31
0.0
 11
-20.8635432609288
 21
236.6110320048123
 31
0.0
 11
-20.79538714219871
 21
236.3521994890447
 31
0.0
  0
SPLINE
  5
237
330
52
100
AcDbEntity
  8
0
  6
Continuous
 62
     7
100
AcDbSpline
210
0.0
220
0.0
230
1.0
 70
     8
 71
     3
 72
    15
 73
    11
 74
     9
 42
0.000000001
 43
0.0000000001
 44
0.00000001
 40
0.0
 40
0.0
 40
0.0
 40
0.0
 40
0.3600405097032356
 40
0.7348826672780191
 40
1.134655387961386
 40
1.56270364080119
 40
2.015991667731358
 40
2.486687778029361
 40
2.964041545654325
 40
3.436256940112223
 40
3.436256940112223
 40
3.436256940112223
 40
3.436256940112223
 10
-52.10099290507762
 20
225.6212811702393
 30
0.0
 10
-52.00244353161901
 20
225.6915117839459
 30
0.0
 10
-51.80129330820618
 20
225.8348602547084
 30
0.0
 10
-51.42410976466567
 20
225.9212472641963
 30
0.0
 10
-51.02043986721984
 20
225.9095682072084
 30
0.0
 10
-50.60517361460993
 20
225.7942710306789
 30
0.0
 10
-50.20217131312079
 20
225.586003435698
 30
0.0
 10
-49.83411674987045
 20
225.2950208788841
 30
0.0
 10
-49.51373896370677
 20
224.9412242860676
 30
0.0
 10
-49.3596353567366
 20
224.6637574808749
 30
0.0
 10
-49.28300050724133
 20
224.5257747982184
 30
0.0
 11
-52.10099290507762
 21
225.6212811702393
 31
0.0
 11
-51.79498976423798
 21
225.810994770209
 31
0.0
 11
-51.43181214545946
 21
225.9037776580281
 31
0.0
 11
-51.03215077401305
 21
225.8943426841673
 31
0.0
 11
-50.61877571624461
 21
225.7832284648917
 31
0.0
 11
-50.21523805826099
 21
225.576764437264
 31
0.0
 11
-49.84452821716032
 21
225.2867143689315
 31
0.0
 11
-49.52776700524623
 21
224.9296024069175
 31
0.0
 11
-49.28300050724133
 21
224.5257747982184
 31
0.0
  0
SPLINE
  5
238
330
52
100
AcDbEntity
  8
0
  6
Continuous
 62
     7
100
AcDbSpline
210
0.0
220
0.0
230
1.0
 70
     8
 71
     3
 72
    19
 73
    15
 74
    13
 42
0.000000001
 43
0.0000000001
 44
0.00000001
 40
0.0
 40
0.0
 40
0.0
 40
0.0
 40
0.3941953789050178
 40
0.8074991334876768
 40
1.251960535445795
 40
1.729878868138806
 40
2.234984675194128
 40
2.755140300165625
 40
3.275295925137128
 40
3.780401732192454
 40
4.258320064885436
 40
4.702781466843588
 40
5.116085221426243
 40
5.510280600331296
 40
5.510280600331296
 40
5.510280600331296
 40
5.510280600331296
 10
-52.85081081068952
 20
224.9717095597559
 30
0.0
 10
-52.74201684928703
 20
225.0476928495216
 30
0.0
 10
-52.51915520016632
 20
225.20334266003
 30
0.0
 10
-52.097530532827
 20
225.2804833688167
 30
0.0
 10
-51.6505742405699
 20
225.2403407765506
 30
0.0
 10
-51.19786244386783
 20
225.078538826763
 30
0.0
 10
-50.7704920483598
 20
224.8105411083542
 30
0.0
 10
-50.39466600636487
 20
224.4533635946883
 30
0.0
 10
-50.09470586056619
 20
224.0304630141227
 30
0.0
 10
-49.89036203100807
 20
223.5692560851305
 30
0.0
 10
-49.79474177288917
 20
223.0981036596187
 30
0.0
 10
-49.8187182241772
 20
222.6499892939868
 30
0.0
 10
-49.95516963194544
 20
222.2436654546922
 30
0.0
 10
-50.14099680801061
 20
222.0452657601465
 30
0.0
 10
-50.23171172674122
 20
221.9484133472651
 30
0.0
 11
-52.85081081068952
 21
224.9717095597559
 31
0.0
 11
-52.51273249967505
 21
225.1744237834863
 31
0.0
 11
-52.10845053005217
 21
225.2603079305168
 31
0.0
 11
-51.66551525746704
 21
225.2235073279833
 31
0.0
 11
-51.21411234488401
 21
225.0665317115869
 31
0.0
 11
-50.78500425931664
 21
224.8000769745193
 31
0.0
 11
-50.40743344966117
 21
224.4423030843408
 31
0.0
 11
-50.107131716105
 21
224.0175905443558
 31
0.0
 11
-49.90456280290981
 21
223.5548836053415
 31
0.0
 11
-49.81353302835694
 21
223.0857146445435
 31
0.0
 11
-49.84024418832436
 21
222.6420566073345
 31
0.0
 11
-49.98287772735338
 21
222.254144669883
 31
0.0
 11
-50.23171172674122
 21
221.9484133472651
 31
0.0
  0
SPLINE
  5
239
330
52
100
AcDbEntity
  8
0
  6
Continuous
 62
     7
100
AcDbSpline
210
0.0
220
0.0
230
1.0
 70
     8
 71
     3
 72
    17
 73
    13
 74
    11
 42
0.000000001
 43
0.0000000001
 44
0.00000001
 40
0.0
 40
0.0
 40
0.0
 40
0.0
 40
0.3653992820305336
 40
0.746232373961115
 40
1.152933277843913
 40
1.588733069624336
 40
2.050158666773122
 40
2.528766630174074
 40
3.013166583869611
 40
3.491033776492401
 40
3.951099103959779
 40
4.385165073228305
 40
4.385165073228305
 40
4.385165073228305
 40
4.385165073228305
 10
-50.23171172674122
 20
221.9484133472651
 30
0.0
 10
-50.33185706913473
 20
221.8772688946637
 30
0.0
 10
-50.53637772033724
 20
221.7319749872316
 30
0.0
 10
-50.92047395960681
 20
221.6468176177911
 30
0.0
 10
-51.33097297875483
 20
221.662669927447
 30
0.0
 10
-51.75237916153991
 20
221.7849013331417
 30
0.0
 10
-52.15940323475165
 20
222.0023944848254
 30
0.0
 10
-52.53024136189133
 20
222.3031455107939
 30
0.0
 10
-52.84494080485471
 20
222.6698424859537
 30
0.0
 10
-53.08284391070413
 20
223.0820204682481
 30
0.0
 10
-53.24122715444155
 20
223.5165827400004
 30
0.0
 10
-53.26292081072246
 20
223.8150471792598
 30
0.0
 10
-53.27345222993932
 20
223.959940057243
 30
0.0
 11
-50.23171172674122
 21
221.9484133472651
 31
0.0
 11
-50.54271769417382
 21
221.7566011277473
 31
0.0
 11
-50.91230013822506
 21
221.6647171502079
 31
0.0
 11
-51.31877905982029
 21
221.6781526869585
 31
0.0
 11
-51.73830921346956
 21
221.7961184013215
 31
0.0
 11
-52.1462800278906
 21
222.0116952946323
 31
0.0
 11
-52.51875928430231
 21
222.3122361180148
 31
0.0
 11
-52.83389599308587
 21
222.6801113276773
 31
0.0
 11
-53.07320427571057
 21
223.0937399040173
 31
0.0
 11
-53.22264484153021
 21
223.5288578445955
 31
0.0
 11
-53.27345222993932
 21
223.959940057243
 31
0.0
  0
SPLINE
  5
23A
330
52
100
AcDbEntity
  8
0
  6
Continuous
 62
     7
100
AcDbSpline
210
0.0
220
0.0
230
1.0
 70
     8
 71
     3
 72
    11
 73
     7
 74
     5
 42
0.000000001
 43
0.0000000001
 44
0.00000001
 40
0.0
 40
0.0
 40
0.0
 40
0.0
 40
0.3006889132222377
 40
0.5866375210142312
 40
0.8610742315355434
 40
1.129165944506373
 40
1.129165944506373
 40
1.129165944506373
 40
1.129165944506373
 10
-53.27345222993932
 20
223.959940057243
 30
0.0
 10
-53.26848512208384
 20
224.0604056752093
 30
0.0
 10
-53.25879438825585
 20
224.2564119062453
 30
0.0
 10
-53.17422561959148
 20
224.533120680069
 30
0.0
 10
-53.04324079019029
 20
224.7800880201009
 30
0.0
 10
-52.91445206937917
 20
224.9083356786236
 30
0.0
 10
-52.85081081068952
 20
224.9717095597559
 30
0.0
 11
-53.27345222993932
 21
223.959940057243
 31
0.0
 11
-53.24596005106363
 21
224.2593695196242
 31
0.0
 11
-53.16435636852106
 21
224.5334268976241
 31
0.0
 11
-53.03123132163183
 21
224.7734127956904
 31
0.0
 11
-52.85081081068952
 21
224.9717095597559
 31
0.0
  0
SPLINE
  5
23B
330
52
100
AcDbEntity
  8
0
  6
Continuous
 62
     7
100
AcDbSpline
210
0.0
220
0.0
230
1.0
 70
     8
 71
     3
 72
    11
 73
     7
 74
     5
 42
0.000000001
 43
0.0000000001
 44
0.00000001
 40
0.0
 40
0.0
 40
0.0
 40
0.0
 40
0.4914037374693098
 40
0.948010379165865
 40
1.3717005557178
 40
1.775019269025595
 40
1.775019269025595
 40
1.775019269025595
 40
1.775019269025595
 10
-49.16886113518541
 20
224.2477294450464
 30
0.0
 10
-49.12583143496339
 20
224.088682572541
 30
0.0
 10
-49.04281905158102
 20
223.7818511918817
 30
0.0
 10
-49.06522867613207
 20
223.319429202259
 30
0.0
 10
-49.19919096786774
 20
222.9012086285271
 30
0.0
 10
-49.38921984114355
 20
222.6973859439564
 30
0.0
 10
-49.48189382112932
 20
222.5979849577486
 30
0.0
 11
-49.16886113518541
 21
224.2477294450464
 31
0.0
 11
-49.06623799319836
 21
223.767160902656
 31
0.0
 11
-49.08661455006261
 21
223.3110091476489
 31
0.0
 11
-49.22854005450023
 21
222.9117967731803
 31
0.0
 11
-49.48189382112932
 21
222.5979849577486
 31
0.0
  0
SPLINE
  5
23C
330
52
100
AcDbEntity
  8
0
  6
Continuous
 62
     7
100
AcDbSpline
210
0.0
220
0.0
230
1.0
 70
     8
 71
     3
 72
    13
 73
     9
 74
     7
 42
0.000000001
 43
0.0000000001
 44
0.00000001
 40
0.0
 40
0.0
 40
0.0
 40
0.0
 40
0.3229487319097749
 40
0.6615796645972533
 40
1.021125394687339
 40
1.402619959813698
 40
1.80338141380077
 40
2.217918702401515
 40
2.217918702401515
 40
2.217918702401515
 40
2.217918702401515
 10
-29.49255121800641
 20
245.1832004664287
 30
0.0
 10
-29.39516819186549
 20
245.2305745069999
 30
0.0
 10
-29.19567327149352
 20
245.3276230304255
 30
0.0
 10
-28.85210982336607
 20
245.3684144921196
 30
0.0
 10
-28.49181782039455
 20
245.3346086853102
 30
0.0
 10
-28.12646708324409
 20
245.2199371081775
 30
0.0
 10
-27.76911131922066
 20
245.0364515228759
 30
0.0
 10
-27.55792645456447
 20
244.8644087949754
 30
0.0
 10
-27.4505498660003
 20
244.7769339505644
 30
0.0
 11
-29.49255121800641
 21
245.1832004664287
 31
0.0
 11
-29.19489831163927
 21
245.3084946512979
 31
0.0
 11
-28.85959845731446
 21
245.3558752258933
 31
0.0
 11
-28.50153706572813
 21
245.3232382245181
 31
0.0
 11
-28.13661033436831
 21
245.2120330754304
 31
0.0
 11
-27.78101915922349
 21
245.0271962297563
 31
0.0
 11
-27.4505498660003
 21
244.7769339505644
 31
0.0
  0
SPLINE
  5
23D
330
52
100
AcDbEntity
  8
0
  6
Continuous
 62
     7
100
AcDbSpline
210
0.0
220
0.0
230
1.0
 70
     8
 71
     3
 72
     9
 73
     5
 74
     3
 42
0.000000001
 43
0.0000000001
 44
0.00000001
 40
0.0
 40
0.0
 40
0.0
 40
0.0
 40
0.5889662466321886
 40
1.163779397064733
 40
1.163779397064733
 40
1.163779397064733
 40
1.163779397064733
 10
13.17292464465498
 20
241.9062615060429
 30
0.0
 10
12.98358401373788
 20
241.8481918081918
 30
0.0
 10
12.60945269154593
 20
241.7334478326586
 30
0.0
 10
12.29802264632855
 20
241.4966453376471
 30
0.0
 10
12.14420132925761
 20
241.3796839974638
 30
0.0
 11
13.17292464465498
 21
241.9062615060429
 31
0.0
 11
12.62096165823155
 21
241.7007910636931
 31
0.0
 11
12.14420132925761
 21
241.3796839974638
 31
0.0
  0
SPLINE
  5
23E
330
52
100
AcDbEntity
  8
0
  6
Continuous
 62
     7
100
AcDbSpline
210
0.0
220
0.0
230
1.0
 70
     8
 71
     3
 72
     9
 73
     5
 74
     3
 42
0.000000001
 43
0.0000000001
 44
0.00000001
 40
0.0
 40
0.0
 40
0.0
 40
0.0
 40
0.5889662466323846
 40
1.163779397064935
 40
1.163779397064935
 40
1.163779397064935
 40
1.163779397064935
 10
13.87275468995676
 20
242.5125283425484
 30
0.0
 10
13.68341405903961
 20
242.4544586446972
 30
0.0
 10
13.30928273684763
 20
242.3397146691639
 30
0.0
 10
12.99785269163014
 20
242.1029121741525
 30
0.0
 10
12.84403137455917
 20
241.9859508339692
 30
0.0
 11
13.87275468995676
 21
242.5125283425484
 31
0.0
 11
13.32079170353318
 21
242.3070579001984
 31
0.0
 11
12.84403137455917
 21
241.9859508339692
 31
0.0
  0
SPLINE
  5
23F
330
52
100
AcDbEntity
  8
0
  6
Continuous
 62
     7
100
AcDbSpline
210
0.0
220
0.0
230
1.0
 70
     8
 71
     3
 72
    11
 73
     7
 74
     5
 42
0.000000001
 43
0.0000000001
 44
0.00000001
 40
0.0
 40
0.0
 40
0.0
 40
0.0
 40
2.05504763303672
 40
3.89904248160012
 40
5.513065782521882
 40
6.900121113517631
 40
6.900121113517631
 40
6.900121113517631
 40
6.900121113517631
 10
70.4598812372091
 20
201.6454366468649
 30
0.0
 10
70.44279194262546
 20
202.3312550130408
 30
0.0
 10
70.4103684047904
 20
203.6324584009373
 30
0.0
 10
70.10338123207882
 20
205.4470084310013
 30
0.0
 10
69.64544932998584
 20
207.0113102338777
 30
0.0
 10
69.1179962323779
 20
207.865886538075
 30
0.0
 10
68.8742149992356
 20
208.2608593973341
 30
0.0
 11
70.4598812372091
 21
201.6454366468649
 31
0.0
 11
70.3573072464808
 21
203.6979227836665
 31
0.0
 11
70.05239216655019
 21
205.5165331879214
 31
0.0
 11
69.5534778867026
 21
207.051510636409
 31
0.0
 11
68.8742149992356
 21
208.2608593973341
 31
0.0
  0
SPLINE
  5
240
330
52
100
AcDbEntity
  8
0
  6
Continuous
 62
     7
100
AcDbSpline
210
0.0
220
0.0
230
1.0
 70
     8
 71
     3
 72
    11
 73
     7
 74
     5
 42
0.000000001
 43
0.0000000001
 44
0.00000001
 40
0.0
 40
0.0
 40
0.0
 40
0.0
 40
2.232564623694339
 40
4.599199130773702
 40
7.049922705187701
 40
9.530965908835524
 40
9.530965908835524
 40
9.530965908835524
 40
9.530965908835524
 10
53.9638873142224
 20
187.3548612167465
 30
0.0
 10
53.9849326583066
 20
188.0992509492744
 30
0.0
 10
54.02828717584661
 20
189.6327324766372
 30
0.0
 10
54.35129402731466
 20
191.9640736529214
 30
0.0
 10
54.8359336191821
 20
194.3506661670418
 30
0.0
 10
55.3107072948838
 20
195.9254134524307
 30
0.0
 10
55.54955355225917
 20
196.7176277268984
 30
0.0
 11
53.9638873142224
 21
187.3548612167465
 31
0.0
 11
54.06646130495873
 21
189.5850682424898
 31
0.0
 11
54.37137638490299
 21
191.9319780593424
 31
0.0
 11
54.87029066476933
 21
194.3313801897189
 31
0.0
 11
55.54955355225917
 21
196.7176277268984
 31
0.0
  0
SPLINE
  5
241
330
52
100
AcDbEntity
  8
0
  6
Continuous
 62
     7
100
AcDbSpline
210
0.0
220
0.0
230
1.0
 70
     8
 71
     3
 72
    11
 73
     7
 74
     5
 42
0.000000001
 43
0.0000000001
 44
0.00000001
 40
0.0
 40
0.0
 40
0.0
 40
0.0
 40
1.666387454757487
 40
3.200112518518516
 40
4.588723843091839
 40
5.827455621266521
 40
5.827455621266521
 40
5.827455621266521
 40
5.827455621266521
 10
69.2473475643393
 20
201.9953516694781
 30
0.0
 10
69.23595502507264
 20
202.5511518813592
 30
0.0
 10
69.21407690070794
 20
203.618504620666
 30
0.0
 10
69.01334441267173
 20
205.1366940869436
 30
0.0
 10
68.71089477313647
 20
206.4962373238578
 30
0.0
 10
68.37137599217975
 20
207.3051766298807
 30
0.0
 10
68.2113006976321
 20
207.6865728842016
 30
0.0
 11
69.2473475643393
 21
201.9953516694781
 31
0.0
 11
69.18114355703726
 21
203.6604234926935
 31
0.0
 11
68.98370074597605
 21
205.1813866451487
 31
0.0
 11
68.6585055775653
 21
206.5313827629482
 31
0.0
 11
68.2113006976321
 21
207.6865728842016
 31
0.0
  0
SPLINE
  5
242
330
52
100
AcDbEntity
  8
0
  6
Continuous
 62
     7
100
AcDbSpline
210
0.0
220
0.0
230
1.0
 70
     8
 71
     3
 72
    13
 73
     9
 74
     7
 42
0.000000001
 43
0.0000000001
 44
0.00000001
 40
0.0
 40
0.0
 40
0.0
 40
0.0
 40
0.669373741333968
 40
1.370377721511182
 40
2.097457449142587
 40
2.842454378946245
 40
3.595557892414622
 40
4.346242480519709
 40
4.346242480519709
 40
4.346242480519709
 40
4.346242480519709
 10
19.23168643127207
 20
237.7617447430184
 30
0.0
 10
19.21977990552378
 20
237.9850782181726
 30
0.0
 10
19.19540421453787
 20
238.4422984511201
 30
0.0
 10
19.01170627215625
 20
239.1216329915378
 30
0.0
 10
18.72932900319218
 20
239.790729985262
 30
0.0
 10
18.3436379588127
 20
240.426765727108
 30
0.0
 10
17.87624081388928
 20
241.0170805764309
 30
0.0
 10
17.50215712026175
 20
241.35189923181
 30
0.0
 10
17.31541613544846
 20
241.5190392671454
 30
0.0
 11
19.23168643127207
 21
237.7617447430184
 31
0.0
 11
19.17314698092737
 21
238.4285538163012
 31
0.0
 11
18.99941315759412
 21
239.10768792813
 31
0.0
 11
18.71607632204893
 21
239.7772886827324
 31
0.0
 11
18.33225622338506
 21
240.4158045863596
 31
0.0
 11
17.86030605581607
 21
241.002684422887
 31
0.0
 11
17.31541613544846
 21
241.5190392671454
 31
0.0
  0
ENDBLK
  5
54
330
52
100
AcDbEntity
  8
0
100
AcDbBlockEnd
  0
BLOCK
  5
57
330
55
100
AcDbEntity
  8
0
100
AcDbBlockBegin
  2
AllgSicht1
 70
     0
 10
11.9999999999115
 20
196.00000000007
 30
0.0
  3
AllgSicht1
  1

  0
INSERT
  5
56
330
55
100
AcDbEntity
  8
0
100
AcDbBlockReference
  2
HC-RBO_12-FE-select__1
 10
-53.38972980503442
 20
140.632513879153
 30
0.0
  0
MTEXT
  5
243
330
55
100
AcDbEntity
  8
1
 62
     6
100
AcDbMText
 10
11.99999999991019
 20
129.3828190156473
 30
0.0
 40
10.0
 41
0.0
 71
     2
 72
     1
  1
 
  7
CONVERTER_11
 73
     1
 44
1.32052821128451
  0
ENDBLK
  5
58
330
55
100
AcDbEntity
  8
0
100
AcDbBlockEnd
  0
BLOCK
  5
5A
330
59
100
AcDbEntity
  8
0
100
AcDbBlockBegin
  2
HC-RBO_12-FE-select__2
 70
     0
 10
-288.3499994914823
 20
144.1999983770686
 30
0.0
  3
HC-RBO_12-FE-select__2
  1

  0
LINE
  5
244
330
59
100
AcDbEntity
  8
1
  6
DOT_CENTER
 62
     2
100
AcDbLine
 10
-285.3499994913742
 20
145.3999983774269
 30
0.0
 11
-285.3499994913742
 21
146.8999983774719
 31
0.0
  0
LINE
  5
245
330
59
100
AcDbEntity
  8
1
  6
DOT_CENTER
 62
     2
100
AcDbLine
 10
-285.3499994913805
 20
190.2999983773719
 30
0.0
 11
-285.3499994913805
 21
191.7999983773766
 31
0.0
  0
LINE
  5
246
330
59
100
AcDbEntity
  8
1
  6
DOT_CENTER
 62
     2
100
AcDbLine
 10
-265.5499994912377
 20
170.7999983794921
 30
0.0
 11
-265.5499994912377
 21
166.3999983794922
 31
0.0
  0
LINE
  5
247
330
59
100
AcDbEntity
  8
1
  6
DOT_CENTER
 62
     2
100
AcDbLine
 10
-263.3499994912377
 20
168.5999983794922
 30
0.0
 11
-267.7499994912377
 21
168.5999983794922
 31
0.0
  0
LINE
  5
248
330
59
100
AcDbEntity
  8
0
  6
Continuous
 62
     7
100
AcDbLine
 10
-221.9999620915176
 20
180.9267640781375
 30
0.0
 11
-241.5499994912344
 21
169.6392136162518
 31
0.0
  0
LINE
  5
249
330
59
100
AcDbEntity
  8
0
  6
Continuous
 62
     7
100
AcDbLine
 10
-286.5926401784707
 20
168.599998379577
 30
0.0
 11
-286.5926401785364
 21
190.2999983773626
 31
0.0
  0
LINE
  5
24A
330
59
100
AcDbEntity
  8
0
  6
Continuous
 62
     7
100
AcDbLine
 10
-277.1606596630253
 20
192.9999983814381
 30
0.0
 11
-282.0499994914608
 21
192.999998381458
 31
0.0
  0
LINE
  5
24B
330
59
100
AcDbEntity
  8
0
  6
Continuous
 62
     7
100
AcDbLine
 10
-277.160659663212
 20
168.5999983795415
 30
0.0
 11
-277.1606596630253
 21
192.9999983814381
 31
0.0
  0
LINE
  5
24C
330
59
100
AcDbEntity
  8
0
  6
Continuous
 62
     7
100
AcDbLine
 10
-288.3499994913556
 20
190.2999983773679
 30
0.0
 11
-287.3499994913805
 21
190.2999983773719
 31
0.0
  0
LINE
  5
24D
330
59
100
AcDbEntity
  8
0
  6
Continuous
 62
     7
100
AcDbLine
 10
-287.3499994913805
 20
190.2999983773719
 30
0.0
 11
-286.5926401785364
 21
190.2999983773626
 31
0.0
  0
LINE
  5
24E
330
59
100
AcDbEntity
  8
0
  6
Continuous
 62
     7
100
AcDbLine
 10
-286.5926401785364
 20
190.2999983773626
 30
0.0
 11
-283.6606596631073
 21
190.2999983773656
 31
0.0
  0
LINE
  5
24F
330
59
100
AcDbEntity
  8
0
  6
Continuous
 62
     7
100
AcDbLine
 10
-282.0499994914669
 20
190.2999983773607
 30
0.0
 11
-282.0499994914608
 21
192.999998381458
 31
0.0
  0
LINE
  5
250
330
59
100
AcDbEntity
  8
0
  6
Continuous
 62
     7
100
AcDbLine
 10
-282.0499994914669
 20
190.2999983773607
 30
0.0
 11
-283.3499994913805
 21
190.299998377376
 31
0.0
  0
LINE
  5
251
330
59
100
AcDbEntity
  8
0
  6
Continuous
 62
     7
100
AcDbLine
 10
-283.3499994913805
 20
190.299998377376
 30
0.0
 11
-283.6606596631073
 21
190.2999983773656
 31
0.0
  0
LINE
  5
252
330
59
100
AcDbEntity
  8
0
  6
Continuous
 62
     7
100
AcDbLine
 10
-283.3499994913805
 20
190.299998377376
 30
0.0
 11
-283.349999491382
 21
191.7999983773766
 31
0.0
  0
LINE
  5
253
330
59
100
AcDbEntity
  8
0
  6
Continuous
 62
     7
100
AcDbLine
 10
-287.349999491382
 20
191.7999983773726
 30
0.0
 11
-283.349999491382
 21
191.7999983773766
 31
0.0
  0
LINE
  5
254
330
59
100
AcDbEntity
  8
0
  6
Continuous
 62
     7
100
AcDbLine
 10
-287.3499994913805
 20
190.2999983773719
 30
0.0
 11
-287.349999491382
 21
191.7999983773726
 31
0.0
  0
LINE
  5
255
330
59
100
AcDbEntity
  8
0
  6
Continuous
 62
     2
100
AcDbLine
 10
-288.3499994914189
 20
168.5999983795841
 30
0.0
 11
-286.5926401784707
 21
168.599998379577
 31
0.0
  0
LINE
  5
256
330
59
100
AcDbEntity
  8
0
  6
Continuous
 62
     7
100
AcDbLine
 10
-288.3499994914189
 20
168.5999983795841
 30
0.0
 11
-288.3499994913556
 21
190.2999983773679
 31
0.0
  0
LINE
  5
257
330
59
100
AcDbEntity
  8
0
  6
Continuous
 62
     2
100
AcDbLine
 10
-283.6606596631675
 20
168.599998379568
 30
0.0
 11
-277.160659663212
 21
168.5999983795415
 31
0.0
  0
LINE
  5
258
330
59
100
AcDbEntity
  8
0
  6
Continuous
 62
     2
100
AcDbLine
 10
-283.6606596631675
 20
168.599998379568
 30
0.0
 11
-286.5926401784707
 21
168.599998379577
 31
0.0
  0
LINE
  5
259
330
59
100
AcDbEntity
  8
0
  6
Continuous
 62
     7
100
AcDbLine
 10
-283.6606596631073
 20
190.2999983773656
 30
0.0
 11
-283.6606596631675
 21
168.599998379568
 31
0.0
  0
LINE
  5
25A
330
59
100
AcDbEntity
  8
0
  6
Continuous
 62
     7
100
AcDbLine
 10
-162.399999491427
 20
168.5999983791932
 30
0.0
 11
-162.39999949139
 21
192.9999983810898
 31
0.0
  0
LINE
  5
25B
330
59
100
AcDbEntity
  8
0
  6
Continuous
 62
     7
100
AcDbLine
 10
-170.8999994914609
 20
168.5999983792158
 30
0.0
 11
-170.8999994915357
 21
144.1999983770911
 31
0.0
  0
LINE
  5
25C
330
59
100
AcDbEntity
  8
0
  6
Continuous
 62
     7
100
AcDbLine
 10
-167.3999994914079
 20
192.9999983811052
 30
0.0
 11
-167.3999994914329
 21
168.5999983792086
 31
0.0
  0
LINE
  5
25D
330
59
100
AcDbEntity
  8
0
  6
Continuous
 62
     7
100
AcDbLine
 10
-162.399999491464
 20
144.1999983770686
 30
0.0
 11
-162.399999491427
 21
168.5999983791932
 31
0.0
  0
LINE
  5
25E
330
59
100
AcDbEntity
  8
0
  6
Continuous
 62
     7
100
AcDbLine
 10
-167.3999994914329
 20
168.5999983792086
 30
0.0
 11
-167.3999994915895
 21
144.1999983770839
 31
0.0
  0
LINE
  5
25F
330
59
100
AcDbEntity
  8
0
  6
Continuous
 62
     7
100
AcDbLine
 10
-170.8999994914609
 20
168.5999983792158
 30
0.0
 11
-170.899999491386
 21
192.9999983811123
 31
0.0
  0
LINE
  5
260
330
59
100
AcDbEntity
  8
0
  6
Continuous
 62
     2
100
AcDbLine
 10
-167.3999994914329
 20
168.5999983792086
 30
0.0
 11
-162.399999491427
 21
168.5999983791932
 31
0.0
  0
LINE
  5
261
330
59
100
AcDbEntity
  8
0
  6
Continuous
 62
     7
100
AcDbLine
 10
-167.3999994915895
 20
144.1999983770839
 30
0.0
 11
-162.399999491464
 21
144.1999983770686
 31
0.0
  0
LINE
  5
262
330
59
100
AcDbEntity
  8
0
  6
Continuous
 62
     2
100
AcDbLine
 10
-170.8999994914609
 20
168.5999983792158
 30
0.0
 11
-167.3999994914329
 21
168.5999983792086
 31
0.0
  0
LINE
  5
263
330
59
100
AcDbEntity
  8
0
  6
Continuous
 62
     7
100
AcDbLine
 10
-170.8999994915357
 20
144.1999983770911
 30
0.0
 11
-167.3999994915895
 21
144.1999983770839
 31
0.0
  0
LINE
  5
264
330
59
100
AcDbEntity
  8
0
  6
Continuous
 62
     7
100
AcDbLine
 10
-162.39999949139
 20
192.9999983810898
 30
0.0
 11
-167.3999994914079
 21
192.9999983811052
 31
0.0
  0
LINE
  5
265
330
59
100
AcDbEntity
  8
0
  6
Continuous
 62
     7
100
AcDbLine
 10
-286.5926401784051
 20
146.8999983774613
 30
0.0
 11
-286.5926401784707
 21
168.599998379577
 31
0.0
  0
LINE
  5
266
330
59
100
AcDbEntity
  8
0
  6
Continuous
 62
     7
100
AcDbLine
 10
-283.3499994913742
 20
145.3999983774274
 30
0.0
 11
-283.3499994913743
 21
146.8999983774719
 31
0.0
  0
LINE
  5
267
330
59
100
AcDbEntity
  8
0
  6
Continuous
 62
     7
100
AcDbLine
 10
-283.6606596631675
 20
168.599998379568
 30
0.0
 11
-283.6606596632277
 21
146.8999983774618
 31
0.0
  0
LINE
  5
268
330
59
100
AcDbEntity
  8
0
  6
Continuous
 62
     7
100
AcDbLine
 10
-277.1606596632725
 20
144.1999983774169
 30
0.0
 11
-277.160659663212
 21
168.5999983795415
 31
0.0
  0
LINE
  5
269
330
59
100
AcDbEntity
  8
0
  6
Continuous
 62
     7
100
AcDbLine
 10
-282.0499994914604
 20
144.1999983774368
 30
0.0
 11
-282.0499994915832
 21
146.8999983774555
 31
0.0
  0
LINE
  5
26A
330
59
100
AcDbEntity
  8
0
  6
Continuous
 62
     2
100
AcDbLine
 10
-277.160659663212
 20
168.5999983795415
 30
0.0
 11
-267.5499994912377
 21
168.5999983794845
 31
0.0
  0
LINE
  5
26B
330
59
100
AcDbEntity
  8
0
  6
Continuous
 62
     7
100
AcDbLine
 10
-277.1606596632725
 20
144.1999983774169
 30
0.0
 11
-282.0499994914604
 21
144.1999983774368
 31
0.0
  0
LINE
  5
26C
330
59
100
AcDbEntity
  8
0
  6
Continuous
 62
     7
100
AcDbLine
 10
-283.3499994913743
 20
146.8999983774719
 30
0.0
 11
-282.0499994915832
 21
146.8999983774555
 31
0.0
  0
LINE
  5
26D
330
59
100
AcDbEntity
  8
0
  6
Continuous
 62
     7
100
AcDbLine
 10
-283.6606596632277
 20
146.8999983774618
 30
0.0
 11
-283.3499994913743
 21
146.8999983774719
 31
0.0
  0
LINE
  5
26E
330
59
100
AcDbEntity
  8
0
  6
Continuous
 62
     7
100
AcDbLine
 10
-287.3499994913743
 20
146.8999983774713
 30
0.0
 11
-288.3499994914823
 21
146.8999983774682
 31
0.0
  0
LINE
  5
26F
330
59
100
AcDbEntity
  8
0
  6
Continuous
 62
     7
100
AcDbLine
 10
-286.5926401784051
 20
146.8999983774613
 30
0.0
 11
-287.3499994913743
 21
146.8999983774713
 31
0.0
  0
LINE
  5
270
330
59
100
AcDbEntity
  8
0
  6
Continuous
 62
     7
100
AcDbLine
 10
-288.3499994914823
 20
146.8999983774682
 30
0.0
 11
-288.3499994914189
 21
168.5999983795841
 31
0.0
  0
LINE
  5
271
330
59
100
AcDbEntity
  8
0
  6
Continuous
 62
     7
100
AcDbLine
 10
-283.6606596632277
 20
146.8999983774618
 30
0.0
 11
-286.5926401784051
 21
146.8999983774613
 31
0.0
  0
LINE
  5
272
330
59
100
AcDbEntity
  8
0
  6
Continuous
 62
     7
100
AcDbLine
 10
-287.3499994913742
 20
145.3999983774269
 30
0.0
 11
-287.3499994913743
 21
146.8999983774713
 31
0.0
  0
LINE
  5
273
330
59
100
AcDbEntity
  8
0
  6
Continuous
 62
     7
100
AcDbLine
 10
-287.3499994913742
 20
145.3999983774269
 30
0.0
 11
-283.3499994913742
 21
145.3999983774274
 31
0.0
  0
LINE
  5
274
330
59
100
AcDbEntity
  8
0
  6
Continuous
 62
     7
100
AcDbLine
 10
-230.2999994912882
 20
190.1999983773781
 30
0.0
 11
-232.5125387998456
 21
190.1999983773666
 31
0.0
  0
LINE
  5
275
330
59
100
AcDbEntity
  8
0
  6
Continuous
 62
     7
100
AcDbLine
 10
-232.5125387998456
 20
190.1999983773666
 30
0.0
 11
-236.4874601827161
 21
190.199998377366
 31
0.0
  0
LINE
  5
276
330
59
100
AcDbEntity
  8
0
  6
Continuous
 62
     7
100
AcDbLine
 10
-232.5125387998456
 20
190.1999983773666
 30
0.0
 11
-232.5125387998458
 21
191.5999983775355
 31
0.0
  0
LINE
  5
277
330
59
100
AcDbEntity
  8
0
  6
Continuous
 62
     7
100
AcDbLine
 10
-220.1999422907677
 20
179.8875374043449
 30
0.0
 11
-221.9999620915176
 21
180.9267640781375
 31
0.0
  0
LINE
  5
278
330
59
100
AcDbEntity
  8
0
  6
Continuous
 62
     7
100
AcDbLine
 10
-230.2999994912884
 20
191.5999983775466
 30
0.0
 11
-230.2999994912882
 21
190.1999983773781
 31
0.0
  0
LINE
  5
279
330
59
100
AcDbEntity
  8
0
  6
Continuous
 62
     7
100
AcDbLine
 10
-220.1999422907332
 20
168.5999983793669
 30
0.0
 11
-220.1999422907677
 21
179.8875374043449
 31
0.0
  0
LINE
  5
27A
330
59
100
AcDbEntity
  8
0
  6
Continuous
 62
     7
100
AcDbLine
 10
-232.5125387998458
 20
191.5999983775355
 30
0.0
 11
-236.4874601827163
 21
191.5999983775355
 31
0.0
  0
LINE
  5
27B
330
59
100
AcDbEntity
  8
0
  6
Continuous
 62
     7
100
AcDbLine
 10
-167.3999994914079
 20
192.9999983811052
 30
0.0
 11
-170.899999491386
 21
192.9999983811123
 31
0.0
  0
LINE
  5
27C
330
59
100
AcDbEntity
  8
0
  6
Continuous
 62
     7
100
AcDbLine
 10
-170.899999491386
 20
192.9999983811123
 30
0.0
 11
-277.1606596630253
 21
192.9999983814381
 31
0.0
  0
LINE
  5
27D
330
59
100
AcDbEntity
  8
0
  6
Continuous
 62
     7
100
AcDbLine
 10
-230.2999994912884
 20
191.5999983775466
 30
0.0
 11
-232.5125387998458
 21
191.5999983775355
 31
0.0
  0
LINE
  5
27E
330
59
100
AcDbEntity
  8
0
  6
Continuous
 62
     2
100
AcDbLine
 10
-220.1999422907332
 20
168.5999983793669
 30
0.0
 11
-170.8999994914609
 21
168.5999983792158
 31
0.0
  0
LINE
  5
27F
330
59
100
AcDbEntity
  8
0
  6
Continuous
 62
     7
100
AcDbLine
 10
-236.4874601827163
 20
191.5999983775355
 30
0.0
 11
-238.6999994912884
 21
191.5999983775467
 31
0.0
  0
LINE
  5
280
330
59
100
AcDbEntity
  8
0
  6
Continuous
 62
     7
100
AcDbLine
 10
-241.5499994912344
 20
169.6392136162518
 30
0.0
 11
-241.5499994912312
 21
168.5999983794323
 31
0.0
  0
LINE
  5
281
330
59
100
AcDbEntity
  8
0
  6
Continuous
 62
     7
100
AcDbLine
 10
-236.4874601827161
 20
190.199998377366
 30
0.0
 11
-236.4874601827163
 21
191.5999983775355
 31
0.0
  0
LINE
  5
282
330
59
100
AcDbEntity
  8
0
  6
Continuous
 62
     7
100
AcDbLine
 10
-238.6999994912884
 20
191.5999983775467
 30
0.0
 11
-238.6999994912882
 21
190.1999983773769
 31
0.0
  0
LINE
  5
283
330
59
100
AcDbEntity
  8
0
  6
Continuous
 62
     7
100
AcDbLine
 10
-236.4874601827161
 20
190.199998377366
 30
0.0
 11
-238.6999994912882
 21
190.1999983773769
 31
0.0
  0
LINE
  5
284
330
59
100
AcDbEntity
  8
0
  6
Continuous
 62
     7
100
AcDbLine
 10
-221.9999620914443
 20
156.2732326705184
 30
0.0
 11
-241.5499994912281
 21
167.5607831322834
 31
0.0
  0
LINE
  5
285
330
59
100
AcDbEntity
  8
0
  6
Continuous
 62
     7
100
AcDbLine
 10
-241.5499994912281
 20
167.5607831322834
 30
0.0
 11
-241.5499994912312
 21
168.5999983794323
 31
0.0
  0
LINE
  5
286
330
59
100
AcDbEntity
  8
0
  6
Continuous
 62
     2
100
AcDbLine
 10
-241.5499994912312
 20
168.5999983794323
 30
0.0
 11
-220.1999422907332
 21
168.5999983793669
 31
0.0
  0
LINE
  5
287
330
59
100
AcDbEntity
  8
0
  6
Continuous
 62
     2
100
AcDbLine
 10
-263.5499994912377
 20
168.5999983794998
 30
0.0
 11
-241.5499994912312
 21
168.5999983794323
 31
0.0
  0
LINE
  5
288
330
59
100
AcDbEntity
  8
0
  6
Continuous
 62
     7
100
AcDbLine
 10
-220.1999422907332
 20
168.5999983793669
 30
0.0
 11
-220.1999422906987
 21
157.3124593443185
 31
0.0
  0
LINE
  5
289
330
59
100
AcDbEntity
  8
0
  6
Continuous
 62
     7
100
AcDbLine
 10
-170.8999994915357
 20
144.1999983770911
 30
0.0
 11
-277.1606596632725
 21
144.1999983774169
 31
0.0
  0
LINE
  5
28A
330
59
100
AcDbEntity
  8
0
  6
Continuous
 62
     7
100
AcDbLine
 10
-220.1999422906987
 20
157.3124593443185
 30
0.0
 11
-221.9999620914443
 21
156.2732326705184
 31
0.0
  0
ARC
  5
28B
330
59
100
AcDbEntity
  8
0
  6
Continuous
 62
     7
100
AcDbCircle
 10
-265.5499994912377
 20
168.5999983794922
 30
0.0
 40
2.0
100
AcDbArc
 50
180.0000000002207
 51
0.0000000002174
  0
ARC
  5
28C
330
59
100
AcDbEntity
  8
0
  6
Continuous
 62
     7
100
AcDbCircle
 10
-265.5499994912377
 20
168.5999983794922
 30
0.0
 40
2.0
100
AcDbArc
 50
0.0000000002174
 51
180.0000000002207
  0
ENDBLK
  5
5B
330
59
100
AcDbEntity
  8
0
100
AcDbBlockEnd
  0
BLOCK
  5
5E
330
5C
100
AcDbEntity
  8
0
100
AcDbBlockBegin
  2
Drfsicht1
 70
     0
 10
-225.3749980934828
 20
168.5999983809555
 30
0.0
  3
Drfsicht1
  1

  0
INSERT
  5
5D
330
5C
100
AcDbEntity
  8
0
100
AcDbBlockReference
  2
HC-RBO_12-FE-select__2
 10
-288.3499994914823
 20
144.1999983770686
 30
0.0
  0
MTEXT
  5
28D
330
5C
100
AcDbEntity
  8
1
 62
     6
100
AcDbMText
 10
-225.3749980934831
 20
134.1999987620388
 30
0.0
 40
10.0
 41
0.0
 71
     2
 72
     1
  1
 
  7
CONVERTER_11
 73
     1
 44
1.32052821128451
  0
DIMENSION
  5
298
330
5C
100
AcDbEntity
  8
1
100
AcDbDimension
  2
*D17
 10
-305.167717015288
 20
144.1999983774368
 30
0.0
 11
-313.017717015288
 21
168.1154020508462
 31
0.0
 70
    32
  1
<>
 71
     5
 42
-1.0
 53
90.0
  3
ME10_DIM_10
100
AcDbAlignedDimension
 13
-282.0499994914608
 23
192.999998381458
 33
0.0
 14
-282.0499994914604
 24
144.1999983774368
 34
0.0
 50
90.0
100
AcDbRotatedDimension
  0
ENDBLK
  5
5F
330
5C
100
AcDbEntity
  8
0
100
AcDbBlockEnd
  0
BLOCK
  5
61
330
60
100
AcDbEntity
  8
0
100
AcDbBlockBegin
  2
HC-RBO_12-FE-select__3
 70
     0
 10
-25.6000005087175
 20
296.9999983289093
 30
0.0
  3
HC-RBO_12-FE-select__3
  1

  0
LINE
  5
299
330
60
100
AcDbEntity
  8
1
  6
DOT_CENTER
 62
     2
100
AcDbLine
 10
97.34999949127459
 20
360.1999983294226
 30
0.0
 11
97.34999949127459
 21
355.7999983294226
 31
0.0
  0
LINE
  5
29A
330
60
100
AcDbEntity
  8
1
  6
DOT_CENTER
 62
     2
100
AcDbLine
 10
99.5499994912746
 20
357.9999983294226
 30
0.0
 11
95.1499994912746
 21
357.9999983294226
 31
0.0
  0
LINE
  5
29B
330
60
100
AcDbEntity
  8
0
  6
Continuous
 62
     7
100
AcDbLine
 10
-20.6000005085788
 20
296.9999983289093
 30
0.0
 11
-20.60000050868251
 21
361.9999149953766
 31
0.0
  0
LINE
  5
29C
330
60
100
AcDbEntity
  8
0
  6
Continuous
 62
     7
100
AcDbLine
 10
-25.6000005087175
 20
363.4999983289358
 30
0.0
 11
-20.60000050869962
 21
363.4999983289532
 31
0.0
  0
LINE
  5
29D
330
60
100
AcDbEntity
  8
0
  6
Continuous
 62
     7
100
AcDbLine
 10
-20.60000050869962
 20
363.4999983289532
 30
0.0
 11
-17.10000050872142
 21
366.9999983289238
 31
0.0
  0
LINE
  5
29E
330
60
100
AcDbEntity
  8
0
  6
Continuous
 62
     7
100
AcDbLine
 10
-20.60000050868251
 20
361.9999149953766
 30
0.0
 11
-25.60000050871582
 21
361.9999149953145
 31
0.0
  0
LINE
  5
29F
330
60
100
AcDbEntity
  8
0
  6
Continuous
 62
     7
100
AcDbLine
 10
-25.60000050871582
 20
361.9999149953145
 30
0.0
 11
-25.6000005087175
 21
363.4999983289358
 31
0.0
  0
LINE
  5
2A0
330
60
100
AcDbEntity
  8
0
  6
Continuous
 62
     7
100
AcDbLine
 10
23.41059418276308
 20
296.9999983290769
 30
0.0
 11
-20.6000005085788
 21
296.9999983289093
 31
0.0
  0
LINE
  5
2A1
330
60
100
AcDbEntity
  8
0
  6
Continuous
 62
     7
100
AcDbLine
 10
34.94999934464528
 20
301.1999983292378
 30
0.0
 11
23.41059418276308
 21
296.9999983290769
 31
0.0
  0
LINE
  5
2A2
330
60
100
AcDbEntity
  8
0
  6
Continuous
 62
     7
100
AcDbLine
 10
98.5926401784289
 20
360.4999983293756
 30
0.0
 11
95.66065966299979
 21
360.4999983293878
 31
0.0
  0
LINE
  5
2A3
330
60
100
AcDbEntity
  8
0
  6
Continuous
 62
     7
100
AcDbLine
 10
100.3499994912481
 20
358.7426390165687
 30
0.0
 11
98.5926401784289
 21
360.4999983293756
 31
0.0
  0
LINE
  5
2A4
330
60
100
AcDbEntity
  8
0
  6
Continuous
 62
     7
100
AcDbLine
 10
100.3499994912481
 20
358.7426390165687
 30
0.0
 11
100.3499994912576
 21
355.9999983293805
 31
0.0
  0
LINE
  5
2A5
330
60
100
AcDbEntity
  8
0
  6
Continuous
 62
     7
100
AcDbLine
 10
99.48397408738279
 20
355.4999983293243
 30
0.0
 11
100.3499994912576
 21
355.9999983293805
 31
0.0
  0
LINE
  5
2A6
330
60
100
AcDbEntity
  8
0
  6
Continuous
 62
     7
100
AcDbLine
 10
99.48397408738279
 20
355.4999983293243
 30
0.0
 11
94.04999949123311
 21
355.4999983292352
 31
0.0
  0
LINE
  5
2A7
330
60
100
AcDbEntity
  8
0
  6
Continuous
 62
     7
100
AcDbLine
 10
50.69999949119597
 20
349.6499981854005
 30
0.0
 11
36.4284469600027
 21
349.6499981854057
 31
0.0
  0
LINE
  5
2A8
330
60
100
AcDbEntity
  8
0
  6
Continuous
 62
     7
100
AcDbLine
 10
94.04999949126429
 20
360.4999983294092
 30
0.0
 11
94.04999949123311
 21
355.4999983292352
 31
0.0
  0
LINE
  5
2A9
330
60
100
AcDbEntity
  8
0
  6
Continuous
 62
     7
100
AcDbLine
 10
94.0499994913533
 20
362.1106585010191
 30
0.0
 11
95.66065966299979
 21
360.4999983293878
 31
0.0
  0
LINE
  5
2AA
330
60
100
AcDbEntity
  8
0
  6
Continuous
 62
     7
100
AcDbLine
 10
89.1606596629178
 20
366.9999983294205
 30
0.0
 11
94.0499994913533
 21
362.1106585010191
 31
0.0
  0
LINE
  5
2AB
330
60
100
AcDbEntity
  8
0
  6
Continuous
 62
     7
100
AcDbLine
 10
94.04999949126429
 20
360.4999983294092
 30
0.0
 11
94.0499994913533
 21
362.1106585010191
 31
0.0
  0
LINE
  5
2AC
330
60
100
AcDbEntity
  8
0
  6
Continuous
 62
     7
100
AcDbLine
 10
94.04999949123311
 20
355.4999983292352
 30
0.0
 11
50.69999949119091
 21
355.4999983291862
 31
0.0
  0
LINE
  5
2AD
330
60
100
AcDbEntity
  8
0
  6
Continuous
 62
     7
100
AcDbLine
 10
50.69999949118608
 20
360.4999983292027
 30
0.0
 11
42.12727374485121
 21
360.4999983291623
 31
0.0
  0
LINE
  5
2AE
330
60
100
AcDbEntity
  8
0
  6
Continuous
 62
     7
100
AcDbLine
 10
50.69999949118608
 20
360.4999983292027
 30
0.0
 11
50.69999949119597
 21
349.6499981854005
 31
0.0
  0
LINE
  5
2AF
330
60
100
AcDbEntity
  8
0
  6
Continuous
 62
     7
100
AcDbLine
 10
50.69999949118608
 20
360.4999983292027
 30
0.0
 11
94.04999949126429
 21
360.4999983294092
 31
0.0
  0
LINE
  5
2B0
330
60
100
AcDbEntity
  8
0
  6
Continuous
 62
     7
100
AcDbLine
 10
42.29999949118121
 20
366.9999983291295
 30
0.0
 11
50.69999949118051
 21
366.9999983291589
 31
0.0
  0
LINE
  5
2B1
330
60
100
AcDbEntity
  8
0
  6
Continuous
 62
     7
100
AcDbLine
 10
50.69999949118051
 20
366.9999983291589
 30
0.0
 11
89.1606596629178
 21
366.9999983294205
 31
0.0
  0
LINE
  5
2B2
330
60
100
AcDbEntity
  8
0
  6
Continuous
 62
     7
100
AcDbLine
 10
-17.10000050872142
 20
366.9999983289238
 30
0.0
 11
42.29999949118121
 21
366.9999983291295
 31
0.0
  0
LINE
  5
2B3
330
60
100
AcDbEntity
  8
0
  6
Continuous
 62
     7
100
AcDbLine
 10
36.13984481051341
 20
350.1503768536264
 30
0.0
 11
42.12727374485121
 21
360.4999983291623
 31
0.0
  0
LINE
  5
2B4
330
60
100
AcDbEntity
  8
0
  6
Continuous
 62
     7
100
AcDbLine
 10
34.9499993444141
 20
350.2392535062396
 30
0.0
 11
37.98729178403477
 21
355.4999983291718
 31
0.0
  0
LINE
  5
2B5
330
60
100
AcDbEntity
  8
0
  6
Continuous
 62
     7
100
AcDbLine
 10
36.13984481051341
 20
350.1503768536264
 30
0.0
 11
36.4284469600027
 21
349.6499981854057
 31
0.0
  0
LINE
  5
2B6
330
60
100
AcDbEntity
  8
0
  6
Continuous
 62
     7
100
AcDbLine
 10
34.9499993444141
 20
350.2392535062396
 30
0.0
 11
34.94999934464528
 21
301.1999983292378
 31
0.0
  0
LINE
  5
2B7
330
60
100
AcDbEntity
  8
0
  6
Continuous
 62
     7
100
AcDbLine
 10
39.23469021005917
 20
355.4999983291733
 30
0.0
 11
37.98729178403477
 21
355.4999983291718
 31
0.0
  0
LINE
  5
2B8
330
60
100
AcDbEntity
  8
0
  6
Continuous
 62
     7
100
AcDbLine
 10
37.98729178403477
 20
355.4999983291718
 30
0.0
 11
40.87404312982761
 21
360.4999983289573
 31
0.0
  0
LINE
  5
2B9
330
60
100
AcDbEntity
  8
0
  6
Continuous
 62
     7
100
AcDbLine
 10
42.12727374485121
 20
360.4999983291623
 30
0.0
 11
40.87404312982761
 21
360.4999983289573
 31
0.0
  0
LINE
  5
2BA
330
60
100
AcDbEntity
  8
0
  6
Continuous
 62
     7
100
AcDbLine
 10
44.51253879973831
 20
370.9999983289177
 30
0.0
 11
48.4874601826088
 21
370.9999983289256
 31
0.0
  0
LINE
  5
2BB
330
60
100
AcDbEntity
  8
0
  6
Continuous
 62
     7
100
AcDbLine
 10
42.29999949118121
 20
366.9999983291295
 30
0.0
 11
42.29999949118087
 21
367.2999983289133
 31
0.0
  0
LINE
  5
2BC
330
60
100
AcDbEntity
  8
0
  6
Continuous
 62
     7
100
AcDbLine
 10
50.6999994911809
 20
367.2999983289303
 30
0.0
 11
50.69999949118051
 21
366.9999983291589
 31
0.0
  0
LINE
  5
2BD
330
60
100
AcDbEntity
  8
0
  6
Continuous
 62
     7
100
AcDbLine
 10
44.49999949118092
 20
367.2999983289177
 30
0.0
 11
48.49999949118092
 21
367.2999983289257
 31
0.0
  0
ARC
  5
2BE
330
60
100
AcDbEntity
  8
0
  6
Continuous
 62
     7
100
AcDbCircle
 10
46.49999949118092
 20
367.2999983289217
 30
0.0
 40
4.199999999999974
100
AcDbArc
 50
0.00000000011787
 51
61.75746281567824
  0
ARC
  5
2BF
330
60
100
AcDbEntity
  8
0
  6
Continuous
 62
     7
100
AcDbCircle
 10
46.49999949118092
 20
367.2999983289217
 30
0.0
 40
4.200000000000003
100
AcDbArc
 50
118.2425371845499
 51
180.000000000114
  0
ARC
  5
2C0
330
60
100
AcDbEntity
  8
0
  6
Continuous
 62
     7
100
AcDbCircle
 10
46.49999949118092
 20
367.2999983289217
 30
0.0
 40
2.0
100
AcDbArc
 50
0.00000000011562
 51
180.000000000114
  0
CIRCLE
  5
2C1
330
60
100
AcDbEntity
  8
0
  6
Continuous
 62
     7
100
AcDbCircle
 10
97.34999949127459
 20
357.9999983294226
 30
0.0
 40
2.0
  0
ENDBLK
  5
62
330
60
100
AcDbEntity
  8
0
100
AcDbBlockEnd
  0
BLOCK
  5
65
330
63
100
AcDbEntity
  8
0
100
AcDbBlockBegin
  2
Rckans1
 70
     0
 10
37.37499809337527
 20
332.0000000000497
 30
0.0
  3
Rckans1
  1

  0
INSERT
  5
64
330
63
100
AcDbEntity
  8
0
100
AcDbBlockReference
  2
HC-RBO_12-FE-select__3
 10
-25.6000005087175
 20
296.9999983289093
 30
0.0
  0
MTEXT
  5
2C2
330
63
100
AcDbEntity
  8
1
 62
     6
100
AcDbMText
 10
37.37499809337623
 20
286.9999999999077
 30
0.0
 40
10.0
 41
0.0
 71
     2
 72
     1
  1
 
  7
CONVERTER_11
 73
     1
 44
1.32052821128451
  0
ENDBLK
  5
66
330
63
100
AcDbEntity
  8
0
100
AcDbBlockEnd
  0
BLOCK
  5
68
330
67
100
AcDbEntity
  8
0
100
AcDbBlockBegin
  2
HC-RBO_12-FE-select__4
 70
     0
 10
-124.4000000005166
 20
296.9999983289354
 30
0.0
  3
HC-RBO_12-FE-select__4
  1

  0
LINE
  5
2C3
330
67
100
AcDbEntity
  8
1
  6
DOT_CENTER
 62
     2
100
AcDbLine
 10
-76.79999999647768
 20
357.9999983292856
 30
0.0
 11
-78.2999999965378
 21
357.9999983292856
 31
0.0
  0
LINE
  5
2C4
330
67
100
AcDbEntity
  8
1
  6
DOT_CENTER
 62
     2
100
AcDbLine
 10
-121.6999999964245
 20
357.9999983294664
 30
0.0
 11
-123.1999999964412
 21
357.9999983294664
 31
0.0
  0
LINE
  5
2C5
330
67
100
AcDbEntity
  8
0
  6
Continuous
 62
     7
100
AcDbLine
 10
-78.99999999641193
 20
355.4999983290364
 30
0.0
 11
-80.4999999965093
 21
355.4999983290425
 31
0.0
  0
LINE
  5
2C6
330
67
100
AcDbEntity
  8
0
  6
Continuous
 62
     7
100
AcDbLine
 10
-80.4999999965093
 20
355.4999983290425
 30
0.0
 11
-80.4999999965143
 21
340.8488477567744
 31
0.0
  0
LINE
  5
2C7
330
67
100
AcDbEntity
  8
0
  6
Continuous
 62
     7
100
AcDbLine
 10
-80.4999999965143
 20
340.8488477567744
 30
0.0
 11
-80.49999999651112
 21
320.8488477569453
 31
0.0
  0
LINE
  5
2C8
330
67
100
AcDbEntity
  8
0
  6
Continuous
 62
     7
100
AcDbLine
 10
-78.99999999651774
 20
320.8488477569423
 30
0.0
 11
-78.99999999645735
 21
340.8488477567684
 31
0.0
  0
LINE
  5
2C9
330
67
100
AcDbEntity
  8
0
  6
Continuous
 62
     7
100
AcDbLine
 10
-75.5999999963755
 20
301.1999983292428
 30
0.0
 11
-77.00000000018773
 21
301.1999983292877
 31
0.0
  0
LINE
  5
2CA
330
67
100
AcDbEntity
  8
0
  6
Continuous
 62
     7
100
AcDbLine
 10
-80.4999999965143
 20
340.8488477567744
 30
0.0
 11
-78.99999999645735
 21
340.8488477567684
 31
0.0
  0
LINE
  5
2CB
330
67
100
AcDbEntity
  8
0
  6
Continuous
 62
     7
100
AcDbLine
 10
-78.99999999651774
 20
320.8488477569423
 30
0.0
 11
-80.49999999651112
 21
320.8488477569453
 31
0.0
  0
LINE
  5
2CC
330
67
100
AcDbEntity
  8
0
  6
Continuous
 62
     7
100
AcDbLine
 10
-77.00000000012514
 20
320.8488477569335
 30
0.0
 11
-78.99999999651774
 21
320.8488477569423
 31
0.0
  0
LINE
  5
2CD
330
67
100
AcDbEntity
  8
0
  6
Continuous
 62
     7
100
AcDbLine
 10
-83.4999999962617
 20
301.9967553132469
 30
0.0
 11
-83.49999999616938
 21
346.999998328955
 31
0.0
  0
LINE
  5
2CE
330
67
100
AcDbEntity
  8
0
  6
Continuous
 62
     7
100
AcDbLine
 10
-116.4999999962264
 20
346.9999983289457
 30
0.0
 11
-116.4999999961286
 21
301.9999983290535
 31
0.0
  0
LINE
  5
2CF
330
67
100
AcDbEntity
  8
0
  6
Continuous
 62
     7
100
AcDbLine
 10
-124.4000000004967
 20
366.9999983294704
 30
0.0
 11
-124.4000000005166
 21
362.110658501069
 31
0.0
  0
LINE
  5
2D0
330
67
100
AcDbEntity
  8
0
  6
Continuous
 62
     2
100
AcDbLine
 10
-121.5999999964354
 20
367.2999983289759
 30
0.0
 11
-122.9999999966053
 21
367.2999983289801
 31
0.0
  0
LINE
  5
2D1
330
67
100
AcDbEntity
  8
0
  6
Continuous
 62
     2
100
AcDbLine
 10
-99.99999999863556
 20
360.4999983293818
 30
0.0
 11
-99.99999999860012
 21
366.9999983293197
 31
0.0
  0
LINE
  5
2D2
330
67
100
AcDbEntity
  8
0
  6
Continuous
 62
     7
100
AcDbLine
 10
-99.99999999860012
 20
366.9999983293197
 30
0.0
 11
-121.5999999964363
 21
366.9999983292073
 31
0.0
  0
LINE
  5
2D3
330
67
100
AcDbEntity
  8
0
  6
Continuous
 62
     7
100
AcDbLine
 10
-122.9999999966061
 20
366.9999983292088
 30
0.0
 11
-124.4000000004967
 21
366.9999983294704
 31
0.0
  0
LINE
  5
2D4
330
67
100
AcDbEntity
  8
0
  6
Continuous
 62
     7
100
AcDbLine
 10
-121.5999999964363
 20
366.9999983292073
 30
0.0
 11
-122.9999999966061
 21
366.9999983292088
 31
0.0
  0
LINE
  5
2D5
330
67
100
AcDbEntity
  8
0
  6
Continuous
 62
     7
100
AcDbLine
 10
-121.6999999964193
 20
362.1106585010669
 30
0.0
 11
-124.4000000005166
 21
362.110658501069
 31
0.0
  0
LINE
  5
2D6
330
67
100
AcDbEntity
  8
0
  6
Continuous
 62
     7
100
AcDbLine
 10
-124.4000000003552
 20
360.4999983292084
 30
0.0
 11
-124.4000000005166
 21
362.110658501069
 31
0.0
  0
LINE
  5
2D7
330
67
100
AcDbEntity
  8
0
  6
Continuous
 62
     7
100
AcDbLine
 10
-123.6999999966258
 20
360.4999983292526
 30
0.0
 11
-124.4000000003552
 21
360.4999983292084
 31
0.0
  0
LINE
  5
2D8
330
67
100
AcDbEntity
  8
0
  6
Continuous
 62
     7
100
AcDbLine
 10
-121.6999999964265
 20
358.7426390166186
 30
0.0
 11
-121.6999999964245
 21
359.9999983294664
 31
0.0
  0
LINE
  5
2D9
330
67
100
AcDbEntity
  8
0
  6
Continuous
 62
     7
100
AcDbLine
 10
-99.99999999864272
 20
358.7426390164458
 30
0.0
 11
-121.6999999964265
 21
358.7426390166186
 31
0.0
  0
LINE
  5
2DA
330
67
100
AcDbEntity
  8
0
  6
Continuous
 62
     7
100
AcDbLine
 10
-78.29999999652057
 20
360.49999832932
 30
0.0
 11
-78.29999999652212
 21
359.9999983292917
 31
0.0
  0
LINE
  5
2DB
330
67
100
AcDbEntity
  8
0
  6
Continuous
 62
     7
100
AcDbLine
 10
-99.99999999863556
 20
360.4999983293818
 30
0.0
 11
-121.6999999964258
 21
360.499998329451
 31
0.0
  0
LINE
  5
2DC
330
67
100
AcDbEntity
  8
0
  6
Continuous
 62
     7
100
AcDbLine
 10
-78.29999999652212
 20
359.9999983292917
 30
0.0
 11
-78.29999999652676
 21
358.7426390162731
 31
0.0
  0
LINE
  5
2DD
330
67
100
AcDbEntity
  8
0
  6
Continuous
 62
     7
100
AcDbLine
 10
-78.29999999652676
 20
358.7426390162731
 30
0.0
 11
-99.99999999864272
 21
358.7426390164458
 31
0.0
  0
LINE
  5
2DE
330
67
100
AcDbEntity
  8
0
  6
Continuous
 62
     7
100
AcDbLine
 10
-121.6999999964193
 20
362.1106585010669
 30
0.0
 11
-121.6999999964258
 21
360.499998329451
 31
0.0
  0
LINE
  5
2DF
330
67
100
AcDbEntity
  8
0
  6
Continuous
 62
     7
100
AcDbLine
 10
-121.6999999964245
 20
359.9999983294664
 30
0.0
 11
-121.6999999964258
 21
360.499998329451
 31
0.0
  0
LINE
  5
2E0
330
67
100
AcDbEntity
  8
0
  6
Continuous
 62
     2
100
AcDbLine
 10
-99.99999999864272
 20
358.7426390164458
 30
0.0
 11
-99.99999999863556
 21
360.4999983293818
 31
0.0
  0
LINE
  5
2E1
330
67
100
AcDbEntity
  8
0
  6
Continuous
 62
     7
100
AcDbLine
 10
-75.59999999647547
 20
366.9999983292952
 30
0.0
 11
-99.99999999860012
 21
366.9999983293197
 31
0.0
  0
LINE
  5
2E2
330
67
100
AcDbEntity
  8
0
  6
Continuous
 62
     7
100
AcDbLine
 10
-78.29999999652057
 20
360.49999832932
 30
0.0
 11
-99.99999999863556
 21
360.4999983293818
 31
0.0
  0
LINE
  5
2E3
330
67
100
AcDbEntity
  8
0
  6
Continuous
 62
     7
100
AcDbLine
 10
-75.59999999632615
 20
350.2392535062951
 30
0.0
 11
-75.59999999649699
 21
360.4999983293118
 31
0.0
  0
LINE
  5
2E4
330
67
100
AcDbEntity
  8
0
  6
Continuous
 62
     7
100
AcDbLine
 10
-75.5999999963755
 20
301.1999983292428
 30
0.0
 11
-75.59999999632615
 21
350.2392535062951
 31
0.0
  0
LINE
  5
2E5
330
67
100
AcDbEntity
  8
0
  6
Continuous
 62
     7
100
AcDbLine
 10
-77.00000000008902
 20
350.2392535062895
 30
0.0
 11
-77.00000000012514
 21
320.8488477569335
 31
0.0
  0
LINE
  5
2E6
330
67
100
AcDbEntity
  8
0
  6
Continuous
 62
     7
100
AcDbLine
 10
-77.00000000012514
 20
320.8488477569335
 30
0.0
 11
-77.00000000018773
 21
301.1999983292877
 31
0.0
  0
LINE
  5
2E7
330
67
100
AcDbEntity
  8
0
  6
Continuous
 62
     7
100
AcDbLine
 10
-77.00000000008902
 20
350.2392535062895
 30
0.0
 11
-76.9999999999551
 21
355.9999983292864
 31
0.0
  0
LINE
  5
2E8
330
67
100
AcDbEntity
  8
0
  6
Continuous
 62
     7
100
AcDbLine
 10
-78.99999999645735
 20
340.8488477567684
 30
0.0
 11
-78.99999999641193
 21
355.4999983290364
 31
0.0
  0
LINE
  5
2E9
330
67
100
AcDbEntity
  8
0
  6
Continuous
 62
     7
100
AcDbLine
 10
-75.5999999963755
 20
301.1999983292428
 30
0.0
 11
-75.59999999634435
 21
296.9999983291639
 31
0.0
  0
LINE
  5
2EA
330
67
100
AcDbEntity
  8
0
  6
Continuous
 62
     7
100
AcDbLine
 10
-76.79999999649378
 20
355.9999983292856
 30
0.0
 11
-78.2999999965378
 21
355.9999983292557
 31
0.0
  0
LINE
  5
2EB
330
67
100
AcDbEntity
  8
0
  6
Continuous
 62
     7
100
AcDbLine
 10
-76.79999999649378
 20
355.9999983292856
 30
0.0
 11
-76.79999999648544
 21
357.9999983292926
 31
0.0
  0
LINE
  5
2EC
330
67
100
AcDbEntity
  8
0
  6
Continuous
 62
     7
100
AcDbLine
 10
-78.2999999965378
 20
355.9999983292557
 30
0.0
 11
-78.29999999652676
 21
358.7426390162731
 31
0.0
  0
LINE
  5
2ED
330
67
100
AcDbEntity
  8
0
  6
Continuous
 62
     7
100
AcDbLine
 10
-78.29999999653992
 20
355.4999983291995
 30
0.0
 11
-78.99999999641193
 21
355.4999983290364
 31
0.0
  0
LINE
  5
2EE
330
67
100
AcDbEntity
  8
0
  6
Continuous
 62
     7
100
AcDbLine
 10
-78.2999999965378
 20
355.9999983292557
 30
0.0
 11
-78.29999999653992
 21
355.4999983291995
 31
0.0
  0
LINE
  5
2EF
330
67
100
AcDbEntity
  8
0
  6
Continuous
 62
     7
100
AcDbLine
 10
-75.59999999649699
 20
360.4999983293118
 30
0.0
 11
-75.59999999649537
 21
362.1106585011414
 31
0.0
  0
LINE
  5
2F0
330
67
100
AcDbEntity
  8
0
  6
Continuous
 62
     7
100
AcDbLine
 10
-76.79999999648544
 20
357.9999983292926
 30
0.0
 11
-76.79999999647768
 21
359.9999983292856
 31
0.0
  0
LINE
  5
2F1
330
67
100
AcDbEntity
  8
0
  6
Continuous
 62
     7
100
AcDbLine
 10
-76.79999999647768
 20
359.9999983292856
 30
0.0
 11
-78.29999999652212
 21
359.9999983292917
 31
0.0
  0
LINE
  5
2F2
330
67
100
AcDbEntity
  8
0
  6
Continuous
 62
     7
100
AcDbLine
 10
-75.59999999649699
 20
360.4999983293118
 30
0.0
 11
-77.00000000008134
 21
360.4999983290072
 31
0.0
  0
LINE
  5
2F3
330
67
100
AcDbEntity
  8
0
  6
Continuous
 62
     7
100
AcDbLine
 10
-77.00000000008134
 20
360.4999983290072
 30
0.0
 11
-78.29999999652057
 21
360.49999832932
 31
0.0
  0
LINE
  5
2F4
330
67
100
AcDbEntity
  8
0
  6
Continuous
 62
     7
100
AcDbLine
 10
-76.99999999994705
 20
359.9999983292864
 30
0.0
 11
-77.00000000008134
 21
360.4999983290072
 31
0.0
  0
LINE
  5
2F5
330
67
100
AcDbEntity
  8
0
  6
Continuous
 62
     7
100
AcDbLine
 10
-75.59999999649537
 20
362.1106585011414
 30
0.0
 11
-78.29999999651409
 21
362.1106585010146
 31
0.0
  0
LINE
  5
2F6
330
67
100
AcDbEntity
  8
0
  6
Continuous
 62
     7
100
AcDbLine
 10
-78.29999999652057
 20
360.49999832932
 30
0.0
 11
-78.29999999651409
 21
362.1106585010146
 31
0.0
  0
LINE
  5
2F7
330
67
100
AcDbEntity
  8
0
  6
Continuous
 62
     7
100
AcDbLine
 10
-77.00000000008902
 20
350.2392535062895
 30
0.0
 11
-75.59999999632615
 21
350.2392535062951
 31
0.0
  0
LINE
  5
2F8
330
67
100
AcDbEntity
  8
0
  6
Continuous
 62
     7
100
AcDbLine
 10
-75.59999999647547
 20
366.9999983292952
 30
0.0
 11
-75.59999999649537
 21
362.1106585011414
 31
0.0
  0
LINE
  5
2F9
330
67
100
AcDbEntity
  8
0
  6
Continuous
 62
     7
100
AcDbLine
 10
-121.6999999964406
 20
355.9999983294664
 30
0.0
 11
-99.99999999864548
 21
355.9999983293923
 31
0.0
  0
LINE
  5
2FA
330
67
100
AcDbEntity
  8
0
  6
Continuous
 62
     7
100
AcDbLine
 10
-99.99999999864332
 20
355.4999983293305
 30
0.0
 11
-119.4999999964617
 21
355.4999983291995
 31
0.0
  0
LINE
  5
2FB
330
67
100
AcDbEntity
  8
0
  6
Continuous
 62
     7
100
AcDbLine
 10
-99.99999999864548
 20
355.9999983293923
 30
0.0
 11
-78.2999999965378
 21
355.9999983292557
 31
0.0
  0
LINE
  5
2FC
330
67
100
AcDbEntity
  8
0
  6
Continuous
 62
     7
100
AcDbLine
 10
-122.9999999966053
 20
367.2999983289801
 30
0.0
 11
-122.9999999966061
 21
366.9999983292088
 31
0.0
  0
LINE
  5
2FD
330
67
100
AcDbEntity
  8
0
  6
Continuous
 62
     2
100
AcDbLine
 10
-99.99999999864548
 20
355.9999983293923
 30
0.0
 11
-99.99999999864272
 21
358.7426390164458
 31
0.0
  0
LINE
  5
2FE
330
67
100
AcDbEntity
  8
0
  6
Continuous
 62
     7
100
AcDbLine
 10
-121.6999999964265
 20
358.7426390166186
 30
0.0
 11
-121.6999999964406
 21
355.9999983294664
 31
0.0
  0
LINE
  5
2FF
330
67
100
AcDbEntity
  8
0
  6
Continuous
 62
     2
100
AcDbLine
 10
-99.99999999864332
 20
355.4999983293305
 30
0.0
 11
-99.99999999864548
 21
355.9999983293923
 31
0.0
  0
LINE
  5
300
330
67
100
AcDbEntity
  8
0
  6
Continuous
 62
     7
100
AcDbLine
 10
-80.4999999965093
 20
355.4999983290425
 30
0.0
 11
-99.99999999864332
 21
355.4999983293305
 31
0.0
  0
LINE
  5
301
330
67
100
AcDbEntity
  8
0
  6
Continuous
 62
     7
100
AcDbLine
 10
-122.9999999966172
 20
301.1999983293341
 30
0.0
 11
-122.9999999965069
 21
296.9999983290106
 31
0.0
  0
LINE
  5
302
330
67
100
AcDbEntity
  8
0
  6
Continuous
 62
     7
100
AcDbLine
 10
-122.9999999965197
 20
349.6499981854482
 30
0.0
 11
-122.9999999965546
 21
320.8488477570262
 31
0.0
  0
LINE
  5
303
330
67
100
AcDbEntity
  8
0
  6
Continuous
 62
     7
100
AcDbLine
 10
-120.9999999965658
 20
320.8488477569375
 30
0.0
 11
-122.9999999965546
 21
320.8488477570262
 31
0.0
  0
LINE
  5
304
330
67
100
AcDbEntity
  8
0
  6
Continuous
 62
     7
100
AcDbLine
 10
-121.8999999964696
 20
355.9999983294672
 30
0.0
 11
-121.8999999964887
 21
349.6499981854449
 31
0.0
  0
LINE
  5
305
330
67
100
AcDbEntity
  8
0
  6
Continuous
 62
     7
100
AcDbLine
 10
-121.5999999964246
 20
370.9999983289713
 30
0.0
 11
-122.9999999965941
 21
370.9999983289756
 31
0.0
  0
LINE
  5
306
330
67
100
AcDbEntity
  8
0
  6
Continuous
 62
     7
100
AcDbLine
 10
-121.6999999964404
 20
355.4999983293742
 30
0.0
 11
-121.6999999964406
 21
355.9999983294664
 31
0.0
  0
LINE
  5
307
330
67
100
AcDbEntity
  8
0
  6
Continuous
 62
     7
100
AcDbLine
 10
-122.9999999965546
 20
320.8488477570262
 30
0.0
 11
-122.9999999966172
 21
301.1999983293341
 31
0.0
  0
LINE
  5
308
330
67
100
AcDbEntity
  8
0
  6
Continuous
 62
     7
100
AcDbLine
 10
-121.6999999964406
 20
355.9999983294664
 30
0.0
 11
-123.1999999964412
 21
355.9999983294725
 31
0.0
  0
LINE
  5
309
330
67
100
AcDbEntity
  8
0
  6
Continuous
 62
     7
100
AcDbLine
 10
-121.6999999964245
 20
359.9999983294664
 30
0.0
 11
-123.1999999964251
 21
359.9999983294725
 31
0.0
  0
LINE
  5
30A
330
67
100
AcDbEntity
  8
0
  6
Continuous
 62
     7
100
AcDbLine
 10
-119.4999999964617
 20
355.4999983291995
 30
0.0
 11
-120.99999999646
 21
355.4999983292055
 31
0.0
  0
LINE
  5
30B
330
67
100
AcDbEntity
  8
0
  6
Continuous
 62
     7
100
AcDbLine
 10
-119.4999999966085
 20
320.8488477570238
 30
0.0
 11
-119.499999996528
 21
340.8488477569314
 31
0.0
  0
LINE
  5
30C
330
67
100
AcDbEntity
  8
0
  6
Continuous
 62
     7
100
AcDbLine
 10
-119.499999996528
 20
340.8488477569314
 30
0.0
 11
-120.9999999965054
 21
340.8488477569375
 31
0.0
  0
LINE
  5
30D
330
67
100
AcDbEntity
  8
0
  6
Continuous
 62
     7
100
AcDbLine
 10
-119.499999996528
 20
340.8488477569314
 30
0.0
 11
-119.4999999964617
 21
355.4999983291995
 31
0.0
  0
LINE
  5
30E
330
67
100
AcDbEntity
  8
0
  6
Continuous
 62
     7
100
AcDbLine
 10
-121.5999999964246
 20
370.9999983289713
 30
0.0
 11
-121.5999999964354
 21
367.2999983289759
 31
0.0
  0
LINE
  5
30F
330
67
100
AcDbEntity
  8
0
  6
Continuous
 62
     7
100
AcDbLine
 10
-121.5999999964363
 20
366.9999983292073
 30
0.0
 11
-121.5999999964354
 21
367.2999983289759
 31
0.0
  0
LINE
  5
310
330
67
100
AcDbEntity
  8
0
  6
Continuous
 62
     7
100
AcDbLine
 10
-120.9999999965054
 20
340.8488477569375
 30
0.0
 11
-120.99999999646
 21
355.4999983292055
 31
0.0
  0
LINE
  5
311
330
67
100
AcDbEntity
  8
0
  6
Continuous
 62
     7
100
AcDbLine
 10
-120.9999999965658
 20
320.8488477569375
 30
0.0
 11
-120.9999999965054
 21
340.8488477569375
 31
0.0
  0
LINE
  5
312
330
67
100
AcDbEntity
  8
0
  6
Continuous
 62
     7
100
AcDbLine
 10
-120.9999999965658
 20
320.8488477569375
 30
0.0
 11
-119.4999999966085
 21
320.8488477570238
 31
0.0
  0
LINE
  5
313
330
67
100
AcDbEntity
  8
0
  6
Continuous
 62
     7
100
AcDbLine
 10
-120.99999999646
 20
355.4999983292055
 30
0.0
 11
-121.6999999964404
 21
355.4999983293742
 31
0.0
  0
LINE
  5
314
330
67
100
AcDbEntity
  8
0
  6
Continuous
 62
     7
100
AcDbLine
 10
-121.4999999962825
 20
296.9999983289354
 30
0.0
 11
-116.4999999961286
 21
301.9999983290535
 31
0.0
  0
LINE
  5
315
330
67
100
AcDbEntity
  8
0
  6
Continuous
 62
     7
100
AcDbLine
 10
-77.00000000018773
 20
301.1999983292877
 30
0.0
 11
-77.00000000017087
 21
296.9999983291268
 31
0.0
  0
LINE
  5
316
330
67
100
AcDbEntity
  8
0
  6
Continuous
 62
     7
100
AcDbLine
 10
-83.4999999962617
 20
301.9967553132469
 30
0.0
 11
-78.50317451675325
 21
296.9999983289659
 31
0.0
  0
LINE
  5
317
330
67
100
AcDbEntity
  8
0
  6
Continuous
 62
     7
100
AcDbLine
 10
-123.1999999964412
 20
355.9999983294725
 30
0.0
 11
-123.1999999964312
 21
357.9999983294795
 31
0.0
  0
LINE
  5
318
330
67
100
AcDbEntity
  8
0
  6
Continuous
 62
     7
100
AcDbLine
 10
-124.4000000003474
 20
350.2392535063866
 30
0.0
 11
-124.4000000003967
 21
301.1999983293022
 31
0.0
  0
LINE
  5
319
330
67
100
AcDbEntity
  8
0
  6
Continuous
 62
     7
100
AcDbLine
 10
-123.1999999964312
 20
357.9999983294795
 30
0.0
 11
-123.1999999964251
 21
359.9999983294725
 31
0.0
  0
LINE
  5
31A
330
67
100
AcDbEntity
  8
0
  6
Continuous
 62
     7
100
AcDbLine
 10
-124.4000000003552
 20
360.4999983292084
 30
0.0
 11
-124.4000000003474
 21
350.2392535063866
 31
0.0
  0
LINE
  5
31B
330
67
100
AcDbEntity
  8
0
  6
Continuous
 62
     7
100
AcDbLine
 10
-123.6999999966258
 20
360.4999983292526
 30
0.0
 11
-123.6999999966585
 21
349.6499981854504
 31
0.0
  0
LINE
  5
31C
330
67
100
AcDbEntity
  8
0
  6
Continuous
 62
     7
100
AcDbLine
 10
-122.9999999965941
 20
370.9999983289756
 30
0.0
 11
-122.9999999966053
 21
367.2999983289801
 31
0.0
  0
LINE
  5
31D
330
67
100
AcDbEntity
  8
0
  6
Continuous
 62
     7
100
AcDbLine
 10
-123.6999999966585
 20
349.6499981854504
 30
0.0
 11
-121.8999999964887
 21
349.6499981854449
 31
0.0
  0
LINE
  5
31E
330
67
100
AcDbEntity
  8
0
  6
Continuous
 62
     7
100
AcDbLine
 10
-121.6999999964258
 20
360.499998329451
 30
0.0
 11
-123.6999999966258
 21
360.4999983292526
 31
0.0
  0
LINE
  5
31F
330
67
100
AcDbEntity
  8
0
  6
Continuous
 62
     7
100
AcDbLine
 10
-124.4000000003474
 20
350.2392535063866
 30
0.0
 11
-123.6999999966568
 21
350.2392535063682
 31
0.0
  0
LINE
  5
320
330
67
100
AcDbEntity
  8
0
  6
Continuous
 62
     7
100
AcDbLine
 10
-122.9999999966172
 20
301.1999983293341
 30
0.0
 11
-124.4000000003967
 21
301.1999983293022
 31
0.0
  0
LINE
  5
321
330
67
100
AcDbEntity
  8
0
  6
Continuous
 62
     7
100
AcDbLine
 10
-124.4000000003967
 20
301.1999983293022
 30
0.0
 11
-124.4000000003656
 21
296.999998329213
 31
0.0
  0
LINE
  5
322
330
67
100
AcDbEntity
  8
0
  6
Continuous
 62
     7
100
AcDbLine
 10
-78.50317451675325
 20
296.9999983289659
 30
0.0
 11
-77.00000000017087
 21
296.9999983291268
 31
0.0
  0
LINE
  5
323
330
67
100
AcDbEntity
  8
0
  6
Continuous
 62
     7
100
AcDbLine
 10
-124.4000000003656
 20
296.999998329213
 30
0.0
 11
-122.9999999965069
 21
296.9999983290106
 31
0.0
  0
LINE
  5
324
330
67
100
AcDbEntity
  8
0
  6
Continuous
 62
     7
100
AcDbLine
 10
-122.9999999965069
 20
296.9999983290106
 30
0.0
 11
-121.4999999962825
 21
296.9999983289354
 31
0.0
  0
LINE
  5
325
330
67
100
AcDbEntity
  8
0
  6
Continuous
 62
     7
100
AcDbLine
 10
-77.00000000017087
 20
296.9999983291268
 30
0.0
 11
-75.59999999634435
 21
296.9999983291639
 31
0.0
  0
ARC
  5
326
330
67
100
AcDbEntity
  8
0
  6
Continuous
 62
     7
100
AcDbCircle
 10
-98.49999999616935
 20
346.9999983289853
 30
0.0
 40
14.99999999999997
100
AcDbArc
 50
359.9999999998841
 51
34.51810784253232
  0
ARC
  5
327
330
67
100
AcDbEntity
  8
0
  6
Continuous
 62
     7
100
AcDbCircle
 10
-101.4999999962264
 20
346.9999983289782
 30
0.0
 40
14.99999999999998
100
AcDbArc
 50
145.4818921571763
 51
180.0000000001242
  0
ENDBLK
  5
69
330
67
100
AcDbEntity
  8
0
100
AcDbBlockEnd
  0
BLOCK
  5
6C
330
6A
100
AcDbEntity
  8
0
100
AcDbBlockBegin
  2
SA_Links1
 70
     0
 10
-100.0000000000141
 20
332.0000000000997
 30
0.0
  3
SA_Links1
  1

  0
INSERT
  5
6B
330
6A
100
AcDbEntity
  8
0
100
AcDbBlockReference
  2
HC-RBO_12-FE-select__4
 10
-124.4000000005166
 20
296.9999983289354
 30
0.0
  0
MTEXT
  5
328
330
6A
100
AcDbEntity
  8
1
 62
     6
100
AcDbMText
 10
-100.0000000000141
 20
286.9999999999577
 30
0.0
 40
10.0
 41
0.0
 71
     2
 72
     1
  1
 
  7
CONVERTER_11
 73
     1
 44
1.32052821128451
  0
ENDBLK
  5
6D
330
6A
100
AcDbEntity
  8
0
100
AcDbBlockEnd
  0
BLOCK
  5
6F
330
6E
100
AcDbEntity
  8
0
100
AcDbBlockBegin
  2
HC-RBO_12-FE-select__5
 70
     0
 10
-399.1499958172311
 20
296.9999983289066
 30
0.0
  3
HC-RBO_12-FE-select__5
  1

  0
LINE
  5
329
330
6E
100
AcDbEntity
  8
0
  6
Continuous
 62
     7
100
AcDbLine
 10
-399.1499958172295
 20
361.9999149954264
 30
0.0
 11
-399.1499958171641
 21
296.9999983289066
 31
0.0
  0
LINE
  5
32A
330
6E
100
AcDbEntity
  8
0
  6
Continuous
 62
     7
100
AcDbLine
 10
-399.1499958172311
 20
363.4999983288551
 30
0.0
 11
-399.1499958172295
 21
361.9999149954264
 31
0.0
  0
LINE
  5
32B
330
6E
100
AcDbEntity
  8
0
  6
Continuous
 62
     7
100
AcDbLine
 10
-399.1499958172238
 20
366.9999983288748
 30
0.0
 11
-399.1499958172311
 21
363.4999983288551
 31
0.0
  0
LINE
  5
32C
330
6E
100
AcDbEntity
  8
0
  6
Continuous
 62
     7
100
AcDbLine
 10
-391.2499958171106
 20
301.9967553131956
 30
0.0
 11
-391.2499958172029
 21
346.9999983289038
 31
0.0
  0
LINE
  5
32D
330
6E
100
AcDbEntity
  8
0
  6
Continuous
 62
     7
100
AcDbLine
 10
-396.2468212966241
 20
296.9999983289096
 30
0.0
 11
-391.2499958171106
 21
301.9967553131956
 31
0.0
  0
LINE
  5
32E
330
6E
100
AcDbEntity
  8
0
  6
Continuous
 62
     7
100
AcDbLine
 10
-350.3499958131429
 20
296.9999983289557
 30
0.0
 11
-353.2499958171586
 21
296.9999983289528
 31
0.0
  0
LINE
  5
32F
330
6E
100
AcDbEntity
  8
0
  6
Continuous
 62
     7
100
AcDbLine
 10
-351.7499958167683
 20
367.2999983289134
 30
0.0
 11
-351.7499958167795
 21
370.9999983289179
 31
0.0
  0
LINE
  5
330
330
6E
100
AcDbEntity
  8
0
  6
Continuous
 62
     7
100
AcDbLine
 10
-350.3499958132083
 20
361.9999149953203
 30
0.0
 11
-350.3499958132251
 21
363.4999983289359
 31
0.0
  0
LINE
  5
331
330
6E
100
AcDbEntity
  8
0
  6
Continuous
 62
     7
100
AcDbLine
 10
-350.3499958131429
 20
296.9999983289557
 30
0.0
 11
-350.3499958132083
 21
361.9999149953203
 31
0.0
  0
LINE
  5
332
330
6E
100
AcDbEntity
  8
0
  6
Continuous
 62
     7
100
AcDbLine
 10
-351.7499958167674
 20
366.9999983291297
 30
0.0
 11
-351.7499958167683
 21
367.2999983289134
 31
0.0
  0
LINE
  5
333
330
6E
100
AcDbEntity
  8
0
  6
Continuous
 62
     7
100
AcDbLine
 10
-353.149995816937
 20
367.2999983289092
 30
0.0
 11
-353.149995816936
 21
366.9999983291283
 31
0.0
  0
LINE
  5
334
330
6E
100
AcDbEntity
  8
0
  6
Continuous
 62
     2
100
AcDbLine
 10
-353.149995816937
 20
367.2999983289092
 30
0.0
 11
-351.7499958167683
 21
367.2999983289134
 31
0.0
  0
LINE
  5
335
330
6E
100
AcDbEntity
  8
0
  6
Continuous
 62
     7
100
AcDbLine
 10
-353.1499958169484
 20
370.9999983289137
 30
0.0
 11
-351.7499958167795
 21
370.9999983289179
 31
0.0
  0
LINE
  5
336
330
6E
100
AcDbEntity
  8
0
  6
Continuous
 62
     7
100
AcDbLine
 10
-353.149995816937
 20
367.2999983289092
 30
0.0
 11
-353.1499958169484
 21
370.9999983289137
 31
0.0
  0
LINE
  5
337
330
6E
100
AcDbEntity
  8
0
  6
Continuous
 62
     7
100
AcDbLine
 10
-358.249995817146
 20
346.9999983288943
 30
0.0
 11
-358.2499958172438
 21
301.9999983290022
 31
0.0
  0
LINE
  5
338
330
6E
100
AcDbEntity
  8
0
  6
Continuous
 62
     7
100
AcDbLine
 10
-358.2499958172438
 20
301.9999983290022
 30
0.0
 11
-353.2499958171586
 21
296.9999983289528
 31
0.0
  0
LINE
  5
339
330
6E
100
AcDbEntity
  8
0
  6
Continuous
 62
     7
100
AcDbLine
 10
-353.149995816936
 20
366.9999983291283
 30
0.0
 11
-351.7499958167674
 21
366.9999983291297
 31
0.0
  0
LINE
  5
33A
330
6E
100
AcDbEntity
  8
0
  6
Continuous
 62
     7
100
AcDbLine
 10
-374.7499958147469
 20
355.4999983292746
 30
0.0
 11
-360.890788723096
 21
355.4999983293025
 31
0.0
  0
LINE
  5
33B
330
6E
100
AcDbEntity
  8
0
  6
Continuous
 62
     7
100
AcDbLine
 10
-374.7499958147514
 20
359.989338157613
 30
0.0
 11
-365.7481926462446
 21
359.9893381576115
 31
0.0
  0
LINE
  5
33C
330
6E
100
AcDbEntity
  8
0
  6
Continuous
 62
     7
100
AcDbLine
 10
-351.7499958167674
 20
366.9999983291297
 30
0.0
 11
-350.3499958132026
 21
366.9999983289239
 31
0.0
  0
LINE
  5
33D
330
6E
100
AcDbEntity
  8
0
  6
Continuous
 62
     7
100
AcDbLine
 10
-374.7499958151217
 20
363.4999983288868
 30
0.0
 11
-350.3499958132251
 21
363.4999983289359
 31
0.0
  0
LINE
  5
33E
330
6E
100
AcDbEntity
  8
0
  6
Continuous
 62
     7
100
AcDbLine
 10
-374.7499958151202
 20
361.9999149953677
 30
0.0
 11
-373.1999958173578
 21
361.9999149953628
 31
0.0
  0
LINE
  5
33F
330
6E
100
AcDbEntity
  8
0
  6
Continuous
 62
     7
100
AcDbLine
 10
-373.1999958173578
 20
361.9999149953628
 30
0.0
 11
-350.3499958132083
 21
361.9999149953203
 31
0.0
  0
LINE
  5
340
330
6E
100
AcDbEntity
  8
0
  6
Continuous
 62
     2
100
AcDbLine
 10
-374.7499958151217
 20
363.4999983288868
 30
0.0
 11
-374.7499958151202
 21
361.9999149953677
 31
0.0
  0
LINE
  5
341
330
6E
100
AcDbEntity
  8
0
  6
Continuous
 62
     2
100
AcDbLine
 10
-374.7499958150992
 20
366.9999983288993
 30
0.0
 11
-374.7499958151217
 21
363.4999983288868
 31
0.0
  0
LINE
  5
342
330
6E
100
AcDbEntity
  8
0
  6
Continuous
 62
     7
100
AcDbLine
 10
-350.3499958132251
 20
363.4999983289359
 30
0.0
 11
-350.3499958132026
 21
366.9999983289239
 31
0.0
  0
LINE
  5
343
330
6E
100
AcDbEntity
  8
0
  6
Continuous
 62
     7
100
AcDbLine
 10
-374.7499958150992
 20
366.9999983288993
 30
0.0
 11
-353.149995816936
 21
366.9999983291283
 31
0.0
  0
LINE
  5
344
330
6E
100
AcDbEntity
  8
0
  6
Continuous
 62
     2
100
AcDbLine
 10
-374.7499958147514
 20
359.989338157613
 30
0.0
 11
-374.7499958151202
 21
361.9999149953677
 31
0.0
  0
LINE
  5
345
330
6E
100
AcDbEntity
  8
0
  6
Continuous
 62
     7
100
AcDbLine
 10
-396.2468212966241
 20
296.9999983289096
 30
0.0
 11
-399.1499958171641
 21
296.9999983289066
 31
0.0
  0
LINE
  5
346
330
6E
100
AcDbEntity
  8
0
  6
Continuous
 62
     7
100
AcDbLine
 10
-399.1499958172311
 20
363.4999983288551
 30
0.0
 11
-374.7499958151217
 21
363.4999983288868
 31
0.0
  0
LINE
  5
347
330
6E
100
AcDbEntity
  8
0
  6
Continuous
 62
     7
100
AcDbLine
 10
-388.6092029112962
 20
355.4999983292467
 30
0.0
 11
-374.7499958147469
 21
355.4999983292746
 31
0.0
  0
LINE
  5
348
330
6E
100
AcDbEntity
  8
0
  6
Continuous
 62
     7
100
AcDbLine
 10
-383.7517989881116
 20
359.9893381576144
 30
0.0
 11
-374.7499958147514
 21
359.989338157613
 31
0.0
  0
LINE
  5
349
330
6E
100
AcDbEntity
  8
0
  6
Continuous
 62
     2
100
AcDbLine
 10
-374.7499958147469
 20
355.4999983292746
 30
0.0
 11
-374.7499958147514
 21
359.989338157613
 31
0.0
  0
LINE
  5
34A
330
6E
100
AcDbEntity
  8
0
  6
Continuous
 62
     7
100
AcDbLine
 10
-376.2999958172825
 20
361.9999149953767
 30
0.0
 11
-374.7499958151202
 21
361.9999149953677
 31
0.0
  0
LINE
  5
34B
330
6E
100
AcDbEntity
  8
0
  6
Continuous
 62
     7
100
AcDbLine
 10
-374.7499958150992
 20
366.9999983288993
 30
0.0
 11
-399.1499958172238
 21
366.9999983288748
 31
0.0
  0
LINE
  5
34C
330
6E
100
AcDbEntity
  8
0
  6
Continuous
 62
     7
100
AcDbLine
 10
-399.1499958172295
 20
361.9999149954264
 30
0.0
 11
-376.2999958172825
 21
361.9999149953767
 31
0.0
  0
ARC
  5
34D
330
6E
100
AcDbEntity
  8
0
  6
Continuous
 62
     7
100
AcDbCircle
 10
-373.249995817146
 20
346.9999983289269
 30
0.0
 40
15.0
100
AcDbArc
 50
359.9999999998756
 51
89.80901371541928
  0
ARC
  5
34E
330
6E
100
AcDbEntity
  8
0
  6
Continuous
 62
     7
100
AcDbCircle
 10
-376.249995817199
 20
346.9999983289379
 30
0.0
 40
15.00000000000386
100
AcDbArc
 50
90.19098628570843
 51
180.0000000001303
  0
ENDBLK
  5
70
330
6E
100
AcDbEntity
  8
0
100
AcDbBlockEnd
  0
BLOCK
  5
73
330
71
100
AcDbEntity
  8
0
100
AcDbBlockBegin
  2
SA_Rechts1
 70
     0
 10
-374.7499958133594
 20
332.0000000000499
 30
0.0
  3
SA_Rechts1
  1

  0
INSERT
  5
72
330
71
100
AcDbEntity
  8
0
100
AcDbBlockReference
  2
HC-RBO_12-FE-select__5
 10
-399.1499958172311
 20
296.9999983289066
 30
0.0
  0
MTEXT
  5
34F
330
71
100
AcDbEntity
  8
1
 62
     6
100
AcDbMText
 10
-374.7499958133594
 20
286.9999999999077
 30
0.0
 40
10.0
 41
0.0
 71
     2
 72
     1
  1
 
  7
CONVERTER_11
 73
     1
 44
1.32052821128451
  0
ENDBLK
  5
74
330
71
100
AcDbEntity
  8
0
100
AcDbBlockEnd
  0
BLOCK
  5
76
330
75
100
AcDbEntity
  8
0
100
AcDbBlockBegin
  2
HC-RBO_12-FE-select__6
 70
     0
 10
-288.3499994913741
 20
296.999998328953
 30
0.0
  3
HC-RBO_12-FE-select__6
  1

  0
LINE
  5
350
330
75
100
AcDbEntity
  8
1
  6
DOT_CENTER
 62
     2
100
AcDbLine
 10
-285.349999491266
 20
360.1999983292361
 30
0.0
 11
-285.349999491266
 21
355.7999983292361
 31
0.0
  0
LINE
  5
351
330
75
100
AcDbEntity
  8
1
  6
DOT_CENTER
 62
     2
100
AcDbLine
 10
-283.149999491266
 20
357.9999983292361
 30
0.0
 11
-287.549999491266
 21
357.9999983292361
 31
0.0
  0
LINE
  5
352
330
75
100
AcDbEntity
  8
0
  6
Continuous
 62
     7
100
AcDbLine
 10
-167.3999994913553
 20
296.999998328953
 30
0.0
 11
-167.3999994913122
 21
361.9999149953629
 31
0.0
  0
LINE
  5
353
330
75
100
AcDbEntity
  8
0
  6
Continuous
 62
     7
100
AcDbLine
 10
-170.8999994914275
 20
366.9999983288749
 30
0.0
 11
-167.3999994914813
 21
363.4999983288553
 31
0.0
  0
LINE
  5
354
330
75
100
AcDbEntity
  8
0
  6
Continuous
 62
     7
100
AcDbLine
 10
-167.3999994914813
 20
363.4999983288553
 30
0.0
 11
-162.3999994913558
 21
363.4999983288378
 31
0.0
  0
LINE
  5
355
330
75
100
AcDbEntity
  8
0
  6
Continuous
 62
     7
100
AcDbLine
 10
-162.3999994913558
 20
363.4999983288378
 30
0.0
 11
-162.3999994913575
 21
361.9999149954209
 31
0.0
  0
LINE
  5
356
330
75
100
AcDbEntity
  8
0
  6
Continuous
 62
     7
100
AcDbLine
 10
-167.3999994913122
 20
361.9999149953629
 30
0.0
 11
-162.3999994913575
 21
361.9999149954209
 31
0.0
  0
LINE
  5
357
330
75
100
AcDbEntity
  8
0
  6
Continuous
 62
     7
100
AcDbLine
 10
-222.9499993445035
 20
301.1999983292845
 30
0.0
 11
-211.4105941826074
 21
296.999998329162
 31
0.0
  0
LINE
  5
358
330
75
100
AcDbEntity
  8
0
  6
Continuous
 62
     7
100
AcDbLine
 10
-167.3999994913553
 20
296.999998328953
 30
0.0
 11
-211.4105941826074
 21
296.999998329162
 31
0.0
  0
LINE
  5
359
330
75
100
AcDbEntity
  8
0
  6
Continuous
 62
     7
100
AcDbLine
 10
-288.3499994912129
 20
355.9999983292061
 30
0.0
 11
-287.4839740873381
 21
355.4999983291498
 31
0.0
  0
LINE
  5
35A
330
75
100
AcDbEntity
  8
0
  6
Continuous
 62
     7
100
AcDbLine
 10
-225.9872917840374
 20
355.4999983291691
 30
0.0
 11
-282.0499994912746
 21
355.4999983292325
 31
0.0
  0
LINE
  5
35B
330
75
100
AcDbEntity
  8
0
  6
Continuous
 62
     7
100
AcDbLine
 10
-282.0499994912746
 20
355.4999983292325
 30
0.0
 11
-287.4839740873381
 21
355.4999983291498
 31
0.0
  0
LINE
  5
35C
330
75
100
AcDbEntity
  8
0
  6
Continuous
 62
     7
100
AcDbLine
 10
-283.6606596631195
 20
360.4999983293318
 30
0.0
 11
-286.5926401782969
 21
360.4999983292885
 31
0.0
  0
LINE
  5
35D
330
75
100
AcDbEntity
  8
0
  6
Continuous
 62
     7
100
AcDbLine
 10
-288.3499994912129
 20
355.9999983292061
 30
0.0
 11
-288.3499994913741
 21
358.7426390162235
 31
0.0
  0
LINE
  5
35E
330
75
100
AcDbEntity
  8
0
  6
Continuous
 62
     7
100
AcDbLine
 10
-286.5926401782969
 20
360.4999983292885
 30
0.0
 11
-288.3499994913741
 21
358.7426390162235
 31
0.0
  0
LINE
  5
35F
330
75
100
AcDbEntity
  8
0
  6
Continuous
 62
     7
100
AcDbLine
 10
-228.8740431297329
 20
360.4999983291546
 30
0.0
 11
-230.1272737448504
 21
360.4999983291058
 31
0.0
  0
LINE
  5
360
330
75
100
AcDbEntity
  8
0
  6
Continuous
 62
     7
100
AcDbLine
 10
-230.1272737448504
 20
360.4999983291058
 30
0.0
 11
-230.2999994911859
 21
360.4999983291056
 31
0.0
  0
LINE
  5
361
330
75
100
AcDbEntity
  8
0
  6
Continuous
 62
     7
100
AcDbLine
 10
-277.1606596631643
 20
366.9999983292456
 30
0.0
 11
-282.049999491475
 21
362.110658500965
 31
0.0
  0
LINE
  5
362
330
75
100
AcDbEntity
  8
0
  6
Continuous
 62
     7
100
AcDbLine
 10
-230.2999994911859
 20
360.4999983291056
 30
0.0
 11
-282.049999491257
 21
360.4999983292703
 31
0.0
  0
LINE
  5
363
330
75
100
AcDbEntity
  8
0
  6
Continuous
 62
     7
100
AcDbLine
 10
-283.6606596631195
 20
360.4999983293318
 30
0.0
 11
-282.049999491475
 21
362.110658500965
 31
0.0
  0
LINE
  5
364
330
75
100
AcDbEntity
  8
0
  6
Continuous
 62
     7
100
AcDbLine
 10
-282.0499994912746
 20
355.4999983292325
 30
0.0
 11
-282.049999491257
 21
360.4999983292703
 31
0.0
  0
LINE
  5
365
330
75
100
AcDbEntity
  8
0
  6
Continuous
 62
     7
100
AcDbLine
 10
-282.049999491257
 20
360.4999983292703
 30
0.0
 11
-282.049999491475
 21
362.110658500965
 31
0.0
  0
LINE
  5
366
330
75
100
AcDbEntity
  8
0
  6
Continuous
 62
     7
100
AcDbLine
 10
-230.2999994911802
 20
366.9999983291284
 30
0.0
 11
-238.6999994911802
 21
366.9999983291577
 31
0.0
  0
LINE
  5
367
330
75
100
AcDbEntity
  8
0
  6
Continuous
 62
     7
100
AcDbLine
 10
-238.6999994911802
 20
366.9999983291577
 30
0.0
 11
-277.1606596631643
 21
366.9999983292456
 31
0.0
  0
LINE
  5
368
330
75
100
AcDbEntity
  8
0
  6
Continuous
 62
     7
100
AcDbLine
 10
-170.8999994914275
 20
366.9999983288749
 30
0.0
 11
-230.2999994911802
 21
366.9999983291284
 31
0.0
  0
LINE
  5
369
330
75
100
AcDbEntity
  8
0
  6
Continuous
 62
     7
100
AcDbLine
 10
-222.9499993442723
 20
350.2392535063959
 30
0.0
 11
-222.9499993445035
 21
301.1999983292845
 31
0.0
  0
LINE
  5
36A
330
75
100
AcDbEntity
  8
0
  6
Continuous
 62
     7
100
AcDbLine
 10
-236.49999949118
 20
367.2999983289218
 30
0.0
 11
-232.49999949118
 21
367.2999983289138
 31
0.0
  0
LINE
  5
36B
330
75
100
AcDbEntity
  8
0
  6
Continuous
 62
     7
100
AcDbLine
 10
-228.8740431297329
 20
360.4999983291546
 30
0.0
 11
-222.9499993442723
 21
350.2392535063959
 31
0.0
  0
LINE
  5
36C
330
75
100
AcDbEntity
  8
0
  6
Continuous
 62
     7
100
AcDbLine
 10
-224.428446960002
 20
349.6499981854005
 30
0.0
 11
-224.1398448105127
 21
350.1503768536213
 31
0.0
  0
LINE
  5
36D
330
75
100
AcDbEntity
  8
0
  6
Continuous
 62
     7
100
AcDbLine
 10
-238.6999994911948
 20
349.6499981853954
 30
0.0
 11
-224.428446960002
 21
349.6499981854005
 31
0.0
  0
LINE
  5
36E
330
75
100
AcDbEntity
  8
0
  6
Continuous
 62
     7
100
AcDbLine
 10
-238.6999994911897
 20
355.4999983291835
 30
0.0
 11
-238.6999994911948
 21
349.6499981853954
 31
0.0
  0
LINE
  5
36F
330
75
100
AcDbEntity
  8
0
  6
Continuous
 62
     7
100
AcDbLine
 10
-224.1398448105127
 20
350.1503768536213
 30
0.0
 11
-227.2346902100599
 21
355.4999983291706
 31
0.0
  0
LINE
  5
370
330
75
100
AcDbEntity
  8
0
  6
Continuous
 62
     7
100
AcDbLine
 10
-238.6999994911802
 20
366.9999983291577
 30
0.0
 11
-238.6999994911801
 21
367.2999983289263
 31
0.0
  0
LINE
  5
371
330
75
100
AcDbEntity
  8
0
  6
Continuous
 62
     7
100
AcDbLine
 10
-230.29999949118
 20
367.2999983289093
 30
0.0
 11
-230.2999994911802
 21
366.9999983291284
 31
0.0
  0
LINE
  5
372
330
75
100
AcDbEntity
  8
0
  6
Continuous
 62
     7
100
AcDbLine
 10
-232.5125387997374
 20
370.9999983289138
 30
0.0
 11
-236.487460182608
 21
370.9999983289217
 31
0.0
  0
ARC
  5
373
330
75
100
AcDbEntity
  8
0
  6
Continuous
 62
     7
100
AcDbCircle
 10
-234.49999949118
 20
367.2999983289178
 30
0.0
 40
4.200000000000047
100
AcDbArc
 50
118.2425371843232
 51
179.9999999998845
  0
ARC
  5
374
330
75
100
AcDbEntity
  8
0
  6
Continuous
 62
     7
100
AcDbCircle
 10
-234.49999949118
 20
367.2999983289178
 30
0.0
 40
4.200000000000017
100
AcDbArc
 50
359.9999999998836
 51
61.75746281545022
  0
ARC
  5
375
330
75
100
AcDbEntity
  8
0
  6
Continuous
 62
     7
100
AcDbCircle
 10
-234.49999949118
 20
367.2999983289178
 30
0.0
 40
2.0
100
AcDbArc
 50
359.9999999998844
 51
179.999999999886
  0
CIRCLE
  5
376
330
75
100
AcDbEntity
  8
0
  6
Continuous
 62
     7
100
AcDbCircle
 10
-285.349999491266
 20
357.9999983292361
 30
0.0
 40
2.0
  0
ENDBLK
  5
77
330
75
100
AcDbEntity
  8
0
100
AcDbBlockEnd
  0
BLOCK
  5
7A
330
78
100
AcDbEntity
  8
0
100
AcDbBlockBegin
  2
Vordans1
 70
     0
 10
-225.3749980933746
 20
332.00000000005
 30
0.0
  3
Vordans1
  1

  0
INSERT
  5
79
330
78
100
AcDbEntity
  8
0
100
AcDbBlockReference
  2
HC-RBO_12-FE-select__6
 10
-288.3499994913741
 20
296.999998328953
 30
0.0
  0
MTEXT
  5
377
330
78
100
AcDbEntity
  8
1
 62
     6
100
AcDbMText
 10
-225.3749980933749
 20
286.9999999999077
 30
0.0
 40
10.0
 41
0.0
 71
     2
 72
     1
  1
 
  7
CONVERTER_11
 73
     1
 44
1.32052821128451
  0
DIMENSION
  5
382
330
78
100
AcDbEntity
  8
1
100
AcDbDimension
  2
*D18
 10
-288.3499994913741
 20
262.1593755926141
 30
0.0
 11
-215.278294546734
 21
270.0093755926141
 31
0.0
 70
    32
  1
<>
 71
     5
 42
-1.0
 53
0.00013888888889
  3
ME10_DIM_11
100
AcDbAlignedDimension
 13
-162.3999994913575
 23
361.9999149954209
 33
0.0
 14
-288.3499994913741
 24
358.7426390162235
 34
0.0
100
AcDbRotatedDimension
  0
DIMENSION
  5
38D
330
78
100
AcDbEntity
  8
1
100
AcDbDimension
  2
*D19
 10
-305.167717015288
 20
370.9999983289217
 30
0.0
 11
-312.667717015288
 21
334.552326271232
 31
0.0
 70
    32
  1
<>
 71
     5
 42
-1.0
 53
90.0
  3
ME10_DIM_12
100
AcDbAlignedDimension
 13
-167.3999994913553
 23
296.999998328953
 33
0.0
 14
-236.487460182608
 24
370.9999983289217
 34
0.0
 50
90.0
100
AcDbRotatedDimension
  0
ENDBLK
  5
7B
330
78
100
AcDbEntity
  8
0
100
AcDbBlockEnd
  0
BLOCK
  5
84
330
7C
100
AcDbEntity
  8
0
100
AcDbBlockBegin
  2
1
 70
     0
 10
0.0
 20
0.0
 30
0.0
  3
1
  1

  0
INSERT
  5
7D
330
7C
100
AcDbEntity
  8
0
100
AcDbBlockReference
  2
A4I_CS
 10
67.30000091850665
 20
19.09570433615568
 30
0.0
  0
INSERT
  5
7E
330
7C
100
AcDbEntity
  8
0
100
AcDbBlockReference
  2
AllgSicht1
 10
5.99999999995575
 20
98.000000000035
 30
0.0
 41
0.5
 42
0.5
 43
0.5
  0
INSERT
  5
7F
330
7C
100
AcDbEntity
  8
0
100
AcDbBlockReference
  2
Drfsicht1
 10
-112.6874990467414
 20
84.29999919047775
 30
0.0
 41
0.5
 42
0.5
 43
0.5
  0
INSERT
  5
80
330
7C
100
AcDbEntity
  8
0
100
AcDbBlockReference
  2
Rckans1
 10
18.68749904668763
 20
166.0000000000248
 30
0.0
 41
0.5
 42
0.5
 43
0.5
  0
INSERT
  5
81
330
7C
100
AcDbEntity
  8
0
100
AcDbBlockReference
  2
SA_Links1
 10
-50.00000000000705
 20
166.0000000000499
 30
0.0
 41
0.5
 42
0.5
 43
0.5
  0
INSERT
  5
82
330
7C
100
AcDbEntity
  8
0
100
AcDbBlockReference
  2
SA_Rechts1
 10
-187.3749979066797
 20
166.000000000025
 30
0.0
 41
0.5
 42
0.5
 43
0.5
  0
INSERT
  5
83
330
7C
100
AcDbEntity
  8
0
100
AcDbBlockReference
  2
Vordans1
 10
-112.6874990466873
 20
166.000000000025
 30
0.0
 41
0.5
 42
0.5
 43
0.5
  0
ENDBLK
  5
85
330
7C
100
AcDbEntity
  8
0
100
AcDbBlockEnd
  0
BLOCK
  5
295
330
28E
100
AcDbEntity
  8
0
100
AcDbBlockBegin
  2
*D17
 70
     1
 10
0.0
 20
0.0
 30
0.0
  3
*D17
  1

  0
LINE
  5
28F
330
28E
100
AcDbEntity
  8
1
  6
Continuous
 62
     2
100
AcDbLine
 10
-305.167717015288
 20
144.1999983774368
 30
0.0
 11
-305.167717015288
 21
192.999998381458
 31
0.0
  0
LINE
  5
290
330
28E
100
AcDbEntity
  8
1
  6
Continuous
 62
     2
100
AcDbLine
 10
-283.0499994914608
 20
192.999998381458
 30
0.0
 11
-308.167717015288
 21
192.999998381458
 31
0.0
  0
LINE
  5
291
330
28E
100
AcDbEntity
  8
1
  6
Continuous
 62
     2
100
AcDbLine
 10
-283.0499994914603
 20
144.1999983774368
 30
0.0
 11
-308.167717015288
 21
144.1999983774368
 31
0.0
  0
SOLID
  5
292
330
28E
100
AcDbEntity
  8
1
 62
     2
100
AcDbTrace
 10
-306.0892844983997
 20
151.1999983774368
 30
0.0
 11
-304.2461495321762
 21
151.1999983774368
 31
0.0
 12
-305.167717015288
 22
144.1999983774368
 32
0.0
 13
-305.167717015288
 23
144.1999983774368
 33
0.0
  0
SOLID
  5
293
330
28E
100
AcDbEntity
  8
1
 62
     2
100
AcDbTrace
 10
-304.2461495321762
 20
185.999998381458
 30
0.0
 11
-306.0892844983997
 21
185.999998381458
 31
0.0
 12
-305.167717015288
 22
192.999998381458
 32
0.0
 13
-305.167717015288
 23
192.999998381458
 33
0.0
  0
MTEXT
  5
294
330
28E
100
AcDbEntity
  8
1
 62
     3
100
AcDbMText
 10
-309.867717015288
 20
158.4904020508462
 30
0.0
 40
7.0
 41
0.0
 71
     7
 72
     1
  1
48,8
  7
CONVERTER_11
 11
0.0
 21
1.0
 31
0.0
 73
     1
 44
0.60024009603842
  0
ENDBLK
  5
296
330
28E
100
AcDbEntity
  8
0
100
AcDbBlockEnd
  0
BLOCK
  5
37F
330
378
100
AcDbEntity
  8
0
100
AcDbBlockBegin
  2
*D18
 70
     1
 10
0.0
 20
0.0
 30
0.0
  3
*D18
  1

  0
LINE
  5
379
330
378
100
AcDbEntity
  8
1
  6
Continuous
 62
     2
100
AcDbLine
 10
-288.3499994913741
 20
262.1593755926141
 30
0.0
 11
-162.3999994913575
 21
262.1593755926141
 31
0.0
  0
LINE
  5
37A
330
378
100
AcDbEntity
  8
1
  6
Continuous
 62
     2
100
AcDbLine
 10
-162.3999994913575
 20
360.9999149954209
 30
0.0
 11
-162.3999994913575
 21
259.1593755926141
 31
0.0
  0
LINE
  5
37B
330
378
100
AcDbEntity
  8
1
  6
Continuous
 62
     2
100
AcDbLine
 10
-288.3499994913741
 20
357.7426390162235
 30
0.0
 11
-288.3499994913741
 21
259.1593755926141
 31
0.0
  0
SOLID
  5
37C
330
378
100
AcDbEntity
  8
1
 62
     2
100
AcDbTrace
 10
-281.3499994913741
 20
263.0809430757258
 30
0.0
 11
-281.3499994913741
 21
261.2378081095023
 31
0.0
 12
-288.3499994913741
 22
262.1593755926141
 32
0.0
 13
-288.3499994913741
 23
262.1593755926141
 33
0.0
  0
SOLID
  5
37D
330
378
100
AcDbEntity
  8
1
 62
     2
100
AcDbTrace
 10
-169.3999994913575
 20
261.2378081095023
 30
0.0
 11
-169.3999994913575
 21
263.0809430757258
 31
0.0
 12
-162.3999994913575
 22
262.1593755926141
 32
0.0
 13
-162.3999994913575
 23
262.1593755926141
 33
0.0
  0
MTEXT
  5
37E
330
378
100
AcDbEntity
  8
1
 62
     3
100
AcDbMText
 10
-230.153294546734
 20
266.8593755926141
 30
0.0
 40
7.0
 41
0.0
 71
     7
 72
     1
  1
125,95
  7
CONVERTER_11
 11
0.9999999999970619
 21
2.424068405545306E-6
 31
0.0
 73
     1
 44
0.60024009603842
  0
ENDBLK
  5
380
330
378
100
AcDbEntity
  8
0
100
AcDbBlockEnd
  0
BLOCK
  5
38A
330
383
100
AcDbEntity
  8
0
100
AcDbBlockBegin
  2
*D19
 70
     1
 10
0.0
 20
0.0
 30
0.0
  3
*D19
  1

  0
LINE
  5
384
330
383
100
AcDbEntity
  8
1
  6
Continuous
 62
     2
100
AcDbLine
 10
-305.167717015288
 20
370.9999983289217
 30
0.0
 11
-305.167717015288
 21
296.999998328953
 31
0.0
  0
LINE
  5
385
330
383
100
AcDbEntity
  8
1
  6
Continuous
 62
     2
100
AcDbLine
 10
-168.3999994913553
 20
296.999998328953
 30
0.0
 11
-308.167717015288
 21
296.999998328953
 31
0.0
  0
LINE
  5
386
330
383
100
AcDbEntity
  8
1
  6
Continuous
 62
     2
100
AcDbLine
 10
-237.4874601826079
 20
370.9999983289217
 30
0.0
 11
-308.167717015288
 21
370.9999983289217
 31
0.0
  0
SOLID
  5
387
330
383
100
AcDbEntity
  8
1
 62
     2
100
AcDbTrace
 10
-304.2461495321763
 20
363.9999983289217
 30
0.0
 11
-306.0892844983998
 21
363.9999983289217
 31
0.0
 12
-305.167717015288
 22
370.9999983289217
 32
0.0
 13
-305.167717015288
 23
370.9999983289217
 33
0.0
  0
SOLID
  5
388
330
383
100
AcDbEntity
  8
1
 62
     2
100
AcDbTrace
 10
-306.0892844983998
 20
303.999998328953
 30
0.0
 11
-304.2461495321763
 21
303.999998328953
 31
0.0
 12
-305.167717015288
 22
296.999998328953
 32
0.0
 13
-305.167717015288
 23
296.999998328953
 33
0.0
  0
MTEXT
  5
389
330
383
100
AcDbEntity
  8
1
 62
     3
100
AcDbMText
 10
-309.167717015288
 20
329.302326271232
 30
0.0
 40
7.0
 41
0.0
 71
     7
 72
     1
  1
74
  7
CONVERTER_11
 11
0.0
 21
1.0
 31
0.0
 73
     1
 44
0.60024009603842
  0
ENDBLK
  5
38B
330
383
100
AcDbEntity
  8
0
100
AcDbBlockEnd
  0
ENDSEC
  0
SECTION
  2
ENTITIES
  0
INSERT
  5
86
330
1F
100
AcDbEntity
  8
1
100
AcDbBlockReference
  2
1
 10
0.0
 20
0.0
 30
0.0
  0
ENDSEC
  0
SECTION
  2
OBJECTS
  0
DICTIONARY
  5
C
330
0
100
AcDbDictionary
281
     1
  3
ACAD_GROUP
350
D
  3
ACAD_LAYOUT
350
1A
  3
ACAD_MATERIAL
350
3B
  3
ACAD_MLEADERSTYLE
350
3B5
  3
ACAD_MLINESTYLE
350
17
  3
ACAD_PLOTSETTINGS
350
19
  3
ACAD_PLOTSTYLENAME
350
E
  3
ACAD_TABLESTYLE
350
3B4
  3
ACAD_VISUALSTYLE
350
2A
  0
DICTIONARY
  5
D
102
{ACAD_REACTORS
330
C
102
}
330
C
100
AcDbDictionary
281
     1
  0
DICTIONARY
  5
1A
102
{ACAD_REACTORS
330
C
102
}
330
C
100
AcDbDictionary
281
     1
  3
Layout1
350
1E
  3
Layout2
350
26
  3
Model
350
22
  0
DICTIONARY
  5
3B
102
{ACAD_REACTORS
330
C
102
}
330
C
100
AcDbDictionary
281
     1
  3
ByBlock
350
3D
  3
ByLayer
350
3C
  3
Global
350
3E
  0
DICTIONARY
  5
3B5
102
{ACAD_REACTORS
330
C
102
}
330
C
100
AcDbDictionary
281
     1
  0
DICTIONARY
  5
17
102
{ACAD_REACTORS
330
C
102
}
330
C
100
AcDbDictionary
281
     1
  3
Standard
350
18
  0
DICTIONARY
  5
19
102
{ACAD_REACTORS
330
C
102
}
330
C
100
AcDbDictionary
281
     1
  0
ACDBDICTIONARYWDFLT
  5
E
102
{ACAD_REACTORS
330
C
102
}
330
C
100
AcDbDictionary
281
     1
  3
Normal
350
F
100
AcDbDictionaryWithDefault
340
F
  0
DICTIONARY
  5
3B4
102
{ACAD_REACTORS
330
C
102
}
330
C
100
AcDbDictionary
281
     1
  0
DICTIONARY
  5
2A
102
{ACAD_REACTORS
330
C
102
}
330
C
100
AcDbDictionary
281
     1
  3
2dWireframe
350
2F
  3
3D Hidden
350
31
  3
3dWireframe
350
30
  3
Basic
350
32
  3
Brighten
350
36
  3
ColorChange
350
3A
  3
Conceptual
350
34
  3
Dim
350
35
  3
Facepattern
350
39
  3
Flat
350
2B
  3
FlatWithEdges
350
2C
  3
Gouraud
350
2D
  3
GouraudWithEdges
350
2E
  3
Linepattern
350
38
  3
Realistic
350
33
  3
Thicken
350
37
  0
LAYOUT
  5
1E
102
{ACAD_REACTORS
330
1A
102
}
330
1A
100
AcDbPlotSettings
  1

  2
none_device
  4

  6

 40
0.0
 41
0.0
 42
0.0
 43
0.0
 44
0.0
 45
0.0
 46
0.0
 47
0.0
 48
0.0
 49
0.0
140
0.0
141
0.0
142
1.0
143
1.0
 70
   688
 72
     0
 73
     0
 74
     5
  7

 75
    16
 76
     0
 77
     2
 78
   300
147
1.0
148
0.0
149
0.0
100
AcDbLayout
  1
Layout1
 70
     1
 71
     1
 10
0.0
 20
0.0
 11
12.0
 21
9.0
 12
0.0
 22
0.0
 32
0.0
 14
1.00000000000000E+20
 24
1.00000000000000E+20
 34
1.00000000000000E+20
 15
-1.00000000000000E+20
 25
-1.00000000000000E+20
 35
-1.00000000000000E+20
146
0.0
 13
0.0
 23
0.0
 33
0.0
 16
1.0
 26
0.0
 36
0.0
 17
0.0
 27
1.0
 37
0.0
 76
     0
330
1B
  0
LAYOUT
  5
26
102
{ACAD_REACTORS
330
1A
102
}
330
1A
100
AcDbPlotSettings
  1

  2
none_device
  4

  6

 40
0.0
 41
0.0
 42
0.0
 43
0.0
 44
0.0
 45
0.0
 46
0.0
 47
0.0
 48
0.0
 49
0.0
140
0.0
141
0.0
142
1.0
143
1.0
 70
   688
 72
     0
 73
     0
 74
     5
  7

 75
    16
 76
     0
 77
     2
 78
   300
147
1.0
148
0.0
149
0.0
100
AcDbLayout
  1
Layout2
 70
     1
 71
     2
 10
0.0
 20
0.0
 11
0.0
 21
0.0
 12
0.0
 22
0.0
 32
0.0
 14
0.0
 24
0.0
 34
0.0
 15
0.0
 25
0.0
 35
0.0
146
0.0
 13
0.0
 23
0.0
 33
0.0
 16
1.0
 26
0.0
 36
0.0
 17
0.0
 27
1.0
 37
0.0
 76
     0
330
23
  0
LAYOUT
  5
22
102
{ACAD_REACTORS
330
1A
102
}
330
1A
100
AcDbPlotSettings
  1

  2
none_device
  4

  6

 40
0.0
 41
0.0
 42
0.0
 43
0.0
 44
0.0
 45
0.0
 46
0.0
 47
0.0
 48
0.0
 49
0.0
140
0.0
141
0.0
142
1.0
143
1.0
 70
  1712
 72
     0
 73
     0
 74
     0
  7

 75
     0
 76
     0
 77
     2
 78
   300
147
1.0
148
0.0
149
0.0
100
AcDbLayout
  1
Model
 70
     1
 71
     0
 10
0.0
 20
0.0
 11
12.0
 21
9.0
 12
0.0
 22
0.0
 32
0.0
 14
-224.6999990814924
 24
19.09570433615568
 34
0.0
 15
72.30000091850565
 25
229.0957043361558
 35
0.0
146
0.0
 13
0.0
 23
0.0
 33
0.0
 16
1.0
 26
0.0
 36
0.0
 17
0.0
 27
1.0
 37
0.0
 76
     0
330
1F
331
29
  0
MATERIAL
  5
3D
102
{ACAD_REACTORS
330
3B
102
}
102
{ACAD_XDICTIONARY
360
3B0
102
}
330
3B
100
AcDbMaterial
  1
ByBlock
  0
MATERIAL
  5
3C
102
{ACAD_REACTORS
330
3B
102
}
102
{ACAD_XDICTIONARY
360
3AE
102
}
330
3B
100
AcDbMaterial
  1
ByLayer
  0
MATERIAL
  5
3E
102
{ACAD_REACTORS
330
3B
102
}
102
{ACAD_XDICTIONARY
360
3B2
102
}
330
3B
100
AcDbMaterial
  1
Global
  0
MLINESTYLE
  5
18
102
{ACAD_REACTORS
330
17
102
}
330
17
100
AcDbMlineStyle
  2
Standard
 70
     0
  3

 62
   256
 51
90.0
 52
90.0
 71
     2
 49
0.5
 62
   256
  6
BYLAYER
 49
-0.5
 62
   256
  6
BYLAYER
  0
ACDBPLACEHOLDER
  5
F
102
{ACAD_REACTORS
330
E
102
}
330
E
  0
VISUALSTYLE
  5
2F
102
{ACAD_REACTORS
330
2A
102
}
102
{ACAD_XDICTIONARY
360
396
102
}
330
2A
100
AcDbVisualStyle
  2
2dWireframe
 70
     4
 71
     0
 72
     2
 73
     0
 90
        0
 40
-0.6
 41
-30.0
 62
     5
 63
     7
421
 16777215
 74
     1
 91
        4
 64
     7
 65
   257
 75
     1
175
     1
 42
1.0
 92
        0
 66
   257
 43
1.0
 76
     1
 77
     6
 78
     2
 67
     7
 79
     5
170
     0
171
     0
290
     0
174
     0
 93
        1
 44
0.0
173
     0
291
     0
 45
0.0
1001
ACAD
1000
AcDbSavedByObjectVersion
1070
     0
  0
VISUALSTYLE
  5
31
102
{ACAD_REACTORS
330
2A
102
}
102
{ACAD_XDICTIONARY
360
39A
102
}
330
2A
100
AcDbVisualStyle
  2
3D Hidden
 70
     6
 71
     1
 72
     2
 73
     2
 90
        0
 40
-0.6
 41
-30.0
 62
     5
 63
     7
421
 16777215
 74
     2
 91
        2
 64
     7
 65
   257
 75
     2
175
     1
 42
40.0
 92
        0
 66
   257
 43
1.0
 76
     1
 77
     6
 78
     2
 67
     7
 79
     3
170
     0
171
     0
290
     0
174
     0
 93
        1
 44
0.0
173
     0
291
     0
 45
0.0
1001
ACAD
1000
AcDbSavedByObjectVersion
1070
     0
  0
VISUALSTYLE
  5
30
102
{ACAD_REACTORS
330
2A
102
}
102
{ACAD_XDICTIONARY
360
398
102
}
330
2A
100
AcDbVisualStyle
  2
3dWireframe
 70
     5
 71
     0
 72
     2
 73
     0
 90
        0
 40
-0.6
 41
-30.0
 62
     5
 63
     7
421
 16777215
 74
     1
 91
        4
 64
     7
 65
   257
 75
     1
175
     1
 42
1.0
 92
        0
 66
   257
 43
1.0
 76
     1
 77
     6
 78
     2
 67
     7
 79
     5
170
     0
171
     0
290
     0
174
     0
 93
        1
 44
0.0
173
     0
291
     0
 45
0.0
1001
ACAD
1000
AcDbSavedByObjectVersion
1070
     0
  0
VISUALSTYLE
  5
32
102
{ACAD_REACTORS
330
2A
102
}
102
{ACAD_XDICTIONARY
360
39C
102
}
330
2A
100
AcDbVisualStyle
  2
Basic
 70
     7
 71
     1
 72
     0
 73
     1
 90
        0
 40
-0.6
 41
-30.0
 62
     5
 63
     7
421
 16777215
 74
     0
 91
        4
 64
     7
 65
   257
 75
     1
175
     1
 42
1.0
 92
        8
 66
     7
 43
1.0
 76
     1
 77
     6
 78
     2
 67
     7
 79
     5
170
     0
171
     0
290
     0
174
     0
 93
        1
 44
0.0
173
     0
291
     1
 45
0.0
1001
ACAD
1000
AcDbSavedByObjectVersion
1070
     0
  0
VISUALSTYLE
  5
36
102
{ACAD_REACTORS
330
2A
102
}
102
{ACAD_XDICTIONARY
360
3A4
102
}
330
2A
100
AcDbVisualStyle
  2
Brighten
 70
    12
 71
     2
 72
     2
 73
     0
 90
        0
 40
-0.6
 41
-30.0
 62
     5
 63
     7
421
 16777215
 74
     1
 91
        4
 64
     7
 65
   257
 75
     1
175
     1
 42
1.0
 92
        8
 66
     7
 43
1.0
 76
     1
 77
     6
 78
     2
 67
     7
 79
     5
170
     0
171
     0
290
     0
174
     0
 93
        1
 44
50.0
173
     0
291
     1
 45
0.0
1001
ACAD
1000
AcDbSavedByObjectVersion
1070
     0
  0
VISUALSTYLE
  5
3A
102
{ACAD_REACTORS
330
2A
102
}
102
{ACAD_XDICTIONARY
360
3AC
102
}
330
2A
100
AcDbVisualStyle
  2
ColorChange
 70
    16
 71
     2
 72
     2
 73
     3
 90
        0
 40
-0.6
 41
-30.0
 62
     5
 63
     8
421
  8421504
 74
     1
 91
        4
 64
     7
 65
   257
 75
     1
175
     1
 42
1.0
 92
        8
 66
     8
424
  8421504
 43
1.0
 76
     1
 77
     6
 78
     2
 67
     7
 79
     5
170
     0
171
     0
290
     0
174
     0
 93
        1
 44
0.0
173
     0
291
     1
 45
0.0
1001
ACAD
1000
AcDbSavedByObjectVersion
1070
     0
  0
VISUALSTYLE
  5
34
102
{ACAD_REACTORS
330
2A
102
}
102
{ACAD_XDICTIONARY
360
3A0
102
}
330
2A
100
AcDbVisualStyle
  2
Conceptual
 70
     9
 71
     3
 72
     2
 73
     0
 90
        0
 40
-0.6
 41
-30.0
 62
     5
 63
     7
421
 16777215
 74
     2
 91
        2
 64
     7
 65
   257
 75
     1
175
     1
 42
40.0
 92
        8
 66
     7
 43
1.0
 76
     1
 77
     6
 78
     2
 67
     7
 79
     3
170
     0
171
     0
290
     0
174
     0
 93
        1
 44
0.0
173
     0
291
     0
 45
0.0
1001
ACAD
1000
AcDbSavedByObjectVersion
1070
     0
  0
VISUALSTYLE
  5
35
102
{ACAD_REACTORS
330
2A
102
}
102
{ACAD_XDICTIONARY
360
3A2
102
}
330
2A
100
AcDbVisualStyle
  2
Dim
 70
    11
 71
     2
 72
     2
 73
     0
 90
        0
 40
-0.6
 41
-30.0
 62
     5
 63
     7
421
 16777215
 74
     1
 91
        4
 64
     7
 65
   257
 75
     1
175
     1
 42
1.0
 92
        8
 66
     7
 43
1.0
 76
     1
 77
     6
 78
     2
 67
     7
 79
     5
170
     0
171
     0
290
     0
174
     0
 93
        1
 44
-50.0
173
     0
291
     1
 45
0.0
1001
ACAD
1000
AcDbSavedByObjectVersion
1070
     0
  0
VISUALSTYLE
  5
39
102
{ACAD_REACTORS
330
2A
102
}
102
{ACAD_XDICTIONARY
360
3AA
102
}
330
2A
100
AcDbVisualStyle
  2
Facepattern
 70
    15
 71
     2
 72
     2
 73
     0
 90
        0
 40
-0.6
 41
-30.0
 62
     5
 63
     7
421
 16777215
 74
     1
 91
        4
 64
     7
 65
   257
 75
     1
175
     1
 42
1.0
 92
        8
 66
     7
 43
1.0
 76
     1
 77
     6
 78
     2
 67
     7
 79
     5
170
     0
171
     0
290
     0
174
     0
 93
        1
 44
0.0
173
     0
291
     1
 45
0.0
1001
ACAD
1000
AcDbSavedByObjectVersion
1070
     0
  0
VISUALSTYLE
  5
2B
102
{ACAD_REACTORS
330
2A
102
}
102
{ACAD_XDICTIONARY
360
38E
102
}
330
2A
100
AcDbVisualStyle
  2
Flat
 70
     0
 71
     2
 72
     1
 73
     1
 90
        2
 40
-0.6
 41
30.0
 62
     5
 63
     7
421
 16777215
 74
     0
 91
        4
 64
     7
 65
   257
 75
     1
175
     1
 42
1.0
 92
        8
 66
     7
 43
1.0
 76
     1
 77
     6
 78
     2
 67
     7
 79
     5
170
     0
171
     0
290
     0
174
     0
 93
       13
 44
0.0
173
     0
291
     1
 45
0.0
1001
ACAD
1000
AcDbSavedByObjectVersion
1070
     0
  0
VISUALSTYLE
  5
2C
102
{ACAD_REACTORS
330
2A
102
}
102
{ACAD_XDICTIONARY
360
390
102
}
330
2A
100
AcDbVisualStyle
  2
FlatWithEdges
 70
     1
 71
     2
 72
     1
 73
     1
 90
        2
 40
-0.6
 41
30.0
 62
     5
 63
     7
421
 16777215
 74
     1
 91
        4
 64
     7
 65
   257
 75
     1
175
     1
 42
1.0
 92
        0
 66
   257
 43
1.0
 76
     1
 77
     6
 78
     2
 67
     7
 79
     5
170
     0
171
     0
290
     0
174
     0
 93
       13
 44
0.0
173
     0
291
     1
 45
0.0
1001
ACAD
1000
AcDbSavedByObjectVersion
1070
     0
  0
VISUALSTYLE
  5
2D
102
{ACAD_REACTORS
330
2A
102
}
102
{ACAD_XDICTIONARY
360
392
102
}
330
2A
100
AcDbVisualStyle
  2
Gouraud
 70
     2
 71
     2
 72
     2
 73
     1
 90
        2
 40
-0.6
 41
30.0
 62
     5
 63
     7
421
 16777215
 74
     0
 91
        4
 64
     7
 65
   257
 75
     1
175
     1
 42
1.0
 92
        0
 66
     7
 43
1.0
 76
     1
 77
     6
 78
     2
 67
     7
 79
     5
170
     0
171
     0
290
     0
174
     0
 93
       13
 44
0.0
173
     0
291
     1
 45
0.0
1001
ACAD
1000
AcDbSavedByObjectVersion
1070
     0
  0
VISUALSTYLE
  5
2E
102
{ACAD_REACTORS
330
2A
102
}
102
{ACAD_XDICTIONARY
360
394
102
}
330
2A
100
AcDbVisualStyle
  2
GouraudWithEdges
 70
     3
 71
     2
 72
     2
 73
     1
 90
        2
 40
-0.6
 41
30.0
 62
     5
 63
     7
421
 16777215
 74
     1
 91
        4
 64
     7
 65
   257
 75
     1
175
     1
 42
1.0
 92
        0
 66
   257
 43
1.0
 76
     1
 77
     6
 78
     2
 67
     7
 79
     5
170
     0
171
     0
290
     0
174
     0
 93
       13
 44
0.0
173
     0
291
     1
 45
0.0
1001
ACAD
1000
AcDbSavedByObjectVersion
1070
     0
  0
VISUALSTYLE
  5
38
102
{ACAD_REACTORS
330
2A
102
}
102
{ACAD_XDICTIONARY
360
3A8
102
}
330
2A
100
AcDbVisualStyle
  2
Linepattern
 70
    14
 71
     2
 72
     2
 73
     0
 90
        0
 40
-0.6
 41
-30.0
 62
     5
 63
     7
421
 16777215
 74
     1
 91
        4
 64
     7
 65
   257
 75
     7
175
     7
 42
1.0
 92
        8
 66
     7
 43
1.0
 76
     1
 77
     6
 78
     2
 67
     7
 79
     5
170
     0
171
     0
290
     0
174
     0
 93
        1
 44
0.0
173
     0
291
     1
 45
0.0
1001
ACAD
1000
AcDbSavedByObjectVersion
1070
     0
  0
VISUALSTYLE
  5
33
102
{ACAD_REACTORS
330
2A
102
}
102
{ACAD_XDICTIONARY
360
39E
102
}
330
2A
100
AcDbVisualStyle
  2
Realistic
 70
     8
 71
     2
 72
     2
 73
     0
 90
        0
 40
-0.6
 41
-30.0
 62
     5
 63
     7
421
 16777215
 74
     1
 91
        0
 64
     7
 65
   257
 75
     1
175
     1
 42
1.0
 92
        8
 66
     8
424
  7895160
 43
1.0
 76
     1
 77
     6
 78
     2
 67
     7
 79
     5
170
     0
171
     0
290
     0
174
     0
 93
       13
 44
0.0
173
     0
291
     0
 45
0.0
1001
ACAD
1000
AcDbSavedByObjectVersion
1070
     0
  0
VISUALSTYLE
  5
37
102
{ACAD_REACTORS
330
2A
102
}
102
{ACAD_XDICTIONARY
360
3A6
102
}
330
2A
100
AcDbVisualStyle
  2
Thicken
 70
    13
 71
     2
 72
     2
 73
     0
 90
        0
 40
-0.6
 41
-30.0
 62
     5
 63
     7
421
 16777215
 74
     1
 91
        4
 64
     7
 65
   257
 75
     1
175
     1
 42
1.0
 92
       12
 66
     7
 43
1.0
 76
     1
 77
     6
 78
     2
 67
     7
 79
     5
170
     0
171
     0
290
     0
174
     0
 93
        1
 44
0.0
173
     0
291
     1
 45
0.0
1001
ACAD
1000
AcDbSavedByObjectVersion
1070
     0
  0
DICTIONARY
  5
3B0
330
3D
100
AcDbDictionary
280
     1
281
     1
  3
ACAD_XREC_ROUNDTRIP
360
3B1
  0
DICTIONARY
  5
3AE
330
3C
100
AcDbDictionary
280
     1
281
     1
  3
ACAD_XREC_ROUNDTRIP
360
3AF
  0
DICTIONARY
  5
3B2
330
3E
100
AcDbDictionary
280
     1
281
     1
  3
ACAD_XREC_ROUNDTRIP
360
3B3
  0
DICTIONARY
  5
396
330
2F
100
AcDbDictionary
280
     1
281
     1
  3
ACAD_XREC_ROUNDTRIP
360
397
  0
DICTIONARY
  5
39A
330
31
100
AcDbDictionary
280
     1
281
     1
  3
ACAD_XREC_ROUNDTRIP
360
39B
  0
DICTIONARY
  5
398
330
30
100
AcDbDictionary
280
     1
281
     1
  3
ACAD_XREC_ROUNDTRIP
360
399
  0
DICTIONARY
  5
39C
330
32
100
AcDbDictionary
280
     1
281
     1
  3
ACAD_XREC_ROUNDTRIP
360
39D
  0
DICTIONARY
  5
3A4
330
36
100
AcDbDictionary
280
     1
281
     1
  3
ACAD_XREC_ROUNDTRIP
360
3A5
  0
DICTIONARY
  5
3AC
330
3A
100
AcDbDictionary
280
     1
281
     1
  3
ACAD_XREC_ROUNDTRIP
360
3AD
  0
DICTIONARY
  5
3A0
330
34
100
AcDbDictionary
280
     1
281
     1
  3
ACAD_XREC_ROUNDTRIP
360
3A1
  0
DICTIONARY
  5
3A2
330
35
100
AcDbDictionary
280
     1
281
     1
  3
ACAD_XREC_ROUNDTRIP
360
3A3
  0
DICTIONARY
  5
3AA
330
39
100
AcDbDictionary
280
     1
281
     1
  3
ACAD_XREC_ROUNDTRIP
360
3AB
  0
DICTIONARY
  5
38E
330
2B
100
AcDbDictionary
280
     1
281
     1
  3
ACAD_XREC_ROUNDTRIP
360
38F
  0
DICTIONARY
  5
390
330
2C
100
AcDbDictionary
280
     1
281
     1
  3
ACAD_XREC_ROUNDTRIP
360
391
  0
DICTIONARY
  5
392
330
2D
100
AcDbDictionary
280
     1
281
     1
  3
ACAD_XREC_ROUNDTRIP
360
393
  0
DICTIONARY
  5
394
330
2E
100
AcDbDictionary
280
     1
281
     1
  3
ACAD_XREC_ROUNDTRIP
360
395
  0
DICTIONARY
  5
3A8
330
38
100
AcDbDictionary
280
     1
281
     1
  3
ACAD_XREC_ROUNDTRIP
360
3A9
  0
DICTIONARY
  5
39E
330
33
100
AcDbDictionary
280
     1
281
     1
  3
ACAD_XREC_ROUNDTRIP
360
39F
  0
DICTIONARY
  5
3A6
330
37
100
AcDbDictionary
280
     1
281
     1
  3
ACAD_XREC_ROUNDTRIP
360
3A7
  0
XRECORD
  5
3B1
102
{ACAD_REACTORS
330
3B0
102
}
330
3B0
100
AcDbXrecord
280
     1
102
MATERIAL
148
0.0
149
0.0
149
0.0
 93
        0
 94
      127
282
     0
 72
     1
 77
     1
171
     1
175
     1
179
     1
273
     0
  0
XRECORD
  5
3AF
102
{ACAD_REACTORS
330
3AE
102
}
330
3AE
100
AcDbXrecord
280
     1
102
MATERIAL
148
0.0
149
0.0
149
0.0
 93
        0
 94
      127
282
     0
 72
     1
 77
     1
171
     1
175
     1
179
     1
273
     0
  0
XRECORD
  5
3B3
102
{ACAD_REACTORS
330
3B2
102
}
330
3B2
100
AcDbXrecord
280
     1
102
MATERIAL
148
0.0
149
0.0
149
0.0
 93
        0
 94
      127
282
     0
 72
     1
 77
     1
171
     1
175
     1
179
     1
273
     0
  0
XRECORD
  5
397
102
{ACAD_REACTORS
330
396
102
}
330
396
100
AcDbXrecord
280
     1
102
RTVSPropertyOp0
 70
     1
102
RTVSPropertyOp1
 70
     1
102
RTVSPropertyOp2
 70
     1
102
RTVSPropertyOp3
 70
     1
102
RTVSPropertyOp4
 70
     1
102
RTVSPropertyOp5
 70
     1
102
RTVSPropertyOp6
 70
     1
102
RTVSPropertyOp7
 70
     1
102
RTVSPropertyOp8
 70
     1
102
RTVSPropertyOp9
 70
     1
102
RTVSPropertyOp10
 70
     1
102
RTVSPropertyOp11
 70
     1
102
RTVSPropertyOp12
 70
     1
102
RTVSPropertyOp13
 70
     1
102
RTVSPropertyOp14
 70
     1
102
RTVSPropertyOp15
 70
     1
102
RTVSPropertyOp16
 70
     1
102
RTVSPropertyOp17
 70
     1
102
RTVSPropertyOp18
 70
     1
102
RTVSPropertyOp19
 70
     1
102
RTVSPropertyOp20
 70
     1
102
RTVSPropertyOp21
 70
     1
102
RTVSPropertyOp22
 70
     1
102
RTVSPropertyOp23
 70
     1
102
RTVSPropertyOp24
 70
     1
102
RTVSPropertyOp25
 70
     1
102
RTVSPropertyOp26
 70
     1
102
RTVSPropertyOp27
 70
     1
102
RTVSPropertyOp28
 70
     1
102
RTVSPropertyOp29
 70
     1
102
RTVSPropertyOp30
 70
     1
102
RTVSPropertyOp31
 70
     1
102
RTVSPropertyOp32
 70
     1
  0
XRECORD
  5
39B
102
{ACAD_REACTORS
330
39A
102
}
330
39A
100
AcDbXrecord
280
     1
102
RTVSPropertyOp0
 70
     1
102
RTVSPropertyOp1
 70
     1
102
RTVSPropertyOp2
 70
     1
102
RTVSPropertyOp3
 70
     1
102
RTVSPropertyOp4
 70
     1
102
RTVSPropertyOp5
 70
     1
102
RTVSPropertyOp6
 70
     1
102
RTVSPropertyOp7
 70
     1
102
RTVSPropertyOp8
 70
     1
102
RTVSPropertyOp9
 70
     1
102
RTVSPropertyOp10
 70
     1
102
RTVSPropertyOp11
 70
     1
102
RTVSPropertyOp12
 70
     1
102
RTVSPropertyOp13
 70
     1
102
RTVSPropertyOp14
 70
     1
102
RTVSPropertyOp15
 70
     1
102
RTVSPropertyOp16
 70
     1
102
RTVSPropertyOp17
 70
     1
102
RTVSPropertyOp18
 70
     1
102
RTVSPropertyOp19
 70
     1
102
RTVSPropertyOp20
 70
     1
102
RTVSPropertyOp21
 70
     1
102
RTVSPropertyOp22
 70
     1
102
RTVSPropertyOp23
 70
     1
102
RTVSPropertyOp24
 70
     1
102
RTVSPropertyOp25
 70
     1
102
RTVSPropertyOp26
 70
     1
102
RTVSPropertyOp27
 70
     1
102
RTVSPropertyOp28
 70
     1
102
RTVSPropertyOp29
 70
     1
102
RTVSPropertyOp30
 70
     1
102
RTVSPropertyOp31
 70
     1
102
RTVSPropertyOp32
 70
     1
  0
XRECORD
  5
399
102
{ACAD_REACTORS
330
398
102
}
330
398
100
AcDbXrecord
280
     1
102
RTVSPropertyOp0
 70
     1
102
RTVSPropertyOp1
 70
     1
102
RTVSPropertyOp2
 70
     1
102
RTVSPropertyOp3
 70
     1
102
RTVSPropertyOp4
 70
     1
102
RTVSPropertyOp5
 70
     1
102
RTVSPropertyOp6
 70
     1
102
RTVSPropertyOp7
 70
     1
102
RTVSPropertyOp8
 70
     1
102
RTVSPropertyOp9
 70
     1
102
RTVSPropertyOp10
 70
     1
102
RTVSPropertyOp11
 70
     1
102
RTVSPropertyOp12
 70
     1
102
RTVSPropertyOp13
 70
     1
102
RTVSPropertyOp14
 70
     1
102
RTVSPropertyOp15
 70
     1
102
RTVSPropertyOp16
 70
     1
102
RTVSPropertyOp17
 70
     1
102
RTVSPropertyOp18
 70
     1
102
RTVSPropertyOp19
 70
     1
102
RTVSPropertyOp20
 70
     1
102
RTVSPropertyOp21
 70
     1
102
RTVSPropertyOp22
 70
     1
102
RTVSPropertyOp23
 70
     1
102
RTVSPropertyOp24
 70
     1
102
RTVSPropertyOp25
 70
     1
102
RTVSPropertyOp26
 70
     1
102
RTVSPropertyOp27
 70
     1
102
RTVSPropertyOp28
 70
     1
102
RTVSPropertyOp29
 70
     1
102
RTVSPropertyOp30
 70
     1
102
RTVSPropertyOp31
 70
     1
102
RTVSPropertyOp32
 70
     1
  0
XRECORD
  5
39D
102
{ACAD_REACTORS
330
39C
102
}
330
39C
100
AcDbXrecord
280
     1
102
RTVSPropertyOp0
 70
     1
102
RTVSPropertyOp1
 70
     1
102
RTVSPropertyOp2
 70
     1
102
RTVSPropertyOp3
 70
     1
102
RTVSPropertyOp4
 70
     1
102
RTVSPropertyOp5
 70
     1
102
RTVSPropertyOp6
 70
     1
102
RTVSPropertyOp7
 70
     1
102
RTVSPropertyOp8
 70
     1
102
RTVSPropertyOp9
 70
     1
102
RTVSPropertyOp10
 70
     1
102
RTVSPropertyOp11
 70
     1
102
RTVSPropertyOp12
 70
     1
102
RTVSPropertyOp13
 70
     1
102
RTVSPropertyOp14
 70
     1
102
RTVSPropertyOp15
 70
     1
102
RTVSPropertyOp16
 70
     1
102
RTVSPropertyOp17
 70
     1
102
RTVSPropertyOp18
 70
     1
102
RTVSPropertyOp19
 70
     1
102
RTVSPropertyOp20
 70
     1
102
RTVSPropertyOp21
 70
     1
102
RTVSPropertyOp22
 70
     1
102
RTVSPropertyOp23
 70
     1
102
RTVSPropertyOp24
 70
     1
102
RTVSPropertyOp25
 70
     1
102
RTVSPropertyOp26
 70
     1
102
RTVSPropertyOp27
 70
     1
102
RTVSPropertyOp28
 70
     1
102
RTVSPropertyOp29
 70
     1
102
RTVSPropertyOp30
 70
     1
102
RTVSPropertyOp31
 70
     1
102
RTVSPropertyOp32
 70
     1
  0
XRECORD
  5
3A5
102
{ACAD_REACTORS
330
3A4
102
}
330
3A4
100
AcDbXrecord
280
     1
102
RTVSPropertyOp0
 70
     1
102
RTVSPropertyOp1
 70
     1
102
RTVSPropertyOp2
 70
     1
102
RTVSPropertyOp3
 70
     1
102
RTVSPropertyOp4
 70
     1
102
RTVSPropertyOp5
 70
     1
102
RTVSPropertyOp6
 70
     1
102
RTVSPropertyOp7
 70
     1
102
RTVSPropertyOp8
 70
     1
102
RTVSPropertyOp9
 70
     1
102
RTVSPropertyOp10
 70
     1
102
RTVSPropertyOp11
 70
     1
102
RTVSPropertyOp12
 70
     1
102
RTVSPropertyOp13
 70
     1
102
RTVSPropertyOp14
 70
     1
102
RTVSPropertyOp15
 70
     1
102
RTVSPropertyOp16
 70
     1
102
RTVSPropertyOp17
 70
     1
102
RTVSPropertyOp18
 70
     1
102
RTVSPropertyOp19
 70
     1
102
RTVSPropertyOp20
 70
     1
102
RTVSPropertyOp21
 70
     1
102
RTVSPropertyOp22
 70
     1
102
RTVSPropertyOp23
 70
     1
102
RTVSPropertyOp24
 70
     1
102
RTVSPropertyOp25
 70
     1
102
RTVSPropertyOp26
 70
     1
102
RTVSPropertyOp27
 70
     1
102
RTVSPropertyOp28
 70
     1
102
RTVSPropertyOp29
 70
     1
102
RTVSPropertyOp30
 70
     1
102
RTVSPropertyOp31
 70
     1
102
RTVSPropertyOp32
 70
     1
  0
XRECORD
  5
3AD
102
{ACAD_REACTORS
330
3AC
102
}
330
3AC
100
AcDbXrecord
280
     1
102
RTVSPropertyOp0
 70
     1
102
RTVSPropertyOp1
 70
     1
102
RTVSPropertyOp2
 70
     1
102
RTVSPropertyOp3
 70
     1
102
RTVSPropertyOp4
 70
     1
102
RTVSPropertyOp5
 70
     1
102
RTVSPropertyOp6
 70
     1
102
RTVSPropertyOp7
 70
     1
102
RTVSPropertyOp8
 70
     1
102
RTVSPropertyOp9
 70
     1
102
RTVSPropertyOp10
 70
     1
102
RTVSPropertyOp11
 70
     1
102
RTVSPropertyOp12
 70
     1
102
RTVSPropertyOp13
 70
     1
102
RTVSPropertyOp14
 70
     1
102
RTVSPropertyOp15
 70
     1
102
RTVSPropertyOp16
 70
     1
102
RTVSPropertyOp17
 70
     1
102
RTVSPropertyOp18
 70
     1
102
RTVSPropertyOp19
 70
     1
102
RTVSPropertyOp20
 70
     1
102
RTVSPropertyOp21
 70
     1
102
RTVSPropertyOp22
 70
     1
102
RTVSPropertyOp23
 70
     1
102
RTVSPropertyOp24
 70
     1
102
RTVSPropertyOp25
 70
     1
102
RTVSPropertyOp26
 70
     1
102
RTVSPropertyOp27
 70
     1
102
RTVSPropertyOp28
 70
     1
102
RTVSPropertyOp29
 70
     1
102
RTVSPropertyOp30
 70
     1
102
RTVSPropertyOp31
 70
     1
102
RTVSPropertyOp32
 70
     1
  0
XRECORD
  5
3A1
102
{ACAD_REACTORS
330
3A0
102
}
330
3A0
100
AcDbXrecord
280
     1
102
RTVSPropertyOp0
 70
     1
102
RTVSPropertyOp1
 70
     1
102
RTVSPropertyOp2
 70
     1
102
RTVSPropertyOp3
 70
     1
102
RTVSPropertyOp4
 70
     1
102
RTVSPropertyOp5
 70
     1
102
RTVSPropertyOp6
 70
     1
102
RTVSPropertyOp7
 70
     1
102
RTVSPropertyOp8
 70
     1
102
RTVSPropertyOp9
 70
     1
102
RTVSPropertyOp10
 70
     1
102
RTVSPropertyOp11
 70
     1
102
RTVSPropertyOp12
 70
     1
102
RTVSPropertyOp13
 70
     1
102
RTVSPropertyOp14
 70
     1
102
RTVSPropertyOp15
 70
     1
102
RTVSPropertyOp16
 70
     1
102
RTVSPropertyOp17
 70
     1
102
RTVSPropertyOp18
 70
     1
102
RTVSPropertyOp19
 70
     1
102
RTVSPropertyOp20
 70
     1
102
RTVSPropertyOp21
 70
     1
102
RTVSPropertyOp22
 70
     1
102
RTVSPropertyOp23
 70
     1
102
RTVSPropertyOp24
 70
     1
102
RTVSPropertyOp25
 70
     1
102
RTVSPropertyOp26
 70
     1
102
RTVSPropertyOp27
 70
     1
102
RTVSPropertyOp28
 70
     1
102
RTVSPropertyOp29
 70
     1
102
RTVSPropertyOp30
 70
     1
102
RTVSPropertyOp31
 70
     1
102
RTVSPropertyOp32
 70
     1
  0
XRECORD
  5
3A3
102
{ACAD_REACTORS
330
3A2
102
}
330
3A2
100
AcDbXrecord
280
     1
102
RTVSPropertyOp0
 70
     1
102
RTVSPropertyOp1
 70
     1
102
RTVSPropertyOp2
 70
     1
102
RTVSPropertyOp3
 70
     1
102
RTVSPropertyOp4
 70
     1
102
RTVSPropertyOp5
 70
     1
102
RTVSPropertyOp6
 70
     1
102
RTVSPropertyOp7
 70
     1
102
RTVSPropertyOp8
 70
     1
102
RTVSPropertyOp9
 70
     1
102
RTVSPropertyOp10
 70
     1
102
RTVSPropertyOp11
 70
     1
102
RTVSPropertyOp12
 70
     1
102
RTVSPropertyOp13
 70
     1
102
RTVSPropertyOp14
 70
     1
102
RTVSPropertyOp15
 70
     1
102
RTVSPropertyOp16
 70
     1
102
RTVSPropertyOp17
 70
     1
102
RTVSPropertyOp18
 70
     1
102
RTVSPropertyOp19
 70
     1
102
RTVSPropertyOp20
 70
     1
102
RTVSPropertyOp21
 70
     1
102
RTVSPropertyOp22
 70
     1
102
RTVSPropertyOp23
 70
     1
102
RTVSPropertyOp24
 70
     1
102
RTVSPropertyOp25
 70
     1
102
RTVSPropertyOp26
 70
     1
102
RTVSPropertyOp27
 70
     1
102
RTVSPropertyOp28
 70
     1
102
RTVSPropertyOp29
 70
     1
102
RTVSPropertyOp30
 70
     1
102
RTVSPropertyOp31
 70
     1
102
RTVSPropertyOp32
 70
     1
  0
XRECORD
  5
3AB
102
{ACAD_REACTORS
330
3AA
102
}
330
3AA
100
AcDbXrecord
280
     1
102
RTVSPropertyOp0
 70
     1
102
RTVSPropertyOp1
 70
     1
102
RTVSPropertyOp2
 70
     1
102
RTVSPropertyOp3
 70
     1
102
RTVSPropertyOp4
 70
     1
102
RTVSPropertyOp5
 70
     1
102
RTVSPropertyOp6
 70
     1
102
RTVSPropertyOp7
 70
     1
102
RTVSPropertyOp8
 70
     1
102
RTVSPropertyOp9
 70
     1
102
RTVSPropertyOp10
 70
     1
102
RTVSPropertyOp11
 70
     1
102
RTVSPropertyOp12
 70
     1
102
RTVSPropertyOp13
 70
     1
102
RTVSPropertyOp14
 70
     1
102
RTVSPropertyOp15
 70
     1
102
RTVSPropertyOp16
 70
     1
102
RTVSPropertyOp17
 70
     1
102
RTVSPropertyOp18
 70
     1
102
RTVSPropertyOp19
 70
     1
102
RTVSPropertyOp20
 70
     1
102
RTVSPropertyOp21
 70
     1
102
RTVSPropertyOp22
 70
     1
102
RTVSPropertyOp23
 70
     1
102
RTVSPropertyOp24
 70
     1
102
RTVSPropertyOp25
 70
     1
102
RTVSPropertyOp26
 70
     1
102
RTVSPropertyOp27
 70
     1
102
RTVSPropertyOp28
 70
     1
102
RTVSPropertyOp29
 70
     1
102
RTVSPropertyOp30
 70
     1
102
RTVSPropertyOp31
 70
     1
102
RTVSPropertyOp32
 70
     1
  0
XRECORD
  5
38F
102
{ACAD_REACTORS
330
38E
102
}
330
38E
100
AcDbXrecord
280
     1
102
RTVSPropertyOp0
 70
     1
102
RTVSPropertyOp1
 70
     1
102
RTVSPropertyOp2
 70
     1
102
RTVSPropertyOp3
 70
     1
102
RTVSPropertyOp4
 70
     1
102
RTVSPropertyOp5
 70
     1
102
RTVSPropertyOp6
 70
     1
102
RTVSPropertyOp7
 70
     1
102
RTVSPropertyOp8
 70
     1
102
RTVSPropertyOp9
 70
     1
102
RTVSPropertyOp10
 70
     1
102
RTVSPropertyOp11
 70
     1
102
RTVSPropertyOp12
 70
     1
102
RTVSPropertyOp13
 70
     1
102
RTVSPropertyOp14
 70
     1
102
RTVSPropertyOp15
 70
     1
102
RTVSPropertyOp16
 70
     1
102
RTVSPropertyOp17
 70
     1
102
RTVSPropertyOp18
 70
     1
102
RTVSPropertyOp19
 70
     1
102
RTVSPropertyOp20
 70
     1
102
RTVSPropertyOp21
 70
     1
102
RTVSPropertyOp22
 70
     1
102
RTVSPropertyOp23
 70
     1
102
RTVSPropertyOp24
 70
     1
102
RTVSPropertyOp25
 70
     1
102
RTVSPropertyOp26
 70
     1
102
RTVSPropertyOp27
 70
     1
102
RTVSPropertyOp28
 70
     1
102
RTVSPropertyOp29
 70
     1
102
RTVSPropertyOp30
 70
     1
102
RTVSPropertyOp31
 70
     1
102
RTVSPropertyOp32
 70
     1
  0
XRECORD
  5
391
102
{ACAD_REACTORS
330
390
102
}
330
390
100
AcDbXrecord
280
     1
102
RTVSPropertyOp0
 70
     1
102
RTVSPropertyOp1
 70
     1
102
RTVSPropertyOp2
 70
     1
102
RTVSPropertyOp3
 70
     1
102
RTVSPropertyOp4
 70
     1
102
RTVSPropertyOp5
 70
     1
102
RTVSPropertyOp6
 70
     1
102
RTVSPropertyOp7
 70
     1
102
RTVSPropertyOp8
 70
     1
102
RTVSPropertyOp9
 70
     1
102
RTVSPropertyOp10
 70
     1
102
RTVSPropertyOp11
 70
     1
102
RTVSPropertyOp12
 70
     1
102
RTVSPropertyOp13
 70
     1
102
RTVSPropertyOp14
 70
     1
102
RTVSPropertyOp15
 70
     1
102
RTVSPropertyOp16
 70
     1
102
RTVSPropertyOp17
 70
     1
102
RTVSPropertyOp18
 70
     1
102
RTVSPropertyOp19
 70
     1
102
RTVSPropertyOp20
 70
     1
102
RTVSPropertyOp21
 70
     1
102
RTVSPropertyOp22
 70
     1
102
RTVSPropertyOp23
 70
     1
102
RTVSPropertyOp24
 70
     1
102
RTVSPropertyOp25
 70
     1
102
RTVSPropertyOp26
 70
     1
102
RTVSPropertyOp27
 70
     1
102
RTVSPropertyOp28
 70
     1
102
RTVSPropertyOp29
 70
     1
102
RTVSPropertyOp30
 70
     1
102
RTVSPropertyOp31
 70
     1
102
RTVSPropertyOp32
 70
     1
  0
XRECORD
  5
393
102
{ACAD_REACTORS
330
392
102
}
330
392
100
AcDbXrecord
280
     1
102
RTVSPropertyOp0
 70
     1
102
RTVSPropertyOp1
 70
     1
102
RTVSPropertyOp2
 70
     1
102
RTVSPropertyOp3
 70
     1
102
RTVSPropertyOp4
 70
     1
102
RTVSPropertyOp5
 70
     1
102
RTVSPropertyOp6
 70
     1
102
RTVSPropertyOp7
 70
     1
102
RTVSPropertyOp8
 70
     1
102
RTVSPropertyOp9
 70
     1
102
RTVSPropertyOp10
 70
     1
102
RTVSPropertyOp11
 70
     1
102
RTVSPropertyOp12
 70
     1
102
RTVSPropertyOp13
 70
     1
102
RTVSPropertyOp14
 70
     1
102
RTVSPropertyOp15
 70
     1
102
RTVSPropertyOp16
 70
     1
102
RTVSPropertyOp17
 70
     1
102
RTVSPropertyOp18
 70
     1
102
RTVSPropertyOp19
 70
     1
102
RTVSPropertyOp20
 70
     1
102
RTVSPropertyOp21
 70
     1
102
RTVSPropertyOp22
 70
     1
102
RTVSPropertyOp23
 70
     1
102
RTVSPropertyOp24
 70
     1
102
RTVSPropertyOp25
 70
     1
102
RTVSPropertyOp26
 70
     1
102
RTVSPropertyOp27
 70
     1
102
RTVSPropertyOp28
 70
     1
102
RTVSPropertyOp29
 70
     1
102
RTVSPropertyOp30
 70
     1
102
RTVSPropertyOp31
 70
     1
102
RTVSPropertyOp32
 70
     1
  0
XRECORD
  5
395
102
{ACAD_REACTORS
330
394
102
}
330
394
100
AcDbXrecord
280
     1
102
RTVSPropertyOp0
 70
     1
102
RTVSPropertyOp1
 70
     1
102
RTVSPropertyOp2
 70
     1
102
RTVSPropertyOp3
 70
     1
102
RTVSPropertyOp4
 70
     1
102
RTVSPropertyOp5
 70
     1
102
RTVSPropertyOp6
 70
     1
102
RTVSPropertyOp7
 70
     1
102
RTVSPropertyOp8
 70
     1
102
RTVSPropertyOp9
 70
     1
102
RTVSPropertyOp10
 70
     1
102
RTVSPropertyOp11
 70
     1
102
RTVSPropertyOp12
 70
     1
102
RTVSPropertyOp13
 70
     1
102
RTVSPropertyOp14
 70
     1
102
RTVSPropertyOp15
 70
     1
102
RTVSPropertyOp16
 70
     1
102
RTVSPropertyOp17
 70
     1
102
RTVSPropertyOp18
 70
     1
102
RTVSPropertyOp19
 70
     1
102
RTVSPropertyOp20
 70
     1
102
RTVSPropertyOp21
 70
     1
102
RTVSPropertyOp22
 70
     1
102
RTVSPropertyOp23
 70
     1
102
RTVSPropertyOp24
 70
     1
102
RTVSPropertyOp25
 70
     1
102
RTVSPropertyOp26
 70
     1
102
RTVSPropertyOp27
 70
     1
102
RTVSPropertyOp28
 70
     1
102
RTVSPropertyOp29
 70
     1
102
RTVSPropertyOp30
 70
     1
102
RTVSPropertyOp31
 70
     1
102
RTVSPropertyOp32
 70
     1
  0
XRECORD
  5
3A9
102
{ACAD_REACTORS
330
3A8
102
}
330
3A8
100
AcDbXrecord
280
     1
102
RTVSPropertyOp0
 70
     1
102
RTVSPropertyOp1
 70
     1
102
RTVSPropertyOp2
 70
     1
102
RTVSPropertyOp3
 70
     1
102
RTVSPropertyOp4
 70
     1
102
RTVSPropertyOp5
 70
     1
102
RTVSPropertyOp6
 70
     1
102
RTVSPropertyOp7
 70
     1
102
RTVSPropertyOp8
 70
     1
102
RTVSPropertyOp9
 70
     1
102
RTVSPropertyOp10
 70
     1
102
RTVSPropertyOp11
 70
     1
102
RTVSPropertyOp12
 70
     1
102
RTVSPropertyOp13
 70
     1
102
RTVSPropertyOp14
 70
     1
102
RTVSPropertyOp15
 70
     1
102
RTVSPropertyOp16
 70
     1
102
RTVSPropertyOp17
 70
     1
102
RTVSPropertyOp18
 70
     1
102
RTVSPropertyOp19
 70
     1
102
RTVSPropertyOp20
 70
     1
102
RTVSPropertyOp21
 70
     1
102
RTVSPropertyOp22
 70
     1
102
RTVSPropertyOp23
 70
     1
102
RTVSPropertyOp24
 70
     1
102
RTVSPropertyOp25
 70
     1
102
RTVSPropertyOp26
 70
     1
102
RTVSPropertyOp27
 70
     1
102
RTVSPropertyOp28
 70
     1
102
RTVSPropertyOp29
 70
     1
102
RTVSPropertyOp30
 70
     1
102
RTVSPropertyOp31
 70
     1
102
RTVSPropertyOp32
 70
     1
  0
XRECORD
  5
39F
102
{ACAD_REACTORS
330
39E
102
}
330
39E
100
AcDbXrecord
280
     1
102
RTVSPropertyOp0
 70
     1
102
RTVSPropertyOp1
 70
     1
102
RTVSPropertyOp2
 70
     1
102
RTVSPropertyOp3
 70
     1
102
RTVSPropertyOp4
 70
     1
102
RTVSPropertyOp5
 70
     1
102
RTVSPropertyOp6
 70
     1
102
RTVSPropertyOp7
 70
     1
102
RTVSPropertyOp8
 70
     1
102
RTVSPropertyOp9
 70
     1
102
RTVSPropertyOp10
 70
     1
102
RTVSPropertyOp11
 70
     1
102
RTVSPropertyOp12
 70
     1
102
RTVSPropertyOp13
 70
     1
102
RTVSPropertyOp14
 70
     1
102
RTVSPropertyOp15
 70
     1
102
RTVSPropertyOp16
 70
     1
102
RTVSPropertyOp17
 70
     1
102
RTVSPropertyOp18
 70
     1
102
RTVSPropertyOp19
 70
     1
102
RTVSPropertyOp20
 70
     1
102
RTVSPropertyOp21
 70
     1
102
RTVSPropertyOp22
 70
     1
102
RTVSPropertyOp23
 70
     1
102
RTVSPropertyOp24
 70
     1
102
RTVSPropertyOp25
 70
     1
102
RTVSPropertyOp26
 70
     1
102
RTVSPropertyOp27
 70
     1
102
RTVSPropertyOp28
 70
     1
102
RTVSPropertyOp29
 70
     1
102
RTVSPropertyOp30
 70
     1
102
RTVSPropertyOp31
 70
     1
102
RTVSPropertyOp32
 70
     1
  0
XRECORD
  5
3A7
102
{ACAD_REACTORS
330
3A6
102
}
330
3A6
100
AcDbXrecord
280
     1
102
RTVSPropertyOp0
 70
     1
102
RTVSPropertyOp1
 70
     1
102
RTVSPropertyOp2
 70
     1
102
RTVSPropertyOp3
 70
     1
102
RTVSPropertyOp4
 70
     1
102
RTVSPropertyOp5
 70
     1
102
RTVSPropertyOp6
 70
     1
102
RTVSPropertyOp7
 70
     1
102
RTVSPropertyOp8
 70
     1
102
RTVSPropertyOp9
 70
     1
102
RTVSPropertyOp10
 70
     1
102
RTVSPropertyOp11
 70
     1
102
RTVSPropertyOp12
 70
     1
102
RTVSPropertyOp13
 70
     1
102
RTVSPropertyOp14
 70
     1
102
RTVSPropertyOp15
 70
     1
102
RTVSPropertyOp16
 70
     1
102
RTVSPropertyOp17
 70
     1
102
RTVSPropertyOp18
 70
     1
102
RTVSPropertyOp19
 70
     1
102
RTVSPropertyOp20
 70
     1
102
RTVSPropertyOp21
 70
     1
102
RTVSPropertyOp22
 70
     1
102
RTVSPropertyOp23
 70
     1
102
RTVSPropertyOp24
 70
     1
102
RTVSPropertyOp25
 70
     1
102
RTVSPropertyOp26
 70
     1
102
RTVSPropertyOp27
 70
     1
102
RTVSPropertyOp28
 70
     1
102
RTVSPropertyOp29
 70
     1
102
RTVSPropertyOp30
 70
     1
102
RTVSPropertyOp31
 70
     1
102
RTVSPropertyOp32
 70
     1
  0
ENDSEC
  0
EOF
