  0
SECTION
  2
HEADER
  9
$ACADVER
  1
AC1018
  9
$ACADMAINTVER
 70
     0
  9
$DWGCODEPAGE
  3
ANSI_1252
  9
$INSBASE
 10
0.0
 20
0.0
 30
0.0
  9
$EXTMIN
 10
-1153.199999081536
 20
-1132.830565482899
 30
0.0
  9
$EXTMAX
 10
-856.199999081538
 20
-922.8305654828985
 30
0.0
  9
$LIMMIN
 10
0.0
 20
0.0
  9
$LIMMAX
 10
12.0
 20
9.0
  9
$ORTHOMODE
 70
     0
  9
$REGENMODE
 70
     1
  9
$FILLMODE
 70
     1
  9
$QTEXTMODE
 70
     0
  9
$MIRRTEXT
 70
     1
  9
$LTSCALE
 40
1.0
  9
$ATTMODE
 70
     1
  9
$TEXTSIZE
 40
0.2
  9
$TRACEWID
 40
0.05
  9
$TEXTSTYLE
  7
Standard
  9
$CLAYER
  8
0
  9
$CELTYPE
  6
ByLayer
  9
$CECOLOR
 62
   256
  9
$CELTSCALE
 40
1.0
  9
$DISPSILH
 70
     0
  9
$DIMSCALE
 40
1.0
  9
$DIMASZ
 40
0.18
  9
$DIMEXO
 40
0.0625
  9
$DIMDLI
 40
0.38
  9
$DIMRND
 40
0.0
  9
$DIMDLE
 40
0.0
  9
$DIMEXE
 40
0.18
  9
$DIMTP
 40
0.0
  9
$DIMTM
 40
0.0
  9
$DIMTXT
 40
0.18
  9
$DIMCEN
 40
0.09
  9
$DIMTSZ
 40
0.0
  9
$DIMTOL
 70
     0
  9
$DIMLIM
 70
     0
  9
$DIMTIH
 70
     1
  9
$DIMTOH
 70
     1
  9
$DIMSE1
 70
     0
  9
$DIMSE2
 70
     0
  9
$DIMTAD
 70
     0
  9
$DIMZIN
 70
     0
  9
$DIMBLK
  1

  9
$DIMASO
 70
     1
  9
$DIMSHO
 70
     1
  9
$DIMPOST
  1

  9
$DIMAPOST
  1

  9
$DIMALT
 70
     0
  9
$DIMALTD
 70
     2
  9
$DIMALTF
 40
25.4
  9
$DIMLFAC
 40
1.0
  9
$DIMTOFL
 70
     0
  9
$DIMTVP
 40
0.0
  9
$DIMTIX
 70
     0
  9
$DIMSOXD
 70
     0
  9
$DIMSAH
 70
     0
  9
$DIMBLK1
  1

  9
$DIMBLK2
  1

  9
$DIMSTYLE
  2
Standard
  9
$DIMCLRD
 70
     0
  9
$DIMCLRE
 70
     0
  9
$DIMCLRT
 70
     0
  9
$DIMTFAC
 40
1.0
  9
$DIMGAP
 40
0.09
  9
$DIMJUST
 70
     0
  9
$DIMSD1
 70
     0
  9
$DIMSD2
 70
     0
  9
$DIMTOLJ
 70
     1
  9
$DIMTZIN
 70
     0
  9
$DIMALTZ
 70
     0
  9
$DIMALTTZ
 70
     0
  9
$DIMUPT
 70
     0
  9
$DIMDEC
 70
     4
  9
$DIMTDEC
 70
     4
  9
$DIMALTU
 70
     2
  9
$DIMALTTD
 70
     2
  9
$DIMTXSTY
  7
Standard
  9
$DIMAUNIT
 70
     0
  9
$DIMADEC
 70
     0
  9
$DIMALTRND
 40
0.0
  9
$DIMAZIN
 70
     0
  9
$DIMDSEP
 70
    46
  9
$DIMATFIT
 70
     3
  9
$DIMFRAC
 70
     0
  9
$DIMLDRBLK
  1

  9
$DIMLUNIT
 70
     2
  9
$DIMLWD
 70
    -2
  9
$DIMLWE
 70
    -2
  9
$DIMTMOVE
 70
     0
  9
$LUNITS
 70
     2
  9
$LUPREC
 70
     4
  9
$SKETCHINC
 40
0.1
  9
$FILLETRAD
 40
0.5
  9
$AUNITS
 70
     0
  9
$AUPREC
 70
     0
  9
$MENU
  1
.
  9
$ELEVATION
 40
0.0
  9
$PELEVATION
 40
0.0
  9
$THICKNESS
 40
0.0
  9
$LIMCHECK
 70
     0
  9
$CHAMFERA
 40
0.5
  9
$CHAMFERB
 40
0.5
  9
$CHAMFERC
 40
1.0
  9
$CHAMFERD
 40
0.0
  9
$SKPOLY
 70
     0
  9
$TDCREATE
 40
2458137.849109167
  9
$TDUCREATE
 40
2458137.8074425
  9
$TDUPDATE
 40
2458137.849109699
  9
$TDUUPDATE
 40
2458137.807443033
  9
$TDINDWG
 40
0.0000000116
  9
$TDUSRTIMER
 40
0.0000000116
  9
$USRTIMER
 70
     1
  9
$ANGBASE
 50
0.0
  9
$ANGDIR
 70
     0
  9
$PDMODE
 70
     0
  9
$PDSIZE
 40
0.0
  9
$PLINEWID
 40
0.0
  9
$SPLFRAME
 70
     0
  9
$SPLINETYPE
 70
     6
  9
$SPLINESEGS
 70
     8
  9
$HANDSEED
  5
376
  9
$SURFTAB1
 70
     6
  9
$SURFTAB2
 70
     6
  9
$SURFTYPE
 70
     6
  9
$SURFU
 70
     6
  9
$SURFV
 70
     6
  9
$UCSBASE
  2

  9
$UCSNAME
  2

  9
$UCSORG
 10
0.0
 20
0.0
 30
0.0
  9
$UCSXDIR
 10
1.0
 20
0.0
 30
0.0
  9
$UCSYDIR
 10
0.0
 20
1.0
 30
0.0
  9
$UCSORTHOREF
  2

  9
$UCSORTHOVIEW
 70
     0
  9
$UCSORGTOP
 10
0.0
 20
0.0
 30
0.0
  9
$UCSORGBOTTOM
 10
0.0
 20
0.0
 30
0.0
  9
$UCSORGLEFT
 10
0.0
 20
0.0
 30
0.0
  9
$UCSORGRIGHT
 10
0.0
 20
0.0
 30
0.0
  9
$UCSORGFRONT
 10
0.0
 20
0.0
 30
0.0
  9
$UCSORGBACK
 10
0.0
 20
0.0
 30
0.0
  9
$PUCSBASE
  2

  9
$PUCSNAME
  2

  9
$PUCSORG
 10
0.0
 20
0.0
 30
0.0
  9
$PUCSXDIR
 10
1.0
 20
0.0
 30
0.0
  9
$PUCSYDIR
 10
0.0
 20
1.0
 30
0.0
  9
$PUCSORTHOREF
  2

  9
$PUCSORTHOVIEW
 70
     0
  9
$PUCSORGTOP
 10
0.0
 20
0.0
 30
0.0
  9
$PUCSORGBOTTOM
 10
0.0
 20
0.0
 30
0.0
  9
$PUCSORGLEFT
 10
0.0
 20
0.0
 30
0.0
  9
$PUCSORGRIGHT
 10
0.0
 20
0.0
 30
0.0
  9
$PUCSORGFRONT
 10
0.0
 20
0.0
 30
0.0
  9
$PUCSORGBACK
 10
0.0
 20
0.0
 30
0.0
  9
$USERI1
 70
     0
  9
$USERI2
 70
     0
  9
$USERI3
 70
     0
  9
$USERI4
 70
     0
  9
$USERI5
 70
     0
  9
$USERR1
 40
18.1
  9
$USERR2
 40
0.0
  9
$USERR3
 40
0.0
  9
$USERR4
 40
0.0
  9
$USERR5
 40
0.0
  9
$WORLDVIEW
 70
     1
  9
$SHADEDGE
 70
     3
  9
$SHADEDIF
 70
    70
  9
$TILEMODE
 70
     1
  9
$MAXACTVP
 70
    64
  9
$PINSBASE
 10
0.0
 20
0.0
 30
0.0
  9
$PLIMCHECK
 70
     0
  9
$PEXTMIN
 10
1.00000000000000E+20
 20
1.00000000000000E+20
 30
1.00000000000000E+20
  9
$PEXTMAX
 10
-1.00000000000000E+20
 20
-1.00000000000000E+20
 30
-1.00000000000000E+20
  9
$PLIMMIN
 10
0.0
 20
0.0
  9
$PLIMMAX
 10
12.0
 20
9.0
  9
$UNITMODE
 70
     0
  9
$VISRETAIN
 70
     1
  9
$PLINEGEN
 70
     0
  9
$PSLTSCALE
 70
     1
  9
$TREEDEPTH
 70
  3020
  9
$CMLSTYLE
  2
Standard
  9
$CMLJUST
 70
     0
  9
$CMLSCALE
 40
1.0
  9
$PROXYGRAPHICS
 70
     1
  9
$MEASUREMENT
 70
     1
  9
$CELWEIGHT
370
    -1
  9
$ENDCAPS
280
     0
  9
$JOINSTYLE
280
     0
  9
$LWDISPLAY
290
     0
  9
$INSUNITS
 70
     4
  9
$HYPERLINKBASE
  1

  9
$STYLESHEET
  1

  9
$XEDIT
290
     1
  9
$CEPSNTYPE
380
     0
  9
$PSTYLEMODE
290
     1
  9
$FINGERPRINTGUID
  2
{EA216D83-D967-4E1F-886C-CCBC82DE66B7}
  9
$VERSIONGUID
  2
{FAEB1C32-E019-11D5-929B-00C0DF256EC4}
  9
$EXTNAMES
290
     1
  9
$PSVPSCALE
 40
0.0
  9
$OLESTARTUP
290
     0
  9
$SORTENTS
280
   127
  9
$INDEXCTL
280
     0
  9
$HIDETEXT
280
     1
  9
$XCLIPFRAME
290
     0
  9
$HALOGAP
280
     0
  9
$OBSCOLOR
 70
   257
  9
$OBSLTYPE
280
     0
  9
$INTERSECTIONDISPLAY
280
     0
  9
$INTERSECTIONCOLOR
 70
   257
  9
$DIMASSOC
280
     2
  9
$PROJECTNAME
  1

  0
ENDSEC
  0
SECTION
  2
CLASSES
  0
CLASS
  1
ACDBDICTIONARYWDFLT
  2
AcDbDictionaryWithDefault
  3
ObjectDBX Classes
 90
        0
 91
        4
280
     0
281
     0
  0
CLASS
  1
VISUALSTYLE
  2
AcDbVisualStyle
  3
ObjectDBX Classes
 90
     4095
 91
        4
280
     0
281
     0
  0
CLASS
  1
MATERIAL
  2
AcDbMaterial
  3
ObjectDBX Classes
 90
     1153
 91
        4
280
     0
281
     0
  0
ENDSEC
  0
SECTION
  2
TABLES
  0
TABLE
  2
VPORT
  5
8
330
0
100
AcDbSymbolTable
 70
     1
  0
VPORT
  5
29
330
8
100
AcDbSymbolTableRecord
100
AcDbViewportTableRecord
  2
*Active
 70
     0
 10
0.0
 20
0.0
 11
1.0
 21
1.0
 12
-1004.699999081537
 22
-1027.830565482899
 13
0.0
 23
0.0
 14
0.5
 24
0.5
 15
0.5
 25
0.5
 16
0.0
 26
0.0
 36
1.0
 17
0.0
 27
0.0
 37
0.0
 40
231.0000000000005
 41
1.60267857142857
 42
50.0
 43
0.0
 44
0.0
 50
0.0
 51
0.0
 71
     0
 72
   100
 73
     1
 74
     3
 75
     0
 76
     0
 77
     0
 78
     0
281
     0
 65
     1
110
0.0
120
0.0
130
0.0
111
1.0
121
0.0
131
0.0
112
0.0
122
1.0
132
0.0
 79
     0
146
0.0
  0
ENDTAB
  0
TABLE
  2
LTYPE
  5
5
330
0
100
AcDbSymbolTable
 70
     8
  0
LTYPE
  5
14
330
5
100
AcDbSymbolTableRecord
100
AcDbLinetypeTableRecord
  2
ByBlock
 70
     0
  3

 72
    65
 73
     0
 40
0.0
  0
LTYPE
  5
15
330
5
100
AcDbSymbolTableRecord
100
AcDbLinetypeTableRecord
  2
ByLayer
 70
     0
  3

 72
    65
 73
     0
 40
0.0
  0
LTYPE
  5
16
330
5
100
AcDbSymbolTableRecord
100
AcDbLinetypeTableRecord
  2
Continuous
 70
     0
  3
Solid line
 72
    65
 73
     0
 40
0.0
  0
LTYPE
  5
3F
330
5
100
AcDbSymbolTableRecord
100
AcDbLinetypeTableRecord
  2
DASHED
 70
     0
  3
Dashed
 72
    65
 73
     2
 40
15.0
 49
7.0
 74
     0
 49
-8.0
 74
     0
  0
LTYPE
  5
40
330
5
100
AcDbSymbolTableRecord
100
AcDbLinetypeTableRecord
  2
DOTTED
 70
     0
  3
Dotted
 72
    65
 73
     2
 40
1.0
 49
0.0
 74
     0
 49
-1.0
 74
     0
  0
LTYPE
  5
41
330
5
100
AcDbSymbolTableRecord
100
AcDbLinetypeTableRecord
  2
DOT_CENTER
 70
     0
  3
Dot_Center
 72
    65
 73
     4
 40
14.0
 49
12.0
 74
     0
 49
-1.0
 74
     0
 49
0.0
 74
     0
 49
-1.0
 74
     0
  0
LTYPE
  5
42
330
5
100
AcDbSymbolTableRecord
100
AcDbLinetypeTableRecord
  2
LONG_DASHED
 70
     0
  3
Long_Dashed
 72
    65
 73
     2
 40
15.0
 49
10.0
 74
     0
 49
-5.0
 74
     0
  0
LTYPE
  5
43
330
5
100
AcDbSymbolTableRecord
100
AcDbLinetypeTableRecord
  2
DASH_CENTER
 70
     0
  3
Dash_Center
 72
    65
 73
     4
 40
14.0
 49
11.0
 74
     0
 49
-1.0
 74
     0
 49
1.0
 74
     0
 49
-1.0
 74
     0
  0
LTYPE
  5
44
330
5
100
AcDbSymbolTableRecord
100
AcDbLinetypeTableRecord
  2
PHANTOM
 70
     0
  3
Phantom
 72
    65
 73
     6
 40
13.0
 49
10.0
 74
     0
 49
-1.0
 74
     0
 49
0.0
 74
     0
 49
-1.0
 74
     0
 49
0.0
 74
     0
 49
-1.0
 74
     0
  0
LTYPE
  5
45
330
5
100
AcDbSymbolTableRecord
100
AcDbLinetypeTableRecord
  2
CENTER_DASH_DASH
 70
     0
  3
Center_Dash_Dash
 72
    65
 73
     6
 40
14.0
 49
9.0
 74
     0
 49
-1.0
 74
     0
 49
1.0
 74
     0
 49
-1.0
 74
     0
 49
1.0
 74
     0
 49
-1.0
 74
     0
  0
ENDTAB
  0
TABLE
  2
LAYER
  5
2
330
0
100
AcDbSymbolTable
 70
     2
  0
LAYER
  5
10
330
2
100
AcDbSymbolTableRecord
100
AcDbLayerTableRecord
  2
0
 70
     0
 62
     7
  6
Continuous
370
    -3
390
F
  0
LAYER
  5
46
330
2
100
AcDbSymbolTableRecord
100
AcDbLayerTableRecord
  2
1
 70
     0
 62
     7
  6
Continuous
370
    -3
390
F
  0
ENDTAB
  0
TABLE
  2
STYLE
  5
3
330
0
100
AcDbSymbolTable
 70
     5
  0
STYLE
  5
11
330
3
100
AcDbSymbolTableRecord
100
AcDbTextStyleTableRecord
  2
Standard
 70
     0
 40
0.0
 41
1.0
 50
0.0
 71
     0
 42
0.2
  3
txt
  4

  0
STYLE
  5
F1
330
3
100
AcDbSymbolTableRecord
100
AcDbTextStyleTableRecord
  2
CONVERTER_11
 70
     0
 40
0.0
 41
0.9
 50
0.0
 71
     0
 42
0.2
  3
txt.shx
  4

  0
STYLE
  5
30C
330
3
100
AcDbSymbolTableRecord
100
AcDbTextStyleTableRecord
  2
CONVERTER_12
 70
     0
 40
0.0
 41
0.81
 50
0.0
 71
     0
 42
0.2
  3
txt.shx
  4

  0
STYLE
  5
312
330
3
100
AcDbSymbolTableRecord
100
AcDbTextStyleTableRecord
  2
CONVERTER_13
 70
     0
 40
0.0
 41
0.855
 50
0.0
 71
     0
 42
0.2
  3
txt.shx
  4

  0
STYLE
  5
315
330
3
100
AcDbSymbolTableRecord
100
AcDbTextStyleTableRecord
  2
CONVERTER_14
 70
     0
 40
0.0
 41
0.72
 50
0.0
 71
     0
 42
0.2
  3
txt.shx
  4

  0
ENDTAB
  0
TABLE
  2
VIEW
  5
6
330
0
100
AcDbSymbolTable
 70
     0
  0
ENDTAB
  0
TABLE
  2
UCS
  5
7
330
0
100
AcDbSymbolTable
 70
     0
  0
ENDTAB
  0
TABLE
  2
APPID
  5
9
330
0
100
AcDbSymbolTable
 70
     1
  0
APPID
  5
12
330
9
100
AcDbSymbolTableRecord
100
AcDbRegAppTableRecord
  2
ACAD
 70
     0
  0
ENDTAB
  0
TABLE
  2
DIMSTYLE
  5
A
330
0
100
AcDbSymbolTable
 70
     4
100
AcDbDimStyleTable
  0
DIMSTYLE
105
27
330
A
100
AcDbSymbolTableRecord
100
AcDbDimStyleTableRecord
  2
Standard
 70
     0
178
     0
340
11
  0
DIMSTYLE
105
133
102
{ACAD_REACTORS
330
134
102
}
330
A
100
AcDbSymbolTableRecord
100
AcDbDimStyleTableRecord
  2
ME10_DIM_10
 70
     0
 41
7.0
 42
1.0
 44
3.0
 73
     0
 74
     0
 77
     1
 78
     8
140
7.0
147
4.0
172
     1
173
     1
174
     1
175
     1
176
     2
177
     2
271
     2
178
     3
271
     2
340
F1
  0
DIMSTYLE
105
208
102
{ACAD_REACTORS
330
209
102
}
330
A
100
AcDbSymbolTableRecord
100
AcDbDimStyleTableRecord
  2
ME10_DIM_11
 70
     0
 41
7.0
 42
1.0
 44
3.0
 73
     0
 74
     0
 77
     1
 78
     8
140
7.0
147
4.0
172
     1
173
     1
174
     1
175
     1
176
     2
177
     2
271
     2
178
     3
271
     2
340
F1
  0
DIMSTYLE
105
213
102
{ACAD_REACTORS
330
214
102
}
330
A
100
AcDbSymbolTableRecord
100
AcDbDimStyleTableRecord
  2
ME10_DIM_12
 70
     0
 41
7.0
 42
1.0
 44
3.0
 73
     0
 74
     0
 77
     1
 78
     8
140
7.0
147
4.0
172
     1
173
     1
174
     1
175
     1
176
     2
177
     2
271
     2
178
     3
271
     2
340
F1
  0
ENDTAB
  0
TABLE
  2
BLOCK_RECORD
  5
1
330
0
100
AcDbSymbolTable
 70
    20
  0
BLOCK_RECORD
  5
1F
330
1
100
AcDbSymbolTableRecord
100
AcDbBlockTableRecord
  2
*Model_Space
340
22
  0
BLOCK_RECORD
  5
1B
330
1
100
AcDbSymbolTableRecord
100
AcDbBlockTableRecord
  2
*Paper_Space
340
1E
  0
BLOCK_RECORD
  5
23
330
1
100
AcDbSymbolTableRecord
100
AcDbBlockTableRecord
  2
*Paper_Space0
340
26
  0
BLOCK_RECORD
  5
47
330
1
100
AcDbSymbolTableRecord
100
AcDbBlockTableRecord
  2
HC-RBO_12-select__1
340
0
102
{BLKREFS
331
4B
102
}
  0
BLOCK_RECORD
  5
4A
330
1
100
AcDbSymbolTableRecord
100
AcDbBlockTableRecord
  2
AllgSicht1
340
0
102
{BLKREFS
331
7D
102
}
  0
BLOCK_RECORD
  5
4E
330
1
100
AcDbSymbolTableRecord
100
AcDbBlockTableRecord
  2
HC-RBO_12-select__2
340
0
102
{BLKREFS
331
52
102
}
  0
BLOCK_RECORD
  5
51
330
1
100
AcDbSymbolTableRecord
100
AcDbBlockTableRecord
  2
Drfsicht1
340
0
102
{BLKREFS
331
7E
102
}
  0
BLOCK_RECORD
  5
55
330
1
100
AcDbSymbolTableRecord
100
AcDbBlockTableRecord
  2
HC-RBO_12-select__3
340
0
102
{BLKREFS
331
59
102
}
  0
BLOCK_RECORD
  5
58
330
1
100
AcDbSymbolTableRecord
100
AcDbBlockTableRecord
  2
Rckans1
340
0
102
{BLKREFS
331
7F
102
}
  0
BLOCK_RECORD
  5
5C
330
1
100
AcDbSymbolTableRecord
100
AcDbBlockTableRecord
  2
HC-RBO_12-select__4
340
0
102
{BLKREFS
331
60
102
}
  0
BLOCK_RECORD
  5
5F
330
1
100
AcDbSymbolTableRecord
100
AcDbBlockTableRecord
  2
SA_Links1
340
0
102
{BLKREFS
331
80
102
}
  0
BLOCK_RECORD
  5
63
330
1
100
AcDbSymbolTableRecord
100
AcDbBlockTableRecord
  2
HC-RBO_12-select__5
340
0
102
{BLKREFS
331
67
102
}
  0
BLOCK_RECORD
  5
66
330
1
100
AcDbSymbolTableRecord
100
AcDbBlockTableRecord
  2
SA_Rechts1
340
0
102
{BLKREFS
331
81
102
}
  0
BLOCK_RECORD
  5
6A
330
1
100
AcDbSymbolTableRecord
100
AcDbBlockTableRecord
  2
HC-RBO_12-select__6
340
0
102
{BLKREFS
331
6E
102
}
  0
BLOCK_RECORD
  5
6D
330
1
100
AcDbSymbolTableRecord
100
AcDbBlockTableRecord
  2
Vordans1
340
0
102
{BLKREFS
331
82
102
}
  0
BLOCK_RECORD
  5
71
330
1
100
AcDbSymbolTableRecord
100
AcDbBlockTableRecord
  2
_rahmen
340
0
102
{BLKREFS
331
78
102
}
  0
BLOCK_RECORD
  5
74
330
1
100
AcDbSymbolTableRecord
100
AcDbBlockTableRecord
  2
_punkt
340
0
102
{BLKREFS
331
79
102
}
  0
BLOCK_RECORD
  5
77
330
1
100
AcDbSymbolTableRecord
100
AcDbBlockTableRecord
  2
A4I_CS
340
0
102
{BLKREFS
331
83
102
}
  0
BLOCK_RECORD
  5
7C
330
1
100
AcDbSymbolTableRecord
100
AcDbBlockTableRecord
  2
1
340
0
102
{BLKREFS
331
86
102
}
  0
BLOCK_RECORD
  5
12A
330
1
100
AcDbSymbolTableRecord
100
AcDbBlockTableRecord
  2
*D17
340
0
  0
BLOCK_RECORD
  5
1FF
330
1
100
AcDbSymbolTableRecord
100
AcDbBlockTableRecord
  2
*D18
340
0
  0
BLOCK_RECORD
  5
20A
330
1
100
AcDbSymbolTableRecord
100
AcDbBlockTableRecord
  2
*D19
340
0
  0
ENDTAB
  0
ENDSEC
  0
SECTION
  2
BLOCKS
  0
BLOCK
  5
20
330
1F
100
AcDbEntity
  8
0
100
AcDbBlockBegin
  2
*Model_Space
 70
     0
 10
0.0
 20
0.0
 30
0.0
  3
*Model_Space
  1

  0
ENDBLK
  5
21
330
1F
100
AcDbEntity
  8
0
100
AcDbBlockEnd
  0
BLOCK
  5
1C
330
1B
100
AcDbEntity
 67
     1
  8
0
100
AcDbBlockBegin
  2
*Paper_Space
 70
     0
 10
0.0
 20
0.0
 30
0.0
  3
*Paper_Space
  1

  0
ENDBLK
  5
1D
330
1B
100
AcDbEntity
 67
     1
  8
0
100
AcDbBlockEnd
  0
BLOCK
  5
24
330
23
100
AcDbEntity
  8
0
100
AcDbBlockBegin
  2
*Paper_Space0
 70
     0
 10
0.0
 20
0.0
 30
0.0
  3
*Paper_Space0
  1

  0
ENDBLK
  5
25
330
23
100
AcDbEntity
  8
0
100
AcDbBlockEnd
  0
BLOCK
  5
48
330
47
100
AcDbEntity
  8
0
100
AcDbBlockBegin
  2
HC-RBO_12-select__1
 70
     0
 10
-1913.387951015747
 20
-2181.370150157979
 30
0.0
  3
HC-RBO_12-select__1
  1

  0
LINE
  5
87
330
47
100
AcDbEntity
  8
0
  6
Continuous
 62
     7
100
AcDbLine
 10
-1905.047698472966
 20
-2093.308206849725
 30
0.0
 11
-1813.023267341519
 21
-2119.873371893097
 31
0.0
  0
LINE
  5
88
330
47
100
AcDbEntity
  8
0
  6
Continuous
 62
     7
100
AcDbLine
 10
-1785.592178426136
 20
-2102.648440952281
 30
0.0
 11
-1788.623267339359
 21
-2098.742352039035
 31
0.0
  0
LINE
  5
89
330
47
100
AcDbEntity
  8
0
  6
Continuous
 62
     7
100
AcDbLine
 10
-1785.592178426147
 20
-2160.239130303874
 30
0.0
 11
-1785.592178426119
 21
-2108.947479057868
 31
0.0
  0
LINE
  5
8A
330
47
100
AcDbEntity
  8
0
  6
Continuous
 62
     7
100
AcDbLine
 10
-1788.623267339359
 20
-2098.742352039035
 30
0.0
 11
-1840.806767979634
 21
-2083.678272967787
 31
0.0
  0
LINE
  5
8B
330
47
100
AcDbEntity
  8
0
  6
Continuous
 62
     7
100
AcDbLine
 10
-1863.23026189237
 20
-2111.009026107974
 30
0.0
 11
-1909.281990971906
 21
-2097.715037017252
 31
0.0
  0
LINE
  5
8C
330
47
100
AcDbEntity
  8
0
  6
Continuous
 62
     7
100
AcDbLine
 10
-1907.931990971812
 20
-2100.87602974117
 30
0.0
 11
-1907.931990971809
 21
-2098.104748448992
 31
0.0
  0
LINE
  5
8D
330
47
100
AcDbEntity
  8
0
  6
Continuous
 62
     7
100
AcDbLine
 10
-1907.581990971876
 20
-2098.205784746083
 30
0.0
 11
-1907.58199097188
 21
-2100.572920849828
 31
0.0
  0
LINE
  5
8E
330
47
100
AcDbEntity
  8
0
  6
Continuous
 62
     7
100
AcDbLine
 10
-1907.931990971812
 20
-2100.87602974117
 30
0.0
 11
-1907.58199097188
 21
-2100.572920849828
 31
0.0
  0
LINE
  5
8F
330
47
100
AcDbEntity
  8
0
  6
Continuous
 62
     7
100
AcDbLine
 10
-1909.281990971906
 20
-2097.715037017252
 30
0.0
 11
-1909.281990971902
 21
-2096.320164391586
 31
0.0
  0
LINE
  5
90
330
47
100
AcDbEntity
  8
0
  6
Continuous
 62
     7
100
AcDbLine
 10
-1907.931990971812
 20
-2100.87602974117
 30
0.0
 11
-1910.394230880549
 21
-2100.165242304032
 31
0.0
  0
LINE
  5
91
330
47
100
AcDbEntity
  8
0
  6
Continuous
 62
     7
100
AcDbLine
 10
-1910.230567462898
 20
-2100.047343176525
 30
0.0
 11
-1909.480567462876
 21
-2099.397824123662
 31
0.0
  0
LINE
  5
92
330
47
100
AcDbEntity
  8
0
  6
Continuous
 62
     7
100
AcDbLine
 10
-1848.477266964533
 20
-2081.463990640869
 30
0.0
 11
-1880.647698470741
 21
-2072.177186995554
 31
0.0
  0
LINE
  5
93
330
47
100
AcDbEntity
  8
0
  6
Continuous
 62
     7
100
AcDbLine
 10
-1843.570599649477
 20
-2083.428906246578
 30
0.0
 11
-1846.134533829317
 21
-2082.688762202115
 31
0.0
  0
LINE
  5
94
330
47
100
AcDbEntity
  8
0
  6
Continuous
 62
     7
100
AcDbLine
 10
-1843.381291574026
 20
-2081.087551163711
 30
0.0
 11
-1846.823674469638
 21
-2080.093820817987
 31
0.0
  0
LINE
  5
95
330
47
100
AcDbEntity
  8
0
  6
Continuous
 62
     7
100
AcDbLine
 10
-1848.739789717727
 20
-2083.004787605772
 30
0.0
 11
-1848.739789717727
 21
-2082.744979984838
 31
0.0
  0
LINE
  5
96
330
47
100
AcDbEntity
  8
0
  6
Continuous
 62
     7
100
AcDbLine
 10
-1844.025836998314
 20
-2082.749007785531
 30
0.0
 11
-1846.045397098643
 21
-2082.166011001735
 31
0.0
  0
LINE
  5
97
330
47
100
AcDbEntity
  8
0
  6
Continuous
 62
     7
100
AcDbLine
 10
-1846.834533829401
 20
-2083.294979984842
 30
0.0
 11
-1846.134533829317
 21
-2082.688762202115
 31
0.0
  0
LINE
  5
98
330
47
100
AcDbEntity
  8
0
  6
Continuous
 62
     7
100
AcDbLine
 10
-1843.381291574026
 20
-2081.087551163711
 30
0.0
 11
-1842.681291573941
 21
-2080.481333380985
 31
0.0
  0
LINE
  5
99
330
47
100
AcDbEntity
  8
0
  6
Continuous
 62
     7
100
AcDbLine
 10
-1842.681291573941
 20
-2080.481333380985
 30
0.0
 11
-1846.123674469553
 21
-2079.487603035261
 31
0.0
  0
LINE
  5
9A
330
47
100
AcDbEntity
  8
0
  6
Continuous
 62
     7
100
AcDbLine
 10
-1846.823674469638
 20
-2080.093820817987
 30
0.0
 11
-1846.123674469553
 21
-2079.487603035261
 31
0.0
  0
LINE
  5
9B
330
47
100
AcDbEntity
  8
0
  6
Continuous
 62
     7
100
AcDbLine
 10
-1847.152028438731
 20
-2080.01386062885
 30
0.0
 11
-1847.852028438816
 21
-2080.620078411576
 31
0.0
  0
LINE
  5
9C
330
47
100
AcDbEntity
  8
0
  6
Continuous
 62
     7
100
AcDbLine
 10
-1849.162039727081
 20
-2101.870524041295
 30
0.0
 11
-1837.874500697127
 21
-2092.095228495059
 31
0.0
  0
LINE
  5
9D
330
47
100
AcDbEntity
  8
0
  6
Continuous
 62
     7
100
AcDbLine
 10
-1837.874500697127
 20
-2092.095228495059
 30
0.0
 11
-1838.913750234995
 21
-2091.195225194967
 31
0.0
  0
LINE
  5
9E
330
47
100
AcDbEntity
  8
0
  6
Continuous
 62
     7
100
AcDbLine
 10
-1838.02450179715
 20
-2092.225133258275
 30
0.0
 11
-1838.913750234996
 21
-2091.455032816079
 31
0.0
  0
LINE
  5
9F
330
47
100
AcDbEntity
  8
0
  6
Continuous
 62
     7
100
AcDbLine
 10
-1838.913750234996
 20
-2091.455032816079
 30
0.0
 11
-1838.913750234995
 21
-2091.195225194967
 31
0.0
  0
LINE
  5
A0
330
47
100
AcDbEntity
  8
0
  6
Continuous
 62
     7
100
AcDbLine
 10
-1862.527569741008
 20
-2092.095355367796
 30
0.0
 11
-1851.240515938741
 21
-2101.870517441005
 31
0.0
  0
LINE
  5
A1
330
47
100
AcDbEntity
  8
0
  6
Continuous
 62
     7
100
AcDbLine
 10
-1905.047698472966
 20
-2093.308206849725
 30
0.0
 11
-1909.281990971902
 21
-2096.320164391586
 31
0.0
  0
LINE
  5
A2
330
47
100
AcDbEntity
  8
0
  6
Continuous
 62
     7
100
AcDbLine
 10
-1861.488354499029
 20
-2091.195368568235
 30
0.0
 11
-1862.527569741008
 21
-2092.095355367796
 31
0.0
  0
LINE
  5
A3
330
47
100
AcDbEntity
  8
0
  6
Continuous
 62
     7
100
AcDbLine
 10
-1861.488354499029
 20
-2091.455176189366
 30
0.0
 11
-1862.377571941106
 21
-2092.225261083703
 31
0.0
  0
LINE
  5
A4
330
47
100
AcDbEntity
  8
0
  6
Continuous
 62
     7
100
AcDbLine
 10
-1838.913750234995
 20
-2091.195225194967
 30
0.0
 11
-1861.488354499029
 21
-2091.195368568235
 31
0.0
  0
LINE
  5
A5
330
47
100
AcDbEntity
  8
0
  6
Continuous
 62
     2
100
AcDbLine
 10
-1841.465176325937
 20
-2084.844979984852
 30
0.0
 11
-1840.765176325853
 21
-2084.238762202126
 31
0.0
  0
LINE
  5
A6
330
47
100
AcDbEntity
  8
0
  6
Continuous
 62
     7
100
AcDbLine
 10
-1840.765176325853
 20
-2084.498569823074
 30
0.0
 11
-1840.765176325853
 21
-2084.238762202126
 31
0.0
  0
LINE
  5
A7
330
47
100
AcDbEntity
  8
0
  6
Continuous
 62
     7
100
AcDbLine
 10
-1848.739789717727
 20
-2083.004787605772
 30
0.0
 11
-1841.465176325937
 21
-2085.104787605797
 31
0.0
  0
LINE
  5
A8
330
47
100
AcDbEntity
  8
0
  6
Continuous
 62
     7
100
AcDbLine
 10
-1841.465176325937
 20
-2084.844979984852
 30
0.0
 11
-1841.465176325937
 21
-2085.104787605797
 31
0.0
  0
LINE
  5
A9
330
47
100
AcDbEntity
  8
0
  6
Continuous
 62
     7
100
AcDbLine
 10
-1846.834533829401
 20
-2083.294979984842
 30
0.0
 11
-1843.370432214263
 21
-2084.294979984848
 31
0.0
  0
LINE
  5
AA
330
47
100
AcDbEntity
  8
0
  6
Continuous
 62
     7
100
AcDbLine
 10
-1838.913750234996
 20
-2091.455032816079
 30
0.0
 11
-1861.488354499029
 21
-2091.455176189366
 31
0.0
  0
LINE
  5
AB
330
47
100
AcDbEntity
  8
0
  6
Continuous
 62
     7
100
AcDbLine
 10
-1861.488354499029
 20
-2091.455176189366
 30
0.0
 11
-1861.488354499029
 21
-2091.195368568235
 31
0.0
  0
LINE
  5
AC
330
47
100
AcDbEntity
  8
0
  6
Continuous
 62
     7
100
AcDbLine
 10
-1840.765176325853
 20
-2084.498569823074
 30
0.0
 11
-1841.465176325937
 21
-2085.104787605797
 31
0.0
  0
LINE
  5
AD
330
47
100
AcDbEntity
  8
0
  6
Continuous
 62
     7
100
AcDbLine
 10
-1887.626863597448
 20
-2077.350486417033
 30
0.0
 11
-1909.326863597504
 21
-2096.143237679132
 31
0.0
  0
LINE
  5
AE
330
47
100
AcDbEntity
  8
0
  6
Continuous
 62
     7
100
AcDbLine
 10
-1905.047698472966
 20
-2093.308206849725
 30
0.0
 11
-1880.647698470741
 21
-2072.177186995554
 31
0.0
  0
LINE
  5
AF
330
47
100
AcDbEntity
  8
0
  6
Continuous
 62
     7
100
AcDbLine
 10
-1891.687951015688
 20
-2077.700069268448
 30
0.0
 11
-1890.166033207212
 21
-2076.617491288188
 31
0.0
  0
LINE
  5
B0
330
47
100
AcDbEntity
  8
0
  6
Continuous
 62
     7
100
AcDbLine
 10
-1886.231990971945
 20
-2076.358278834451
 30
0.0
 11
-1887.626863597448
 21
-2077.350486417033
 31
0.0
  0
LINE
  5
B1
330
47
100
AcDbEntity
  8
0
  6
Continuous
 62
     7
100
AcDbLine
 10
-1886.231990971945
 20
-2076.358278834451
 30
0.0
 11
-1884.881990969892
 21
-2075.189144537567
 31
0.0
  0
LINE
  5
B2
330
47
100
AcDbEntity
  8
0
  6
Continuous
 62
     7
100
AcDbLine
 10
-1890.166033207212
 20
-2076.617491288188
 30
0.0
 11
-1887.626863597448
 21
-2077.350486417033
 31
0.0
  0
LINE
  5
B3
330
47
100
AcDbEntity
  8
0
  6
Continuous
 62
     7
100
AcDbLine
 10
-1909.326863597504
 20
-2096.143237679132
 30
0.0
 11
-1911.866033207048
 21
-2095.410242550376
 31
0.0
  0
LINE
  5
B4
330
47
100
AcDbEntity
  8
0
  6
Continuous
 62
     7
100
AcDbLine
 10
-1911.866033207048
 20
-2095.410242550376
 30
0.0
 11
-1890.166033207212
 21
-2076.617491288188
 31
0.0
  0
LINE
  5
B5
330
47
100
AcDbEntity
  8
0
  6
Continuous
 62
     7
100
AcDbLine
 10
-1909.326863597504
 20
-2096.143237679132
 30
0.0
 11
-1907.931990971999
 21
-2095.151030096548
 31
0.0
  0
LINE
  5
B6
330
47
100
AcDbEntity
  8
0
  6
Continuous
 62
     7
100
AcDbLine
 10
-1909.281990971902
 20
-2096.320164391586
 30
0.0
 11
-1907.931990971999
 21
-2095.151030096548
 31
0.0
  0
LINE
  5
B7
330
47
100
AcDbEntity
  8
0
  6
Continuous
 62
     7
100
AcDbLine
 10
-1880.647698470741
 20
-2072.177186995554
 30
0.0
 11
-1884.881990969892
 21
-2075.189144537567
 31
0.0
  0
LINE
  5
B8
330
47
100
AcDbEntity
  8
0
  6
Continuous
 62
     7
100
AcDbLine
 10
-1806.04217842818
 20
-2173.622031328081
 30
0.0
 11
-1806.042178428182
 21
-2134.648079623846
 31
0.0
  0
LINE
  5
B9
330
47
100
AcDbEntity
  8
0
  6
Continuous
 62
     7
100
AcDbLine
 10
-1858.099889481253
 20
-2163.845343498459
 30
0.0
 11
-1858.099889481077
 21
-2121.376102732543
 31
0.0
  0
LINE
  5
BA
330
47
100
AcDbEntity
  8
0
  6
Continuous
 62
     7
100
AcDbLine
 10
-1858.099889481253
 20
-2163.845343498459
 30
0.0
 11
-1848.106471466505
 21
-2170.36750148491
 31
0.0
  0
LINE
  5
BB
330
47
100
AcDbEntity
  8
0
  6
Continuous
 62
     7
100
AcDbLine
 10
-1805.662051409281
 20
-2125.029460806377
 30
0.0
 11
-1781.262051407206
 21
-2103.898440952279
 31
0.0
  0
LINE
  5
BC
330
47
100
AcDbEntity
  8
0
  6
Continuous
 62
     7
100
AcDbLine
 10
-1781.262051407207
 20
-2105.197479058005
 30
0.0
 11
-1805.66205140924
 21
-2126.328498911988
 31
0.0
  0
LINE
  5
BD
330
47
100
AcDbEntity
  8
0
  6
Continuous
 62
     7
100
AcDbLine
 10
-1785.592178426136
 20
-2102.648440952281
 30
0.0
 11
-1809.992178428304
 21
-2123.779460806331
 31
0.0
  0
LINE
  5
BE
330
47
100
AcDbEntity
  8
0
  6
Continuous
 62
     7
100
AcDbLine
 10
-1813.023267341519
 20
-2119.873371893097
 30
0.0
 11
-1788.623267339359
 21
-2098.742352039035
 31
0.0
  0
LINE
  5
BF
330
47
100
AcDbEntity
  8
0
  6
Continuous
 62
     7
100
AcDbLine
 10
-1805.662051409281
 20
-2125.029460806377
 30
0.0
 11
-1805.66205140924
 21
-2126.328498911988
 31
0.0
  0
LINE
  5
C0
330
47
100
AcDbEntity
  8
0
  6
Continuous
 62
     7
100
AcDbLine
 10
-1809.992178428304
 20
-2123.779460806331
 30
0.0
 11
-1805.662051409281
 21
-2125.029460806377
 31
0.0
  0
LINE
  5
C1
330
47
100
AcDbEntity
  8
0
  6
Continuous
 62
     7
100
AcDbLine
 10
-1805.66205140924
 20
-2126.328498911988
 30
0.0
 11
-1809.992178428197
 21
-2125.078498911964
 31
0.0
  0
LINE
  5
C2
330
47
100
AcDbEntity
  8
0
  6
Continuous
 62
     2
100
AcDbLine
 10
-1790.754613993453
 20
-2120.008660461385
 30
0.0
 11
-1789.542178428141
 21
-2120.358660461389
 31
0.0
  0
LINE
  5
C3
330
47
100
AcDbEntity
  8
0
  6
Continuous
 62
     7
100
AcDbLine
 10
-1848.106471466505
 20
-2170.36750148491
 30
0.0
 11
-1809.992178428222
 21
-2181.370150157979
 31
0.0
  0
LINE
  5
C4
330
47
100
AcDbEntity
  8
0
  6
Continuous
 62
     7
100
AcDbLine
 10
-1808.540591167951
 20
-2180.113038714774
 30
0.0
 11
-1806.04217842818
 21
-2173.622031328081
 31
0.0
  0
LINE
  5
C5
330
47
100
AcDbEntity
  8
0
  6
Continuous
 62
     7
100
AcDbLine
 10
-1781.262051407206
 20
-2103.898440952279
 30
0.0
 11
-1785.592178426136
 21
-2102.648440952281
 31
0.0
  0
LINE
  5
C6
330
47
100
AcDbEntity
  8
0
  6
Continuous
 62
     7
100
AcDbLine
 10
-1781.262051407207
 20
-2105.197479058005
 30
0.0
 11
-1781.262051407206
 21
-2103.898440952279
 31
0.0
  0
LINE
  5
C7
330
47
100
AcDbEntity
  8
0
  6
Continuous
 62
     7
100
AcDbLine
 10
-1785.592178426147
 20
-2160.239130303874
 30
0.0
 11
-1787.042178428104
 21
-2161.494867141118
 31
0.0
  0
LINE
  5
C8
330
47
100
AcDbEntity
  8
0
  6
Continuous
 62
     7
100
AcDbLine
 10
-1806.042178428181
 20
-2155.144014179719
 30
0.0
 11
-1789.754613993873
 21
-2159.845829035116
 31
0.0
  0
LINE
  5
C9
330
47
100
AcDbEntity
  8
0
  6
Continuous
 62
     7
100
AcDbLine
 10
-1789.542178428203
 20
-2159.329803631634
 30
0.0
 11
-1787.042178428104
 21
-2161.494867141118
 31
0.0
  0
LINE
  5
CA
330
47
100
AcDbEntity
  8
0
  6
Continuous
 62
     7
100
AcDbLine
 10
-1788.254613993483
 20
-2161.144867141114
 30
0.0
 11
-1790.754613993554
 21
-2158.979803631618
 31
0.0
  0
LINE
  5
CB
330
47
100
AcDbEntity
  8
0
  6
Continuous
 62
     7
100
AcDbLine
 10
-1790.754613993554
 20
-2158.979803631618
 30
0.0
 11
-1789.542178428203
 21
-2159.329803631634
 31
0.0
  0
LINE
  5
CC
330
47
100
AcDbEntity
  8
0
  6
Continuous
 62
     7
100
AcDbLine
 10
-1790.754613993502
 20
-2140.924170387079
 30
0.0
 11
-1806.042178428182
 21
-2136.511030666263
 31
0.0
  0
LINE
  5
CD
330
47
100
AcDbEntity
  8
0
  6
Continuous
 62
     7
100
AcDbLine
 10
-1790.754613993453
 20
-2120.008660461385
 30
0.0
 11
-1790.754613993554
 21
-2158.979803631618
 31
0.0
  0
LINE
  5
CE
330
47
100
AcDbEntity
  8
0
  6
Continuous
 62
     7
100
AcDbLine
 10
-1787.042178428104
 20
-2161.494867141118
 30
0.0
 11
-1788.254613993483
 21
-2161.144867141114
 31
0.0
  0
LINE
  5
CF
330
47
100
AcDbEntity
  8
0
  6
Continuous
 62
     7
100
AcDbLine
 10
-1789.542178428141
 20
-2120.358660461389
 30
0.0
 11
-1789.542178428203
 21
-2159.329803631634
 31
0.0
  0
LINE
  5
D0
330
47
100
AcDbEntity
  8
0
  6
Continuous
 62
     7
100
AcDbLine
 10
-1813.023267341519
 20
-2119.873371893097
 30
0.0
 11
-1809.992178428304
 21
-2123.779460806331
 31
0.0
  0
LINE
  5
D1
330
47
100
AcDbEntity
  8
0
  6
Continuous
 62
     7
100
AcDbLine
 10
-1809.992178428197
 20
-2125.078498911964
 30
0.0
 11
-1809.992178428222
 21
-2181.370150157979
 31
0.0
  0
LINE
  5
D2
330
47
100
AcDbEntity
  8
0
  6
Continuous
 62
     7
100
AcDbLine
 10
-1808.540591167951
 20
-2180.113038714774
 30
0.0
 11
-1809.992178428222
 21
-2181.370150157979
 31
0.0
  0
LINE
  5
D3
330
47
100
AcDbEntity
  8
0
  6
Continuous
 62
     7
100
AcDbLine
 10
-1913.387951015747
 20
-2096.492820530795
 30
0.0
 11
-1891.687951015688
 21
-2077.700069268448
 31
0.0
  0
LINE
  5
D4
330
47
100
AcDbEntity
  8
0
  6
Continuous
 62
     7
100
AcDbLine
 10
-1911.866033207048
 20
-2095.410242550376
 30
0.0
 11
-1913.387951015747
 21
-2096.492820530795
 31
0.0
  0
LINE
  5
D5
330
47
100
AcDbEntity
  8
0
  6
Continuous
 62
     7
100
AcDbLine
 10
-1913.387951015602
 20
-2098.86801703924
 30
0.0
 11
-1912.761857901748
 21
-2099.410229580974
 31
0.0
  0
LINE
  5
D6
330
47
100
AcDbEntity
  8
0
  6
Continuous
 62
     7
100
AcDbLine
 10
-1861.863595225857
 20
-2113.770684895317
 30
0.0
 11
-1907.58199097188
 21
-2100.572920849828
 31
0.0
  0
LINE
  5
D7
330
47
100
AcDbEntity
  8
0
  6
Continuous
 62
     7
100
AcDbLine
 10
-1851.240515938741
 20
-2101.870517441005
 30
0.0
 11
-1849.162039727081
 21
-2101.870524041295
 31
0.0
  0
LINE
  5
D8
330
47
100
AcDbEntity
  8
0
  6
Continuous
 62
     7
100
AcDbLine
 10
-1858.099889481077
 20
-2121.376102732543
 30
0.0
 11
-1863.23026189237
 21
-2111.009026107974
 31
0.0
  0
LINE
  5
D9
330
47
100
AcDbEntity
  8
0
  6
Continuous
 62
     7
100
AcDbLine
 10
-1913.387951015602
 20
-2098.86801703924
 30
0.0
 11
-1913.387951015747
 21
-2096.492820530795
 31
0.0
  0
LINE
  5
DA
330
47
100
AcDbEntity
  8
0
  6
Continuous
 62
     7
100
AcDbLine
 10
-1912.849182145743
 20
-2097.023627392462
 30
0.0
 11
-1912.099182145721
 21
-2096.374108339599
 31
0.0
  0
SPLINE
  5
DB
330
47
100
AcDbEntity
  8
0
  6
Continuous
 62
     7
100
AcDbSpline
210
0.0
220
0.0
230
1.0
 70
     8
 71
     3
 72
    11
 73
     7
 74
     5
 42
0.000000001
 43
0.0000000001
 44
0.00000001
 40
0.0
 40
0.0
 40
0.0
 40
0.0
 40
0.4914183230974281
 40
0.9480289858113349
 40
1.371711571878703
 40
1.775014765150275
 40
1.775014765150275
 40
1.775014765150275
 40
1.775014765150275
 10
-1909.167376730341
 20
-2097.748123298863
 30
0.0
 10
-1909.124360616093
 20
-2097.907178911196
 30
0.0
 10
-1909.041375276975
 20
-2098.21402406751
 30
0.0
 10
-1909.063826051827
 20
-2098.676447334892
 30
0.0
 10
-1909.197828652168
 20
-2099.094650504212
 30
0.0
 10
-1909.387882351976
 20
-2099.298440248872
 30
0.0
 10
-1909.480567462876
 20
-2099.397824123662
 30
0.0
 11
-1909.167376730341
 21
-2097.748123298863
 31
0.0
 11
-1909.064795301796
 21
-2098.228715661267
 31
0.0
 11
-1909.085214281801
 21
-2098.684869544275
 31
0.0
 11
-1909.227179780146
 21
-2099.084059641909
 31
0.0
 11
-1909.480567462876
 21
-2099.397824123662
 31
0.0
  0
SPLINE
  5
DC
330
47
100
AcDbEntity
  8
0
  6
Continuous
 62
     7
100
AcDbSpline
210
0.0
220
0.0
230
1.0
 70
     8
 71
     3
 72
    19
 73
    15
 74
    13
 42
0.000000001
 43
0.0000000001
 44
0.00000001
 40
0.0
 40
0.0
 40
0.0
 40
0.0
 40
0.3941644373865292
 40
0.8074425663546404
 40
1.251886396916593
 40
1.729795108056359
 40
2.234897317656439
 40
2.755052536216471
 40
3.275207754776488
 40
3.780309964376493
 40
4.258218675516392
 40
4.702662506078028
 40
5.115940635046743
 40
5.510105072432957
 40
5.510105072432957
 40
5.510105072432957
 40
5.510105072432957
 10
-1912.849182145743
 20
-2097.023627392462
 30
0.0
 10
-1912.740383667646
 20
-2096.947668428285
 30
0.0
 10
-1912.517510884883
 20
-2096.792067134666
 30
0.0
 10
-1912.095894490702
 20
-2096.7150150063
 30
0.0
 10
-1911.648964416779
 20
-2096.755246884803
 30
0.0
 10
-1911.196294519563
 20
-2096.917134328396
 30
0.0
 10
-1910.768977717474
 20
-2097.185207879813
 30
0.0
 10
-1910.393213256079
 20
-2097.542447254164
 30
0.0
 10
-1910.093318609509
 20
-2097.965391815536
 30
0.0
 10
-1909.889039860536
 20
-2098.426621986962
 30
0.0
 10
-1909.793479973041
 20
-2098.897775770923
 30
0.0
 10
-1909.817507893511
 20
-2099.34586923669
 30
0.0
 10
-1909.954000636196
 20
-2099.752153798939
 30
0.0
 10
-1910.139844945889
 20
-2099.950511890349
 30
0.0
 10
-1910.230567462898
 20
-2100.047343176525
 30
0.0
 11
-1912.849182145743
 21
-2097.023627392462
 31
0.0
 11
-1912.511095109058
 21
-2096.820987901107
 31
0.0
 11
-1912.106821513843
 21
-2096.73518769005
 31
0.0
 11
-1911.663911145296
 21
-2096.772075712151
 31
0.0
 11
-1911.212547968975
 21
-2096.929136274204
 31
0.0
 11
-1910.783491744138
 21
-2097.19566769403
 31
0.0
 11
-1910.4059813853
 21
-2097.553504778429
 31
0.0
 11
-1910.105744573124
 21
-2097.978262717278
 31
0.0
 11
-1909.903240627554
 21
-2098.440994166236
 31
0.0
 11
-1909.8122714394
 21
-2098.910165077416
 31
0.0
 11
-1909.839034675777
 21
-2099.353802372872
 31
0.0
 11
-1909.981708232148
 21
-2099.74167228962
 31
0.0
 11
-1910.230567462898
 21
-2100.047343176525
 31
0.0
  0
SPLINE
  5
DD
330
47
100
AcDbEntity
  8
0
  6
Continuous
 62
     7
100
AcDbSpline
210
0.0
220
0.0
230
1.0
 70
     8
 71
     3
 72
    17
 73
    13
 74
    11
 42
0.000000001
 43
0.0000000001
 44
0.00000001
 40
0.0
 40
0.0
 40
0.0
 40
0.0
 40
0.4340469405112346
 40
0.8940939120064306
 40
1.371940844028052
 40
1.856317062739443
 40
2.334897026483423
 40
2.796290082655074
 40
3.23205281992767
 40
3.638712425246209
 40
4.019500657903051
 40
4.384852940519026
 40
4.384852940519026
 40
4.384852940519026
 40
4.384852940519026
 10
-1843.370432214263
 20
-2084.294979984848
 30
0.0
 10
-1843.38096179422
 20
-2084.150093530695
 30
0.0
 10
-1843.402651705784
 20
-2083.85164171883
 30
0.0
 10
-1843.561006258841
 20
-2083.41709128992
 30
0.0
 10
-1843.798867206593
 20
-2083.004913691598
 30
0.0
 10
-1844.113513027268
 20
-2082.63820354249
 30
0.0
 10
-1844.484291380598
 20
-2082.33742459852
 30
0.0
 10
-1844.891254825242
 20
-2082.119888656037
 30
0.0
 10
-1845.312605231546
 20
-2081.997600439475
 30
0.0
 10
-1845.723059843785
 20
-2081.981679788674
 30
0.0
 10
-1846.107126824914
 20
-2082.066760590618
 30
0.0
 10
-1846.311646199602
 20
-2082.212003167753
 30
0.0
 10
-1846.411790363253
 20
-2082.283122092812
 30
0.0
 11
-1843.370432214263
 21
-2084.294979984848
 31
0.0
 11
-1843.421230487966
 21
-2083.863915858464
 31
0.0
 11
-1843.570644538278
 21
-2083.428808220129
 31
0.0
 11
-1843.80991132295
 21
-2083.015179043563
 31
0.0
 11
-1844.12499536847
 21
-2082.647289976752
 31
0.0
 11
-1844.497415705903
 21
-2082.346720726314
 31
0.0
 11
-1844.905326953868
 21
-2082.131100767333
 31
0.0
 11
-1845.324802744696
 21
-2082.013078628843
 31
0.0
 11
-1845.731238119713
 21
-2081.999575937921
 31
0.0
 11
-1846.100792736481
 21
-2082.091385892315
 31
0.0
 11
-1846.411790363253
 21
-2082.283122092812
 31
0.0
  0
SPLINE
  5
DE
330
47
100
AcDbEntity
  8
0
  6
Continuous
 62
     7
100
AcDbSpline
210
0.0
220
0.0
230
1.0
 70
     8
 71
     3
 72
    13
 73
     9
 74
     7
 42
0.000000001
 43
0.0000000001
 44
0.00000001
 40
0.0
 40
0.0
 40
0.0
 40
0.0
 40
0.6693774139996542
 40
1.370389706389167
 40
2.097478788036412
 40
2.842482773760058
 40
3.595588133816954
 40
4.346266989704464
 40
4.346266989704464
 40
4.346266989704464
 40
4.346266989704464
 10
-1841.465176325937
 20
-2084.844979984852
 30
0.0
 10
-1841.477081981577
 20
-2084.621645336331
 30
0.0
 10
-1841.501455970666
 20
-2084.164421211142
 30
0.0
 10
-1841.685138885143
 20
-2083.485076140023
 30
0.0
 10
-1841.967492527962
 20
-2082.815960668474
 30
0.0
 10
-1842.35315157345
 20
-2082.179898924125
 30
0.0
 10
-1842.820509311859
 20
-2081.589552182223
 30
0.0
 10
-1843.194565342048
 20
-2081.254704729884
 30
0.0
 10
-1843.381291574026
 20
-2081.087551163711
 30
0.0
 11
-1841.465176325937
 21
-2084.844979984852
 31
0.0
 11
-1841.523711039784
 21
-2084.178166808978
 31
0.0
 11
-1841.697430806105
 21
-2083.499020521449
 31
0.0
 11
-1841.980744716526
 21
-2082.829399909892
 31
0.0
 11
-1842.364533759844
 21
-2082.190857107193
 31
0.0
 11
-1842.836445741357
 21
-2081.603944195218
 31
0.0
 11
-1843.381291574026
 21
-2081.087551163711
 31
0.0
  0
SPLINE
  5
DF
330
47
100
AcDbEntity
  8
0
  6
Continuous
 62
     7
100
AcDbSpline
210
0.0
220
0.0
230
1.0
 70
     8
 71
     3
 72
    11
 73
     7
 74
     5
 42
0.000000001
 43
0.0000000001
 44
0.00000001
 40
0.0
 40
0.0
 40
0.0
 40
0.0
 40
0.2681156221809444
 40
0.5425811581227913
 40
0.8285670144110118
 40
1.129302987306616
 40
1.129302987306616
 40
1.129302987306616
 40
1.129302987306616
 10
-1846.411790363253
 20
-2082.283122092812
 30
0.0
 10
-1846.475446449931
 20
-2082.346492732938
 30
0.0
 10
-1846.604266210517
 20
-2082.474734860971
 30
0.0
 10
-1846.735283517053
 20
-2082.721721195659
 30
0.0
 10
-1846.819872792162
 20
-2082.998464018687
 30
0.0
 10
-1846.829565596655
 20
-2083.194498567215
 30
0.0
 10
-1846.834533829401
 20
-2083.294979984842
 30
0.0
 11
-1846.411790363253
 21
-2082.283122092812
 31
0.0
 11
-1846.592252901369
 21
-2082.481412939899
 31
0.0
 11
-1846.725410444433
 21
-2082.721413774155
 31
0.0
 11
-1846.807034640664
 21
-2082.995503908471
 31
0.0
 11
-1846.834533829401
 21
-2083.294979984842
 31
0.0
  0
SPLINE
  5
E0
330
47
100
AcDbEntity
  8
0
  6
Continuous
 62
     7
100
AcDbSpline
210
0.0
220
0.0
230
1.0
 70
     8
 71
     3
 72
     9
 73
     5
 74
     3
 42
0.000000001
 43
0.0000000001
 44
0.00000001
 40
0.0
 40
0.0
 40
0.0
 40
0.0
 40
0.317715667653149
 40
0.6535755191435211
 40
0.6535755191435211
 40
0.6535755191435211
 40
0.6535755191435211
 10
-1845.997855408236
 20
-2082.053838928379
 30
0.0
 10
-1846.037542526591
 20
-2082.152888544941
 30
0.0
 10
-1846.119183205876
 20
-2082.356644333093
 30
0.0
 10
-1846.129323128647
 20
-2082.576026128037
 30
0.0
 10
-1846.134533829317
 20
-2082.688762202115
 30
0.0
 11
-1845.997855408236
 21
-2082.053838928379
 31
0.0
 11
-1846.100020270298
 21
-2082.354680393512
 31
0.0
 11
-1846.134533829317
 21
-2082.688762202115
 31
0.0
  0
SPLINE
  5
E1
330
47
100
AcDbEntity
  8
0
  6
Continuous
 62
     7
100
AcDbSpline
210
0.0
220
0.0
230
1.0
 70
     8
 71
     3
 72
     9
 73
     5
 74
     3
 42
0.000000001
 43
0.0000000001
 44
0.00000001
 40
0.0
 40
0.0
 40
0.0
 40
0.0
 40
0.5887205472517985
 40
1.163297581371031
 40
1.163297581371031
 40
1.163297581371031
 40
1.163297581371031
 10
-1846.823674469638
 20
-2080.093820817987
 30
0.0
 10
-1847.012938749925
 20
-2080.15185485741
 30
0.0
 10
-1847.386920388273
 20
-2080.26652873562
 30
0.0
 10
-1847.698254169917
 20
-2080.503187623148
 30
0.0
 10
-1847.852028438816
 20
-2080.620078411576
 30
0.0
 11
-1846.823674469638
 21
-2080.093820817987
 31
0.0
 11
-1847.375422187527
 21
-2080.299165260204
 31
0.0
 11
-1847.852028438816
 21
-2080.620078411576
 31
0.0
  0
SPLINE
  5
E2
330
47
100
AcDbEntity
  8
0
  6
Continuous
 62
     7
100
AcDbSpline
210
0.0
220
0.0
230
1.0
 70
     8
 71
     3
 72
    11
 73
     7
 74
     5
 42
0.000000001
 43
0.0000000001
 44
0.00000001
 40
0.0
 40
0.0
 40
0.0
 40
0.0
 40
0.5630428083112142
 40
1.139420436392193
 40
1.739990736795185
 40
2.371536280435883
 40
2.371536280435883
 40
2.371536280435883
 40
2.371536280435883
 10
-1847.852028438816
 20
-2080.620078411576
 30
0.0
 10
-1847.985706221251
 20
-2080.753156756249
 30
0.0
 10
-1848.256227731706
 20
-2081.022465215323
 30
0.0
 10
-1848.531364069859
 20
-2081.54113652482
 30
0.0
 10
-1848.709001555509
 20
-2082.122296453063
 30
0.0
 10
-1848.729356428951
 20
-2082.533969007635
 30
0.0
 10
-1848.739789717727
 20
-2082.744979984838
 30
0.0
 11
-1847.852028438816
 21
-2080.620078411576
 31
0.0
 11
-1848.23099976886
 21
-2081.036489190457
 31
0.0
 11
-1848.510630609296
 21
-2081.540490942396
 31
0.0
 11
-1848.68204142138
 21
-2082.116080224459
 31
0.0
 11
-1848.739789717727
 21
-2082.744979984838
 31
0.0
  0
SPLINE
  5
E3
330
47
100
AcDbEntity
  8
0
  6
Continuous
 62
     7
100
AcDbSpline
210
0.0
220
0.0
230
1.0
 70
     8
 71
     3
 72
     9
 73
     5
 74
     3
 42
0.000000001
 43
0.0000000001
 44
0.00000001
 40
0.0
 40
0.0
 40
0.0
 40
0.0
 40
0.5887205472524922
 40
1.163297581371225
 40
1.163297581371225
 40
1.163297581371225
 40
1.163297581371225
 10
-1846.123674469553
 20
-2079.487603035261
 30
0.0
 10
-1846.31293874984
 20
-2079.545637074685
 30
0.0
 10
-1846.686920388188
 20
-2079.660310952892
 30
0.0
 10
-1846.998254169832
 20
-2079.896969840423
 30
0.0
 10
-1847.152028438731
 20
-2080.01386062885
 30
0.0
 11
-1846.123674469553
 21
-2079.487603035261
 31
0.0
 11
-1846.675422187442
 21
-2079.692947477477
 31
0.0
 11
-1847.152028438731
 21
-2080.01386062885
 31
0.0
  0
SPLINE
  5
E4
330
47
100
AcDbEntity
  8
0
  6
Continuous
 62
     7
100
AcDbSpline
210
0.0
220
0.0
230
1.0
 70
     8
 71
     3
 72
    13
 73
     9
 74
     7
 42
0.000000001
 43
0.0000000001
 44
0.00000001
 40
0.0
 40
0.0
 40
0.0
 40
0.0
 40
0.669377413999674
 40
1.370389706389131
 40
2.097478788036375
 40
2.84248277375967
 40
3.595588133816708
 40
4.346266989703888
 40
4.346266989703888
 40
4.346266989703888
 40
4.346266989703888
 10
-1840.765176325853
 20
-2084.238762202126
 30
0.0
 10
-1840.777081981494
 20
-2084.015427553605
 30
0.0
 10
-1840.801455970582
 20
-2083.558203428417
 30
0.0
 10
-1840.98513888506
 20
-2082.878858357297
 30
0.0
 10
-1841.267492527877
 20
-2082.209742885746
 30
0.0
 10
-1841.653151573367
 20
-2081.5736811414
 30
0.0
 10
-1842.120509311774
 20
-2080.983334399496
 30
0.0
 10
-1842.494565341963
 20
-2080.648486947157
 30
0.0
 10
-1842.681291573941
 20
-2080.481333380985
 30
0.0
 11
-1840.765176325853
 21
-2084.238762202126
 31
0.0
 11
-1840.823711039701
 21
-2083.571949026252
 31
0.0
 11
-1840.997430806021
 21
-2082.892802738722
 31
0.0
 11
-1841.280744716442
 21
-2082.223182127166
 31
0.0
 11
-1841.664533759759
 21
-2081.584639324467
 31
0.0
 11
-1842.136445741273
 21
-2080.997726412491
 31
0.0
 11
-1842.681291573941
 21
-2080.481333380985
 31
0.0
  0
SPLINE
  5
E5
330
47
100
AcDbEntity
  8
0
  6
Continuous
 62
     7
100
AcDbSpline
210
0.0
220
0.0
230
1.0
 70
     8
 71
     3
 72
    11
 73
     7
 74
     5
 42
0.000000001
 43
0.0000000001
 44
0.00000001
 40
0.0
 40
0.0
 40
0.0
 40
0.0
 40
0.4436527430918487
 40
0.8230125885549235
 40
1.136203351171416
 40
1.403844020350274
 40
1.403844020350274
 40
1.403844020350274
 40
1.403844020350274
 10
-1881.792571805435
 20
-2084.779336559475
 30
0.0
 10
-1881.651609424339
 20
-2084.826419128648
 30
0.0
 10
-1881.390112535161
 20
-2084.913761204701
 30
0.0
 10
-1881.070314229401
 20
-2085.118294299896
 30
0.0
 10
-1880.840861340534
 20
-2085.36117508326
 30
0.0
 10
-1880.807804173909
 20
-2085.555718511535
 30
0.0
 10
-1880.792571805444
 20
-2085.645361963265
 30
0.0
 11
-1881.792571805435
 21
-2084.779336559475
 31
0.0
 11
-1881.378358620102
 21
-2084.938255370594
 31
0.0
 11
-1881.060520997872
 21
-2085.145361963263
 31
0.0
 11
-1880.860720667907
 21
-2085.386542987164
 31
0.0
 11
-1880.792571805444
 21
-2085.645361963265
 31
0.0
  0
SPLINE
  5
E6
330
47
100
AcDbEntity
  8
0
  6
Continuous
 62
     7
100
AcDbSpline
210
0.0
220
0.0
230
1.0
 70
     8
 71
     3
 72
    15
 73
    11
 74
     9
 42
0.000000001
 43
0.0000000001
 44
0.00000001
 40
0.0
 40
0.0
 40
0.0
 40
0.0
 40
0.2676406647983626
 40
0.5808314313507587
 40
0.9601912813229303
 40
1.40384401923829
 40
1.896442423892208
 40
2.415200668483382
 40
2.933958913350512
 40
3.426557327259909
 40
3.426557327259909
 40
3.426557327259909
 40
3.426557327259909
 10
-1884.792571805444
 20
-2085.645361963253
 30
0.0
 10
-1884.777332220047
 20
-2085.555747542413
 30
0.0
 10
-1884.744259392659
 20
-2085.361267114853
 30
0.0
 10
-1884.514949198542
 20
-2085.117812412112
 30
0.0
 10
-1884.194437533376
 20
-2084.916148621785
 30
0.0
 10
-1883.779762707476
 20
-2084.763111287595
 30
0.0
 10
-1883.303028379236
 20
-2084.666748998477
 30
0.0
 10
-1882.792821832392
 20
-2084.635276081415
 30
0.0
 10
-1882.281140395195
 20
-2084.663301229472
 30
0.0
 10
-1881.952595277046
 20
-2084.741330888011
 30
0.0
 10
-1881.792571805435
 20
-2084.779336559475
 30
0.0
 11
-1884.792571805444
 21
-2085.645361963253
 31
0.0
 11
-1884.724422942978
 21
-2085.386542987152
 31
0.0
 11
-1884.52462261301
 21
-2085.145361963251
 31
0.0
 11
-1884.206784990776
 21
-2084.938255370583
 31
0.0
 11
-1883.792571805438
 21
-2084.779336559467
 31
0.0
 11
-1883.310209757636
 21
-2084.679436394485
 31
0.0
 11
-1882.792571805436
 21
-2084.645361963255
 31
0.0
 11
-1882.274933853235
 21
-2084.679436394489
 31
0.0
 11
-1881.792571805435
 21
-2084.779336559475
 31
0.0
  0
SPLINE
  5
E7
330
47
100
AcDbEntity
  8
0
  6
Continuous
 62
     7
100
AcDbSpline
210
0.0
220
0.0
230
1.0
 70
     8
 71
     3
 72
    19
 73
    15
 74
    13
 42
0.000000001
 43
0.0000000001
 44
0.00000001
 40
0.0
 40
0.0
 40
0.0
 40
0.0
 40
0.2676406686778545
 40
0.5808314346136185
 40
0.9601912858948362
 40
1.403844025772503
 40
1.89644243330783
 40
2.415200681656388
 40
2.933958930005323
 40
3.426557337540182
 40
3.870210077417765
 40
4.249569928699214
 40
4.562760694634518
 40
4.830401363313194
 40
4.830401363313194
 40
4.830401363313194
 40
4.830401363313194
 10
-1880.792571805444
 20
-2085.645361963265
 30
0.0
 10
-1880.807811351859
 20
-2085.734976225991
 30
0.0
 10
-1880.840884100248
 20
-2085.929456306475
 30
0.0
 10
-1881.070195061234
 20
-2086.1729141683
 30
0.0
 10
-1881.39070285643
 20
-2086.374562198884
 30
0.0
 10
-1881.805395803402
 20
-2086.527673221417
 30
0.0
 10
-1882.282051741611
 20
-2086.62371673053
 30
0.0
 10
-1882.792571805446
 20
-2086.656464533513
 30
0.0
 10
-1883.303091869283
 20
-2086.623716730528
 30
0.0
 10
-1883.77974780749
 20
-2086.527673221411
 30
0.0
 10
-1884.194440754461
 20
-2086.374562198876
 30
0.0
 10
-1884.514948549656
 20
-2086.17291416829
 30
0.0
 10
-1884.74425951064
 20
-2085.929456306464
 30
0.0
 10
-1884.777332259029
 20
-2085.734976225979
 30
0.0
 10
-1884.792571805444
 20
-2085.645361963253
 30
0.0
 11
-1880.792571805444
 21
-2085.645361963265
 31
0.0
 11
-1880.860720667909
 21
-2085.904180939365
 31
0.0
 11
-1881.060520997876
 21
-2086.145361963266
 31
0.0
 11
-1881.37835862011
 21
-2086.352468555934
 31
0.0
 11
-1881.792571805446
 21
-2086.51138736705
 31
0.0
 11
-1882.274933853247
 21
-2086.611287532032
 31
0.0
 11
-1882.792571805446
 21
-2086.645361963263
 31
0.0
 11
-1883.310209757646
 21
-2086.61128753203
 31
0.0
 11
-1883.792571805446
 21
-2086.511387367044
 31
0.0
 11
-1884.206784990781
 21
-2086.352468555925
 31
0.0
 11
-1884.524622613014
 21
-2086.145361963256
 31
0.0
 11
-1884.724422942979
 21
-2085.904180939354
 31
0.0
 11
-1884.792571805444
 21
-2085.645361963253
 31
0.0
  0
SPLINE
  5
E8
330
47
100
AcDbEntity
  8
0
  6
Continuous
 62
     7
100
AcDbSpline
210
0.0
220
0.0
230
1.0
 70
     8
 71
     3
 72
    13
 73
     9
 74
     7
 42
0.000000001
 43
0.0000000001
 44
0.00000001
 40
0.0
 40
0.0
 40
0.0
 40
0.0
 40
0.3728501701758331
 40
0.7898908361123128
 40
1.237382560931884
 40
1.698320110801909
 40
2.154390865970917
 40
2.587747432164566
 40
2.587747432164566
 40
2.587747432164566
 40
2.587747432164566
 10
-1884.313262438046
 20
-2086.294881016081
 30
0.0
 10
-1884.202053601781
 20
-2086.238750500975
 30
0.0
 10
-1883.96645536405
 20
-2086.119836851641
 30
0.0
 10
-1883.565251174201
 20
-2086.013847691142
 30
0.0
 10
-1883.127546200789
 20
-2085.949167253294
 30
0.0
 10
-1882.671953227131
 20
-2085.938372300828
 30
0.0
 10
-1882.221571396722
 20
-2085.9739271292
 30
0.0
 10
-1881.933116145426
 20
-2086.044156655472
 30
0.0
 10
-1881.792571805439
 20
-2086.078374665127
 30
0.0
 11
-1884.313262438046
 21
-2086.294881016081
 31
0.0
 11
-1883.975065438165
 21
-2086.137909555016
 31
0.0
 11
-1883.573919450922
 21
-2086.02387089271
 31
0.0
 11
-1883.131178737888
 21
-2085.958836228674
 31
0.0
 11
-1882.670412588673
 21
-2085.946267171223
 31
0.0
 11
-1882.216149535939
 21
-2085.986833314759
 31
0.0
 11
-1881.792571805439
 21
-2086.078374665127
 31
0.0
  0
SPLINE
  5
E9
330
47
100
AcDbEntity
  8
0
  6
Continuous
 62
     7
100
AcDbSpline
210
0.0
220
0.0
230
1.0
 70
     8
 71
     3
 72
     9
 73
     5
 74
     3
 42
0.000000001
 43
0.0000000001
 44
0.00000001
 40
0.0
 40
0.0
 40
0.0
 40
0.0
 40
0.2952485975708806
 40
0.5649764877986956
 40
0.5649764877986956
 40
0.5649764877986956
 40
0.5649764877986956
 10
-1881.792571805439
 20
-2086.078374665127
 30
0.0
 10
-1881.698413955643
 20
-2086.107842203216
 30
0.0
 10
-1881.518237082364
 20
-2086.164230182058
 30
0.0
 10
-1881.351489066634
 20
-2086.252662262187
 30
0.0
 10
-1881.271881172845
 20
-2086.294881016089
 30
0.0
 11
-1881.792571805439
 21
-2086.078374665127
 31
0.0
 11
-1881.513765623605
 21
-2086.175528397437
 31
0.0
 11
-1881.271881172845
 21
-2086.294881016089
 31
0.0
  0
SPLINE
  5
EA
330
47
100
AcDbEntity
  8
0
  6
Continuous
 62
     7
100
AcDbSpline
210
0.0
220
0.0
230
1.0
 70
     8
 71
     3
 72
    13
 73
     9
 74
     7
 42
0.000000001
 43
0.0000000001
 44
0.00000001
 40
0.0
 40
0.0
 40
0.0
 40
0.0
 40
0.3229120854424601
 40
0.661504057155172
 40
1.021013069704996
 40
1.402476610965622
 40
1.803214835857435
 40
2.217737545790452
 40
2.217737545790452
 40
2.217737545790452
 40
2.217737545790452
 10
-1889.485518728148
 20
-2076.813938897027
 30
0.0
 10
-1889.388149234706
 20
-2076.766564756341
 30
0.0
 10
-1889.188682198184
 20
-2076.669516106309
 30
0.0
 10
-1888.845155736698
 20
-2076.628724183974
 30
0.0
 10
-1888.484899406972
 20
-2076.662530810086
 30
0.0
 10
-1888.119580533225
 20
-2076.777203196637
 30
0.0
 10
-1887.7622514979
 20
-2076.960690051598
 30
0.0
 10
-1887.551081161732
 20
-2077.132730554351
 30
0.0
 10
-1887.443710757094
 20
-2077.220205247521
 30
0.0
 11
-1889.485518728148
 21
-2076.813938897027
 31
0.0
 11
-1889.187905703893
 21
-2076.688644425053
 31
0.0
 11
-1888.852645226638
 21
-2076.641263645342
 31
0.0
 11
-1888.494620690972
 21
-2076.67390049481
 31
0.0
 11
-1888.129726372028
 21
-2076.785105578046
 31
0.0
 11
-1887.774161435164
 21
-2076.969942535713
 31
0.0
 11
-1887.443710757094
 21
-2077.220205247521
 31
0.0
  0
SPLINE
  5
EB
330
47
100
AcDbEntity
  8
0
  6
Continuous
 62
     7
100
AcDbSpline
210
0.0
220
0.0
230
1.0
 70
     8
 71
     3
 72
    15
 73
    11
 74
     9
 42
0.000000001
 43
0.0000000001
 44
0.00000001
 40
0.0
 40
0.0
 40
0.0
 40
0.0
 40
0.3598922931252987
 40
0.734576419677159
 40
1.134176865122131
 40
1.562041270660043
 40
2.015142222740095
 40
2.485659473168318
 40
2.962854385940676
 40
3.434940306352071
 40
3.434940306352071
 40
3.434940306352071
 40
3.434940306352071
 10
-1912.099182145721
 20
-2096.374108339599
 30
0.0
 10
-1912.000664219987
 20
-2096.303920284928
 30
0.0
 10
-1911.799579203499
 20
-2096.160659407594
 30
0.0
 10
-1911.422555166045
 20
-2096.074325227833
 30
0.0
 10
-1911.019058821054
 20
-2096.085993865431
 30
0.0
 10
-1910.603963133324
 20
-2096.201216315744
 30
0.0
 10
-1910.201103943148
 20
-2096.40935563681
 30
0.0
 10
-1909.83314178955
 20
-2096.700170140228
 30
0.0
 10
-1909.512796180825
 20
-2097.05377927988
 30
0.0
 10
-1909.358649500384
 20
-2097.331110918064
 30
0.0
 10
-1909.281990971905
 20
-2097.469030446811
 30
0.0
 11
-1912.099182145721
 21
-2096.374108339599
 31
0.0
 11
-1911.79328209508
 21
-2096.184509749792
 31
0.0
 11
-1911.430253124096
 21
-2096.091783459708
 31
0.0
 11
-1911.030763874802
 21
-2096.101209914623
 31
0.0
 11
-1910.617559623985
 21
-2096.212251339253
 31
0.0
 11
-1910.214166229091
 21
-2096.418586606448
 31
0.0
 11
-1909.843550759607
 21
-2096.70846702474
 31
0.0
 11
-1909.526814750085
 21
-2097.065388983112
 31
0.0
 11
-1909.281990971905
 21
-2097.469030446811
 31
0.0
  0
SPLINE
  5
EC
330
47
100
AcDbEntity
  8
0
  6
Continuous
 62
     7
100
AcDbSpline
210
0.0
220
0.0
230
1.0
 70
     8
 71
     3
 72
    11
 73
     7
 74
     5
 42
0.000000001
 43
0.0000000001
 44
0.00000001
 40
0.0
 40
0.0
 40
0.0
 40
0.0
 40
2.05542621209163
 40
3.899739673578659
 40
5.514028626657888
 40
6.901325652284417
 40
6.901325652284417
 40
6.901325652284417
 40
6.901325652284417
 10
-1789.542178428141
 20
-2120.358660461389
 30
0.0
 10
-1789.559278232424
 20
-2119.672715041828
 30
0.0
 10
-1789.591721534891
 20
-2118.371277632473
 30
0.0
 10
-1789.89889645906
 20
-2116.556430934386
 30
0.0
 10
-1790.357116980489
 20
-2114.991909344758
 30
0.0
 10
-1790.884882294213
 20
-2114.13732192018
 30
0.0
 10
-1791.128809096214
 20
-2113.742341869536
 30
0.0
 11
-1789.542178428141
 21
-2120.358660461389
 31
0.0
 11
-1789.644816151024
 21
-2118.305798458604
 31
0.0
 11
-1789.949919620484
 21
-2116.48689658548
 31
0.0
 11
-1790.449138635049
 21
-2114.951738870579
 31
0.0
 11
-1791.128809096214
 21
-2113.742341869536
 31
0.0
  0
SPLINE
  5
ED
330
47
100
AcDbEntity
  8
0
  6
Continuous
 62
     7
100
AcDbSpline
210
0.0
220
0.0
230
1.0
 70
     8
 71
     3
 72
    11
 73
     7
 74
     5
 42
0.000000001
 43
0.0000000001
 44
0.00000001
 40
0.0
 40
0.0
 40
0.0
 40
0.0
 40
1.666830184711524
 40
3.200936070002673
 40
4.589865012870913
 40
5.828860640627672
 40
5.828860640627672
 40
5.828860640627672
 40
5.828860640627672
 10
-1790.754613993453
 20
-2120.008660461385
 30
0.0
 10
-1790.766015295428
 20
-2119.452712194443
 30
0.0
 10
-1790.787910065231
 20
-2118.385084024655
 30
0.0
 10
-1790.988798890739
 20
-2116.866529272207
 30
0.0
 10
-1791.291484069535
 20
-2115.506701103348
 30
0.0
 10
-1791.631266784274
 20
-2114.697659969993
 30
0.0
 10
-1791.791465185877
 20
-2114.316218877156
 30
0.0
 11
-1790.754613993453
 21
-2120.008660461385
 31
0.0
 11
-1790.820870201868
 21
-2118.3431476343
 31
0.0
 11
-1791.018468055976
 21
-2116.821820595528
 31
0.0
 11
-1791.34391646832
 21
-2115.47155878975
 31
0.0
 11
-1791.791465185877
 21
-2114.316218877156
 31
0.0
  0
SPLINE
  5
EE
330
47
100
AcDbEntity
  8
0
  6
Continuous
 62
     7
100
AcDbSpline
210
0.0
220
0.0
230
1.0
 70
     8
 71
     3
 72
    11
 73
     7
 74
     5
 42
0.000000001
 43
0.0000000001
 44
0.00000001
 40
0.0
 40
0.0
 40
0.0
 40
0.0
 40
2.232995827382388
 40
4.600097653308952
 40
7.051302587284228
 40
9.532816368312401
 40
9.532816368312401
 40
9.532816368312401
 40
9.532816368312401
 10
-1806.042178428182
 20
-2134.648079623846
 30
0.0
 10
-1806.021119853097
 20
-2133.903545956278
 30
0.0
 10
-1805.977737982622
 20
-2132.369764507487
 30
0.0
 10
-1805.6545315654
 20
-2130.03798284669
 30
0.0
 10
-1805.169596930734
 20
-2127.650964859301
 30
0.0
 10
-1804.694537148924
 20
-2126.075971509425
 30
0.0
 10
-1804.455547760048
 20
-2125.283636101995
 30
0.0
 11
-1806.042178428182
 21
-2134.648079623846
 31
0.0
 11
-1805.939540705267
 21
-2132.41744387025
 31
0.0
 11
-1805.634437235796
 21
-2130.070087286443
 31
0.0
 11
-1805.135218221222
 21
-2127.670256874193
 31
0.0
 11
-1804.455547760048
 21
-2125.283636101995
 31
0.0
  0
SPLINE
  5
EF
330
47
100
AcDbEntity
  8
0
  6
Continuous
 62
     7
100
AcDbSpline
210
0.0
220
0.0
230
1.0
 70
     8
 71
     3
 72
    17
 73
    13
 74
    11
 42
0.000000001
 43
0.0000000001
 44
0.00000001
 40
0.0
 40
0.0
 40
0.0
 40
0.0
 40
0.365352282616168
 40
0.7461405152736719
 40
1.152800120592424
 40
1.588562857865457
 40
2.049955914037309
 40
2.528535877781752
 40
3.012912096493143
 40
3.490759028515779
 40
3.950806000010902
 40
4.384852940523013
 40
4.384852940523013
 40
4.384852940523013
 40
4.384852940523013
 10
-1910.230567462898
 20
-2100.047343176525
 30
0.0
 10
-1910.330711626549
 20
-2100.118462101584
 30
0.0
 10
-1910.535231001236
 20
-2100.263704678719
 30
0.0
 10
-1910.919297982367
 20
-2100.348785480663
 30
0.0
 10
-1911.329752594607
 20
-2100.332864829863
 30
0.0
 10
-1911.75110300091
 20
-2100.2105766133
 30
0.0
 10
-1912.158066445555
 20
-2099.993040670817
 30
0.0
 10
-1912.528844798885
 20
-2099.692261726846
 30
0.0
 10
-1912.843490619561
 20
-2099.325551577738
 30
0.0
 10
-1913.081351567313
 20
-2098.913373979417
 30
0.0
 10
-1913.23970612037
 20
-2098.478823550507
 30
0.0
 10
-1913.261396031934
 20
-2098.18037173864
 30
0.0
 10
-1913.27192561189
 20
-2098.035485284487
 30
0.0
 11
-1910.230567462898
 21
-2100.047343176525
 31
0.0
 11
-1910.541565089671
 21
-2100.239079377022
 31
0.0
 11
-1910.911119706439
 21
-2100.330889331416
 31
0.0
 11
-1911.317555081456
 21
-2100.317386640495
 31
0.0
 11
-1911.737030872285
 21
-2100.199364502005
 31
0.0
 11
-1912.14494212025
 21
-2099.983744543023
 31
0.0
 11
-1912.517362457683
 21
-2099.683175292585
 31
0.0
 11
-1912.832446503203
 21
-2099.315286225774
 31
0.0
 11
-1913.071713287876
 21
-2098.901657049207
 31
0.0
 11
-1913.221127338187
 21
-2098.466549410872
 31
0.0
 11
-1913.27192561189
 21
-2098.035485284487
 31
0.0
  0
SPLINE
  5
F0
330
47
100
AcDbEntity
  8
0
  6
Continuous
 62
     7
100
AcDbSpline
210
0.0
220
0.0
230
1.0
 70
     8
 71
     3
 72
    11
 73
     7
 74
     5
 42
0.000000001
 43
0.0000000001
 44
0.00000001
 40
0.0
 40
0.0
 40
0.0
 40
0.0
 40
0.3007359728947399
 40
0.586721829181588
 40
0.8611873651222419
 40
1.129302987301412
 40
1.129302987301412
 40
1.129302987301412
 40
1.129302987301412
 10
-1913.27192561189
 20
-2098.035485284487
 30
0.0
 10
-1913.266957379144
 20
-2097.935003866861
 30
0.0
 10
-1913.257264574651
 20
-2097.738969318333
 30
0.0
 10
-1913.172675299543
 20
-2097.462226495308
 30
0.0
 10
-1913.041657993007
 20
-2097.21524016062
 30
0.0
 10
-1912.91283823242
 20
-2097.086998032587
 30
0.0
 10
-1912.849182145743
 20
-2097.023627392462
 30
0.0
 11
-1913.27192561189
 21
-2098.035485284487
 31
0.0
 11
-1913.244426423153
 21
-2097.736009208117
 31
0.0
 11
-1913.162802226922
 21
-2097.461919073802
 31
0.0
 11
-1913.029644683858
 21
-2097.221918239547
 31
0.0
 11
-1912.849182145743
 21
-2097.023627392462
 31
0.0
  0
ENDBLK
  5
49
330
47
100
AcDbEntity
  8
0
100
AcDbBlockEnd
  0
BLOCK
  5
4C
330
4A
100
AcDbEntity
  8
0
100
AcDbBlockBegin
  2
AllgSicht1
 70
     0
 10
-1848.000000000033
 20
-2125.99999999995
 30
0.0
  3
AllgSicht1
  1

  0
INSERT
  5
4B
330
4A
100
AcDbEntity
  8
0
100
AcDbBlockReference
  2
HC-RBO_12-select__1
 10
-1913.387951015747
 20
-2181.370150157979
 30
0.0
  0
MTEXT
  5
F2
330
4A
100
AcDbEntity
  8
1
 62
     6
100
AcDbMText
 10
-1848.00000000003
 20
-2192.620148512158
 30
0.0
 40
10.0
 41
0.0
 71
     2
 72
     1
  1
 
  7
CONVERTER_11
 73
     1
 44
1.32052821128451
  0
ENDBLK
  5
4D
330
4A
100
AcDbEntity
  8
0
100
AcDbBlockEnd
  0
BLOCK
  5
4F
330
4E
100
AcDbEntity
  8
0
100
AcDbBlockBegin
  2
HC-RBO_12-select__2
 70
     0
 10
-2144.349999491325
 20
-2153.800001622918
 30
0.0
  3
HC-RBO_12-select__2
  1

  0
LINE
  5
F3
330
4E
100
AcDbEntity
  8
1
  6
DOT_CENTER
 62
     2
100
AcDbLine
 10
-2121.54999949108
 20
-2127.200001614906
 30
0.0
 11
-2121.54999949108
 21
-2131.600001614906
 31
0.0
  0
LINE
  5
F4
330
4E
100
AcDbEntity
  8
1
  6
DOT_CENTER
 62
     2
100
AcDbLine
 10
-2119.34999949108
 20
-2129.400001614906
 30
0.0
 11
-2123.74999949108
 21
-2129.400001614906
 31
0.0
  0
LINE
  5
F5
330
4E
100
AcDbEntity
  8
1
  6
DOT_CENTER
 62
     2
100
AcDbLine
 10
-2141.349999491223
 20
-2107.700001622615
 30
0.0
 11
-2141.349999491223
 21
-2106.20000162261
 31
0.0
  0
LINE
  5
F6
330
4E
100
AcDbEntity
  8
1
  6
DOT_CENTER
 62
     2
100
AcDbLine
 10
-2141.349999491217
 20
-2152.60000162256
 30
0.0
 11
-2141.349999491217
 21
-2151.100001622515
 31
0.0
  0
LINE
  5
F7
330
4E
100
AcDbEntity
  8
0
  6
Continuous
 62
     7
100
AcDbLine
 10
-2077.99996209136
 20
-2117.073235921849
 30
0.0
 11
-2097.549999491077
 21
-2128.360786383735
 31
0.0
  0
LINE
  5
F8
330
4E
100
AcDbEntity
  8
0
  6
Continuous
 62
     7
100
AcDbLine
 10
-2143.349999491225
 20
-2106.200001622614
 30
0.0
 11
-2139.349999491225
 21
-2106.20000162261
 31
0.0
  0
LINE
  5
F9
330
4E
100
AcDbEntity
  8
0
  6
Continuous
 62
     7
100
AcDbLine
 10
-2026.899999491228
 20
-2105.000001618875
 30
0.0
 11
-2133.160659662868
 21
-2105.000001618549
 31
0.0
  0
LINE
  5
FA
330
4E
100
AcDbEntity
  8
0
  6
Continuous
 62
     7
100
AcDbLine
 10
-2023.39999949125
 20
-2105.000001618882
 30
0.0
 11
-2026.899999491228
 21
-2105.000001618875
 31
0.0
  0
LINE
  5
FB
330
4E
100
AcDbEntity
  8
0
  6
Continuous
 62
     7
100
AcDbLine
 10
-2086.299999491131
 20
-2106.40000162244
 30
0.0
 11
-2088.512538799688
 21
-2106.400001622451
 31
0.0
  0
LINE
  5
FC
330
4E
100
AcDbEntity
  8
0
  6
Continuous
 62
     7
100
AcDbLine
 10
-2092.487460182559
 20
-2106.400001622451
 30
0.0
 11
-2094.699999491131
 21
-2106.40000162244
 31
0.0
  0
LINE
  5
FD
330
4E
100
AcDbEntity
  8
0
  6
Continuous
 62
     7
100
AcDbLine
 10
-2088.512538799688
 20
-2106.400001622451
 30
0.0
 11
-2092.487460182559
 21
-2106.400001622451
 31
0.0
  0
LINE
  5
FE
330
4E
100
AcDbEntity
  8
0
  6
Continuous
 62
     7
100
AcDbLine
 10
-2139.349999491223
 20
-2107.700001622611
 30
0.0
 11
-2139.349999491225
 21
-2106.20000162261
 31
0.0
  0
LINE
  5
FF
330
4E
100
AcDbEntity
  8
0
  6
Continuous
 62
     7
100
AcDbLine
 10
-2142.592640178379
 20
-2107.700001622624
 30
0.0
 11
-2139.66065966295
 21
-2107.700001622621
 31
0.0
  0
LINE
  5
100
330
4E
100
AcDbEntity
  8
0
  6
Continuous
 62
     7
100
AcDbLine
 10
-2138.049999491309
 20
-2107.700001622626
 30
0.0
 11
-2139.349999491223
 21
-2107.700001622611
 31
0.0
  0
LINE
  5
101
330
4E
100
AcDbEntity
  8
0
  6
Continuous
 62
     7
100
AcDbLine
 10
-2144.349999491198
 20
-2107.700001622619
 30
0.0
 11
-2143.349999491223
 21
-2107.700001622615
 31
0.0
  0
LINE
  5
102
330
4E
100
AcDbEntity
  8
0
  6
Continuous
 62
     7
100
AcDbLine
 10
-2143.349999491223
 20
-2107.700001622615
 30
0.0
 11
-2142.592640178379
 21
-2107.700001622624
 31
0.0
  0
LINE
  5
103
330
4E
100
AcDbEntity
  8
0
  6
Continuous
 62
     7
100
AcDbLine
 10
-2143.349999491223
 20
-2107.700001622615
 30
0.0
 11
-2143.349999491225
 21
-2106.200001622614
 31
0.0
  0
LINE
  5
104
330
4E
100
AcDbEntity
  8
0
  6
Continuous
 62
     7
100
AcDbLine
 10
-2026.8999994914
 20
-2153.800001622896
 30
0.0
 11
-2026.899999491228
 21
-2105.000001618875
 31
0.0
  0
LINE
  5
105
330
4E
100
AcDbEntity
  8
0
  6
Continuous
 62
     7
100
AcDbLine
 10
-2018.399999491307
 20
-2153.800001622918
 30
0.0
 11
-2018.399999491232
 21
-2105.000001618897
 31
0.0
  0
LINE
  5
106
330
4E
100
AcDbEntity
  8
0
  6
Continuous
 62
     7
100
AcDbLine
 10
-2023.39999949125
 20
-2105.000001618882
 30
0.0
 11
-2023.399999491432
 21
-2153.800001622903
 31
0.0
  0
LINE
  5
107
330
4E
100
AcDbEntity
  8
0
  6
Continuous
 62
     7
100
AcDbLine
 10
-2018.399999491232
 20
-2105.000001618897
 30
0.0
 11
-2023.39999949125
 21
-2105.000001618882
 31
0.0
  0
LINE
  5
108
330
4E
100
AcDbEntity
  8
0
  6
Continuous
 62
     7
100
AcDbLine
 10
-2088.512538799688
 20
-2107.80000162262
 30
0.0
 11
-2092.487460182559
 21
-2107.800001622621
 31
0.0
  0
LINE
  5
109
330
4E
100
AcDbEntity
  8
0
  6
Continuous
 62
     7
100
AcDbLine
 10
-2086.299999491131
 20
-2107.800001622609
 30
0.0
 11
-2088.512538799688
 21
-2107.80000162262
 31
0.0
  0
LINE
  5
10A
330
4E
100
AcDbEntity
  8
0
  6
Continuous
 62
     7
100
AcDbLine
 10
-2086.299999491131
 20
-2106.40000162244
 30
0.0
 11
-2086.299999491131
 21
-2107.800001622609
 31
0.0
  0
LINE
  5
10B
330
4E
100
AcDbEntity
  8
0
  6
Continuous
 62
     7
100
AcDbLine
 10
-2076.19994229061
 20
-2118.112462595642
 30
0.0
 11
-2077.99996209136
 21
-2117.073235921849
 31
0.0
  0
LINE
  5
10C
330
4E
100
AcDbEntity
  8
0
  6
Continuous
 62
     7
100
AcDbLine
 10
-2088.512538799688
 20
-2107.80000162262
 30
0.0
 11
-2088.512538799688
 21
-2106.400001622451
 31
0.0
  0
LINE
  5
10D
330
4E
100
AcDbEntity
  8
0
  6
Continuous
 62
     7
100
AcDbLine
 10
-2133.160659663115
 20
-2153.80000162257
 30
0.0
 11
-2138.049999491303
 21
-2153.80000162255
 31
0.0
  0
LINE
  5
10E
330
4E
100
AcDbEntity
  8
0
  6
Continuous
 62
     7
100
AcDbLine
 10
-2138.049999491303
 20
-2153.80000162255
 30
0.0
 11
-2138.049999491426
 21
-2151.100001622531
 31
0.0
  0
LINE
  5
10F
330
4E
100
AcDbEntity
  8
0
  6
Continuous
 62
     7
100
AcDbLine
 10
-2023.399999491432
 20
-2153.800001622903
 30
0.0
 11
-2018.399999491307
 21
-2153.800001622918
 31
0.0
  0
LINE
  5
110
330
4E
100
AcDbEntity
  8
0
  6
Continuous
 62
     7
100
AcDbLine
 10
-2133.160659663115
 20
-2153.80000162257
 30
0.0
 11
-2026.8999994914
 21
-2153.800001622896
 31
0.0
  0
LINE
  5
111
330
4E
100
AcDbEntity
  8
0
  6
Continuous
 62
     7
100
AcDbLine
 10
-2026.8999994914
 20
-2153.800001622896
 30
0.0
 11
-2023.399999491432
 21
-2153.800001622903
 31
0.0
  0
LINE
  5
112
330
4E
100
AcDbEntity
  8
0
  6
Continuous
 62
     7
100
AcDbLine
 10
-2076.199942290541
 20
-2140.687540655668
 30
0.0
 11
-2076.19994229061
 21
-2118.112462595642
 31
0.0
  0
LINE
  5
113
330
4E
100
AcDbEntity
  8
0
  6
Continuous
 62
     7
100
AcDbLine
 10
-2097.549999491071
 20
-2130.439216867704
 30
0.0
 11
-2077.999962091287
 21
-2141.726767329469
 31
0.0
  0
LINE
  5
114
330
4E
100
AcDbEntity
  8
0
  6
Continuous
 62
     7
100
AcDbLine
 10
-2077.999962091287
 20
-2141.726767329469
 30
0.0
 11
-2076.199942290541
 21
-2140.687540655668
 31
0.0
  0
LINE
  5
115
330
4E
100
AcDbEntity
  8
0
  6
Continuous
 62
     7
100
AcDbLine
 10
-2092.487460182559
 20
-2107.800001622621
 30
0.0
 11
-2094.699999491131
 21
-2107.80000162261
 31
0.0
  0
LINE
  5
116
330
4E
100
AcDbEntity
  8
0
  6
Continuous
 62
     7
100
AcDbLine
 10
-2097.549999491077
 20
-2128.360786383735
 30
0.0
 11
-2097.549999491071
 21
-2130.439216867704
 31
0.0
  0
LINE
  5
117
330
4E
100
AcDbEntity
  8
0
  6
Continuous
 62
     7
100
AcDbLine
 10
-2092.487460182559
 20
-2107.800001622621
 30
0.0
 11
-2092.487460182559
 21
-2106.400001622451
 31
0.0
  0
LINE
  5
118
330
4E
100
AcDbEntity
  8
0
  6
Continuous
 62
     7
100
AcDbLine
 10
-2094.699999491131
 20
-2106.40000162244
 30
0.0
 11
-2094.699999491131
 21
-2107.80000162261
 31
0.0
  0
LINE
  5
119
330
4E
100
AcDbEntity
  8
0
  6
Continuous
 62
     7
100
AcDbLine
 10
-2144.349999491325
 20
-2151.100001622519
 30
0.0
 11
-2144.349999491198
 21
-2107.700001622619
 31
0.0
  0
LINE
  5
11A
330
4E
100
AcDbEntity
  8
0
  6
Continuous
 62
     7
100
AcDbLine
 10
-2142.592640178248
 20
-2151.100001622525
 30
0.0
 11
-2142.592640178379
 21
-2107.700001622624
 31
0.0
  0
LINE
  5
11B
330
4E
100
AcDbEntity
  8
0
  6
Continuous
 62
     7
100
AcDbLine
 10
-2133.160659663115
 20
-2153.80000162257
 30
0.0
 11
-2133.160659662868
 21
-2105.000001618549
 31
0.0
  0
LINE
  5
11C
330
4E
100
AcDbEntity
  8
0
  6
Continuous
 62
     7
100
AcDbLine
 10
-2139.66065966307
 20
-2151.100001622525
 30
0.0
 11
-2142.592640178248
 21
-2151.100001622525
 31
0.0
  0
LINE
  5
11D
330
4E
100
AcDbEntity
  8
0
  6
Continuous
 62
     7
100
AcDbLine
 10
-2139.66065966295
 20
-2107.700001622621
 30
0.0
 11
-2139.66065966307
 21
-2151.100001622525
 31
0.0
  0
LINE
  5
11E
330
4E
100
AcDbEntity
  8
0
  6
Continuous
 62
     7
100
AcDbLine
 10
-2133.160659662868
 20
-2105.000001618549
 30
0.0
 11
-2138.049999491303
 21
-2105.000001618529
 31
0.0
  0
LINE
  5
11F
330
4E
100
AcDbEntity
  8
0
  6
Continuous
 62
     7
100
AcDbLine
 10
-2138.049999491309
 20
-2107.700001622626
 30
0.0
 11
-2138.049999491303
 21
-2105.000001618529
 31
0.0
  0
LINE
  5
120
330
4E
100
AcDbEntity
  8
0
  6
Continuous
 62
     7
100
AcDbLine
 10
-2139.349999491223
 20
-2107.700001622611
 30
0.0
 11
-2139.66065966295
 21
-2107.700001622621
 31
0.0
  0
LINE
  5
121
330
4E
100
AcDbEntity
  8
0
  6
Continuous
 62
     7
100
AcDbLine
 10
-2139.349999491217
 20
-2151.100001622515
 30
0.0
 11
-2138.049999491426
 21
-2151.100001622531
 31
0.0
  0
LINE
  5
122
330
4E
100
AcDbEntity
  8
0
  6
Continuous
 62
     7
100
AcDbLine
 10
-2139.66065966307
 20
-2151.100001622525
 30
0.0
 11
-2139.349999491217
 21
-2151.100001622515
 31
0.0
  0
LINE
  5
123
330
4E
100
AcDbEntity
  8
0
  6
Continuous
 62
     7
100
AcDbLine
 10
-2139.349999491217
 20
-2152.600001622559
 30
0.0
 11
-2139.349999491217
 21
-2151.100001622515
 31
0.0
  0
LINE
  5
124
330
4E
100
AcDbEntity
  8
0
  6
Continuous
 62
     7
100
AcDbLine
 10
-2143.349999491217
 20
-2151.100001622516
 30
0.0
 11
-2144.349999491325
 21
-2151.100001622519
 31
0.0
  0
LINE
  5
125
330
4E
100
AcDbEntity
  8
0
  6
Continuous
 62
     7
100
AcDbLine
 10
-2142.592640178248
 20
-2151.100001622525
 30
0.0
 11
-2143.349999491217
 21
-2151.100001622516
 31
0.0
  0
LINE
  5
126
330
4E
100
AcDbEntity
  8
0
  6
Continuous
 62
     7
100
AcDbLine
 10
-2143.349999491217
 20
-2152.60000162256
 30
0.0
 11
-2143.349999491217
 21
-2151.100001622516
 31
0.0
  0
LINE
  5
127
330
4E
100
AcDbEntity
  8
0
  6
Continuous
 62
     7
100
AcDbLine
 10
-2143.349999491217
 20
-2152.60000162256
 30
0.0
 11
-2139.349999491217
 21
-2152.600001622559
 31
0.0
  0
CIRCLE
  5
128
330
4E
100
AcDbEntity
  8
0
  6
Continuous
 62
     7
100
AcDbCircle
 10
-2121.54999949108
 20
-2129.400001614906
 30
0.0
 40
2.0
  0
ENDBLK
  5
50
330
4E
100
AcDbEntity
  8
0
100
AcDbBlockEnd
  0
BLOCK
  5
53
330
51
100
AcDbEntity
  8
0
100
AcDbBlockBegin
  2
Drfsicht1
 70
     0
 10
-2081.374998093392
 20
-2129.400001619031
 30
0.0
  3
Drfsicht1
  1

  0
INSERT
  5
52
330
51
100
AcDbEntity
  8
0
100
AcDbBlockReference
  2
HC-RBO_12-select__2
 10
-2144.349999491325
 20
-2153.800001622918
 30
0.0
  0
MTEXT
  5
129
330
51
100
AcDbEntity
  8
1
 62
     6
100
AcDbMText
 10
-2081.37499809339
 20
-2163.800001237948
 30
0.0
 40
10.0
 41
0.0
 71
     2
 72
     1
  1
 
  7
CONVERTER_11
 73
     1
 44
1.32052821128451
  0
DIMENSION
  5
134
330
51
100
AcDbEntity
  8
1
100
AcDbDimension
  2
*D17
 10
-2165.107134871661
 20
-2153.80000162257
 30
0.0
 11
-2172.957134871661
 21
-2129.4211633225
 31
0.0
 70
    32
  1
<>
 71
     5
 42
-1.0
 53
90.0
  3
ME10_DIM_10
100
AcDbAlignedDimension
 13
-2133.160659662868
 23
-2105.000001618549
 33
0.0
 14
-2133.160659663115
 24
-2153.80000162257
 34
0.0
 50
90.0
100
AcDbRotatedDimension
  0
ENDBLK
  5
54
330
51
100
AcDbEntity
  8
0
100
AcDbBlockEnd
  0
BLOCK
  5
56
330
55
100
AcDbEntity
  8
0
100
AcDbBlockBegin
  2
HC-RBO_12-select__3
 70
     0
 10
-1873.600000881957
 20
-2015.000001671045
 30
0.0
  3
HC-RBO_12-select__3
  1

  0
LINE
  5
135
330
55
100
AcDbEntity
  8
1
  6
DOT_CENTER
 62
     2
100
AcDbLine
 10
-1750.650000881965
 20
-1951.800001670578
 30
0.0
 11
-1750.650000881965
 21
-1956.200001670578
 31
0.0
  0
LINE
  5
136
330
55
100
AcDbEntity
  8
1
  6
DOT_CENTER
 62
     2
100
AcDbLine
 10
-1748.450000881965
 20
-1954.000001670578
 30
0.0
 11
-1752.850000881965
 21
-1954.000001670578
 31
0.0
  0
LINE
  5
137
330
55
100
AcDbEntity
  8
0
  6
Continuous
 62
     7
100
AcDbLine
 10
-1868.600000881888
 20
-2015.000001671045
 30
0.0
 11
-1868.600000881962
 21
-1950.000001671117
 31
0.0
  0
LINE
  5
138
330
55
100
AcDbEntity
  8
0
  6
Continuous
 62
     7
100
AcDbLine
 10
-1873.600000881957
 20
-1948.500001671064
 30
0.0
 11
-1868.600000881939
 21
-1948.500001671079
 31
0.0
  0
LINE
  5
139
330
55
100
AcDbEntity
  8
0
  6
Continuous
 62
     7
100
AcDbLine
 10
-1753.950000881887
 20
-1949.889341498981
 30
0.0
 11
-1752.33934071024
 21
-1951.500001670612
 31
0.0
  0
LINE
  5
13A
330
55
100
AcDbEntity
  8
0
  6
Continuous
 62
     7
100
AcDbLine
 10
-1805.872726628389
 20
-1951.500001670838
 30
0.0
 11
-1797.300000882054
 21
-1951.500001670798
 31
0.0
  0
LINE
  5
13B
330
55
100
AcDbEntity
  8
0
  6
Continuous
 62
     7
100
AcDbLine
 10
-1807.125957243506
 20
-1951.500001670842
 30
0.0
 11
-1805.872726628389
 21
-1951.500001670838
 31
0.0
  0
LINE
  5
13C
330
55
100
AcDbEntity
  8
0
  6
Continuous
 62
     7
100
AcDbLine
 10
-1868.600000881962
 20
-1950.000001671117
 30
0.0
 11
-1873.600000881956
 21
-1950.000001671122
 31
0.0
  0
LINE
  5
13D
330
55
100
AcDbEntity
  8
0
  6
Continuous
 62
     7
100
AcDbLine
 10
-1797.300000882054
 20
-1951.500001670798
 30
0.0
 11
-1753.950000881976
 21
-1951.500001670591
 31
0.0
  0
LINE
  5
13E
330
55
100
AcDbEntity
  8
0
  6
Continuous
 62
     7
100
AcDbLine
 10
-1753.950000881976
 20
-1951.500001670591
 30
0.0
 11
-1753.950000881887
 21
-1949.889341498981
 31
0.0
  0
LINE
  5
13F
330
55
100
AcDbEntity
  8
0
  6
Continuous
 62
     7
100
AcDbLine
 10
-1749.407360194811
 20
-1951.500001670625
 30
0.0
 11
-1752.33934071024
 21
-1951.500001670612
 31
0.0
  0
LINE
  5
140
330
55
100
AcDbEntity
  8
0
  6
Continuous
 62
     7
100
AcDbLine
 10
-1753.950000881959
 20
-1956.500001670683
 30
0.0
 11
-1797.300000882049
 21
-1956.500001670732
 31
0.0
  0
LINE
  5
141
330
55
100
AcDbEntity
  8
0
  6
Continuous
 62
     7
100
AcDbLine
 10
-1747.650000881992
 20
-1953.257360983432
 30
0.0
 11
-1749.407360194811
 21
-1951.500001670625
 31
0.0
  0
LINE
  5
142
330
55
100
AcDbEntity
  8
0
  6
Continuous
 62
     7
100
AcDbLine
 10
-1748.516026285857
 20
-1956.500001670676
 30
0.0
 11
-1747.650000881982
 21
-1956.00000167062
 31
0.0
  0
LINE
  5
143
330
55
100
AcDbEntity
  8
0
  6
Continuous
 62
     7
100
AcDbLine
 10
-1808.765310163134
 20
-1956.500001670745
 30
0.0
 11
-1810.012708589331
 21
-1956.500001670747
 31
0.0
  0
LINE
  5
144
330
55
100
AcDbEntity
  8
0
  6
Continuous
 62
     7
100
AcDbLine
 10
-1748.516026285857
 20
-1956.500001670676
 30
0.0
 11
-1753.950000881959
 21
-1956.500001670683
 31
0.0
  0
LINE
  5
145
330
55
100
AcDbEntity
  8
0
  6
Continuous
 62
     7
100
AcDbLine
 10
-1747.650000881992
 20
-1953.257360983432
 30
0.0
 11
-1747.650000881982
 21
-1956.00000167062
 31
0.0
  0
LINE
  5
146
330
55
100
AcDbEntity
  8
0
  6
Continuous
 62
     7
100
AcDbLine
 10
-1753.950000881976
 20
-1951.500001670591
 30
0.0
 11
-1753.950000881959
 21
-1956.500001670683
 31
0.0
  0
LINE
  5
147
330
55
100
AcDbEntity
  8
0
  6
Continuous
 62
     7
100
AcDbLine
 10
-1758.839340710322
 20
-1945.00000167058
 30
0.0
 11
-1753.950000881887
 21
-1949.889341498981
 31
0.0
  0
LINE
  5
148
330
55
100
AcDbEntity
  8
0
  6
Continuous
 62
     7
100
AcDbLine
 10
-1873.600000881956
 20
-1950.000001671122
 30
0.0
 11
-1873.600000881957
 21
-1948.500001671064
 31
0.0
  0
LINE
  5
149
330
55
100
AcDbEntity
  8
0
  6
Continuous
 62
     7
100
AcDbLine
 10
-1797.30000088206
 20
-1945.000001670841
 30
0.0
 11
-1758.839340710322
 21
-1945.00000167058
 31
0.0
  0
LINE
  5
14A
330
55
100
AcDbEntity
  8
0
  6
Continuous
 62
     7
100
AcDbLine
 10
-1865.100000881962
 20
-1945.000001671077
 30
0.0
 11
-1805.700000882059
 21
-1945.000001670871
 31
0.0
  0
LINE
  5
14B
330
55
100
AcDbEntity
  8
0
  6
Continuous
 62
     7
100
AcDbLine
 10
-1805.700000882059
 20
-1945.000001670871
 30
0.0
 11
-1797.30000088206
 21
-1945.000001670841
 31
0.0
  0
LINE
  5
14C
330
55
100
AcDbEntity
  8
0
  6
Continuous
 62
     7
100
AcDbLine
 10
-1868.600000881939
 20
-1948.500001671079
 30
0.0
 11
-1865.100000881962
 21
-1945.000001671077
 31
0.0
  0
LINE
  5
14D
330
55
100
AcDbEntity
  8
0
  6
Continuous
 62
     7
100
AcDbLine
 10
-1824.589406190636
 20
-2015.000001670837
 30
0.0
 11
-1868.600000881888
 21
-2015.000001671045
 31
0.0
  0
LINE
  5
14E
330
55
100
AcDbEntity
  8
0
  6
Continuous
 62
     7
100
AcDbLine
 10
-1813.05000102874
 20
-2010.800001670748
 30
0.0
 11
-1824.589406190636
 21
-2015.000001670837
 31
0.0
  0
LINE
  5
14F
330
55
100
AcDbEntity
  8
0
  6
Continuous
 62
     7
100
AcDbLine
 10
-1811.860155562727
 20
-1961.849623146374
 30
0.0
 11
-1811.571553413237
 21
-1962.350001814595
 31
0.0
  0
LINE
  5
150
330
55
100
AcDbEntity
  8
0
  6
Continuous
 62
     7
100
AcDbLine
 10
-1813.050001028947
 20
-1961.760746493663
 30
0.0
 11
-1813.05000102874
 21
-2010.800001670748
 31
0.0
  0
LINE
  5
151
330
55
100
AcDbEntity
  8
0
  6
Continuous
 62
     7
100
AcDbLine
 10
-1811.860155562727
 20
-1961.849623146374
 30
0.0
 11
-1805.872726628389
 21
-1951.500001670838
 31
0.0
  0
LINE
  5
152
330
55
100
AcDbEntity
  8
0
  6
Continuous
 62
     7
100
AcDbLine
 10
-1807.125957243506
 20
-1951.500001670842
 30
0.0
 11
-1813.050001028947
 21
-1961.760746493663
 31
0.0
  0
LINE
  5
153
330
55
100
AcDbEntity
  8
0
  6
Continuous
 62
     7
100
AcDbLine
 10
-1803.487461573502
 20
-1941.000001671082
 30
0.0
 11
-1799.512540190631
 21
-1941.000001671074
 31
0.0
  0
LINE
  5
154
330
55
100
AcDbEntity
  8
0
  6
Continuous
 62
     7
100
AcDbLine
 10
-1805.700000882059
 20
-1945.000001670871
 30
0.0
 11
-1805.700000882059
 21
-1944.700001671087
 31
0.0
  0
LINE
  5
155
330
55
100
AcDbEntity
  8
0
  6
Continuous
 62
     7
100
AcDbLine
 10
-1797.300000882059
 20
-1944.70000167107
 30
0.0
 11
-1797.30000088206
 21
-1945.000001670841
 31
0.0
  0
LINE
  5
156
330
55
100
AcDbEntity
  8
0
  6
Continuous
 62
     7
100
AcDbLine
 10
-1803.500000882059
 20
-1944.700001671082
 30
0.0
 11
-1799.500000882059
 21
-1944.700001671075
 31
0.0
  0
LINE
  5
157
330
55
100
AcDbEntity
  8
0
  6
Continuous
 62
     7
100
AcDbLine
 10
-1797.300000882054
 20
-1951.500001670798
 30
0.0
 11
-1797.300000882044
 21
-1962.3500018146
 31
0.0
  0
LINE
  5
158
330
55
100
AcDbEntity
  8
0
  6
Continuous
 62
     7
100
AcDbLine
 10
-1797.300000882044
 20
-1962.3500018146
 30
0.0
 11
-1811.571553413237
 21
-1962.350001814595
 31
0.0
  0
ARC
  5
159
330
55
100
AcDbEntity
  8
0
  6
Continuous
 62
     7
100
AcDbCircle
 10
-1801.500000882059
 20
-1944.700001671079
 30
0.0
 40
4.200000000000045
100
AcDbArc
 50
0.00000000012407
 51
61.75746281568208
  0
ARC
  5
15A
330
55
100
AcDbEntity
  8
0
  6
Continuous
 62
     7
100
AcDbCircle
 10
-1801.500000882059
 20
-1944.700001671079
 30
0.0
 40
4.200000000001112
100
AcDbArc
 50
118.2425371845469
 51
180.0000000001085
  0
ARC
  5
15B
330
55
100
AcDbEntity
  8
0
  6
Continuous
 62
     7
100
AcDbCircle
 10
-1801.500000882059
 20
-1944.700001671079
 30
0.0
 40
2.0
100
AcDbArc
 50
0.00000000011725
 51
180.0000000000847
  0
CIRCLE
  5
15C
330
55
100
AcDbEntity
  8
0
  6
Continuous
 62
     7
100
AcDbCircle
 10
-1750.650000881965
 20
-1954.000001670578
 30
0.0
 40
2.0
  0
ENDBLK
  5
57
330
55
100
AcDbEntity
  8
0
100
AcDbBlockEnd
  0
BLOCK
  5
5A
330
58
100
AcDbEntity
  8
0
100
AcDbBlockBegin
  2
Rckans1
 70
     0
 10
-1810.625002279798
 20
-1979.99999999995
 30
0.0
  3
Rckans1
  1

  0
INSERT
  5
59
330
58
100
AcDbEntity
  8
0
100
AcDbBlockReference
  2
HC-RBO_12-select__3
 10
-1873.600000881957
 20
-2015.000001671045
 30
0.0
  0
MTEXT
  5
15D
330
58
100
AcDbEntity
  8
1
 62
     6
100
AcDbMText
 10
-1810.625002279798
 20
-2025.000000000092
 30
0.0
 40
10.0
 41
0.0
 71
     2
 72
     1
  1
 
  7
CONVERTER_11
 73
     1
 44
1.32052821128451
  0
ENDBLK
  5
5B
330
58
100
AcDbEntity
  8
0
100
AcDbBlockEnd
  0
BLOCK
  5
5D
330
5C
100
AcDbEntity
  8
0
100
AcDbBlockBegin
  2
HC-RBO_12-select__4
 70
     0
 10
-1973.939881021758
 20
-2015.000001671065
 30
0.0
  3
HC-RBO_12-select__4
  1

  0
LINE
  5
15E
330
5C
100
AcDbEntity
  8
1
  6
DOT_CENTER
 62
     2
100
AcDbLine
 10
-1971.239881017665
 20
-1954.000001670534
 30
0.0
 11
-1972.739881017682
 21
-1954.000001670534
 31
0.0
  0
LINE
  5
15F
330
5C
100
AcDbEntity
  8
1
  6
DOT_CENTER
 62
     2
100
AcDbLine
 10
-1926.339881017719
 20
-1954.000001670715
 30
0.0
 11
-1927.839881017779
 21
-1954.000001670715
 31
0.0
  0
LINE
  5
160
330
5C
100
AcDbEntity
  8
0
  6
Continuous
 62
     7
100
AcDbLine
 10
-1927.839881017763
 20
-1952.000001670708
 30
0.0
 11
-1927.839881017768
 21
-1953.257360983727
 31
0.0
  0
LINE
  5
161
330
5C
100
AcDbEntity
  8
0
  6
Continuous
 62
     7
100
AcDbLine
 10
-1927.839881017768
 20
-1953.257360983727
 30
0.0
 11
-1971.239881017667
 21
-1953.257360983381
 31
0.0
  0
LINE
  5
162
330
5C
100
AcDbEntity
  8
0
  6
Continuous
 62
     7
100
AcDbLine
 10
-1927.839881017761
 20
-1951.500001670619
 30
0.0
 11
-1927.839881017763
 21
-1952.000001670708
 31
0.0
  0
LINE
  5
163
330
5C
100
AcDbEntity
  8
0
  6
Continuous
 62
     7
100
AcDbLine
 10
-1972.539881017847
 20
-1945.000001670791
 30
0.0
 11
-1973.939881021738
 21
-1945.00000167053
 31
0.0
  0
LINE
  5
164
330
5C
100
AcDbEntity
  8
0
  6
Continuous
 62
     7
100
AcDbLine
 10
-1971.139881017677
 20
-1945.000001670793
 30
0.0
 11
-1972.539881017847
 21
-1945.000001670791
 31
0.0
  0
LINE
  5
165
330
5C
100
AcDbEntity
  8
0
  6
Continuous
 62
     7
100
AcDbLine
 10
-1971.23988101766
 20
-1949.889341498933
 30
0.0
 11
-1971.239881017667
 21
-1951.500001670549
 31
0.0
  0
LINE
  5
166
330
5C
100
AcDbEntity
  8
0
  6
Continuous
 62
     7
100
AcDbLine
 10
-1971.239881017667
 20
-1953.257360983381
 30
0.0
 11
-1971.239881017665
 21
-1952.000001670534
 31
0.0
  0
LINE
  5
167
330
5C
100
AcDbEntity
  8
0
  6
Continuous
 62
     7
100
AcDbLine
 10
-1971.239881017665
 20
-1952.000001670534
 30
0.0
 11
-1971.239881017667
 21
-1951.500001670549
 31
0.0
  0
LINE
  5
168
330
5C
100
AcDbEntity
  8
0
  6
Continuous
 62
     7
100
AcDbLine
 10
-1927.839881017761
 20
-1951.500001670619
 30
0.0
 11
-1927.839881017755
 21
-1949.889341498986
 31
0.0
  0
LINE
  5
169
330
5C
100
AcDbEntity
  8
0
  6
Continuous
 62
     7
100
AcDbLine
 10
-1925.139881017575
 20
-1951.500001670998
 30
0.0
 11
-1925.139881017736
 21
-1949.889341498859
 31
0.0
  0
LINE
  5
16A
330
5C
100
AcDbEntity
  8
0
  6
Continuous
 62
     7
100
AcDbLine
 10
-1925.139881017716
 20
-1945.000001670705
 30
0.0
 11
-1971.139881017677
 21
-1945.000001670793
 31
0.0
  0
LINE
  5
16B
330
5C
100
AcDbEntity
  8
0
  6
Continuous
 62
     7
100
AcDbLine
 10
-1925.139881017575
 20
-1951.500001670998
 30
0.0
 11
-1926.539881021322
 21
-1951.500001670993
 31
0.0
  0
LINE
  5
16C
330
5C
100
AcDbEntity
  8
0
  6
Continuous
 62
     7
100
AcDbLine
 10
-1926.339881017719
 20
-1952.000001670715
 30
0.0
 11
-1927.839881017763
 21
-1952.000001670708
 31
0.0
  0
LINE
  5
16D
330
5C
100
AcDbEntity
  8
0
  6
Continuous
 62
     7
100
AcDbLine
 10
-1927.839881017761
 20
-1951.500001670619
 30
0.0
 11
-1971.239881017667
 21
-1951.500001670549
 31
0.0
  0
LINE
  5
16E
330
5C
100
AcDbEntity
  8
0
  6
Continuous
 62
     7
100
AcDbLine
 10
-1926.539881021322
 20
-1951.500001670993
 30
0.0
 11
-1927.839881017761
 21
-1951.500001670619
 31
0.0
  0
LINE
  5
16F
330
5C
100
AcDbEntity
  8
0
  6
Continuous
 62
     7
100
AcDbLine
 10
-1966.039881017467
 20
-1965.000001671054
 30
0.0
 11
-1966.03988101737
 21
-2010.000001670946
 31
0.0
  0
LINE
  5
170
330
5C
100
AcDbEntity
  8
0
  6
Continuous
 62
     7
100
AcDbLine
 10
-1969.039881017769
 20
-1971.151152243069
 30
0.0
 11
-1970.539881017746
 21
-1971.151152243063
 31
0.0
  0
LINE
  5
171
330
5C
100
AcDbEntity
  8
0
  6
Continuous
 62
     7
100
AcDbLine
 10
-1969.039881017769
 20
-1971.151152243069
 30
0.0
 11
-1969.039881017703
 21
-1956.500001670801
 31
0.0
  0
LINE
  5
172
330
5C
100
AcDbEntity
  8
0
  6
Continuous
 62
     7
100
AcDbLine
 10
-1971.239881017667
 20
-1953.257360983381
 30
0.0
 11
-1971.239881017679
 21
-1956.00000167057
 31
0.0
  0
LINE
  5
173
330
5C
100
AcDbEntity
  8
0
  6
Continuous
 62
     7
100
AcDbLine
 10
-1970.539881017746
 20
-1971.151152243063
 30
0.0
 11
-1970.539881017701
 21
-1956.500001670795
 31
0.0
  0
LINE
  5
174
330
5C
100
AcDbEntity
  8
0
  6
Continuous
 62
     7
100
AcDbLine
 10
-1969.039881017703
 20
-1956.500001670801
 30
0.0
 11
-1970.539881017701
 21
-1956.500001670795
 31
0.0
  0
LINE
  5
175
330
5C
100
AcDbEntity
  8
0
  6
Continuous
 62
     7
100
AcDbLine
 10
-1969.039881017849
 20
-1991.151152242976
 30
0.0
 11
-1969.039881017769
 21
-1971.151152243069
 31
0.0
  0
LINE
  5
176
330
5C
100
AcDbEntity
  8
0
  6
Continuous
 62
     7
100
AcDbLine
 10
-1970.539881017807
 20
-1991.151152243063
 30
0.0
 11
-1970.539881017746
 21
-1971.151152243063
 31
0.0
  0
LINE
  5
177
330
5C
100
AcDbEntity
  8
0
  6
Continuous
 62
     7
100
AcDbLine
 10
-1970.539881017807
 20
-1991.151152243063
 30
0.0
 11
-1969.039881017849
 21
-1991.151152242976
 31
0.0
  0
LINE
  5
178
330
5C
100
AcDbEntity
  8
0
  6
Continuous
 62
     7
100
AcDbLine
 10
-1928.539881017759
 20
-1991.151152243062
 30
0.0
 11
-1928.539881017698
 21
-1971.151152243232
 31
0.0
  0
LINE
  5
179
330
5C
100
AcDbEntity
  8
0
  6
Continuous
 62
     7
100
AcDbLine
 10
-1926.539881021429
 20
-2010.800001670712
 30
0.0
 11
-1926.539881021318
 21
-2015.000001671036
 31
0.0
  0
LINE
  5
17A
330
5C
100
AcDbEntity
  8
0
  6
Continuous
 62
     7
100
AcDbLine
 10
-1926.539881021366
 20
-1991.151152243067
 30
0.0
 11
-1926.539881021429
 21
-2010.800001670712
 31
0.0
  0
LINE
  5
17B
330
5C
100
AcDbEntity
  8
0
  6
Continuous
 62
     7
100
AcDbLine
 10
-1925.139881017617
 20
-2010.800001670757
 30
0.0
 11
-1926.539881021429
 21
-2010.800001670712
 31
0.0
  0
LINE
  5
17C
330
5C
100
AcDbEntity
  8
0
  6
Continuous
 62
     7
100
AcDbLine
 10
-1928.043055537994
 20
-2015.000001671034
 30
0.0
 11
-1926.539881021318
 21
-2015.000001671036
 31
0.0
  0
LINE
  5
17D
330
5C
100
AcDbEntity
  8
0
  6
Continuous
 62
     7
100
AcDbLine
 10
-1926.539881021366
 20
-1991.151152243067
 30
0.0
 11
-1928.539881017759
 21
-1991.151152243062
 31
0.0
  0
LINE
  5
17E
330
5C
100
AcDbEntity
  8
0
  6
Continuous
 62
     7
100
AcDbLine
 10
-1971.139881017665
 20
-1941.000001671029
 30
0.0
 11
-1971.139881017676
 21
-1944.700001671024
 31
0.0
  0
LINE
  5
17F
330
5C
100
AcDbEntity
  8
0
  6
Continuous
 62
     7
100
AcDbLine
 10
-1972.539881017835
 20
-1941.000001671024
 30
0.0
 11
-1972.539881017846
 21
-1944.70000167102
 31
0.0
  0
LINE
  5
180
330
5C
100
AcDbEntity
  8
0
  6
Continuous
 62
     7
100
AcDbLine
 10
-1973.239881017867
 20
-1951.500001670748
 30
0.0
 11
-1973.2398810179
 21
-1962.35000181455
 31
0.0
  0
LINE
  5
181
330
5C
100
AcDbEntity
  8
0
  6
Continuous
 62
     7
100
AcDbLine
 10
-1971.43988101771
 20
-1956.000001670533
 30
0.0
 11
-1971.43988101773
 21
-1962.350001814555
 31
0.0
  0
LINE
  5
182
330
5C
100
AcDbEntity
  8
0
  6
Continuous
 62
     7
100
AcDbLine
 10
-1973.939881021588
 20
-1961.760746493613
 30
0.0
 11
-1973.939881021638
 21
-2010.800001670698
 31
0.0
  0
LINE
  5
183
330
5C
100
AcDbEntity
  8
0
  6
Continuous
 62
     7
100
AcDbLine
 10
-1972.539881017761
 20
-1962.350001814552
 30
0.0
 11
-1972.539881017796
 21
-1991.151152242974
 31
0.0
  0
LINE
  5
184
330
5C
100
AcDbEntity
  8
0
  6
Continuous
 62
     7
100
AcDbLine
 10
-1972.539881017796
 20
-1991.151152242974
 30
0.0
 11
-1972.539881017858
 21
-2010.800001670666
 31
0.0
  0
LINE
  5
185
330
5C
100
AcDbEntity
  8
0
  6
Continuous
 62
     7
100
AcDbLine
 10
-1972.539881017858
 20
-2010.800001670666
 30
0.0
 11
-1973.939881021638
 21
-2010.800001670698
 31
0.0
  0
LINE
  5
186
330
5C
100
AcDbEntity
  8
0
  6
Continuous
 62
     7
100
AcDbLine
 10
-1973.939881021588
 20
-1961.760746493613
 30
0.0
 11
-1973.239881017898
 21
-1961.760746493632
 31
0.0
  0
LINE
  5
187
330
5C
100
AcDbEntity
  8
0
  6
Continuous
 62
     7
100
AcDbLine
 10
-1972.739881017672
 20
-1954.000001670521
 30
0.0
 11
-1972.739881017666
 21
-1952.000001670528
 31
0.0
  0
LINE
  5
188
330
5C
100
AcDbEntity
  8
0
  6
Continuous
 62
     7
100
AcDbLine
 10
-1972.739881017682
 20
-1956.000001670528
 30
0.0
 11
-1972.739881017672
 21
-1954.000001670521
 31
0.0
  0
LINE
  5
189
330
5C
100
AcDbEntity
  8
0
  6
Continuous
 62
     7
100
AcDbLine
 10
-1973.939881021596
 20
-1951.500001670792
 30
0.0
 11
-1973.939881021588
 21
-1961.760746493613
 31
0.0
  0
LINE
  5
18A
330
5C
100
AcDbEntity
  8
0
  6
Continuous
 62
     7
100
AcDbLine
 10
-1971.239881017667
 20
-1951.500001670549
 30
0.0
 11
-1973.239881017867
 21
-1951.500001670748
 31
0.0
  0
LINE
  5
18B
330
5C
100
AcDbEntity
  8
0
  6
Continuous
 62
     7
100
AcDbLine
 10
-1971.239881017679
 20
-1956.00000167057
 30
0.0
 11
-1972.739881017682
 21
-1956.000001670528
 31
0.0
  0
LINE
  5
18C
330
5C
100
AcDbEntity
  8
0
  6
Continuous
 62
     7
100
AcDbLine
 10
-1971.239881017665
 20
-1952.000001670534
 30
0.0
 11
-1972.739881017666
 21
-1952.000001670528
 31
0.0
  0
LINE
  5
18D
330
5C
100
AcDbEntity
  8
0
  6
Continuous
 62
     7
100
AcDbLine
 10
-1973.2398810179
 20
-1962.35000181455
 30
0.0
 11
-1971.43988101773
 21
-1962.350001814555
 31
0.0
  0
LINE
  5
18E
330
5C
100
AcDbEntity
  8
0
  6
Continuous
 62
     7
100
AcDbLine
 10
-1971.23988101766
 20
-1949.889341498933
 30
0.0
 11
-1973.939881021758
 21
-1949.889341498931
 31
0.0
  0
LINE
  5
18F
330
5C
100
AcDbEntity
  8
0
  6
Continuous
 62
     7
100
AcDbLine
 10
-1971.239881017681
 20
-1956.500001670626
 30
0.0
 11
-1971.239881017679
 21
-1956.00000167057
 31
0.0
  0
LINE
  5
190
330
5C
100
AcDbEntity
  8
0
  6
Continuous
 62
     7
100
AcDbLine
 10
-1973.939881021596
 20
-1951.500001670792
 30
0.0
 11
-1973.939881021758
 21
-1949.889341498931
 31
0.0
  0
LINE
  5
191
330
5C
100
AcDbEntity
  8
0
  6
Continuous
 62
     7
100
AcDbLine
 10
-1973.239881017867
 20
-1951.500001670748
 30
0.0
 11
-1973.939881021596
 21
-1951.500001670792
 31
0.0
  0
LINE
  5
192
330
5C
100
AcDbEntity
  8
0
  6
Continuous
 62
     7
100
AcDbLine
 10
-1973.939881021738
 20
-1945.00000167053
 30
0.0
 11
-1973.939881021758
 21
-1949.889341498931
 31
0.0
  0
LINE
  5
193
330
5C
100
AcDbEntity
  8
0
  6
Continuous
 62
     7
100
AcDbLine
 10
-1971.139881017665
 20
-1941.000001671029
 30
0.0
 11
-1972.539881017835
 21
-1941.000001671024
 31
0.0
  0
LINE
  5
194
330
5C
100
AcDbEntity
  8
0
  6
Continuous
 62
     2
100
AcDbLine
 10
-1971.139881017676
 20
-1944.700001671024
 30
0.0
 11
-1972.539881017846
 21
-1944.70000167102
 31
0.0
  0
LINE
  5
195
330
5C
100
AcDbEntity
  8
0
  6
Continuous
 62
     7
100
AcDbLine
 10
-1972.539881017846
 20
-1944.70000167102
 30
0.0
 11
-1972.539881017847
 21
-1945.000001670791
 31
0.0
  0
LINE
  5
196
330
5C
100
AcDbEntity
  8
0
  6
Continuous
 62
     7
100
AcDbLine
 10
-1971.139881017677
 20
-1945.000001670793
 30
0.0
 11
-1971.139881017676
 21
-1944.700001671024
 31
0.0
  0
LINE
  5
197
330
5C
100
AcDbEntity
  8
0
  6
Continuous
 62
     7
100
AcDbLine
 10
-1933.039881017503
 20
-2010.003244686753
 30
0.0
 11
-1933.03988101741
 21
-1965.000001671045
 31
0.0
  0
LINE
  5
198
330
5C
100
AcDbEntity
  8
0
  6
Continuous
 62
     7
100
AcDbLine
 10
-1930.039881017755
 20
-1971.151152243226
 30
0.0
 11
-1928.539881017698
 21
-1971.151152243232
 31
0.0
  0
LINE
  5
199
330
5C
100
AcDbEntity
  8
0
  6
Continuous
 62
     7
100
AcDbLine
 10
-1930.03988101775
 20
-1956.500001670958
 30
0.0
 11
-1930.039881017755
 21
-1971.151152243226
 31
0.0
  0
LINE
  5
19A
330
5C
100
AcDbEntity
  8
0
  6
Continuous
 62
     7
100
AcDbLine
 10
-1928.539881017698
 20
-1971.151152243232
 30
0.0
 11
-1928.539881017653
 21
-1956.500001670964
 31
0.0
  0
LINE
  5
19B
330
5C
100
AcDbEntity
  8
0
  6
Continuous
 62
     7
100
AcDbLine
 10
-1927.839881017779
 20
-1956.000001670744
 30
0.0
 11
-1927.839881017768
 21
-1953.257360983727
 31
0.0
  0
LINE
  5
19C
330
5C
100
AcDbEntity
  8
0
  6
Continuous
 62
     7
100
AcDbLine
 10
-1927.839881017781
 20
-1956.500001670801
 30
0.0
 11
-1928.539881017653
 21
-1956.500001670964
 31
0.0
  0
LINE
  5
19D
330
5C
100
AcDbEntity
  8
0
  6
Continuous
 62
     7
100
AcDbLine
 10
-1927.839881017779
 20
-1956.000001670744
 30
0.0
 11
-1927.839881017781
 21
-1956.500001670801
 31
0.0
  0
LINE
  5
19E
330
5C
100
AcDbEntity
  8
0
  6
Continuous
 62
     7
100
AcDbLine
 10
-1928.539881017653
 20
-1956.500001670964
 30
0.0
 11
-1930.03988101775
 21
-1956.500001670958
 31
0.0
  0
LINE
  5
19F
330
5C
100
AcDbEntity
  8
0
  6
Continuous
 62
     7
100
AcDbLine
 10
-1930.039881017755
 20
-1971.151152243226
 30
0.0
 11
-1930.039881017752
 21
-1991.151152243055
 31
0.0
  0
LINE
  5
1A0
330
5C
100
AcDbEntity
  8
0
  6
Continuous
 62
     7
100
AcDbLine
 10
-1928.539881017759
 20
-1991.151152243062
 30
0.0
 11
-1930.039881017752
 21
-1991.151152243055
 31
0.0
  0
LINE
  5
1A1
330
5C
100
AcDbEntity
  8
0
  6
Continuous
 62
     7
100
AcDbLine
 10
-1933.039881017503
 20
-2010.003244686753
 30
0.0
 11
-1928.043055537994
 21
-2015.000001671034
 31
0.0
  0
LINE
  5
1A2
330
5C
100
AcDbEntity
  8
0
  6
Continuous
 62
     7
100
AcDbLine
 10
-1972.539881017858
 20
-2010.800001670666
 30
0.0
 11
-1972.539881017841
 21
-2015.000001670788
 31
0.0
  0
LINE
  5
1A3
330
5C
100
AcDbEntity
  8
0
  6
Continuous
 62
     7
100
AcDbLine
 10
-1973.939881021606
 20
-2015.000001670787
 30
0.0
 11
-1972.539881017841
 21
-2015.000001670788
 31
0.0
  0
LINE
  5
1A4
330
5C
100
AcDbEntity
  8
0
  6
Continuous
 62
     7
100
AcDbLine
 10
-1972.539881017841
 20
-2015.000001670788
 30
0.0
 11
-1971.039881017523
 21
-2015.000001671065
 31
0.0
  0
LINE
  5
1A5
330
5C
100
AcDbEntity
  8
0
  6
Continuous
 62
     7
100
AcDbLine
 10
-1926.53988102133
 20
-1961.760746493711
 30
0.0
 11
-1925.139881017567
 21
-1961.760746493705
 31
0.0
  0
LINE
  5
1A6
330
5C
100
AcDbEntity
  8
0
  6
Continuous
 62
     7
100
AcDbLine
 10
-1926.53988102133
 20
-1961.760746493711
 30
0.0
 11
-1926.539881021196
 21
-1956.000001670714
 31
0.0
  0
LINE
  5
1A7
330
5C
100
AcDbEntity
  8
0
  6
Continuous
 62
     7
100
AcDbLine
 10
-1926.539881021188
 20
-1952.000001670714
 30
0.0
 11
-1926.539881021322
 21
-1951.500001670993
 31
0.0
  0
LINE
  5
1A8
330
5C
100
AcDbEntity
  8
0
  6
Continuous
 62
     7
100
AcDbLine
 10
-1926.339881017735
 20
-1956.000001670715
 30
0.0
 11
-1927.839881017779
 21
-1956.000001670744
 31
0.0
  0
LINE
  5
1A9
330
5C
100
AcDbEntity
  8
0
  6
Continuous
 62
     7
100
AcDbLine
 10
-1926.339881017735
 20
-1956.000001670715
 30
0.0
 11
-1926.339881017726
 21
-1954.000001670707
 31
0.0
  0
LINE
  5
1AA
330
5C
100
AcDbEntity
  8
0
  6
Continuous
 62
     7
100
AcDbLine
 10
-1926.339881017726
 20
-1954.000001670707
 30
0.0
 11
-1926.339881017719
 21
-1952.000001670715
 31
0.0
  0
LINE
  5
1AB
330
5C
100
AcDbEntity
  8
0
  6
Continuous
 62
     7
100
AcDbLine
 10
-1970.539881017807
 20
-1991.151152243063
 30
0.0
 11
-1972.539881017796
 21
-1991.151152242974
 31
0.0
  0
LINE
  5
1AC
330
5C
100
AcDbEntity
  8
0
  6
Continuous
 62
     7
100
AcDbLine
 10
-1971.039881017523
 20
-2015.000001671065
 30
0.0
 11
-1966.03988101737
 21
-2010.000001670946
 31
0.0
  0
LINE
  5
1AD
330
5C
100
AcDbEntity
  8
0
  6
Continuous
 62
     7
100
AcDbLine
 10
-1973.939881021638
 20
-2010.800001670698
 30
0.0
 11
-1973.939881021606
 21
-2015.000001670787
 31
0.0
  0
LINE
  5
1AE
330
5C
100
AcDbEntity
  8
0
  6
Continuous
 62
     7
100
AcDbLine
 10
-1925.139881017716
 20
-1945.000001670705
 30
0.0
 11
-1925.139881017736
 21
-1949.889341498859
 31
0.0
  0
LINE
  5
1AF
330
5C
100
AcDbEntity
  8
0
  6
Continuous
 62
     7
100
AcDbLine
 10
-1925.139881017736
 20
-1949.889341498859
 30
0.0
 11
-1927.839881017755
 21
-1949.889341498986
 31
0.0
  0
LINE
  5
1B0
330
5C
100
AcDbEntity
  8
0
  6
Continuous
 62
     7
100
AcDbLine
 10
-1926.53988102133
 20
-1961.760746493711
 30
0.0
 11
-1926.539881021366
 21
-1991.151152243067
 31
0.0
  0
LINE
  5
1B1
330
5C
100
AcDbEntity
  8
0
  6
Continuous
 62
     7
100
AcDbLine
 10
-1925.139881017617
 20
-2010.800001670757
 30
0.0
 11
-1925.139881017585
 21
-2015.000001670836
 31
0.0
  0
LINE
  5
1B2
330
5C
100
AcDbEntity
  8
0
  6
Continuous
 62
     7
100
AcDbLine
 10
-1925.139881017617
 20
-2010.800001670757
 30
0.0
 11
-1925.139881017567
 21
-1961.760746493705
 31
0.0
  0
LINE
  5
1B3
330
5C
100
AcDbEntity
  8
0
  6
Continuous
 62
     7
100
AcDbLine
 10
-1926.539881021318
 20
-2015.000001671036
 30
0.0
 11
-1925.139881017585
 21
-2015.000001670836
 31
0.0
  0
LINE
  5
1B4
330
5C
100
AcDbEntity
  8
0
  6
Continuous
 62
     7
100
AcDbLine
 10
-1925.139881017567
 20
-1961.760746493705
 30
0.0
 11
-1925.139881017575
 21
-1951.500001670998
 31
0.0
  0
LINE
  5
1B5
330
5C
100
AcDbEntity
  8
0
  6
Continuous
 62
     7
100
AcDbLine
 10
-1930.03988101775
 20
-1956.500001670958
 30
0.0
 11
-1969.039881017703
 21
-1956.500001670801
 31
0.0
  0
LINE
  5
1B6
330
5C
100
AcDbEntity
  8
0
  6
Continuous
 62
     7
100
AcDbLine
 10
-1970.539881017701
 20
-1956.500001670795
 30
0.0
 11
-1971.239881017681
 21
-1956.500001670626
 31
0.0
  0
LINE
  5
1B7
330
5C
100
AcDbEntity
  8
0
  6
Continuous
 62
     7
100
AcDbLine
 10
-1971.239881017679
 20
-1956.00000167057
 30
0.0
 11
-1927.839881017779
 21
-1956.000001670744
 31
0.0
  0
ARC
  5
1B8
330
5C
100
AcDbEntity
  8
0
  6
Continuous
 62
     7
100
AcDbCircle
 10
-1948.03988101741
 20
-1965.000001671015
 30
0.0
 40
15.0
100
AcDbArc
 50
359.9999999998853
 51
34.51810784253501
  0
ARC
  5
1B9
330
5C
100
AcDbEntity
  8
0
  6
Continuous
 62
     7
100
AcDbCircle
 10
-1951.039881017467
 20
-1965.000001671022
 30
0.0
 40
14.99999999999998
100
AcDbArc
 50
145.4818921571774
 51
180.0000000001225
  0
ENDBLK
  5
5E
330
5C
100
AcDbEntity
  8
0
100
AcDbBlockEnd
  0
BLOCK
  5
61
330
5F
100
AcDbEntity
  8
0
100
AcDbBlockBegin
  2
SA_Links1
 70
     0
 10
-1949.539881021255
 20
-1979.9999999999
 30
0.0
  3
SA_Links1
  1

  0
INSERT
  5
60
330
5F
100
AcDbEntity
  8
0
100
AcDbBlockReference
  2
HC-RBO_12-select__4
 10
-1973.939881021758
 20
-2015.000001671065
 30
0.0
  0
MTEXT
  5
1BA
330
5F
100
AcDbEntity
  8
1
 62
     6
100
AcDbMText
 10
-1949.539881021255
 20
-2025.000000000042
 30
0.0
 40
10.0
 41
0.0
 71
     2
 72
     1
  1
 
  7
CONVERTER_11
 73
     1
 44
1.32052821128451
  0
ENDBLK
  5
62
330
5F
100
AcDbEntity
  8
0
100
AcDbBlockEnd
  0
BLOCK
  5
64
330
63
100
AcDbEntity
  8
0
100
AcDbBlockBegin
  2
HC-RBO_12-select__5
 70
     0
 10
-2253.149995444152
 20
-2015.000001671093
 30
0.0
  3
HC-RBO_12-select__5
  1

  0
LINE
  5
1BB
330
63
100
AcDbEntity
  8
0
  6
Continuous
 62
     7
100
AcDbLine
 10
-2250.246820923545
 20
-2015.00000167109
 30
0.0
 11
-2253.149995444085
 21
-2015.000001671093
 31
0.0
  0
LINE
  5
1BC
330
63
100
AcDbEntity
  8
0
  6
Continuous
 62
     7
100
AcDbLine
 10
-2245.249995444031
 20
-2010.003244686805
 30
0.0
 11
-2245.249995444124
 21
-1965.000001671096
 31
0.0
  0
LINE
  5
1BD
330
63
100
AcDbEntity
  8
0
  6
Continuous
 62
     7
100
AcDbLine
 10
-2250.246820923545
 20
-2015.00000167109
 30
0.0
 11
-2245.249995444031
 21
-2010.003244686805
 31
0.0
  0
LINE
  5
1BE
330
63
100
AcDbEntity
  8
0
  6
Continuous
 62
     7
100
AcDbLine
 10
-2230.299995444203
 20
-1950.000085004631
 30
0.0
 11
-2227.199995444279
 21
-1950.00008500463
 31
0.0
  0
LINE
  5
1BF
330
63
100
AcDbEntity
  8
0
  6
Continuous
 62
     7
100
AcDbLine
 10
-2212.249995444067
 20
-1965.000001671106
 30
0.0
 11
-2212.249995444165
 21
-2010.000001670998
 31
0.0
  0
LINE
  5
1C0
330
63
100
AcDbEntity
  8
0
  6
Continuous
 62
     7
100
AcDbLine
 10
-2212.249995444165
 20
-2010.000001670998
 30
0.0
 11
-2207.24999544408
 21
-2015.000001671047
 31
0.0
  0
LINE
  5
1C1
330
63
100
AcDbEntity
  8
0
  6
Continuous
 62
     7
100
AcDbLine
 10
-2253.149995444152
 20
-1948.500001671096
 30
0.0
 11
-2204.34999544013
 21
-1948.500001671079
 31
0.0
  0
LINE
  5
1C2
330
63
100
AcDbEntity
  8
0
  6
Continuous
 62
     7
100
AcDbLine
 10
-2204.349995440129
 20
-1950.000001671117
 30
0.0
 11
-2253.14999544415
 21
-1950.00000167101
 31
0.0
  0
LINE
  5
1C3
330
63
100
AcDbEntity
  8
0
  6
Continuous
 62
     7
100
AcDbLine
 10
-2253.149995444145
 20
-1945.000001671103
 30
0.0
 11
-2207.149995443857
 21
-1945.000001670872
 31
0.0
  0
LINE
  5
1C4
330
63
100
AcDbEntity
  8
0
  6
Continuous
 62
     7
100
AcDbLine
 10
-2204.34999544013
 20
-1948.500001671079
 30
0.0
 11
-2204.349995440123
 21
-1945.000001671076
 31
0.0
  0
LINE
  5
1C5
330
63
100
AcDbEntity
  8
0
  6
Continuous
 62
     7
100
AcDbLine
 10
-2237.751798615032
 20
-1952.010661842386
 30
0.0
 11
-2219.748192273165
 21
-1952.010661842388
 31
0.0
  0
LINE
  5
1C6
330
63
100
AcDbEntity
  8
0
  6
Continuous
 62
     7
100
AcDbLine
 10
-2242.609202538217
 20
-1956.500001670753
 30
0.0
 11
-2214.890788350017
 21
-1956.500001670697
 31
0.0
  0
LINE
  5
1C7
330
63
100
AcDbEntity
  8
0
  6
Continuous
 62
     7
100
AcDbLine
 10
-2207.149995443857
 20
-1945.000001670872
 30
0.0
 11
-2205.749995443688
 21
-1945.00000167087
 31
0.0
  0
LINE
  5
1C8
330
63
100
AcDbEntity
  8
0
  6
Continuous
 62
     7
100
AcDbLine
 10
-2205.749995443688
 20
-1945.00000167087
 30
0.0
 11
-2204.349995440123
 21
-1945.000001671076
 31
0.0
  0
LINE
  5
1C9
330
63
100
AcDbEntity
  8
0
  6
Continuous
 62
     7
100
AcDbLine
 10
-2204.349995440129
 20
-1950.000001671117
 30
0.0
 11
-2204.34999544013
 21
-1948.500001671079
 31
0.0
  0
LINE
  5
1CA
330
63
100
AcDbEntity
  8
0
  6
Continuous
 62
     7
100
AcDbLine
 10
-2204.349995440064
 20
-2015.000001671044
 30
0.0
 11
-2207.24999544408
 21
-2015.000001671047
 31
0.0
  0
LINE
  5
1CB
330
63
100
AcDbEntity
  8
0
  6
Continuous
 62
     7
100
AcDbLine
 10
-2253.149995444145
 20
-1945.000001671103
 30
0.0
 11
-2253.149995444152
 21
-1948.500001671096
 31
0.0
  0
LINE
  5
1CC
330
63
100
AcDbEntity
  8
0
  6
Continuous
 62
     7
100
AcDbLine
 10
-2253.14999544415
 20
-1950.00000167101
 30
0.0
 11
-2253.149995444085
 21
-2015.000001671093
 31
0.0
  0
LINE
  5
1CD
330
63
100
AcDbEntity
  8
0
  6
Continuous
 62
     7
100
AcDbLine
 10
-2253.149995444152
 20
-1948.500001671096
 30
0.0
 11
-2253.14999544415
 21
-1950.00000167101
 31
0.0
  0
LINE
  5
1CE
330
63
100
AcDbEntity
  8
0
  6
Continuous
 62
     2
100
AcDbLine
 10
-2207.149995443858
 20
-1944.700001671091
 30
0.0
 11
-2205.749995443689
 21
-1944.700001671087
 31
0.0
  0
LINE
  5
1CF
330
63
100
AcDbEntity
  8
0
  6
Continuous
 62
     7
100
AcDbLine
 10
-2205.749995443688
 20
-1945.00000167087
 30
0.0
 11
-2205.749995443689
 21
-1944.700001671087
 31
0.0
  0
LINE
  5
1D0
330
63
100
AcDbEntity
  8
0
  6
Continuous
 62
     7
100
AcDbLine
 10
-2204.349995440064
 20
-2015.000001671044
 30
0.0
 11
-2204.349995440129
 21
-1950.000001671117
 31
0.0
  0
LINE
  5
1D1
330
63
100
AcDbEntity
  8
0
  6
Continuous
 62
     7
100
AcDbLine
 10
-2207.149995443858
 20
-1944.700001671091
 30
0.0
 11
-2207.149995443857
 21
-1945.000001670872
 31
0.0
  0
LINE
  5
1D2
330
63
100
AcDbEntity
  8
0
  6
Continuous
 62
     7
100
AcDbLine
 10
-2205.749995443689
 20
-1944.700001671087
 30
0.0
 11
-2205.7499954437
 21
-1941.000001671082
 31
0.0
  0
LINE
  5
1D3
330
63
100
AcDbEntity
  8
0
  6
Continuous
 62
     7
100
AcDbLine
 10
-2207.149995443869
 20
-1941.000001671086
 30
0.0
 11
-2205.7499954437
 21
-1941.000001671082
 31
0.0
  0
LINE
  5
1D4
330
63
100
AcDbEntity
  8
0
  6
Continuous
 62
     7
100
AcDbLine
 10
-2207.149995443858
 20
-1944.700001671091
 30
0.0
 11
-2207.149995443869
 21
-1941.000001671086
 31
0.0
  0
ARC
  5
1D5
330
63
100
AcDbEntity
  8
0
  6
Continuous
 62
     7
100
AcDbCircle
 10
-2227.249995444071
 20
-1965.000001671069
 30
0.0
 40
15.00000000000409
100
AcDbArc
 50
359.9999999998585
 51
89.80901371540521
  0
ARC
  5
1D6
330
63
100
AcDbEntity
  8
0
  6
Continuous
 62
     7
100
AcDbCircle
 10
-2230.249995444124
 20
-1965.000001671066
 30
0.0
 40
15.00000000000004
100
AcDbArc
 50
90.1909862856909
 51
180.0000000001146
  0
ENDBLK
  5
65
330
63
100
AcDbEntity
  8
0
100
AcDbBlockEnd
  0
BLOCK
  5
68
330
66
100
AcDbEntity
  8
0
100
AcDbBlockBegin
  2
SA_Rechts1
 70
     0
 10
-2228.74999544028
 20
-1979.99999999995
 30
0.0
  3
SA_Rechts1
  1

  0
INSERT
  5
67
330
66
100
AcDbEntity
  8
0
100
AcDbBlockReference
  2
HC-RBO_12-select__5
 10
-2253.149995444152
 20
-2015.000001671093
 30
0.0
  0
MTEXT
  5
1D7
330
66
100
AcDbEntity
  8
1
 62
     6
100
AcDbMText
 10
-2228.74999544028
 20
-2025.000000000092
 30
0.0
 40
10.0
 41
0.0
 71
     2
 72
     1
  1
 
  7
CONVERTER_11
 73
     1
 44
1.32052821128451
  0
ENDBLK
  5
69
330
66
100
AcDbEntity
  8
0
100
AcDbBlockEnd
  0
BLOCK
  5
6B
330
6A
100
AcDbEntity
  8
0
100
AcDbBlockBegin
  2
HC-RBO_12-select__6
 70
     0
 10
-2144.349999491284
 20
-2015.000001671093
 30
0.0
  3
HC-RBO_12-select__6
  1

  0
LINE
  5
1D8
330
6A
100
AcDbEntity
  8
1
  6
DOT_CENTER
 62
     2
100
AcDbLine
 10
-2141.349999491176
 20
-1951.800001670764
 30
0.0
 11
-2141.349999491176
 21
-1956.200001670764
 31
0.0
  0
LINE
  5
1D9
330
6A
100
AcDbEntity
  8
1
  6
DOT_CENTER
 62
     2
100
AcDbLine
 10
-2139.149999491176
 20
-1954.000001670764
 30
0.0
 11
-2143.549999491176
 21
-1954.000001670764
 31
0.0
  0
LINE
  5
1DA
330
6A
100
AcDbEntity
  8
0
  6
Continuous
 62
     7
100
AcDbLine
 10
-2026.899999491359
 20
-1945.000001671103
 30
0.0
 11
-2023.399999491391
 21
-1948.500001671096
 31
0.0
  0
LINE
  5
1DB
330
6A
100
AcDbEntity
  8
0
  6
Continuous
 62
     7
100
AcDbLine
 10
-2023.399999491269
 20
-1950.000001671011
 30
0.0
 11
-2023.399999491335
 21
-2015.000001671093
 31
0.0
  0
LINE
  5
1DC
330
6A
100
AcDbEntity
  8
0
  6
Continuous
 62
     7
100
AcDbLine
 10
-2067.410594182662
 20
-2015.000001670886
 30
0.0
 11
-2023.399999491335
 21
-2015.000001671093
 31
0.0
  0
LINE
  5
1DD
330
6A
100
AcDbEntity
  8
0
  6
Continuous
 62
     7
100
AcDbLine
 10
-2078.949999344558
 20
-2010.800001670807
 30
0.0
 11
-2067.410594182662
 21
-2015.000001670886
 31
0.0
  0
LINE
  5
1DE
330
6A
100
AcDbEntity
  8
0
  6
Continuous
 62
     7
100
AcDbLine
 10
-2018.399999491266
 20
-1948.500001671105
 30
0.0
 11
-2018.399999491219
 21
-1950.000001671016
 31
0.0
  0
LINE
  5
1DF
330
6A
100
AcDbEntity
  8
0
  6
Continuous
 62
     7
100
AcDbLine
 10
-2084.874043129739
 20
-1951.500001671048
 30
0.0
 11
-2138.049999491268
 21
-1951.500001670738
 31
0.0
  0
LINE
  5
1E0
330
6A
100
AcDbEntity
  8
0
  6
Continuous
 62
     7
100
AcDbLine
 10
-2142.592640178207
 20
-1951.500001670712
 30
0.0
 11
-2144.349999491284
 21
-1953.257360983777
 31
0.0
  0
LINE
  5
1E1
330
6A
100
AcDbEntity
  8
0
  6
Continuous
 62
     7
100
AcDbLine
 10
-2139.660659663029
 20
-1951.500001670668
 30
0.0
 11
-2138.049999491262
 21
-1949.889341498908
 31
0.0
  0
LINE
  5
1E2
330
6A
100
AcDbEntity
  8
0
  6
Continuous
 62
     7
100
AcDbLine
 10
-2144.349999491123
 20
-1956.000001670794
 30
0.0
 11
-2143.483974087248
 21
-1956.50000167085
 31
0.0
  0
LINE
  5
1E3
330
6A
100
AcDbEntity
  8
0
  6
Continuous
 62
     7
100
AcDbLine
 10
-2133.160659663074
 20
-1945.000001670755
 30
0.0
 11
-2138.049999491262
 21
-1949.889341498908
 31
0.0
  0
LINE
  5
1E4
330
6A
100
AcDbEntity
  8
0
  6
Continuous
 62
     7
100
AcDbLine
 10
-2138.049999491268
 20
-1951.500001670738
 30
0.0
 11
-2138.049999491262
 21
-1949.889341498908
 31
0.0
  0
LINE
  5
1E5
330
6A
100
AcDbEntity
  8
0
  6
Continuous
 62
     7
100
AcDbLine
 10
-2139.660659663029
 20
-1951.500001670668
 30
0.0
 11
-2142.592640178207
 21
-1951.500001670712
 31
0.0
  0
LINE
  5
1E6
330
6A
100
AcDbEntity
  8
0
  6
Continuous
 62
     7
100
AcDbLine
 10
-2144.349999491123
 20
-1956.000001670794
 30
0.0
 11
-2144.349999491284
 21
-1953.257360983777
 31
0.0
  0
LINE
  5
1E7
330
6A
100
AcDbEntity
  8
0
  6
Continuous
 62
     7
100
AcDbLine
 10
-2138.049999491176
 20
-1956.500001670686
 30
0.0
 11
-2143.483974087248
 21
-1956.50000167085
 31
0.0
  0
LINE
  5
1E8
330
6A
100
AcDbEntity
  8
0
  6
Continuous
 62
     7
100
AcDbLine
 10
-2138.049999491176
 20
-1956.500001670686
 30
0.0
 11
-2138.049999491268
 21
-1951.500001670738
 31
0.0
  0
LINE
  5
1E9
330
6A
100
AcDbEntity
  8
0
  6
Continuous
 62
     7
100
AcDbLine
 10
-2018.399999491219
 20
-1950.000001671016
 30
0.0
 11
-2023.399999491269
 21
-1950.000001671011
 31
0.0
  0
LINE
  5
1EA
330
6A
100
AcDbEntity
  8
0
  6
Continuous
 62
     7
100
AcDbLine
 10
-2023.399999491391
 20
-1948.500001671096
 30
0.0
 11
-2018.399999491266
 21
-1948.500001671105
 31
0.0
  0
LINE
  5
1EB
330
6A
100
AcDbEntity
  8
0
  6
Continuous
 62
     7
100
AcDbLine
 10
-2133.160659663074
 20
-1945.000001670755
 30
0.0
 11
-2094.69999949109
 21
-1945.000001670842
 31
0.0
  0
LINE
  5
1EC
330
6A
100
AcDbEntity
  8
0
  6
Continuous
 62
     7
100
AcDbLine
 10
-2094.69999949109
 20
-1945.000001670842
 30
0.0
 11
-2086.29999949109
 21
-1945.000001670872
 31
0.0
  0
LINE
  5
1ED
330
6A
100
AcDbEntity
  8
0
  6
Continuous
 62
     7
100
AcDbLine
 10
-2086.29999949109
 20
-1945.000001670872
 30
0.0
 11
-2026.899999491359
 21
-1945.000001671103
 31
0.0
  0
LINE
  5
1EE
330
6A
100
AcDbEntity
  8
0
  6
Continuous
 62
     7
100
AcDbLine
 10
-2094.69999949109
 20
-1945.000001670842
 30
0.0
 11
-2094.69999949109
 21
-1944.700001671074
 31
0.0
  0
LINE
  5
1EF
330
6A
100
AcDbEntity
  8
0
  6
Continuous
 62
     7
100
AcDbLine
 10
-2086.29999949109
 20
-1944.700001671091
 30
0.0
 11
-2086.29999949109
 21
-1945.000001670872
 31
0.0
  0
LINE
  5
1F0
330
6A
100
AcDbEntity
  8
0
  6
Continuous
 62
     7
100
AcDbLine
 10
-2092.49999949109
 20
-1944.700001671078
 30
0.0
 11
-2088.49999949109
 21
-1944.700001671086
 31
0.0
  0
LINE
  5
1F1
330
6A
100
AcDbEntity
  8
0
  6
Continuous
 62
     7
100
AcDbLine
 10
-2088.512538799647
 20
-1941.000001671086
 30
0.0
 11
-2092.487460182518
 21
-1941.000001671078
 31
0.0
  0
LINE
  5
1F2
330
6A
100
AcDbEntity
  8
0
  6
Continuous
 62
     7
100
AcDbLine
 10
-2080.139844810422
 20
-1961.849623146379
 30
0.0
 11
-2083.234690210017
 21
-1956.500001670748
 31
0.0
  0
LINE
  5
1F3
330
6A
100
AcDbEntity
  8
0
  6
Continuous
 62
     7
100
AcDbLine
 10
-2080.428446959912
 20
-1962.3500018146
 30
0.0
 11
-2080.139844810422
 21
-1961.849623146379
 31
0.0
  0
LINE
  5
1F4
330
6A
100
AcDbEntity
  8
0
  6
Continuous
 62
     7
100
AcDbLine
 10
-2078.949999344558
 20
-2010.800001670807
 30
0.0
 11
-2078.949999344327
 21
-1961.760746493755
 31
0.0
  0
LINE
  5
1F5
330
6A
100
AcDbEntity
  8
0
  6
Continuous
 62
     7
100
AcDbLine
 10
-2081.987291783994
 20
-1956.50000167075
 30
0.0
 11
-2084.874043129739
 21
-1951.500001671048
 31
0.0
  0
LINE
  5
1F6
330
6A
100
AcDbEntity
  8
0
  6
Continuous
 62
     7
100
AcDbLine
 10
-2078.949999344327
 20
-1961.760746493755
 30
0.0
 11
-2081.987291783994
 21
-1956.50000167075
 31
0.0
  0
LINE
  5
1F7
330
6A
100
AcDbEntity
  8
0
  6
Continuous
 62
     7
100
AcDbLine
 10
-2094.699999491104
 20
-1962.350001814605
 30
0.0
 11
-2080.428446959912
 21
-1962.3500018146
 31
0.0
  0
LINE
  5
1F8
330
6A
100
AcDbEntity
  8
0
  6
Continuous
 62
     7
100
AcDbLine
 10
-2094.699999491099
 20
-1956.500001670735
 30
0.0
 11
-2094.699999491104
 21
-1962.350001814605
 31
0.0
  0
LINE
  5
1F9
330
6A
100
AcDbEntity
  8
0
  6
Continuous
 62
     7
100
AcDbLine
 10
-2081.987291783994
 20
-1956.50000167075
 30
0.0
 11
-2138.049999491176
 21
-1956.500001670686
 31
0.0
  0
ARC
  5
1FA
330
6A
100
AcDbEntity
  8
0
  6
Continuous
 62
     7
100
AcDbCircle
 10
-2090.49999949109
 20
-1944.700001671082
 30
0.0
 40
4.200000000000128
100
AcDbArc
 50
118.2425371843253
 51
179.9999999998915
  0
ARC
  5
1FB
330
6A
100
AcDbEntity
  8
0
  6
Continuous
 62
     7
100
AcDbCircle
 10
-2090.49999949109
 20
-1944.700001671082
 30
0.0
 40
4.199999999999818
100
AcDbArc
 50
359.999999999876
 51
61.75746281544301
  0
ARC
  5
1FC
330
6A
100
AcDbEntity
  8
0
  6
Continuous
 62
     7
100
AcDbCircle
 10
-2090.49999949109
 20
-1944.700001671082
 30
0.0
 40
2.0
100
AcDbArc
 50
359.9999999998827
 51
179.9999999998893
  0
CIRCLE
  5
1FD
330
6A
100
AcDbEntity
  8
0
  6
Continuous
 62
     7
100
AcDbCircle
 10
-2141.349999491176
 20
-1954.000001670764
 30
0.0
 40
2.0
  0
ENDBLK
  5
6C
330
6A
100
AcDbEntity
  8
0
100
AcDbBlockEnd
  0
BLOCK
  5
6F
330
6D
100
AcDbEntity
  8
0
100
AcDbBlockBegin
  2
Vordans1
 70
     0
 10
-2081.374998093351
 20
-1979.99999999995
 30
0.0
  3
Vordans1
  1

  0
INSERT
  5
6E
330
6D
100
AcDbEntity
  8
0
100
AcDbBlockReference
  2
HC-RBO_12-select__6
 10
-2144.349999491284
 20
-2015.000001671093
 30
0.0
  0
MTEXT
  5
1FE
330
6D
100
AcDbEntity
  8
1
 62
     6
100
AcDbMText
 10
-2081.374998093349
 20
-2025.000000000092
 30
0.0
 40
10.0
 41
0.0
 71
     2
 72
     1
  1
 
  7
CONVERTER_11
 73
     1
 44
1.32052821128451
  0
DIMENSION
  5
209
330
6D
100
AcDbEntity
  8
1
100
AcDbDimension
  2
*D18
 10
-2018.399999491219
 20
-2049.80002173826
 30
0.0
 11
-2080.361151176161
 21
-2041.95002173826
 31
0.0
 70
    32
  1
<>
 71
     5
 42
-1.0
 53
0.00013888888889
  3
ME10_DIM_11
100
AcDbAlignedDimension
 13
-2144.349999491123
 23
-1956.000001670794
 33
0.0
 14
-2018.399999491219
 24
-1950.000001671016
 34
0.0
100
AcDbRotatedDimension
  0
DIMENSION
  5
214
330
6D
100
AcDbEntity
  8
1
100
AcDbDimension
  2
*D19
 10
-2165.107134871661
 20
-2015.000001671093
 30
0.0
 11
-2172.607134871661
 21
-1974.223558157534
 31
0.0
 70
    32
  1
<>
 71
     5
 42
-1.0
 53
90.0
  3
ME10_DIM_12
100
AcDbAlignedDimension
 13
-2088.512538799647
 23
-1941.000001671086
 33
0.0
 14
-2023.399999491335
 24
-2015.000001671093
 34
0.0
 50
90.0
100
AcDbRotatedDimension
  0
ENDBLK
  5
70
330
6D
100
AcDbEntity
  8
0
100
AcDbBlockEnd
  0
BLOCK
  5
72
330
71
100
AcDbEntity
  8
0
100
AcDbBlockBegin
  2
_rahmen
 70
     0
 10
-861.1999990815369
 20
-1132.830565482899
 30
0.0
  3
_rahmen
  1

  0
LINE
  5
215
330
71
100
AcDbEntity
  8
1
  6
DOT_CENTER
 62
     2
100
AcDbLine
 10
-986.7581487217244
 20
-1106.705565482899
 30
0.0
 11
-981.2581487217244
 21
-1106.705565482899
 31
0.0
  0
LINE
  5
216
330
71
100
AcDbEntity
  8
1
  6
PHANTOM
 62
     2
100
AcDbLine
 10
-978.0081487217244
 20
-1103.955565482899
 30
0.0
 11
-978.0081487217244
 21
-1109.455565482899
 31
0.0
  0
LINE
  5
217
330
71
100
AcDbEntity
  8
1
  6
PHANTOM
 62
     2
100
AcDbLine
 10
-975.2581487217244
 20
-1106.705565482899
 30
0.0
 11
-980.7581487217244
 21
-1106.705565482899
 31
0.0
  0
LINE
  5
218
330
71
100
AcDbEntity
  8
1
  6
Continuous
 62
     7
100
AcDbLine
 10
-926.444803608287
 20
-1119.330565482899
 30
0.0
 11
-926.444803608287
 21
-1110.830565482899
 31
0.0
  0
LINE
  5
219
330
71
100
AcDbEntity
  8
1
  6
Continuous
 62
     6
100
AcDbLine
 10
-954.3448036082871
 20
-1110.830565482899
 30
0.0
 11
-861.1999990815352
 21
-1110.830565482899
 31
0.0
  0
LINE
  5
21A
330
71
100
AcDbEntity
  8
1
  6
Continuous
 62
     7
100
AcDbLine
 10
-990.7448036082869
 20
-1110.830565482899
 30
0.0
 11
-990.7448036082869
 21
-1102.330565482899
 31
0.0
  0
LINE
  5
21B
330
71
100
AcDbEntity
  8
1
  6
Continuous
 62
     7
100
AcDbLine
 10
-954.3448036082871
 20
-1110.830565482899
 30
0.0
 11
-954.3448036082871
 21
-1102.330565482899
 31
0.0
  0
LINE
  5
21C
330
71
100
AcDbEntity
  8
1
  6
Continuous
 62
     7
100
AcDbLine
 10
-896.618407363214
 20
-1102.330565482899
 30
0.0
 11
-896.618407363214
 21
-1110.830565482899
 31
0.0
  0
LINE
  5
21D
330
71
100
AcDbEntity
  8
1
  6
Continuous
 62
     7
100
AcDbLine
 10
-870.1184073632145
 20
-1102.330565482899
 30
0.0
 11
-870.1184073632145
 21
-1110.830565482899
 31
0.0
  0
LINE
  5
21E
330
71
100
AcDbEntity
  8
1
  6
Continuous
 62
     6
100
AcDbLine
 10
-1059.744803608287
 20
-1127.830565482899
 30
0.0
 11
-1104.699999081537
 21
-1127.830565482899
 31
0.0
  0
LINE
  5
21F
330
71
100
AcDbEntity
  8
1
  6
Continuous
 62
     7
100
AcDbLine
 10
-861.1999990815357
 20
-1119.330565482899
 30
0.0
 11
-954.3448036082871
 21
-1119.330565482899
 31
0.0
  0
LINE
  5
220
102
{ACAD_REACTORS
330
332
330
333
102
}
330
71
100
AcDbEntity
  8
0
  6
Continuous
 62
     2
100
AcDbLine
 10
-977.0373746665196
 20
-1118.530276367235
 30
0.0
 11
-977.0373746665196
 21
-1117.657759360432
 31
0.0
  0
LINE
  5
221
102
{ACAD_REACTORS
330
332
330
333
102
}
330
71
100
AcDbEntity
  8
0
  6
Continuous
 62
     2
100
AcDbLine
 10
-977.0373746665196
 20
-1119.490045074718
 30
0.0
 11
-977.0373746665196
 21
-1120.362562081521
 31
0.0
  0
LINE
  5
222
102
{ACAD_REACTORS
330
334
330
335
102
}
330
71
100
AcDbEntity
  8
0
  6
Continuous
 62
     2
100
AcDbLine
 10
-961.7043305302291
 20
-1118.268521265195
 30
0.0
 11
-960.6006912306609
 21
-1118.268521265195
 31
0.0
  0
LINE
  5
223
102
{ACAD_REACTORS
330
334
330
335
102
}
330
71
100
AcDbEntity
  8
0
  6
Continuous
 62
     2
100
AcDbLine
 10
-960.9346731872677
 20
-1119.490045074719
 30
0.0
 11
-960.9346731872677
 21
-1120.362562081522
 31
0.0
  0
LINE
  5
224
102
{ACAD_REACTORS
330
33E
330
33F
102
}
330
71
100
AcDbEntity
  8
0
  6
Continuous
 62
     2
100
AcDbLine
 10
-962.7954298026475
 20
-1117.177875006708
 30
0.0
 11
-961.3974767557072
 21
-1115.597016012933
 31
0.0
  0
LINE
  5
225
102
{ACAD_REACTORS
330
33E
330
33F
102
}
330
71
100
AcDbEntity
  8
0
  6
Continuous
 62
     2
100
AcDbLine
 10
-962.7000063864748
 20
-1114.124065482897
 30
0.0
 11
-961.3974767557072
 21
-1115.597016012933
 31
0.0
  0
LINE
  5
226
102
{ACAD_REACTORS
330
33E
330
33F
102
}
330
71
100
AcDbEntity
  8
0
  6
Continuous
 62
     2
100
AcDbLine
 10
-960.0949471249409
 20
-1114.124065482897
 30
0.0
 11
-958.6922229071936
 21
-1114.124065482897
 31
0.0
  0
LINE
  5
227
102
{ACAD_REACTORS
330
33E
330
33F
102
}
330
71
100
AcDbEntity
  8
0
  6
Continuous
 62
     2
100
AcDbLine
 10
-961.3927055848993
 20
-1117.177875006708
 30
0.0
 11
-960.6961146468336
 21
-1116.390143221414
 31
0.0
  0
LINE
  5
228
102
{ACAD_REACTORS
330
33E
330
33F
102
}
330
71
100
AcDbEntity
  8
0
  6
Continuous
 62
     2
100
AcDbLine
 10
-961.3927055848993
 20
-1117.177875006708
 30
0.0
 11
-962.7954298026475
 21
-1117.177875006708
 31
0.0
  0
LINE
  5
229
102
{ACAD_REACTORS
330
340
330
341
102
}
330
71
100
AcDbEntity
  8
0
  6
Continuous
 62
     2
100
AcDbLine
 10
-962.9147090728644
 20
-1117.177875006708
 30
0.0
 11
-964.1552134831173
 21
-1117.177875006708
 31
0.0
  0
LINE
  5
22A
102
{ACAD_REACTORS
330
342
330
343
102
}
330
71
100
AcDbEntity
  8
0
  6
Continuous
 62
     2
100
AcDbLine
 10
-965.0231930912724
 20
-1119.315541673358
 30
0.0
 11
-965.3233583284625
 21
-1118.547726707371
 31
0.0
  0
LINE
  5
22B
102
{ACAD_REACTORS
330
342
330
343
102
}
330
71
100
AcDbEntity
  8
0
  6
Continuous
 62
     2
100
AcDbLine
 10
-965.623523565655
 20
-1119.315541673358
 30
0.0
 11
-965.0231930912724
 21
-1119.315541673358
 31
0.0
  0
LINE
  5
22C
102
{ACAD_REACTORS
330
342
330
343
102
}
330
71
100
AcDbEntity
  8
0
  6
Continuous
 62
     2
100
AcDbLine
 10
-967.3415635805287
 20
-1120.537065482882
 30
0.0
 11
-966.1010591702758
 21
-1120.537065482882
 31
0.0
  0
LINE
  5
22D
102
{ACAD_REACTORS
330
342
330
343
102
}
330
71
100
AcDbEntity
  8
0
  6
Continuous
 62
     2
100
AcDbLine
 10
-965.9436105335894
 20
-1117.483255959071
 30
0.0
 11
-964.7031061233367
 21
-1117.483255959071
 31
0.0
  0
LINE
  5
22E
102
{ACAD_REACTORS
330
342
330
343
102
}
330
71
100
AcDbEntity
  8
0
  6
Continuous
 62
     2
100
AcDbLine
 10
-964.7031061233367
 20
-1117.483255959071
 30
0.0
 11
-963.3051530763964
 21
-1120.537065482882
 31
0.0
  0
LINE
  5
22F
102
{ACAD_REACTORS
330
342
330
343
102
}
330
71
100
AcDbEntity
  8
0
  6
Continuous
 62
     2
100
AcDbLine
 10
-964.5456574866504
 20
-1120.537065482882
 30
0.0
 11
-964.7571375401261
 21
-1119.996104938664
 31
0.0
  0
LINE
  5
230
102
{ACAD_REACTORS
330
344
330
345
102
}
330
71
100
AcDbEntity
  8
0
  6
Continuous
 62
     2
100
AcDbLine
 10
-968.6879766822364
 20
-1120.537065482882
 30
0.0
 11
-967.4951839800699
 21
-1120.537065482882
 31
0.0
  0
LINE
  5
231
102
{ACAD_REACTORS
330
344
330
345
102
}
330
71
100
AcDbEntity
  8
0
  6
Continuous
 62
     2
100
AcDbLine
 10
-968.6879766822364
 20
-1118.268521265195
 30
0.0
 11
-968.6879766822364
 21
-1120.537065482882
 31
0.0
  0
LINE
  5
232
102
{ACAD_REACTORS
330
344
330
345
102
}
330
71
100
AcDbEntity
  8
0
  6
Continuous
 62
     2
100
AcDbLine
 10
-969.499075719711
 20
-1117.483255959071
 30
0.0
 11
-969.499075719711
 21
-1118.268521265195
 31
0.0
  0
LINE
  5
233
102
{ACAD_REACTORS
330
346
330
347
102
}
330
71
100
AcDbEntity
  8
0
  6
Continuous
 62
     2
100
AcDbLine
 10
-968.0198618381384
 20
-1117.177875006708
 30
0.0
 11
-966.8270691359719
 21
-1117.177875006708
 31
0.0
  0
LINE
  5
234
102
{ACAD_REACTORS
330
346
330
347
102
}
330
71
100
AcDbEntity
  8
0
  6
Continuous
 62
     2
100
AcDbLine
 10
-965.5865647257178
 20
-1115.432840993102
 30
0.0
 11
-966.8270691359719
 21
-1114.124065482897
 31
0.0
  0
LINE
  5
235
102
{ACAD_REACTORS
330
346
330
347
102
}
330
71
100
AcDbEntity
  8
0
  6
Continuous
 62
     2
100
AcDbLine
 10
-964.3937720235513
 20
-1114.124065482897
 30
0.0
 11
-965.5865647257178
 21
-1114.124065482897
 31
0.0
  0
LINE
  5
236
102
{ACAD_REACTORS
330
346
330
347
102
}
330
71
100
AcDbEntity
  8
0
  6
Continuous
 62
     2
100
AcDbLine
 10
-964.3937720235513
 20
-1117.177875006708
 30
0.0
 11
-964.3937720235513
 21
-1114.124065482897
 31
0.0
  0
LINE
  5
237
102
{ACAD_REACTORS
330
346
330
347
102
}
330
71
100
AcDbEntity
  8
0
  6
Continuous
 62
     2
100
AcDbLine
 10
-965.5865647257178
 20
-1117.177875006708
 30
0.0
 11
-964.3937720235513
 21
-1117.177875006708
 31
0.0
  0
LINE
  5
238
102
{ACAD_REACTORS
330
346
330
347
102
}
330
71
100
AcDbEntity
  8
0
  6
Continuous
 62
     2
100
AcDbLine
 10
-966.8270691359719
 20
-1115.869099496503
 30
0.0
 11
-965.5865647257178
 21
-1117.177875006708
 31
0.0
  0
LINE
  5
239
102
{ACAD_REACTORS
330
348
330
349
102
}
330
71
100
AcDbEntity
  8
0
  6
Continuous
 62
     2
100
AcDbLine
 10
-970.8350035461376
 20
-1118.792031469276
 30
0.0
 11
-972.0755079563904
 21
-1117.483255959071
 31
0.0
  0
LINE
  5
23A
102
{ACAD_REACTORS
330
348
330
349
102
}
330
71
100
AcDbEntity
  8
0
  6
Continuous
 62
     2
100
AcDbLine
 10
-970.8350035461376
 20
-1117.483255959071
 30
0.0
 11
-970.8350035461376
 21
-1118.792031469276
 31
0.0
  0
LINE
  5
23B
102
{ACAD_REACTORS
330
348
330
349
102
}
330
71
100
AcDbEntity
  8
0
  6
Continuous
 62
     2
100
AcDbLine
 10
-969.6422108439712
 20
-1117.483255959071
 30
0.0
 11
-970.8350035461376
 21
-1117.483255959071
 31
0.0
  0
LINE
  5
23C
102
{ACAD_REACTORS
330
348
330
349
102
}
330
71
100
AcDbEntity
  8
0
  6
Continuous
 62
     2
100
AcDbLine
 10
-969.6422108439712
 20
-1120.537065482882
 30
0.0
 11
-969.6422108439712
 21
-1117.483255959071
 31
0.0
  0
LINE
  5
23D
102
{ACAD_REACTORS
330
348
330
349
102
}
330
71
100
AcDbEntity
  8
0
  6
Continuous
 62
     2
100
AcDbLine
 10
-972.0755079563904
 20
-1119.228289972678
 30
0.0
 11
-970.8350035461376
 21
-1120.537065482882
 31
0.0
  0
LINE
  5
23E
102
{ACAD_REACTORS
330
348
330
349
102
}
330
71
100
AcDbEntity
  8
0
  6
Continuous
 62
     2
100
AcDbLine
 10
-972.0755079563904
 20
-1120.537065482882
 30
0.0
 11
-972.0755079563904
 21
-1119.228289972678
 31
0.0
  0
LINE
  5
23F
102
{ACAD_REACTORS
330
338
330
339
102
}
330
71
100
AcDbEntity
  8
0
  6
Continuous
 62
     2
100
AcDbLine
 10
-969.5943482049989
 20
-1114.82207908834
 30
0.0
 11
-968.2584203785713
 21
-1114.82207908834
 31
0.0
  0
LINE
  5
240
102
{ACAD_REACTORS
330
338
330
339
102
}
330
71
100
AcDbEntity
  8
0
  6
Continuous
 62
     2
100
AcDbLine
 10
-969.5943482049989
 20
-1116.479861401266
 30
0.0
 11
-969.5943482049989
 21
-1115.999977047524
 31
0.0
  0
LINE
  5
241
102
{ACAD_REACTORS
330
338
330
339
102
}
330
71
100
AcDbEntity
  8
0
  6
Continuous
 62
     2
100
AcDbLine
 10
-968.2584203785713
 20
-1116.479861401266
 30
0.0
 11
-969.5943482049989
 21
-1116.479861401266
 31
0.0
  0
LINE
  5
242
102
{ACAD_REACTORS
330
338
330
339
102
}
330
71
100
AcDbEntity
  8
0
  6
Continuous
 62
     2
100
AcDbLine
 10
-968.2584203785713
 20
-1117.177875006708
 30
0.0
 11
-968.2584203785713
 21
-1116.479861401266
 31
0.0
  0
LINE
  5
243
102
{ACAD_REACTORS
330
338
330
339
102
}
330
71
100
AcDbEntity
  8
0
  6
Continuous
 62
     2
100
AcDbLine
 10
-971.4087401023522
 20
-1117.177875006708
 30
0.0
 11
-968.2584203785713
 21
-1117.177875006708
 31
0.0
  0
LINE
  5
244
102
{ACAD_REACTORS
330
338
330
339
102
}
330
71
100
AcDbEntity
  8
0
  6
Continuous
 62
     2
100
AcDbLine
 10
-971.4087401023522
 20
-1114.124065482897
 30
0.0
 11
-968.2584203785713
 21
-1114.124065482897
 31
0.0
  0
LINE
  5
245
102
{ACAD_REACTORS
330
338
330
339
102
}
330
71
100
AcDbEntity
  8
0
  6
Continuous
 62
     2
100
AcDbLine
 10
-968.2584203785713
 20
-1114.82207908834
 30
0.0
 11
-968.2584203785713
 21
-1114.124065482897
 31
0.0
  0
LINE
  5
246
102
{ACAD_REACTORS
330
34A
330
34B
102
}
330
71
100
AcDbEntity
  8
0
  6
Continuous
 62
     2
100
AcDbLine
 10
-974.2700955974923
 20
-1115.192898816231
 30
0.0
 11
-974.2700955974923
 21
-1114.124065482897
 31
0.0
  0
LINE
  5
247
102
{ACAD_REACTORS
330
34A
330
34B
102
}
330
71
100
AcDbEntity
  8
0
  6
Continuous
 62
     2
100
AcDbLine
 10
-974.2700955974923
 20
-1114.124065482897
 30
0.0
 11
-973.0773028953258
 21
-1114.124065482897
 31
0.0
  0
LINE
  5
248
102
{ACAD_REACTORS
330
34A
330
34B
102
}
330
71
100
AcDbEntity
  8
0
  6
Continuous
 62
     2
100
AcDbLine
 10
-974.2700955974923
 20
-1116.043602897864
 30
0.0
 11
-975.3197531753997
 21
-1116.043602897864
 31
0.0
  0
LINE
  5
249
102
{ACAD_REACTORS
330
34A
330
34B
102
}
330
71
100
AcDbEntity
  8
0
  6
Continuous
 62
     2
100
AcDbLine
 10
-975.3197531753997
 20
-1116.043602897864
 30
0.0
 11
-975.3197531753997
 21
-1117.177875006708
 31
0.0
  0
LINE
  5
24A
102
{ACAD_REACTORS
330
34A
330
34B
102
}
330
71
100
AcDbEntity
  8
0
  6
Continuous
 62
     2
100
AcDbLine
 10
-976.5125458775664
 20
-1114.124065482897
 30
0.0
 11
-976.5125458775664
 21
-1117.177875006708
 31
0.0
  0
LINE
  5
24B
102
{ACAD_REACTORS
330
33C
330
33D
102
}
330
71
100
AcDbEntity
  8
0
  6
Continuous
 62
     2
100
AcDbLine
 10
-978.4687259091199
 20
-1115.492898977679
 30
0.0
 11
-978.4687259091199
 21
-1114.787171328337
 31
0.0
  0
LINE
  5
24C
102
{ACAD_REACTORS
330
33C
330
33D
102
}
330
71
100
AcDbEntity
  8
0
  6
Continuous
 62
     2
100
AcDbLine
 10
-979.709230319374
 20
-1117.177875006708
 30
0.0
 11
-978.4687259091199
 21
-1117.177875006708
 31
0.0
  0
LINE
  5
24D
102
{ACAD_REACTORS
330
33C
330
33D
102
}
330
71
100
AcDbEntity
  8
0
  6
Continuous
 62
     2
100
AcDbLine
 10
-978.4687259091199
 20
-1117.177875006708
 30
0.0
 11
-978.4687259091199
 21
-1116.234796765564
 31
0.0
  0
LINE
  5
24E
102
{ACAD_REACTORS
330
336
330
337
102
}
330
71
100
AcDbEntity
  8
0
  6
Continuous
 62
     2
100
AcDbLine
 10
-984.0141761685854
 20
-1119.824509927325
 30
0.0
 11
-985.490009429595
 21
-1119.824509927325
 31
0.0
  0
LINE
  5
24F
102
{ACAD_REACTORS
330
336
330
337
102
}
330
71
100
AcDbEntity
  8
0
  6
Continuous
 62
     2
100
AcDbLine
 10
-986.5081487217244
 20
-1114.548310098299
 30
0.0
 11
-986.5081487217244
 21
-1120.112820867499
 31
0.0
  0
LINE
  5
250
102
{ACAD_REACTORS
330
336
330
337
102
}
330
71
100
AcDbEntity
  8
0
  6
Continuous
 62
     2
100
AcDbLine
 10
-986.0839041063416
 20
-1114.124065482915
 30
0.0
 11
-980.6105920156248
 21
-1114.124065482915
 31
0.0
  0
LINE
  5
251
102
{ACAD_REACTORS
330
336
330
337
102
}
330
71
100
AcDbEntity
  8
0
  6
Continuous
 62
     2
100
AcDbLine
 10
-980.1863474002408
 20
-1114.548310098299
 30
0.0
 11
-980.1863474002408
 21
-1120.112820867499
 31
0.0
  0
LINE
  5
252
102
{ACAD_REACTORS
330
336
330
337
102
}
330
71
100
AcDbEntity
  8
0
  6
Continuous
 62
     2
100
AcDbLine
 10
-980.6105920156248
 20
-1120.537065482882
 30
0.0
 11
-986.0839041063416
 21
-1120.537065482882
 31
0.0
  0
LINE
  5
253
102
{ACAD_REACTORS
330
336
330
337
102
}
330
71
100
AcDbEntity
  8
0
  6
Continuous
 62
     2
100
AcDbLine
 10
-983.6984592455088
 20
-1119.508793004249
 30
0.0
 11
-983.6984592455088
 21
-1117.978022072717
 31
0.0
  0
LINE
  5
254
102
{ACAD_REACTORS
330
336
330
337
102
}
330
71
100
AcDbEntity
  8
0
  6
Continuous
 62
     2
100
AcDbLine
 10
-983.6984592455088
 20
-1115.756362580592
 30
0.0
 11
-983.6984592455088
 21
-1115.152337961531
 31
0.0
  0
LINE
  5
255
102
{ACAD_REACTORS
330
336
330
337
102
}
330
71
100
AcDbEntity
  8
0
  6
Continuous
 62
     2
100
AcDbLine
 10
-985.490009429595
 20
-1114.836621038455
 30
0.0
 11
-984.0141761685854
 21
-1114.836621038455
 31
0.0
  0
LINE
  5
256
102
{ACAD_REACTORS
330
336
330
337
102
}
330
71
100
AcDbEntity
  8
0
  6
Continuous
 62
     2
100
AcDbLine
 10
-985.8057263526707
 20
-1115.152337961531
 30
0.0
 11
-985.8057263526707
 21
-1119.508793004249
 31
0.0
  0
LINE
  5
257
102
{ACAD_REACTORS
330
33C
330
33D
102
}
330
71
100
AcDbEntity
  8
0
  6
Continuous
 62
     2
100
AcDbLine
 10
-978.4687259091199
 20
-1116.234796765564
 30
0.0
 11
-977.7099583213396
 21
-1116.234796765564
 31
0.0
  0
LINE
  5
258
102
{ACAD_REACTORS
330
33C
330
33D
102
}
330
71
100
AcDbEntity
  8
0
  6
Continuous
 62
     2
100
AcDbLine
 10
-979.709230319374
 20
-1114.124065482897
 30
0.0
 11
-977.7099583213396
 21
-1114.124065482897
 31
0.0
  0
LINE
  5
259
102
{ACAD_REACTORS
330
33C
330
33D
102
}
330
71
100
AcDbEntity
  8
0
  6
Continuous
 62
     2
100
AcDbLine
 10
-979.709230319374
 20
-1114.124065482897
 30
0.0
 11
-979.709230319374
 21
-1117.177875006708
 31
0.0
  0
LINE
  5
25A
102
{ACAD_REACTORS
330
33C
330
33D
102
}
330
71
100
AcDbEntity
  8
0
  6
Continuous
 62
     2
100
AcDbLine
 10
-978.4687259091199
 20
-1115.492898977679
 30
0.0
 11
-978.151430847578
 21
-1115.492898977679
 31
0.0
  0
LINE
  5
25B
102
{ACAD_REACTORS
330
33C
330
33D
102
}
330
71
100
AcDbEntity
  8
0
  6
Continuous
 62
     2
100
AcDbLine
 10
-978.4687259091199
 20
-1114.787171328337
 30
0.0
 11
-978.151430847578
 21
-1114.787171328337
 31
0.0
  0
LINE
  5
25C
102
{ACAD_REACTORS
330
34A
330
34B
102
}
330
71
100
AcDbEntity
  8
0
  6
Continuous
 62
     2
100
AcDbLine
 10
-975.3197531753997
 20
-1115.192898816231
 30
0.0
 11
-974.2700955974923
 21
-1115.192898816231
 31
0.0
  0
LINE
  5
25D
102
{ACAD_REACTORS
330
34A
330
34B
102
}
330
71
100
AcDbEntity
  8
0
  6
Continuous
 62
     2
100
AcDbLine
 10
-975.3197531753997
 20
-1114.124065482897
 30
0.0
 11
-975.3197531753997
 21
-1115.192898816231
 31
0.0
  0
LINE
  5
25E
102
{ACAD_REACTORS
330
34A
330
34B
102
}
330
71
100
AcDbEntity
  8
0
  6
Continuous
 62
     2
100
AcDbLine
 10
-976.5125458775664
 20
-1114.124065482897
 30
0.0
 11
-975.3197531753997
 21
-1114.124065482897
 31
0.0
  0
LINE
  5
25F
102
{ACAD_REACTORS
330
34A
330
34B
102
}
330
71
100
AcDbEntity
  8
0
  6
Continuous
 62
     2
100
AcDbLine
 10
-975.3197531753997
 20
-1117.177875006708
 30
0.0
 11
-976.5125458775664
 21
-1117.177875006708
 31
0.0
  0
LINE
  5
260
102
{ACAD_REACTORS
330
34A
330
34B
102
}
330
71
100
AcDbEntity
  8
0
  6
Continuous
 62
     2
100
AcDbLine
 10
-974.2700955974923
 20
-1117.177875006708
 30
0.0
 11
-974.2700955974923
 21
-1116.043602897864
 31
0.0
  0
LINE
  5
261
102
{ACAD_REACTORS
330
34A
330
34B
102
}
330
71
100
AcDbEntity
  8
0
  6
Continuous
 62
     2
100
AcDbLine
 10
-973.0773028953258
 20
-1117.177875006708
 30
0.0
 11
-974.2700955974923
 21
-1117.177875006708
 31
0.0
  0
LINE
  5
262
102
{ACAD_REACTORS
330
34A
330
34B
102
}
330
71
100
AcDbEntity
  8
0
  6
Continuous
 62
     2
100
AcDbLine
 10
-973.0773028953258
 20
-1114.124065482897
 30
0.0
 11
-973.0773028953258
 21
-1117.177875006708
 31
0.0
  0
LINE
  5
263
102
{ACAD_REACTORS
330
338
330
339
102
}
330
71
100
AcDbEntity
  8
0
  6
Continuous
 62
     2
100
AcDbLine
 10
-969.5943482049989
 20
-1115.999977047524
 30
0.0
 11
-968.2584203785713
 21
-1115.999977047524
 31
0.0
  0
LINE
  5
264
102
{ACAD_REACTORS
330
338
330
339
102
}
330
71
100
AcDbEntity
  8
0
  6
Continuous
 62
     2
100
AcDbLine
 10
-968.2584203785713
 20
-1115.999977047524
 30
0.0
 11
-968.2584203785713
 21
-1115.301963442081
 31
0.0
  0
LINE
  5
265
102
{ACAD_REACTORS
330
338
330
339
102
}
330
71
100
AcDbEntity
  8
0
  6
Continuous
 62
     2
100
AcDbLine
 10
-968.2584203785713
 20
-1115.301963442081
 30
0.0
 11
-969.5943482049989
 21
-1115.301963442081
 31
0.0
  0
LINE
  5
266
102
{ACAD_REACTORS
330
338
330
339
102
}
330
71
100
AcDbEntity
  8
0
  6
Continuous
 62
     2
100
AcDbLine
 10
-969.5943482049989
 20
-1115.301963442081
 30
0.0
 11
-969.5943482049989
 21
-1114.82207908834
 31
0.0
  0
LINE
  5
267
102
{ACAD_REACTORS
330
348
330
349
102
}
330
71
100
AcDbEntity
  8
0
  6
Continuous
 62
     2
100
AcDbLine
 10
-973.268300658558
 20
-1120.537065482882
 30
0.0
 11
-972.0755079563904
 21
-1120.537065482882
 31
0.0
  0
LINE
  5
268
102
{ACAD_REACTORS
330
348
330
349
102
}
330
71
100
AcDbEntity
  8
0
  6
Continuous
 62
     2
100
AcDbLine
 10
-970.8350035461376
 20
-1120.537065482882
 30
0.0
 11
-969.6422108439712
 21
-1120.537065482882
 31
0.0
  0
LINE
  5
269
102
{ACAD_REACTORS
330
348
330
349
102
}
330
71
100
AcDbEntity
  8
0
  6
Continuous
 62
     2
100
AcDbLine
 10
-972.0755079563904
 20
-1117.483255959071
 30
0.0
 11
-973.268300658558
 21
-1117.483255959071
 31
0.0
  0
LINE
  5
26A
102
{ACAD_REACTORS
330
348
330
349
102
}
330
71
100
AcDbEntity
  8
0
  6
Continuous
 62
     2
100
AcDbLine
 10
-973.268300658558
 20
-1117.483255959071
 30
0.0
 11
-973.268300658558
 21
-1120.537065482882
 31
0.0
  0
LINE
  5
26B
102
{ACAD_REACTORS
330
346
330
347
102
}
330
71
100
AcDbEntity
  8
0
  6
Continuous
 62
     2
100
AcDbLine
 10
-965.5865647257178
 20
-1114.124065482897
 30
0.0
 11
-965.5865647257178
 21
-1115.432840993102
 31
0.0
  0
LINE
  5
26C
102
{ACAD_REACTORS
330
346
330
347
102
}
330
71
100
AcDbEntity
  8
0
  6
Continuous
 62
     2
100
AcDbLine
 10
-966.8270691359719
 20
-1114.124065482897
 30
0.0
 11
-968.0198618381384
 21
-1114.124065482897
 31
0.0
  0
LINE
  5
26D
102
{ACAD_REACTORS
330
346
330
347
102
}
330
71
100
AcDbEntity
  8
0
  6
Continuous
 62
     2
100
AcDbLine
 10
-968.0198618381384
 20
-1114.124065482897
 30
0.0
 11
-968.0198618381384
 21
-1117.177875006708
 31
0.0
  0
LINE
  5
26E
102
{ACAD_REACTORS
330
346
330
347
102
}
330
71
100
AcDbEntity
  8
0
  6
Continuous
 62
     2
100
AcDbLine
 10
-966.8270691359719
 20
-1117.177875006708
 30
0.0
 11
-966.8270691359719
 21
-1115.869099496503
 31
0.0
  0
LINE
  5
26F
102
{ACAD_REACTORS
330
344
330
345
102
}
330
71
100
AcDbEntity
  8
0
  6
Continuous
 62
     2
100
AcDbLine
 10
-967.4951839800699
 20
-1120.537065482882
 30
0.0
 11
-967.4951839800699
 21
-1118.268521265195
 31
0.0
  0
LINE
  5
270
102
{ACAD_REACTORS
330
344
330
345
102
}
330
71
100
AcDbEntity
  8
0
  6
Continuous
 62
     2
100
AcDbLine
 10
-967.4951839800699
 20
-1118.268521265195
 30
0.0
 11
-966.6840849425973
 21
-1118.268521265195
 31
0.0
  0
LINE
  5
271
102
{ACAD_REACTORS
330
344
330
345
102
}
330
71
100
AcDbEntity
  8
0
  6
Continuous
 62
     2
100
AcDbLine
 10
-966.6840849425973
 20
-1118.268521265195
 30
0.0
 11
-966.6840849425973
 21
-1117.483255959071
 31
0.0
  0
LINE
  5
272
102
{ACAD_REACTORS
330
344
330
345
102
}
330
71
100
AcDbEntity
  8
0
  6
Continuous
 62
     2
100
AcDbLine
 10
-966.6840849425973
 20
-1117.483255959071
 30
0.0
 11
-969.499075719711
 21
-1117.483255959071
 31
0.0
  0
LINE
  5
273
102
{ACAD_REACTORS
330
344
330
345
102
}
330
71
100
AcDbEntity
  8
0
  6
Continuous
 62
     2
100
AcDbLine
 10
-969.499075719711
 20
-1118.268521265195
 30
0.0
 11
-968.6879766822364
 21
-1118.268521265195
 31
0.0
  0
LINE
  5
274
102
{ACAD_REACTORS
330
342
330
343
102
}
330
71
100
AcDbEntity
  8
0
  6
Continuous
 62
     2
100
AcDbLine
 10
-965.8895791168
 20
-1119.996104938664
 30
0.0
 11
-964.7571375401261
 21
-1119.996104938664
 31
0.0
  0
LINE
  5
275
102
{ACAD_REACTORS
330
342
330
343
102
}
330
71
100
AcDbEntity
  8
0
  6
Continuous
 62
     2
100
AcDbLine
 10
-963.3051530763964
 20
-1120.537065482882
 30
0.0
 11
-964.5456574866504
 21
-1120.537065482882
 31
0.0
  0
LINE
  5
276
102
{ACAD_REACTORS
330
342
330
343
102
}
330
71
100
AcDbEntity
  8
0
  6
Continuous
 62
     2
100
AcDbLine
 10
-965.9436105335894
 20
-1117.483255959071
 30
0.0
 11
-967.3415635805287
 21
-1120.537065482882
 31
0.0
  0
LINE
  5
277
102
{ACAD_REACTORS
330
342
330
343
102
}
330
71
100
AcDbEntity
  8
0
  6
Continuous
 62
     2
100
AcDbLine
 10
-966.1010591702758
 20
-1120.537065482882
 30
0.0
 11
-965.8895791168
 21
-1119.996104938664
 31
0.0
  0
LINE
  5
278
102
{ACAD_REACTORS
330
342
330
343
102
}
330
71
100
AcDbEntity
  8
0
  6
Continuous
 62
     2
100
AcDbLine
 10
-965.623523565655
 20
-1119.315541673358
 30
0.0
 11
-965.3233583284625
 21
-1118.547726707371
 31
0.0
  0
LINE
  5
279
102
{ACAD_REACTORS
330
340
330
341
102
}
330
71
100
AcDbEntity
  8
0
  6
Continuous
 62
     2
100
AcDbLine
 10
-964.1552134831173
 20
-1117.177875006708
 30
0.0
 11
-964.1552134831173
 21
-1114.124065482897
 31
0.0
  0
LINE
  5
27A
102
{ACAD_REACTORS
330
340
330
341
102
}
330
71
100
AcDbEntity
  8
0
  6
Continuous
 62
     2
100
AcDbLine
 10
-962.9147090728644
 20
-1114.124065482897
 30
0.0
 11
-962.9147090728644
 21
-1117.177875006708
 31
0.0
  0
LINE
  5
27B
102
{ACAD_REACTORS
330
340
330
341
102
}
330
71
100
AcDbEntity
  8
0
  6
Continuous
 62
     2
100
AcDbLine
 10
-964.1552134831173
 20
-1114.124065482897
 30
0.0
 11
-962.9147090728644
 21
-1114.124065482897
 31
0.0
  0
LINE
  5
27C
102
{ACAD_REACTORS
330
33E
330
33F
102
}
330
71
100
AcDbEntity
  8
0
  6
Continuous
 62
     2
100
AcDbLine
 10
-960.6961146468336
 20
-1116.390143221414
 30
0.0
 11
-959.9995237087682
 21
-1117.177875006708
 31
0.0
  0
LINE
  5
27D
102
{ACAD_REACTORS
330
33E
330
33F
102
}
330
71
100
AcDbEntity
  8
0
  6
Continuous
 62
     2
100
AcDbLine
 10
-959.9995237087682
 20
-1117.177875006708
 30
0.0
 11
-958.5967994910199
 21
-1117.177875006708
 31
0.0
  0
LINE
  5
27E
102
{ACAD_REACTORS
330
33E
330
33F
102
}
330
71
100
AcDbEntity
  8
0
  6
Continuous
 62
     2
100
AcDbLine
 10
-959.9947525379602
 20
-1115.597016012933
 30
0.0
 11
-958.5967994910199
 21
-1117.177875006708
 31
0.0
  0
LINE
  5
27F
102
{ACAD_REACTORS
330
33E
330
33F
102
}
330
71
100
AcDbEntity
  8
0
  6
Continuous
 62
     2
100
AcDbLine
 10
-959.9947525379602
 20
-1115.597016012933
 30
0.0
 11
-958.6922229071936
 21
-1114.124065482897
 31
0.0
  0
LINE
  5
280
102
{ACAD_REACTORS
330
33E
330
33F
102
}
330
71
100
AcDbEntity
  8
0
  6
Continuous
 62
     2
100
AcDbLine
 10
-960.6961146468336
 20
-1114.803888804452
 30
0.0
 11
-960.0949471249409
 21
-1114.124065482897
 31
0.0
  0
LINE
  5
281
102
{ACAD_REACTORS
330
33E
330
33F
102
}
330
71
100
AcDbEntity
  8
0
  6
Continuous
 62
     2
100
AcDbLine
 10
-961.2972821687255
 20
-1114.124065482897
 30
0.0
 11
-960.6961146468336
 21
-1114.803888804452
 31
0.0
  0
LINE
  5
282
102
{ACAD_REACTORS
330
33E
330
33F
102
}
330
71
100
AcDbEntity
  8
0
  6
Continuous
 62
     2
100
AcDbLine
 10
-961.2972821687255
 20
-1114.124065482897
 30
0.0
 11
-962.7000063864748
 21
-1114.124065482897
 31
0.0
  0
LINE
  5
283
102
{ACAD_REACTORS
330
334
330
335
102
}
330
71
100
AcDbEntity
  8
0
  6
Continuous
 62
     2
100
AcDbLine
 10
-960.6006912306609
 20
-1120.537065482882
 30
0.0
 11
-959.4078985284932
 21
-1120.537065482882
 31
0.0
  0
LINE
  5
284
102
{ACAD_REACTORS
330
334
330
335
102
}
330
71
100
AcDbEntity
  8
0
  6
Continuous
 62
     2
100
AcDbLine
 10
-959.4078985284932
 20
-1120.537065482882
 30
0.0
 11
-959.4078985284932
 21
-1118.268521265195
 31
0.0
  0
LINE
  5
285
102
{ACAD_REACTORS
330
334
330
335
102
}
330
71
100
AcDbEntity
  8
0
  6
Continuous
 62
     2
100
AcDbLine
 10
-959.4078985284932
 20
-1118.268521265195
 30
0.0
 11
-958.5967994910199
 21
-1118.268521265195
 31
0.0
  0
LINE
  5
286
102
{ACAD_REACTORS
330
334
330
335
102
}
330
71
100
AcDbEntity
  8
0
  6
Continuous
 62
     2
100
AcDbLine
 10
-958.5967994910199
 20
-1118.268521265195
 30
0.0
 11
-958.5967994910199
 21
-1117.483255959071
 31
0.0
  0
LINE
  5
287
102
{ACAD_REACTORS
330
334
330
335
102
}
330
71
100
AcDbEntity
  8
0
  6
Continuous
 62
     2
100
AcDbLine
 10
-961.9817450096485
 20
-1117.483255959072
 30
0.0
 11
-958.5967994910199
 21
-1117.483255959071
 31
0.0
  0
LINE
  5
288
102
{ACAD_REACTORS
330
334
330
335
102
}
330
71
100
AcDbEntity
  8
0
  6
Continuous
 62
     2
100
AcDbLine
 10
-960.6006912306609
 20
-1118.268521265195
 30
0.0
 11
-960.6006912306609
 21
-1120.537065482882
 31
0.0
  0
LINE
  5
289
102
{ACAD_REACTORS
330
336
330
337
102
}
330
71
100
AcDbEntity
  8
0
  6
Continuous
 62
     2
100
AcDbLine
 10
-983.2301776661402
 20
-1118.558185333318
 30
0.0
 11
-983.2301776661402
 21
-1117.976333926623
 31
0.0
  0
LINE
  5
28A
102
{ACAD_REACTORS
330
336
330
337
102
}
330
71
100
AcDbEntity
  8
0
  6
Continuous
 62
     2
100
AcDbLine
 10
-983.2301776661402
 20
-1115.758050726686
 30
0.0
 11
-983.2301776661402
 21
-1115.15251543818
 31
0.0
  0
LINE
  5
28B
330
71
100
AcDbEntity
  8
1
  6
Continuous
 62
     6
100
AcDbLine
 10
-1004.699999081537
 20
-1127.830565482899
 30
0.0
 11
-990.7448036082869
 21
-1127.830565482899
 31
0.0
  0
LINE
  5
28C
330
71
100
AcDbEntity
  8
1
  6
Continuous
 62
     6
100
AcDbLine
 10
-1054.699999081537
 20
-1127.830565482899
 30
0.0
 11
-1059.744803608287
 21
-1127.830565482899
 31
0.0
  0
LINE
  5
28D
330
71
100
AcDbEntity
  8
1
  6
Continuous
 62
     6
100
AcDbLine
 10
-904.6999990815369
 20
-1127.830565482899
 30
0.0
 11
-861.1999990815369
 21
-1127.830565482899
 31
0.0
  0
LINE
  5
28E
330
71
100
AcDbEntity
  8
1
  6
Continuous
 62
     6
100
AcDbLine
 10
-954.6999990815369
 20
-1127.830565482899
 30
0.0
 11
-972.5448036082869
 21
-1127.830565482899
 31
0.0
  0
LINE
  5
28F
330
71
100
AcDbEntity
  8
1
  6
Continuous
 62
     2
100
AcDbLine
 10
-861.1999990815369
 20
-1127.830565482899
 30
0.0
 11
-856.199999081538
 21
-1127.830565482899
 31
0.0
  0
LINE
  5
290
330
71
100
AcDbEntity
  8
1
  6
Continuous
 62
     2
100
AcDbLine
 10
-861.1999990815369
 20
-1127.830565482899
 30
0.0
 11
-861.1999990815369
 21
-1132.830565482899
 31
0.0
  0
LINE
  5
291
330
71
100
AcDbEntity
  8
1
  6
Continuous
 62
     6
100
AcDbLine
 10
-990.7448036082869
 20
-1110.830565482899
 30
0.0
 11
-954.3448036082871
 21
-1110.830565482899
 31
0.0
  0
LINE
  5
292
330
71
100
AcDbEntity
  8
1
  6
Continuous
 62
     2
100
AcDbLine
 10
-856.199999081538
 20
-1132.830565482899
 30
0.0
 11
-856.199999081538
 21
-1127.830565482899
 31
0.0
  0
LINE
  5
293
330
71
100
AcDbEntity
  8
1
  6
Continuous
 62
     2
100
AcDbLine
 10
-856.199999081538
 20
-1132.830565482899
 30
0.0
 11
-861.1999990815369
 21
-1132.830565482899
 31
0.0
  0
LINE
  5
294
330
71
100
AcDbEntity
  8
1
  6
Continuous
 62
     2
100
AcDbLine
 10
-861.1999990815369
 20
-1132.830565482899
 30
0.0
 11
-904.6999990815369
 21
-1132.830565482899
 31
0.0
  0
LINE
  5
295
330
71
100
AcDbEntity
  8
1
  6
Continuous
 62
     6
100
AcDbLine
 10
-861.1999990815352
 20
-1110.830565482899
 30
0.0
 11
-861.199999081536
 21
-1077.830565482898
 31
0.0
  0
LINE
  5
296
330
71
100
AcDbEntity
  8
1
  6
Continuous
 62
     2
100
AcDbLine
 10
-856.199999081538
 20
-922.8305654828985
 30
0.0
 11
-1004.699999081537
 21
-922.8305654828985
 31
0.0
  0
LINE
  5
297
330
71
100
AcDbEntity
  8
1
  6
Continuous
 62
     6
100
AcDbLine
 10
-861.199999081538
 20
-942.8305654828985
 30
0.0
 11
-1148.199999081536
 21
-942.8305654828985
 31
0.0
  0
LINE
  5
298
330
71
100
AcDbEntity
  8
1
  6
Continuous
 62
     2
100
AcDbLine
 10
-861.199999081536
 20
-1077.830565482898
 30
0.0
 11
-856.199999081538
 21
-1077.830565482898
 31
0.0
  0
LINE
  5
299
330
71
100
AcDbEntity
  8
1
  6
Continuous
 62
     6
100
AcDbLine
 10
-861.199999081536
 20
-1077.830565482898
 30
0.0
 11
-861.1999990815366
 21
-1027.830565482899
 31
0.0
  0
LINE
  5
29A
330
71
100
AcDbEntity
  8
1
  6
Continuous
 62
     2
100
AcDbLine
 10
-856.199999081538
 20
-1077.830565482898
 30
0.0
 11
-856.199999081538
 21
-1027.830565482899
 31
0.0
  0
LINE
  5
29B
330
71
100
AcDbEntity
  8
1
  6
Continuous
 62
     2
100
AcDbLine
 10
-861.1999990815366
 20
-1027.830565482899
 30
0.0
 11
-856.199999081538
 21
-1027.830565482899
 31
0.0
  0
LINE
  5
29C
330
71
100
AcDbEntity
  8
1
  6
Continuous
 62
     6
100
AcDbLine
 10
-861.1999990815366
 20
-1027.830565482899
 30
0.0
 11
-861.1999990815377
 21
-977.8305654828985
 31
0.0
  0
LINE
  5
29D
330
71
100
AcDbEntity
  8
1
  6
Continuous
 62
     2
100
AcDbLine
 10
-856.199999081538
 20
-1027.830565482899
 30
0.0
 11
-856.199999081538
 21
-977.8305654828985
 31
0.0
  0
LINE
  5
29E
330
71
100
AcDbEntity
  8
1
  6
Continuous
 62
     2
100
AcDbLine
 10
-861.1999990815377
 20
-977.8305654828985
 30
0.0
 11
-856.199999081538
 21
-977.8305654828985
 31
0.0
  0
LINE
  5
29F
330
71
100
AcDbEntity
  8
1
  6
Continuous
 62
     6
100
AcDbLine
 10
-861.1999990815377
 20
-977.8305654828985
 30
0.0
 11
-861.199999081538
 21
-942.8305654828985
 31
0.0
  0
LINE
  5
2A0
330
71
100
AcDbEntity
  8
1
  6
Continuous
 62
     2
100
AcDbLine
 10
-856.199999081538
 20
-977.8305654828985
 30
0.0
 11
-856.199999081538
 21
-922.8305654828985
 31
0.0
  0
LINE
  5
2A1
330
71
100
AcDbEntity
  8
1
  6
Continuous
 62
     2
100
AcDbLine
 10
-856.199999081538
 20
-1127.830565482899
 30
0.0
 11
-856.199999081538
 21
-1077.830565482898
 31
0.0
  0
LINE
  5
2A2
330
71
100
AcDbEntity
  8
1
  6
Continuous
 62
     2
100
AcDbLine
 10
-1004.699999081537
 20
-922.8305654828985
 30
0.0
 11
-1153.199999081536
 21
-922.8305654828985
 31
0.0
  0
LINE
  5
2A3
330
71
100
AcDbEntity
  8
1
  6
Continuous
 62
     2
100
AcDbLine
 10
-1004.699999081537
 20
-922.8305654828985
 30
0.0
 11
-1004.699999081537
 21
-932.0392573275998
 31
0.0
  0
LINE
  5
2A4
330
71
100
AcDbEntity
  8
1
  6
Continuous
 62
     2
100
AcDbLine
 10
-1153.199999081536
 20
-1132.830565482899
 30
0.0
 11
-1148.199999081535
 21
-1132.830565482899
 31
0.0
  0
LINE
  5
2A5
330
71
100
AcDbEntity
  8
1
  6
Continuous
 62
     2
100
AcDbLine
 10
-1153.199999081536
 20
-922.8305654828985
 30
0.0
 11
-1153.199999081536
 21
-977.8305654828985
 31
0.0
  0
LINE
  5
2A6
330
71
100
AcDbEntity
  8
1
  6
Continuous
 62
     6
100
AcDbLine
 10
-1148.199999081536
 20
-942.8305654828985
 30
0.0
 11
-1148.199999081536
 21
-977.8305654828985
 31
0.0
  0
LINE
  5
2A7
330
71
100
AcDbEntity
  8
1
  6
Continuous
 62
     2
100
AcDbLine
 10
-1153.199999081536
 20
-977.8305654828985
 30
0.0
 11
-1148.199999081536
 21
-977.8305654828985
 31
0.0
  0
LINE
  5
2A8
330
71
100
AcDbEntity
  8
1
  6
Continuous
 62
     2
100
AcDbLine
 10
-1153.199999081536
 20
-977.8305654828985
 30
0.0
 11
-1153.199999081536
 21
-1027.830565482899
 31
0.0
  0
LINE
  5
2A9
330
71
100
AcDbEntity
  8
1
  6
Continuous
 62
     6
100
AcDbLine
 10
-1148.199999081536
 20
-977.8305654828985
 30
0.0
 11
-1148.199999081536
 21
-1027.830565482899
 31
0.0
  0
LINE
  5
2AA
330
71
100
AcDbEntity
  8
1
  6
Continuous
 62
     2
100
AcDbLine
 10
-1153.199999081536
 20
-1027.830565482899
 30
0.0
 11
-1148.199999081536
 21
-1027.830565482899
 31
0.0
  0
LINE
  5
2AB
330
71
100
AcDbEntity
  8
1
  6
Continuous
 62
     2
100
AcDbLine
 10
-1153.199999081536
 20
-1027.830565482899
 30
0.0
 11
-1153.199999081536
 21
-1077.830565482898
 31
0.0
  0
LINE
  5
2AC
330
71
100
AcDbEntity
  8
1
  6
Continuous
 62
     6
100
AcDbLine
 10
-1148.199999081536
 20
-1027.830565482899
 30
0.0
 11
-1148.199999081535
 21
-1077.830565482898
 31
0.0
  0
LINE
  5
2AD
330
71
100
AcDbEntity
  8
1
  6
Continuous
 62
     2
100
AcDbLine
 10
-1153.199999081536
 20
-1077.830565482898
 30
0.0
 11
-1148.199999081535
 21
-1077.830565482898
 31
0.0
  0
LINE
  5
2AE
330
71
100
AcDbEntity
  8
1
  6
Continuous
 62
     2
100
AcDbLine
 10
-1153.199999081536
 20
-1077.830565482898
 30
0.0
 11
-1153.199999081536
 21
-1127.830565482899
 31
0.0
  0
LINE
  5
2AF
330
71
100
AcDbEntity
  8
1
  6
Continuous
 62
     6
100
AcDbLine
 10
-1148.199999081535
 20
-1077.830565482898
 30
0.0
 11
-1148.199999081535
 21
-1127.830565482899
 31
0.0
  0
LINE
  5
2B0
330
71
100
AcDbEntity
  8
1
  6
Continuous
 62
     2
100
AcDbLine
 10
-1104.699999081537
 20
-1132.830565482899
 30
0.0
 11
-1104.699999081537
 21
-1127.830565482899
 31
0.0
  0
LINE
  5
2B1
330
71
100
AcDbEntity
  8
1
  6
Continuous
 62
     2
100
AcDbLine
 10
-1104.699999081537
 20
-1132.830565482899
 30
0.0
 11
-1054.699999081537
 21
-1132.830565482899
 31
0.0
  0
LINE
  5
2B2
330
71
100
AcDbEntity
  8
1
  6
Continuous
 62
     2
100
AcDbLine
 10
-1054.699999081537
 20
-1132.830565482899
 30
0.0
 11
-1054.699999081537
 21
-1127.830565482899
 31
0.0
  0
LINE
  5
2B3
330
71
100
AcDbEntity
  8
1
  6
Continuous
 62
     2
100
AcDbLine
 10
-1054.699999081537
 20
-1132.830565482899
 30
0.0
 11
-1004.699999081537
 21
-1132.830565482899
 31
0.0
  0
LINE
  5
2B4
330
71
100
AcDbEntity
  8
1
  6
Continuous
 62
     2
100
AcDbLine
 10
-1004.699999081537
 20
-1132.830565482899
 30
0.0
 11
-1004.699999081537
 21
-1127.830565482899
 31
0.0
  0
LINE
  5
2B5
330
71
100
AcDbEntity
  8
1
  6
Continuous
 62
     2
100
AcDbLine
 10
-1004.699999081537
 20
-1132.830565482899
 30
0.0
 11
-954.6999990815369
 21
-1132.830565482899
 31
0.0
  0
LINE
  5
2B6
330
71
100
AcDbEntity
  8
1
  6
Continuous
 62
     2
100
AcDbLine
 10
-954.6999990815369
 20
-1132.830565482899
 30
0.0
 11
-954.6999990815369
 21
-1127.830565482899
 31
0.0
  0
LINE
  5
2B7
330
71
100
AcDbEntity
  8
1
  6
Continuous
 62
     2
100
AcDbLine
 10
-904.6999990815369
 20
-1132.830565482899
 30
0.0
 11
-904.6999990815369
 21
-1127.830565482899
 31
0.0
  0
LINE
  5
2B8
330
71
100
AcDbEntity
  8
1
  6
Continuous
 62
     2
100
AcDbLine
 10
-904.6999990815369
 20
-1132.830565482899
 30
0.0
 11
-954.6999990815369
 21
-1132.830565482899
 31
0.0
  0
LINE
  5
2B9
330
71
100
AcDbEntity
  8
1
  6
Continuous
 62
     2
100
AcDbLine
 10
-1148.199999081535
 20
-1127.830565482899
 30
0.0
 11
-1148.199999081535
 21
-1132.830565482899
 31
0.0
  0
LINE
  5
2BA
330
71
100
AcDbEntity
  8
1
  6
Continuous
 62
     2
100
AcDbLine
 10
-1148.199999081535
 20
-1132.830565482899
 30
0.0
 11
-1104.699999081537
 21
-1132.830565482899
 31
0.0
  0
LINE
  5
2BB
330
71
100
AcDbEntity
  8
1
  6
Continuous
 62
     2
100
AcDbLine
 10
-1148.199999081535
 20
-1127.830565482899
 30
0.0
 11
-1153.199999081536
 21
-1127.830565482899
 31
0.0
  0
LINE
  5
2BC
330
71
100
AcDbEntity
  8
1
  6
Continuous
 62
     2
100
AcDbLine
 10
-1153.199999081536
 20
-1127.830565482899
 30
0.0
 11
-1153.199999081536
 21
-1132.830565482899
 31
0.0
  0
LINE
  5
2BD
330
71
100
AcDbEntity
  8
1
  6
Continuous
 62
     6
100
AcDbLine
 10
-861.1999990815369
 20
-1127.830565482899
 30
0.0
 11
-861.1999990815357
 21
-1119.330565482899
 31
0.0
  0
LINE
  5
2BE
330
71
100
AcDbEntity
  8
1
  6
Continuous
 62
     6
100
AcDbLine
 10
-954.3448036082871
 20
-1127.830565482899
 30
0.0
 11
-904.6999990815369
 21
-1127.830565482899
 31
0.0
  0
LINE
  5
2BF
330
71
100
AcDbEntity
  8
1
  6
Continuous
 62
     6
100
AcDbLine
 10
-1106.999999081537
 20
-1127.830565482899
 30
0.0
 11
-1104.699999081537
 21
-1127.830565482899
 31
0.0
  0
LINE
  5
2C0
330
71
100
AcDbEntity
  8
1
  6
Continuous
 62
     6
100
AcDbLine
 10
-1004.699999081537
 20
-1127.830565482899
 30
0.0
 11
-1054.699999081537
 21
-1127.830565482899
 31
0.0
  0
LINE
  5
2C1
330
71
100
AcDbEntity
  8
1
  6
Continuous
 62
     7
100
AcDbLine
 10
-990.7448036082869
 20
-1110.830565482899
 30
0.0
 11
-990.7448036082869
 21
-1123.580565482899
 31
0.0
  0
LINE
  5
2C2
330
71
100
AcDbEntity
  8
1
  6
Continuous
 62
     7
100
AcDbLine
 10
-954.3448036082871
 20
-1110.830565482899
 30
0.0
 11
-954.3448036082871
 21
-1123.580565482899
 31
0.0
  0
LINE
  5
2C3
330
71
100
AcDbEntity
  8
1
  6
Continuous
 62
     6
100
AcDbLine
 10
-1106.999999081537
 20
-1127.830565482899
 30
0.0
 11
-1113.199999081535
 21
-1127.830565482899
 31
0.0
  0
LINE
  5
2C4
330
71
100
AcDbEntity
  8
1
  6
Continuous
 62
     6
100
AcDbLine
 10
-954.3448036082871
 20
-1127.830565482899
 30
0.0
 11
-954.6999990815369
 21
-1127.830565482899
 31
0.0
  0
LINE
  5
2C5
330
71
100
AcDbEntity
  8
1
  6
Continuous
 62
     6
100
AcDbLine
 10
-861.1999990815352
 20
-1110.830565482899
 30
0.0
 11
-861.1999990815357
 21
-1119.330565482899
 31
0.0
  0
LINE
  5
2C6
330
71
100
AcDbEntity
  8
1
  6
Continuous
 62
     6
100
AcDbLine
 10
-1113.199999081535
 20
-1127.830565482899
 30
0.0
 11
-1148.199999081535
 21
-1127.830565482899
 31
0.0
  0
LINE
  5
2C7
330
71
100
AcDbEntity
  8
1
  6
Continuous
 62
     2
100
AcDbLine
 10
-986.5081487217244
 20
-1105.455565482899
 30
0.0
 11
-981.5081487217244
 21
-1104.205565482899
 31
0.0
  0
LINE
  5
2C8
330
71
100
AcDbEntity
  8
1
  6
Continuous
 62
     2
100
AcDbLine
 10
-986.5081487217244
 20
-1107.955565482899
 30
0.0
 11
-986.5081487217244
 21
-1105.455565482899
 31
0.0
  0
LINE
  5
2C9
330
71
100
AcDbEntity
  8
1
  6
Continuous
 62
     2
100
AcDbLine
 10
-981.5081487217244
 20
-1109.205565482899
 30
0.0
 11
-986.5081487217244
 21
-1107.955565482899
 31
0.0
  0
LINE
  5
2CA
330
71
100
AcDbEntity
  8
1
  6
Continuous
 62
     2
100
AcDbLine
 10
-981.5081487217244
 20
-1104.205565482899
 30
0.0
 11
-981.5081487217244
 21
-1109.205565482899
 31
0.0
  0
LINE
  5
2CB
330
71
100
AcDbEntity
  8
1
  6
Continuous
 62
     7
100
AcDbLine
 10
-990.7448036082869
 20
-1123.580565482899
 30
0.0
 11
-972.5448036082869
 21
-1123.580565482899
 31
0.0
  0
LINE
  5
2CC
330
71
100
AcDbEntity
  8
1
  6
Continuous
 62
     7
100
AcDbLine
 10
-990.7448036082869
 20
-1123.580565482899
 30
0.0
 11
-990.7448036082869
 21
-1127.830565482899
 31
0.0
  0
LINE
  5
2CD
330
71
100
AcDbEntity
  8
1
  6
Continuous
 62
     7
100
AcDbLine
 10
-954.3448036082871
 20
-1123.580565482899
 30
0.0
 11
-954.3448036082871
 21
-1127.830565482899
 31
0.0
  0
LINE
  5
2CE
330
71
100
AcDbEntity
  8
1
  6
Continuous
 62
     7
100
AcDbLine
 10
-972.5448036082869
 20
-1123.580565482899
 30
0.0
 11
-972.5448036082869
 21
-1127.830565482899
 31
0.0
  0
LINE
  5
2CF
330
71
100
AcDbEntity
  8
1
  6
Continuous
 62
     6
100
AcDbLine
 10
-972.5448036082869
 20
-1127.830565482899
 30
0.0
 11
-990.7448036082869
 21
-1127.830565482899
 31
0.0
  0
LINE
  5
2D0
330
71
100
AcDbEntity
  8
1
  6
Continuous
 62
     7
100
AcDbLine
 10
-972.5448036082869
 20
-1123.580565482899
 30
0.0
 11
-954.3448036082871
 21
-1123.580565482899
 31
0.0
  0
LINE
  5
2D1
330
71
100
AcDbEntity
  8
1
  6
Continuous
 62
     6
100
AcDbLine
 10
-990.7448036082869
 20
-1102.330565482899
 30
0.0
 11
-861.1999990815352
 21
-1102.330565482899
 31
0.0
  0
ARC
  5
2D2
102
{ACAD_REACTORS
330
33A
330
33B
102
}
330
71
100
AcDbEntity
  8
0
  6
Continuous
 62
     2
100
AcDbCircle
 10
-975.3531556093269
 20
-1119.010160720977
 30
0.0
 40
0.7717997786796852
100
AcDbArc
 50
321.8795802028358
 51
38.12041979716419
  0
ARC
  5
2D3
102
{ACAD_REACTORS
330
33A
330
33B
102
}
330
71
100
AcDbEntity
  8
0
  6
Continuous
 62
     2
100
AcDbCircle
 10
-975.1534155729805
 20
-1119.166891899097
 30
0.0
 40
0.5179085730137529
100
AcDbArc
 50
218.1204197971956
 51
321.8795802027966
  0
ARC
  5
2D4
102
{ACAD_REACTORS
330
33A
330
33B
102
}
330
71
100
AcDbEntity
  8
0
  6
Continuous
 62
     2
100
AcDbCircle
 10
-974.9536755366345
 20
-1119.010160720977
 30
0.0
 40
0.7717997786795062
100
AcDbArc
 50
141.8795802028254
 51
218.1204197971746
  0
ARC
  5
2D5
102
{ACAD_REACTORS
330
33A
330
33B
102
}
330
71
100
AcDbEntity
  8
0
  6
Continuous
 62
     2
100
AcDbCircle
 10
-975.1534155729805
 20
-1118.853429542856
 30
0.0
 40
0.517908573013102
100
AcDbArc
 50
38.12041979712424
 51
141.8795802028835
  0
ARC
  5
2D6
102
{ACAD_REACTORS
330
332
330
333
102
}
330
71
100
AcDbEntity
  8
0
  6
Continuous
 62
     2
100
AcDbCircle
 10
-978.2154297085444
 20
-1120.420627086385
 30
0.0
 40
2.227384008973453
100
AcDbArc
 50
58.06909105004033
 51
71.55192388186352
  0
ARC
  5
2D7
102
{ACAD_REACTORS
330
332
330
333
102
}
330
71
100
AcDbEntity
  8
0
  6
Continuous
 62
     2
100
AcDbCircle
 10
-977.9537020075857
 20
-1118.805089291638
 30
0.0
 40
0.5115800601953623
100
AcDbArc
 50
113.3722778881722
 51
151.4785267422724
  0
ARC
  5
2D8
102
{ACAD_REACTORS
330
332
330
333
102
}
330
71
100
AcDbEntity
  8
0
  6
Continuous
 62
     2
100
AcDbCircle
 10
-977.5763447495053
 20
-1119.010160720977
 30
0.0
 40
0.941059735333413
100
AcDbArc
 50
151.4785267422564
 51
208.521473257695
  0
ARC
  5
2D9
102
{ACAD_REACTORS
330
332
330
333
102
}
330
71
100
AcDbEntity
  8
0
  6
Continuous
 62
     2
100
AcDbCircle
 10
-978.3733025836374
 20
-1115.697479775721
 30
0.0
 40
4.852596863497943
100
AcDbArc
 50
275.1581447696255
 51
285.9799912583556
  0
ARC
  5
2DA
102
{ACAD_REACTORS
330
332
330
333
102
}
330
71
100
AcDbEntity
  8
0
  6
Continuous
 62
     2
100
AcDbCircle
 10
-978.0844464889014
 20
-1118.897370358942
 30
0.0
 40
1.639695123939543
100
AcDbArc
 50
195.0618917771097
 51
275.1581447696385
  0
ARC
  5
2DB
102
{ACAD_REACTORS
330
332
330
333
102
}
330
71
100
AcDbEntity
  8
0
  6
Continuous
 62
     2
100
AcDbCircle
 10
-978.5035743323642
 20
-1119.010160720977
 30
0.0
 40
1.205656168390927
100
AcDbArc
 50
164.9381082228846
 51
195.0618917771153
  0
ARC
  5
2DC
102
{ACAD_REACTORS
330
332
330
333
102
}
330
71
100
AcDbEntity
  8
0
  6
Continuous
 62
     2
100
AcDbCircle
 10
-978.0844464889014
 20
-1119.122951083012
 30
0.0
 40
1.639695123940224
100
AcDbArc
 50
84.84185523036146
 51
164.9381082228903
  0
ARC
  5
2DD
102
{ACAD_REACTORS
330
336
330
337
102
}
330
71
100
AcDbEntity
  8
0
  6
Continuous
 62
     2
100
AcDbCircle
 10
-982.9144607430634
 20
-1117.976333926623
 30
0.0
 40
0.3157169230770072
100
AcDbArc
 50
115.3740086783167
 51
180.0
  0
ARC
  5
2DE
102
{ACAD_REACTORS
330
336
330
337
102
}
330
71
100
AcDbEntity
  8
0
  6
Continuous
 62
     2
100
AcDbCircle
 10
-982.9144607430634
 20
-1115.758050726686
 30
0.0
 40
0.3157169230768204
100
AcDbArc
 50
180.0
 51
244.6259913216833
  0
ARC
  5
2DF
102
{ACAD_REACTORS
330
336
330
337
102
}
330
71
100
AcDbEntity
  8
0
  6
Continuous
 62
     2
100
AcDbCircle
 10
-982.9088446077533
 20
-1116.855350385749
 30
0.0
 40
2.018561131933152
100
AcDbArc
 50
269.8110329575842
 51
90.18896704241578
  0
ARC
  5
2E0
102
{ACAD_REACTORS
330
336
330
337
102
}
330
71
100
AcDbEntity
  8
0
  6
Continuous
 62
     2
100
AcDbCircle
 10
-982.9144607430634
 20
-1118.558185333318
 30
0.0
 40
0.3157169230768204
100
AcDbArc
 50
180.0
 51
269.8110329574592
  0
ARC
  5
2E1
102
{ACAD_REACTORS
330
334
330
335
102
}
330
71
100
AcDbEntity
  8
0
  6
Continuous
 62
     2
100
AcDbCircle
 10
-961.8510005283327
 20
-1118.805089291638
 30
0.0
 40
0.5115800601948339
100
AcDbArc
 50
109.3371432194654
 51
151.4785267424227
  0
ARC
  5
2E2
102
{ACAD_REACTORS
330
334
330
335
102
}
330
71
100
AcDbEntity
  8
0
  6
Continuous
 62
     2
100
AcDbCircle
 10
-961.8510005283327
 20
-1119.215232150315
 30
0.0
 40
0.5115800601965329
100
AcDbArc
 50
208.5214732577787
 51
246.6277221118799
  0
ARC
  5
2E3
102
{ACAD_REACTORS
330
334
330
335
102
}
330
71
100
AcDbEntity
  8
0
  6
Continuous
 62
     2
100
AcDbCircle
 10
-962.4008728531102
 20
-1119.010160720977
 30
0.0
 40
1.205656168392903
100
AcDbArc
 50
164.9381082229099
 51
195.0618917770901
  0
ARC
  5
2E4
102
{ACAD_REACTORS
330
334
330
335
102
}
330
71
100
AcDbEntity
  8
0
  6
Continuous
 62
     2
100
AcDbCircle
 10
-961.9817450096485
 20
-1119.122951083012
 30
0.0
 40
1.639695123939873
100
AcDbArc
 50
90.0
 51
164.9381082228985
  0
ARC
  5
2E5
102
{ACAD_REACTORS
330
338
330
339
102
}
330
71
100
AcDbEntity
  8
0
  6
Continuous
 62
     2
100
AcDbCircle
 10
-971.4087401023522
 20
-1115.650970244803
 30
0.0
 40
1.526904761905826
100
AcDbArc
 50
90.0
 51
270.0
  0
ARC
  5
2E6
102
{ACAD_REACTORS
330
33C
330
33D
102
}
330
71
100
AcDbEntity
  8
0
  6
Continuous
 62
     2
100
AcDbCircle
 10
-978.151430847578
 20
-1115.140035153008
 30
0.0
 40
0.3528638246709761
100
AcDbArc
 50
270.0
 51
90.0
  0
ARC
  5
2E7
102
{ACAD_REACTORS
330
336
330
337
102
}
330
71
100
AcDbEntity
  8
0
  6
Continuous
 62
     2
100
AcDbCircle
 10
-985.490009429595
 20
-1115.152337961531
 30
0.0
 40
0.3157169230760246
100
AcDbArc
 50
90.0
 51
180.0
  0
ARC
  5
2E8
102
{ACAD_REACTORS
330
336
330
337
102
}
330
71
100
AcDbEntity
  8
0
  6
Continuous
 62
     2
100
AcDbCircle
 10
-983.4915917210104
 20
-1116.867192326654
 30
0.0
 40
0.9118975235571896
100
AcDbArc
 50
115.1944106485428
 51
244.8055893514816
  0
ARC
  5
2E9
102
{ACAD_REACTORS
330
336
330
337
102
}
330
71
100
AcDbEntity
  8
0
  6
Continuous
 62
     2
100
AcDbCircle
 10
-984.0141761685854
 20
-1117.978022072717
 30
0.0
 40
0.315716923076593
100
AcDbArc
 50
0.0
 51
64.80558935149101
  0
ARC
  5
2EA
102
{ACAD_REACTORS
330
336
330
337
102
}
330
71
100
AcDbEntity
  8
0
  6
Continuous
 62
     2
100
AcDbCircle
 10
-986.0839041063416
 20
-1120.112820867499
 30
0.0
 40
0.4242446153828041
100
AcDbArc
 50
180.0
 51
270.0
  0
ARC
  5
2EB
102
{ACAD_REACTORS
330
338
330
339
102
}
330
71
100
AcDbEntity
  8
0
  6
Continuous
 62
     2
100
AcDbCircle
 10
-971.192468092187
 20
-1115.494239066682
 30
0.0
 40
0.5179085730131405
100
AcDbArc
 50
38.12041979708892
 51
141.8795802029033
  0
ARC
  5
2EC
102
{ACAD_REACTORS
330
338
330
339
102
}
330
71
100
AcDbEntity
  8
0
  6
Continuous
 62
     2
100
AcDbCircle
 10
-970.9927280558408
 20
-1115.650970244803
 30
0.0
 40
0.7717997786795447
100
AcDbArc
 50
141.8795802028491
 51
218.1204197971642
  0
ARC
  5
2ED
102
{ACAD_REACTORS
330
33A
330
33B
102
}
330
71
100
AcDbEntity
  8
0
  6
Continuous
 62
     2
100
AcDbCircle
 10
-975.1534155729805
 20
-1118.471585710674
 30
0.0
 40
2.065479772207916
100
AcDbArc
 50
242.4518518243325
 51
297.5481481756955
  0
ARC
  5
2EE
102
{ACAD_REACTORS
330
33A
330
33B
102
}
330
71
100
AcDbEntity
  8
0
  6
Continuous
 62
     2
100
AcDbCircle
 10
-975.1534155729805
 20
-1119.54873573128
 30
0.0
 40
2.065479772209248
100
AcDbArc
 50
62.45185182431621
 51
117.5481481756558
  0
ARC
  5
2EF
102
{ACAD_REACTORS
330
33A
330
33B
102
}
330
71
100
AcDbEntity
  8
0
  6
Continuous
 62
     2
100
AcDbCircle
 10
-975.4343554648138
 20
-1119.010160720977
 30
0.0
 40
1.458034083651943
100
AcDbArc
 50
117.5481481756506
 51
242.4518518243328
  0
ARC
  5
2F0
102
{ACAD_REACTORS
330
33A
330
33B
102
}
330
71
100
AcDbEntity
  8
0
  6
Continuous
 62
     2
100
AcDbCircle
 10
-974.8724756811473
 20
-1119.010160720977
 30
0.0
 40
1.458034083651714
100
AcDbArc
 50
297.5481481757107
 51
62.4518518243058
  0
ARC
  5
2F1
102
{ACAD_REACTORS
330
338
330
339
102
}
330
71
100
AcDbEntity
  8
0
  6
Continuous
 62
     2
100
AcDbCircle
 10
-971.192468092187
 20
-1115.807701422923
 30
0.0
 40
0.5179085730137529
100
AcDbArc
 50
218.1204197971956
 51
321.8795802028121
  0
ARC
  5
2F2
102
{ACAD_REACTORS
330
338
330
339
102
}
330
71
100
AcDbEntity
  8
0
  6
Continuous
 62
     2
100
AcDbCircle
 10
-971.3922081285332
 20
-1115.650970244803
 30
0.0
 40
0.7717997786796852
100
AcDbArc
 50
321.8795802028358
 51
38.12041979715091
  0
ARC
  5
2F3
102
{ACAD_REACTORS
330
336
330
337
102
}
330
71
100
AcDbEntity
  8
0
  6
Continuous
 62
     2
100
AcDbCircle
 10
-980.6105920156248
 20
-1120.112820867499
 30
0.0
 40
0.4242446153830315
100
AcDbArc
 50
270.0
 51
0.0
  0
ARC
  5
2F4
102
{ACAD_REACTORS
330
336
330
337
102
}
330
71
100
AcDbEntity
  8
0
  6
Continuous
 62
     2
100
AcDbCircle
 10
-980.6105920156248
 20
-1114.548310098299
 30
0.0
 40
0.424244615383941
100
AcDbArc
 50
0.0
 51
90.0
  0
ARC
  5
2F5
102
{ACAD_REACTORS
330
336
330
337
102
}
330
71
100
AcDbEntity
  8
0
  6
Continuous
 62
     2
100
AcDbCircle
 10
-986.0839041063416
 20
-1114.548310098299
 30
0.0
 40
0.424244615383941
100
AcDbArc
 50
90.0
 51
180.0
  0
ARC
  5
2F6
102
{ACAD_REACTORS
330
336
330
337
102
}
330
71
100
AcDbEntity
  8
0
  6
Continuous
 62
     2
100
AcDbCircle
 10
-984.0141761685854
 20
-1119.508793004249
 30
0.0
 40
0.3157169230760246
100
AcDbArc
 50
270.0
 51
0.0
  0
ARC
  5
2F7
102
{ACAD_REACTORS
330
336
330
337
102
}
330
71
100
AcDbEntity
  8
0
  6
Continuous
 62
     2
100
AcDbCircle
 10
-984.0141761685854
 20
-1115.756362580592
 30
0.0
 40
0.3157169230764803
100
AcDbArc
 50
295.194410648509
 51
0.0
  0
ARC
  5
2F8
102
{ACAD_REACTORS
330
336
330
337
102
}
330
71
100
AcDbEntity
  8
0
  6
Continuous
 62
     2
100
AcDbCircle
 10
-984.0141761685854
 20
-1115.152337961531
 30
0.0
 40
0.315716923076593
100
AcDbArc
 50
0.0
 51
90.0
  0
ARC
  5
2F9
102
{ACAD_REACTORS
330
336
330
337
102
}
330
71
100
AcDbEntity
  8
0
  6
Continuous
 62
     2
100
AcDbCircle
 10
-985.490009429595
 20
-1119.508793004249
 30
0.0
 40
0.3157169230756836
100
AcDbArc
 50
180.0
 51
270.0
  0
ARC
  5
2FA
102
{ACAD_REACTORS
330
33C
330
33D
102
}
330
71
100
AcDbEntity
  8
0
  6
Continuous
 62
     2
100
AcDbCircle
 10
-977.7099583213396
 20
-1115.17943112423
 30
0.0
 40
1.055365641333992
100
AcDbArc
 50
270.0
 51
90.0
  0
ARC
  5
2FB
102
{ACAD_REACTORS
330
334
330
335
102
}
330
71
100
AcDbEntity
  8
0
  6
Continuous
 62
     2
100
AcDbCircle
 10
-961.9817450096485
 20
-1118.897370358942
 30
0.0
 40
1.639695123940421
100
AcDbArc
 50
195.0618917771015
 51
275.1581447696781
  0
ARC
  5
2FC
102
{ACAD_REACTORS
330
334
330
335
102
}
330
71
100
AcDbEntity
  8
0
  6
Continuous
 62
     2
100
AcDbCircle
 10
-962.2706011043844
 20
-1115.697479775721
 30
0.0
 40
4.852596863498034
100
AcDbArc
 50
275.1581447696375
 51
285.9799912583397
  0
ARC
  5
2FD
102
{ACAD_REACTORS
330
334
330
335
102
}
330
71
100
AcDbEntity
  8
0
  6
Continuous
 62
     2
100
AcDbCircle
 10
-962.1127282292915
 20
-1117.599694355569
 30
0.0
 40
2.227384008972611
100
AcDbArc
 50
288.4480761181346
 51
301.9309089499342
  0
ARC
  5
2FE
102
{ACAD_REACTORS
330
334
330
335
102
}
330
71
100
AcDbEntity
  8
0
  6
Continuous
 62
     2
100
AcDbCircle
 10
-961.6945604956296
 20
-1118.853240131605
 30
0.0
 40
0.9059297849860852
100
AcDbArc
 50
246.6277221118363
 51
288.4480761180715
  0
ARC
  5
2FF
102
{ACAD_REACTORS
330
334
330
335
102
}
330
71
100
AcDbEntity
  8
0
  6
Continuous
 62
     2
100
AcDbCircle
 10
-961.4736432702514
 20
-1119.010160720977
 30
0.0
 40
0.9410597353348766
100
AcDbArc
 50
151.4785267423678
 51
208.521473257693
  0
ARC
  5
300
102
{ACAD_REACTORS
330
334
330
335
102
}
330
71
100
AcDbEntity
  8
0
  6
Continuous
 62
     2
100
AcDbCircle
 10
-961.7043305302291
 20
-1119.223044272021
 30
0.0
 40
0.9545230068260935
100
AcDbArc
 50
90.0
 51
109.3371432194175
  0
ARC
  5
301
102
{ACAD_REACTORS
330
336
330
337
102
}
330
71
100
AcDbEntity
  8
0
  6
Continuous
 62
     2
100
AcDbCircle
 10
-982.9144607430634
 20
-1115.15251543818
 30
0.0
 40
0.3157169230760141
100
AcDbArc
 50
90.18896704254082
 51
180.0
  0
ARC
  5
302
102
{ACAD_REACTORS
330
336
330
337
102
}
330
71
100
AcDbEntity
  8
0
  6
Continuous
 62
     2
100
AcDbCircle
 10
-983.4405034411512
 20
-1116.867192326654
 30
0.0
 40
0.9118481501445116
100
AcDbArc
 50
295.374008678171
 51
64.62599132180456
  0
ARC
  5
303
102
{ACAD_REACTORS
330
332
330
333
102
}
330
71
100
AcDbEntity
  8
0
  6
Continuous
 62
     2
100
AcDbCircle
 10
-978.2154297085444
 20
-1117.599694355568
 30
0.0
 40
2.227384008972396
100
AcDbArc
 50
288.4480761181364
 51
301.9309089499596
  0
ARC
  5
304
102
{ACAD_REACTORS
330
332
330
333
102
}
330
71
100
AcDbEntity
  8
0
  6
Continuous
 62
     2
100
AcDbCircle
 10
-977.7972619748837
 20
-1118.853240131605
 30
0.0
 40
0.9059297849856793
100
AcDbArc
 50
246.6277221118958
 51
288.4480761181624
  0
ARC
  5
305
102
{ACAD_REACTORS
330
332
330
333
102
}
330
71
100
AcDbEntity
  8
0
  6
Continuous
 62
     2
100
AcDbCircle
 10
-977.9537020075857
 20
-1119.215232150315
 30
0.0
 40
0.5115800601949912
100
AcDbArc
 50
208.5214732577276
 51
246.6277221118682
  0
ARC
  5
306
102
{ACAD_REACTORS
330
332
330
333
102
}
330
71
100
AcDbEntity
  8
0
  6
Continuous
 62
     2
100
AcDbCircle
 10
-977.7972619748837
 20
-1119.167081310349
 30
0.0
 40
0.9059297849856105
100
AcDbArc
 50
71.55192388185576
 51
113.3722778881043
  0
ARC
  5
307
102
{ACAD_REACTORS
330
332
330
333
102
}
330
71
100
AcDbEntity
  8
0
  6
Continuous
 62
     2
100
AcDbCircle
 10
-978.3733025836374
 20
-1122.322841666233
 30
0.0
 40
4.852596863498158
100
AcDbArc
 50
74.02000874164733
 51
84.8418552303745
  0
CIRCLE
  5
308
102
{ACAD_REACTORS
330
336
330
337
102
}
330
71
100
AcDbEntity
  8
0
  6
Continuous
 62
     2
100
AcDbCircle
 10
-983.464318455824
 20
-1116.867192326654
 30
0.0
 40
0.4709789327785074
  0
CIRCLE
  5
309
330
71
100
AcDbEntity
  8
1
  6
Continuous
 62
     2
100
AcDbCircle
 10
-978.0081487217244
 20
-1106.705565482899
 30
0.0
 40
1.25
  0
CIRCLE
  5
30A
330
71
100
AcDbEntity
  8
1
  6
Continuous
 62
     2
100
AcDbCircle
 10
-978.0081487217244
 20
-1106.705565482899
 30
0.0
 40
2.5
  0
TEXT
  5
30B
330
71
100
AcDbEntity
  8
1
 62
     7
100
AcDbText
 10
-935.3712558862732
 20
-1109.530565482899
 30
0.0
 40
2.5
  1
/
 41
0.9
  7
CONVERTER_11
100
AcDbText
  0
TEXT
  5
30D
330
71
100
AcDbEntity
  8
1
 62
     7
100
AcDbText
 10
-933.2148913892312
 20
-1109.530565482899
 30
0.0
 40
2.5
  1
01
 41
0.81
  7
CONVERTER_12
100
AcDbText
  0
TEXT
  5
30E
330
71
100
AcDbEntity
  8
1
 62
     3
100
AcDbText
 10
-895.618407363214
 20
-1109.530565482899
 30
0.0
 40
2.5
  1
13.01.2018
 41
0.81
  7
CONVERTER_12
100
AcDbText
  0
MTEXT
  5
30F
330
71
100
AcDbEntity
  8
1
 62
     2
100
AcDbMText
 10
-895.618407363214
 20
-1103.330565482899
 30
0.0
 40
1.8
 41
0.0
 71
     1
 72
     1
  1
date
  7
CONVERTER_11
 73
     1
 44
1.32052821128451
  0
MTEXT
  5
310
330
71
100
AcDbEntity
  8
1
 62
     2
100
AcDbMText
 10
-925.444803608287
 20
-1111.830565482899
 30
0.0
 40
1.8
 41
0.0
 71
     1
 72
     1
  1
document-type
  7
CONVERTER_11
 73
     1
 44
1.20048019207683
  0
TEXT
  5
311
330
71
100
AcDbEntity
  8
1
 62
     3
100
AcDbText
 10
-925.444803608287
 20
-1118.030565482899
 30
0.0
 40
2.5
  1
TECDOC 2D_Productdrawing
 41
0.81
  7
CONVERTER_12
100
AcDbText
  0
MTEXT
  5
313
330
71
100
AcDbEntity
  8
1
 62
     2
100
AcDbMText
 10
-953.2448036082869
 20
-1103.330565482899
 30
0.0
 40
1.8
 41
0.0
 71
     1
 72
     1
  1
document-No. / RI
  7
CONVERTER_13
 73
     1
 44
1.32052821128451
  0
TEXT
  5
314
330
71
100
AcDbEntity
  8
1
 62
     7
100
AcDbText
 10
-953.2448036082869
 20
-1109.530565482899
 30
0.0
 40
2.5
  1
00638909
 41
0.81
  7
CONVERTER_12
100
AcDbText
  0
MTEXT
  5
316
330
71
100
AcDbEntity
  8
1
 62
     3
100
AcDbMText
 10
-865.6592032223747
 20
-1109.530565482898
 30
0.0
 40
2.5
 41
0.0
 71
     8
 72
     1
  1
1:2
  7
CONVERTER_14
 73
     1
 44
1.32052821128451
  0
MTEXT
  5
317
330
71
100
AcDbEntity
  8
1
 62
     2
100
AcDbMText
 10
-869.0184073632142
 20
-1103.330565482899
 30
0.0
 40
1.8
 41
0.0
 71
     1
 72
     1
  1
scale
  7
CONVERTER_11
 73
     1
 44
1.20048019207683
  0
MTEXT
  5
318
330
71
100
AcDbEntity
  8
1
 62
     2
100
AcDbMText
 10
-953.2448036082869
 20
-1111.830565482899
 30
0.0
 40
1.8
 41
0.0
 71
     1
 72
     1
  1
ident.-No.
  7
CONVERTER_11
 73
     1
 44
1.20048019207683
  0
TEXT
  5
319
330
71
100
AcDbEntity
  8
1
 62
     7
100
AcDbText
 10
-952.8448036082873
 20
-1118.030565482899
 30
0.0
 40
2.5
  1
3247983
 41
0.81
  7
CONVERTER_12
100
AcDbText
  0
MTEXT
  5
31A
330
71
100
AcDbEntity
  8
1
 62
     2
100
AcDbMText
 10
-1025.182818333335
 20
-1115.080565482899
 30
0.0
 40
2.0
 41
0.0
 71
     5
 72
     1
  1
General Information\P- Simplified representation\P- Document excluded from change process\P- Linear dimensions [mm]
  7
CONVERTER_11
 73
     1
 44
1.20048019207683
  0
MTEXT
  5
31B
330
71
100
AcDbEntity
  8
1
 62
     7
100
AcDbMText
 10
-858.699999081538
 20
-1052.830565482897
 30
0.0
 40
3.5
 41
0.0
 71
     5
 72
     1
  1
C
  7
CONVERTER_11
 73
     1
 44
1.20048019207683
  0
MTEXT
  5
31C
330
71
100
AcDbEntity
  8
1
 62
     7
100
AcDbMText
 10
-858.699999081538
 20
-950.3305654828985
 30
0.0
 40
3.5
 41
0.0
 71
     5
 72
     1
  1
A
  7
CONVERTER_11
 73
     1
 44
1.20048019207683
  0
MTEXT
  5
31D
330
71
100
AcDbEntity
  8
1
 62
     7
100
AcDbMText
 10
-858.699999081538
 20
-1002.830565482897
 30
0.0
 40
3.5
 41
0.0
 71
     5
 72
     1
  1
B
  7
CONVERTER_11
 73
     1
 44
1.20048019207683
  0
MTEXT
  5
31E
330
71
100
AcDbEntity
  8
1
 62
     7
100
AcDbMText
 10
-858.699999081538
 20
-1105.330565482899
 30
0.0
 40
3.5
 41
0.0
 71
     5
 72
     1
  1
D
  7
CONVERTER_11
 73
     1
 44
1.20048019207683
  0
MTEXT
  5
31F
330
71
100
AcDbEntity
  8
1
 62
     7
100
AcDbMText
 10
-1128.949999081537
 20
-1130.330565482899
 30
0.0
 40
3.5
 41
0.0
 71
     5
 72
     1
  1
1
  7
CONVERTER_11
 73
     1
 44
1.20048019207683
  0
MTEXT
  5
320
330
71
100
AcDbEntity
  8
1
 62
     7
100
AcDbMText
 10
-1079.699999081537
 20
-1130.330565482899
 30
0.0
 40
3.5
 41
0.0
 71
     5
 72
     1
  1
2
  7
CONVERTER_11
 73
     1
 44
1.20048019207683
  0
MTEXT
  5
321
330
71
100
AcDbEntity
  8
1
 62
     7
100
AcDbMText
 10
-1029.699999081537
 20
-1130.330565482899
 30
0.0
 40
3.5
 41
0.0
 71
     5
 72
     1
  1
3
  7
CONVERTER_11
 73
     1
 44
1.20048019207683
  0
MTEXT
  5
322
330
71
100
AcDbEntity
  8
1
 62
     7
100
AcDbMText
 10
-979.699999081537
 20
-1130.330565482899
 30
0.0
 40
3.5
 41
0.0
 71
     5
 72
     1
  1
4
  7
CONVERTER_11
 73
     1
 44
1.20048019207683
  0
MTEXT
  5
323
330
71
100
AcDbEntity
  8
1
 62
     7
100
AcDbMText
 10
-929.6999990815369
 20
-1130.330565482899
 30
0.0
 40
3.5
 41
0.0
 71
     5
 72
     1
  1
5
  7
CONVERTER_11
 73
     1
 44
1.20048019207683
  0
MTEXT
  5
324
330
71
100
AcDbEntity
  8
1
 62
     7
100
AcDbMText
 10
-880.4499990815377
 20
-1130.330565482899
 30
0.0
 40
3.5
 41
0.0
 71
     5
 72
     1
  1
6
  7
CONVERTER_11
 73
     1
 44
1.20048019207683
  0
MTEXT
  5
325
330
71
100
AcDbEntity
  8
1
 62
     7
100
AcDbMText
 10
-1150.699999081536
 20
-950.3305654828985
 30
0.0
 40
3.5
 41
0.0
 71
     5
 72
     1
  1
A
  7
CONVERTER_11
 73
     1
 44
1.20048019207683
  0
MTEXT
  5
326
330
71
100
AcDbEntity
  8
1
 62
     7
100
AcDbMText
 10
-1150.699999081536
 20
-1002.830565482899
 30
0.0
 40
3.5
 41
0.0
 71
     5
 72
     1
  1
B
  7
CONVERTER_11
 73
     1
 44
1.20048019207683
  0
MTEXT
  5
327
330
71
100
AcDbEntity
  8
1
 62
     7
100
AcDbMText
 10
-1150.699999081536
 20
-1052.830565482899
 30
0.0
 40
3.5
 41
0.0
 71
     5
 72
     1
  1
C
  7
CONVERTER_11
 73
     1
 44
1.20048019207683
  0
MTEXT
  5
328
330
71
100
AcDbEntity
  8
1
 62
     7
100
AcDbMText
 10
-1150.699999081536
 20
-1105.330565482899
 30
0.0
 40
3.5
 41
0.0
 71
     5
 72
     1
  1
D
  7
CONVERTER_11
 73
     1
 44
1.20048019207683
  0
MTEXT
  5
329
330
71
100
AcDbEntity
  8
1
 62
     3
100
AcDbMText
 10
-964.5448036082871
 20
-1106.705565482899
 30
0.0
 40
2.5
 41
0.0
 71
     5
 72
     1
  1
DIN A4
  7
CONVERTER_11
 73
     1
 44
1.20048019207683
  0
MTEXT
  5
32A
330
71
100
AcDbEntity
  8
1
 62
     2
100
AcDbMText
 10
-953.3448036082871
 20
-1120.330565482899
 30
0.0
 40
1.8
 41
0.0
 71
     1
 72
     1
  1
description
  7
CONVERTER_11
 73
     1
 44
1.20048019207683
  0
MTEXT
  5
32B
330
71
100
AcDbEntity
  8
1
 62
     7
100
AcDbMText
 10
-907.7724013449115
 20
-1124.580565482898
 30
0.0
 40
3.0
 41
0.0
 71
     5
 72
     1
  1
HC-RBO 12
  7
CONVERTER_12
 73
     1
 44
1.20048019207683
  0
TEXT
  5
32C
330
71
100
AcDbEntity
  8
1
 62
     2
100
AcDbText
 10
-966.3094947984735
 20
-1126.580565482899
 30
0.0
 40
1.8
  1
1
 41
0.9
  7
CONVERTER_11
100
AcDbText
  0
TEXT
  5
32D
330
71
100
AcDbEntity
  8
1
 62
     2
100
AcDbText
 10
-981.098538637945
 20
-1126.629814136701
 30
0.0
 40
1.8
  1
1
 41
0.9
  7
CONVERTER_11
100
AcDbText
  0
TEXT
  5
32E
330
71
100
AcDbEntity
  8
1
 62
     2
100
AcDbText
 10
-989.7448036082869
 20
-1126.58958269789
 30
0.0
 40
1.8
  1
page
 41
0.9
  7
CONVERTER_11
100
AcDbText
  0
TEXT
  5
32F
330
71
100
AcDbEntity
  8
1
 62
     2
100
AcDbText
 10
-971.5448036082871
 20
-1126.58958269789
 30
0.0
 40
1.8
  1
of
 41
0.9
  7
CONVERTER_11
100
AcDbText
  0
MTEXT
  5
330
330
71
100
AcDbEntity
  8
1
 62
     3
100
AcDbMText
 10
-965.341821456677
 20
-941.0392573275997
 30
0.0
 40
1.8
 41
0.0
 71
     7
 72
     1
  3
Transfer or duplication of this document as well as the utilisation or\Pcommunication of its content are not permitted unless express consent\Pis granted. Violations give rise to claims for damages. All rights reserved\Pin case of patent, utility mo
  1
del or design patent registrations.
  7
CONVERTER_11
 73
     1
 44
0.99639855942377
  0
MTEXT
  5
331
330
71
100
AcDbEntity
  8
1
 62
     3
100
AcDbMText
 10
-1148.194931295465
 20
-941.0392573275997
 30
0.0
 40
1.8
 41
0.0
 71
     7
 72
     1
  3
Weitergabe sowie Vervielf\U+00e4ltigung dieses Dokuments, Verwertung und \PMitteilung seines Inhalts sind verboten, soweit nicht ausdr\U+00fccklich gestattet. \PZuwiderhandlungen verpflichten zu Schadenersatz. Alle Rechte f\U+00fcr den Fall\Pder Pat
  1
ent-, Gebrauchsmuster- oder Designeintragung vorbehalten.
  7
CONVERTER_11
 73
     1
 44
0.99639855942377
  0
HATCH
  5
332
330
71
100
AcDbEntity
  8
1
  6
Continuous
 62
     2
100
AcDbHatch
 10
0.0
 20
0.0
 30
0.0
210
0.0
220
0.0
230
1.0
  2
_USER
 70
     0
 71
     1
 91
        1
 92
        1
 93
       14
 72
     2
 10
-978.5035743323642
 20
-1119.010160720977
 40
1.205656168390927
 50
164.9381082228846
 51
195.0618917771153
 73
     1
 72
     2
 10
-978.0844464889014
 20
-1118.897370358942
 40
1.639695123939543
 50
195.0618917771097
 51
275.1581447696385
 73
     1
 72
     2
 10
-978.3733025836374
 20
-1115.697479775721
 40
4.852596863497943
 50
275.1581447696255
 51
285.9799912583556
 73
     1
 72
     1
 10
-977.0373746665196
 20
-1120.362562081521
 11
-977.0373746665196
 21
-1119.490045074718
 72
     2
 10
-978.2154297085444
 20
-1117.599694355568
 40
2.227384008972396
 50
58.06909105004036
 51
71.55192388186352
 73
     0
 72
     2
 10
-977.7972619748837
 20
-1118.853240131605
 40
0.9059297849856793
 50
71.55192388183757
 51
113.3722778881043
 73
     0
 72
     2
 10
-977.9537020075857
 20
-1119.215232150315
 40
0.5115800601949912
 50
113.3722778881318
 51
151.4785267422724
 73
     0
 72
     2
 10
-977.5763447495053
 20
-1119.010160720977
 40
0.941059735333413
 50
151.478526742305
 51
208.5214732577436
 73
     0
 72
     2
 10
-977.9537020075857
 20
-1118.805089291638
 40
0.5115800601953623
 50
208.5214732577276
 51
246.6277221118278
 73
     0
 72
     2
 10
-977.7972619748837
 20
-1119.167081310349
 40
0.9059297849856105
 50
246.6277221118958
 51
288.4480761181443
 73
     0
 72
     2
 10
-978.2154297085444
 20
-1120.420627086385
 40
2.227384008973453
 50
288.4480761181364
 51
301.9309089499596
 73
     0
 72
     1
 10
-977.0373746665196
 20
-1118.530276367235
 11
-977.0373746665196
 21
-1117.657759360432
 72
     2
 10
-978.3733025836374
 20
-1122.322841666233
 40
4.852596863498158
 50
74.02000874164733
 51
84.8418552303745
 73
     1
 72
     2
 10
-978.0844464889014
 20
-1119.122951083012
 40
1.639695123940224
 50
84.84185523036146
 51
164.9381082228903
 73
     1
 97
       14
330
307
330
220
330
2D6
330
306
330
2D7
330
2D8
330
305
330
304
330
303
330
221
330
2D9
330
2DA
330
2DB
330
2DC
 75
     1
 76
     0
 52
45.0
 41
0.1
 77
     0
 78
     1
 53
45.0
 43
0.0
 44
0.0
 45
-0.0707106781186548
 46
0.0707106781186548
 79
     0
 98
        1
 10
0.0
 20
0.0
  0
HATCH
  5
333
330
71
100
AcDbEntity
  8
1
  6
Continuous
 62
     2
100
AcDbHatch
 10
0.0
 20
0.0
 30
0.0
210
0.0
220
0.0
230
1.0
  2
_USER
 70
     0
 71
     1
 91
        1
 92
        1
 93
       14
 72
     2
 10
-978.5035743323642
 20
-1119.010160720977
 40
1.205656168390927
 50
164.9381082228846
 51
195.0618917771153
 73
     1
 72
     2
 10
-978.0844464889014
 20
-1118.897370358942
 40
1.639695123939543
 50
195.0618917771097
 51
275.1581447696385
 73
     1
 72
     2
 10
-978.3733025836374
 20
-1115.697479775721
 40
4.852596863497943
 50
275.1581447696255
 51
285.9799912583556
 73
     1
 72
     1
 10
-977.0373746665196
 20
-1120.362562081521
 11
-977.0373746665196
 21
-1119.490045074718
 72
     2
 10
-978.2154297085444
 20
-1117.599694355568
 40
2.227384008972396
 50
58.06909105004036
 51
71.55192388186352
 73
     0
 72
     2
 10
-977.7972619748837
 20
-1118.853240131605
 40
0.9059297849856793
 50
71.55192388183757
 51
113.3722778881043
 73
     0
 72
     2
 10
-977.9537020075857
 20
-1119.215232150315
 40
0.5115800601949912
 50
113.3722778881318
 51
151.4785267422724
 73
     0
 72
     2
 10
-977.5763447495053
 20
-1119.010160720977
 40
0.941059735333413
 50
151.478526742305
 51
208.5214732577436
 73
     0
 72
     2
 10
-977.9537020075857
 20
-1118.805089291638
 40
0.5115800601953623
 50
208.5214732577276
 51
246.6277221118278
 73
     0
 72
     2
 10
-977.7972619748837
 20
-1119.167081310349
 40
0.9059297849856105
 50
246.6277221118958
 51
288.4480761181443
 73
     0
 72
     2
 10
-978.2154297085444
 20
-1120.420627086385
 40
2.227384008973453
 50
288.4480761181364
 51
301.9309089499596
 73
     0
 72
     1
 10
-977.0373746665196
 20
-1118.530276367235
 11
-977.0373746665196
 21
-1117.657759360432
 72
     2
 10
-978.3733025836374
 20
-1122.322841666233
 40
4.852596863498158
 50
74.02000874164733
 51
84.8418552303745
 73
     1
 72
     2
 10
-978.0844464889014
 20
-1119.122951083012
 40
1.639695123940224
 50
84.84185523036146
 51
164.9381082228903
 73
     1
 97
       14
330
307
330
220
330
2D6
330
306
330
2D7
330
2D8
330
305
330
304
330
303
330
221
330
2D9
330
2DA
330
2DB
330
2DC
 75
     1
 76
     0
 52
45.0
 41
0.1
 77
     0
 78
     1
 53
45.0
 43
0.0
 44
0.0
 45
-0.0707106781186548
 46
0.0707106781186548
 79
     0
 98
        1
 10
0.0
 20
0.0
  0
HATCH
  5
334
330
71
100
AcDbEntity
  8
1
  6
Continuous
 62
     2
100
AcDbHatch
 10
0.0
 20
0.0
 30
0.0
210
0.0
220
0.0
230
1.0
  2
_USER
 70
     0
 71
     1
 91
        1
 92
        1
 93
       18
 72
     2
 10
-961.9817450096485
 20
-1119.122951083012
 40
1.639695123939873
 50
90.0
 51
164.9381082228985
 73
     1
 72
     2
 10
-962.4008728531102
 20
-1119.010160720977
 40
1.205656168392903
 50
164.9381082229099
 51
195.0618917770901
 73
     1
 72
     2
 10
-961.9817450096485
 20
-1118.897370358942
 40
1.639695123940421
 50
195.0618917771015
 51
275.1581447696781
 73
     1
 72
     2
 10
-962.2706011043844
 20
-1115.697479775721
 40
4.852596863498034
 50
275.1581447696375
 51
285.9799912583397
 73
     1
 72
     1
 10
-960.9346731872677
 20
-1120.362562081522
 11
-960.9346731872677
 21
-1119.490045074719
 72
     2
 10
-962.1127282292915
 20
-1117.599694355569
 40
2.227384008972611
 50
58.06909105006579
 51
71.5519238818654
 73
     0
 72
     2
 10
-961.6945604956296
 20
-1118.853240131605
 40
0.9059297849860852
 50
71.5519238819285
 51
113.3722778881637
 73
     0
 72
     2
 10
-961.8510005283327
 20
-1119.215232150315
 40
0.5115800601965329
 50
113.3722778881201
 51
151.4785267422213
 73
     0
 72
     2
 10
-961.4736432702514
 20
-1119.010160720977
 40
0.9410597353348766
 50
151.478526742307
 51
208.5214732576322
 73
     0
 72
     2
 10
-961.8510005283327
 20
-1118.805089291638
 40
0.5115800601948339
 50
208.5214732575773
 51
250.6628567805346
 73
     0
 72
     2
 10
-961.7043305302291
 20
-1119.223044272021
 40
0.9545230068260935
 50
250.6628567805825
 51
270.0
 73
     0
 72
     1
 10
-961.7043305302291
 20
-1118.268521265195
 11
-960.6006912306609
 21
-1118.268521265195
 72
     1
 10
-960.6006912306609
 20
-1118.268521265195
 11
-960.6006912306609
 21
-1120.537065482882
 72
     1
 10
-960.6006912306609
 20
-1120.537065482882
 11
-959.4078985284932
 21
-1120.537065482882
 72
     1
 10
-959.4078985284932
 20
-1120.537065482882
 11
-959.4078985284932
 21
-1118.268521265195
 72
     1
 10
-959.4078985284932
 20
-1118.268521265195
 11
-958.5967994910199
 21
-1118.268521265195
 72
     1
 10
-958.5967994910199
 20
-1118.268521265195
 11
-958.5967994910199
 21
-1117.483255959071
 72
     1
 10
-958.5967994910199
 20
-1117.483255959071
 11
-961.9817450096485
 21
-1117.483255959072
 97
       18
330
286
330
285
330
284
330
283
330
288
330
222
330
300
330
2E1
330
2FF
330
2E2
330
2FE
330
2FD
330
223
330
2FC
330
2FB
330
2E3
330
2E4
330
287
 75
     1
 76
     0
 52
45.0
 41
0.1
 77
     0
 78
     1
 53
45.0
 43
0.0
 44
0.0
 45
-0.0707106781186548
 46
0.0707106781186548
 79
     0
 98
        1
 10
0.0
 20
0.0
  0
HATCH
  5
335
330
71
100
AcDbEntity
  8
1
  6
Continuous
 62
     2
100
AcDbHatch
 10
0.0
 20
0.0
 30
0.0
210
0.0
220
0.0
230
1.0
  2
_USER
 70
     0
 71
     1
 91
        1
 92
        1
 93
       18
 72
     2
 10
-961.9817450096485
 20
-1119.122951083012
 40
1.639695123939873
 50
90.0
 51
164.9381082228985
 73
     1
 72
     2
 10
-962.4008728531102
 20
-1119.010160720977
 40
1.205656168392903
 50
164.9381082229099
 51
195.0618917770901
 73
     1
 72
     2
 10
-961.9817450096485
 20
-1118.897370358942
 40
1.639695123940421
 50
195.0618917771015
 51
275.1581447696781
 73
     1
 72
     2
 10
-962.2706011043844
 20
-1115.697479775721
 40
4.852596863498034
 50
275.1581447696375
 51
285.9799912583397
 73
     1
 72
     1
 10
-960.9346731872677
 20
-1120.362562081522
 11
-960.9346731872677
 21
-1119.490045074719
 72
     2
 10
-962.1127282292915
 20
-1117.599694355569
 40
2.227384008972611
 50
58.06909105006579
 51
71.5519238818654
 73
     0
 72
     2
 10
-961.6945604956296
 20
-1118.853240131605
 40
0.9059297849860852
 50
71.5519238819285
 51
113.3722778881637
 73
     0
 72
     2
 10
-961.8510005283327
 20
-1119.215232150315
 40
0.5115800601965329
 50
113.3722778881201
 51
151.4785267422213
 73
     0
 72
     2
 10
-961.4736432702514
 20
-1119.010160720977
 40
0.9410597353348766
 50
151.478526742307
 51
208.5214732576322
 73
     0
 72
     2
 10
-961.8510005283327
 20
-1118.805089291638
 40
0.5115800601948339
 50
208.5214732575773
 51
250.6628567805346
 73
     0
 72
     2
 10
-961.7043305302291
 20
-1119.223044272021
 40
0.9545230068260935
 50
250.6628567805825
 51
270.0
 73
     0
 72
     1
 10
-961.7043305302291
 20
-1118.268521265195
 11
-960.6006912306609
 21
-1118.268521265195
 72
     1
 10
-960.6006912306609
 20
-1118.268521265195
 11
-960.6006912306609
 21
-1120.537065482882
 72
     1
 10
-960.6006912306609
 20
-1120.537065482882
 11
-959.4078985284932
 21
-1120.537065482882
 72
     1
 10
-959.4078985284932
 20
-1120.537065482882
 11
-959.4078985284932
 21
-1118.268521265195
 72
     1
 10
-959.4078985284932
 20
-1118.268521265195
 11
-958.5967994910199
 21
-1118.268521265195
 72
     1
 10
-958.5967994910199
 20
-1118.268521265195
 11
-958.5967994910199
 21
-1117.483255959071
 72
     1
 10
-958.5967994910199
 20
-1117.483255959071
 11
-961.9817450096485
 21
-1117.483255959072
 97
       18
330
286
330
285
330
284
330
283
330
288
330
222
330
300
330
2E1
330
2FF
330
2E2
330
2FE
330
2FD
330
223
330
2FC
330
2FB
330
2E3
330
2E4
330
287
 75
     1
 76
     0
 52
45.0
 41
0.1
 77
     0
 78
     1
 53
45.0
 43
0.0
 44
0.0
 45
-0.0707106781186548
 46
0.0707106781186548
 79
     0
 98
        1
 10
0.0
 20
0.0
  0
HATCH
  5
336
330
71
100
AcDbEntity
  8
1
  6
Continuous
 62
     2
100
AcDbHatch
 10
0.0
 20
0.0
 30
0.0
210
0.0
220
0.0
230
1.0
  2
_USER
 70
     0
 71
     1
 91
        4
 92
        1
 93
        8
 72
     2
 10
-986.0839041063416
 20
-1114.548310098299
 40
0.424244615383941
 50
90.0
 51
180.0
 73
     1
 72
     1
 10
-986.5081487217244
 20
-1114.548310098299
 11
-986.5081487217244
 21
-1120.112820867499
 72
     2
 10
-986.0839041063416
 20
-1120.112820867499
 40
0.4242446153828041
 50
180.0
 51
270.0
 73
     1
 72
     1
 10
-986.0839041063416
 20
-1120.537065482882
 11
-980.6105920156248
 21
-1120.537065482882
 72
     2
 10
-980.6105920156248
 20
-1120.112820867499
 40
0.4242446153830315
 50
270.0
 51
360.0
 73
     1
 72
     1
 10
-980.1863474002408
 20
-1120.112820867499
 11
-980.1863474002408
 21
-1114.548310098299
 72
     2
 10
-980.6105920156248
 20
-1114.548310098299
 40
0.424244615383941
 50
0.0
 51
90.0
 73
     1
 72
     1
 10
-980.6105920156248
 20
-1114.124065482915
 11
-986.0839041063416
 21
-1114.124065482915
 97
        8
330
2F4
330
251
330
2F3
330
252
330
2EA
330
24F
330
2F5
330
250
 92
       16
 93
        1
 72
     2
 10
-983.464318455824
 20
-1116.867192326654
 40
0.4709789327785074
 50
0.0
 51
360.0
 73
     1
 97
        1
330
308
 92
       16
 93
        8
 72
     2
 10
-983.4405034411512
 20
-1116.867192326654
 40
0.9118481501445116
 50
295.374008678171
 51
424.6259913218045
 73
     1
 72
     2
 10
-982.9144607430634
 20
-1115.758050726686
 40
0.3157169230768204
 50
115.3740086783167
 51
180.0
 73
     0
 72
     1
 10
-983.2301776661402
 20
-1115.758050726686
 11
-983.2301776661402
 21
-1115.15251543818
 72
     2
 10
-982.9144607430634
 20
-1115.15251543818
 40
0.3157169230760141
 50
180.0
 51
269.8110329574592
 73
     0
 72
     2
 10
-982.9088446077533
 20
-1116.855350385749
 40
2.018561131933152
 50
269.8110329575842
 51
450.1889670424158
 73
     0
 72
     2
 10
-982.9144607430634
 20
-1118.558185333318
 40
0.3157169230768204
 50
90.18896704254082
 51
180.0
 73
     0
 72
     1
 10
-983.2301776661402
 20
-1118.558185333318
 11
-983.2301776661402
 21
-1117.976333926623
 72
     2
 10
-982.9144607430634
 20
-1117.976333926623
 40
0.3157169230770072
 50
180.0
 51
244.6259913216833
 73
     0
 97
        8
330
302
330
2DE
330
28A
330
301
330
2DF
330
2E0
330
289
330
2DD
 92
       16
 93
       12
 72
     1
 10
-985.490009429595
 20
-1119.824509927325
 11
-984.0141761685854
 21
-1119.824509927325
 72
     2
 10
-984.0141761685854
 20
-1119.508793004249
 40
0.3157169230760246
 50
270.0
 51
360.0
 73
     1
 72
     1
 10
-983.6984592455088
 20
-1119.508793004249
 11
-983.6984592455088
 21
-1117.978022072717
 72
     2
 10
-984.0141761685854
 20
-1117.978022072717
 40
0.315716923076593
 50
0.0
 51
64.80558935149101
 73
     1
 72
     2
 10
-983.4915917210104
 20
-1116.867192326654
 40
0.9118975235571896
 50
115.1944106485185
 51
244.8055893514572
 73
     0
 72
     2
 10
-984.0141761685854
 20
-1115.756362580592
 40
0.3157169230764803
 50
295.194410648509
 51
360.0
 73
     1
 72
     1
 10
-983.6984592455088
 20
-1115.756362580592
 11
-983.6984592455088
 21
-1115.152337961531
 72
     2
 10
-984.0141761685854
 20
-1115.152337961531
 40
0.315716923076593
 50
0.0
 51
90.0
 73
     1
 72
     1
 10
-984.0141761685854
 20
-1114.836621038455
 11
-985.490009429595
 21
-1114.836621038455
 72
     2
 10
-985.490009429595
 20
-1115.152337961531
 40
0.3157169230760246
 50
90.0
 51
180.0
 73
     1
 72
     1
 10
-985.8057263526707
 20
-1115.152337961531
 11
-985.8057263526707
 21
-1119.508793004249
 72
     2
 10
-985.490009429595
 20
-1119.508793004249
 40
0.3157169230756836
 50
180.0
 51
270.0
 73
     1
 97
       12
330
256
330
2E7
330
255
330
2F8
330
254
330
2F7
330
2E8
330
2E9
330
253
330
2F6
330
24E
330
2F9
 75
     1
 76
     0
 52
45.0
 41
0.1
 77
     0
 78
     1
 53
45.0
 43
0.0
 44
0.0
 45
-0.0707106781186548
 46
0.0707106781186548
 79
     0
 98
        1
 10
0.0
 20
0.0
  0
HATCH
  5
337
330
71
100
AcDbEntity
  8
1
  6
Continuous
 62
     2
100
AcDbHatch
 10
0.0
 20
0.0
 30
0.0
210
0.0
220
0.0
230
1.0
  2
_USER
 70
     0
 71
     1
 91
        4
 92
        1
 93
        8
 72
     2
 10
-986.0839041063416
 20
-1114.548310098299
 40
0.424244615383941
 50
90.0
 51
180.0
 73
     1
 72
     1
 10
-986.5081487217244
 20
-1114.548310098299
 11
-986.5081487217244
 21
-1120.112820867499
 72
     2
 10
-986.0839041063416
 20
-1120.112820867499
 40
0.4242446153828041
 50
180.0
 51
270.0
 73
     1
 72
     1
 10
-986.0839041063416
 20
-1120.537065482882
 11
-980.6105920156248
 21
-1120.537065482882
 72
     2
 10
-980.6105920156248
 20
-1120.112820867499
 40
0.4242446153830315
 50
270.0
 51
360.0
 73
     1
 72
     1
 10
-980.1863474002408
 20
-1120.112820867499
 11
-980.1863474002408
 21
-1114.548310098299
 72
     2
 10
-980.6105920156248
 20
-1114.548310098299
 40
0.424244615383941
 50
0.0
 51
90.0
 73
     1
 72
     1
 10
-980.6105920156248
 20
-1114.124065482915
 11
-986.0839041063416
 21
-1114.124065482915
 97
        8
330
2F4
330
251
330
2F3
330
252
330
2EA
330
24F
330
2F5
330
250
 92
       16
 93
        1
 72
     2
 10
-983.464318455824
 20
-1116.867192326654
 40
0.4709789327785074
 50
0.0
 51
360.0
 73
     1
 97
        1
330
308
 92
       16
 93
        8
 72
     2
 10
-983.4405034411512
 20
-1116.867192326654
 40
0.9118481501445116
 50
295.374008678171
 51
424.6259913218045
 73
     1
 72
     2
 10
-982.9144607430634
 20
-1115.758050726686
 40
0.3157169230768204
 50
115.3740086783167
 51
180.0
 73
     0
 72
     1
 10
-983.2301776661402
 20
-1115.758050726686
 11
-983.2301776661402
 21
-1115.15251543818
 72
     2
 10
-982.9144607430634
 20
-1115.15251543818
 40
0.3157169230760141
 50
180.0
 51
269.8110329574592
 73
     0
 72
     2
 10
-982.9088446077533
 20
-1116.855350385749
 40
2.018561131933152
 50
269.8110329575842
 51
450.1889670424158
 73
     0
 72
     2
 10
-982.9144607430634
 20
-1118.558185333318
 40
0.3157169230768204
 50
90.18896704254082
 51
180.0
 73
     0
 72
     1
 10
-983.2301776661402
 20
-1118.558185333318
 11
-983.2301776661402
 21
-1117.976333926623
 72
     2
 10
-982.9144607430634
 20
-1117.976333926623
 40
0.3157169230770072
 50
180.0
 51
244.6259913216833
 73
     0
 97
        8
330
302
330
2DE
330
28A
330
301
330
2DF
330
2E0
330
289
330
2DD
 92
       16
 93
       12
 72
     1
 10
-985.490009429595
 20
-1119.824509927325
 11
-984.0141761685854
 21
-1119.824509927325
 72
     2
 10
-984.0141761685854
 20
-1119.508793004249
 40
0.3157169230760246
 50
270.0
 51
360.0
 73
     1
 72
     1
 10
-983.6984592455088
 20
-1119.508793004249
 11
-983.6984592455088
 21
-1117.978022072717
 72
     2
 10
-984.0141761685854
 20
-1117.978022072717
 40
0.315716923076593
 50
0.0
 51
64.80558935149101
 73
     1
 72
     2
 10
-983.4915917210104
 20
-1116.867192326654
 40
0.9118975235571896
 50
115.1944106485185
 51
244.8055893514572
 73
     0
 72
     2
 10
-984.0141761685854
 20
-1115.756362580592
 40
0.3157169230764803
 50
295.194410648509
 51
360.0
 73
     1
 72
     1
 10
-983.6984592455088
 20
-1115.756362580592
 11
-983.6984592455088
 21
-1115.152337961531
 72
     2
 10
-984.0141761685854
 20
-1115.152337961531
 40
0.315716923076593
 50
0.0
 51
90.0
 73
     1
 72
     1
 10
-984.0141761685854
 20
-1114.836621038455
 11
-985.490009429595
 21
-1114.836621038455
 72
     2
 10
-985.490009429595
 20
-1115.152337961531
 40
0.3157169230760246
 50
90.0
 51
180.0
 73
     1
 72
     1
 10
-985.8057263526707
 20
-1115.152337961531
 11
-985.8057263526707
 21
-1119.508793004249
 72
     2
 10
-985.490009429595
 20
-1119.508793004249
 40
0.3157169230756836
 50
180.0
 51
270.0
 73
     1
 97
       12
330
256
330
2E7
330
255
330
2F8
330
254
330
2F7
330
2E8
330
2E9
330
253
330
2F6
330
24E
330
2F9
 75
     1
 76
     0
 52
45.0
 41
0.1
 77
     0
 78
     1
 53
45.0
 43
0.0
 44
0.0
 45
-0.0707106781186548
 46
0.0707106781186548
 79
     0
 98
        1
 10
0.0
 20
0.0
  0
HATCH
  5
338
330
71
100
AcDbEntity
  8
1
  6
Continuous
 62
     2
100
AcDbHatch
 10
0.0
 20
0.0
 30
0.0
210
0.0
220
0.0
230
1.0
  2
_USER
 70
     0
 71
     1
 91
        2
 92
        1
 93
       12
 72
     2
 10
-971.4087401023522
 20
-1115.650970244803
 40
1.526904761905826
 50
90.0
 51
270.0
 73
     1
 72
     1
 10
-971.4087401023522
 20
-1117.177875006708
 11
-968.2584203785713
 21
-1117.177875006708
 72
     1
 10
-968.2584203785713
 20
-1117.177875006708
 11
-968.2584203785713
 21
-1116.479861401266
 72
     1
 10
-968.2584203785713
 20
-1116.479861401266
 11
-969.5943482049989
 21
-1116.479861401266
 72
     1
 10
-969.5943482049989
 20
-1116.479861401266
 11
-969.5943482049989
 21
-1115.999977047524
 72
     1
 10
-969.5943482049989
 20
-1115.999977047524
 11
-968.2584203785713
 21
-1115.999977047524
 72
     1
 10
-968.2584203785713
 20
-1115.999977047524
 11
-968.2584203785713
 21
-1115.301963442081
 72
     1
 10
-968.2584203785713
 20
-1115.301963442081
 11
-969.5943482049989
 21
-1115.301963442081
 72
     1
 10
-969.5943482049989
 20
-1115.301963442081
 11
-969.5943482049989
 21
-1114.82207908834
 72
     1
 10
-969.5943482049989
 20
-1114.82207908834
 11
-968.2584203785713
 21
-1114.82207908834
 72
     1
 10
-968.2584203785713
 20
-1114.82207908834
 11
-968.2584203785713
 21
-1114.124065482897
 72
     1
 10
-968.2584203785713
 20
-1114.124065482897
 11
-971.4087401023522
 21
-1114.124065482897
 97
       12
330
245
330
23F
330
266
330
265
330
264
330
263
330
240
330
241
330
242
330
243
330
2E5
330
244
 92
       16
 93
        4
 72
     2
 10
-970.9927280558408
 20
-1115.650970244803
 40
0.7717997786795447
 50
141.8795802028491
 51
218.1204197971642
 73
     1
 72
     2
 10
-971.192468092187
 20
-1115.807701422923
 40
0.5179085730137529
 50
218.1204197971956
 51
321.8795802028121
 73
     1
 72
     2
 10
-971.3922081285332
 20
-1115.650970244803
 40
0.7717997786796852
 50
321.8795802028358
 51
398.1204197971509
 73
     1
 72
     2
 10
-971.192468092187
 20
-1115.494239066682
 40
0.5179085730131405
 50
38.12041979708892
 51
141.8795802029033
 73
     1
 97
        4
330
2F2
330
2F1
330
2EC
330
2EB
 75
     1
 76
     0
 52
45.0
 41
0.1
 77
     0
 78
     1
 53
45.0
 43
0.0
 44
0.0
 45
-0.0707106781186548
 46
0.0707106781186548
 79
     0
 98
        1
 10
0.0
 20
0.0
  0
HATCH
  5
339
330
71
100
AcDbEntity
  8
1
  6
Continuous
 62
     2
100
AcDbHatch
 10
0.0
 20
0.0
 30
0.0
210
0.0
220
0.0
230
1.0
  2
_USER
 70
     0
 71
     1
 91
        2
 92
        1
 93
       12
 72
     2
 10
-971.4087401023522
 20
-1115.650970244803
 40
1.526904761905826
 50
90.0
 51
270.0
 73
     1
 72
     1
 10
-971.4087401023522
 20
-1117.177875006708
 11
-968.2584203785713
 21
-1117.177875006708
 72
     1
 10
-968.2584203785713
 20
-1117.177875006708
 11
-968.2584203785713
 21
-1116.479861401266
 72
     1
 10
-968.2584203785713
 20
-1116.479861401266
 11
-969.5943482049989
 21
-1116.479861401266
 72
     1
 10
-969.5943482049989
 20
-1116.479861401266
 11
-969.5943482049989
 21
-1115.999977047524
 72
     1
 10
-969.5943482049989
 20
-1115.999977047524
 11
-968.2584203785713
 21
-1115.999977047524
 72
     1
 10
-968.2584203785713
 20
-1115.999977047524
 11
-968.2584203785713
 21
-1115.301963442081
 72
     1
 10
-968.2584203785713
 20
-1115.301963442081
 11
-969.5943482049989
 21
-1115.301963442081
 72
     1
 10
-969.5943482049989
 20
-1115.301963442081
 11
-969.5943482049989
 21
-1114.82207908834
 72
     1
 10
-969.5943482049989
 20
-1114.82207908834
 11
-968.2584203785713
 21
-1114.82207908834
 72
     1
 10
-968.2584203785713
 20
-1114.82207908834
 11
-968.2584203785713
 21
-1114.124065482897
 72
     1
 10
-968.2584203785713
 20
-1114.124065482897
 11
-971.4087401023522
 21
-1114.124065482897
 97
       12
330
245
330
23F
330
266
330
265
330
264
330
263
330
240
330
241
330
242
330
243
330
2E5
330
244
 92
       16
 93
        4
 72
     2
 10
-970.9927280558408
 20
-1115.650970244803
 40
0.7717997786795447
 50
141.8795802028491
 51
218.1204197971642
 73
     1
 72
     2
 10
-971.192468092187
 20
-1115.807701422923
 40
0.5179085730137529
 50
218.1204197971956
 51
321.8795802028121
 73
     1
 72
     2
 10
-971.3922081285332
 20
-1115.650970244803
 40
0.7717997786796852
 50
321.8795802028358
 51
398.1204197971509
 73
     1
 72
     2
 10
-971.192468092187
 20
-1115.494239066682
 40
0.5179085730131405
 50
38.12041979708892
 51
141.8795802029033
 73
     1
 97
        4
330
2F2
330
2F1
330
2EC
330
2EB
 75
     1
 76
     0
 52
45.0
 41
0.1
 77
     0
 78
     1
 53
45.0
 43
0.0
 44
0.0
 45
-0.0707106781186548
 46
0.0707106781186548
 79
     0
 98
        1
 10
0.0
 20
0.0
  0
HATCH
  5
33A
330
71
100
AcDbEntity
  8
1
  6
Continuous
 62
     2
100
AcDbHatch
 10
0.0
 20
0.0
 30
0.0
210
0.0
220
0.0
230
1.0
  2
_USER
 70
     0
 71
     1
 91
        2
 92
        1
 93
        4
 72
     2
 10
-975.4343554648138
 20
-1119.010160720977
 40
1.458034083651943
 50
117.5481481756506
 51
242.4518518243328
 73
     1
 72
     2
 10
-975.1534155729805
 20
-1118.471585710674
 40
2.065479772207916
 50
242.4518518243325
 51
297.5481481756955
 73
     1
 72
     2
 10
-974.8724756811473
 20
-1119.010160720977
 40
1.458034083651714
 50
297.5481481757107
 51
422.4518518243058
 73
     1
 72
     2
 10
-975.1534155729805
 20
-1119.54873573128
 40
2.065479772209248
 50
62.45185182431621
 51
117.5481481756558
 73
     1
 97
        4
330
2F0
330
2ED
330
2EF
330
2EE
 92
       16
 93
        4
 72
     2
 10
-975.1534155729805
 20
-1118.853429542856
 40
0.517908573013102
 50
38.12041979712424
 51
141.8795802028835
 73
     1
 72
     2
 10
-974.9536755366345
 20
-1119.010160720977
 40
0.7717997786795062
 50
141.8795802028254
 51
218.1204197971746
 73
     1
 72
     2
 10
-975.1534155729805
 20
-1119.166891899097
 40
0.5179085730137529
 50
218.1204197971956
 51
321.8795802027966
 73
     1
 72
     2
 10
-975.3531556093269
 20
-1119.010160720977
 40
0.7717997786796852
 50
321.8795802028358
 51
398.1204197971642
 73
     1
 97
        4
330
2D3
330
2D4
330
2D5
330
2D2
 75
     1
 76
     0
 52
45.0
 41
0.1
 77
     0
 78
     1
 53
45.0
 43
0.0
 44
0.0
 45
-0.0707106781186548
 46
0.0707106781186548
 79
     0
 98
        1
 10
0.0
 20
0.0
  0
HATCH
  5
33B
330
71
100
AcDbEntity
  8
1
  6
Continuous
 62
     2
100
AcDbHatch
 10
0.0
 20
0.0
 30
0.0
210
0.0
220
0.0
230
1.0
  2
_USER
 70
     0
 71
     1
 91
        2
 92
        1
 93
        4
 72
     2
 10
-975.4343554648138
 20
-1119.010160720977
 40
1.458034083651943
 50
117.5481481756506
 51
242.4518518243328
 73
     1
 72
     2
 10
-975.1534155729805
 20
-1118.471585710674
 40
2.065479772207916
 50
242.4518518243325
 51
297.5481481756955
 73
     1
 72
     2
 10
-974.8724756811473
 20
-1119.010160720977
 40
1.458034083651714
 50
297.5481481757107
 51
422.4518518243058
 73
     1
 72
     2
 10
-975.1534155729805
 20
-1119.54873573128
 40
2.065479772209248
 50
62.45185182431621
 51
117.5481481756558
 73
     1
 97
        4
330
2F0
330
2ED
330
2EF
330
2EE
 92
       16
 93
        4
 72
     2
 10
-975.1534155729805
 20
-1118.853429542856
 40
0.517908573013102
 50
38.12041979712424
 51
141.8795802028835
 73
     1
 72
     2
 10
-974.9536755366345
 20
-1119.010160720977
 40
0.7717997786795062
 50
141.8795802028254
 51
218.1204197971746
 73
     1
 72
     2
 10
-975.1534155729805
 20
-1119.166891899097
 40
0.5179085730137529
 50
218.1204197971956
 51
321.8795802027966
 73
     1
 72
     2
 10
-975.3531556093269
 20
-1119.010160720977
 40
0.7717997786796852
 50
321.8795802028358
 51
398.1204197971642
 73
     1
 97
        4
330
2D3
330
2D4
330
2D5
330
2D2
 75
     1
 76
     0
 52
45.0
 41
0.1
 77
     0
 78
     1
 53
45.0
 43
0.0
 44
0.0
 45
-0.0707106781186548
 46
0.0707106781186548
 79
     0
 98
        1
 10
0.0
 20
0.0
  0
HATCH
  5
33C
330
71
100
AcDbEntity
  8
1
  6
Continuous
 62
     2
100
AcDbHatch
 10
0.0
 20
0.0
 30
0.0
210
0.0
220
0.0
230
1.0
  2
_USER
 70
     0
 71
     1
 91
        2
 92
        1
 93
        6
 72
     1
 10
-979.709230319374
 20
-1114.124065482897
 11
-979.709230319374
 21
-1117.177875006708
 72
     1
 10
-979.709230319374
 20
-1117.177875006708
 11
-978.4687259091199
 21
-1117.177875006708
 72
     1
 10
-978.4687259091199
 20
-1117.177875006708
 11
-978.4687259091199
 21
-1116.234796765564
 72
     1
 10
-978.4687259091199
 20
-1116.234796765564
 11
-977.7099583213396
 21
-1116.234796765564
 72
     2
 10
-977.7099583213396
 20
-1115.17943112423
 40
1.055365641333992
 50
270.0
 51
450.0
 73
     1
 72
     1
 10
-977.7099583213396
 20
-1114.124065482897
 11
-979.709230319374
 21
-1114.124065482897
 97
        6
330
2FA
330
257
330
24D
330
24C
330
259
330
258
 92
       16
 93
        4
 72
     1
 10
-978.151430847578
 20
-1114.787171328337
 11
-978.4687259091199
 21
-1114.787171328337
 72
     1
 10
-978.4687259091199
 20
-1114.787171328337
 11
-978.4687259091199
 21
-1115.492898977679
 72
     1
 10
-978.4687259091199
 20
-1115.492898977679
 11
-978.151430847578
 21
-1115.492898977679
 72
     2
 10
-978.151430847578
 20
-1115.140035153008
 40
0.3528638246709761
 50
270.0
 51
450.0
 73
     1
 97
        4
330
25A
330
24B
330
25B
330
2E6
 75
     1
 76
     0
 52
45.0
 41
0.1
 77
     0
 78
     1
 53
45.0
 43
0.0
 44
0.0
 45
-0.0707106781186548
 46
0.0707106781186548
 79
     0
 98
        1
 10
0.0
 20
0.0
  0
HATCH
  5
33D
330
71
100
AcDbEntity
  8
1
  6
Continuous
 62
     2
100
AcDbHatch
 10
0.0
 20
0.0
 30
0.0
210
0.0
220
0.0
230
1.0
  2
_USER
 70
     0
 71
     1
 91
        2
 92
        1
 93
        6
 72
     1
 10
-979.709230319374
 20
-1114.124065482897
 11
-979.709230319374
 21
-1117.177875006708
 72
     1
 10
-979.709230319374
 20
-1117.177875006708
 11
-978.4687259091199
 21
-1117.177875006708
 72
     1
 10
-978.4687259091199
 20
-1117.177875006708
 11
-978.4687259091199
 21
-1116.234796765564
 72
     1
 10
-978.4687259091199
 20
-1116.234796765564
 11
-977.7099583213396
 21
-1116.234796765564
 72
     2
 10
-977.7099583213396
 20
-1115.17943112423
 40
1.055365641333992
 50
270.0
 51
450.0
 73
     1
 72
     1
 10
-977.7099583213396
 20
-1114.124065482897
 11
-979.709230319374
 21
-1114.124065482897
 97
        6
330
2FA
330
257
330
24D
330
24C
330
259
330
258
 92
       16
 93
        4
 72
     1
 10
-978.151430847578
 20
-1114.787171328337
 11
-978.4687259091199
 21
-1114.787171328337
 72
     1
 10
-978.4687259091199
 20
-1114.787171328337
 11
-978.4687259091199
 21
-1115.492898977679
 72
     1
 10
-978.4687259091199
 20
-1115.492898977679
 11
-978.151430847578
 21
-1115.492898977679
 72
     2
 10
-978.151430847578
 20
-1115.140035153008
 40
0.3528638246709761
 50
270.0
 51
450.0
 73
     1
 97
        4
330
25A
330
24B
330
25B
330
2E6
 75
     1
 76
     0
 52
45.0
 41
0.1
 77
     0
 78
     1
 53
45.0
 43
0.0
 44
0.0
 45
-0.0707106781186548
 46
0.0707106781186548
 79
     0
 98
        1
 10
0.0
 20
0.0
  0
HATCH
  5
33E
330
71
100
AcDbEntity
  8
1
  6
Continuous
 62
     2
100
AcDbHatch
 10
0.0
 20
0.0
 30
0.0
210
0.0
220
0.0
230
1.0
  2
_USER
 70
     0
 71
     1
 91
        1
 92
        1
 93
       12
 72
     1
 10
-960.0949471249409
 20
-1114.124065482897
 11
-958.6922229071936
 21
-1114.124065482897
 72
     1
 10
-958.6922229071936
 20
-1114.124065482897
 11
-959.9947525379602
 21
-1115.597016012933
 72
     1
 10
-959.9947525379602
 20
-1115.597016012933
 11
-958.5967994910199
 21
-1117.177875006708
 72
     1
 10
-958.5967994910199
 20
-1117.177875006708
 11
-959.9995237087682
 21
-1117.177875006708
 72
     1
 10
-959.9995237087682
 20
-1117.177875006708
 11
-960.6961146468336
 21
-1116.390143221414
 72
     1
 10
-960.6961146468336
 20
-1116.390143221414
 11
-961.3927055848993
 21
-1117.177875006708
 72
     1
 10
-961.3927055848993
 20
-1117.177875006708
 11
-962.7954298026475
 21
-1117.177875006708
 72
     1
 10
-962.7954298026475
 20
-1117.177875006708
 11
-961.3974767557072
 21
-1115.597016012933
 72
     1
 10
-961.3974767557072
 20
-1115.597016012933
 11
-962.7000063864748
 21
-1114.124065482897
 72
     1
 10
-962.7000063864748
 20
-1114.124065482897
 11
-961.2972821687255
 21
-1114.124065482897
 72
     1
 10
-961.2972821687255
 20
-1114.124065482897
 11
-960.6961146468336
 21
-1114.803888804452
 72
     1
 10
-960.6961146468336
 20
-1114.803888804452
 11
-960.0949471249409
 21
-1114.124065482897
 97
       12
330
226
330
27F
330
27E
330
27D
330
27C
330
227
330
228
330
224
330
225
330
282
330
281
330
280
 75
     1
 76
     0
 52
45.0
 41
0.1
 77
     0
 78
     1
 53
45.0
 43
0.0
 44
0.0
 45
-0.0707106781186548
 46
0.0707106781186548
 79
     0
 98
        1
 10
0.0
 20
0.0
  0
HATCH
  5
33F
330
71
100
AcDbEntity
  8
1
  6
Continuous
 62
     2
100
AcDbHatch
 10
0.0
 20
0.0
 30
0.0
210
0.0
220
0.0
230
1.0
  2
_USER
 70
     0
 71
     1
 91
        1
 92
        1
 93
       12
 72
     1
 10
-960.0949471249409
 20
-1114.124065482897
 11
-958.6922229071936
 21
-1114.124065482897
 72
     1
 10
-958.6922229071936
 20
-1114.124065482897
 11
-959.9947525379602
 21
-1115.597016012933
 72
     1
 10
-959.9947525379602
 20
-1115.597016012933
 11
-958.5967994910199
 21
-1117.177875006708
 72
     1
 10
-958.5967994910199
 20
-1117.177875006708
 11
-959.9995237087682
 21
-1117.177875006708
 72
     1
 10
-959.9995237087682
 20
-1117.177875006708
 11
-960.6961146468336
 21
-1116.390143221414
 72
     1
 10
-960.6961146468336
 20
-1116.390143221414
 11
-961.3927055848993
 21
-1117.177875006708
 72
     1
 10
-961.3927055848993
 20
-1117.177875006708
 11
-962.7954298026475
 21
-1117.177875006708
 72
     1
 10
-962.7954298026475
 20
-1117.177875006708
 11
-961.3974767557072
 21
-1115.597016012933
 72
     1
 10
-961.3974767557072
 20
-1115.597016012933
 11
-962.7000063864748
 21
-1114.124065482897
 72
     1
 10
-962.7000063864748
 20
-1114.124065482897
 11
-961.2972821687255
 21
-1114.124065482897
 72
     1
 10
-961.2972821687255
 20
-1114.124065482897
 11
-960.6961146468336
 21
-1114.803888804452
 72
     1
 10
-960.6961146468336
 20
-1114.803888804452
 11
-960.0949471249409
 21
-1114.124065482897
 97
       12
330
226
330
27F
330
27E
330
27D
330
27C
330
227
330
228
330
224
330
225
330
282
330
281
330
280
 75
     1
 76
     0
 52
45.0
 41
0.1
 77
     0
 78
     1
 53
45.0
 43
0.0
 44
0.0
 45
-0.0707106781186548
 46
0.0707106781186548
 79
     0
 98
        1
 10
0.0
 20
0.0
  0
HATCH
  5
340
330
71
100
AcDbEntity
  8
1
  6
Continuous
 62
     2
100
AcDbHatch
 10
0.0
 20
0.0
 30
0.0
210
0.0
220
0.0
230
1.0
  2
_USER
 70
     0
 71
     1
 91
        1
 92
        1
 93
        4
 72
     1
 10
-962.9147090728644
 20
-1114.124065482897
 11
-962.9147090728644
 21
-1117.177875006708
 72
     1
 10
-962.9147090728644
 20
-1117.177875006708
 11
-964.1552134831173
 21
-1117.177875006708
 72
     1
 10
-964.1552134831173
 20
-1117.177875006708
 11
-964.1552134831173
 21
-1114.124065482897
 72
     1
 10
-964.1552134831173
 20
-1114.124065482897
 11
-962.9147090728644
 21
-1114.124065482897
 97
        4
330
27A
330
229
330
279
330
27B
 75
     1
 76
     0
 52
45.0
 41
0.1
 77
     0
 78
     1
 53
45.0
 43
0.0
 44
0.0
 45
-0.0707106781186548
 46
0.0707106781186548
 79
     0
 98
        1
 10
0.0
 20
0.0
  0
HATCH
  5
341
330
71
100
AcDbEntity
  8
1
  6
Continuous
 62
     2
100
AcDbHatch
 10
0.0
 20
0.0
 30
0.0
210
0.0
220
0.0
230
1.0
  2
_USER
 70
     0
 71
     1
 91
        1
 92
        1
 93
        4
 72
     1
 10
-962.9147090728644
 20
-1114.124065482897
 11
-962.9147090728644
 21
-1117.177875006708
 72
     1
 10
-962.9147090728644
 20
-1117.177875006708
 11
-964.1552134831173
 21
-1117.177875006708
 72
     1
 10
-964.1552134831173
 20
-1117.177875006708
 11
-964.1552134831173
 21
-1114.124065482897
 72
     1
 10
-964.1552134831173
 20
-1114.124065482897
 11
-962.9147090728644
 21
-1114.124065482897
 97
        4
330
27A
330
229
330
279
330
27B
 75
     1
 76
     0
 52
45.0
 41
0.1
 77
     0
 78
     1
 53
45.0
 43
0.0
 44
0.0
 45
-0.0707106781186548
 46
0.0707106781186548
 79
     0
 98
        1
 10
0.0
 20
0.0
  0
HATCH
  5
342
330
71
100
AcDbEntity
  8
1
  6
Continuous
 62
     2
100
AcDbHatch
 10
0.0
 20
0.0
 30
0.0
210
0.0
220
0.0
230
1.0
  2
_USER
 70
     0
 71
     1
 91
        2
 92
        1
 93
        8
 72
     1
 10
-963.3051530763964
 20
-1120.537065482882
 11
-964.5456574866504
 21
-1120.537065482882
 72
     1
 10
-964.5456574866504
 20
-1120.537065482882
 11
-964.7571375401261
 21
-1119.996104938664
 72
     1
 10
-964.7571375401261
 20
-1119.996104938664
 11
-965.8895791168
 21
-1119.996104938664
 72
     1
 10
-965.8895791168
 20
-1119.996104938664
 11
-966.1010591702758
 21
-1120.537065482882
 72
     1
 10
-966.1010591702758
 20
-1120.537065482882
 11
-967.3415635805287
 21
-1120.537065482882
 72
     1
 10
-967.3415635805287
 20
-1120.537065482882
 11
-965.9436105335894
 21
-1117.483255959071
 72
     1
 10
-965.9436105335894
 20
-1117.483255959071
 11
-964.7031061233367
 21
-1117.483255959071
 72
     1
 10
-964.7031061233367
 20
-1117.483255959071
 11
-963.3051530763964
 21
-1120.537065482882
 97
        8
330
275
330
22F
330
274
330
277
330
22C
330
276
330
22D
330
22E
 92
       16
 93
        3
 72
     1
 10
-965.623523565655
 20
-1119.315541673358
 11
-965.0231930912724
 21
-1119.315541673358
 72
     1
 10
-965.0231930912724
 20
-1119.315541673358
 11
-965.3233583284625
 21
-1118.547726707371
 72
     1
 10
-965.3233583284625
 20
-1118.547726707371
 11
-965.623523565655
 21
-1119.315541673358
 97
        3
330
22B
330
22A
330
278
 75
     1
 76
     0
 52
45.0
 41
0.1
 77
     0
 78
     1
 53
45.0
 43
0.0
 44
0.0
 45
-0.0707106781186548
 46
0.0707106781186548
 79
     0
 98
        1
 10
0.0
 20
0.0
  0
HATCH
  5
343
330
71
100
AcDbEntity
  8
1
  6
Continuous
 62
     2
100
AcDbHatch
 10
0.0
 20
0.0
 30
0.0
210
0.0
220
0.0
230
1.0
  2
_USER
 70
     0
 71
     1
 91
        2
 92
        1
 93
        8
 72
     1
 10
-963.3051530763964
 20
-1120.537065482882
 11
-964.5456574866504
 21
-1120.537065482882
 72
     1
 10
-964.5456574866504
 20
-1120.537065482882
 11
-964.7571375401261
 21
-1119.996104938664
 72
     1
 10
-964.7571375401261
 20
-1119.996104938664
 11
-965.8895791168
 21
-1119.996104938664
 72
     1
 10
-965.8895791168
 20
-1119.996104938664
 11
-966.1010591702758
 21
-1120.537065482882
 72
     1
 10
-966.1010591702758
 20
-1120.537065482882
 11
-967.3415635805287
 21
-1120.537065482882
 72
     1
 10
-967.3415635805287
 20
-1120.537065482882
 11
-965.9436105335894
 21
-1117.483255959071
 72
     1
 10
-965.9436105335894
 20
-1117.483255959071
 11
-964.7031061233367
 21
-1117.483255959071
 72
     1
 10
-964.7031061233367
 20
-1117.483255959071
 11
-963.3051530763964
 21
-1120.537065482882
 97
        8
330
275
330
22F
330
274
330
277
330
22C
330
276
330
22D
330
22E
 92
       16
 93
        3
 72
     1
 10
-965.623523565655
 20
-1119.315541673358
 11
-965.0231930912724
 21
-1119.315541673358
 72
     1
 10
-965.0231930912724
 20
-1119.315541673358
 11
-965.3233583284625
 21
-1118.547726707371
 72
     1
 10
-965.3233583284625
 20
-1118.547726707371
 11
-965.623523565655
 21
-1119.315541673358
 97
        3
330
22B
330
22A
330
278
 75
     1
 76
     0
 52
45.0
 41
0.1
 77
     0
 78
     1
 53
45.0
 43
0.0
 44
0.0
 45
-0.0707106781186548
 46
0.0707106781186548
 79
     0
 98
        1
 10
0.0
 20
0.0
  0
HATCH
  5
344
330
71
100
AcDbEntity
  8
1
  6
Continuous
 62
     2
100
AcDbHatch
 10
0.0
 20
0.0
 30
0.0
210
0.0
220
0.0
230
1.0
  2
_USER
 70
     0
 71
     1
 91
        1
 92
        1
 93
        8
 72
     1
 10
-969.499075719711
 20
-1117.483255959071
 11
-969.499075719711
 21
-1118.268521265195
 72
     1
 10
-969.499075719711
 20
-1118.268521265195
 11
-968.6879766822364
 21
-1118.268521265195
 72
     1
 10
-968.6879766822364
 20
-1118.268521265195
 11
-968.6879766822364
 21
-1120.537065482882
 72
     1
 10
-968.6879766822364
 20
-1120.537065482882
 11
-967.4951839800699
 21
-1120.537065482882
 72
     1
 10
-967.4951839800699
 20
-1120.537065482882
 11
-967.4951839800699
 21
-1118.268521265195
 72
     1
 10
-967.4951839800699
 20
-1118.268521265195
 11
-966.6840849425973
 21
-1118.268521265195
 72
     1
 10
-966.6840849425973
 20
-1118.268521265195
 11
-966.6840849425973
 21
-1117.483255959071
 72
     1
 10
-966.6840849425973
 20
-1117.483255959071
 11
-969.499075719711
 21
-1117.483255959071
 97
        8
330
271
330
270
330
26F
330
230
330
231
330
273
330
232
330
272
 75
     1
 76
     0
 52
45.0
 41
0.1
 77
     0
 78
     1
 53
45.0
 43
0.0
 44
0.0
 45
-0.0707106781186548
 46
0.0707106781186548
 79
     0
 98
        1
 10
0.0
 20
0.0
  0
HATCH
  5
345
330
71
100
AcDbEntity
  8
1
  6
Continuous
 62
     2
100
AcDbHatch
 10
0.0
 20
0.0
 30
0.0
210
0.0
220
0.0
230
1.0
  2
_USER
 70
     0
 71
     1
 91
        1
 92
        1
 93
        8
 72
     1
 10
-969.499075719711
 20
-1117.483255959071
 11
-969.499075719711
 21
-1118.268521265195
 72
     1
 10
-969.499075719711
 20
-1118.268521265195
 11
-968.6879766822364
 21
-1118.268521265195
 72
     1
 10
-968.6879766822364
 20
-1118.268521265195
 11
-968.6879766822364
 21
-1120.537065482882
 72
     1
 10
-968.6879766822364
 20
-1120.537065482882
 11
-967.4951839800699
 21
-1120.537065482882
 72
     1
 10
-967.4951839800699
 20
-1120.537065482882
 11
-967.4951839800699
 21
-1118.268521265195
 72
     1
 10
-967.4951839800699
 20
-1118.268521265195
 11
-966.6840849425973
 21
-1118.268521265195
 72
     1
 10
-966.6840849425973
 20
-1118.268521265195
 11
-966.6840849425973
 21
-1117.483255959071
 72
     1
 10
-966.6840849425973
 20
-1117.483255959071
 11
-969.499075719711
 21
-1117.483255959071
 97
        8
330
271
330
270
330
26F
330
230
330
231
330
273
330
232
330
272
 75
     1
 76
     0
 52
45.0
 41
0.1
 77
     0
 78
     1
 53
45.0
 43
0.0
 44
0.0
 45
-0.0707106781186548
 46
0.0707106781186548
 79
     0
 98
        1
 10
0.0
 20
0.0
  0
HATCH
  5
346
330
71
100
AcDbEntity
  8
1
  6
Continuous
 62
     2
100
AcDbHatch
 10
0.0
 20
0.0
 30
0.0
210
0.0
220
0.0
230
1.0
  2
_USER
 70
     0
 71
     1
 91
        1
 92
        1
 93
       10
 72
     1
 10
-966.8270691359719
 20
-1114.124065482897
 11
-968.0198618381384
 21
-1114.124065482897
 72
     1
 10
-968.0198618381384
 20
-1114.124065482897
 11
-968.0198618381384
 21
-1117.177875006708
 72
     1
 10
-968.0198618381384
 20
-1117.177875006708
 11
-966.8270691359719
 21
-1117.177875006708
 72
     1
 10
-966.8270691359719
 20
-1117.177875006708
 11
-966.8270691359719
 21
-1115.869099496503
 72
     1
 10
-966.8270691359719
 20
-1115.869099496503
 11
-965.5865647257178
 21
-1117.177875006708
 72
     1
 10
-965.5865647257178
 20
-1117.177875006708
 11
-964.3937720235513
 21
-1117.177875006708
 72
     1
 10
-964.3937720235513
 20
-1117.177875006708
 11
-964.3937720235513
 21
-1114.124065482897
 72
     1
 10
-964.3937720235513
 20
-1114.124065482897
 11
-965.5865647257178
 21
-1114.124065482897
 72
     1
 10
-965.5865647257178
 20
-1114.124065482897
 11
-965.5865647257178
 21
-1115.432840993102
 72
     1
 10
-965.5865647257178
 20
-1115.432840993102
 11
-966.8270691359719
 21
-1114.124065482897
 97
       10
330
26B
330
235
330
236
330
237
330
238
330
26E
330
233
330
26D
330
26C
330
234
 75
     1
 76
     0
 52
45.0
 41
0.1
 77
     0
 78
     1
 53
45.0
 43
0.0
 44
0.0
 45
-0.0707106781186548
 46
0.0707106781186548
 79
     0
 98
        1
 10
0.0
 20
0.0
  0
HATCH
  5
347
330
71
100
AcDbEntity
  8
1
  6
Continuous
 62
     2
100
AcDbHatch
 10
0.0
 20
0.0
 30
0.0
210
0.0
220
0.0
230
1.0
  2
_USER
 70
     0
 71
     1
 91
        1
 92
        1
 93
       10
 72
     1
 10
-966.8270691359719
 20
-1114.124065482897
 11
-968.0198618381384
 21
-1114.124065482897
 72
     1
 10
-968.0198618381384
 20
-1114.124065482897
 11
-968.0198618381384
 21
-1117.177875006708
 72
     1
 10
-968.0198618381384
 20
-1117.177875006708
 11
-966.8270691359719
 21
-1117.177875006708
 72
     1
 10
-966.8270691359719
 20
-1117.177875006708
 11
-966.8270691359719
 21
-1115.869099496503
 72
     1
 10
-966.8270691359719
 20
-1115.869099496503
 11
-965.5865647257178
 21
-1117.177875006708
 72
     1
 10
-965.5865647257178
 20
-1117.177875006708
 11
-964.3937720235513
 21
-1117.177875006708
 72
     1
 10
-964.3937720235513
 20
-1117.177875006708
 11
-964.3937720235513
 21
-1114.124065482897
 72
     1
 10
-964.3937720235513
 20
-1114.124065482897
 11
-965.5865647257178
 21
-1114.124065482897
 72
     1
 10
-965.5865647257178
 20
-1114.124065482897
 11
-965.5865647257178
 21
-1115.432840993102
 72
     1
 10
-965.5865647257178
 20
-1115.432840993102
 11
-966.8270691359719
 21
-1114.124065482897
 97
       10
330
26B
330
235
330
236
330
237
330
238
330
26E
330
233
330
26D
330
26C
330
234
 75
     1
 76
     0
 52
45.0
 41
0.1
 77
     0
 78
     1
 53
45.0
 43
0.0
 44
0.0
 45
-0.0707106781186548
 46
0.0707106781186548
 79
     0
 98
        1
 10
0.0
 20
0.0
  0
HATCH
  5
348
330
71
100
AcDbEntity
  8
1
  6
Continuous
 62
     2
100
AcDbHatch
 10
0.0
 20
0.0
 30
0.0
210
0.0
220
0.0
230
1.0
  2
_USER
 70
     0
 71
     1
 91
        1
 92
        1
 93
       10
 72
     1
 10
-972.0755079563904
 20
-1117.483255959071
 11
-973.268300658558
 21
-1117.483255959071
 72
     1
 10
-973.268300658558
 20
-1117.483255959071
 11
-973.268300658558
 21
-1120.537065482882
 72
     1
 10
-973.268300658558
 20
-1120.537065482882
 11
-972.0755079563904
 21
-1120.537065482882
 72
     1
 10
-972.0755079563904
 20
-1120.537065482882
 11
-972.0755079563904
 21
-1119.228289972678
 72
     1
 10
-972.0755079563904
 20
-1119.228289972678
 11
-970.8350035461376
 21
-1120.537065482882
 72
     1
 10
-970.8350035461376
 20
-1120.537065482882
 11
-969.6422108439712
 21
-1120.537065482882
 72
     1
 10
-969.6422108439712
 20
-1120.537065482882
 11
-969.6422108439712
 21
-1117.483255959071
 72
     1
 10
-969.6422108439712
 20
-1117.483255959071
 11
-970.8350035461376
 21
-1117.483255959071
 72
     1
 10
-970.8350035461376
 20
-1117.483255959071
 11
-970.8350035461376
 21
-1118.792031469276
 72
     1
 10
-970.8350035461376
 20
-1118.792031469276
 11
-972.0755079563904
 21
-1117.483255959071
 97
       10
330
23A
330
23B
330
23C
330
268
330
23D
330
23E
330
267
330
26A
330
269
330
239
 75
     1
 76
     0
 52
45.0
 41
0.1
 77
     0
 78
     1
 53
45.0
 43
0.0
 44
0.0
 45
-0.0707106781186548
 46
0.0707106781186548
 79
     0
 98
        1
 10
0.0
 20
0.0
  0
HATCH
  5
349
330
71
100
AcDbEntity
  8
1
  6
Continuous
 62
     2
100
AcDbHatch
 10
0.0
 20
0.0
 30
0.0
210
0.0
220
0.0
230
1.0
  2
_USER
 70
     0
 71
     1
 91
        1
 92
        1
 93
       10
 72
     1
 10
-972.0755079563904
 20
-1117.483255959071
 11
-973.268300658558
 21
-1117.483255959071
 72
     1
 10
-973.268300658558
 20
-1117.483255959071
 11
-973.268300658558
 21
-1120.537065482882
 72
     1
 10
-973.268300658558
 20
-1120.537065482882
 11
-972.0755079563904
 21
-1120.537065482882
 72
     1
 10
-972.0755079563904
 20
-1120.537065482882
 11
-972.0755079563904
 21
-1119.228289972678
 72
     1
 10
-972.0755079563904
 20
-1119.228289972678
 11
-970.8350035461376
 21
-1120.537065482882
 72
     1
 10
-970.8350035461376
 20
-1120.537065482882
 11
-969.6422108439712
 21
-1120.537065482882
 72
     1
 10
-969.6422108439712
 20
-1120.537065482882
 11
-969.6422108439712
 21
-1117.483255959071
 72
     1
 10
-969.6422108439712
 20
-1117.483255959071
 11
-970.8350035461376
 21
-1117.483255959071
 72
     1
 10
-970.8350035461376
 20
-1117.483255959071
 11
-970.8350035461376
 21
-1118.792031469276
 72
     1
 10
-970.8350035461376
 20
-1118.792031469276
 11
-972.0755079563904
 21
-1117.483255959071
 97
       10
330
23A
330
23B
330
23C
330
268
330
23D
330
23E
330
267
330
26A
330
269
330
239
 75
     1
 76
     0
 52
45.0
 41
0.1
 77
     0
 78
     1
 53
45.0
 43
0.0
 44
0.0
 45
-0.0707106781186548
 46
0.0707106781186548
 79
     0
 98
        1
 10
0.0
 20
0.0
  0
HATCH
  5
34A
330
71
100
AcDbEntity
  8
1
  6
Continuous
 62
     2
100
AcDbHatch
 10
0.0
 20
0.0
 30
0.0
210
0.0
220
0.0
230
1.0
  2
_USER
 70
     0
 71
     1
 91
        1
 92
        1
 93
       12
 72
     1
 10
-973.0773028953258
 20
-1114.124065482897
 11
-973.0773028953258
 21
-1117.177875006708
 72
     1
 10
-973.0773028953258
 20
-1117.177875006708
 11
-974.2700955974923
 21
-1117.177875006708
 72
     1
 10
-974.2700955974923
 20
-1117.177875006708
 11
-974.2700955974923
 21
-1116.043602897864
 72
     1
 10
-974.2700955974923
 20
-1116.043602897864
 11
-975.3197531753997
 21
-1116.043602897864
 72
     1
 10
-975.3197531753997
 20
-1116.043602897864
 11
-975.3197531753997
 21
-1117.177875006708
 72
     1
 10
-975.3197531753997
 20
-1117.177875006708
 11
-976.5125458775664
 21
-1117.177875006708
 72
     1
 10
-976.5125458775664
 20
-1117.177875006708
 11
-976.5125458775664
 21
-1114.124065482897
 72
     1
 10
-976.5125458775664
 20
-1114.124065482897
 11
-975.3197531753997
 21
-1114.124065482897
 72
     1
 10
-975.3197531753997
 20
-1114.124065482897
 11
-975.3197531753997
 21
-1115.192898816231
 72
     1
 10
-975.3197531753997
 20
-1115.192898816231
 11
-974.2700955974923
 21
-1115.192898816231
 72
     1
 10
-974.2700955974923
 20
-1115.192898816231
 11
-974.2700955974923
 21
-1114.124065482897
 72
     1
 10
-974.2700955974923
 20
-1114.124065482897
 11
-973.0773028953258
 21
-1114.124065482897
 97
       12
330
262
330
261
330
260
330
248
330
249
330
25F
330
24A
330
25E
330
25D
330
25C
330
246
330
247
 75
     1
 76
     0
 52
45.0
 41
0.1
 77
     0
 78
     1
 53
45.0
 43
0.0
 44
0.0
 45
-0.0707106781186548
 46
0.0707106781186548
 79
     0
 98
        1
 10
0.0
 20
0.0
  0
HATCH
  5
34B
330
71
100
AcDbEntity
  8
1
  6
Continuous
 62
     2
100
AcDbHatch
 10
0.0
 20
0.0
 30
0.0
210
0.0
220
0.0
230
1.0
  2
_USER
 70
     0
 71
     1
 91
        1
 92
        1
 93
       12
 72
     1
 10
-973.0773028953258
 20
-1114.124065482897
 11
-973.0773028953258
 21
-1117.177875006708
 72
     1
 10
-973.0773028953258
 20
-1117.177875006708
 11
-974.2700955974923
 21
-1117.177875006708
 72
     1
 10
-974.2700955974923
 20
-1117.177875006708
 11
-974.2700955974923
 21
-1116.043602897864
 72
     1
 10
-974.2700955974923
 20
-1116.043602897864
 11
-975.3197531753997
 21
-1116.043602897864
 72
     1
 10
-975.3197531753997
 20
-1116.043602897864
 11
-975.3197531753997
 21
-1117.177875006708
 72
     1
 10
-975.3197531753997
 20
-1117.177875006708
 11
-976.5125458775664
 21
-1117.177875006708
 72
     1
 10
-976.5125458775664
 20
-1117.177875006708
 11
-976.5125458775664
 21
-1114.124065482897
 72
     1
 10
-976.5125458775664
 20
-1114.124065482897
 11
-975.3197531753997
 21
-1114.124065482897
 72
     1
 10
-975.3197531753997
 20
-1114.124065482897
 11
-975.3197531753997
 21
-1115.192898816231
 72
     1
 10
-975.3197531753997
 20
-1115.192898816231
 11
-974.2700955974923
 21
-1115.192898816231
 72
     1
 10
-974.2700955974923
 20
-1115.192898816231
 11
-974.2700955974923
 21
-1114.124065482897
 72
     1
 10
-974.2700955974923
 20
-1114.124065482897
 11
-973.0773028953258
 21
-1114.124065482897
 97
       12
330
262
330
261
330
260
330
248
330
249
330
25F
330
24A
330
25E
330
25D
330
25C
330
246
330
247
 75
     1
 76
     0
 52
45.0
 41
0.1
 77
     0
 78
     1
 53
45.0
 43
0.0
 44
0.0
 45
-0.0707106781186548
 46
0.0707106781186548
 79
     0
 98
        1
 10
0.0
 20
0.0
  0
ENDBLK
  5
73
330
71
100
AcDbEntity
  8
0
100
AcDbBlockEnd
  0
BLOCK
  5
75
330
74
100
AcDbEntity
  8
0
100
AcDbBlockBegin
  2
_punkt
 70
     0
 10
-861.1999990815369
 20
-1127.830565482899
 30
0.0
  3
_punkt
  1

  0
LINE
  5
34C
330
74
100
AcDbEntity
  8
1
  6
Continuous
 62
     2
100
AcDbLine
 10
-861.1999990815369
 20
-1127.830565482899
 30
0.0
 11
-861.1999990815369
 21
-1132.830565482899
 31
0.0
  0
LINE
  5
34D
330
74
100
AcDbEntity
  8
1
  6
Continuous
 62
     2
100
AcDbLine
 10
-861.1999990815369
 20
-1127.830565482899
 30
0.0
 11
-856.199999081538
 21
-1127.830565482899
 31
0.0
  0
ENDBLK
  5
76
330
74
100
AcDbEntity
  8
0
100
AcDbBlockEnd
  0
BLOCK
  5
7A
330
77
100
AcDbEntity
  8
0
100
AcDbBlockBegin
  2
A4I_CS
 70
     0
 10
-861.1999990815369
 20
-1132.830565482899
 30
0.0
  3
A4I_CS
  1

  0
INSERT
  5
78
330
77
100
AcDbEntity
  8
1
100
AcDbBlockReference
  2
_rahmen
 10
-861.1999990815369
 20
-1132.830565482899
 30
0.0
  0
INSERT
  5
79
330
77
100
AcDbEntity
  8
1
100
AcDbBlockReference
  2
_punkt
 10
-861.1999990815369
 20
-1127.830565482899
 30
0.0
  0
ENDBLK
  5
7B
330
77
100
AcDbEntity
  8
0
100
AcDbBlockEnd
  0
BLOCK
  5
84
330
7C
100
AcDbEntity
  8
0
100
AcDbBlockBegin
  2
1
 70
     0
 10
0.0
 20
0.0
 30
0.0
  3
1
  1

  0
INSERT
  5
7D
330
7C
100
AcDbEntity
  8
0
100
AcDbBlockReference
  2
AllgSicht1
 10
-924.0000000000165
 20
-1062.999999999975
 30
0.0
 41
0.5
 42
0.5
 43
0.5
  0
INSERT
  5
7E
330
7C
100
AcDbEntity
  8
0
100
AcDbBlockReference
  2
Drfsicht1
 10
-1040.687499046696
 20
-1064.700000809516
 30
0.0
 41
0.5
 42
0.5
 43
0.5
  0
INSERT
  5
7F
330
7C
100
AcDbEntity
  8
0
100
AcDbBlockReference
  2
Rckans1
 10
-905.312501139899
 20
-989.999999999975
 30
0.0
 41
0.5
 42
0.5
 43
0.5
  0
INSERT
  5
80
330
7C
100
AcDbEntity
  8
0
100
AcDbBlockReference
  2
SA_Links1
 10
-974.7699405106275
 20
-989.99999999995
 30
0.0
 41
0.5
 42
0.5
 43
0.5
  0
INSERT
  5
81
330
7C
100
AcDbEntity
  8
0
100
AcDbBlockReference
  2
SA_Rechts1
 10
-1114.37499772014
 20
-989.999999999975
 30
0.0
 41
0.5
 42
0.5
 43
0.5
  0
INSERT
  5
82
330
7C
100
AcDbEntity
  8
0
100
AcDbBlockReference
  2
Vordans1
 10
-1040.687499046676
 20
-989.999999999975
 30
0.0
 41
0.5
 42
0.5
 43
0.5
  0
INSERT
  5
83
330
7C
100
AcDbEntity
  8
0
100
AcDbBlockReference
  2
A4I_CS
 10
-861.1999990815369
 20
-1132.830565482899
 30
0.0
  0
ENDBLK
  5
85
330
7C
100
AcDbEntity
  8
0
100
AcDbBlockEnd
  0
BLOCK
  5
131
330
12A
100
AcDbEntity
  8
0
100
AcDbBlockBegin
  2
*D17
 70
     1
 10
0.0
 20
0.0
 30
0.0
  3
*D17
  1

  0
LINE
  5
12B
330
12A
100
AcDbEntity
  8
1
  6
Continuous
 62
     2
100
AcDbLine
 10
-2165.107134871661
 20
-2153.80000162257
 30
0.0
 11
-2165.107134871661
 21
-2105.000001618549
 31
0.0
  0
LINE
  5
12C
330
12A
100
AcDbEntity
  8
1
  6
Continuous
 62
     2
100
AcDbLine
 10
-2134.160659663115
 20
-2153.80000162257
 30
0.0
 11
-2168.107134871661
 21
-2153.80000162257
 31
0.0
  0
LINE
  5
12D
330
12A
100
AcDbEntity
  8
1
  6
Continuous
 62
     2
100
AcDbLine
 10
-2134.160659662868
 20
-2105.000001618549
 30
0.0
 11
-2168.107134871661
 21
-2105.000001618549
 31
0.0
  0
SOLID
  5
12E
330
12A
100
AcDbEntity
  8
1
 62
     2
100
AcDbTrace
 10
-2166.028702354773
 20
-2146.80000162257
 30
0.0
 11
-2164.185567388549
 21
-2146.80000162257
 31
0.0
 12
-2165.107134871661
 22
-2153.80000162257
 32
0.0
 13
-2165.107134871661
 23
-2153.80000162257
 33
0.0
  0
SOLID
  5
12F
330
12A
100
AcDbEntity
  8
1
 62
     2
100
AcDbTrace
 10
-2164.185567388549
 20
-2112.000001618549
 30
0.0
 11
-2166.028702354773
 21
-2112.000001618549
 31
0.0
 12
-2165.107134871661
 22
-2105.000001618549
 32
0.0
 13
-2165.107134871661
 23
-2105.000001618549
 33
0.0
  0
MTEXT
  5
130
330
12A
100
AcDbEntity
  8
1
 62
     3
100
AcDbMText
 10
-2169.807134871661
 20
-2139.0461633225
 30
0.0
 40
7.0
 41
0.0
 71
     7
 72
     1
  1
48,8
  7
CONVERTER_11
 11
0.0
 21
1.0
 31
0.0
 73
     1
 44
0.60024009603842
  0
ENDBLK
  5
132
330
12A
100
AcDbEntity
  8
0
100
AcDbBlockEnd
  0
BLOCK
  5
206
330
1FF
100
AcDbEntity
  8
0
100
AcDbBlockBegin
  2
*D18
 70
     1
 10
0.0
 20
0.0
 30
0.0
  3
*D18
  1

  0
LINE
  5
200
330
1FF
100
AcDbEntity
  8
1
  6
Continuous
 62
     2
100
AcDbLine
 10
-2018.399999491219
 20
-2049.80002173826
 30
0.0
 11
-2144.349999491123
 21
-2049.80002173826
 31
0.0
  0
LINE
  5
201
330
1FF
100
AcDbEntity
  8
1
  6
Continuous
 62
     2
100
AcDbLine
 10
-2018.399999491219
 20
-1951.000001671016
 30
0.0
 11
-2018.399999491219
 21
-2052.80002173826
 31
0.0
  0
LINE
  5
202
330
1FF
100
AcDbEntity
  8
1
  6
Continuous
 62
     2
100
AcDbLine
 10
-2144.349999491123
 20
-1957.000001670794
 30
0.0
 11
-2144.349999491123
 21
-2052.80002173826
 31
0.0
  0
SOLID
  5
203
330
1FF
100
AcDbEntity
  8
1
 62
     2
100
AcDbTrace
 10
-2025.399999491219
 20
-2050.721589221371
 30
0.0
 11
-2025.399999491219
 21
-2048.878454255148
 31
0.0
 12
-2018.399999491219
 22
-2049.80002173826
 32
0.0
 13
-2018.399999491219
 23
-2049.80002173826
 33
0.0
  0
SOLID
  5
204
330
1FF
100
AcDbEntity
  8
1
 62
     2
100
AcDbTrace
 10
-2137.349999491123
 20
-2048.878454255148
 30
0.0
 11
-2137.349999491123
 21
-2050.721589221371
 31
0.0
 12
-2144.349999491123
 22
-2049.80002173826
 32
0.0
 13
-2144.349999491123
 23
-2049.80002173826
 33
0.0
  0
MTEXT
  5
205
330
1FF
100
AcDbEntity
  8
1
 62
     3
100
AcDbMText
 10
-2095.236151176161
 20
-2045.10002173826
 30
0.0
 40
7.0
 41
0.0
 71
     7
 72
     1
  1
125,95
  7
CONVERTER_11
 11
0.9999999999970619
 21
2.424068405545306E-6
 31
0.0
 73
     1
 44
0.60024009603842
  0
ENDBLK
  5
207
330
1FF
100
AcDbEntity
  8
0
100
AcDbBlockEnd
  0
BLOCK
  5
211
330
20A
100
AcDbEntity
  8
0
100
AcDbBlockBegin
  2
*D19
 70
     1
 10
0.0
 20
0.0
 30
0.0
  3
*D19
  1

  0
LINE
  5
20B
330
20A
100
AcDbEntity
  8
1
  6
Continuous
 62
     2
100
AcDbLine
 10
-2165.107134871661
 20
-2015.000001671093
 30
0.0
 11
-2165.107134871661
 21
-1941.000001671086
 31
0.0
  0
LINE
  5
20C
330
20A
100
AcDbEntity
  8
1
  6
Continuous
 62
     2
100
AcDbLine
 10
-2024.399999491335
 20
-2015.000001671093
 30
0.0
 11
-2168.107134871661
 21
-2015.000001671093
 31
0.0
  0
LINE
  5
20D
330
20A
100
AcDbEntity
  8
1
  6
Continuous
 62
     2
100
AcDbLine
 10
-2089.512538799647
 20
-1941.000001671086
 30
0.0
 11
-2168.107134871661
 21
-1941.000001671086
 31
0.0
  0
SOLID
  5
20E
330
20A
100
AcDbEntity
  8
1
 62
     2
100
AcDbTrace
 10
-2166.028702354773
 20
-2008.000001671093
 30
0.0
 11
-2164.185567388549
 21
-2008.000001671093
 31
0.0
 12
-2165.107134871661
 22
-2015.000001671093
 32
0.0
 13
-2165.107134871661
 23
-2015.000001671093
 33
0.0
  0
SOLID
  5
20F
330
20A
100
AcDbEntity
  8
1
 62
     2
100
AcDbTrace
 10
-2164.185567388549
 20
-1948.000001671086
 30
0.0
 11
-2166.028702354773
 21
-1948.000001671086
 31
0.0
 12
-2165.107134871661
 22
-1941.000001671086
 32
0.0
 13
-2165.107134871661
 23
-1941.000001671086
 33
0.0
  0
MTEXT
  5
210
330
20A
100
AcDbEntity
  8
1
 62
     3
100
AcDbMText
 10
-2169.107134871661
 20
-1979.473558157534
 30
0.0
 40
7.0
 41
0.0
 71
     7
 72
     1
  1
74
  7
CONVERTER_11
 11
0.0
 21
1.0
 31
0.0
 73
     1
 44
0.60024009603842
  0
ENDBLK
  5
212
330
20A
100
AcDbEntity
  8
0
100
AcDbBlockEnd
  0
ENDSEC
  0
SECTION
  2
ENTITIES
  0
INSERT
  5
86
330
1F
100
AcDbEntity
  8
1
100
AcDbBlockReference
  2
1
 10
0.0
 20
0.0
 30
0.0
  0
ENDSEC
  0
SECTION
  2
OBJECTS
  0
DICTIONARY
  5
C
330
0
100
AcDbDictionary
281
     1
  3
ACAD_GROUP
350
D
  3
ACAD_LAYOUT
350
1A
  3
ACAD_MATERIAL
350
3B
  3
ACAD_MLEADERSTYLE
350
375
  3
ACAD_MLINESTYLE
350
17
  3
ACAD_PLOTSETTINGS
350
19
  3
ACAD_PLOTSTYLENAME
350
E
  3
ACAD_TABLESTYLE
350
374
  3
ACAD_VISUALSTYLE
350
2A
  0
DICTIONARY
  5
D
102
{ACAD_REACTORS
330
C
102
}
330
C
100
AcDbDictionary
281
     1
  0
DICTIONARY
  5
1A
102
{ACAD_REACTORS
330
C
102
}
330
C
100
AcDbDictionary
281
     1
  3
Layout1
350
1E
  3
Layout2
350
26
  3
Model
350
22
  0
DICTIONARY
  5
3B
102
{ACAD_REACTORS
330
C
102
}
330
C
100
AcDbDictionary
281
     1
  3
ByBlock
350
3D
  3
ByLayer
350
3C
  3
Global
350
3E
  0
DICTIONARY
  5
375
102
{ACAD_REACTORS
330
C
102
}
330
C
100
AcDbDictionary
281
     1
  0
DICTIONARY
  5
17
102
{ACAD_REACTORS
330
C
102
}
330
C
100
AcDbDictionary
281
     1
  3
Standard
350
18
  0
DICTIONARY
  5
19
102
{ACAD_REACTORS
330
C
102
}
330
C
100
AcDbDictionary
281
     1
  0
ACDBDICTIONARYWDFLT
  5
E
102
{ACAD_REACTORS
330
C
102
}
330
C
100
AcDbDictionary
281
     1
  3
Normal
350
F
100
AcDbDictionaryWithDefault
340
F
  0
DICTIONARY
  5
374
102
{ACAD_REACTORS
330
C
102
}
330
C
100
AcDbDictionary
281
     1
  0
DICTIONARY
  5
2A
102
{ACAD_REACTORS
330
C
102
}
330
C
100
AcDbDictionary
281
     1
  3
2dWireframe
350
2F
  3
3D Hidden
350
31
  3
3dWireframe
350
30
  3
Basic
350
32
  3
Brighten
350
36
  3
ColorChange
350
3A
  3
Conceptual
350
34
  3
Dim
350
35
  3
Facepattern
350
39
  3
Flat
350
2B
  3
FlatWithEdges
350
2C
  3
Gouraud
350
2D
  3
GouraudWithEdges
350
2E
  3
Linepattern
350
38
  3
Realistic
350
33
  3
Thicken
350
37
  0
LAYOUT
  5
1E
102
{ACAD_REACTORS
330
1A
102
}
330
1A
100
AcDbPlotSettings
  1

  2
none_device
  4

  6

 40
0.0
 41
0.0
 42
0.0
 43
0.0
 44
0.0
 45
0.0
 46
0.0
 47
0.0
 48
0.0
 49
0.0
140
0.0
141
0.0
142
1.0
143
1.0
 70
   688
 72
     0
 73
     0
 74
     5
  7

 75
    16
 76
     0
 77
     2
 78
   300
147
1.0
148
0.0
149
0.0
100
AcDbLayout
  1
Layout1
 70
     1
 71
     1
 10
0.0
 20
0.0
 11
12.0
 21
9.0
 12
0.0
 22
0.0
 32
0.0
 14
1.00000000000000E+20
 24
1.00000000000000E+20
 34
1.00000000000000E+20
 15
-1.00000000000000E+20
 25
-1.00000000000000E+20
 35
-1.00000000000000E+20
146
0.0
 13
0.0
 23
0.0
 33
0.0
 16
1.0
 26
0.0
 36
0.0
 17
0.0
 27
1.0
 37
0.0
 76
     0
330
1B
  0
LAYOUT
  5
26
102
{ACAD_REACTORS
330
1A
102
}
330
1A
100
AcDbPlotSettings
  1

  2
none_device
  4

  6

 40
0.0
 41
0.0
 42
0.0
 43
0.0
 44
0.0
 45
0.0
 46
0.0
 47
0.0
 48
0.0
 49
0.0
140
0.0
141
0.0
142
1.0
143
1.0
 70
   688
 72
     0
 73
     0
 74
     5
  7

 75
    16
 76
     0
 77
     2
 78
   300
147
1.0
148
0.0
149
0.0
100
AcDbLayout
  1
Layout2
 70
     1
 71
     2
 10
0.0
 20
0.0
 11
0.0
 21
0.0
 12
0.0
 22
0.0
 32
0.0
 14
0.0
 24
0.0
 34
0.0
 15
0.0
 25
0.0
 35
0.0
146
0.0
 13
0.0
 23
0.0
 33
0.0
 16
1.0
 26
0.0
 36
0.0
 17
0.0
 27
1.0
 37
0.0
 76
     0
330
23
  0
LAYOUT
  5
22
102
{ACAD_REACTORS
330
1A
102
}
330
1A
100
AcDbPlotSettings
  1

  2
none_device
  4

  6

 40
0.0
 41
0.0
 42
0.0
 43
0.0
 44
0.0
 45
0.0
 46
0.0
 47
0.0
 48
0.0
 49
0.0
140
0.0
141
0.0
142
1.0
143
1.0
 70
  1712
 72
     0
 73
     0
 74
     0
  7

 75
     0
 76
     0
 77
     2
 78
   300
147
1.0
148
0.0
149
0.0
100
AcDbLayout
  1
Model
 70
     1
 71
     0
 10
0.0
 20
0.0
 11
12.0
 21
9.0
 12
0.0
 22
0.0
 32
0.0
 14
-1153.199999081536
 24
-1132.830565482899
 34
0.0
 15
-856.199999081538
 25
-922.8305654828985
 35
0.0
146
0.0
 13
0.0
 23
0.0
 33
0.0
 16
1.0
 26
0.0
 36
0.0
 17
0.0
 27
1.0
 37
0.0
 76
     0
330
1F
331
29
  0
MATERIAL
  5
3D
102
{ACAD_REACTORS
330
3B
102
}
102
{ACAD_XDICTIONARY
360
370
102
}
330
3B
100
AcDbMaterial
  1
ByBlock
  0
MATERIAL
  5
3C
102
{ACAD_REACTORS
330
3B
102
}
102
{ACAD_XDICTIONARY
360
36E
102
}
330
3B
100
AcDbMaterial
  1
ByLayer
  0
MATERIAL
  5
3E
102
{ACAD_REACTORS
330
3B
102
}
102
{ACAD_XDICTIONARY
360
372
102
}
330
3B
100
AcDbMaterial
  1
Global
  0
MLINESTYLE
  5
18
102
{ACAD_REACTORS
330
17
102
}
330
17
100
AcDbMlineStyle
  2
Standard
 70
     0
  3

 62
   256
 51
90.0
 52
90.0
 71
     2
 49
0.5
 62
   256
  6
BYLAYER
 49
-0.5
 62
   256
  6
BYLAYER
  0
ACDBPLACEHOLDER
  5
F
102
{ACAD_REACTORS
330
E
102
}
330
E
  0
VISUALSTYLE
  5
2F
102
{ACAD_REACTORS
330
2A
102
}
102
{ACAD_XDICTIONARY
360
356
102
}
330
2A
100
AcDbVisualStyle
  2
2dWireframe
 70
     4
 71
     0
 72
     2
 73
     0
 90
        0
 40
-0.6
 41
-30.0
 62
     5
 63
     7
421
 16777215
 74
     1
 91
        4
 64
     7
 65
   257
 75
     1
175
     1
 42
1.0
 92
        0
 66
   257
 43
1.0
 76
     1
 77
     6
 78
     2
 67
     7
 79
     5
170
     0
171
     0
290
     0
174
     0
 93
        1
 44
0.0
173
     0
291
     0
 45
0.0
1001
ACAD
1000
AcDbSavedByObjectVersion
1070
     0
  0
VISUALSTYLE
  5
31
102
{ACAD_REACTORS
330
2A
102
}
102
{ACAD_XDICTIONARY
360
35A
102
}
330
2A
100
AcDbVisualStyle
  2
3D Hidden
 70
     6
 71
     1
 72
     2
 73
     2
 90
        0
 40
-0.6
 41
-30.0
 62
     5
 63
     7
421
 16777215
 74
     2
 91
        2
 64
     7
 65
   257
 75
     2
175
     1
 42
40.0
 92
        0
 66
   257
 43
1.0
 76
     1
 77
     6
 78
     2
 67
     7
 79
     3
170
     0
171
     0
290
     0
174
     0
 93
        1
 44
0.0
173
     0
291
     0
 45
0.0
1001
ACAD
1000
AcDbSavedByObjectVersion
1070
     0
  0
VISUALSTYLE
  5
30
102
{ACAD_REACTORS
330
2A
102
}
102
{ACAD_XDICTIONARY
360
358
102
}
330
2A
100
AcDbVisualStyle
  2
3dWireframe
 70
     5
 71
     0
 72
     2
 73
     0
 90
        0
 40
-0.6
 41
-30.0
 62
     5
 63
     7
421
 16777215
 74
     1
 91
        4
 64
     7
 65
   257
 75
     1
175
     1
 42
1.0
 92
        0
 66
   257
 43
1.0
 76
     1
 77
     6
 78
     2
 67
     7
 79
     5
170
     0
171
     0
290
     0
174
     0
 93
        1
 44
0.0
173
     0
291
     0
 45
0.0
1001
ACAD
1000
AcDbSavedByObjectVersion
1070
     0
  0
VISUALSTYLE
  5
32
102
{ACAD_REACTORS
330
2A
102
}
102
{ACAD_XDICTIONARY
360
35C
102
}
330
2A
100
AcDbVisualStyle
  2
Basic
 70
     7
 71
     1
 72
     0
 73
     1
 90
        0
 40
-0.6
 41
-30.0
 62
     5
 63
     7
421
 16777215
 74
     0
 91
        4
 64
     7
 65
   257
 75
     1
175
     1
 42
1.0
 92
        8
 66
     7
 43
1.0
 76
     1
 77
     6
 78
     2
 67
     7
 79
     5
170
     0
171
     0
290
     0
174
     0
 93
        1
 44
0.0
173
     0
291
     1
 45
0.0
1001
ACAD
1000
AcDbSavedByObjectVersion
1070
     0
  0
VISUALSTYLE
  5
36
102
{ACAD_REACTORS
330
2A
102
}
102
{ACAD_XDICTIONARY
360
364
102
}
330
2A
100
AcDbVisualStyle
  2
Brighten
 70
    12
 71
     2
 72
     2
 73
     0
 90
        0
 40
-0.6
 41
-30.0
 62
     5
 63
     7
421
 16777215
 74
     1
 91
        4
 64
     7
 65
   257
 75
     1
175
     1
 42
1.0
 92
        8
 66
     7
 43
1.0
 76
     1
 77
     6
 78
     2
 67
     7
 79
     5
170
     0
171
     0
290
     0
174
     0
 93
        1
 44
50.0
173
     0
291
     1
 45
0.0
1001
ACAD
1000
AcDbSavedByObjectVersion
1070
     0
  0
VISUALSTYLE
  5
3A
102
{ACAD_REACTORS
330
2A
102
}
102
{ACAD_XDICTIONARY
360
36C
102
}
330
2A
100
AcDbVisualStyle
  2
ColorChange
 70
    16
 71
     2
 72
     2
 73
     3
 90
        0
 40
-0.6
 41
-30.0
 62
     5
 63
     8
421
  8421504
 74
     1
 91
        4
 64
     7
 65
   257
 75
     1
175
     1
 42
1.0
 92
        8
 66
     8
424
  8421504
 43
1.0
 76
     1
 77
     6
 78
     2
 67
     7
 79
     5
170
     0
171
     0
290
     0
174
     0
 93
        1
 44
0.0
173
     0
291
     1
 45
0.0
1001
ACAD
1000
AcDbSavedByObjectVersion
1070
     0
  0
VISUALSTYLE
  5
34
102
{ACAD_REACTORS
330
2A
102
}
102
{ACAD_XDICTIONARY
360
360
102
}
330
2A
100
AcDbVisualStyle
  2
Conceptual
 70
     9
 71
     3
 72
     2
 73
     0
 90
        0
 40
-0.6
 41
-30.0
 62
     5
 63
     7
421
 16777215
 74
     2
 91
        2
 64
     7
 65
   257
 75
     1
175
     1
 42
40.0
 92
        8
 66
     7
 43
1.0
 76
     1
 77
     6
 78
     2
 67
     7
 79
     3
170
     0
171
     0
290
     0
174
     0
 93
        1
 44
0.0
173
     0
291
     0
 45
0.0
1001
ACAD
1000
AcDbSavedByObjectVersion
1070
     0
  0
VISUALSTYLE
  5
35
102
{ACAD_REACTORS
330
2A
102
}
102
{ACAD_XDICTIONARY
360
362
102
}
330
2A
100
AcDbVisualStyle
  2
Dim
 70
    11
 71
     2
 72
     2
 73
     0
 90
        0
 40
-0.6
 41
-30.0
 62
     5
 63
     7
421
 16777215
 74
     1
 91
        4
 64
     7
 65
   257
 75
     1
175
     1
 42
1.0
 92
        8
 66
     7
 43
1.0
 76
     1
 77
     6
 78
     2
 67
     7
 79
     5
170
     0
171
     0
290
     0
174
     0
 93
        1
 44
-50.0
173
     0
291
     1
 45
0.0
1001
ACAD
1000
AcDbSavedByObjectVersion
1070
     0
  0
VISUALSTYLE
  5
39
102
{ACAD_REACTORS
330
2A
102
}
102
{ACAD_XDICTIONARY
360
36A
102
}
330
2A
100
AcDbVisualStyle
  2
Facepattern
 70
    15
 71
     2
 72
     2
 73
     0
 90
        0
 40
-0.6
 41
-30.0
 62
     5
 63
     7
421
 16777215
 74
     1
 91
        4
 64
     7
 65
   257
 75
     1
175
     1
 42
1.0
 92
        8
 66
     7
 43
1.0
 76
     1
 77
     6
 78
     2
 67
     7
 79
     5
170
     0
171
     0
290
     0
174
     0
 93
        1
 44
0.0
173
     0
291
     1
 45
0.0
1001
ACAD
1000
AcDbSavedByObjectVersion
1070
     0
  0
VISUALSTYLE
  5
2B
102
{ACAD_REACTORS
330
2A
102
}
102
{ACAD_XDICTIONARY
360
34E
102
}
330
2A
100
AcDbVisualStyle
  2
Flat
 70
     0
 71
     2
 72
     1
 73
     1
 90
        2
 40
-0.6
 41
30.0
 62
     5
 63
     7
421
 16777215
 74
     0
 91
        4
 64
     7
 65
   257
 75
     1
175
     1
 42
1.0
 92
        8
 66
     7
 43
1.0
 76
     1
 77
     6
 78
     2
 67
     7
 79
     5
170
     0
171
     0
290
     0
174
     0
 93
       13
 44
0.0
173
     0
291
     1
 45
0.0
1001
ACAD
1000
AcDbSavedByObjectVersion
1070
     0
  0
VISUALSTYLE
  5
2C
102
{ACAD_REACTORS
330
2A
102
}
102
{ACAD_XDICTIONARY
360
350
102
}
330
2A
100
AcDbVisualStyle
  2
FlatWithEdges
 70
     1
 71
     2
 72
     1
 73
     1
 90
        2
 40
-0.6
 41
30.0
 62
     5
 63
     7
421
 16777215
 74
     1
 91
        4
 64
     7
 65
   257
 75
     1
175
     1
 42
1.0
 92
        0
 66
   257
 43
1.0
 76
     1
 77
     6
 78
     2
 67
     7
 79
     5
170
     0
171
     0
290
     0
174
     0
 93
       13
 44
0.0
173
     0
291
     1
 45
0.0
1001
ACAD
1000
AcDbSavedByObjectVersion
1070
     0
  0
VISUALSTYLE
  5
2D
102
{ACAD_REACTORS
330
2A
102
}
102
{ACAD_XDICTIONARY
360
352
102
}
330
2A
100
AcDbVisualStyle
  2
Gouraud
 70
     2
 71
     2
 72
     2
 73
     1
 90
        2
 40
-0.6
 41
30.0
 62
     5
 63
     7
421
 16777215
 74
     0
 91
        4
 64
     7
 65
   257
 75
     1
175
     1
 42
1.0
 92
        0
 66
     7
 43
1.0
 76
     1
 77
     6
 78
     2
 67
     7
 79
     5
170
     0
171
     0
290
     0
174
     0
 93
       13
 44
0.0
173
     0
291
     1
 45
0.0
1001
ACAD
1000
AcDbSavedByObjectVersion
1070
     0
  0
VISUALSTYLE
  5
2E
102
{ACAD_REACTORS
330
2A
102
}
102
{ACAD_XDICTIONARY
360
354
102
}
330
2A
100
AcDbVisualStyle
  2
GouraudWithEdges
 70
     3
 71
     2
 72
     2
 73
     1
 90
        2
 40
-0.6
 41
30.0
 62
     5
 63
     7
421
 16777215
 74
     1
 91
        4
 64
     7
 65
   257
 75
     1
175
     1
 42
1.0
 92
        0
 66
   257
 43
1.0
 76
     1
 77
     6
 78
     2
 67
     7
 79
     5
170
     0
171
     0
290
     0
174
     0
 93
       13
 44
0.0
173
     0
291
     1
 45
0.0
1001
ACAD
1000
AcDbSavedByObjectVersion
1070
     0
  0
VISUALSTYLE
  5
38
102
{ACAD_REACTORS
330
2A
102
}
102
{ACAD_XDICTIONARY
360
368
102
}
330
2A
100
AcDbVisualStyle
  2
Linepattern
 70
    14
 71
     2
 72
     2
 73
     0
 90
        0
 40
-0.6
 41
-30.0
 62
     5
 63
     7
421
 16777215
 74
     1
 91
        4
 64
     7
 65
   257
 75
     7
175
     7
 42
1.0
 92
        8
 66
     7
 43
1.0
 76
     1
 77
     6
 78
     2
 67
     7
 79
     5
170
     0
171
     0
290
     0
174
     0
 93
        1
 44
0.0
173
     0
291
     1
 45
0.0
1001
ACAD
1000
AcDbSavedByObjectVersion
1070
     0
  0
VISUALSTYLE
  5
33
102
{ACAD_REACTORS
330
2A
102
}
102
{ACAD_XDICTIONARY
360
35E
102
}
330
2A
100
AcDbVisualStyle
  2
Realistic
 70
     8
 71
     2
 72
     2
 73
     0
 90
        0
 40
-0.6
 41
-30.0
 62
     5
 63
     7
421
 16777215
 74
     1
 91
        0
 64
     7
 65
   257
 75
     1
175
     1
 42
1.0
 92
        8
 66
     8
424
  7895160
 43
1.0
 76
     1
 77
     6
 78
     2
 67
     7
 79
     5
170
     0
171
     0
290
     0
174
     0
 93
       13
 44
0.0
173
     0
291
     0
 45
0.0
1001
ACAD
1000
AcDbSavedByObjectVersion
1070
     0
  0
VISUALSTYLE
  5
37
102
{ACAD_REACTORS
330
2A
102
}
102
{ACAD_XDICTIONARY
360
366
102
}
330
2A
100
AcDbVisualStyle
  2
Thicken
 70
    13
 71
     2
 72
     2
 73
     0
 90
        0
 40
-0.6
 41
-30.0
 62
     5
 63
     7
421
 16777215
 74
     1
 91
        4
 64
     7
 65
   257
 75
     1
175
     1
 42
1.0
 92
       12
 66
     7
 43
1.0
 76
     1
 77
     6
 78
     2
 67
     7
 79
     5
170
     0
171
     0
290
     0
174
     0
 93
        1
 44
0.0
173
     0
291
     1
 45
0.0
1001
ACAD
1000
AcDbSavedByObjectVersion
1070
     0
  0
DICTIONARY
  5
370
330
3D
100
AcDbDictionary
280
     1
281
     1
  3
ACAD_XREC_ROUNDTRIP
360
371
  0
DICTIONARY
  5
36E
330
3C
100
AcDbDictionary
280
     1
281
     1
  3
ACAD_XREC_ROUNDTRIP
360
36F
  0
DICTIONARY
  5
372
330
3E
100
AcDbDictionary
280
     1
281
     1
  3
ACAD_XREC_ROUNDTRIP
360
373
  0
DICTIONARY
  5
356
330
2F
100
AcDbDictionary
280
     1
281
     1
  3
ACAD_XREC_ROUNDTRIP
360
357
  0
DICTIONARY
  5
35A
330
31
100
AcDbDictionary
280
     1
281
     1
  3
ACAD_XREC_ROUNDTRIP
360
35B
  0
DICTIONARY
  5
358
330
30
100
AcDbDictionary
280
     1
281
     1
  3
ACAD_XREC_ROUNDTRIP
360
359
  0
DICTIONARY
  5
35C
330
32
100
AcDbDictionary
280
     1
281
     1
  3
ACAD_XREC_ROUNDTRIP
360
35D
  0
DICTIONARY
  5
364
330
36
100
AcDbDictionary
280
     1
281
     1
  3
ACAD_XREC_ROUNDTRIP
360
365
  0
DICTIONARY
  5
36C
330
3A
100
AcDbDictionary
280
     1
281
     1
  3
ACAD_XREC_ROUNDTRIP
360
36D
  0
DICTIONARY
  5
360
330
34
100
AcDbDictionary
280
     1
281
     1
  3
ACAD_XREC_ROUNDTRIP
360
361
  0
DICTIONARY
  5
362
330
35
100
AcDbDictionary
280
     1
281
     1
  3
ACAD_XREC_ROUNDTRIP
360
363
  0
DICTIONARY
  5
36A
330
39
100
AcDbDictionary
280
     1
281
     1
  3
ACAD_XREC_ROUNDTRIP
360
36B
  0
DICTIONARY
  5
34E
330
2B
100
AcDbDictionary
280
     1
281
     1
  3
ACAD_XREC_ROUNDTRIP
360
34F
  0
DICTIONARY
  5
350
330
2C
100
AcDbDictionary
280
     1
281
     1
  3
ACAD_XREC_ROUNDTRIP
360
351
  0
DICTIONARY
  5
352
330
2D
100
AcDbDictionary
280
     1
281
     1
  3
ACAD_XREC_ROUNDTRIP
360
353
  0
DICTIONARY
  5
354
330
2E
100
AcDbDictionary
280
     1
281
     1
  3
ACAD_XREC_ROUNDTRIP
360
355
  0
DICTIONARY
  5
368
330
38
100
AcDbDictionary
280
     1
281
     1
  3
ACAD_XREC_ROUNDTRIP
360
369
  0
DICTIONARY
  5
35E
330
33
100
AcDbDictionary
280
     1
281
     1
  3
ACAD_XREC_ROUNDTRIP
360
35F
  0
DICTIONARY
  5
366
330
37
100
AcDbDictionary
280
     1
281
     1
  3
ACAD_XREC_ROUNDTRIP
360
367
  0
XRECORD
  5
371
102
{ACAD_REACTORS
330
370
102
}
330
370
100
AcDbXrecord
280
     1
102
MATERIAL
148
0.0
149
0.0
149
0.0
 93
        0
 94
      127
282
     0
 72
     1
 77
     1
171
     1
175
     1
179
     1
273
     0
  0
XRECORD
  5
36F
102
{ACAD_REACTORS
330
36E
102
}
330
36E
100
AcDbXrecord
280
     1
102
MATERIAL
148
0.0
149
0.0
149
0.0
 93
        0
 94
      127
282
     0
 72
     1
 77
     1
171
     1
175
     1
179
     1
273
     0
  0
XRECORD
  5
373
102
{ACAD_REACTORS
330
372
102
}
330
372
100
AcDbXrecord
280
     1
102
MATERIAL
148
0.0
149
0.0
149
0.0
 93
        0
 94
      127
282
     0
 72
     1
 77
     1
171
     1
175
     1
179
     1
273
     0
  0
XRECORD
  5
357
102
{ACAD_REACTORS
330
356
102
}
330
356
100
AcDbXrecord
280
     1
102
RTVSPropertyOp0
 70
     1
102
RTVSPropertyOp1
 70
     1
102
RTVSPropertyOp2
 70
     1
102
RTVSPropertyOp3
 70
     1
102
RTVSPropertyOp4
 70
     1
102
RTVSPropertyOp5
 70
     1
102
RTVSPropertyOp6
 70
     1
102
RTVSPropertyOp7
 70
     1
102
RTVSPropertyOp8
 70
     1
102
RTVSPropertyOp9
 70
     1
102
RTVSPropertyOp10
 70
     1
102
RTVSPropertyOp11
 70
     1
102
RTVSPropertyOp12
 70
     1
102
RTVSPropertyOp13
 70
     1
102
RTVSPropertyOp14
 70
     1
102
RTVSPropertyOp15
 70
     1
102
RTVSPropertyOp16
 70
     1
102
RTVSPropertyOp17
 70
     1
102
RTVSPropertyOp18
 70
     1
102
RTVSPropertyOp19
 70
     1
102
RTVSPropertyOp20
 70
     1
102
RTVSPropertyOp21
 70
     1
102
RTVSPropertyOp22
 70
     1
102
RTVSPropertyOp23
 70
     1
102
RTVSPropertyOp24
 70
     1
102
RTVSPropertyOp25
 70
     1
102
RTVSPropertyOp26
 70
     1
102
RTVSPropertyOp27
 70
     1
102
RTVSPropertyOp28
 70
     1
102
RTVSPropertyOp29
 70
     1
102
RTVSPropertyOp30
 70
     1
102
RTVSPropertyOp31
 70
     1
102
RTVSPropertyOp32
 70
     1
  0
XRECORD
  5
35B
102
{ACAD_REACTORS
330
35A
102
}
330
35A
100
AcDbXrecord
280
     1
102
RTVSPropertyOp0
 70
     1
102
RTVSPropertyOp1
 70
     1
102
RTVSPropertyOp2
 70
     1
102
RTVSPropertyOp3
 70
     1
102
RTVSPropertyOp4
 70
     1
102
RTVSPropertyOp5
 70
     1
102
RTVSPropertyOp6
 70
     1
102
RTVSPropertyOp7
 70
     1
102
RTVSPropertyOp8
 70
     1
102
RTVSPropertyOp9
 70
     1
102
RTVSPropertyOp10
 70
     1
102
RTVSPropertyOp11
 70
     1
102
RTVSPropertyOp12
 70
     1
102
RTVSPropertyOp13
 70
     1
102
RTVSPropertyOp14
 70
     1
102
RTVSPropertyOp15
 70
     1
102
RTVSPropertyOp16
 70
     1
102
RTVSPropertyOp17
 70
     1
102
RTVSPropertyOp18
 70
     1
102
RTVSPropertyOp19
 70
     1
102
RTVSPropertyOp20
 70
     1
102
RTVSPropertyOp21
 70
     1
102
RTVSPropertyOp22
 70
     1
102
RTVSPropertyOp23
 70
     1
102
RTVSPropertyOp24
 70
     1
102
RTVSPropertyOp25
 70
     1
102
RTVSPropertyOp26
 70
     1
102
RTVSPropertyOp27
 70
     1
102
RTVSPropertyOp28
 70
     1
102
RTVSPropertyOp29
 70
     1
102
RTVSPropertyOp30
 70
     1
102
RTVSPropertyOp31
 70
     1
102
RTVSPropertyOp32
 70
     1
  0
XRECORD
  5
359
102
{ACAD_REACTORS
330
358
102
}
330
358
100
AcDbXrecord
280
     1
102
RTVSPropertyOp0
 70
     1
102
RTVSPropertyOp1
 70
     1
102
RTVSPropertyOp2
 70
     1
102
RTVSPropertyOp3
 70
     1
102
RTVSPropertyOp4
 70
     1
102
RTVSPropertyOp5
 70
     1
102
RTVSPropertyOp6
 70
     1
102
RTVSPropertyOp7
 70
     1
102
RTVSPropertyOp8
 70
     1
102
RTVSPropertyOp9
 70
     1
102
RTVSPropertyOp10
 70
     1
102
RTVSPropertyOp11
 70
     1
102
RTVSPropertyOp12
 70
     1
102
RTVSPropertyOp13
 70
     1
102
RTVSPropertyOp14
 70
     1
102
RTVSPropertyOp15
 70
     1
102
RTVSPropertyOp16
 70
     1
102
RTVSPropertyOp17
 70
     1
102
RTVSPropertyOp18
 70
     1
102
RTVSPropertyOp19
 70
     1
102
RTVSPropertyOp20
 70
     1
102
RTVSPropertyOp21
 70
     1
102
RTVSPropertyOp22
 70
     1
102
RTVSPropertyOp23
 70
     1
102
RTVSPropertyOp24
 70
     1
102
RTVSPropertyOp25
 70
     1
102
RTVSPropertyOp26
 70
     1
102
RTVSPropertyOp27
 70
     1
102
RTVSPropertyOp28
 70
     1
102
RTVSPropertyOp29
 70
     1
102
RTVSPropertyOp30
 70
     1
102
RTVSPropertyOp31
 70
     1
102
RTVSPropertyOp32
 70
     1
  0
XRECORD
  5
35D
102
{ACAD_REACTORS
330
35C
102
}
330
35C
100
AcDbXrecord
280
     1
102
RTVSPropertyOp0
 70
     1
102
RTVSPropertyOp1
 70
     1
102
RTVSPropertyOp2
 70
     1
102
RTVSPropertyOp3
 70
     1
102
RTVSPropertyOp4
 70
     1
102
RTVSPropertyOp5
 70
     1
102
RTVSPropertyOp6
 70
     1
102
RTVSPropertyOp7
 70
     1
102
RTVSPropertyOp8
 70
     1
102
RTVSPropertyOp9
 70
     1
102
RTVSPropertyOp10
 70
     1
102
RTVSPropertyOp11
 70
     1
102
RTVSPropertyOp12
 70
     1
102
RTVSPropertyOp13
 70
     1
102
RTVSPropertyOp14
 70
     1
102
RTVSPropertyOp15
 70
     1
102
RTVSPropertyOp16
 70
     1
102
RTVSPropertyOp17
 70
     1
102
RTVSPropertyOp18
 70
     1
102
RTVSPropertyOp19
 70
     1
102
RTVSPropertyOp20
 70
     1
102
RTVSPropertyOp21
 70
     1
102
RTVSPropertyOp22
 70
     1
102
RTVSPropertyOp23
 70
     1
102
RTVSPropertyOp24
 70
     1
102
RTVSPropertyOp25
 70
     1
102
RTVSPropertyOp26
 70
     1
102
RTVSPropertyOp27
 70
     1
102
RTVSPropertyOp28
 70
     1
102
RTVSPropertyOp29
 70
     1
102
RTVSPropertyOp30
 70
     1
102
RTVSPropertyOp31
 70
     1
102
RTVSPropertyOp32
 70
     1
  0
XRECORD
  5
365
102
{ACAD_REACTORS
330
364
102
}
330
364
100
AcDbXrecord
280
     1
102
RTVSPropertyOp0
 70
     1
102
RTVSPropertyOp1
 70
     1
102
RTVSPropertyOp2
 70
     1
102
RTVSPropertyOp3
 70
     1
102
RTVSPropertyOp4
 70
     1
102
RTVSPropertyOp5
 70
     1
102
RTVSPropertyOp6
 70
     1
102
RTVSPropertyOp7
 70
     1
102
RTVSPropertyOp8
 70
     1
102
RTVSPropertyOp9
 70
     1
102
RTVSPropertyOp10
 70
     1
102
RTVSPropertyOp11
 70
     1
102
RTVSPropertyOp12
 70
     1
102
RTVSPropertyOp13
 70
     1
102
RTVSPropertyOp14
 70
     1
102
RTVSPropertyOp15
 70
     1
102
RTVSPropertyOp16
 70
     1
102
RTVSPropertyOp17
 70
     1
102
RTVSPropertyOp18
 70
     1
102
RTVSPropertyOp19
 70
     1
102
RTVSPropertyOp20
 70
     1
102
RTVSPropertyOp21
 70
     1
102
RTVSPropertyOp22
 70
     1
102
RTVSPropertyOp23
 70
     1
102
RTVSPropertyOp24
 70
     1
102
RTVSPropertyOp25
 70
     1
102
RTVSPropertyOp26
 70
     1
102
RTVSPropertyOp27
 70
     1
102
RTVSPropertyOp28
 70
     1
102
RTVSPropertyOp29
 70
     1
102
RTVSPropertyOp30
 70
     1
102
RTVSPropertyOp31
 70
     1
102
RTVSPropertyOp32
 70
     1
  0
XRECORD
  5
36D
102
{ACAD_REACTORS
330
36C
102
}
330
36C
100
AcDbXrecord
280
     1
102
RTVSPropertyOp0
 70
     1
102
RTVSPropertyOp1
 70
     1
102
RTVSPropertyOp2
 70
     1
102
RTVSPropertyOp3
 70
     1
102
RTVSPropertyOp4
 70
     1
102
RTVSPropertyOp5
 70
     1
102
RTVSPropertyOp6
 70
     1
102
RTVSPropertyOp7
 70
     1
102
RTVSPropertyOp8
 70
     1
102
RTVSPropertyOp9
 70
     1
102
RTVSPropertyOp10
 70
     1
102
RTVSPropertyOp11
 70
     1
102
RTVSPropertyOp12
 70
     1
102
RTVSPropertyOp13
 70
     1
102
RTVSPropertyOp14
 70
     1
102
RTVSPropertyOp15
 70
     1
102
RTVSPropertyOp16
 70
     1
102
RTVSPropertyOp17
 70
     1
102
RTVSPropertyOp18
 70
     1
102
RTVSPropertyOp19
 70
     1
102
RTVSPropertyOp20
 70
     1
102
RTVSPropertyOp21
 70
     1
102
RTVSPropertyOp22
 70
     1
102
RTVSPropertyOp23
 70
     1
102
RTVSPropertyOp24
 70
     1
102
RTVSPropertyOp25
 70
     1
102
RTVSPropertyOp26
 70
     1
102
RTVSPropertyOp27
 70
     1
102
RTVSPropertyOp28
 70
     1
102
RTVSPropertyOp29
 70
     1
102
RTVSPropertyOp30
 70
     1
102
RTVSPropertyOp31
 70
     1
102
RTVSPropertyOp32
 70
     1
  0
XRECORD
  5
361
102
{ACAD_REACTORS
330
360
102
}
330
360
100
AcDbXrecord
280
     1
102
RTVSPropertyOp0
 70
     1
102
RTVSPropertyOp1
 70
     1
102
RTVSPropertyOp2
 70
     1
102
RTVSPropertyOp3
 70
     1
102
RTVSPropertyOp4
 70
     1
102
RTVSPropertyOp5
 70
     1
102
RTVSPropertyOp6
 70
     1
102
RTVSPropertyOp7
 70
     1
102
RTVSPropertyOp8
 70
     1
102
RTVSPropertyOp9
 70
     1
102
RTVSPropertyOp10
 70
     1
102
RTVSPropertyOp11
 70
     1
102
RTVSPropertyOp12
 70
     1
102
RTVSPropertyOp13
 70
     1
102
RTVSPropertyOp14
 70
     1
102
RTVSPropertyOp15
 70
     1
102
RTVSPropertyOp16
 70
     1
102
RTVSPropertyOp17
 70
     1
102
RTVSPropertyOp18
 70
     1
102
RTVSPropertyOp19
 70
     1
102
RTVSPropertyOp20
 70
     1
102
RTVSPropertyOp21
 70
     1
102
RTVSPropertyOp22
 70
     1
102
RTVSPropertyOp23
 70
     1
102
RTVSPropertyOp24
 70
     1
102
RTVSPropertyOp25
 70
     1
102
RTVSPropertyOp26
 70
     1
102
RTVSPropertyOp27
 70
     1
102
RTVSPropertyOp28
 70
     1
102
RTVSPropertyOp29
 70
     1
102
RTVSPropertyOp30
 70
     1
102
RTVSPropertyOp31
 70
     1
102
RTVSPropertyOp32
 70
     1
  0
XRECORD
  5
363
102
{ACAD_REACTORS
330
362
102
}
330
362
100
AcDbXrecord
280
     1
102
RTVSPropertyOp0
 70
     1
102
RTVSPropertyOp1
 70
     1
102
RTVSPropertyOp2
 70
     1
102
RTVSPropertyOp3
 70
     1
102
RTVSPropertyOp4
 70
     1
102
RTVSPropertyOp5
 70
     1
102
RTVSPropertyOp6
 70
     1
102
RTVSPropertyOp7
 70
     1
102
RTVSPropertyOp8
 70
     1
102
RTVSPropertyOp9
 70
     1
102
RTVSPropertyOp10
 70
     1
102
RTVSPropertyOp11
 70
     1
102
RTVSPropertyOp12
 70
     1
102
RTVSPropertyOp13
 70
     1
102
RTVSPropertyOp14
 70
     1
102
RTVSPropertyOp15
 70
     1
102
RTVSPropertyOp16
 70
     1
102
RTVSPropertyOp17
 70
     1
102
RTVSPropertyOp18
 70
     1
102
RTVSPropertyOp19
 70
     1
102
RTVSPropertyOp20
 70
     1
102
RTVSPropertyOp21
 70
     1
102
RTVSPropertyOp22
 70
     1
102
RTVSPropertyOp23
 70
     1
102
RTVSPropertyOp24
 70
     1
102
RTVSPropertyOp25
 70
     1
102
RTVSPropertyOp26
 70
     1
102
RTVSPropertyOp27
 70
     1
102
RTVSPropertyOp28
 70
     1
102
RTVSPropertyOp29
 70
     1
102
RTVSPropertyOp30
 70
     1
102
RTVSPropertyOp31
 70
     1
102
RTVSPropertyOp32
 70
     1
  0
XRECORD
  5
36B
102
{ACAD_REACTORS
330
36A
102
}
330
36A
100
AcDbXrecord
280
     1
102
RTVSPropertyOp0
 70
     1
102
RTVSPropertyOp1
 70
     1
102
RTVSPropertyOp2
 70
     1
102
RTVSPropertyOp3
 70
     1
102
RTVSPropertyOp4
 70
     1
102
RTVSPropertyOp5
 70
     1
102
RTVSPropertyOp6
 70
     1
102
RTVSPropertyOp7
 70
     1
102
RTVSPropertyOp8
 70
     1
102
RTVSPropertyOp9
 70
     1
102
RTVSPropertyOp10
 70
     1
102
RTVSPropertyOp11
 70
     1
102
RTVSPropertyOp12
 70
     1
102
RTVSPropertyOp13
 70
     1
102
RTVSPropertyOp14
 70
     1
102
RTVSPropertyOp15
 70
     1
102
RTVSPropertyOp16
 70
     1
102
RTVSPropertyOp17
 70
     1
102
RTVSPropertyOp18
 70
     1
102
RTVSPropertyOp19
 70
     1
102
RTVSPropertyOp20
 70
     1
102
RTVSPropertyOp21
 70
     1
102
RTVSPropertyOp22
 70
     1
102
RTVSPropertyOp23
 70
     1
102
RTVSPropertyOp24
 70
     1
102
RTVSPropertyOp25
 70
     1
102
RTVSPropertyOp26
 70
     1
102
RTVSPropertyOp27
 70
     1
102
RTVSPropertyOp28
 70
     1
102
RTVSPropertyOp29
 70
     1
102
RTVSPropertyOp30
 70
     1
102
RTVSPropertyOp31
 70
     1
102
RTVSPropertyOp32
 70
     1
  0
XRECORD
  5
34F
102
{ACAD_REACTORS
330
34E
102
}
330
34E
100
AcDbXrecord
280
     1
102
RTVSPropertyOp0
 70
     1
102
RTVSPropertyOp1
 70
     1
102
RTVSPropertyOp2
 70
     1
102
RTVSPropertyOp3
 70
     1
102
RTVSPropertyOp4
 70
     1
102
RTVSPropertyOp5
 70
     1
102
RTVSPropertyOp6
 70
     1
102
RTVSPropertyOp7
 70
     1
102
RTVSPropertyOp8
 70
     1
102
RTVSPropertyOp9
 70
     1
102
RTVSPropertyOp10
 70
     1
102
RTVSPropertyOp11
 70
     1
102
RTVSPropertyOp12
 70
     1
102
RTVSPropertyOp13
 70
     1
102
RTVSPropertyOp14
 70
     1
102
RTVSPropertyOp15
 70
     1
102
RTVSPropertyOp16
 70
     1
102
RTVSPropertyOp17
 70
     1
102
RTVSPropertyOp18
 70
     1
102
RTVSPropertyOp19
 70
     1
102
RTVSPropertyOp20
 70
     1
102
RTVSPropertyOp21
 70
     1
102
RTVSPropertyOp22
 70
     1
102
RTVSPropertyOp23
 70
     1
102
RTVSPropertyOp24
 70
     1
102
RTVSPropertyOp25
 70
     1
102
RTVSPropertyOp26
 70
     1
102
RTVSPropertyOp27
 70
     1
102
RTVSPropertyOp28
 70
     1
102
RTVSPropertyOp29
 70
     1
102
RTVSPropertyOp30
 70
     1
102
RTVSPropertyOp31
 70
     1
102
RTVSPropertyOp32
 70
     1
  0
XRECORD
  5
351
102
{ACAD_REACTORS
330
350
102
}
330
350
100
AcDbXrecord
280
     1
102
RTVSPropertyOp0
 70
     1
102
RTVSPropertyOp1
 70
     1
102
RTVSPropertyOp2
 70
     1
102
RTVSPropertyOp3
 70
     1
102
RTVSPropertyOp4
 70
     1
102
RTVSPropertyOp5
 70
     1
102
RTVSPropertyOp6
 70
     1
102
RTVSPropertyOp7
 70
     1
102
RTVSPropertyOp8
 70
     1
102
RTVSPropertyOp9
 70
     1
102
RTVSPropertyOp10
 70
     1
102
RTVSPropertyOp11
 70
     1
102
RTVSPropertyOp12
 70
     1
102
RTVSPropertyOp13
 70
     1
102
RTVSPropertyOp14
 70
     1
102
RTVSPropertyOp15
 70
     1
102
RTVSPropertyOp16
 70
     1
102
RTVSPropertyOp17
 70
     1
102
RTVSPropertyOp18
 70
     1
102
RTVSPropertyOp19
 70
     1
102
RTVSPropertyOp20
 70
     1
102
RTVSPropertyOp21
 70
     1
102
RTVSPropertyOp22
 70
     1
102
RTVSPropertyOp23
 70
     1
102
RTVSPropertyOp24
 70
     1
102
RTVSPropertyOp25
 70
     1
102
RTVSPropertyOp26
 70
     1
102
RTVSPropertyOp27
 70
     1
102
RTVSPropertyOp28
 70
     1
102
RTVSPropertyOp29
 70
     1
102
RTVSPropertyOp30
 70
     1
102
RTVSPropertyOp31
 70
     1
102
RTVSPropertyOp32
 70
     1
  0
XRECORD
  5
353
102
{ACAD_REACTORS
330
352
102
}
330
352
100
AcDbXrecord
280
     1
102
RTVSPropertyOp0
 70
     1
102
RTVSPropertyOp1
 70
     1
102
RTVSPropertyOp2
 70
     1
102
RTVSPropertyOp3
 70
     1
102
RTVSPropertyOp4
 70
     1
102
RTVSPropertyOp5
 70
     1
102
RTVSPropertyOp6
 70
     1
102
RTVSPropertyOp7
 70
     1
102
RTVSPropertyOp8
 70
     1
102
RTVSPropertyOp9
 70
     1
102
RTVSPropertyOp10
 70
     1
102
RTVSPropertyOp11
 70
     1
102
RTVSPropertyOp12
 70
     1
102
RTVSPropertyOp13
 70
     1
102
RTVSPropertyOp14
 70
     1
102
RTVSPropertyOp15
 70
     1
102
RTVSPropertyOp16
 70
     1
102
RTVSPropertyOp17
 70
     1
102
RTVSPropertyOp18
 70
     1
102
RTVSPropertyOp19
 70
     1
102
RTVSPropertyOp20
 70
     1
102
RTVSPropertyOp21
 70
     1
102
RTVSPropertyOp22
 70
     1
102
RTVSPropertyOp23
 70
     1
102
RTVSPropertyOp24
 70
     1
102
RTVSPropertyOp25
 70
     1
102
RTVSPropertyOp26
 70
     1
102
RTVSPropertyOp27
 70
     1
102
RTVSPropertyOp28
 70
     1
102
RTVSPropertyOp29
 70
     1
102
RTVSPropertyOp30
 70
     1
102
RTVSPropertyOp31
 70
     1
102
RTVSPropertyOp32
 70
     1
  0
XRECORD
  5
355
102
{ACAD_REACTORS
330
354
102
}
330
354
100
AcDbXrecord
280
     1
102
RTVSPropertyOp0
 70
     1
102
RTVSPropertyOp1
 70
     1
102
RTVSPropertyOp2
 70
     1
102
RTVSPropertyOp3
 70
     1
102
RTVSPropertyOp4
 70
     1
102
RTVSPropertyOp5
 70
     1
102
RTVSPropertyOp6
 70
     1
102
RTVSPropertyOp7
 70
     1
102
RTVSPropertyOp8
 70
     1
102
RTVSPropertyOp9
 70
     1
102
RTVSPropertyOp10
 70
     1
102
RTVSPropertyOp11
 70
     1
102
RTVSPropertyOp12
 70
     1
102
RTVSPropertyOp13
 70
     1
102
RTVSPropertyOp14
 70
     1
102
RTVSPropertyOp15
 70
     1
102
RTVSPropertyOp16
 70
     1
102
RTVSPropertyOp17
 70
     1
102
RTVSPropertyOp18
 70
     1
102
RTVSPropertyOp19
 70
     1
102
RTVSPropertyOp20
 70
     1
102
RTVSPropertyOp21
 70
     1
102
RTVSPropertyOp22
 70
     1
102
RTVSPropertyOp23
 70
     1
102
RTVSPropertyOp24
 70
     1
102
RTVSPropertyOp25
 70
     1
102
RTVSPropertyOp26
 70
     1
102
RTVSPropertyOp27
 70
     1
102
RTVSPropertyOp28
 70
     1
102
RTVSPropertyOp29
 70
     1
102
RTVSPropertyOp30
 70
     1
102
RTVSPropertyOp31
 70
     1
102
RTVSPropertyOp32
 70
     1
  0
XRECORD
  5
369
102
{ACAD_REACTORS
330
368
102
}
330
368
100
AcDbXrecord
280
     1
102
RTVSPropertyOp0
 70
     1
102
RTVSPropertyOp1
 70
     1
102
RTVSPropertyOp2
 70
     1
102
RTVSPropertyOp3
 70
     1
102
RTVSPropertyOp4
 70
     1
102
RTVSPropertyOp5
 70
     1
102
RTVSPropertyOp6
 70
     1
102
RTVSPropertyOp7
 70
     1
102
RTVSPropertyOp8
 70
     1
102
RTVSPropertyOp9
 70
     1
102
RTVSPropertyOp10
 70
     1
102
RTVSPropertyOp11
 70
     1
102
RTVSPropertyOp12
 70
     1
102
RTVSPropertyOp13
 70
     1
102
RTVSPropertyOp14
 70
     1
102
RTVSPropertyOp15
 70
     1
102
RTVSPropertyOp16
 70
     1
102
RTVSPropertyOp17
 70
     1
102
RTVSPropertyOp18
 70
     1
102
RTVSPropertyOp19
 70
     1
102
RTVSPropertyOp20
 70
     1
102
RTVSPropertyOp21
 70
     1
102
RTVSPropertyOp22
 70
     1
102
RTVSPropertyOp23
 70
     1
102
RTVSPropertyOp24
 70
     1
102
RTVSPropertyOp25
 70
     1
102
RTVSPropertyOp26
 70
     1
102
RTVSPropertyOp27
 70
     1
102
RTVSPropertyOp28
 70
     1
102
RTVSPropertyOp29
 70
     1
102
RTVSPropertyOp30
 70
     1
102
RTVSPropertyOp31
 70
     1
102
RTVSPropertyOp32
 70
     1
  0
XRECORD
  5
35F
102
{ACAD_REACTORS
330
35E
102
}
330
35E
100
AcDbXrecord
280
     1
102
RTVSPropertyOp0
 70
     1
102
RTVSPropertyOp1
 70
     1
102
RTVSPropertyOp2
 70
     1
102
RTVSPropertyOp3
 70
     1
102
RTVSPropertyOp4
 70
     1
102
RTVSPropertyOp5
 70
     1
102
RTVSPropertyOp6
 70
     1
102
RTVSPropertyOp7
 70
     1
102
RTVSPropertyOp8
 70
     1
102
RTVSPropertyOp9
 70
     1
102
RTVSPropertyOp10
 70
     1
102
RTVSPropertyOp11
 70
     1
102
RTVSPropertyOp12
 70
     1
102
RTVSPropertyOp13
 70
     1
102
RTVSPropertyOp14
 70
     1
102
RTVSPropertyOp15
 70
     1
102
RTVSPropertyOp16
 70
     1
102
RTVSPropertyOp17
 70
     1
102
RTVSPropertyOp18
 70
     1
102
RTVSPropertyOp19
 70
     1
102
RTVSPropertyOp20
 70
     1
102
RTVSPropertyOp21
 70
     1
102
RTVSPropertyOp22
 70
     1
102
RTVSPropertyOp23
 70
     1
102
RTVSPropertyOp24
 70
     1
102
RTVSPropertyOp25
 70
     1
102
RTVSPropertyOp26
 70
     1
102
RTVSPropertyOp27
 70
     1
102
RTVSPropertyOp28
 70
     1
102
RTVSPropertyOp29
 70
     1
102
RTVSPropertyOp30
 70
     1
102
RTVSPropertyOp31
 70
     1
102
RTVSPropertyOp32
 70
     1
  0
XRECORD
  5
367
102
{ACAD_REACTORS
330
366
102
}
330
366
100
AcDbXrecord
280
     1
102
RTVSPropertyOp0
 70
     1
102
RTVSPropertyOp1
 70
     1
102
RTVSPropertyOp2
 70
     1
102
RTVSPropertyOp3
 70
     1
102
RTVSPropertyOp4
 70
     1
102
RTVSPropertyOp5
 70
     1
102
RTVSPropertyOp6
 70
     1
102
RTVSPropertyOp7
 70
     1
102
RTVSPropertyOp8
 70
     1
102
RTVSPropertyOp9
 70
     1
102
RTVSPropertyOp10
 70
     1
102
RTVSPropertyOp11
 70
     1
102
RTVSPropertyOp12
 70
     1
102
RTVSPropertyOp13
 70
     1
102
RTVSPropertyOp14
 70
     1
102
RTVSPropertyOp15
 70
     1
102
RTVSPropertyOp16
 70
     1
102
RTVSPropertyOp17
 70
     1
102
RTVSPropertyOp18
 70
     1
102
RTVSPropertyOp19
 70
     1
102
RTVSPropertyOp20
 70
     1
102
RTVSPropertyOp21
 70
     1
102
RTVSPropertyOp22
 70
     1
102
RTVSPropertyOp23
 70
     1
102
RTVSPropertyOp24
 70
     1
102
RTVSPropertyOp25
 70
     1
102
RTVSPropertyOp26
 70
     1
102
RTVSPropertyOp27
 70
     1
102
RTVSPropertyOp28
 70
     1
102
RTVSPropertyOp29
 70
     1
102
RTVSPropertyOp30
 70
     1
102
RTVSPropertyOp31
 70
     1
102
RTVSPropertyOp32
 70
     1
  0
ENDSEC
  0
EOF
