  0
SECTION
  2
HEADER
  9
$ACADVER
  1
AC1018
  9
$ACADMAINTVER
 70
     0
  9
$DWGCODEPAGE
  3
ANSI_1252
  9
$INSBASE
 10
0.0
 20
0.0
 30
0.0
  9
$EXTMIN
 10
-450.3999994674656
 20
-308.0960836069547
 30
0.0
  9
$EXTMAX
 10
-30.39999946746715
 20
-11.09608360695473
 30
0.0
  9
$LIMMIN
 10
0.0
 20
0.0
  9
$LIMMAX
 10
12.0
 20
9.0
  9
$ORTHOMODE
 70
     0
  9
$REGENMODE
 70
     1
  9
$FILLMODE
 70
     1
  9
$QTEXTMODE
 70
     0
  9
$MIRRTEXT
 70
     1
  9
$LTSCALE
 40
1.0
  9
$ATTMODE
 70
     1
  9
$TEXTSIZE
 40
0.2
  9
$TRACEWID
 40
0.05
  9
$TEXTSTYLE
  7
Standard
  9
$CLAYER
  8
0
  9
$CELTYPE
  6
ByLayer
  9
$CECOLOR
 62
   256
  9
$CELTSCALE
 40
1.0
  9
$DISPSILH
 70
     0
  9
$DIMSCALE
 40
1.0
  9
$DIMASZ
 40
0.18
  9
$DIMEXO
 40
0.0625
  9
$DIMDLI
 40
0.38
  9
$DIMRND
 40
0.0
  9
$DIMDLE
 40
0.0
  9
$DIMEXE
 40
0.18
  9
$DIMTP
 40
0.0
  9
$DIMTM
 40
0.0
  9
$DIMTXT
 40
0.18
  9
$DIMCEN
 40
0.09
  9
$DIMTSZ
 40
0.0
  9
$DIMTOL
 70
     0
  9
$DIMLIM
 70
     0
  9
$DIMTIH
 70
     1
  9
$DIMTOH
 70
     1
  9
$DIMSE1
 70
     0
  9
$DIMSE2
 70
     0
  9
$DIMTAD
 70
     0
  9
$DIMZIN
 70
     0
  9
$DIMBLK
  1

  9
$DIMASO
 70
     1
  9
$DIMSHO
 70
     1
  9
$DIMPOST
  1

  9
$DIMAPOST
  1

  9
$DIMALT
 70
     0
  9
$DIMALTD
 70
     2
  9
$DIMALTF
 40
25.4
  9
$DIMLFAC
 40
1.0
  9
$DIMTOFL
 70
     0
  9
$DIMTVP
 40
0.0
  9
$DIMTIX
 70
     0
  9
$DIMSOXD
 70
     0
  9
$DIMSAH
 70
     0
  9
$DIMBLK1
  1

  9
$DIMBLK2
  1

  9
$DIMSTYLE
  2
Standard
  9
$DIMCLRD
 70
     0
  9
$DIMCLRE
 70
     0
  9
$DIMCLRT
 70
     0
  9
$DIMTFAC
 40
1.0
  9
$DIMGAP
 40
0.09
  9
$DIMJUST
 70
     0
  9
$DIMSD1
 70
     0
  9
$DIMSD2
 70
     0
  9
$DIMTOLJ
 70
     1
  9
$DIMTZIN
 70
     0
  9
$DIMALTZ
 70
     0
  9
$DIMALTTZ
 70
     0
  9
$DIMUPT
 70
     0
  9
$DIMDEC
 70
     4
  9
$DIMTDEC
 70
     4
  9
$DIMALTU
 70
     2
  9
$DIMALTTD
 70
     2
  9
$DIMTXSTY
  7
Standard
  9
$DIMAUNIT
 70
     0
  9
$DIMADEC
 70
     0
  9
$DIMALTRND
 40
0.0
  9
$DIMAZIN
 70
     0
  9
$DIMDSEP
 70
    46
  9
$DIMATFIT
 70
     3
  9
$DIMFRAC
 70
     0
  9
$DIMLDRBLK
  1

  9
$DIMLUNIT
 70
     2
  9
$DIMLWD
 70
    -2
  9
$DIMLWE
 70
    -2
  9
$DIMTMOVE
 70
     0
  9
$LUNITS
 70
     2
  9
$LUPREC
 70
     4
  9
$SKETCHINC
 40
0.1
  9
$FILLETRAD
 40
0.5
  9
$AUNITS
 70
     0
  9
$AUPREC
 70
     0
  9
$MENU
  1
.
  9
$ELEVATION
 40
0.0
  9
$PELEVATION
 40
0.0
  9
$THICKNESS
 40
0.0
  9
$LIMCHECK
 70
     0
  9
$CHAMFERA
 40
0.5
  9
$CHAMFERB
 40
0.5
  9
$CHAMFERC
 40
1.0
  9
$CHAMFERD
 40
0.0
  9
$SKPOLY
 70
     0
  9
$TDCREATE
 40
2458132.454217581
  9
$TDUCREATE
 40
2458132.412550915
  9
$TDUPDATE
 40
2458132.454218125
  9
$TDUUPDATE
 40
2458132.412551458
  9
$TDINDWG
 40
0.0000000116
  9
$TDUSRTIMER
 40
0.0000000116
  9
$USRTIMER
 70
     1
  9
$ANGBASE
 50
0.0
  9
$ANGDIR
 70
     0
  9
$PDMODE
 70
     0
  9
$PDSIZE
 40
0.0
  9
$PLINEWID
 40
0.0
  9
$SPLFRAME
 70
     0
  9
$SPLINETYPE
 70
     6
  9
$SPLINESEGS
 70
     8
  9
$HANDSEED
  5
386
  9
$SURFTAB1
 70
     6
  9
$SURFTAB2
 70
     6
  9
$SURFTYPE
 70
     6
  9
$SURFU
 70
     6
  9
$SURFV
 70
     6
  9
$UCSBASE
  2

  9
$UCSNAME
  2

  9
$UCSORG
 10
0.0
 20
0.0
 30
0.0
  9
$UCSXDIR
 10
1.0
 20
0.0
 30
0.0
  9
$UCSYDIR
 10
0.0
 20
1.0
 30
0.0
  9
$UCSORTHOREF
  2

  9
$UCSORTHOVIEW
 70
     0
  9
$UCSORGTOP
 10
0.0
 20
0.0
 30
0.0
  9
$UCSORGBOTTOM
 10
0.0
 20
0.0
 30
0.0
  9
$UCSORGLEFT
 10
0.0
 20
0.0
 30
0.0
  9
$UCSORGRIGHT
 10
0.0
 20
0.0
 30
0.0
  9
$UCSORGFRONT
 10
0.0
 20
0.0
 30
0.0
  9
$UCSORGBACK
 10
0.0
 20
0.0
 30
0.0
  9
$PUCSBASE
  2

  9
$PUCSNAME
  2

  9
$PUCSORG
 10
0.0
 20
0.0
 30
0.0
  9
$PUCSXDIR
 10
1.0
 20
0.0
 30
0.0
  9
$PUCSYDIR
 10
0.0
 20
1.0
 30
0.0
  9
$PUCSORTHOREF
  2

  9
$PUCSORTHOVIEW
 70
     0
  9
$PUCSORGTOP
 10
0.0
 20
0.0
 30
0.0
  9
$PUCSORGBOTTOM
 10
0.0
 20
0.0
 30
0.0
  9
$PUCSORGLEFT
 10
0.0
 20
0.0
 30
0.0
  9
$PUCSORGRIGHT
 10
0.0
 20
0.0
 30
0.0
  9
$PUCSORGFRONT
 10
0.0
 20
0.0
 30
0.0
  9
$PUCSORGBACK
 10
0.0
 20
0.0
 30
0.0
  9
$USERI1
 70
     0
  9
$USERI2
 70
     0
  9
$USERI3
 70
     0
  9
$USERI4
 70
     0
  9
$USERI5
 70
     0
  9
$USERR1
 40
18.1
  9
$USERR2
 40
0.0
  9
$USERR3
 40
0.0
  9
$USERR4
 40
0.0
  9
$USERR5
 40
0.0
  9
$WORLDVIEW
 70
     1
  9
$SHADEDGE
 70
     3
  9
$SHADEDIF
 70
    70
  9
$TILEMODE
 70
     1
  9
$MAXACTVP
 70
    64
  9
$PINSBASE
 10
0.0
 20
0.0
 30
0.0
  9
$PLIMCHECK
 70
     0
  9
$PEXTMIN
 10
1.00000000000000E+20
 20
1.00000000000000E+20
 30
1.00000000000000E+20
  9
$PEXTMAX
 10
-1.00000000000000E+20
 20
-1.00000000000000E+20
 30
-1.00000000000000E+20
  9
$PLIMMIN
 10
0.0
 20
0.0
  9
$PLIMMAX
 10
12.0
 20
9.0
  9
$UNITMODE
 70
     0
  9
$VISRETAIN
 70
     1
  9
$PLINEGEN
 70
     0
  9
$PSLTSCALE
 70
     1
  9
$TREEDEPTH
 70
  3020
  9
$CMLSTYLE
  2
Standard
  9
$CMLJUST
 70
     0
  9
$CMLSCALE
 40
1.0
  9
$PROXYGRAPHICS
 70
     1
  9
$MEASUREMENT
 70
     1
  9
$CELWEIGHT
370
    -1
  9
$ENDCAPS
280
     0
  9
$JOINSTYLE
280
     0
  9
$LWDISPLAY
290
     0
  9
$INSUNITS
 70
     4
  9
$HYPERLINKBASE
  1

  9
$STYLESHEET
  1

  9
$XEDIT
290
     1
  9
$CEPSNTYPE
380
     0
  9
$PSTYLEMODE
290
     1
  9
$FINGERPRINTGUID
  2
{51786987-681E-4092-8461-D70E8C8D558A}
  9
$VERSIONGUID
  2
{FAEB1C32-E019-11D5-929B-00C0DF256EC4}
  9
$EXTNAMES
290
     1
  9
$PSVPSCALE
 40
0.0
  9
$OLESTARTUP
290
     0
  9
$SORTENTS
280
   127
  9
$INDEXCTL
280
     0
  9
$HIDETEXT
280
     1
  9
$XCLIPFRAME
290
     0
  9
$HALOGAP
280
     0
  9
$OBSCOLOR
 70
   257
  9
$OBSLTYPE
280
     0
  9
$INTERSECTIONDISPLAY
280
     0
  9
$INTERSECTIONCOLOR
 70
   257
  9
$DIMASSOC
280
     2
  9
$PROJECTNAME
  1

  0
ENDSEC
  0
SECTION
  2
CLASSES
  0
CLASS
  1
ACDBDICTIONARYWDFLT
  2
AcDbDictionaryWithDefault
  3
ObjectDBX Classes
 90
        0
 91
        4
280
     0
281
     0
  0
CLASS
  1
VISUALSTYLE
  2
AcDbVisualStyle
  3
ObjectDBX Classes
 90
     4095
 91
        4
280
     0
281
     0
  0
CLASS
  1
MATERIAL
  2
AcDbMaterial
  3
ObjectDBX Classes
 90
     1153
 91
        4
280
     0
281
     0
  0
ENDSEC
  0
SECTION
  2
TABLES
  0
TABLE
  2
VPORT
  5
8
330
0
100
AcDbSymbolTable
 70
     1
  0
VPORT
  5
29
330
8
100
AcDbSymbolTableRecord
100
AcDbViewportTableRecord
  2
*Active
 70
     0
 10
0.0
 20
0.0
 11
1.0
 21
1.0
 12
-240.3999994674664
 22
-159.5960836069547
 13
0.0
 23
0.0
 14
0.5
 24
0.5
 15
0.5
 25
0.5
 16
0.0
 26
0.0
 36
1.0
 17
0.0
 27
0.0
 37
0.0
 40
326.7
 41
1.60267857142857
 42
50.0
 43
0.0
 44
0.0
 50
0.0
 51
0.0
 71
     0
 72
   100
 73
     1
 74
     3
 75
     0
 76
     0
 77
     0
 78
     0
281
     0
 65
     1
110
0.0
120
0.0
130
0.0
111
1.0
121
0.0
131
0.0
112
0.0
122
1.0
132
0.0
 79
     0
146
0.0
  0
ENDTAB
  0
TABLE
  2
LTYPE
  5
5
330
0
100
AcDbSymbolTable
 70
     8
  0
LTYPE
  5
14
330
5
100
AcDbSymbolTableRecord
100
AcDbLinetypeTableRecord
  2
ByBlock
 70
     0
  3

 72
    65
 73
     0
 40
0.0
  0
LTYPE
  5
15
330
5
100
AcDbSymbolTableRecord
100
AcDbLinetypeTableRecord
  2
ByLayer
 70
     0
  3

 72
    65
 73
     0
 40
0.0
  0
LTYPE
  5
16
330
5
100
AcDbSymbolTableRecord
100
AcDbLinetypeTableRecord
  2
Continuous
 70
     0
  3
Solid line
 72
    65
 73
     0
 40
0.0
  0
LTYPE
  5
3F
330
5
100
AcDbSymbolTableRecord
100
AcDbLinetypeTableRecord
  2
DASHED
 70
     0
  3
Dashed
 72
    65
 73
     2
 40
15.0
 49
7.0
 74
     0
 49
-8.0
 74
     0
  0
LTYPE
  5
40
330
5
100
AcDbSymbolTableRecord
100
AcDbLinetypeTableRecord
  2
DOTTED
 70
     0
  3
Dotted
 72
    65
 73
     2
 40
1.0
 49
0.0
 74
     0
 49
-1.0
 74
     0
  0
LTYPE
  5
41
330
5
100
AcDbSymbolTableRecord
100
AcDbLinetypeTableRecord
  2
DOT_CENTER
 70
     0
  3
Dot_Center
 72
    65
 73
     4
 40
14.0
 49
12.0
 74
     0
 49
-1.0
 74
     0
 49
0.0
 74
     0
 49
-1.0
 74
     0
  0
LTYPE
  5
42
330
5
100
AcDbSymbolTableRecord
100
AcDbLinetypeTableRecord
  2
LONG_DASHED
 70
     0
  3
Long_Dashed
 72
    65
 73
     2
 40
15.0
 49
10.0
 74
     0
 49
-5.0
 74
     0
  0
LTYPE
  5
43
330
5
100
AcDbSymbolTableRecord
100
AcDbLinetypeTableRecord
  2
DASH_CENTER
 70
     0
  3
Dash_Center
 72
    65
 73
     4
 40
14.0
 49
11.0
 74
     0
 49
-1.0
 74
     0
 49
1.0
 74
     0
 49
-1.0
 74
     0
  0
LTYPE
  5
44
330
5
100
AcDbSymbolTableRecord
100
AcDbLinetypeTableRecord
  2
PHANTOM
 70
     0
  3
Phantom
 72
    65
 73
     6
 40
13.0
 49
10.0
 74
     0
 49
-1.0
 74
     0
 49
0.0
 74
     0
 49
-1.0
 74
     0
 49
0.0
 74
     0
 49
-1.0
 74
     0
  0
LTYPE
  5
45
330
5
100
AcDbSymbolTableRecord
100
AcDbLinetypeTableRecord
  2
CENTER_DASH_DASH
 70
     0
  3
Center_Dash_Dash
 72
    65
 73
     6
 40
14.0
 49
9.0
 74
     0
 49
-1.0
 74
     0
 49
1.0
 74
     0
 49
-1.0
 74
     0
 49
1.0
 74
     0
 49
-1.0
 74
     0
  0
ENDTAB
  0
TABLE
  2
LAYER
  5
2
330
0
100
AcDbSymbolTable
 70
     2
  0
LAYER
  5
10
330
2
100
AcDbSymbolTableRecord
100
AcDbLayerTableRecord
  2
0
 70
     0
 62
     7
  6
Continuous
370
    -3
390
F
  0
LAYER
  5
46
330
2
100
AcDbSymbolTableRecord
100
AcDbLayerTableRecord
  2
1
 70
     0
 62
     7
  6
Continuous
370
    -3
390
F
  0
ENDTAB
  0
TABLE
  2
STYLE
  5
3
330
0
100
AcDbSymbolTable
 70
     5
  0
STYLE
  5
11
330
3
100
AcDbSymbolTableRecord
100
AcDbTextStyleTableRecord
  2
Standard
 70
     0
 40
0.0
 41
1.0
 50
0.0
 71
     0
 42
0.2
  3
txt
  4

  0
STYLE
  5
ED
330
3
100
AcDbSymbolTableRecord
100
AcDbTextStyleTableRecord
  2
CONVERTER_11
 70
     0
 40
0.0
 41
0.9
 50
0.0
 71
     0
 42
0.2
  3
txt.shx
  4

  0
STYLE
  5
31E
330
3
100
AcDbSymbolTableRecord
100
AcDbTextStyleTableRecord
  2
CONVERTER_12
 70
     0
 40
0.0
 41
0.81
 50
0.0
 71
     0
 42
0.2
  3
txt.shx
  4

  0
STYLE
  5
326
330
3
100
AcDbSymbolTableRecord
100
AcDbTextStyleTableRecord
  2
CONVERTER_13
 70
     0
 40
0.0
 41
0.72
 50
0.0
 71
     0
 42
0.2
  3
txt.shx
  4

  0
STYLE
  5
329
330
3
100
AcDbSymbolTableRecord
100
AcDbTextStyleTableRecord
  2
CONVERTER_14
 70
     0
 40
0.0
 41
0.855
 50
0.0
 71
     0
 42
0.2
  3
txt.shx
  4

  0
ENDTAB
  0
TABLE
  2
VIEW
  5
6
330
0
100
AcDbSymbolTable
 70
     0
  0
ENDTAB
  0
TABLE
  2
UCS
  5
7
330
0
100
AcDbSymbolTable
 70
     0
  0
ENDTAB
  0
TABLE
  2
APPID
  5
9
330
0
100
AcDbSymbolTable
 70
     1
  0
APPID
  5
12
330
9
100
AcDbSymbolTableRecord
100
AcDbRegAppTableRecord
  2
ACAD
 70
     0
  0
ENDTAB
  0
TABLE
  2
DIMSTYLE
  5
A
330
0
100
AcDbSymbolTable
 70
     4
100
AcDbDimStyleTable
  0
DIMSTYLE
105
27
330
A
100
AcDbSymbolTableRecord
100
AcDbDimStyleTableRecord
  2
Standard
 70
     0
178
     0
340
11
  0
DIMSTYLE
105
12F
102
{ACAD_REACTORS
330
130
102
}
330
A
100
AcDbSymbolTableRecord
100
AcDbDimStyleTableRecord
  2
ME10_DIM_10
 70
     0
 41
3.5
 42
0.5
 44
1.5
 73
     0
 74
     0
 77
     1
 78
     8
140
3.5
147
2.0
172
     1
173
     1
174
     1
175
     1
176
     2
177
     2
271
     2
178
     3
271
     2
340
ED
  0
DIMSTYLE
105
204
102
{ACAD_REACTORS
330
205
102
}
330
A
100
AcDbSymbolTableRecord
100
AcDbDimStyleTableRecord
  2
ME10_DIM_11
 70
     0
 41
3.5
 42
0.5
 44
1.5
 73
     0
 74
     0
 77
     1
 78
     8
140
3.5
147
2.0
172
     1
173
     1
174
     1
175
     1
176
     2
177
     2
271
     2
178
     3
271
     2
340
ED
  0
DIMSTYLE
105
20F
102
{ACAD_REACTORS
330
210
102
}
330
A
100
AcDbSymbolTableRecord
100
AcDbDimStyleTableRecord
  2
ME10_DIM_12
 70
     0
 41
3.5
 42
0.5
 44
1.5
 73
     0
 74
     0
 77
     1
 78
     8
140
3.5
147
2.0
172
     1
173
     1
174
     1
175
     1
176
     2
177
     2
271
     2
178
     3
271
     2
340
ED
  0
ENDTAB
  0
TABLE
  2
BLOCK_RECORD
  5
1
330
0
100
AcDbSymbolTable
 70
    20
  0
BLOCK_RECORD
  5
1F
330
1
100
AcDbSymbolTableRecord
100
AcDbBlockTableRecord
  2
*Model_Space
340
22
  0
BLOCK_RECORD
  5
1B
330
1
100
AcDbSymbolTableRecord
100
AcDbBlockTableRecord
  2
*Paper_Space
340
1E
  0
BLOCK_RECORD
  5
23
330
1
100
AcDbSymbolTableRecord
100
AcDbBlockTableRecord
  2
*Paper_Space0
340
26
  0
BLOCK_RECORD
  5
47
330
1
100
AcDbSymbolTableRecord
100
AcDbBlockTableRecord
  2
HC-RBO_10_BU-select__1
340
0
102
{BLKREFS
331
4B
102
}
  0
BLOCK_RECORD
  5
4A
330
1
100
AcDbSymbolTableRecord
100
AcDbBlockTableRecord
  2
Allg1
340
0
102
{BLKREFS
331
7D
102
}
  0
BLOCK_RECORD
  5
4E
330
1
100
AcDbSymbolTableRecord
100
AcDbBlockTableRecord
  2
HC-RBO_10_BU-select__2
340
0
102
{BLKREFS
331
52
102
}
  0
BLOCK_RECORD
  5
51
330
1
100
AcDbSymbolTableRecord
100
AcDbBlockTableRecord
  2
Drfsicht1
340
0
102
{BLKREFS
331
7E
102
}
  0
BLOCK_RECORD
  5
55
330
1
100
AcDbSymbolTableRecord
100
AcDbBlockTableRecord
  2
HC-RBO_10_BU-select__3
340
0
102
{BLKREFS
331
59
102
}
  0
BLOCK_RECORD
  5
58
330
1
100
AcDbSymbolTableRecord
100
AcDbBlockTableRecord
  2
Rckans1
340
0
102
{BLKREFS
331
7F
102
}
  0
BLOCK_RECORD
  5
5C
330
1
100
AcDbSymbolTableRecord
100
AcDbBlockTableRecord
  2
HC-RBO_10_BU-select__4
340
0
102
{BLKREFS
331
60
102
}
  0
BLOCK_RECORD
  5
5F
330
1
100
AcDbSymbolTableRecord
100
AcDbBlockTableRecord
  2
SA_Links1
340
0
102
{BLKREFS
331
80
102
}
  0
BLOCK_RECORD
  5
63
330
1
100
AcDbSymbolTableRecord
100
AcDbBlockTableRecord
  2
HC-RBO_10_BU-select__5
340
0
102
{BLKREFS
331
67
102
}
  0
BLOCK_RECORD
  5
66
330
1
100
AcDbSymbolTableRecord
100
AcDbBlockTableRecord
  2
SA_Rechts1
340
0
102
{BLKREFS
331
81
102
}
  0
BLOCK_RECORD
  5
6A
330
1
100
AcDbSymbolTableRecord
100
AcDbBlockTableRecord
  2
HC-RBO_10_BU-select__6
340
0
102
{BLKREFS
331
6E
102
}
  0
BLOCK_RECORD
  5
6D
330
1
100
AcDbSymbolTableRecord
100
AcDbBlockTableRecord
  2
Vordans1
340
0
102
{BLKREFS
331
82
102
}
  0
BLOCK_RECORD
  5
71
330
1
100
AcDbSymbolTableRecord
100
AcDbBlockTableRecord
  2
_rahmen
340
0
102
{BLKREFS
331
78
102
}
  0
BLOCK_RECORD
  5
74
330
1
100
AcDbSymbolTableRecord
100
AcDbBlockTableRecord
  2
_punkt
340
0
102
{BLKREFS
331
79
102
}
  0
BLOCK_RECORD
  5
77
330
1
100
AcDbSymbolTableRecord
100
AcDbBlockTableRecord
  2
A3I_CS
340
0
102
{BLKREFS
331
83
102
}
  0
BLOCK_RECORD
  5
7C
330
1
100
AcDbSymbolTableRecord
100
AcDbBlockTableRecord
  2
1
340
0
102
{BLKREFS
331
86
102
}
  0
BLOCK_RECORD
  5
126
330
1
100
AcDbSymbolTableRecord
100
AcDbBlockTableRecord
  2
*D17
340
0
  0
BLOCK_RECORD
  5
1FB
330
1
100
AcDbSymbolTableRecord
100
AcDbBlockTableRecord
  2
*D18
340
0
  0
BLOCK_RECORD
  5
206
330
1
100
AcDbSymbolTableRecord
100
AcDbBlockTableRecord
  2
*D19
340
0
  0
ENDTAB
  0
ENDSEC
  0
SECTION
  2
BLOCKS
  0
BLOCK
  5
20
330
1F
100
AcDbEntity
  8
0
100
AcDbBlockBegin
  2
*Model_Space
 70
     0
 10
0.0
 20
0.0
 30
0.0
  3
*Model_Space
  1

  0
ENDBLK
  5
21
330
1F
100
AcDbEntity
  8
0
100
AcDbBlockEnd
  0
BLOCK
  5
1C
330
1B
100
AcDbEntity
 67
     1
  8
0
100
AcDbBlockBegin
  2
*Paper_Space
 70
     0
 10
0.0
 20
0.0
 30
0.0
  3
*Paper_Space
  1

  0
ENDBLK
  5
1D
330
1B
100
AcDbEntity
 67
     1
  8
0
100
AcDbBlockEnd
  0
BLOCK
  5
24
330
23
100
AcDbEntity
  8
0
100
AcDbBlockBegin
  2
*Paper_Space0
 70
     0
 10
0.0
 20
0.0
 30
0.0
  3
*Paper_Space0
  1

  0
ENDBLK
  5
25
330
23
100
AcDbEntity
  8
0
100
AcDbBlockEnd
  0
BLOCK
  5
48
330
47
100
AcDbEntity
  8
0
100
AcDbBlockBegin
  2
HC-RBO_10_BU-select__1
 70
     0
 10
-187.9293600319726
 20
-256.792168472879
 30
0.0
  3
HC-RBO_10_BU-select__1
  1

  0
LINE
  5
87
330
47
100
AcDbEntity
  8
0
  6
Continuous
 62
     7
100
AcDbLine
 10
-179.6391074892344
 20
-177.8861852087331
 30
0.0
 11
-100.4318523334668
 21
-200.7513502516382
 31
0.0
  0
LINE
  5
88
330
47
100
AcDbEntity
  8
0
  6
Continuous
 62
     7
100
AcDbLine
 10
-80.03185233359255
 20
-183.0844320145624
 30
0.0
 11
-128.0584310356244
 21
-169.2203529435775
 31
0.0
  0
LINE
  5
89
330
47
100
AcDbEntity
  8
0
  6
Continuous
 62
     7
100
AcDbLine
 10
-123.2993878873631
 20
-175.2552543632817
 30
0.0
 11
-145.8739921514921
 21
-175.2553977365475
 31
0.0
  0
LINE
  5
8A
330
47
100
AcDbEntity
  8
0
  6
Continuous
 62
     7
100
AcDbLine
 10
-135.9914527737333
 20
-168.2870599604995
 30
0.0
 11
-135.9914527737335
 21
-168.5468675814566
 31
0.0
  0
LINE
  5
8B
330
47
100
AcDbEntity
  8
0
  6
Continuous
 62
     7
100
AcDbLine
 10
-162.0185315572939
 20
-172.2052248170423
 30
0.0
 11
-163.409108021709
 21
-171.8037999690155
 31
0.0
  0
LINE
  5
8C
330
47
100
AcDbEntity
  8
0
  6
Continuous
 62
     7
100
AcDbLine
 10
-128.7168393819488
 20
-170.6468675814716
 30
0.0
 11
-135.9914527737335
 21
-168.5468675814566
 31
0.0
  0
LINE
  5
8D
330
47
100
AcDbEntity
  8
0
  6
Continuous
 62
     7
100
AcDbLine
 10
-134.0861968854087
 20
-168.8370599605007
 30
0.0
 11
-130.6220952702731
 21
-169.8370599605105
 31
0.0
  0
LINE
  5
8E
330
47
100
AcDbEntity
  8
0
  6
Continuous
 62
     7
100
AcDbLine
 10
-131.2775000541429
 20
-168.2910877613835
 30
0.0
 11
-133.2970601546973
 21
-167.7080909775316
 31
0.0
  0
LINE
  5
8F
330
47
100
AcDbEntity
  8
0
  6
Continuous
 62
     7
100
AcDbLine
 10
-134.0861968854087
 20
-168.8370599605007
 30
0.0
 11
-133.3861968853228
 21
-168.2308421777787
 31
0.0
  0
LINE
  5
90
330
47
100
AcDbEntity
  8
0
  6
Continuous
 62
     7
100
AcDbLine
 10
-133.3861968853228
 20
-168.2308421777787
 30
0.0
 11
-130.8222627054825
 21
-168.970986222244
 31
0.0
  0
LINE
  5
91
330
47
100
AcDbEntity
  8
0
  6
Continuous
 62
     7
100
AcDbLine
 10
-134.0753375256384
 20
-165.6359007936417
 30
0.0
 11
-130.6329546300288
 21
-166.6296311393691
 31
0.0
  0
LINE
  5
92
330
47
100
AcDbEntity
  8
0
  6
Continuous
 62
     7
100
AcDbLine
 10
-128.7168393819485
 20
-170.3870599605118
 30
0.0
 11
-128.7168393819488
 21
-170.6468675814716
 31
0.0
  0
LINE
  5
93
330
47
100
AcDbEntity
  8
0
  6
Continuous
 62
     2
100
AcDbLine
 10
-128.7168393819485
 20
-170.3870599605118
 30
0.0
 11
-128.0168393818626
 21
-169.7808421777897
 31
0.0
  0
LINE
  5
94
330
47
100
AcDbEntity
  8
0
  6
Continuous
 62
     7
100
AcDbLine
 10
-128.7168393819488
 20
-170.6468675814716
 30
0.0
 11
-128.016839381863
 21
-170.0406497987495
 31
0.0
  0
LINE
  5
95
330
47
100
AcDbEntity
  8
0
  6
Continuous
 62
     7
100
AcDbLine
 10
-128.0168393818626
 20
-169.7808421777897
 30
0.0
 11
-128.016839381863
 21
-170.0406497987495
 31
0.0
  0
LINE
  5
96
330
47
100
AcDbEntity
  8
0
  6
Continuous
 62
     7
100
AcDbLine
 10
-130.6329546300288
 20
-166.6296311393691
 30
0.0
 11
-129.9329546299429
 21
-166.023413356647
 31
0.0
  0
LINE
  5
97
330
47
100
AcDbEntity
  8
0
  6
Continuous
 62
     7
100
AcDbLine
 10
-135.1036914948105
 20
-166.1621583872248
 30
0.0
 11
-134.4036914947246
 21
-165.5559406045028
 31
0.0
  0
LINE
  5
98
330
47
100
AcDbEntity
  8
0
  6
Continuous
 62
     7
100
AcDbLine
 10
-145.8739921514922
 20
-175.5152053576635
 30
0.0
 11
-145.8739921514921
 21
-175.2553977365475
 31
0.0
  0
LINE
  5
99
330
47
100
AcDbEntity
  8
0
  6
Continuous
 62
     7
100
AcDbLine
 10
-146.9132073934767
 20
-176.1553845361138
 30
0.0
 11
-135.6261535910924
 21
-185.9305466093021
 31
0.0
  0
LINE
  5
9A
330
47
100
AcDbEntity
  8
0
  6
Continuous
 62
     7
100
AcDbLine
 10
-134.0753375256384
 20
-165.6359007936417
 30
0.0
 11
-133.3753375255525
 21
-165.0296830109197
 31
0.0
  0
LINE
  5
9B
330
47
100
AcDbEntity
  8
0
  6
Continuous
 62
     7
100
AcDbLine
 10
-133.5476773794178
 20
-185.930553209591
 30
0.0
 11
-122.2601383494808
 21
-176.155257663373
 31
0.0
  0
LINE
  5
9C
330
47
100
AcDbEntity
  8
0
  6
Continuous
 62
     7
100
AcDbLine
 10
-122.4101394494916
 20
-176.2851624265791
 30
0.0
 11
-123.2993878873631
 21
-175.5150619843737
 31
0.0
  0
LINE
  5
9D
330
47
100
AcDbEntity
  8
0
  6
Continuous
 62
     7
100
AcDbLine
 10
-122.2601383494808
 20
-176.155257663373
 30
0.0
 11
-123.2993878873631
 21
-175.2552543632817
 31
0.0
  0
LINE
  5
9E
330
47
100
AcDbEntity
  8
0
  6
Continuous
 62
     7
100
AcDbLine
 10
-123.2993878873631
 20
-175.5150619843737
 30
0.0
 11
-123.2993878873631
 21
-175.2552543632817
 31
0.0
  0
LINE
  5
9F
330
47
100
AcDbEntity
  8
0
  6
Continuous
 62
     7
100
AcDbLine
 10
-135.7289300206035
 20
-167.0060706166717
 30
0.0
 11
-159.2391074892042
 21
-160.2192669714708
 31
0.0
  0
LINE
  5
A0
330
47
100
AcDbEntity
  8
0
  6
Continuous
 62
     7
100
AcDbLine
 10
-133.3753375255525
 20
-165.0296830109197
 30
0.0
 11
-129.9329546299429
 21
-166.023413356647
 31
0.0
  0
LINE
  5
A1
330
47
100
AcDbEntity
  8
0
  6
Continuous
 62
     7
100
AcDbLine
 10
-145.8739921514921
 20
-175.2553977365475
 30
0.0
 11
-146.9132073934767
 21
-176.1553845361138
 31
0.0
  0
LINE
  5
A2
330
47
100
AcDbEntity
  8
0
  6
Continuous
 62
     7
100
AcDbLine
 10
-146.763209593584
 20
-176.2852902520114
 30
0.0
 11
-145.8739921514922
 21
-175.5152053576635
 31
0.0
  0
LINE
  5
A3
330
47
100
AcDbEntity
  8
0
  6
Continuous
 62
     7
100
AcDbLine
 10
-123.2993878873631
 20
-175.5150619843737
 30
0.0
 11
-145.8739921514922
 21
-175.5152053576635
 31
0.0
  0
LINE
  5
A4
330
47
100
AcDbEntity
  8
0
  6
Continuous
 62
     7
100
AcDbLine
 10
-100.4318523334668
 20
-200.7513502516382
 30
0.0
 11
-97.40076342023684
 21
-204.6574391648819
 31
0.0
  0
LINE
  5
A5
330
47
100
AcDbEntity
  8
0
  6
Continuous
 62
     7
100
AcDbLine
 10
-187.9293600319704
 20
-181.0274976192563
 30
0.0
 11
-170.3293600321309
 21
-165.7854505127954
 31
0.0
  0
LINE
  5
A6
330
47
100
AcDbEntity
  8
0
  6
Continuous
 62
     7
100
AcDbLine
 10
-179.6391074892344
 20
-177.8861852087331
 30
0.0
 11
-159.2391074892042
 21
-160.2192669714708
 31
0.0
  0
LINE
  5
A7
330
47
100
AcDbEntity
  8
0
  6
Continuous
 62
     7
100
AcDbLine
 10
-166.2682726137949
 20
-165.435867661353
 30
0.0
 11
-183.8682726136613
 21
-180.6779147678768
 31
0.0
  0
LINE
  5
A8
330
47
100
AcDbEntity
  8
0
  6
Continuous
 62
     7
100
AcDbLine
 10
-186.4074422235942
 20
-179.944919639061
 30
0.0
 11
-168.807442223693
 21
-164.7028725325562
 31
0.0
  0
LINE
  5
A9
330
47
100
AcDbEntity
  8
0
  6
Continuous
 62
     7
100
AcDbLine
 10
-183.8682726136613
 20
-180.6779147678768
 30
0.0
 11
-186.4074422235942
 21
-179.944919639061
 31
0.0
  0
LINE
  5
AA
330
47
100
AcDbEntity
  8
0
  6
Continuous
 62
     7
100
AcDbLine
 10
-184.7719764790302
 20
-184.5820202653054
 30
0.0
 11
-184.0219764790109
 21
-183.9325012124457
 31
0.0
  0
LINE
  5
AB
330
47
100
AcDbEntity
  8
0
  6
Continuous
 62
     7
100
AcDbLine
 10
-183.8733999880188
 20
-182.2930153762593
 30
0.0
 11
-183.873399987949
 21
-180.8981427504445
 31
0.0
  0
LINE
  5
AC
330
47
100
AcDbEntity
  8
0
  6
Continuous
 62
     7
100
AcDbLine
 10
-179.6391074892344
 20
-177.8861852087331
 30
0.0
 11
-183.873399987949
 21
-180.8981427504445
 31
0.0
  0
LINE
  5
AD
330
47
100
AcDbEntity
  8
0
  6
Continuous
 62
     7
100
AcDbLine
 10
-183.873399987949
 20
-180.8981427504445
 30
0.0
 11
-182.4733999879559
 21
-179.6857071851436
 31
0.0
  0
LINE
  5
AE
330
47
100
AcDbEntity
  8
0
  6
Continuous
 62
     7
100
AcDbLine
 10
-183.8682726136613
 20
-180.6779147678768
 30
0.0
 11
-182.4733999879559
 21
-179.6857071851436
 31
0.0
  0
LINE
  5
AF
330
47
100
AcDbEntity
  8
0
  6
Continuous
 62
     7
100
AcDbLine
 10
-168.807442223693
 20
-164.7028725325562
 30
0.0
 11
-166.2682726137949
 21
-165.435867661353
 31
0.0
  0
LINE
  5
B0
330
47
100
AcDbEntity
  8
0
  6
Continuous
 62
     7
100
AcDbLine
 10
-187.3905911618729
 20
-181.558304481241
 30
0.0
 11
-186.6405911618536
 21
-180.9087854283812
 31
0.0
  0
LINE
  5
B1
330
47
100
AcDbEntity
  8
0
  6
Continuous
 62
     7
100
AcDbLine
 10
-168.807442223693
 20
-164.7028725325562
 30
0.0
 11
-170.3293600321309
 21
-165.7854505127954
 31
0.0
  0
LINE
  5
B2
330
47
100
AcDbEntity
  8
0
  6
Continuous
 62
     7
100
AcDbLine
 10
-164.8733999881339
 20
-164.4436600786514
 30
0.0
 11
-166.2682726137949
 21
-165.435867661353
 31
0.0
  0
LINE
  5
B3
330
47
100
AcDbEntity
  8
0
  6
Continuous
 62
     7
100
AcDbLine
 10
-163.4733999881083
 20
-163.2312245133273
 30
0.0
 11
-164.8733999881339
 21
-164.4436600786514
 31
0.0
  0
LINE
  5
B4
330
47
100
AcDbEntity
  8
0
  6
Continuous
 62
     7
100
AcDbLine
 10
-159.2391074892042
 20
-160.2192669714708
 30
0.0
 11
-163.4733999881083
 21
-163.2312245133273
 31
0.0
  0
LINE
  5
B5
330
47
100
AcDbEntity
  8
0
  6
Continuous
 62
     7
100
AcDbLine
 10
-186.4074422235942
 20
-179.944919639061
 30
0.0
 11
-187.9293600319704
 21
-181.0274976192563
 31
0.0
  0
LINE
  5
B6
330
47
100
AcDbEntity
  8
0
  6
Continuous
 62
     7
100
AcDbLine
 10
-79.65955021036018
 20
-240.0278271389408
 30
0.0
 11
-78.44711464498079
 21
-240.3778271389426
 31
0.0
  0
LINE
  5
B7
330
47
100
AcDbEntity
  8
0
  6
Continuous
 62
     7
100
AcDbLine
 10
-79.45076342024379
 20
-239.5086656320402
 30
0.0
 11
-78.44711464498079
 21
-240.3778271389426
 31
0.0
  0
LINE
  5
B8
330
47
100
AcDbEntity
  8
0
  6
Continuous
 62
     7
100
AcDbLine
 10
-77.00076342036004
 20
-239.1252502356179
 30
0.0
 11
-77.00076342039966
 21
-193.2895590334798
 31
0.0
  0
LINE
  5
B9
330
47
100
AcDbEntity
  8
0
  6
Continuous
 62
     7
100
AcDbLine
 10
-72.67063640144335
 20
-189.5395590334935
 30
0.0
 11
-72.67063640144454
 21
-188.2405209277763
 31
0.0
  0
LINE
  5
BA
330
47
100
AcDbEntity
  8
0
  6
Continuous
 62
     7
100
AcDbLine
 10
-79.45076342038999
 20
-195.4113212727534
 30
0.0
 11
-79.45076342024379
 21
-239.5086656320402
 31
0.0
  0
LINE
  5
BB
330
47
100
AcDbEntity
  8
0
  6
Continuous
 62
     7
100
AcDbLine
 10
-94.95076342030205
 20
-234.7518219485546
 30
0.0
 11
-80.66319898573056
 21
-238.8762865347615
 31
0.0
  0
LINE
  5
BC
330
47
100
AcDbEntity
  8
0
  6
Continuous
 62
     7
100
AcDbLine
 10
-94.95076342011714
 20
-252.9320593906543
 30
0.0
 11
-94.95076342034264
 21
-206.6637313501823
 31
0.0
  0
LINE
  5
BD
330
47
100
AcDbEntity
  8
0
  6
Continuous
 62
     7
100
AcDbLine
 10
-95.95441219566919
 20
-255.539591569558
 30
0.0
 11
-94.95076342011714
 21
-252.9320593906543
 31
0.0
  0
LINE
  5
BE
330
47
100
AcDbEntity
  8
0
  6
Continuous
 62
     7
100
AcDbLine
 10
-95.95441219566919
 20
-255.539591569558
 30
0.0
 11
-97.40076342028868
 21
-256.792168472879
 31
0.0
  0
LINE
  5
BF
330
47
100
AcDbEntity
  8
0
  6
Continuous
 62
     7
100
AcDbLine
 10
-97.40076342018648
 20
-205.9564772704756
 30
0.0
 11
-97.40076342028868
 21
-256.792168472879
 31
0.0
  0
LINE
  5
C0
330
47
100
AcDbEntity
  8
0
  6
Continuous
 62
     7
100
AcDbLine
 10
-97.40076342023684
 20
-204.6574391648819
 30
0.0
 11
-93.07063640122368
 21
-205.9074391649087
 31
0.0
  0
LINE
  5
C1
330
47
100
AcDbEntity
  8
0
  6
Continuous
 62
     7
100
AcDbLine
 10
-79.65955021036018
 20
-240.0278271389408
 30
0.0
 11
-80.66319898559925
 21
-239.1586656320255
 31
0.0
  0
LINE
  5
C2
330
47
100
AcDbEntity
  8
0
  6
Continuous
 62
     7
100
AcDbLine
 10
-79.45076342024379
 20
-239.5086656320402
 30
0.0
 11
-80.66319898559925
 21
-239.1586656320255
 31
0.0
  0
LINE
  5
C3
330
47
100
AcDbEntity
  8
0
  6
Continuous
 62
     7
100
AcDbLine
 10
-80.66319898556719
 20
-225.6992630630551
 30
0.0
 11
-94.95076342032104
 21
-221.5747984769672
 31
0.0
  0
LINE
  5
C4
330
47
100
AcDbEntity
  8
0
  6
Continuous
 62
     7
100
AcDbLine
 10
-80.66319898559925
 20
-239.1586656320255
 30
0.0
 11
-80.66319898556719
 21
-225.6992630630551
 31
0.0
  0
LINE
  5
C5
330
47
100
AcDbEntity
  8
0
  6
Continuous
 62
     7
100
AcDbLine
 10
-93.07063640122254
 20
-207.206477270478
 30
0.0
 11
-97.40076342018648
 21
-205.9564772704756
 31
0.0
  0
LINE
  5
C6
330
47
100
AcDbEntity
  8
0
  6
Continuous
 62
     7
100
AcDbLine
 10
-93.07063640122368
 20
-205.9074391649087
 30
0.0
 11
-93.07063640122254
 21
-207.206477270478
 31
0.0
  0
LINE
  5
C7
330
47
100
AcDbEntity
  8
0
  6
Continuous
 62
     7
100
AcDbLine
 10
-141.3515525349878
 20
-203.4540810915294
 30
0.0
 11
-146.4819249462375
 21
-193.0870044667628
 31
0.0
  0
LINE
  5
C8
330
47
100
AcDbEntity
  8
0
  6
Continuous
 62
     7
100
AcDbLine
 10
-135.6261535910924
 20
-185.9305466093021
 30
0.0
 11
-133.5476773794178
 21
-185.930553209591
 31
0.0
  0
LINE
  5
C9
330
47
100
AcDbEntity
  8
0
  6
Continuous
 62
     7
100
AcDbLine
 10
-141.3515525349878
 20
-203.4540810915294
 30
0.0
 11
-141.351552534909
 21
-240.404320319664
 31
0.0
  0
LINE
  5
CA
330
47
100
AcDbEntity
  8
0
  6
Continuous
 62
     7
100
AcDbLine
 10
-141.351552534909
 20
-240.404320319664
 30
0.0
 11
-131.1849294393633
 21
-247.0395197999427
 31
0.0
  0
LINE
  5
CB
330
47
100
AcDbEntity
  8
0
  6
Continuous
 62
     7
100
AcDbLine
 10
-77.00076342036004
 20
-239.1252502356179
 30
0.0
 11
-78.44711464498079
 21
-240.3778271389426
 31
0.0
  0
LINE
  5
CC
330
47
100
AcDbEntity
  8
0
  6
Continuous
 62
     7
100
AcDbLine
 10
-72.67063640144454
 20
-188.2405209277763
 30
0.0
 11
-77.00076342040995
 21
-186.9905209277595
 31
0.0
  0
LINE
  5
CD
330
47
100
AcDbEntity
  8
0
  6
Continuous
 62
     7
100
AcDbLine
 10
-72.67063640144335
 20
-189.5395590334935
 30
0.0
 11
-93.07063640122254
 21
-207.206477270478
 31
0.0
  0
LINE
  5
CE
330
47
100
AcDbEntity
  8
0
  6
Continuous
 62
     7
100
AcDbLine
 10
-93.07063640122368
 20
-205.9074391649087
 30
0.0
 11
-72.67063640144454
 21
-188.2405209277763
 31
0.0
  0
LINE
  5
CF
330
47
100
AcDbEntity
  8
0
  6
Continuous
 62
     7
100
AcDbLine
 10
-77.00076342040995
 20
-186.9905209277595
 30
0.0
 11
-97.40076342023684
 21
-204.6574391648819
 31
0.0
  0
LINE
  5
D0
330
47
100
AcDbEntity
  8
0
  6
Continuous
 62
     7
100
AcDbLine
 10
-100.4318523334668
 20
-200.7513502516382
 30
0.0
 11
-80.03185233359255
 21
-183.0844320145624
 31
0.0
  0
LINE
  5
D1
330
47
100
AcDbEntity
  8
0
  6
Continuous
 62
     7
100
AcDbLine
 10
-77.00076342040995
 20
-186.9905209277595
 30
0.0
 11
-80.03185233359255
 21
-183.0844320145624
 31
0.0
  0
LINE
  5
D2
330
47
100
AcDbEntity
  8
0
  6
Continuous
 62
     7
100
AcDbLine
 10
-131.1849294393633
 20
-247.0395197999427
 30
0.0
 11
-97.40076342028868
 21
-256.792168472879
 31
0.0
  0
LINE
  5
D3
330
47
100
AcDbEntity
  8
0
  6
Continuous
 62
     7
100
AcDbLine
 10
-145.1152582796969
 20
-195.8486632541926
 30
0.0
 11
-182.1733999879787
 21
-185.1508992088072
 31
0.0
  0
LINE
  5
D4
330
47
100
AcDbEntity
  8
0
  6
Continuous
 62
     7
100
AcDbLine
 10
-146.4819249462375
 20
-193.0870044667628
 30
0.0
 11
-183.8733999880188
 21
-182.2930153762593
 31
0.0
  0
LINE
  5
D5
330
47
100
AcDbEntity
  8
0
  6
Continuous
 62
     7
100
AcDbLine
 10
-182.4733999879339
 20
-185.4107068299039
 30
0.0
 11
-182.4733999879293
 21
-182.6971605647223
 31
0.0
  0
LINE
  5
D6
330
47
100
AcDbEntity
  8
0
  6
Continuous
 62
     7
100
AcDbLine
 10
-182.4733999879339
 20
-185.4107068299039
 30
0.0
 11
-184.9356398967205
 21
-184.6999193928366
 31
0.0
  0
LINE
  5
D7
330
47
100
AcDbEntity
  8
0
  6
Continuous
 62
     7
100
AcDbLine
 10
-187.9293600319726
 20
-183.4026941279833
 30
0.0
 11
-187.3032669174948
 21
-183.9449066702554
 31
0.0
  0
LINE
  5
D8
330
47
100
AcDbEntity
  8
0
  6
Continuous
 62
     7
100
AcDbLine
 10
-187.9293600319726
 20
-183.4026941279833
 30
0.0
 11
-187.9293600319704
 21
-181.0274976192563
 31
0.0
  0
LINE
  5
D9
330
47
100
AcDbEntity
  8
0
  6
Continuous
 62
     7
100
AcDbLine
 10
-182.1733999879787
 20
-185.1508992088072
 30
0.0
 11
-182.173399987969
 21
-182.7837631050902
 31
0.0
  0
LINE
  5
DA
330
47
100
AcDbEntity
  8
0
  6
Continuous
 62
     7
100
AcDbLine
 10
-182.1733999879787
 20
-185.1508992088072
 30
0.0
 11
-182.4733999879339
 21
-185.4107068299039
 31
0.0
  0
SPLINE
  5
DB
330
47
100
AcDbEntity
  8
0
  6
Continuous
 62
     7
100
AcDbSpline
210
0.0
220
0.0
230
1.0
 70
     8
 71
     3
 72
    15
 73
    11
 74
     9
 42
0.000000001
 43
0.0000000001
 44
0.00000001
 40
0.0
 40
0.0
 40
0.0
 40
0.0
 40
0.3467845750800921
 40
0.7327937487834373
 40
1.147174856886573
 40
1.5763765856007
 40
2.005578314314817
 40
2.419959422417959
 40
2.80596859612126
 40
3.152753171201353
 40
3.152753171201353
 40
3.152753171201353
 40
3.152753171201353
 10
-163.5027476655982
 20
-171.854910182568
 30
0.0
 10
-163.3995587571913
 20
-171.8022852872232
 30
0.0
 10
-163.1815092975882
 20
-171.6910831379702
 30
0.0
 10
-162.8113305723017
 20
-171.5871164852786
 30
0.0
 10
-162.4066697067642
 20
-171.5191325121778
 30
0.0
 10
-161.9820570330165
 20
-171.4969484234906
 30
0.0
 10
-161.5574443592689
 20
-171.5191325121797
 30
0.0
 10
-161.1527834937317
 20
-171.5871164852824
 30
0.0
 10
-160.7826047684457
 20
-171.6910831379756
 30
0.0
 10
-160.564555308843
 20
-171.8022852872297
 30
0.0
 10
-160.4613664004364
 20
-171.8549101825749
 30
0.0
 11
-163.5027476655982
 21
-171.854910182568
 31
0.0
 11
-163.1890571309084
 21
-171.7070663801354
 31
0.0
 11
-162.8192917040204
 21
-171.5962665151727
 31
0.0
 11
-162.4106296974361
 21
-171.5276584332886
 31
0.0
 11
-161.9820570330165
 21
-171.5044292354054
 31
0.0
 11
-161.5534843685969
 21
-171.5276584332905
 31
0.0
 11
-161.1448223620129
 21
-171.5962665151765
 31
0.0
 11
-160.7750569351255
 21
-171.7070663801409
 31
0.0
 11
-160.4613664004364
 21
-171.8549101825749
 31
0.0
  0
SPLINE
  5
DC
330
47
100
AcDbEntity
  8
0
  6
Continuous
 62
     7
100
AcDbSpline
210
0.0
220
0.0
230
1.0
 70
     8
 71
     3
 72
    17
 73
    13
 74
    11
 42
0.000000001
 43
0.0000000001
 44
0.00000001
 40
0.0
 40
0.0
 40
0.0
 40
0.0
 40
0.4340469405117058
 40
0.8940939120066906
 40
1.371940844027605
 40
1.856317062738001
 40
2.334897026481441
 40
2.796290082652451
 40
3.232052819924602
 40
3.638712425243162
 40
4.019500657900474
 40
4.384852940516236
 40
4.384852940516236
 40
4.384852940516236
 40
4.384852940516236
 10
-130.6220952702731
 20
-169.8370599605105
 30
0.0
 10
-130.6326248502293
 20
-169.6921735063579
 30
0.0
 10
-130.6543147617928
 20
-169.3937216944921
 30
0.0
 10
-130.8126693148474
 20
-168.959171265581
 30
0.0
 10
-131.0505302625995
 20
-168.5469936672608
 30
0.0
 10
-131.3651760832718
 20
-168.1802835181513
 30
0.0
 10
-131.7359544366012
 20
-167.8795045741811
 30
0.0
 10
-132.142917881244
 20
-167.6619686316971
 30
0.0
 10
-132.5642682875463
 20
-167.5396804151334
 30
0.0
 10
-132.9747228997856
 20
-167.5237597643315
 30
0.0
 10
-133.3587898809161
 20
-167.6088405662738
 30
0.0
 10
-133.5633092556041
 20
-167.7540831434085
 30
0.0
 10
-133.663453419255
 20
-167.8252020684671
 30
0.0
 11
-130.6220952702731
 21
-169.8370599605105
 31
0.0
 11
-130.6728935439748
 21
-169.4059958341261
 31
0.0
 11
-130.8223075942853
 21
-168.9708881957908
 31
0.0
 11
-131.0615743789566
 21
-168.5572590192246
 31
0.0
 11
-131.3766584244739
 21
-168.1893699524131
 31
0.0
 11
-131.7490787619057
 21
-167.8888007019745
 31
0.0
 11
-132.1569900098697
 21
-167.6731807429921
 31
0.0
 11
-132.5764658006972
 21
-167.5551586045011
 31
0.0
 11
-132.9829011757137
 21
-167.5416559135784
 31
0.0
 11
-133.3524557924821
 21
-167.6334658679709
 31
0.0
 11
-133.663453419255
 21
-167.8252020684671
 31
0.0
  0
SPLINE
  5
DD
330
47
100
AcDbEntity
  8
0
  6
Continuous
 62
     7
100
AcDbSpline
210
0.0
220
0.0
230
1.0
 70
     8
 71
     3
 72
    11
 73
     7
 74
     5
 42
0.000000001
 43
0.0000000001
 44
0.00000001
 40
0.0
 40
0.0
 40
0.0
 40
0.0
 40
0.2681156221821476
 40
0.5425811581257276
 40
0.8285670144155222
 40
1.129302987312496
 40
1.129302987312496
 40
1.129302987312496
 40
1.129302987312496
 10
-133.663453419255
 20
-167.8252020684671
 30
0.0
 10
-133.7271095059334
 20
-167.8885727085927
 30
0.0
 10
-133.8559292665214
 20
-168.0168148366262
 30
0.0
 10
-133.9869465730591
 20
-168.2638011713162
 30
0.0
 10
-134.0715358481689
 20
-168.5405439943441
 30
0.0
 10
-134.0812286526624
 20
-168.7365785428736
 30
0.0
 10
-134.0861968854087
 20
-168.8370599605007
 30
0.0
 11
-133.663453419255
 21
-167.8252020684671
 31
0.0
 11
-133.843915957373
 21
-168.0234929155539
 31
0.0
 11
-133.9770735004391
 21
-168.2634937498109
 31
0.0
 11
-134.0586976966711
 21
-168.5375838841283
 31
0.0
 11
-134.0861968854087
 21
-168.8370599605007
 31
0.0
  0
SPLINE
  5
DE
330
47
100
AcDbEntity
  8
0
  6
Continuous
 62
     7
100
AcDbSpline
210
0.0
220
0.0
230
1.0
 70
     8
 71
     3
 72
     9
 73
     5
 74
     3
 42
0.000000001
 43
0.0000000001
 44
0.00000001
 40
0.0
 40
0.0
 40
0.0
 40
0.0
 40
0.3177156676557975
 40
0.6535755191509083
 40
0.6535755191509083
 40
0.6535755191509083
 40
0.6535755191509083
 10
-133.2495184642382
 20
-167.5959189040358
 30
0.0
 10
-133.2892055825939
 20
-167.6949685205985
 30
0.0
 10
-133.3708462618803
 20
-167.8987243087526
 30
0.0
 10
-133.3809861846515
 20
-168.1181061036989
 30
0.0
 10
-133.3861968853228
 20
-168.2308421777787
 30
0.0
 11
-133.2495184642382
 21
-167.5959189040358
 31
0.0
 11
-133.3516833263021
 21
-167.8967603691715
 31
0.0
 11
-133.3861968853228
 21
-168.2308421777787
 31
0.0
  0
SPLINE
  5
DF
330
47
100
AcDbEntity
  8
0
  6
Continuous
 62
     7
100
AcDbSpline
210
0.0
220
0.0
230
1.0
 70
     8
 71
     3
 72
    13
 73
     9
 74
     7
 42
0.000000001
 43
0.0000000001
 44
0.00000001
 40
0.0
 40
0.0
 40
0.0
 40
0.0
 40
0.75067885588598
 40
1.503784215942167
 40
2.248788201665076
 40
2.975877283312182
 40
3.676889575701392
 40
4.346266989701466
 40
4.346266989701466
 40
4.346266989701466
 40
4.346266989701466
 10
-129.9329546299429
 20
-166.023413356647
 30
0.0
 10
-129.7462283979656
 20
-166.1905669228201
 30
0.0
 10
-129.372172367778
 20
-166.5254143751591
 30
0.0
 10
-128.9048146293712
 20
-167.1157611170615
 30
0.0
 10
-128.5191555838835
 20
-167.75182286141
 30
0.0
 10
-128.2368019410677
 20
-168.42093833296
 30
0.0
 10
-128.0531190265907
 20
-169.10028340408
 30
0.0
 10
-128.028745037503
 20
-169.557507529268
 30
0.0
 10
-128.0168393818626
 20
-169.7808421777897
 30
0.0
 11
-129.9329546299429
 21
-166.023413356647
 31
0.0
 11
-129.3881087972761
 21
-166.5398063881539
 31
0.0
 11
-128.9161968157647
 21
-167.1267193001294
 31
0.0
 11
-128.5324077724483
 21
-167.765262102829
 31
0.0
 11
-128.2490938620287
 21
-168.4348827143855
 31
0.0
 11
-128.0753740957092
 21
-169.1140290019154
 31
0.0
 11
-128.0168393818626
 21
-169.7808421777897
 31
0.0
  0
SPLINE
  5
E0
330
47
100
AcDbEntity
  8
0
  6
Continuous
 62
     7
100
AcDbSpline
210
0.0
220
0.0
230
1.0
 70
     8
 71
     3
 72
    13
 73
     9
 74
     7
 42
0.000000001
 43
0.0000000001
 44
0.00000001
 40
0.0
 40
0.0
 40
0.0
 40
0.0
 40
0.7506788558859594
 40
1.503784215942102
 40
2.248788201665035
 40
2.975877283312152
 40
3.676889575701376
 40
4.346266989701454
 40
4.346266989701454
 40
4.346266989701454
 40
4.346266989701454
 10
-130.6329546300288
 20
-166.6296311393691
 30
0.0
 10
-130.4462283980515
 20
-166.7967847055422
 30
0.0
 10
-130.0721723678639
 20
-167.1316321578812
 30
0.0
 10
-129.6048146294571
 20
-167.7219788997836
 30
0.0
 10
-129.2191555839694
 20
-168.358040644132
 30
0.0
 10
-128.9368019411536
 20
-169.0271561156821
 30
0.0
 10
-128.7531190266767
 20
-169.7065011868021
 30
0.0
 10
-128.728745037589
 20
-170.1637253119901
 30
0.0
 10
-128.7168393819485
 20
-170.3870599605118
 30
0.0
 11
-130.6329546300288
 21
-166.6296311393691
 31
0.0
 11
-130.088108797362
 21
-167.146024170876
 31
0.0
 11
-129.6161968158506
 21
-167.7329370828514
 31
0.0
 11
-129.2324077725342
 21
-168.3714798855511
 31
0.0
 11
-128.9490938621146
 21
-169.0411004971076
 31
0.0
 11
-128.7753740957951
 21
-169.7202467846375
 31
0.0
 11
-128.7168393819485
 21
-170.3870599605118
 31
0.0
  0
SPLINE
  5
E1
330
47
100
AcDbEntity
  8
0
  6
Continuous
 62
     7
100
AcDbSpline
210
0.0
220
0.0
230
1.0
 70
     8
 71
     3
 72
    11
 73
     7
 74
     5
 42
0.000000001
 43
0.0000000001
 44
0.00000001
 40
0.0
 40
0.0
 40
0.0
 40
0.0
 40
0.6315455436450997
 40
1.232115844052597
 40
1.808493472137494
 40
2.371536280452801
 40
2.371536280452801
 40
2.371536280452801
 40
2.371536280452801
 10
-135.9914527737333
 20
-168.2870599604995
 30
0.0
 10
-135.981019484957
 20
-168.0760489832949
 30
0.0
 10
-135.9606646115135
 20
-167.6643764287193
 30
0.0
 10
-135.7830271258619
 20
-167.0832165004732
 30
0.0
 10
-135.5078907877052
 20
-166.5645451909738
 30
0.0
 10
-135.2373692772465
 20
-166.2952367318981
 30
0.0
 10
-135.1036914948105
 20
-166.1621583872248
 30
0.0
 11
-135.9914527737333
 21
-168.2870599604995
 31
0.0
 11
-135.9337044773848
 21
-167.6581602001162
 31
0.0
 11
-135.7622936652978
 21
-167.0825709180486
 31
0.0
 11
-135.4826628248589
 21
-166.5785691661078
 31
0.0
 11
-135.1036914948105
 21
-166.1621583872248
 31
0.0
  0
SPLINE
  5
E2
330
47
100
AcDbEntity
  8
0
  6
Continuous
 62
     7
100
AcDbSpline
210
0.0
220
0.0
230
1.0
 70
     8
 71
     3
 72
     9
 73
     5
 74
     3
 42
0.000000001
 43
0.0000000001
 44
0.00000001
 40
0.0
 40
0.0
 40
0.0
 40
0.0
 40
0.5745770341153233
 40
1.16329758136304
 40
1.16329758136304
 40
1.16329758136304
 40
1.16329758136304
 10
-135.1036914948105
 20
-166.1621583872248
 30
0.0
 10
-134.9499172259122
 20
-166.045267598799
 30
0.0
 10
-134.6385834442698
 20
-165.8086087112727
 30
0.0
 10
-134.2646018059237
 20
-165.6939348330644
 30
0.0
 10
-134.0753375256384
 20
-165.6359007936417
 30
0.0
 11
-135.1036914948105
 21
-166.1621583872248
 31
0.0
 11
-134.6270852435235
 21
-165.8412452358559
 31
0.0
 11
-134.0753375256384
 21
-165.6359007936417
 31
0.0
  0
SPLINE
  5
E3
330
47
100
AcDbEntity
  8
0
  6
Continuous
 62
     7
100
AcDbSpline
210
0.0
220
0.0
230
1.0
 70
     8
 71
     3
 72
     9
 73
     5
 74
     3
 42
0.000000001
 43
0.0000000001
 44
0.00000001
 40
0.0
 40
0.0
 40
0.0
 40
0.0
 40
0.5745770341153157
 40
1.163297581363022
 40
1.163297581363022
 40
1.163297581363022
 40
1.163297581363022
 10
-134.4036914947246
 20
-165.5559406045028
 30
0.0
 10
-134.2499172258263
 20
-165.439049816077
 30
0.0
 10
-133.9385834441838
 20
-165.2023909285506
 30
0.0
 10
-133.5646018058378
 20
-165.0877170503424
 30
0.0
 10
-133.3753375255525
 20
-165.0296830109197
 30
0.0
 11
-134.4036914947246
 21
-165.5559406045028
 31
0.0
 11
-133.9270852434376
 21
-165.2350274531339
 31
0.0
 11
-133.3753375255525
 21
-165.0296830109197
 31
0.0
  0
SPLINE
  5
E4
330
47
100
AcDbEntity
  8
0
  6
Continuous
 62
     7
100
AcDbSpline
210
0.0
220
0.0
230
1.0
 70
     8
 71
     3
 72
    11
 73
     7
 74
     5
 42
0.000000001
 43
0.0000000001
 44
0.00000001
 40
0.0
 40
0.0
 40
0.0
 40
0.0
 40
0.3007359728954062
 40
0.5867218291837941
 40
0.8611873651262344
 40
1.129302987307347
 40
1.129302987307347
 40
1.129302987307347
 40
1.129302987307347
 10
-184.3492330128805
 20
-183.5701623732752
 30
0.0
 10
-184.3542012456267
 20
-183.6706437909018
 30
0.0
 10
-184.36389405012
 20
-183.8666783394303
 30
0.0
 10
-184.448483325229
 20
-184.1434211624569
 30
0.0
 10
-184.5795006317654
 20
-184.3904074971463
 30
0.0
 10
-184.7083203923524
 20
-184.5186496251797
 30
0.0
 10
-184.7719764790302
 20
-184.5820202653054
 30
0.0
 11
-184.3492330128805
 21
-183.5701623732752
 31
0.0
 11
-184.3767322016177
 21
-183.8696384496461
 31
0.0
 11
-184.4583563978489
 21
-184.1437285839622
 31
0.0
 11
-184.5915139409137
 21
-184.3837294182186
 31
0.0
 11
-184.7719764790302
 21
-184.5820202653054
 31
0.0
  0
SPLINE
  5
E5
330
47
100
AcDbEntity
  8
0
  6
Continuous
 62
     7
100
AcDbSpline
210
0.0
220
0.0
230
1.0
 70
     8
 71
     3
 72
    15
 73
    11
 74
     9
 42
0.000000001
 43
0.0000000001
 44
0.00000001
 40
0.0
 40
0.0
 40
0.0
 40
0.0
 40
0.3493105228526808
 40
0.7122117163043606
 40
1.098224939703268
 40
1.510872873753267
 40
1.947918103825345
 40
2.40267721840547
 40
2.865629346109063
 40
3.326033933441809
 40
3.326033933441809
 40
3.326033933441809
 40
3.326033933441809
 10
-186.6405911618536
 20
-180.9087854283812
 30
0.0
 10
-186.5452132942208
 20
-180.8404140385743
 30
0.0
 10
-186.350746672546
 20
-180.7010111360472
 30
0.0
 10
-185.9872881433065
 20
-180.6124831354556
 30
0.0
 10
-185.5973522693805
 20
-180.6162656972312
 30
0.0
 10
-185.1944465009112
 20
-180.7181033227019
 30
0.0
 10
-184.8005452420985
 20
-180.9086643808655
 30
0.0
 10
-184.4365335860659
 20
-181.1791913124428
 30
0.0
 10
-184.1145226836178
 20
-181.5117257960036
 30
0.0
 10
-183.9536262449229
 20
-181.7750248290846
 30
0.0
 10
-183.8733999880176
 20
-181.9063111286329
 30
0.0
 11
-186.6405911618536
 21
-180.9087854283812
 31
0.0
 11
-186.34453715953
 21
-180.7233942945404
 31
0.0
 11
-185.9941020430451
 21
-180.6290941933908
 31
0.0
 11
-185.6080932638014
 21
-180.6309470981276
 31
0.0
 11
-185.207228174334
 21
-180.7288526590192
 31
0.0
 11
-184.8130211904634
 21
-180.9175571575286
 31
0.0
 11
-184.4466292634581
 21
-181.1869320047691
 31
0.0
 11
-184.1277170251429
 21
-181.5225205268713
 31
0.0
 11
-183.8733999880176
 21
-181.9063111286329
 31
0.0
  0
SPLINE
  5
E6
330
47
100
AcDbEntity
  8
0
  6
Continuous
 62
     7
100
AcDbSpline
210
0.0
220
0.0
230
1.0
 70
     8
 71
     3
 72
    17
 73
    13
 74
    11
 42
0.000000001
 43
0.0000000001
 44
0.00000001
 40
0.0
 40
0.0
 40
0.0
 40
0.0
 40
0.3653522826167049
 40
0.7461405152750078
 40
1.15280012059453
 40
1.588562857867649
 40
2.049955914039623
 40
2.528535877783868
 40
3.012912096494933
 40
3.490759028516428
 40
3.950806000011942
 40
4.38485294052404
 40
4.38485294052404
 40
4.38485294052404
 40
4.38485294052404
 10
-187.3905911618729
 20
-181.558304481241
 30
0.0
 10
-187.2904469982221
 20
-181.4871855561817
 30
0.0
 10
-187.0859276235343
 20
-181.3419429790455
 30
0.0
 10
-186.7018606424032
 20
-181.2568621771014
 30
0.0
 10
-186.2914060301629
 20
-181.2727828279014
 30
0.0
 10
-185.870055623859
 20
-181.3950710444635
 30
0.0
 10
-185.4630921792147
 20
-181.6126069869465
 30
0.0
 10
-185.0923138258835
 20
-181.9133859309158
 30
0.0
 10
-184.7776680052096
 20
-182.2800960800249
 30
0.0
 10
-184.5398070574562
 20
-182.692273678345
 30
0.0
 10
-184.3814525044005
 20
-183.1268241072564
 30
0.0
 10
-184.3597625928368
 20
-183.4252759191224
 30
0.0
 10
-184.3492330128805
 20
-183.5701623732752
 30
0.0
 11
-187.3905911618729
 21
-181.558304481241
 31
0.0
 11
-187.0795935351001
 21
-181.3665682807428
 31
0.0
 11
-186.7100389183312
 21
-181.2747583263483
 31
0.0
 11
-186.3036035433137
 21
-181.2882610172691
 31
0.0
 11
-185.8841277524848
 21
-181.4062831557588
 31
0.0
 11
-185.4762165045191
 21
-181.62190311474
 31
0.0
 11
-185.1037961670856
 21
-181.9224723651778
 31
0.0
 11
-184.7887121215668
 21
-182.2903614319888
 31
0.0
 11
-184.5494453368941
 21
-182.703990608555
 31
0.0
 11
-184.4000312865826
 21
-183.1390982468905
 31
0.0
 11
-184.3492330128805
 21
-183.5701623732752
 31
0.0
  0
SPLINE
  5
E7
330
47
100
AcDbEntity
  8
0
  6
Continuous
 62
     7
100
AcDbSpline
210
0.0
220
0.0
230
1.0
 70
     8
 71
     3
 72
    13
 73
     9
 74
     7
 42
0.000000001
 43
0.0000000001
 44
0.00000001
 40
0.0
 40
0.0
 40
0.0
 40
0.0
 40
0.3229120854156926
 40
0.6615040570986999
 40
1.021013069614251
 40
1.402476610837408
 40
1.803214835688886
 40
2.217737545580047
 40
2.217737545580047
 40
2.217737545580047
 40
2.217737545580047
 10
-168.1269277443085
 20
-164.8993201414136
 30
0.0
 10
-168.0295582508724
 20
-164.8519460007347
 30
0.0
 10
-167.830091214365
 20
-164.7548973507183
 30
0.0
 10
-167.4865647529101
 20
-164.7141054283878
 30
0.0
 10
-167.1263084232175
 20
-164.7479120544906
 30
0.0
 10
-166.7609895495028
 20
-164.8625844410184
 30
0.0
 10
-166.4036605142059
 20
-165.0460712959454
 30
0.0
 10
-166.1924901780498
 20
-165.2181117986683
 30
0.0
 10
-166.085119773418
 20
-165.3055864918239
 30
0.0
 11
-168.1269277443085
 21
-164.8993201414136
 31
0.0
 11
-167.8293147200739
 21
-164.7740256694588
 31
0.0
 11
-167.4940542428486
 21
-164.7266448897538
 31
0.0
 11
-167.1360297072162
 21
-164.7592817392128
 31
0.0
 11
-166.7711353883051
 21
-164.870486822426
 31
0.0
 11
-166.4155704514684
 21
-165.055323780059
 31
0.0
 11
-166.085119773418
 21
-165.3055864918239
 31
0.0
  0
SPLINE
  5
E8
330
47
100
AcDbEntity
  8
0
  6
Continuous
 62
     7
100
AcDbSpline
210
0.0
220
0.0
230
1.0
 70
     8
 71
     3
 72
    11
 73
     7
 74
     5
 42
0.000000001
 43
0.0000000001
 44
0.00000001
 40
0.0
 40
0.0
 40
0.0
 40
0.0
 40
0.4716197187555616
 40
0.9104101068595938
 40
1.318844888802659
 40
1.708740703813886
 40
1.708740703813886
 40
1.708740703813886
 40
1.708740703813886
 10
-183.688369742731
 20
-182.3464290072225
 30
0.0
 10
-183.6514722987046
 20
-182.5001599558504
 30
0.0
 10
-183.5802458467795
 20
-182.7969206825303
 30
0.0
 10
-183.6121121735849
 20
-183.2407417220422
 30
0.0
 10
-183.7479816550595
 20
-183.64091482407
 30
0.0
 10
-183.9320698428737
 20
-183.8368222173862
 30
0.0
 10
-184.0219764790109
 20
-183.9325012124457
 30
0.0
 11
-183.688369742731
 21
-182.3464290072225
 31
0.0
 11
-183.6026945612744
 21
-182.8102014972127
 31
0.0
 11
-183.6323134777832
 21
-183.2479910890903
 31
0.0
 11
-183.775252599968
 21
-183.6305971283429
 31
0.0
 11
-184.0219764790109
 21
-183.9325012124457
 31
0.0
  0
SPLINE
  5
E9
330
47
100
AcDbEntity
  8
0
  6
Continuous
 62
     7
100
AcDbSpline
210
0.0
220
0.0
230
1.0
 70
     8
 71
     3
 72
    17
 73
    13
 74
    11
 42
0.000000001
 43
0.0000000001
 44
0.00000001
 40
0.0
 40
0.0
 40
0.0
 40
0.0
 40
0.3793598555114926
 40
0.8230125942988487
 40
1.31561099878096
 40
1.834369244308001
 40
2.3531274902942
 40
2.845725896364773
 40
3.289378635575405
 40
3.668738486618243
 40
3.981929256683612
 40
4.249569921151502
 40
4.249569921151502
 40
4.249569921151502
 40
4.249569921151502
 10
-163.7141078444417
 20
-170.7053911330718
 30
0.0
 10
-163.6108342125564
 20
-170.6314906137139
 30
0.0
 10
-163.3867844061344
 20
-170.4711651255094
 30
0.0
 10
-162.9683184515643
 20
-170.3246879051995
 30
0.0
 10
-162.4928480353466
 20
-170.2265599835046
 30
0.0
 10
-161.981982699168
 20
-170.1944192531522
 30
0.0
 10
-161.4715558447553
 20
-170.2270031759651
 30
0.0
 10
-160.9948766020503
 20
-170.3230876618642
 30
0.0
 10
-160.5801890416821
 20
-170.4761892107816
 30
0.0
 10
-160.2596800968332
 20
-170.6778392694671
 30
0.0
 10
-160.0303693573035
 20
-170.9212967206381
 30
0.0
 10
-159.9972965908725
 20
-171.115776847933
 30
0.0
 10
-159.9820570330158
 20
-171.2053911297401
 30
0.0
 11
-163.7141078444417
 21
-170.7053911330718
 31
0.0
 11
-163.3962702232604
 21
-170.4982845395184
 31
0.0
 11
-162.9820570383599
 21
-170.3393657274903
 31
0.0
 11
-162.4996949904308
 21
-170.2394655616637
 31
0.0
 11
-161.9820570376434
 21
-170.2053911297336
 31
0.0
 11
-161.4644190845406
 21
-170.2394655604678
 31
0.0
 11
-160.9820570356869
 21
-170.33936572518
 31
0.0
 11
-160.5678438493155
 21
-170.4982845362511
 31
0.0
 11
-160.2500062262175
 21
-170.7053911290702
 31
0.0
 11
-160.0502058956796
 21
-170.9465721532668
 31
0.0
 11
-159.9820570330158
 21
-171.2053911297401
 31
0.0
  0
SPLINE
  5
EA
330
47
100
AcDbEntity
  8
0
  6
Continuous
 62
     7
100
AcDbSpline
210
0.0
220
0.0
230
1.0
 70
     8
 71
     3
 72
     9
 73
     5
 74
     3
 42
0.000000001
 43
0.0000000001
 44
0.00000001
 40
0.0
 40
0.0
 40
0.0
 40
0.0
 40
0.2676406687908561
 40
0.5808314332446527
 40
0.5808314332446527
 40
0.5808314332446527
 40
0.5808314332446527
 10
-163.9820570330158
 20
-171.205391129731
 30
0.0
 10
-163.9672196785064
 20
-171.1150697219883
 30
0.0
 10
-163.935019763618
 20
-170.919055001283
 30
0.0
 10
-163.7914969496661
 20
-170.7802411168371
 30
0.0
 10
-163.7141078444417
 20
-170.7053911330718
 30
0.0
 11
-163.9820570330158
 21
-171.205391129731
 31
0.0
 11
-163.9139081715492
 21
-170.9465721554941
 31
0.0
 11
-163.7141078444417
 21
-170.7053911330718
 31
0.0
  0
SPLINE
  5
EB
330
47
100
AcDbEntity
  8
0
  6
Continuous
 62
     7
100
AcDbSpline
210
0.0
220
0.0
230
1.0
 70
     8
 71
     3
 72
    19
 73
    15
 74
    13
 42
0.000000001
 43
0.0000000001
 44
0.00000001
 40
0.0
 40
0.0
 40
0.0
 40
0.0
 40
0.2676406686775653
 40
0.5808314346129109
 40
0.9601912858939888
 40
1.403844025771503
 40
1.89644243330612
 40
2.415200681655121
 40
2.933958930004135
 40
3.426557337538784
 40
3.870210077416243
 40
4.249569928697287
 40
4.562760694632652
 40
4.830401363310195
 40
4.830401363310195
 40
4.830401363310195
 40
4.830401363310195
 10
-159.9820570330158
 20
-171.2053911297401
 30
0.0
 10
-159.9972965794311
 20
-171.2950053924657
 30
0.0
 10
-160.0303693278201
 20
-171.4894854729503
 30
0.0
 10
-160.2596802888058
 20
-171.7329433347748
 30
0.0
 10
-160.5801880840023
 20
-171.9345913653578
 30
0.0
 10
-160.9948810309741
 20
-172.0877023878909
 30
0.0
 10
-161.471536969182
 20
-172.1837458970039
 30
0.0
 10
-161.9820570330182
 20
-172.2164936999875
 30
0.0
 10
-162.4925770968541
 20
-172.1837458970016
 30
0.0
 10
-162.9692330350616
 20
-172.0877023878865
 30
0.0
 10
-163.3839259820326
 20
-171.9345913653514
 30
0.0
 10
-163.7044337772283
 20
-171.732943334767
 30
0.0
 10
-163.9337447382128
 20
-171.4894854729415
 30
0.0
 10
-163.9668174866009
 20
-171.2950053924567
 30
0.0
 10
-163.9820570330158
 20
-171.205391129731
 30
0.0
 11
-159.9820570330158
 21
-171.2053911297401
 31
0.0
 11
-160.050205895481
 21
-171.4642101058403
 31
0.0
 11
-160.250006225448
 21
-171.7053911297405
 31
0.0
 11
-160.5678438476818
 21
-171.912497722408
 31
0.0
 11
-160.9820570330178
 21
-172.071416533524
 31
0.0
 11
-161.4644190808183
 21
-172.1713166985063
 31
0.0
 11
-161.9820570330181
 21
-172.2053911297375
 31
0.0
 11
-162.4996949852178
 21
-172.1713166985039
 31
0.0
 11
-162.9820570330178
 21
-172.0714165335194
 31
0.0
 11
-163.396270218353
 21
-171.9124977224016
 31
0.0
 11
-163.7141078405859
 21
-171.7053911297326
 31
0.0
 11
-163.9139081705517
 21
-171.4642101058315
 31
0.0
 11
-163.9820570330158
 21
-171.205391129731
 31
0.0
  0
SPLINE
  5
EC
330
47
100
AcDbEntity
  8
0
  6
Continuous
 62
     7
100
AcDbSpline
210
0.0
220
0.0
230
1.0
 70
     8
 71
     3
 72
    19
 73
    15
 74
    13
 42
0.000000001
 43
0.0000000001
 44
0.00000001
 40
0.0
 40
0.0
 40
0.0
 40
0.0
 40
0.3941644373874553
 40
0.807442566356741
 40
1.251886396918994
 40
1.729795108059181
 40
2.234897317659421
 40
2.755052536219641
 40
3.275207754779789
 40
3.780309964380076
 40
4.258218675520274
 40
4.702662506082535
 40
5.115940635051797
 40
5.510105072439318
 40
5.510105072439318
 40
5.510105072439318
 40
5.510105072439318
 10
-184.7719764790302
 20
-184.5820202653054
 30
0.0
 10
-184.8807749571274
 20
-184.6579792294819
 30
0.0
 10
-185.1036477398908
 20
-184.8135805231026
 30
0.0
 10
-185.5252641340732
 20
-184.8906326514687
 30
0.0
 10
-185.9721942079965
 20
-184.8504007729644
 30
0.0
 10
-186.4248641052131
 20
-184.6885133293724
 30
0.0
 10
-186.8521809073014
 20
-184.4204397779556
 30
0.0
 10
-187.2279453686985
 20
-184.063200403605
 30
0.0
 10
-187.5278400152672
 20
-183.6402558422323
 30
0.0
 10
-187.7321187642405
 20
-183.1790256708058
 30
0.0
 10
-187.8276786517323
 20
-182.707871886844
 30
0.0
 10
-187.8036507312625
 20
-182.2597784210772
 30
0.0
 10
-187.6671579885759
 20
-181.8534938588267
 30
0.0
 10
-187.4813136788827
 20
-181.6551357674167
 30
0.0
 10
-187.3905911618729
 20
-181.558304481241
 30
0.0
 11
-184.7719764790302
 21
-184.5820202653054
 31
0.0
 11
-185.1100635157158
 21
-184.7846597566605
 31
0.0
 11
-185.5143371109316
 21
-184.8704599677184
 31
0.0
 11
-185.9572474794793
 21
-184.833571945617
 31
0.0
 11
-186.4086106558004
 21
-184.6765113835641
 31
0.0
 11
-186.8376668806383
 21
-184.4099799637386
 31
0.0
 11
-187.2151772394764
 21
-184.0521428793398
 31
0.0
 11
-187.5154140516518
 21
-183.6273849404901
 31
0.0
 11
-187.7179179972218
 21
-183.1646534915319
 31
0.0
 11
-187.8088871853741
 21
-182.6954825803514
 31
0.0
 11
-187.7821239489964
 21
-182.2518452848946
 31
0.0
 11
-187.6394503926241
 21
-181.8639753681463
 31
0.0
 11
-187.3905911618729
 21
-181.558304481241
 31
0.0
  0
ENDBLK
  5
49
330
47
100
AcDbEntity
  8
0
100
AcDbBlockEnd
  0
BLOCK
  5
4C
330
4A
100
AcDbEntity
  8
0
100
AcDbBlockBegin
  2
Allg1
 70
     0
 10
-131.000000000018
 20
-205.99999999989
 30
0.0
  3
Allg1
  1

  0
INSERT
  5
4B
330
4A
100
AcDbEntity
  8
0
100
AcDbBlockReference
  2
HC-RBO_10_BU-select__1
 10
-187.9293600319726
 20
-256.792168472879
 30
0.0
  0
MTEXT
  5
EE
330
4A
100
AcDbEntity
  8
1
 62
     6
100
AcDbMText
 10
-131.0000000000181
 20
-263.0421679349204
 30
0.0
 40
5.0
 41
0.0
 71
     2
 72
     1
  1
 
  7
CONVERTER_11
 73
     1
 44
1.32052821128451
  0
ENDBLK
  5
4D
330
4A
100
AcDbEntity
  8
0
100
AcDbBlockEnd
  0
BLOCK
  5
4F
330
4E
100
AcDbEntity
  8
0
100
AcDbBlockBegin
  2
HC-RBO_10_BU-select__2
 70
     0
 10
-349.5499965115667
 20
-244.649997902213
 30
0.0
  3
HC-RBO_10_BU-select__2
  1

  0
LINE
  5
EF
330
4E
100
AcDbEntity
  8
1
  6
DOT_CENTER
 62
     2
100
AcDbLine
 10
-329.7499965113274
 20
-222.0499978943554
 30
0.0
 11
-329.7499965113274
 21
-226.4499978943554
 31
0.0
  0
LINE
  5
F0
330
4E
100
AcDbEntity
  8
1
  6
DOT_CENTER
 62
     2
100
AcDbLine
 10
-327.5499965113274
 20
-224.2499978943554
 30
0.0
 11
-331.9499965113274
 21
-224.2499978943554
 31
0.0
  0
LINE
  5
F1
330
4E
100
AcDbEntity
  8
1
  6
DOT_CENTER
 62
     2
100
AcDbLine
 10
-346.5499965113272
 20
-243.3499979020729
 30
0.0
 11
-346.5499965113272
 21
-241.8499979020191
 31
0.0
  0
LINE
  5
F2
330
4E
100
AcDbEntity
  8
1
  6
DOT_CENTER
 62
     2
100
AcDbLine
 10
-346.5499965114136
 20
-206.6499979021879
 30
0.0
 11
-346.5499965114136
 21
-205.149997902134
 31
0.0
  0
LINE
  5
F3
330
4E
100
AcDbEntity
  8
0
  6
Continuous
 62
     7
100
AcDbLine
 10
-292.1999591115077
 20
-211.9232322056473
 30
0.0
 11
-311.7499965113317
 21
-223.2107826675385
 31
0.0
  0
LINE
  5
F4
330
4E
100
AcDbEntity
  8
0
  6
Continuous
 62
     7
100
AcDbLine
 10
-338.3606566833059
 20
-244.649997902213
 30
0.0
 11
-338.3606566832609
 21
-203.8499979022382
 31
0.0
  0
LINE
  5
F5
330
4E
100
AcDbEntity
  8
0
  6
Continuous
 62
     7
100
AcDbLine
 10
-338.3606566833059
 20
-244.649997902213
 30
0.0
 11
-343.2499965113026
 21
-244.6499979020825
 31
0.0
  0
LINE
  5
F6
330
4E
100
AcDbEntity
  8
0
  6
Continuous
 62
     7
100
AcDbLine
 10
-311.7499965113238
 20
-225.289213151521
 30
0.0
 11
-292.1999591114141
 21
-236.5767636132636
 31
0.0
  0
LINE
  5
F7
330
4E
100
AcDbEntity
  8
0
  6
Continuous
 62
     7
100
AcDbLine
 10
-307.6874572028136
 20
-206.6499979059329
 30
0.0
 11
-303.7125358199431
 21
-206.6499979059367
 31
0.0
  0
LINE
  5
F8
330
4E
100
AcDbEntity
  8
0
  6
Continuous
 62
     7
100
AcDbLine
 10
-311.7499965113317
 20
-223.2107826675385
 30
0.0
 11
-311.7499965113238
 21
-225.289213151521
 31
0.0
  0
LINE
  5
F9
330
4E
100
AcDbEntity
  8
0
  6
Continuous
 62
     7
100
AcDbLine
 10
-303.7125358199431
 20
-206.6499979059367
 30
0.0
 11
-301.4999965113868
 21
-206.6499979059388
 31
0.0
  0
LINE
  5
FA
330
4E
100
AcDbEntity
  8
0
  6
Continuous
 62
     7
100
AcDbLine
 10
-309.8999965113868
 20
-206.6499979059307
 30
0.0
 11
-307.6874572028136
 21
-206.6499979059329
 31
0.0
  0
LINE
  5
FB
330
4E
100
AcDbEntity
  8
0
  6
Continuous
 62
     7
100
AcDbLine
 10
-338.3606566832609
 20
-203.8499979022382
 30
0.0
 11
-343.2499965113986
 21
-203.8499979022424
 31
0.0
  0
LINE
  5
FC
330
4E
100
AcDbEntity
  8
0
  6
Continuous
 62
     7
100
AcDbLine
 10
-343.2499965113919
 20
-206.6499979023047
 30
0.0
 11
-344.5499965114136
 21
-206.6499979021785
 31
0.0
  0
LINE
  5
FD
330
4E
100
AcDbEntity
  8
0
  6
Continuous
 62
     7
100
AcDbLine
 10
-344.5499965114136
 20
-206.6499979021785
 30
0.0
 11
-344.8606566832116
 21
-206.6499979023074
 31
0.0
  0
LINE
  5
FE
330
4E
100
AcDbEntity
  8
0
  6
Continuous
 62
     7
100
AcDbLine
 10
-344.5499965114136
 20
-206.6499979021785
 30
0.0
 11
-344.5499965114171
 21
-205.149997902134
 31
0.0
  0
LINE
  5
FF
330
4E
100
AcDbEntity
  8
0
  6
Continuous
 62
     7
100
AcDbLine
 10
-349.5499965115399
 20
-241.8499979020316
 30
0.0
 11
-349.5499965115667
 21
-206.6499979023127
 31
0.0
  0
LINE
  5
100
330
4E
100
AcDbEntity
  8
0
  6
Continuous
 62
     7
100
AcDbLine
 10
-348.5499965114136
 20
-206.6499979021879
 30
0.0
 11
-349.5499965115667
 21
-206.6499979023127
 31
0.0
  0
LINE
  5
101
330
4E
100
AcDbEntity
  8
0
  6
Continuous
 62
     7
100
AcDbLine
 10
-344.8606566832116
 20
-206.6499979023074
 30
0.0
 11
-344.8606566832181
 21
-241.8499979020224
 31
0.0
  0
LINE
  5
102
330
4E
100
AcDbEntity
  8
0
  6
Continuous
 62
     7
100
AcDbLine
 10
-347.7926371987961
 20
-206.6499979023097
 30
0.0
 11
-348.5499965114136
 21
-206.6499979021879
 31
0.0
  0
LINE
  5
103
330
4E
100
AcDbEntity
  8
0
  6
Continuous
 62
     7
100
AcDbLine
 10
-307.6874572028123
 20
-205.2499979057637
 30
0.0
 11
-303.7125358199418
 21
-205.2499979057675
 31
0.0
  0
LINE
  5
104
330
4E
100
AcDbEntity
  8
0
  6
Continuous
 62
     7
100
AcDbLine
 10
-309.8999965113854
 20
-205.2499979057615
 30
0.0
 11
-307.6874572028123
 21
-205.2499979057637
 31
0.0
  0
LINE
  5
105
330
4E
100
AcDbEntity
  8
0
  6
Continuous
 62
     7
100
AcDbLine
 10
-238.3999965116023
 20
-203.8499979021474
 30
0.0
 11
-243.39999651165
 21
-203.849997902152
 31
0.0
  0
LINE
  5
106
330
4E
100
AcDbEntity
  8
0
  6
Continuous
 62
     7
100
AcDbLine
 10
-243.39999651165
 20
-203.849997902152
 30
0.0
 11
-246.8999965115756
 21
-203.8499979021553
 31
0.0
  0
LINE
  5
107
330
4E
100
AcDbEntity
  8
0
  6
Continuous
 62
     7
100
AcDbLine
 10
-246.8999965115756
 20
-203.8499979021553
 30
0.0
 11
-338.3606566832609
 21
-203.8499979022382
 31
0.0
  0
LINE
  5
108
330
4E
100
AcDbEntity
  8
0
  6
Continuous
 62
     7
100
AcDbLine
 10
-301.4999965113868
 20
-206.6499979059388
 30
0.0
 11
-301.4999965113855
 21
-205.2499979057696
 31
0.0
  0
LINE
  5
109
330
4E
100
AcDbEntity
  8
0
  6
Continuous
 62
     7
100
AcDbLine
 10
-303.7125358199418
 20
-205.2499979057675
 30
0.0
 11
-301.4999965113855
 21
-205.2499979057696
 31
0.0
  0
LINE
  5
10A
330
4E
100
AcDbEntity
  8
0
  6
Continuous
 62
     7
100
AcDbLine
 10
-303.7125358199431
 20
-206.6499979059367
 30
0.0
 11
-303.7125358199418
 21
-205.2499979057675
 31
0.0
  0
LINE
  5
10B
330
4E
100
AcDbEntity
  8
0
  6
Continuous
 62
     7
100
AcDbLine
 10
-307.6874572028136
 20
-206.6499979059329
 30
0.0
 11
-307.6874572028123
 21
-205.2499979057637
 31
0.0
  0
LINE
  5
10C
330
4E
100
AcDbEntity
  8
0
  6
Continuous
 62
     7
100
AcDbLine
 10
-309.8999965113868
 20
-206.6499979059307
 30
0.0
 11
-309.8999965113854
 21
-205.2499979057615
 31
0.0
  0
LINE
  5
10D
330
4E
100
AcDbEntity
  8
0
  6
Continuous
 62
     7
100
AcDbLine
 10
-343.2499965113986
 20
-203.8499979022424
 30
0.0
 11
-343.2499965113919
 21
-206.6499979023047
 31
0.0
  0
LINE
  5
10E
330
4E
100
AcDbEntity
  8
0
  6
Continuous
 62
     7
100
AcDbLine
 10
-343.2499965113026
 20
-244.6499979020825
 30
0.0
 11
-343.2499965113468
 21
-241.8499979020203
 31
0.0
  0
LINE
  5
10F
330
4E
100
AcDbEntity
  8
0
  6
Continuous
 62
     7
100
AcDbLine
 10
-344.5499965113272
 20
-243.3499979020635
 30
0.0
 11
-344.5499965113307
 21
-241.8499979020191
 31
0.0
  0
LINE
  5
110
330
4E
100
AcDbEntity
  8
0
  6
Continuous
 62
     7
100
AcDbLine
 10
-348.5499965113272
 20
-243.3499979020729
 30
0.0
 11
-344.5499965113272
 21
-243.3499979020635
 31
0.0
  0
LINE
  5
111
330
4E
100
AcDbEntity
  8
0
  6
Continuous
 62
     7
100
AcDbLine
 10
-348.5499965113307
 20
-241.8499979020285
 30
0.0
 11
-349.5499965115399
 21
-241.8499979020316
 31
0.0
  0
LINE
  5
112
330
4E
100
AcDbEntity
  8
0
  6
Continuous
 62
     7
100
AcDbLine
 10
-344.8606566832181
 20
-241.8499979020224
 30
0.0
 11
-347.7926371988402
 21
-241.8499979020293
 31
0.0
  0
LINE
  5
113
330
4E
100
AcDbEntity
  8
0
  6
Continuous
 62
     7
100
AcDbLine
 10
-347.7926371988402
 20
-241.8499979020293
 30
0.0
 11
-348.5499965113307
 21
-241.8499979020285
 31
0.0
  0
LINE
  5
114
330
4E
100
AcDbEntity
  8
0
  6
Continuous
 62
     7
100
AcDbLine
 10
-348.5499965113272
 20
-243.3499979020729
 30
0.0
 11
-348.5499965113307
 21
-241.8499979020285
 31
0.0
  0
LINE
  5
115
330
4E
100
AcDbEntity
  8
0
  6
Continuous
 62
     7
100
AcDbLine
 10
-238.399996511514
 20
-244.6499979018511
 30
0.0
 11
-238.3999965116023
 21
-203.8499979021474
 31
0.0
  0
LINE
  5
116
330
4E
100
AcDbEntity
  8
0
  6
Continuous
 62
     7
100
AcDbLine
 10
-243.39999651165
 20
-203.849997902152
 30
0.0
 11
-243.399996511613
 21
-244.6499979018622
 31
0.0
  0
LINE
  5
117
330
4E
100
AcDbEntity
  8
0
  6
Continuous
 62
     7
100
AcDbLine
 10
-292.1999591114141
 20
-236.5767636132636
 30
0.0
 11
-290.3999393106557
 21
-235.5375369394578
 31
0.0
  0
LINE
  5
118
330
4E
100
AcDbEntity
  8
0
  6
Continuous
 62
     7
100
AcDbLine
 10
-246.8999965115907
 20
-244.64999790187
 30
0.0
 11
-246.8999965115756
 21
-203.8499979021553
 31
0.0
  0
LINE
  5
119
330
4E
100
AcDbEntity
  8
0
  6
Continuous
 62
     7
100
AcDbLine
 10
-290.3999393106557
 20
-235.5375369394578
 30
0.0
 11
-290.3999393107414
 21
-212.9624588794395
 31
0.0
  0
LINE
  5
11A
330
4E
100
AcDbEntity
  8
0
  6
Continuous
 62
     7
100
AcDbLine
 10
-290.3999393107414
 20
-212.9624588794395
 30
0.0
 11
-292.1999591115077
 21
-211.9232322056473
 31
0.0
  0
LINE
  5
11B
330
4E
100
AcDbEntity
  8
0
  6
Continuous
 62
     7
100
AcDbLine
 10
-243.399996511613
 20
-244.6499979018622
 30
0.0
 11
-238.399996511514
 21
-244.6499979018511
 31
0.0
  0
LINE
  5
11C
330
4E
100
AcDbEntity
  8
0
  6
Continuous
 62
     7
100
AcDbLine
 10
-246.8999965115907
 20
-244.64999790187
 30
0.0
 11
-243.399996511613
 21
-244.6499979018622
 31
0.0
  0
LINE
  5
11D
330
4E
100
AcDbEntity
  8
0
  6
Continuous
 62
     7
100
AcDbLine
 10
-338.3606566833059
 20
-244.649997902213
 30
0.0
 11
-246.8999965115907
 21
-244.64999790187
 31
0.0
  0
LINE
  5
11E
330
4E
100
AcDbEntity
  8
0
  6
Continuous
 62
     7
100
AcDbLine
 10
-344.5499965113307
 20
-241.8499979020191
 30
0.0
 11
-343.2499965113468
 21
-241.8499979020203
 31
0.0
  0
LINE
  5
11F
330
4E
100
AcDbEntity
  8
0
  6
Continuous
 62
     7
100
AcDbLine
 10
-344.8606566832181
 20
-241.8499979020224
 30
0.0
 11
-344.5499965113307
 21
-241.8499979020191
 31
0.0
  0
LINE
  5
120
330
4E
100
AcDbEntity
  8
0
  6
Continuous
 62
     7
100
AcDbLine
 10
-348.5499965114171
 20
-205.1499979021434
 30
0.0
 11
-344.5499965114171
 21
-205.149997902134
 31
0.0
  0
LINE
  5
121
330
4E
100
AcDbEntity
  8
0
  6
Continuous
 62
     7
100
AcDbLine
 10
-347.7926371988402
 20
-241.8499979020293
 30
0.0
 11
-347.7926371987961
 21
-206.6499979023097
 31
0.0
  0
LINE
  5
122
330
4E
100
AcDbEntity
  8
0
  6
Continuous
 62
     7
100
AcDbLine
 10
-347.7926371987961
 20
-206.6499979023097
 30
0.0
 11
-344.8606566832116
 21
-206.6499979023074
 31
0.0
  0
LINE
  5
123
330
4E
100
AcDbEntity
  8
0
  6
Continuous
 62
     7
100
AcDbLine
 10
-348.5499965114136
 20
-206.6499979021879
 30
0.0
 11
-348.5499965114171
 21
-205.1499979021434
 31
0.0
  0
CIRCLE
  5
124
330
4E
100
AcDbEntity
  8
0
  6
Continuous
 62
     7
100
AcDbCircle
 10
-329.7499965113274
 20
-224.2499978943554
 30
0.0
 40
2.0
  0
ENDBLK
  5
50
330
4E
100
AcDbEntity
  8
0
100
AcDbBlockEnd
  0
BLOCK
  5
53
330
51
100
AcDbEntity
  8
0
100
AcDbBlockBegin
  2
Drfsicht1
 70
     0
 10
-293.9749981165171
 20
-224.2499986888624
 30
0.0
  3
Drfsicht1
  1

  0
INSERT
  5
52
330
51
100
AcDbEntity
  8
0
100
AcDbBlockReference
  2
HC-RBO_10_BU-select__2
 10
-349.5499965115667
 20
-244.649997902213
 30
0.0
  0
MTEXT
  5
125
330
51
100
AcDbEntity
  8
1
 62
     6
100
AcDbMText
 10
-293.9749981165171
 20
-249.6499979497988
 30
0.0
 40
5.0
 41
0.0
 71
     2
 72
     1
  1
 
  7
CONVERTER_11
 73
     1
 44
1.32052821128451
  0
DIMENSION
  5
130
330
51
100
AcDbEntity
  8
1
100
AcDbDimension
  2
*D17
 10
-359.3416151768021
 20
-244.6499979020824
 30
0.0
 11
-363.2666151768021
 21
-223.8820159304459
 31
0.0
 70
    32
  1
<>
 71
     5
 42
-1.0
 53
90.0
  3
ME10_DIM_10
100
AcDbAlignedDimension
 13
-343.2499965113986
 23
-203.8499979022424
 33
0.0
 14
-343.2499965113026
 24
-244.6499979020825
 34
0.0
 50
90.0
100
AcDbRotatedDimension
  0
ENDBLK
  5
54
330
51
100
AcDbEntity
  8
0
100
AcDbBlockEnd
  0
BLOCK
  5
56
330
55
100
AcDbEntity
  8
0
100
AcDbBlockBegin
  2
HC-RBO_10_BU-select__3
 70
     0
 10
-163.600003488397
 20
-118.8499992788712
 30
0.0
  3
HC-RBO_10_BU-select__3
  1

  0
LINE
  5
131
330
55
100
AcDbEntity
  8
1
  6
DOT_CENTER
 62
     2
100
AcDbLine
 10
-55.45000348858099
 20
-61.94999927871442
 30
0.0
 11
-55.45000348858099
 21
-66.34999927871442
 31
0.0
  0
LINE
  5
132
330
55
100
AcDbEntity
  8
1
  6
DOT_CENTER
 62
     2
100
AcDbLine
 10
-53.25000348858099
 20
-64.14999927871442
 30
0.0
 11
-57.65000348858099
 21
-64.14999927871442
 31
0.0
  0
LINE
  5
133
330
55
100
AcDbEntity
  8
0
  6
Continuous
 62
     7
100
AcDbLine
 10
-158.600003488355
 20
-60.14999927890351
 30
0.0
 11
-163.600003488397
 21
-60.14999927889934
 31
0.0
  0
LINE
  5
134
330
55
100
AcDbEntity
  8
0
  6
Continuous
 62
     7
100
AcDbLine
 10
-58.75000348860618
 20
-60.03933910676484
 30
0.0
 11
-57.13934331678649
 21
-61.64999927857959
 31
0.0
  0
LINE
  5
135
330
55
100
AcDbEntity
  8
0
  6
Continuous
 62
     7
100
AcDbLine
 10
-54.20736280120201
 20
-61.64999927869329
 30
0.0
 11
-57.13934331678649
 21
-61.64999927857959
 31
0.0
  0
LINE
  5
136
330
55
100
AcDbEntity
  8
0
  6
Continuous
 62
     7
100
AcDbLine
 10
-58.75000348860249
 20
-61.64999927867002
 30
0.0
 11
-58.75000348860618
 21
-60.03933910676484
 31
0.0
  0
LINE
  5
137
330
55
100
AcDbEntity
  8
0
  6
Continuous
 62
     7
100
AcDbLine
 10
-163.600003488397
 20
-60.14999927889934
 30
0.0
 11
-163.6000034883958
 21
-58.64999927885292
 31
0.0
  0
LINE
  5
138
330
55
100
AcDbEntity
  8
0
  6
Continuous
 62
     7
100
AcDbLine
 10
-163.6000034883958
 20
-58.64999927885292
 30
0.0
 11
-158.6000034883481
 21
-58.6499992788453
 31
0.0
  0
LINE
  5
139
330
55
100
AcDbEntity
  8
0
  6
Continuous
 62
     7
100
AcDbLine
 10
-94.31254279718581
 20
-51.14999927898857
 30
0.0
 11
-98.28746418005639
 21
-51.14999927899767
 31
0.0
  0
LINE
  5
13A
330
55
100
AcDbEntity
  8
0
  6
Continuous
 62
     7
100
AcDbLine
 10
-92.10000348861229
 20
-55.14999927878253
 30
0.0
 11
-92.10000348861271
 21
-54.84999927898825
 31
0.0
  0
LINE
  5
13B
330
55
100
AcDbEntity
  8
0
  6
Continuous
 62
     7
100
AcDbLine
 10
-63.63934331673721
 20
-55.14999927864514
 30
0.0
 11
-58.75000348860618
 21
-60.03933910676484
 31
0.0
  0
LINE
  5
13C
330
55
100
AcDbEntity
  8
0
  6
Continuous
 62
     7
100
AcDbLine
 10
-58.75000348860249
 20
-61.64999927867002
 30
0.0
 11
-58.75000348858998
 21
-66.64999927875273
 31
0.0
  0
LINE
  5
13D
330
55
100
AcDbEntity
  8
0
  6
Continuous
 62
     7
100
AcDbLine
 10
-100.5000034886127
 20
-54.8499992789979
 30
0.0
 11
-100.5000034886123
 21
-55.14999927879529
 31
0.0
  0
LINE
  5
13E
330
55
100
AcDbEntity
  8
0
  6
Continuous
 62
     7
100
AcDbLine
 10
-94.3000034886127
 20
-54.84999927898851
 30
0.0
 11
-98.3000034886127
 21
-54.84999927899763
 31
0.0
  0
LINE
  5
13F
330
55
100
AcDbEntity
  8
0
  6
Continuous
 62
     7
100
AcDbLine
 10
-158.600003488404
 20
-118.8499992788712
 30
0.0
 11
-158.600003488355
 21
-60.14999927890351
 31
0.0
  0
LINE
  5
140
330
55
100
AcDbEntity
  8
0
  6
Continuous
 62
     7
100
AcDbLine
 10
-100.6727292349427
 20
-61.64999927881051
 30
0.0
 11
-106.6601581692756
 21
-71.9996207542935
 31
0.0
  0
LINE
  5
141
330
55
100
AcDbEntity
  8
0
  6
Continuous
 62
     7
100
AcDbLine
 10
-52.45000348842729
 20
-66.14999927884334
 30
0.0
 11
-53.31602889205442
 21
-66.64999927875473
 31
0.0
  0
LINE
  5
142
330
55
100
AcDbEntity
  8
0
  6
Continuous
 62
     7
100
AcDbLine
 10
-103.5653127697126
 20
-66.64999927871337
 30
0.0
 11
-104.81271119586
 21
-66.64999927871233
 31
0.0
  0
LINE
  5
143
330
55
100
AcDbEntity
  8
0
  6
Continuous
 62
     7
100
AcDbLine
 10
-58.75000348858998
 20
-66.64999927875273
 30
0.0
 11
-92.1000034885997
 21
-66.64999927872296
 31
0.0
  0
LINE
  5
144
330
55
100
AcDbEntity
  8
0
  6
Continuous
 62
     7
100
AcDbLine
 10
-54.20736280120201
 20
-61.64999927869329
 30
0.0
 11
-52.45000348843138
 21
-63.40735859145714
 31
0.0
  0
LINE
  5
145
330
55
100
AcDbEntity
  8
0
  6
Continuous
 62
     7
100
AcDbLine
 10
-52.45000348843138
 20
-63.40735859145714
 30
0.0
 11
-52.45000348842729
 21
-66.14999927884334
 31
0.0
  0
LINE
  5
146
330
55
100
AcDbEntity
  8
0
  6
Continuous
 62
     7
100
AcDbLine
 10
-92.10000348859299
 20
-72.49999942251513
 30
0.0
 11
-92.1000034886055
 21
-61.64999927878041
 31
0.0
  0
LINE
  5
147
330
55
100
AcDbEntity
  8
0
  6
Continuous
 62
     7
100
AcDbLine
 10
-107.8500036357283
 20
-71.91074410204232
 30
0.0
 11
-101.9259598500447
 21
-61.64999927891063
 31
0.0
  0
LINE
  5
148
330
55
100
AcDbEntity
  8
0
  6
Continuous
 62
     7
100
AcDbLine
 10
-106.6601581692756
 20
-71.9996207542935
 30
0.0
 11
-106.3715560197862
 21
-72.4999994225141
 31
0.0
  0
LINE
  5
149
330
55
100
AcDbEntity
  8
0
  6
Continuous
 62
     7
100
AcDbLine
 10
-107.8500036354088
 20
-114.5772052318481
 30
0.0
 11
-107.8500036357283
 21
-71.91074410204232
 31
0.0
  0
LINE
  5
14A
330
55
100
AcDbEntity
  8
0
  6
Continuous
 62
     7
100
AcDbLine
 10
-106.3715560197862
 20
-72.4999994225141
 30
0.0
 11
-92.10000348859299
 21
-72.49999942251513
 31
0.0
  0
LINE
  5
14B
330
55
100
AcDbEntity
  8
0
  6
Continuous
 62
     7
100
AcDbLine
 10
-53.31602889205442
 20
-66.64999927875473
 30
0.0
 11
-58.75000348858998
 21
-66.64999927875273
 31
0.0
  0
LINE
  5
14C
330
55
100
AcDbEntity
  8
0
  6
Continuous
 62
     7
100
AcDbLine
 10
-158.6000034883481
 20
-58.6499992788453
 30
0.0
 11
-155.1000034884225
 21
-55.14999927887831
 31
0.0
  0
LINE
  5
14D
330
55
100
AcDbEntity
  8
0
  6
Continuous
 62
     7
100
AcDbLine
 10
-155.1000034884225
 20
-55.14999927887831
 30
0.0
 11
-100.5000034886123
 21
-55.14999927879529
 31
0.0
  0
LINE
  5
14E
330
55
100
AcDbEntity
  8
0
  6
Continuous
 62
     7
100
AcDbLine
 10
-92.1000034886055
 20
-61.64999927878041
 30
0.0
 11
-58.75000348860249
 21
-61.64999927867002
 31
0.0
  0
LINE
  5
14F
330
55
100
AcDbEntity
  8
0
  6
Continuous
 62
     7
100
AcDbLine
 10
-100.6727292349427
 20
-61.64999927881051
 30
0.0
 11
-92.1000034886055
 21
-61.64999927878041
 31
0.0
  0
LINE
  5
150
330
55
100
AcDbEntity
  8
0
  6
Continuous
 62
     7
100
AcDbLine
 10
-101.9259598500447
 20
-61.64999927891063
 30
0.0
 11
-100.6727292349427
 21
-61.64999927881051
 31
0.0
  0
LINE
  5
151
330
55
100
AcDbEntity
  8
0
  6
Continuous
 62
     7
100
AcDbLine
 10
-92.10000348861229
 20
-55.14999927878253
 30
0.0
 11
-63.63934331673721
 21
-55.14999927864514
 31
0.0
  0
LINE
  5
152
330
55
100
AcDbEntity
  8
0
  6
Continuous
 62
     7
100
AcDbLine
 10
-100.5000034886123
 20
-55.14999927879529
 30
0.0
 11
-92.10000348861229
 21
-55.14999927878253
 31
0.0
  0
LINE
  5
153
330
55
100
AcDbEntity
  8
0
  6
Continuous
 62
     7
100
AcDbLine
 10
-107.8500036354088
 20
-114.5772052318481
 30
0.0
 11
-119.5894087974511
 21
-118.8499992788046
 31
0.0
  0
LINE
  5
154
330
55
100
AcDbEntity
  8
0
  6
Continuous
 62
     7
100
AcDbLine
 10
-158.600003488404
 20
-118.8499992788712
 30
0.0
 11
-119.5894087974511
 21
-118.8499992788046
 31
0.0
  0
ARC
  5
155
330
55
100
AcDbEntity
  8
0
  6
Continuous
 62
     7
100
AcDbCircle
 10
-96.3000034886127
 20
-54.84999927899307
 30
0.0
 40
4.199999999999972
100
AcDbArc
 50
118.2425371845667
 51
180.0000000000659
  0
ARC
  5
156
330
55
100
AcDbEntity
  8
0
  6
Continuous
 62
     7
100
AcDbCircle
 10
-96.3000034886127
 20
-54.84999927899307
 30
0.0
 40
4.199999999999989
100
AcDbArc
 50
0.00000000006572
 51
61.75746281569391
  0
ARC
  5
157
330
55
100
AcDbEntity
  8
0
  6
Continuous
 62
     7
100
AcDbCircle
 10
-96.3000034886127
 20
-54.84999927899307
 30
0.0
 40
2.0
100
AcDbArc
 50
0.00000000013048
 51
180.0000000001307
  0
CIRCLE
  5
158
330
55
100
AcDbEntity
  8
0
  6
Continuous
 62
     7
100
AcDbCircle
 10
-55.45000348858099
 20
-64.14999927871442
 30
0.0
 40
2.0
  0
ENDBLK
  5
57
330
55
100
AcDbEntity
  8
0
100
AcDbBlockEnd
  0
BLOCK
  5
5A
330
58
100
AcDbEntity
  8
0
100
AcDbBlockBegin
  2
Rckans1
 70
     0
 10
-108.025001883481
 20
-84.99999999980953
 30
0.0
  3
Rckans1
  1

  0
INSERT
  5
59
330
58
100
AcDbEntity
  8
0
100
AcDbBlockReference
  2
HC-RBO_10_BU-select__3
 10
-163.600003488397
 20
-118.8499992788712
 30
0.0
  0
MTEXT
  5
159
330
58
100
AcDbEntity
  8
1
 62
     6
100
AcDbMText
 10
-108.0250018834809
 20
-123.8499994276335
 30
0.0
 40
5.0
 41
0.0
 71
     2
 72
     1
  1
 
  7
CONVERTER_11
 73
     1
 44
1.32052821128451
  0
ENDBLK
  5
5B
330
58
100
AcDbEntity
  8
0
100
AcDbBlockEnd
  0
BLOCK
  5
5D
330
5C
100
AcDbEntity
  8
0
100
AcDbBlockBegin
  2
HC-RBO_10_BU-select__4
 70
     0
 10
-222.4000007865778
 20
-118.8499992789081
 30
0.0
  3
HC-RBO_10_BU-select__4
  1

  0
LINE
  5
15A
330
5C
100
AcDbEntity
  8
1
  6
DOT_CENTER
 62
     2
100
AcDbLine
 10
-182.900000786692
 20
-64.14999927875073
 30
0.0
 11
-184.4000007867406
 21
-64.14999927875073
 31
0.0
  0
LINE
  5
15B
330
5C
100
AcDbEntity
  8
1
  6
DOT_CENTER
 62
     2
100
AcDbLine
 10
-219.6000007865771
 20
-64.14999927871294
 30
0.0
 11
-221.1000007866255
 21
-64.14999927871294
 31
0.0
  0
LINE
  5
15C
330
5C
100
AcDbEntity
  8
0
  6
Continuous
 62
     7
100
AcDbLine
 10
-186.5000007869698
 20
-116.8427292436517
 30
0.0
 11
-184.4927032358689
 21
-118.8499992789066
 31
0.0
  0
LINE
  5
15D
330
5C
100
AcDbEntity
  8
0
  6
Continuous
 62
     7
100
AcDbLine
 10
-183.0000007903917
 20
-101.3011498510358
 30
0.0
 11
-183.0000007903448
 21
-71.91074410204232
 31
0.0
  0
LINE
  5
15E
330
5C
100
AcDbEntity
  8
0
  6
Continuous
 62
     7
100
AcDbLine
 10
-181.6000007865773
 20
-71.91074410176394
 30
0.0
 11
-181.6000007867895
 21
-114.5772052318481
 31
0.0
  0
LINE
  5
15F
330
5C
100
AcDbEntity
  8
0
  6
Continuous
 62
     7
100
AcDbLine
 10
-185.0000007866815
 20
-101.3011498509957
 30
0.0
 11
-185.0000007867446
 21
-81.30114985099573
 31
0.0
  0
LINE
  5
160
330
5C
100
AcDbEntity
  8
0
  6
Continuous
 62
     7
100
AcDbLine
 10
-184.4000007867406
 20
-66.14999927874918
 30
0.0
 11
-184.4000007867307
 21
-63.40735859142338
 31
0.0
  0
LINE
  5
161
330
5C
100
AcDbEntity
  8
0
  6
Continuous
 62
     7
100
AcDbLine
 10
-182.900000786692
 20
-62.14999927875073
 30
0.0
 11
-184.4000007867365
 21
-62.14999927874918
 31
0.0
  0
LINE
  5
162
330
5C
100
AcDbEntity
  8
0
  6
Continuous
 62
     7
100
AcDbLine
 10
-183.0000007904175
 20
-62.14999927875063
 30
0.0
 11
-183.0000007903252
 21
-61.64999927891063
 31
0.0
  0
LINE
  5
163
330
5C
100
AcDbEntity
  8
0
  6
Continuous
 62
     7
100
AcDbLine
 10
-181.6000007866798
 20
-60.03933910672288
 30
0.0
 11
-184.4000007867421
 21
-60.03933910676355
 31
0.0
  0
LINE
  5
164
330
5C
100
AcDbEntity
  8
0
  6
Continuous
 62
     7
100
AcDbLine
 10
-186.5000007869698
 20
-116.8427292436517
 30
0.0
 11
-186.5000007869538
 21
-101.3011498510293
 31
0.0
  0
LINE
  5
165
330
5C
100
AcDbEntity
  8
0
  6
Continuous
 62
     7
100
AcDbLine
 10
-185.0000007867446
 20
-81.30114985099573
 30
0.0
 11
-185.0000007867709
 21
-66.64999927869721
 31
0.0
  0
LINE
  5
166
330
5C
100
AcDbEntity
  8
0
  6
Continuous
 62
     7
100
AcDbLine
 10
-184.4000007867361
 20
-66.64999927872097
 30
0.0
 11
-185.0000007867709
 21
-66.64999927869721
 31
0.0
  0
LINE
  5
167
330
5C
100
AcDbEntity
  8
0
  6
Continuous
 62
     7
100
AcDbLine
 10
-184.4000007867406
 20
-66.14999927874918
 30
0.0
 11
-184.4000007867361
 21
-66.64999927872097
 31
0.0
  0
LINE
  5
168
330
5C
100
AcDbEntity
  8
0
  6
Continuous
 62
     7
100
AcDbLine
 10
-184.4000007867365
 20
-62.14999927874918
 30
0.0
 11
-184.4000007867307
 21
-63.40735859142338
 31
0.0
  0
LINE
  5
169
330
5C
100
AcDbEntity
  8
0
  6
Continuous
 62
     7
100
AcDbLine
 10
-184.4000007867399
 20
-61.64999927863003
 30
0.0
 11
-184.4000007867365
 21
-62.14999927874918
 31
0.0
  0
LINE
  5
16A
330
5C
100
AcDbEntity
  8
0
  6
Continuous
 62
     7
100
AcDbLine
 10
-183.0000007903448
 20
-71.91074410204232
 30
0.0
 11
-183.0000007904217
 21
-66.14999927875063
 31
0.0
  0
LINE
  5
16B
330
5C
100
AcDbEntity
  8
0
  6
Continuous
 62
     7
100
AcDbLine
 10
-183.0000007903448
 20
-71.91074410204232
 30
0.0
 11
-181.6000007865773
 21
-71.91074410176394
 31
0.0
  0
LINE
  5
16C
330
5C
100
AcDbEntity
  8
0
  6
Continuous
 62
     7
100
AcDbLine
 10
-181.6000007865773
 20
-71.91074410176394
 30
0.0
 11
-181.6000007865466
 21
-61.64999927865615
 31
0.0
  0
LINE
  5
16D
330
5C
100
AcDbEntity
  8
0
  6
Continuous
 62
     7
100
AcDbLine
 10
-183.0000007903898
 20
-114.5772052318481
 30
0.0
 11
-183.0000007903917
 21
-101.3011498510358
 31
0.0
  0
LINE
  5
16E
330
5C
100
AcDbEntity
  8
0
  6
Continuous
 62
     7
100
AcDbLine
 10
-183.0000007903898
 20
-114.5772052318481
 30
0.0
 11
-181.6000007867895
 21
-114.5772052318481
 31
0.0
  0
LINE
  5
16F
330
5C
100
AcDbEntity
  8
0
  6
Continuous
 62
     7
100
AcDbLine
 10
-185.0000007866815
 20
-101.3011498509957
 30
0.0
 11
-183.0000007903917
 21
-101.3011498510358
 31
0.0
  0
LINE
  5
170
330
5C
100
AcDbEntity
  8
0
  6
Continuous
 62
     7
100
AcDbLine
 10
-185.0000007866815
 20
-101.3011498509957
 30
0.0
 11
-186.5000007869538
 21
-101.3011498510293
 31
0.0
  0
LINE
  5
171
330
5C
100
AcDbEntity
  8
0
  6
Continuous
 62
     7
100
AcDbLine
 10
-186.5000007869538
 20
-101.3011498510293
 30
0.0
 11
-186.5000007868015
 21
-81.30114985099722
 31
0.0
  0
LINE
  5
172
330
5C
100
AcDbEntity
  8
0
  6
Continuous
 62
     7
100
AcDbLine
 10
-186.5000007868015
 20
-81.30114985099722
 30
0.0
 11
-185.0000007867446
 21
-81.30114985099573
 31
0.0
  0
LINE
  5
173
330
5C
100
AcDbEntity
  8
0
  6
Continuous
 62
     7
100
AcDbLine
 10
-186.5000007868015
 20
-81.30114985099722
 30
0.0
 11
-186.5000007867604
 21
-66.64999927869869
 31
0.0
  0
LINE
  5
174
330
5C
100
AcDbEntity
  8
0
  6
Continuous
 62
     7
100
AcDbLine
 10
-185.0000007867709
 20
-66.64999927869721
 30
0.0
 11
-186.5000007867604
 21
-66.64999927869869
 31
0.0
  0
LINE
  5
175
330
5C
100
AcDbEntity
  8
0
  6
Continuous
 62
     7
100
AcDbLine
 10
-181.6000007865466
 20
-61.64999927865615
 30
0.0
 11
-183.0000007903252
 21
-61.64999927891063
 31
0.0
  0
LINE
  5
176
330
5C
100
AcDbEntity
  8
0
  6
Continuous
 62
     7
100
AcDbLine
 10
-183.0000007903898
 20
-114.5772052318481
 30
0.0
 11
-183.0000007904677
 21
-118.8499992789081
 31
0.0
  0
LINE
  5
177
330
5C
100
AcDbEntity
  8
0
  6
Continuous
 62
     7
100
AcDbLine
 10
-181.6000007865493
 20
-55.14999927874111
 30
0.0
 11
-181.6000007866798
 21
-60.03933910672288
 31
0.0
  0
LINE
  5
178
330
5C
100
AcDbEntity
  8
0
  6
Continuous
 62
     7
100
AcDbLine
 10
-184.4000007867399
 20
-61.64999927863003
 30
0.0
 11
-184.4000007867421
 21
-60.03933910676355
 31
0.0
  0
LINE
  5
179
330
5C
100
AcDbEntity
  8
0
  6
Continuous
 62
     7
100
AcDbLine
 10
-182.9000007866961
 20
-66.14999927875073
 30
0.0
 11
-182.900000786692
 21
-62.14999927875073
 31
0.0
  0
LINE
  5
17A
330
5C
100
AcDbEntity
  8
0
  6
Continuous
 62
     7
100
AcDbLine
 10
-183.0000007903252
 20
-61.64999927891063
 30
0.0
 11
-184.4000007867399
 21
-61.64999927863003
 31
0.0
  0
LINE
  5
17B
330
5C
100
AcDbEntity
  8
0
  6
Continuous
 62
     7
100
AcDbLine
 10
-183.0000007904677
 20
-118.8499992789081
 30
0.0
 11
-184.4927032358689
 21
-118.8499992789066
 31
0.0
  0
LINE
  5
17C
330
5C
100
AcDbEntity
  8
0
  6
Continuous
 62
     7
100
AcDbLine
 10
-181.6000007867895
 20
-114.5772052318481
 30
0.0
 11
-181.6000007868155
 21
-118.8499992788143
 31
0.0
  0
LINE
  5
17D
330
5C
100
AcDbEntity
  8
0
  6
Continuous
 62
     7
100
AcDbLine
 10
-183.0000007904677
 20
-118.8499992789081
 30
0.0
 11
-181.6000007868155
 21
-118.8499992788143
 31
0.0
  0
LINE
  5
17E
330
5C
100
AcDbEntity
  8
0
  6
Continuous
 62
     7
100
AcDbLine
 10
-181.6000007865466
 20
-61.64999927865615
 30
0.0
 11
-181.6000007866798
 21
-60.03933910672288
 31
0.0
  0
LINE
  5
17F
330
5C
100
AcDbEntity
  8
0
  6
Continuous
 62
     7
100
AcDbLine
 10
-222.4000007865199
 20
-61.64999927866104
 30
0.0
 11
-222.4000007865649
 21
-71.91074410165058
 31
0.0
  0
LINE
  5
180
330
5C
100
AcDbEntity
  8
0
  6
Continuous
 62
     7
100
AcDbLine
 10
-222.4000007865241
 20
-55.14999927864514
 30
0.0
 11
-222.4000007865199
 21
-60.03933910676794
 31
0.0
  0
LINE
  5
181
330
5C
100
AcDbEntity
  8
0
  6
Continuous
 62
     7
100
AcDbLine
 10
-219.9000007828315
 20
-72.49999942251516
 30
0.0
 11
-221.7000007830013
 21
-72.49999942251513
 31
0.0
  0
LINE
  5
182
330
5C
100
AcDbEntity
  8
0
  6
Continuous
 62
     7
100
AcDbLine
 10
-222.4000007865199
 20
-60.03933910676794
 30
0.0
 11
-219.6000007864576
 21
-60.03933910676484
 31
0.0
  0
LINE
  5
183
330
5C
100
AcDbEntity
  8
0
  6
Continuous
 62
     7
100
AcDbLine
 10
-219.6000007864496
 20
-63.40735859145713
 30
0.0
 11
-219.6000007865771
 21
-66.14999927871294
 31
0.0
  0
LINE
  5
184
330
5C
100
AcDbEntity
  8
0
  6
Continuous
 62
     7
100
AcDbLine
 10
-222.4000007865649
 20
-71.91074410165058
 30
0.0
 11
-221.7000007830013
 21
-71.91074410169367
 31
0.0
  0
LINE
  5
185
330
5C
100
AcDbEntity
  8
0
  6
Continuous
 62
     7
100
AcDbLine
 10
-219.6000007865771
 20
-66.14999927871294
 30
0.0
 11
-221.1000007866216
 21
-66.1499992787144
 31
0.0
  0
LINE
  5
186
330
5C
100
AcDbEntity
  8
0
  6
Continuous
 62
     7
100
AcDbLine
 10
-219.6000007865771
 20
-66.14999927871294
 30
0.0
 11
-219.6000007864471
 21
-66.64999927875473
 31
0.0
  0
LINE
  5
187
330
5C
100
AcDbEntity
  8
0
  6
Continuous
 62
     7
100
AcDbLine
 10
-222.4000007865199
 20
-61.64999927866104
 30
0.0
 11
-222.4000007865199
 21
-60.03933910676794
 31
0.0
  0
LINE
  5
188
330
5C
100
AcDbEntity
  8
0
  6
Continuous
 62
     7
100
AcDbLine
 10
-219.9000007828312
 20
-62.14999927871322
 30
0.0
 11
-219.9000007828312
 21
-61.64999927866906
 31
0.0
  0
LINE
  5
189
330
5C
100
AcDbEntity
  8
0
  6
Continuous
 62
     7
100
AcDbLine
 10
-219.6000007864576
 20
-60.03933910676484
 30
0.0
 11
-219.6000007864561
 21
-61.64999927867001
 31
0.0
  0
LINE
  5
18A
330
5C
100
AcDbEntity
  8
0
  6
Continuous
 62
     7
100
AcDbLine
 10
-219.6000007865811
 20
-62.14999927871294
 30
0.0
 11
-219.6000007864496
 21
-63.40735859145713
 31
0.0
  0
LINE
  5
18B
330
5C
100
AcDbEntity
  8
0
  6
Continuous
 62
     7
100
AcDbLine
 10
-219.6000007864561
 20
-61.64999927867001
 30
0.0
 11
-219.6000007865811
 21
-62.14999927871294
 31
0.0
  0
LINE
  5
18C
330
5C
100
AcDbEntity
  8
0
  6
Continuous
 62
     7
100
AcDbLine
 10
-221.700000783001
 20
-61.64999927878041
 30
0.0
 11
-219.6000007864561
 21
-61.64999927867001
 31
0.0
  0
LINE
  5
18D
330
5C
100
AcDbEntity
  8
0
  6
Continuous
 62
     7
100
AcDbLine
 10
-222.4000007865199
 20
-61.64999927866104
 30
0.0
 11
-221.700000783001
 21
-61.64999927878041
 31
0.0
  0
LINE
  5
18E
330
5C
100
AcDbEntity
  8
0
  6
Continuous
 62
     7
100
AcDbLine
 10
-219.6000007828316
 20
-54.84999927898828
 30
0.0
 11
-219.6000007828317
 21
-55.14999927878259
 31
0.0
  0
LINE
  5
18F
330
5C
100
AcDbEntity
  8
0
  6
Continuous
 62
     7
100
AcDbLine
 10
-221.0000007830008
 20
-55.14999927878253
 30
0.0
 11
-221.0000007830008
 21
-54.84999927898825
 31
0.0
  0
LINE
  5
190
330
5C
100
AcDbEntity
  8
0
  6
Continuous
 62
     2
100
AcDbLine
 10
-219.6000007828316
 20
-54.84999927898828
 30
0.0
 11
-221.0000007830008
 21
-54.84999927898825
 31
0.0
  0
LINE
  5
191
330
5C
100
AcDbEntity
  8
0
  6
Continuous
 62
     7
100
AcDbLine
 10
-221.0000007830008
 20
-54.84999927898825
 30
0.0
 11
-221.0000007829986
 21
-51.14999927898857
 31
0.0
  0
LINE
  5
192
330
5C
100
AcDbEntity
  8
0
  6
Continuous
 62
     7
100
AcDbLine
 10
-219.6000007828316
 20
-54.84999927898828
 30
0.0
 11
-219.6000007828294
 21
-51.14999927898859
 31
0.0
  0
LINE
  5
193
330
5C
100
AcDbEntity
  8
0
  6
Continuous
 62
     7
100
AcDbLine
 10
-219.6000007828294
 20
-51.14999927898859
 30
0.0
 11
-221.0000007829986
 21
-51.14999927898857
 31
0.0
  0
LINE
  5
194
330
5C
100
AcDbEntity
  8
0
  6
Continuous
 62
     7
100
AcDbLine
 10
-219.5072983373184
 20
-118.8499992788703
 30
0.0
 11
-221.0000007829816
 21
-118.8499992788406
 31
0.0
  0
LINE
  5
195
330
5C
100
AcDbEntity
  8
0
  6
Continuous
 62
     7
100
AcDbLine
 10
-222.4000007865778
 20
-118.8499992788403
 30
0.0
 11
-221.0000007829816
 21
-118.8499992788406
 31
0.0
  0
LINE
  5
196
330
5C
100
AcDbEntity
  8
0
  6
Continuous
 62
     7
100
AcDbLine
 10
-222.400000786567
 20
-114.5772052318004
 30
0.0
 11
-222.4000007865778
 21
-118.8499992788403
 31
0.0
  0
LINE
  5
197
330
5C
100
AcDbEntity
  8
0
  6
Continuous
 62
     7
100
AcDbLine
 10
-221.0000007829816
 20
-118.8499992788406
 30
0.0
 11
-221.0000007829667
 21
-114.5772052318085
 31
0.0
  0
LINE
  5
198
330
5C
100
AcDbEntity
  8
0
  6
Continuous
 62
     7
100
AcDbLine
 10
-222.400000786567
 20
-114.5772052318004
 30
0.0
 11
-221.0000007829667
 21
-114.5772052318085
 31
0.0
  0
LINE
  5
199
330
5C
100
AcDbEntity
  8
0
  6
Continuous
 62
     7
100
AcDbLine
 10
-221.0000007829971
 20
-101.3011498510042
 30
0.0
 11
-219.0000007866771
 21
-101.3011498509979
 31
0.0
  0
LINE
  5
19A
330
5C
100
AcDbEntity
  8
0
  6
Continuous
 62
     7
100
AcDbLine
 10
-222.400000786567
 20
-114.5772052318004
 30
0.0
 11
-222.4000007865649
 21
-71.91074410165058
 31
0.0
  0
LINE
  5
19B
330
5C
100
AcDbEntity
  8
0
  6
Continuous
 62
     7
100
AcDbLine
 10
-221.0000007829971
 20
-101.3011498510042
 30
0.0
 11
-221.0000007830081
 21
-72.49999942251515
 31
0.0
  0
LINE
  5
19C
330
5C
100
AcDbEntity
  8
0
  6
Continuous
 62
     7
100
AcDbLine
 10
-221.0000007829667
 20
-114.5772052318085
 30
0.0
 11
-221.0000007829971
 21
-101.3011498510042
 31
0.0
  0
LINE
  5
19D
330
5C
100
AcDbEntity
  8
0
  6
Continuous
 62
     7
100
AcDbLine
 10
-221.1000007866216
 20
-66.1499992787144
 30
0.0
 11
-221.1000007866255
 21
-62.1499992787144
 31
0.0
  0
LINE
  5
19E
330
5C
100
AcDbEntity
  8
0
  6
Continuous
 62
     7
100
AcDbLine
 10
-221.7000007830013
 20
-72.49999942251513
 30
0.0
 11
-221.700000783001
 21
-61.64999927878041
 31
0.0
  0
LINE
  5
19F
330
5C
100
AcDbEntity
  8
0
  6
Continuous
 62
     7
100
AcDbLine
 10
-219.9000007828315
 20
-72.49999942251516
 30
0.0
 11
-219.9000007828313
 21
-66.14999927871322
 31
0.0
  0
LINE
  5
1A0
330
5C
100
AcDbEntity
  8
0
  6
Continuous
 62
     7
100
AcDbLine
 10
-219.0000007867569
 20
-66.64999927873063
 30
0.0
 11
-219.0000007867305
 21
-81.30114985102912
 31
0.0
  0
LINE
  5
1A1
330
5C
100
AcDbEntity
  8
0
  6
Continuous
 62
     7
100
AcDbLine
 10
-217.5000007867945
 20
-81.30114985102763
 30
0.0
 11
-219.0000007867305
 21
-81.30114985102912
 31
0.0
  0
LINE
  5
1A2
330
5C
100
AcDbEntity
  8
0
  6
Continuous
 62
     7
100
AcDbLine
 10
-217.5000007867951
 20
-66.64999927872914
 30
0.0
 11
-219.0000007867569
 21
-66.64999927873063
 31
0.0
  0
LINE
  5
1A3
330
5C
100
AcDbEntity
  8
0
  6
Continuous
 62
     7
100
AcDbLine
 10
-219.0000007867569
 20
-66.64999927873063
 30
0.0
 11
-219.6000007864471
 21
-66.64999927875473
 31
0.0
  0
LINE
  5
1A4
330
5C
100
AcDbEntity
  8
0
  6
Continuous
 62
     7
100
AcDbLine
 10
-184.4000007867399
 20
-61.64999927863003
 30
0.0
 11
-219.6000007864561
 21
-61.64999927867001
 31
0.0
  0
LINE
  5
1A5
330
5C
100
AcDbEntity
  8
0
  6
Continuous
 62
     7
100
AcDbLine
 10
-184.4000007867307
 20
-63.40735859142338
 30
0.0
 11
-219.6000007864496
 21
-63.40735859145713
 31
0.0
  0
LINE
  5
1A6
330
5C
100
AcDbEntity
  8
0
  6
Continuous
 62
     7
100
AcDbLine
 10
-219.6000007865811
 20
-62.14999927871294
 30
0.0
 11
-221.1000007866255
 21
-62.1499992787144
 31
0.0
  0
LINE
  5
1A7
330
5C
100
AcDbEntity
  8
0
  6
Continuous
 62
     7
100
AcDbLine
 10
-221.0000007830008
 20
-55.14999927878253
 30
0.0
 11
-222.4000007865241
 21
-55.14999927864514
 31
0.0
  0
LINE
  5
1A8
330
5C
100
AcDbEntity
  8
0
  6
Continuous
 62
     7
100
AcDbLine
 10
-219.6000007828317
 20
-55.14999927878259
 30
0.0
 11
-221.0000007830008
 21
-55.14999927878253
 31
0.0
  0
LINE
  5
1A9
330
5C
100
AcDbEntity
  8
0
  6
Continuous
 62
     7
100
AcDbLine
 10
-181.6000007865493
 20
-55.14999927874111
 30
0.0
 11
-219.6000007828317
 21
-55.14999927878259
 31
0.0
  0
LINE
  5
1AA
330
5C
100
AcDbEntity
  8
0
  6
Continuous
 62
     7
100
AcDbLine
 10
-217.5000007867945
 20
-81.30114985102763
 30
0.0
 11
-217.5000007867951
 21
-66.64999927872914
 31
0.0
  0
LINE
  5
1AB
330
5C
100
AcDbEntity
  8
0
  6
Continuous
 62
     7
100
AcDbLine
 10
-217.5000007867748
 20
-101.3011498510276
 30
0.0
 11
-217.5000007867945
 21
-81.30114985102763
 31
0.0
  0
LINE
  5
1AC
330
5C
100
AcDbEntity
  8
0
  6
Continuous
 62
     7
100
AcDbLine
 10
-186.5000007867604
 20
-66.64999927869869
 30
0.0
 11
-217.5000007867951
 21
-66.64999927872914
 31
0.0
  0
LINE
  5
1AD
330
5C
100
AcDbEntity
  8
0
  6
Continuous
 62
     7
100
AcDbLine
 10
-219.6000007865771
 20
-66.14999927871294
 30
0.0
 11
-184.4000007867406
 21
-66.14999927874918
 31
0.0
  0
LINE
  5
1AE
330
5C
100
AcDbEntity
  8
0
  6
Continuous
 62
     7
100
AcDbLine
 10
-182.9000007866961
 20
-66.14999927875073
 30
0.0
 11
-184.4000007867406
 21
-66.14999927874918
 31
0.0
  0
LINE
  5
1AF
330
5C
100
AcDbEntity
  8
0
  6
Continuous
 62
     7
100
AcDbLine
 10
-219.5072983373184
 20
-118.8499992788703
 30
0.0
 11
-217.5000007868291
 21
-116.8427292436503
 31
0.0
  0
LINE
  5
1B0
330
5C
100
AcDbEntity
  8
0
  6
Continuous
 62
     7
100
AcDbLine
 10
-219.0000007867305
 20
-81.30114985102912
 30
0.0
 11
-219.0000007866771
 21
-101.3011498509979
 31
0.0
  0
LINE
  5
1B1
330
5C
100
AcDbEntity
  8
0
  6
Continuous
 62
     7
100
AcDbLine
 10
-219.0000007866771
 20
-101.3011498509979
 30
0.0
 11
-217.5000007867748
 21
-101.3011498510276
 31
0.0
  0
LINE
  5
1B2
330
5C
100
AcDbEntity
  8
0
  6
Continuous
 62
     7
100
AcDbLine
 10
-217.5000007868291
 20
-116.8427292436503
 30
0.0
 11
-217.5000007867748
 21
-101.3011498510276
 31
0.0
  0
ENDBLK
  5
5E
330
5C
100
AcDbEntity
  8
0
100
AcDbBlockEnd
  0
BLOCK
  5
61
330
5F
100
AcDbEntity
  8
0
100
AcDbBlockBegin
  2
SA_Links1
 70
     0
 10
-201.9999999999
 20
-84.99999999980953
 30
0.0
  3
SA_Links1
  1

  0
INSERT
  5
60
330
5F
100
AcDbEntity
  8
0
100
AcDbBlockReference
  2
HC-RBO_10_BU-select__4
 10
-222.4000007865778
 20
-118.8499992789081
 30
0.0
  0
MTEXT
  5
1B3
330
5F
100
AcDbEntity
  8
1
 62
     6
100
AcDbMText
 10
-201.9999999999
 20
-123.8499994276336
 30
0.0
 40
5.0
 41
0.0
 71
     2
 72
     1
  1
 
  7
CONVERTER_11
 73
     1
 44
1.32052821128451
  0
ENDBLK
  5
62
330
5F
100
AcDbEntity
  8
0
100
AcDbBlockEnd
  0
BLOCK
  5
64
330
63
100
AcDbEntity
  8
0
100
AcDbBlockBegin
  2
HC-RBO_10_BU-select__5
 70
     0
 10
-414.3499954465054
 20
-118.8499992789142
 30
0.0
  3
HC-RBO_10_BU-select__5
  1

  0
LINE
  5
1B4
330
63
100
AcDbEntity
  8
0
  6
Continuous
 62
     7
100
AcDbLine
 10
-411.4572929972561
 20
-118.8499992789142
 30
0.0
 11
-409.4499954461421
 21
-116.8427292436515
 31
0.0
  0
LINE
  5
1B5
330
63
100
AcDbEntity
  8
0
  6
Continuous
 62
     7
100
AcDbLine
 10
-373.549995446503
 20
-118.8499992788718
 30
0.0
 11
-376.4426978957545
 21
-118.8499992788747
 31
0.0
  0
LINE
  5
1B6
330
63
100
AcDbEntity
  8
0
  6
Continuous
 62
     7
100
AcDbLine
 10
-373.549995446503
 20
-118.8499992788718
 30
0.0
 11
-373.5499954465013
 21
-60.14999927889984
 31
0.0
  0
LINE
  5
1B7
330
63
100
AcDbEntity
  8
0
  6
Continuous
 62
     7
100
AcDbLine
 10
-373.5499954465059
 20
-58.6499992788458
 30
0.0
 11
-373.5499954465092
 21
-55.14999927887881
 31
0.0
  0
LINE
  5
1B8
330
63
100
AcDbEntity
  8
0
  6
Continuous
 62
     7
100
AcDbLine
 10
-373.5499954465013
 20
-60.14999927889984
 30
0.0
 11
-373.5499954465059
 21
-58.6499992788458
 31
0.0
  0
LINE
  5
1B9
330
63
100
AcDbEntity
  8
0
  6
Continuous
 62
     7
100
AcDbLine
 10
-378.4499954463979
 20
-66.64999927875292
 30
0.0
 11
-378.4499954462849
 21
-116.84272924365
 31
0.0
  0
LINE
  5
1BA
330
63
100
AcDbEntity
  8
0
  6
Continuous
 62
     7
100
AcDbLine
 10
-378.4499954462849
 20
-116.84272924365
 30
0.0
 11
-376.4426978957545
 21
-118.8499992788747
 31
0.0
  0
LINE
  5
1BB
330
63
100
AcDbEntity
  8
0
  6
Continuous
 62
     7
100
AcDbLine
 10
-378.4499954463935
 20
-62.1606594505064
 30
0.0
 11
-378.4499954463979
 21
-66.64999927875292
 31
0.0
  0
LINE
  5
1BC
330
63
100
AcDbEntity
  8
0
  6
Continuous
 62
     7
100
AcDbLine
 10
-378.4499954462291
 20
-60.14999927888866
 30
0.0
 11
-378.4499954463935
 21
-62.1606594505064
 31
0.0
  0
LINE
  5
1BD
330
63
100
AcDbEntity
  8
0
  6
Continuous
 62
     7
100
AcDbLine
 10
-378.4499954463935
 20
-62.1606594505064
 30
0.0
 11
-409.4499954465059
 21
-62.16065945047593
 31
0.0
  0
LINE
  5
1BE
330
63
100
AcDbEntity
  8
0
  6
Continuous
 62
     7
100
AcDbLine
 10
-414.349995446216
 20
-58.64999927888878
 30
0.0
 11
-373.5499954465059
 21
-58.6499992788458
 31
0.0
  0
LINE
  5
1BF
330
63
100
AcDbEntity
  8
0
  6
Continuous
 62
     7
100
AcDbLine
 10
-378.4499954462291
 20
-60.14999927888866
 30
0.0
 11
-409.4499954462005
 21
-60.14999927879157
 31
0.0
  0
LINE
  5
1C0
330
63
100
AcDbEntity
  8
0
  6
Continuous
 62
     7
100
AcDbLine
 10
-373.5499954465013
 20
-60.14999927889984
 30
0.0
 11
-378.4499954462291
 21
-60.14999927888866
 31
0.0
  0
LINE
  5
1C1
330
63
100
AcDbEntity
  8
0
  6
Continuous
 62
     7
100
AcDbLine
 10
-409.4499954465013
 20
-66.64999927878559
 30
0.0
 11
-378.4499954463979
 21
-66.64999927875292
 31
0.0
  0
LINE
  5
1C2
330
63
100
AcDbEntity
  8
0
  6
Continuous
 62
     7
100
AcDbLine
 10
-411.4572929972561
 20
-118.8499992789142
 30
0.0
 11
-414.3499954465054
 21
-118.849999278914
 31
0.0
  0
LINE
  5
1C3
330
63
100
AcDbEntity
  8
0
  6
Continuous
 62
     7
100
AcDbLine
 10
-414.3499954462238
 20
-55.14999927888074
 30
0.0
 11
-414.349995446216
 21
-58.64999927888878
 31
0.0
  0
LINE
  5
1C4
330
63
100
AcDbEntity
  8
0
  6
Continuous
 62
     7
100
AcDbLine
 10
-414.349995446216
 20
-58.64999927888878
 30
0.0
 11
-414.349995446216
 21
-60.14999927877622
 31
0.0
  0
LINE
  5
1C5
330
63
100
AcDbEntity
  8
0
  6
Continuous
 62
     7
100
AcDbLine
 10
-409.4499954462005
 20
-60.14999927879157
 30
0.0
 11
-414.349995446216
 21
-60.14999927877622
 31
0.0
  0
LINE
  5
1C6
330
63
100
AcDbEntity
  8
0
  6
Continuous
 62
     7
100
AcDbLine
 10
-374.9499954501235
 20
-55.14999927879579
 30
0.0
 11
-373.5499954465092
 21
-55.14999927887881
 31
0.0
  0
LINE
  5
1C7
330
63
100
AcDbEntity
  8
0
  6
Continuous
 62
     7
100
AcDbLine
 10
-376.3499954502927
 20
-55.14999927879585
 30
0.0
 11
-374.9499954501235
 21
-55.14999927879579
 31
0.0
  0
LINE
  5
1C8
330
63
100
AcDbEntity
  8
0
  6
Continuous
 62
     7
100
AcDbLine
 10
-414.3499954462238
 20
-55.14999927888074
 30
0.0
 11
-376.3499954502927
 21
-55.14999927879585
 31
0.0
  0
LINE
  5
1C9
330
63
100
AcDbEntity
  8
0
  6
Continuous
 62
     7
100
AcDbLine
 10
-376.3499954502906
 20
-51.1499992789982
 30
0.0
 11
-374.9499954501214
 21
-51.14999927899817
 31
0.0
  0
LINE
  5
1CA
330
63
100
AcDbEntity
  8
0
  6
Continuous
 62
     7
100
AcDbLine
 10
-374.9499954501214
 20
-51.14999927899817
 30
0.0
 11
-374.9499954501235
 21
-54.8499992789984
 31
0.0
  0
LINE
  5
1CB
330
63
100
AcDbEntity
  8
0
  6
Continuous
 62
     2
100
AcDbLine
 10
-376.3499954502927
 20
-54.84999927899842
 30
0.0
 11
-374.9499954501235
 21
-54.8499992789984
 31
0.0
  0
LINE
  5
1CC
330
63
100
AcDbEntity
  8
0
  6
Continuous
 62
     7
100
AcDbLine
 10
-374.9499954501235
 20
-54.8499992789984
 30
0.0
 11
-374.9499954501235
 21
-55.14999927879579
 31
0.0
  0
LINE
  5
1CD
330
63
100
AcDbEntity
  8
0
  6
Continuous
 62
     7
100
AcDbLine
 10
-409.4499954461421
 20
-116.8427292436515
 30
0.0
 11
-409.4499954465013
 21
-66.64999927878559
 31
0.0
  0
LINE
  5
1CE
330
63
100
AcDbEntity
  8
0
  6
Continuous
 62
     7
100
AcDbLine
 10
-414.349995446216
 20
-60.14999927877622
 30
0.0
 11
-414.3499954465054
 21
-118.849999278914
 31
0.0
  0
LINE
  5
1CF
330
63
100
AcDbEntity
  8
0
  6
Continuous
 62
     7
100
AcDbLine
 10
-409.4499954465059
 20
-62.16065945047593
 30
0.0
 11
-409.4499954462005
 21
-60.14999927879157
 31
0.0
  0
LINE
  5
1D0
330
63
100
AcDbEntity
  8
0
  6
Continuous
 62
     7
100
AcDbLine
 10
-409.4499954465013
 20
-66.64999927878559
 30
0.0
 11
-409.4499954465059
 21
-62.16065945047593
 31
0.0
  0
LINE
  5
1D1
330
63
100
AcDbEntity
  8
0
  6
Continuous
 62
     7
100
AcDbLine
 10
-376.3499954502906
 20
-51.1499992789982
 30
0.0
 11
-376.3499954502927
 21
-54.84999927899842
 31
0.0
  0
LINE
  5
1D2
330
63
100
AcDbEntity
  8
0
  6
Continuous
 62
     7
100
AcDbLine
 10
-376.3499954502927
 20
-54.84999927899842
 30
0.0
 11
-376.3499954502927
 21
-55.14999927879585
 31
0.0
  0
ENDBLK
  5
65
330
63
100
AcDbEntity
  8
0
100
AcDbBlockEnd
  0
BLOCK
  5
68
330
66
100
AcDbEntity
  8
0
100
AcDbBlockBegin
  2
SA_Rechts1
 70
     0
 10
-393.9499962332162
 20
-84.99999999981003
 30
0.0
  3
SA_Rechts1
  1

  0
INSERT
  5
67
330
66
100
AcDbEntity
  8
0
100
AcDbBlockReference
  2
HC-RBO_10_BU-select__5
 10
-414.3499954465054
 20
-118.8499992789142
 30
0.0
  0
MTEXT
  5
1D3
330
66
100
AcDbEntity
  8
1
 62
     6
100
AcDbMText
 10
-393.9499962332162
 20
-123.8499994276335
 30
0.0
 40
5.0
 41
0.0
 71
     2
 72
     1
  1
 
  7
CONVERTER_11
 73
     1
 44
1.32052821128451
  0
ENDBLK
  5
69
330
66
100
AcDbEntity
  8
0
100
AcDbBlockEnd
  0
BLOCK
  5
6B
330
6A
100
AcDbEntity
  8
0
100
AcDbBlockBegin
  2
HC-RBO_10_BU-select__6
 70
     0
 10
-349.549996511544
 20
-118.8499992788747
 30
0.0
  3
HC-RBO_10_BU-select__6
  1

  0
LINE
  5
1D4
330
6A
100
AcDbEntity
  8
1
  6
DOT_CENTER
 62
     2
100
AcDbLine
 10
-346.5499965113272
 20
-61.94999927875122
 30
0.0
 11
-346.5499965113272
 21
-66.34999927875123
 31
0.0
  0
LINE
  5
1D5
330
6A
100
AcDbEntity
  8
1
  6
DOT_CENTER
 62
     2
100
AcDbLine
 10
-344.3499965113272
 20
-64.14999927875122
 30
0.0
 11
-348.7499965113272
 21
-64.14999927875122
 31
0.0
  0
LINE
  5
1D6
330
6A
100
AcDbEntity
  8
0
  6
Continuous
 62
     7
100
AcDbLine
 10
-297.1872888042702
 20
-66.64999927871439
 30
0.0
 11
-300.0740401500724
 21
-61.64999927881766
 31
0.0
  0
LINE
  5
1D7
330
6A
100
AcDbEntity
  8
0
  6
Continuous
 62
     7
100
AcDbLine
 10
-344.8606566832181
 20
-61.64999927863053
 30
0.0
 11
-343.2499965113468
 21
-60.03933910676405
 31
0.0
  0
LINE
  5
1D8
330
6A
100
AcDbEntity
  8
0
  6
Continuous
 62
     7
100
AcDbLine
 10
-343.2499965113375
 20
-66.64999927875292
 30
0.0
 11
-343.2499965113129
 21
-61.6499992786655
 31
0.0
  0
LINE
  5
1D9
330
6A
100
AcDbEntity
  8
0
  6
Continuous
 62
     7
100
AcDbLine
 10
-343.2499965113129
 20
-61.6499992786655
 30
0.0
 11
-343.2499965113468
 21
-60.03933910676405
 31
0.0
  0
LINE
  5
1DA
330
6A
100
AcDbEntity
  8
0
  6
Continuous
 62
     7
100
AcDbLine
 10
-238.3999965115128
 20
-60.14999927877206
 30
0.0
 11
-243.3999965116325
 21
-60.14999927888866
 31
0.0
  0
LINE
  5
1DB
330
6A
100
AcDbEntity
  8
0
  6
Continuous
 62
     7
100
AcDbLine
 10
-343.2499965113129
 20
-61.6499992786655
 30
0.0
 11
-300.0740401500724
 21
-61.64999927881766
 31
0.0
  0
LINE
  5
1DC
330
6A
100
AcDbEntity
  8
0
  6
Continuous
 62
     7
100
AcDbLine
 10
-297.1872888042702
 20
-66.64999927871439
 30
0.0
 11
-343.2499965113375
 21
-66.64999927875292
 31
0.0
  0
LINE
  5
1DD
330
6A
100
AcDbEntity
  8
0
  6
Continuous
 62
     7
100
AcDbLine
 10
-294.1499963647119
 20
-114.5772052318091
 30
0.0
 11
-294.1499963646282
 21
-71.9107441021969
 31
0.0
  0
LINE
  5
1DE
330
6A
100
AcDbEntity
  8
0
  6
Continuous
 62
     7
100
AcDbLine
 10
-294.1499963646282
 20
-71.9107441021969
 30
0.0
 11
-297.1872888042702
 21
-66.64999927871439
 31
0.0
  0
LINE
  5
1DF
330
6A
100
AcDbEntity
  8
0
  6
Continuous
 62
     7
100
AcDbLine
 10
-298.4346872302863
 20
-66.6499992787154
 30
0.0
 11
-295.3398418307243
 21
-71.99962075429386
 31
0.0
  0
LINE
  5
1E0
330
6A
100
AcDbEntity
  8
0
  6
Continuous
 62
     7
100
AcDbLine
 10
-295.3398418307243
 20
-71.99962075429386
 30
0.0
 11
-295.6284439802136
 21
-72.49999942251465
 31
0.0
  0
LINE
  5
1E1
330
6A
100
AcDbEntity
  8
0
  6
Continuous
 62
     7
100
AcDbLine
 10
-309.8999965114069
 20
-72.49999942251566
 30
0.0
 11
-309.8999965114002
 21
-66.64999927872503
 31
0.0
  0
LINE
  5
1E2
330
6A
100
AcDbEntity
  8
0
  6
Continuous
 62
     7
100
AcDbLine
 10
-309.8999965113868
 20
-54.84999927898878
 30
0.0
 11
-309.8999965113871
 21
-55.14999927878309
 31
0.0
  0
LINE
  5
1E3
330
6A
100
AcDbEntity
  8
0
  6
Continuous
 62
     7
100
AcDbLine
 10
-295.6284439802136
 20
-72.49999942251465
 30
0.0
 11
-309.8999965114069
 21
-72.49999942251566
 31
0.0
  0
LINE
  5
1E4
330
6A
100
AcDbEntity
  8
0
  6
Continuous
 62
     7
100
AcDbLine
 10
-282.4105912025917
 20
-118.8499992788411
 30
0.0
 11
-294.1499963647119
 21
-114.5772052318091
 31
0.0
  0
LINE
  5
1E5
330
6A
100
AcDbEntity
  8
0
  6
Continuous
 62
     7
100
AcDbLine
 10
-243.3999965116325
 20
-60.14999927888866
 30
0.0
 11
-243.3999965115878
 21
-118.8499992788747
 31
0.0
  0
LINE
  5
1E6
330
6A
100
AcDbEntity
  8
0
  6
Continuous
 62
     7
100
AcDbLine
 10
-282.4105912025917
 20
-118.8499992788411
 30
0.0
 11
-243.3999965115878
 21
-118.8499992788747
 31
0.0
  0
LINE
  5
1E7
330
6A
100
AcDbEntity
  8
0
  6
Continuous
 62
     7
100
AcDbLine
 10
-246.8999965115907
 20
-55.14999927888074
 30
0.0
 11
-243.399996511613
 21
-58.64999927888879
 31
0.0
  0
LINE
  5
1E8
330
6A
100
AcDbEntity
  8
0
  6
Continuous
 62
     7
100
AcDbLine
 10
-307.6874572028136
 20
-51.14999927898909
 30
0.0
 11
-303.7125358199431
 21
-51.1499992789982
 31
0.0
  0
LINE
  5
1E9
330
6A
100
AcDbEntity
  8
0
  6
Continuous
 62
     7
100
AcDbLine
 10
-301.4999965113868
 20
-54.84999927899843
 30
0.0
 11
-301.4999965113872
 21
-55.14999927879585
 31
0.0
  0
LINE
  5
1EA
330
6A
100
AcDbEntity
  8
0
  6
Continuous
 62
     7
100
AcDbLine
 10
-307.6999965113868
 20
-54.84999927898903
 30
0.0
 11
-303.6999965113868
 21
-54.84999927899815
 31
0.0
  0
LINE
  5
1EB
330
6A
100
AcDbEntity
  8
0
  6
Continuous
 62
     7
100
AcDbLine
 10
-238.399996511514
 20
-58.6499992788964
 30
0.0
 11
-238.3999965115128
 21
-60.14999927877206
 31
0.0
  0
LINE
  5
1EC
330
6A
100
AcDbEntity
  8
0
  6
Continuous
 62
     7
100
AcDbLine
 10
-243.399996511613
 20
-58.64999927888879
 30
0.0
 11
-238.399996511514
 21
-58.6499992788964
 31
0.0
  0
LINE
  5
1ED
330
6A
100
AcDbEntity
  8
0
  6
Continuous
 62
     7
100
AcDbLine
 10
-301.4999965113872
 20
-55.14999927879585
 30
0.0
 11
-246.8999965115907
 21
-55.14999927888074
 31
0.0
  0
LINE
  5
1EE
330
6A
100
AcDbEntity
  8
0
  6
Continuous
 62
     7
100
AcDbLine
 10
-338.3606566833059
 20
-55.1499992787416
 30
0.0
 11
-343.2499965113468
 21
-60.03933910676405
 31
0.0
  0
LINE
  5
1EF
330
6A
100
AcDbEntity
  8
0
  6
Continuous
 62
     7
100
AcDbLine
 10
-347.7926371988402
 20
-61.64999927873086
 30
0.0
 11
-349.5499965115399
 21
-63.40735859142387
 31
0.0
  0
LINE
  5
1F0
330
6A
100
AcDbEntity
  8
0
  6
Continuous
 62
     7
100
AcDbLine
 10
-344.8606566832181
 20
-61.64999927863053
 30
0.0
 11
-347.7926371988402
 21
-61.64999927873086
 31
0.0
  0
LINE
  5
1F1
330
6A
100
AcDbEntity
  8
0
  6
Continuous
 62
     7
100
AcDbLine
 10
-343.2499965113375
 20
-66.64999927875292
 30
0.0
 11
-348.6839711079169
 21
-66.64999927872147
 31
0.0
  0
LINE
  5
1F2
330
6A
100
AcDbEntity
  8
0
  6
Continuous
 62
     7
100
AcDbLine
 10
-349.549996511544
 20
-66.14999927881006
 30
0.0
 11
-348.6839711079169
 21
-66.64999927872147
 31
0.0
  0
LINE
  5
1F3
330
6A
100
AcDbEntity
  8
0
  6
Continuous
 62
     7
100
AcDbLine
 10
-349.549996511544
 20
-66.14999927881006
 30
0.0
 11
-349.5499965115399
 21
-63.40735859142387
 31
0.0
  0
LINE
  5
1F4
330
6A
100
AcDbEntity
  8
0
  6
Continuous
 62
     7
100
AcDbLine
 10
-309.8999965113871
 20
-55.14999927878309
 30
0.0
 11
-301.4999965113872
 21
-55.14999927879585
 31
0.0
  0
LINE
  5
1F5
330
6A
100
AcDbEntity
  8
0
  6
Continuous
 62
     7
100
AcDbLine
 10
-338.3606566833059
 20
-55.1499992787416
 30
0.0
 11
-309.8999965113871
 21
-55.14999927878309
 31
0.0
  0
ARC
  5
1F6
330
6A
100
AcDbEntity
  8
0
  6
Continuous
 62
     7
100
AcDbCircle
 10
-305.6999965113868
 20
-54.84999927899359
 30
0.0
 40
4.200000000000002
100
AcDbArc
 50
118.2425371843051
 51
179.9999999999344
  0
ARC
  5
1F7
330
6A
100
AcDbEntity
  8
0
  6
Continuous
 62
     7
100
AcDbCircle
 10
-305.6999965113868
 20
-54.84999927899359
 30
0.0
 40
2.0
100
AcDbArc
 50
359.9999999998695
 51
179.9999999998693
  0
ARC
  5
1F8
330
6A
100
AcDbEntity
  8
0
  6
Continuous
 62
     7
100
AcDbCircle
 10
-305.6999965113868
 20
-54.84999927899359
 30
0.0
 40
4.199999999999989
100
AcDbArc
 50
359.999999999934
 51
61.75746281543324
  0
CIRCLE
  5
1F9
330
6A
100
AcDbEntity
  8
0
  6
Continuous
 62
     7
100
AcDbCircle
 10
-346.5499965113272
 20
-64.14999927875122
 30
0.0
 40
2.0
  0
ENDBLK
  5
6C
330
6A
100
AcDbEntity
  8
0
100
AcDbBlockEnd
  0
BLOCK
  5
6F
330
6D
100
AcDbEntity
  8
0
100
AcDbBlockBegin
  2
Vordans1
 70
     0
 10
-293.9749981165171
 20
-84.99999999981003
 30
0.0
  3
Vordans1
  1

  0
INSERT
  5
6E
330
6D
100
AcDbEntity
  8
0
100
AcDbBlockReference
  2
HC-RBO_10_BU-select__6
 10
-349.549996511544
 20
-118.8499992788747
 30
0.0
  0
MTEXT
  5
1FA
330
6D
100
AcDbEntity
  8
1
 62
     6
100
AcDbMText
 10
-293.9749981165171
 20
-123.8499994276335
 30
0.0
 40
5.0
 41
0.0
 71
     2
 72
     1
  1
 
  7
CONVERTER_11
 73
     1
 44
1.32052821128451
  0
DIMENSION
  5
205
330
6D
100
AcDbEntity
  8
1
100
AcDbDimension
  2
*D18
 10
-349.5499965115399
 20
-136.419817230717
 30
0.0
 11
-291.2403595596001
 21
-132.494817230717
 31
0.0
 70
    32
  1
<>
 71
     5
 42
-1.0
 53
0.00013888888889
  3
ME10_DIM_11
100
AcDbAlignedDimension
 13
-238.399996511514
 23
-58.6499992788964
 33
0.0
 14
-349.5499965115399
 24
-63.40735859142387
 34
0.0
100
AcDbRotatedDimension
  0
DIMENSION
  5
210
330
6D
100
AcDbEntity
  8
1
100
AcDbDimension
  2
*D19
 10
-359.3416151768021
 20
-118.8499992788747
 30
0.0
 11
-363.2666151768021
 21
-84.569992101558
 31
0.0
 70
    32
  1
<>
 71
     5
 42
-1.0
 53
90.0
  3
ME10_DIM_12
100
AcDbAlignedDimension
 13
-303.7125358199431
 23
-51.1499992789982
 33
0.0
 14
-243.3999965115878
 24
-118.8499992788747
 34
0.0
 50
90.0
100
AcDbRotatedDimension
  0
ENDBLK
  5
70
330
6D
100
AcDbEntity
  8
0
100
AcDbBlockEnd
  0
BLOCK
  5
72
330
71
100
AcDbEntity
  8
0
100
AcDbBlockBegin
  2
_rahmen
 70
     0
 10
-35.39999946746477
 20
-308.0960836069547
 30
0.0
  3
_rahmen
  1

  0
LINE
  5
211
330
71
100
AcDbEntity
  8
1
  6
DOT_CENTER
 62
     2
100
AcDbLine
 10
-160.9581491076522
 20
-281.9710836069554
 30
0.0
 11
-155.4581491076522
 21
-281.9710836069554
 31
0.0
  0
LINE
  5
212
330
71
100
AcDbEntity
  8
1
  6
PHANTOM
 62
     2
100
AcDbLine
 10
-152.2081491076522
 20
-279.2210836069553
 30
0.0
 11
-152.2081491076522
 21
-284.7210836069553
 31
0.0
  0
LINE
  5
213
330
71
100
AcDbEntity
  8
1
  6
PHANTOM
 62
     2
100
AcDbLine
 10
-149.4581491076522
 20
-281.9710836069554
 30
0.0
 11
-154.9581491076522
 21
-281.9710836069554
 31
0.0
  0
LINE
  5
214
330
71
100
AcDbEntity
  8
1
  6
Continuous
 62
     6
100
AcDbLine
 10
-164.9448039942147
 20
-277.5960836069553
 30
0.0
 11
-35.39999946746298
 21
-277.5960836069553
 31
0.0
  0
LINE
  5
215
330
71
100
AcDbEntity
  8
1
  6
Continuous
 62
     7
100
AcDbLine
 10
-146.7448039942148
 20
-298.8460836069552
 30
0.0
 11
-128.5448039942148
 21
-298.8460836069552
 31
0.0
  0
LINE
  5
216
330
71
100
AcDbEntity
  8
1
  6
Continuous
 62
     6
100
AcDbLine
 10
-146.7448039942148
 20
-303.0960836069552
 30
0.0
 11
-164.9448039942147
 21
-303.0960836069553
 31
0.0
  0
LINE
  5
217
330
71
100
AcDbEntity
  8
1
  6
Continuous
 62
     7
100
AcDbLine
 10
-146.7448039942148
 20
-298.8460836069552
 30
0.0
 11
-146.7448039942148
 21
-303.0960836069552
 31
0.0
  0
LINE
  5
218
330
71
100
AcDbEntity
  8
1
  6
Continuous
 62
     7
100
AcDbLine
 10
-128.5448039942148
 20
-298.8460836069552
 30
0.0
 11
-128.5448039942148
 21
-303.0960836069553
 31
0.0
  0
LINE
  5
219
330
71
100
AcDbEntity
  8
1
  6
Continuous
 62
     7
100
AcDbLine
 10
-164.9448039942147
 20
-298.8460836069553
 30
0.0
 11
-164.9448039942147
 21
-303.0960836069553
 31
0.0
  0
LINE
  5
21A
330
71
100
AcDbEntity
  8
1
  6
Continuous
 62
     7
100
AcDbLine
 10
-164.9448039942147
 20
-298.8460836069553
 30
0.0
 11
-146.7448039942148
 21
-298.8460836069552
 31
0.0
  0
LINE
  5
21B
330
71
100
AcDbEntity
  8
1
  6
Continuous
 62
     2
100
AcDbLine
 10
-155.7081491076522
 20
-279.4710836069554
 30
0.0
 11
-155.7081491076522
 21
-284.4710836069554
 31
0.0
  0
LINE
  5
21C
330
71
100
AcDbEntity
  8
1
  6
Continuous
 62
     2
100
AcDbLine
 10
-155.7081491076522
 20
-284.4710836069554
 30
0.0
 11
-160.7081491076522
 21
-283.2210836069554
 31
0.0
  0
LINE
  5
21D
330
71
100
AcDbEntity
  8
1
  6
Continuous
 62
     2
100
AcDbLine
 10
-160.7081491076522
 20
-283.2210836069554
 30
0.0
 11
-160.7081491076522
 21
-280.7210836069554
 31
0.0
  0
LINE
  5
21E
330
71
100
AcDbEntity
  8
1
  6
Continuous
 62
     2
100
AcDbLine
 10
-160.7081491076522
 20
-280.7210836069554
 30
0.0
 11
-155.7081491076522
 21
-279.4710836069554
 31
0.0
  0
LINE
  5
21F
330
71
100
AcDbEntity
  8
1
  6
Continuous
 62
     6
100
AcDbLine
 10
-35.39999946746298
 20
-286.0960836069553
 30
0.0
 11
-35.39999946746347
 21
-294.5960836069553
 31
0.0
  0
LINE
  5
220
330
71
100
AcDbEntity
  8
1
  6
Continuous
 62
     6
100
AcDbLine
 10
-128.5448039942148
 20
-303.0960836069553
 30
0.0
 11
-128.8999994674648
 21
-303.0960836069552
 31
0.0
  0
LINE
  5
221
330
71
100
AcDbEntity
  8
1
  6
Continuous
 62
     7
100
AcDbLine
 10
-128.5448039942148
 20
-286.0960836069553
 30
0.0
 11
-128.5448039942148
 21
-298.8460836069552
 31
0.0
  0
LINE
  5
222
330
71
100
AcDbEntity
  8
1
  6
Continuous
 62
     7
100
AcDbLine
 10
-164.9448039942147
 20
-286.0960836069553
 30
0.0
 11
-164.9448039942147
 21
-298.8460836069553
 31
0.0
  0
LINE
  5
223
330
71
100
AcDbEntity
  8
1
  6
Continuous
 62
     6
100
AcDbLine
 10
-128.5448039942148
 20
-303.0960836069553
 30
0.0
 11
-78.89999946746477
 21
-303.0960836069552
 31
0.0
  0
LINE
  5
224
330
71
100
AcDbEntity
  8
1
  6
Continuous
 62
     6
100
AcDbLine
 10
-35.39999946746482
 20
-303.0960836069552
 30
0.0
 11
-35.39999946746347
 21
-294.5960836069553
 31
0.0
  0
LINE
  5
225
330
71
100
AcDbEntity
  8
1
  6
Continuous
 62
     6
100
AcDbLine
 10
-164.9448039942147
 20
-286.0960836069553
 30
0.0
 11
-128.5448039942148
 21
-286.0960836069553
 31
0.0
  0
LINE
  5
226
330
71
100
AcDbEntity
  8
1
  6
Continuous
 62
     6
100
AcDbLine
 10
-128.8999994674648
 20
-303.0960836069552
 30
0.0
 11
-146.7448039942148
 21
-303.0960836069552
 31
0.0
  0
LINE
  5
227
330
71
100
AcDbEntity
  8
1
  6
Continuous
 62
     6
100
AcDbLine
 10
-78.89999946746477
 20
-303.0960836069552
 30
0.0
 11
-35.39999946746482
 21
-303.0960836069552
 31
0.0
  0
LINE
  5
228
102
{ACAD_REACTORS
330
356
330
357
102
}
330
71
100
AcDbEntity
  8
0
  6
Continuous
 62
     2
100
AcDbLine
 10
-157.4301780520679
 20
-291.0235688507432
 30
0.0
 11
-157.4301780520679
 21
-290.4180335622364
 31
0.0
  0
LINE
  5
229
102
{ACAD_REACTORS
330
356
330
357
102
}
330
71
100
AcDbEntity
  8
0
  6
Continuous
 62
     2
100
AcDbLine
 10
-157.4301780520679
 20
-293.8237034573744
 30
0.0
 11
-157.4301780520679
 21
-293.2418520506793
 31
0.0
  0
LINE
  5
22A
102
{ACAD_REACTORS
330
358
330
359
102
}
330
71
100
AcDbEntity
  8
0
  6
Continuous
 62
     2
100
AcDbLine
 10
-134.8006916165888
 20
-293.5340393892515
 30
0.0
 11
-134.8006916165888
 21
-295.8025836069389
 31
0.0
  0
LINE
  5
22B
102
{ACAD_REACTORS
330
358
330
359
102
}
330
71
100
AcDbEntity
  8
0
  6
Continuous
 62
     2
100
AcDbLine
 10
-136.1817453955763
 20
-292.7487740831284
 30
0.0
 11
-132.7967998769477
 21
-292.7487740831278
 31
0.0
  0
LINE
  5
22C
102
{ACAD_REACTORS
330
358
330
359
102
}
330
71
100
AcDbEntity
  8
0
  6
Continuous
 62
     2
100
AcDbLine
 10
-132.7967998769477
 20
-293.5340393892515
 30
0.0
 11
-132.7967998769477
 21
-292.7487740831278
 31
0.0
  0
LINE
  5
22D
102
{ACAD_REACTORS
330
358
330
359
102
}
330
71
100
AcDbEntity
  8
0
  6
Continuous
 62
     2
100
AcDbLine
 10
-133.6078989144211
 20
-293.5340393892515
 30
0.0
 11
-132.7967998769477
 21
-293.5340393892515
 31
0.0
  0
LINE
  5
22E
102
{ACAD_REACTORS
330
358
330
359
102
}
330
71
100
AcDbEntity
  8
0
  6
Continuous
 62
     2
100
AcDbLine
 10
-133.6078989144211
 20
-295.8025836069389
 30
0.0
 11
-133.6078989144211
 21
-293.5340393892515
 31
0.0
  0
LINE
  5
22F
102
{ACAD_REACTORS
330
358
330
359
102
}
330
71
100
AcDbEntity
  8
0
  6
Continuous
 62
     2
100
AcDbLine
 10
-134.8006916165888
 20
-295.8025836069389
 30
0.0
 11
-133.6078989144211
 21
-295.8025836069389
 31
0.0
  0
LINE
  5
230
102
{ACAD_REACTORS
330
34E
330
34F
102
}
330
71
100
AcDbEntity
  8
0
  6
Continuous
 62
     2
100
AcDbLine
 10
-135.4972825546533
 20
-289.3895836069535
 30
0.0
 11
-136.9000067724025
 21
-289.3895836069535
 31
0.0
  0
LINE
  5
231
102
{ACAD_REACTORS
330
34E
330
34F
102
}
330
71
100
AcDbEntity
  8
0
  6
Continuous
 62
     2
100
AcDbLine
 10
-135.4972825546533
 20
-289.3895836069535
 30
0.0
 11
-134.8961150327614
 21
-290.069406928509
 31
0.0
  0
LINE
  5
232
102
{ACAD_REACTORS
330
34E
330
34F
102
}
330
71
100
AcDbEntity
  8
0
  6
Continuous
 62
     2
100
AcDbLine
 10
-134.8961150327614
 20
-290.069406928509
 30
0.0
 11
-134.2949475108686
 21
-289.3895836069535
 31
0.0
  0
LINE
  5
233
102
{ACAD_REACTORS
330
34E
330
34F
102
}
330
71
100
AcDbEntity
  8
0
  6
Continuous
 62
     2
100
AcDbLine
 10
-134.194752923888
 20
-290.8625341369897
 30
0.0
 11
-132.8922232931214
 21
-289.3895836069535
 31
0.0
  0
LINE
  5
234
102
{ACAD_REACTORS
330
34E
330
34F
102
}
330
71
100
AcDbEntity
  8
0
  6
Continuous
 62
     2
100
AcDbLine
 10
-134.194752923888
 20
-290.8625341369897
 30
0.0
 11
-132.7967998769477
 21
-292.4433931307646
 31
0.0
  0
LINE
  5
235
102
{ACAD_REACTORS
330
34E
330
34F
102
}
330
71
100
AcDbEntity
  8
0
  6
Continuous
 62
     2
100
AcDbLine
 10
-134.199524094696
 20
-292.4433931307646
 30
0.0
 11
-132.7967998769477
 21
-292.4433931307646
 31
0.0
  0
LINE
  5
236
102
{ACAD_REACTORS
330
34E
330
34F
102
}
330
71
100
AcDbEntity
  8
0
  6
Continuous
 62
     2
100
AcDbLine
 10
-134.8961150327614
 20
-291.6556613454709
 30
0.0
 11
-134.199524094696
 21
-292.4433931307646
 31
0.0
  0
LINE
  5
237
102
{ACAD_REACTORS
330
34C
330
34D
102
}
330
71
100
AcDbEntity
  8
0
  6
Continuous
 62
     2
100
AcDbLine
 10
-138.3552138690451
 20
-289.3895836069535
 30
0.0
 11
-137.1147094587922
 21
-289.3895836069535
 31
0.0
  0
LINE
  5
238
102
{ACAD_REACTORS
330
34C
330
34D
102
}
330
71
100
AcDbEntity
  8
0
  6
Continuous
 62
     2
100
AcDbLine
 10
-137.1147094587922
 20
-289.3895836069535
 30
0.0
 11
-137.1147094587922
 21
-292.4433931307646
 31
0.0
  0
LINE
  5
239
102
{ACAD_REACTORS
330
34C
330
34D
102
}
330
71
100
AcDbEntity
  8
0
  6
Continuous
 62
     2
100
AcDbLine
 10
-138.3552138690451
 20
-292.4433931307646
 30
0.0
 11
-138.3552138690451
 21
-289.3895836069535
 31
0.0
  0
LINE
  5
23A
102
{ACAD_REACTORS
330
34A
330
34B
102
}
330
71
100
AcDbEntity
  8
0
  6
Continuous
 62
     2
100
AcDbLine
 10
-139.8235239515827
 20
-294.5810597974145
 30
0.0
 11
-139.5233587143904
 21
-293.8132448314278
 31
0.0
  0
LINE
  5
23B
102
{ACAD_REACTORS
330
34A
330
34B
102
}
330
71
100
AcDbEntity
  8
0
  6
Continuous
 62
     2
100
AcDbLine
 10
-140.3010595562036
 20
-295.8025836069389
 30
0.0
 11
-140.0895795027278
 21
-295.2616230627211
 31
0.0
  0
LINE
  5
23C
102
{ACAD_REACTORS
330
34A
330
34B
102
}
330
71
100
AcDbEntity
  8
0
  6
Continuous
 62
     2
100
AcDbLine
 10
-140.1436109195173
 20
-292.7487740831278
 30
0.0
 11
-141.5415639664565
 21
-295.8025836069389
 31
0.0
  0
LINE
  5
23D
102
{ACAD_REACTORS
330
34A
330
34B
102
}
330
71
100
AcDbEntity
  8
0
  6
Continuous
 62
     2
100
AcDbLine
 10
-137.5051534623242
 20
-295.8025836069389
 30
0.0
 11
-138.7456578725781
 21
-295.8025836069389
 31
0.0
  0
LINE
  5
23E
102
{ACAD_REACTORS
330
34A
330
34B
102
}
330
71
100
AcDbEntity
  8
0
  6
Continuous
 62
     2
100
AcDbLine
 10
-140.0895795027278
 20
-295.2616230627211
 30
0.0
 11
-138.9571379260539
 21
-295.2616230627211
 31
0.0
  0
LINE
  5
23F
102
{ACAD_REACTORS
330
348
330
349
102
}
330
71
100
AcDbEntity
  8
0
  6
Continuous
 62
     2
100
AcDbLine
 10
-143.6990761056388
 20
-293.5340393892515
 30
0.0
 11
-142.8879770681641
 21
-293.5340393892515
 31
0.0
  0
LINE
  5
240
102
{ACAD_REACTORS
330
348
330
349
102
}
330
71
100
AcDbEntity
  8
0
  6
Continuous
 62
     2
100
AcDbLine
 10
-140.8840853285251
 20
-292.7487740831278
 30
0.0
 11
-143.6990761056388
 21
-292.7487740831278
 31
0.0
  0
LINE
  5
241
102
{ACAD_REACTORS
330
348
330
349
102
}
330
71
100
AcDbEntity
  8
0
  6
Continuous
 62
     2
100
AcDbLine
 10
-140.8840853285251
 20
-293.5340393892515
 30
0.0
 11
-140.8840853285251
 21
-292.7487740831278
 31
0.0
  0
LINE
  5
242
102
{ACAD_REACTORS
330
348
330
349
102
}
330
71
100
AcDbEntity
  8
0
  6
Continuous
 62
     2
100
AcDbLine
 10
-141.6951843659977
 20
-293.5340393892515
 30
0.0
 11
-140.8840853285251
 21
-293.5340393892515
 31
0.0
  0
LINE
  5
243
102
{ACAD_REACTORS
330
348
330
349
102
}
330
71
100
AcDbEntity
  8
0
  6
Continuous
 62
     2
100
AcDbLine
 10
-141.6951843659977
 20
-295.8025836069389
 30
0.0
 11
-141.6951843659977
 21
-293.5340393892515
 31
0.0
  0
LINE
  5
244
102
{ACAD_REACTORS
330
346
330
347
102
}
330
71
100
AcDbEntity
  8
0
  6
Continuous
 62
     2
100
AcDbLine
 10
-141.0270695218997
 20
-292.4433931307646
 30
0.0
 11
-141.0270695218997
 21
-291.1346176205599
 31
0.0
  0
LINE
  5
245
102
{ACAD_REACTORS
330
346
330
347
102
}
330
71
100
AcDbEntity
  8
0
  6
Continuous
 62
     2
100
AcDbLine
 10
-142.2198622240661
 20
-289.3895836069535
 30
0.0
 11
-142.2198622240661
 21
-292.4433931307646
 31
0.0
  0
LINE
  5
246
102
{ACAD_REACTORS
330
346
330
347
102
}
330
71
100
AcDbEntity
  8
0
  6
Continuous
 62
     2
100
AcDbLine
 10
-141.0270695218997
 20
-289.3895836069535
 30
0.0
 11
-142.2198622240661
 21
-289.3895836069535
 31
0.0
  0
LINE
  5
247
102
{ACAD_REACTORS
330
346
330
347
102
}
330
71
100
AcDbEntity
  8
0
  6
Continuous
 62
     2
100
AcDbLine
 10
-139.7865651116456
 20
-289.3895836069535
 30
0.0
 11
-139.7865651116456
 21
-290.6983591171586
 31
0.0
  0
LINE
  5
248
102
{ACAD_REACTORS
330
344
330
345
102
}
330
71
100
AcDbEntity
  8
0
  6
Continuous
 62
     2
100
AcDbLine
 10
-147.4683010444858
 20
-292.7487740831278
 30
0.0
 11
-147.4683010444858
 21
-295.8025836069389
 31
0.0
  0
LINE
  5
249
102
{ACAD_REACTORS
330
344
330
345
102
}
330
71
100
AcDbEntity
  8
0
  6
Continuous
 62
     2
100
AcDbLine
 10
-146.2755083423183
 20
-292.7487740831278
 30
0.0
 11
-147.4683010444858
 21
-292.7487740831278
 31
0.0
  0
LINE
  5
24A
102
{ACAD_REACTORS
330
344
330
345
102
}
330
71
100
AcDbEntity
  8
0
  6
Continuous
 62
     2
100
AcDbLine
 10
-145.0350039320653
 20
-295.8025836069389
 30
0.0
 11
-143.8422112298989
 21
-295.8025836069389
 31
0.0
  0
LINE
  5
24B
102
{ACAD_REACTORS
330
344
330
345
102
}
330
71
100
AcDbEntity
  8
0
  6
Continuous
 62
     2
100
AcDbLine
 10
-147.4683010444858
 20
-295.8025836069389
 30
0.0
 11
-146.2755083423183
 21
-295.8025836069389
 31
0.0
  0
LINE
  5
24C
102
{ACAD_REACTORS
330
354
330
355
102
}
330
71
100
AcDbEntity
  8
0
  6
Continuous
 62
     2
100
AcDbLine
 10
-143.7943485909267
 20
-290.5674815661381
 30
0.0
 11
-143.7943485909267
 21
-290.0875972123964
 31
0.0
  0
LINE
  5
24D
102
{ACAD_REACTORS
330
354
330
355
102
}
330
71
100
AcDbEntity
  8
0
  6
Continuous
 62
     2
100
AcDbLine
 10
-142.4584207644991
 20
-290.5674815661381
 30
0.0
 11
-143.7943485909267
 21
-290.5674815661381
 31
0.0
  0
LINE
  5
24E
102
{ACAD_REACTORS
330
354
330
355
102
}
330
71
100
AcDbEntity
  8
0
  6
Continuous
 62
     2
100
AcDbLine
 10
-142.4584207644991
 20
-291.2654951715805
 30
0.0
 11
-142.4584207644991
 21
-290.5674815661381
 31
0.0
  0
LINE
  5
24F
102
{ACAD_REACTORS
330
354
330
355
102
}
330
71
100
AcDbEntity
  8
0
  6
Continuous
 62
     2
100
AcDbLine
 10
-143.7943485909267
 20
-291.2654951715805
 30
0.0
 11
-142.4584207644991
 21
-291.2654951715805
 31
0.0
  0
LINE
  5
250
102
{ACAD_REACTORS
330
342
330
343
102
}
330
71
100
AcDbEntity
  8
0
  6
Continuous
 62
     2
100
AcDbLine
 10
-147.2773032812536
 20
-289.3895836069535
 30
0.0
 11
-147.2773032812536
 21
-292.4433931307646
 31
0.0
  0
LINE
  5
251
102
{ACAD_REACTORS
330
342
330
343
102
}
330
71
100
AcDbEntity
  8
0
  6
Continuous
 62
     2
100
AcDbLine
 10
-147.2773032812536
 20
-292.4433931307646
 30
0.0
 11
-148.4700959834201
 21
-292.4433931307646
 31
0.0
  0
LINE
  5
252
102
{ACAD_REACTORS
330
342
330
343
102
}
330
71
100
AcDbEntity
  8
0
  6
Continuous
 62
     2
100
AcDbLine
 10
-148.4700959834201
 20
-292.4433931307646
 30
0.0
 11
-148.4700959834201
 21
-291.3091210219209
 31
0.0
  0
LINE
  5
253
102
{ACAD_REACTORS
330
342
330
343
102
}
330
71
100
AcDbEntity
  8
0
  6
Continuous
 62
     2
100
AcDbLine
 10
-149.5197535613275
 20
-292.4433931307646
 30
0.0
 11
-150.7125462634941
 21
-292.4433931307646
 31
0.0
  0
LINE
  5
254
102
{ACAD_REACTORS
330
342
330
343
102
}
330
71
100
AcDbEntity
  8
0
  6
Continuous
 62
     2
100
AcDbLine
 10
-150.7125462634941
 20
-289.3895836069535
 30
0.0
 11
-149.5197535613275
 21
-289.3895836069535
 31
0.0
  0
LINE
  5
255
102
{ACAD_REACTORS
330
342
330
343
102
}
330
71
100
AcDbEntity
  8
0
  6
Continuous
 62
     2
100
AcDbLine
 10
-149.5197535613275
 20
-289.3895836069535
 30
0.0
 11
-149.5197535613275
 21
-290.4584169402881
 31
0.0
  0
LINE
  5
256
102
{ACAD_REACTORS
330
342
330
343
102
}
330
71
100
AcDbEntity
  8
0
  6
Continuous
 62
     2
100
AcDbLine
 10
-149.5197535613275
 20
-290.4584169402881
 30
0.0
 11
-148.4700959834201
 21
-290.4584169402881
 31
0.0
  0
LINE
  5
257
102
{ACAD_REACTORS
330
350
330
351
102
}
330
71
100
AcDbEntity
  8
0
  6
Continuous
 62
     2
100
AcDbLine
 10
-152.6687262950478
 20
-290.0526894523935
 30
0.0
 11
-152.3514312335058
 21
-290.0526894523935
 31
0.0
  0
LINE
  5
258
102
{ACAD_REACTORS
330
350
330
351
102
}
330
71
100
AcDbEntity
  8
0
  6
Continuous
 62
     2
100
AcDbLine
 10
-152.6687262950478
 20
-290.7584171017358
 30
0.0
 11
-152.3514312335058
 21
-290.7584171017358
 31
0.0
  0
LINE
  5
259
102
{ACAD_REACTORS
330
350
330
351
102
}
330
71
100
AcDbEntity
  8
0
  6
Continuous
 62
     2
100
AcDbLine
 10
-153.9092307053018
 20
-289.3895836069535
 30
0.0
 11
-153.9092307053018
 21
-292.4433931307646
 31
0.0
  0
LINE
  5
25A
102
{ACAD_REACTORS
330
350
330
351
102
}
330
71
100
AcDbEntity
  8
0
  6
Continuous
 62
     2
100
AcDbLine
 10
-153.9092307053018
 20
-289.3895836069535
 30
0.0
 11
-151.9099587072674
 21
-289.3895836069535
 31
0.0
  0
LINE
  5
25B
102
{ACAD_REACTORS
330
350
330
351
102
}
330
71
100
AcDbEntity
  8
0
  6
Continuous
 62
     2
100
AcDbLine
 10
-152.6687262950478
 20
-291.5003148896209
 30
0.0
 11
-151.9099587072674
 21
-291.5003148896209
 31
0.0
  0
LINE
  5
25C
102
{ACAD_REACTORS
330
356
330
357
102
}
330
71
100
AcDbEntity
  8
0
  6
Continuous
 62
     2
100
AcDbLine
 10
-160.0057267385985
 20
-290.4178560855882
 30
0.0
 11
-160.0057267385985
 21
-294.7743111283053
 31
0.0
  0
LINE
  5
25D
102
{ACAD_REACTORS
330
356
330
357
102
}
330
71
100
AcDbEntity
  8
0
  6
Continuous
 62
     2
100
AcDbLine
 10
-159.6900098155229
 20
-290.1021391625121
 30
0.0
 11
-158.2141765545133
 21
-290.1021391625121
 31
0.0
  0
LINE
  5
25E
102
{ACAD_REACTORS
330
356
330
357
102
}
330
71
100
AcDbEntity
  8
0
  6
Continuous
 62
     2
100
AcDbLine
 10
-157.8984596314367
 20
-291.0218807046488
 30
0.0
 11
-157.8984596314367
 21
-290.4178560855882
 31
0.0
  0
LINE
  5
25F
102
{ACAD_REACTORS
330
356
330
357
102
}
330
71
100
AcDbEntity
  8
0
  6
Continuous
 62
     2
100
AcDbLine
 10
-157.8984596314367
 20
-294.7743111283053
 30
0.0
 11
-157.8984596314367
 21
-293.2435401967737
 31
0.0
  0
LINE
  5
260
102
{ACAD_REACTORS
330
356
330
357
102
}
330
71
100
AcDbEntity
  8
0
  6
Continuous
 62
     2
100
AcDbLine
 10
-154.8105924015525
 20
-295.8025836069389
 30
0.0
 11
-160.2839044922694
 21
-295.8025836069389
 31
0.0
  0
LINE
  5
261
102
{ACAD_REACTORS
330
356
330
357
102
}
330
71
100
AcDbEntity
  8
0
  6
Continuous
 62
     2
100
AcDbLine
 10
-154.3863477861686
 20
-289.8138282223555
 30
0.0
 11
-154.3863477861686
 21
-295.3783389915557
 31
0.0
  0
LINE
  5
262
102
{ACAD_REACTORS
330
356
330
357
102
}
330
71
100
AcDbEntity
  8
0
  6
Continuous
 62
     2
100
AcDbLine
 10
-160.2839044922694
 20
-289.3895836069716
 30
0.0
 11
-154.8105924015525
 21
-289.3895836069716
 31
0.0
  0
LINE
  5
263
102
{ACAD_REACTORS
330
356
330
357
102
}
330
71
100
AcDbEntity
  8
0
  6
Continuous
 62
     2
100
AcDbLine
 10
-160.7081491076522
 20
-289.8138282223555
 30
0.0
 11
-160.7081491076522
 21
-295.3783389915557
 31
0.0
  0
LINE
  5
264
102
{ACAD_REACTORS
330
356
330
357
102
}
330
71
100
AcDbEntity
  8
0
  6
Continuous
 62
     2
100
AcDbLine
 10
-158.2141765545133
 20
-295.090028051382
 30
0.0
 11
-159.6900098155229
 21
-295.090028051382
 31
0.0
  0
LINE
  5
265
102
{ACAD_REACTORS
330
350
330
351
102
}
330
71
100
AcDbEntity
  8
0
  6
Continuous
 62
     2
100
AcDbLine
 10
-152.6687262950478
 20
-292.4433931307646
 30
0.0
 11
-152.6687262950478
 21
-291.5003148896209
 31
0.0
  0
LINE
  5
266
102
{ACAD_REACTORS
330
350
330
351
102
}
330
71
100
AcDbEntity
  8
0
  6
Continuous
 62
     2
100
AcDbLine
 10
-153.9092307053018
 20
-292.4433931307646
 30
0.0
 11
-152.6687262950478
 21
-292.4433931307646
 31
0.0
  0
LINE
  5
267
102
{ACAD_REACTORS
330
350
330
351
102
}
330
71
100
AcDbEntity
  8
0
  6
Continuous
 62
     2
100
AcDbLine
 10
-152.6687262950478
 20
-290.7584171017358
 30
0.0
 11
-152.6687262950478
 21
-290.0526894523935
 31
0.0
  0
LINE
  5
268
102
{ACAD_REACTORS
330
342
330
343
102
}
330
71
100
AcDbEntity
  8
0
  6
Continuous
 62
     2
100
AcDbLine
 10
-150.7125462634941
 20
-289.3895836069535
 30
0.0
 11
-150.7125462634941
 21
-292.4433931307646
 31
0.0
  0
LINE
  5
269
102
{ACAD_REACTORS
330
342
330
343
102
}
330
71
100
AcDbEntity
  8
0
  6
Continuous
 62
     2
100
AcDbLine
 10
-149.5197535613275
 20
-291.3091210219209
 30
0.0
 11
-149.5197535613275
 21
-292.4433931307646
 31
0.0
  0
LINE
  5
26A
102
{ACAD_REACTORS
330
342
330
343
102
}
330
71
100
AcDbEntity
  8
0
  6
Continuous
 62
     2
100
AcDbLine
 10
-148.4700959834201
 20
-291.3091210219209
 30
0.0
 11
-149.5197535613275
 21
-291.3091210219209
 31
0.0
  0
LINE
  5
26B
102
{ACAD_REACTORS
330
342
330
343
102
}
330
71
100
AcDbEntity
  8
0
  6
Continuous
 62
     2
100
AcDbLine
 10
-148.4700959834201
 20
-289.3895836069535
 30
0.0
 11
-147.2773032812536
 21
-289.3895836069535
 31
0.0
  0
LINE
  5
26C
102
{ACAD_REACTORS
330
342
330
343
102
}
330
71
100
AcDbEntity
  8
0
  6
Continuous
 62
     2
100
AcDbLine
 10
-148.4700959834201
 20
-290.4584169402881
 30
0.0
 11
-148.4700959834201
 21
-289.3895836069535
 31
0.0
  0
LINE
  5
26D
102
{ACAD_REACTORS
330
354
330
355
102
}
330
71
100
AcDbEntity
  8
0
  6
Continuous
 62
     2
100
AcDbLine
 10
-142.4584207644991
 20
-290.0875972123964
 30
0.0
 11
-142.4584207644991
 21
-289.3895836069535
 31
0.0
  0
LINE
  5
26E
102
{ACAD_REACTORS
330
354
330
355
102
}
330
71
100
AcDbEntity
  8
0
  6
Continuous
 62
     2
100
AcDbLine
 10
-145.60874048828
 20
-289.3895836069535
 30
0.0
 11
-142.4584207644991
 21
-289.3895836069535
 31
0.0
  0
LINE
  5
26F
102
{ACAD_REACTORS
330
354
330
355
102
}
330
71
100
AcDbEntity
  8
0
  6
Continuous
 62
     2
100
AcDbLine
 10
-145.60874048828
 20
-292.4433931307646
 30
0.0
 11
-142.4584207644991
 21
-292.4433931307646
 31
0.0
  0
LINE
  5
270
102
{ACAD_REACTORS
330
354
330
355
102
}
330
71
100
AcDbEntity
  8
0
  6
Continuous
 62
     2
100
AcDbLine
 10
-142.4584207644991
 20
-292.4433931307646
 30
0.0
 11
-142.4584207644991
 21
-291.7453795253222
 31
0.0
  0
LINE
  5
271
102
{ACAD_REACTORS
330
354
330
355
102
}
330
71
100
AcDbEntity
  8
0
  6
Continuous
 62
     2
100
AcDbLine
 10
-142.4584207644991
 20
-291.7453795253222
 30
0.0
 11
-143.7943485909267
 21
-291.7453795253222
 31
0.0
  0
LINE
  5
272
102
{ACAD_REACTORS
330
354
330
355
102
}
330
71
100
AcDbEntity
  8
0
  6
Continuous
 62
     2
100
AcDbLine
 10
-143.7943485909267
 20
-291.7453795253222
 30
0.0
 11
-143.7943485909267
 21
-291.2654951715805
 31
0.0
  0
LINE
  5
273
102
{ACAD_REACTORS
330
354
330
355
102
}
330
71
100
AcDbEntity
  8
0
  6
Continuous
 62
     2
100
AcDbLine
 10
-143.7943485909267
 20
-290.0875972123964
 30
0.0
 11
-142.4584207644991
 21
-290.0875972123964
 31
0.0
  0
LINE
  5
274
102
{ACAD_REACTORS
330
344
330
345
102
}
330
71
100
AcDbEntity
  8
0
  6
Continuous
 62
     2
100
AcDbLine
 10
-146.2755083423183
 20
-295.8025836069389
 30
0.0
 11
-146.2755083423183
 21
-294.4938080967344
 31
0.0
  0
LINE
  5
275
102
{ACAD_REACTORS
330
344
330
345
102
}
330
71
100
AcDbEntity
  8
0
  6
Continuous
 62
     2
100
AcDbLine
 10
-146.2755083423183
 20
-294.4938080967344
 30
0.0
 11
-145.0350039320653
 21
-295.8025836069389
 31
0.0
  0
LINE
  5
276
102
{ACAD_REACTORS
330
344
330
345
102
}
330
71
100
AcDbEntity
  8
0
  6
Continuous
 62
     2
100
AcDbLine
 10
-143.8422112298989
 20
-295.8025836069389
 30
0.0
 11
-143.8422112298989
 21
-292.7487740831278
 31
0.0
  0
LINE
  5
277
102
{ACAD_REACTORS
330
344
330
345
102
}
330
71
100
AcDbEntity
  8
0
  6
Continuous
 62
     2
100
AcDbLine
 10
-143.8422112298989
 20
-292.7487740831278
 30
0.0
 11
-145.0350039320653
 21
-292.7487740831278
 31
0.0
  0
LINE
  5
278
102
{ACAD_REACTORS
330
344
330
345
102
}
330
71
100
AcDbEntity
  8
0
  6
Continuous
 62
     2
100
AcDbLine
 10
-145.0350039320653
 20
-292.7487740831278
 30
0.0
 11
-145.0350039320653
 21
-294.057549593333
 31
0.0
  0
LINE
  5
279
102
{ACAD_REACTORS
330
344
330
345
102
}
330
71
100
AcDbEntity
  8
0
  6
Continuous
 62
     2
100
AcDbLine
 10
-145.0350039320653
 20
-294.057549593333
 30
0.0
 11
-146.2755083423183
 21
-292.7487740831278
 31
0.0
  0
LINE
  5
27A
102
{ACAD_REACTORS
330
346
330
347
102
}
330
71
100
AcDbEntity
  8
0
  6
Continuous
 62
     2
100
AcDbLine
 10
-141.0270695218997
 20
-291.1346176205599
 30
0.0
 11
-139.7865651116456
 21
-292.4433931307646
 31
0.0
  0
LINE
  5
27B
102
{ACAD_REACTORS
330
346
330
347
102
}
330
71
100
AcDbEntity
  8
0
  6
Continuous
 62
     2
100
AcDbLine
 10
-139.7865651116456
 20
-292.4433931307646
 30
0.0
 11
-138.593772409479
 21
-292.4433931307646
 31
0.0
  0
LINE
  5
27C
102
{ACAD_REACTORS
330
346
330
347
102
}
330
71
100
AcDbEntity
  8
0
  6
Continuous
 62
     2
100
AcDbLine
 10
-138.593772409479
 20
-292.4433931307646
 30
0.0
 11
-138.593772409479
 21
-289.3895836069535
 31
0.0
  0
LINE
  5
27D
102
{ACAD_REACTORS
330
346
330
347
102
}
330
71
100
AcDbEntity
  8
0
  6
Continuous
 62
     2
100
AcDbLine
 10
-138.593772409479
 20
-289.3895836069535
 30
0.0
 11
-139.7865651116456
 21
-289.3895836069535
 31
0.0
  0
LINE
  5
27E
102
{ACAD_REACTORS
330
346
330
347
102
}
330
71
100
AcDbEntity
  8
0
  6
Continuous
 62
     2
100
AcDbLine
 10
-139.7865651116456
 20
-290.6983591171586
 30
0.0
 11
-141.0270695218997
 21
-289.3895836069535
 31
0.0
  0
LINE
  5
27F
102
{ACAD_REACTORS
330
346
330
347
102
}
330
71
100
AcDbEntity
  8
0
  6
Continuous
 62
     2
100
AcDbLine
 10
-142.2198622240661
 20
-292.4433931307646
 30
0.0
 11
-141.0270695218997
 21
-292.4433931307646
 31
0.0
  0
LINE
  5
280
102
{ACAD_REACTORS
330
348
330
349
102
}
330
71
100
AcDbEntity
  8
0
  6
Continuous
 62
     2
100
AcDbLine
 10
-143.6990761056388
 20
-292.7487740831278
 30
0.0
 11
-143.6990761056388
 21
-293.5340393892515
 31
0.0
  0
LINE
  5
281
102
{ACAD_REACTORS
330
348
330
349
102
}
330
71
100
AcDbEntity
  8
0
  6
Continuous
 62
     2
100
AcDbLine
 10
-142.8879770681641
 20
-293.5340393892515
 30
0.0
 11
-142.8879770681641
 21
-295.8025836069389
 31
0.0
  0
LINE
  5
282
102
{ACAD_REACTORS
330
348
330
349
102
}
330
71
100
AcDbEntity
  8
0
  6
Continuous
 62
     2
100
AcDbLine
 10
-142.8879770681641
 20
-295.8025836069389
 30
0.0
 11
-141.6951843659977
 21
-295.8025836069389
 31
0.0
  0
LINE
  5
283
102
{ACAD_REACTORS
330
34A
330
34B
102
}
330
71
100
AcDbEntity
  8
0
  6
Continuous
 62
     2
100
AcDbLine
 10
-138.7456578725781
 20
-295.8025836069389
 30
0.0
 11
-138.9571379260539
 21
-295.2616230627211
 31
0.0
  0
LINE
  5
284
102
{ACAD_REACTORS
330
34A
330
34B
102
}
330
71
100
AcDbEntity
  8
0
  6
Continuous
 62
     2
100
AcDbLine
 10
-138.9031065092645
 20
-292.7487740831278
 30
0.0
 11
-137.5051534623242
 21
-295.8025836069389
 31
0.0
  0
LINE
  5
285
102
{ACAD_REACTORS
330
34A
330
34B
102
}
330
71
100
AcDbEntity
  8
0
  6
Continuous
 62
     2
100
AcDbLine
 10
-140.1436109195173
 20
-292.7487740831278
 30
0.0
 11
-138.9031065092645
 21
-292.7487740831278
 31
0.0
  0
LINE
  5
286
102
{ACAD_REACTORS
330
34A
330
34B
102
}
330
71
100
AcDbEntity
  8
0
  6
Continuous
 62
     2
100
AcDbLine
 10
-141.5415639664565
 20
-295.8025836069389
 30
0.0
 11
-140.3010595562036
 21
-295.8025836069389
 31
0.0
  0
LINE
  5
287
102
{ACAD_REACTORS
330
34A
330
34B
102
}
330
71
100
AcDbEntity
  8
0
  6
Continuous
 62
     2
100
AcDbLine
 10
-139.8235239515827
 20
-294.5810597974145
 30
0.0
 11
-139.2231934772002
 21
-294.5810597974145
 31
0.0
  0
LINE
  5
288
102
{ACAD_REACTORS
330
34A
330
34B
102
}
330
71
100
AcDbEntity
  8
0
  6
Continuous
 62
     2
100
AcDbLine
 10
-139.2231934772002
 20
-294.5810597974145
 30
0.0
 11
-139.5233587143904
 21
-293.8132448314278
 31
0.0
  0
LINE
  5
289
102
{ACAD_REACTORS
330
34C
330
34D
102
}
330
71
100
AcDbEntity
  8
0
  6
Continuous
 62
     2
100
AcDbLine
 10
-137.1147094587922
 20
-292.4433931307646
 30
0.0
 11
-138.3552138690451
 21
-292.4433931307646
 31
0.0
  0
LINE
  5
28A
102
{ACAD_REACTORS
330
34E
330
34F
102
}
330
71
100
AcDbEntity
  8
0
  6
Continuous
 62
     2
100
AcDbLine
 10
-135.5927059708272
 20
-292.4433931307646
 30
0.0
 11
-136.9954301885753
 21
-292.4433931307646
 31
0.0
  0
LINE
  5
28B
102
{ACAD_REACTORS
330
34E
330
34F
102
}
330
71
100
AcDbEntity
  8
0
  6
Continuous
 62
     2
100
AcDbLine
 10
-135.5927059708272
 20
-292.4433931307646
 30
0.0
 11
-134.8961150327614
 21
-291.6556613454709
 31
0.0
  0
LINE
  5
28C
102
{ACAD_REACTORS
330
34E
330
34F
102
}
330
71
100
AcDbEntity
  8
0
  6
Continuous
 62
     2
100
AcDbLine
 10
-134.2949475108686
 20
-289.3895836069535
 30
0.0
 11
-132.8922232931214
 21
-289.3895836069535
 31
0.0
  0
LINE
  5
28D
102
{ACAD_REACTORS
330
34E
330
34F
102
}
330
71
100
AcDbEntity
  8
0
  6
Continuous
 62
     2
100
AcDbLine
 10
-136.9000067724025
 20
-289.3895836069535
 30
0.0
 11
-135.597477141635
 21
-290.8625341369897
 31
0.0
  0
LINE
  5
28E
102
{ACAD_REACTORS
330
34E
330
34F
102
}
330
71
100
AcDbEntity
  8
0
  6
Continuous
 62
     2
100
AcDbLine
 10
-136.9954301885753
 20
-292.4433931307646
 30
0.0
 11
-135.597477141635
 21
-290.8625341369897
 31
0.0
  0
LINE
  5
28F
102
{ACAD_REACTORS
330
358
330
359
102
}
330
71
100
AcDbEntity
  8
0
  6
Continuous
 62
     2
100
AcDbLine
 10
-135.1346735731955
 20
-294.7555631987753
 30
0.0
 11
-135.1346735731955
 21
-295.6280802055786
 31
0.0
  0
LINE
  5
290
102
{ACAD_REACTORS
330
358
330
359
102
}
330
71
100
AcDbEntity
  8
0
  6
Continuous
 62
     2
100
AcDbLine
 10
-135.9043309161569
 20
-293.5340393892515
 30
0.0
 11
-134.8006916165888
 21
-293.5340393892515
 31
0.0
  0
LINE
  5
291
102
{ACAD_REACTORS
330
35A
330
35B
102
}
330
71
100
AcDbEntity
  8
0
  6
Continuous
 62
     2
100
AcDbLine
 10
-151.2373750524473
 20
-294.7555631987748
 30
0.0
 11
-151.2373750524473
 21
-295.6280802055781
 31
0.0
  0
LINE
  5
292
102
{ACAD_REACTORS
330
35A
330
35B
102
}
330
71
100
AcDbEntity
  8
0
  6
Continuous
 62
     2
100
AcDbLine
 10
-151.2373750524473
 20
-293.795794491292
 30
0.0
 11
-151.2373750524473
 21
-292.9232774844887
 31
0.0
  0
LINE
  5
293
330
71
100
AcDbEntity
  8
1
  6
Continuous
 62
     7
100
AcDbLine
 10
-35.39999946746347
 20
-294.5960836069553
 30
0.0
 11
-128.5448039942148
 21
-294.5960836069553
 31
0.0
  0
LINE
  5
294
330
71
100
AcDbEntity
  8
1
  6
Continuous
 62
     7
100
AcDbLine
 10
-44.31840774914217
 20
-277.5960836069553
 30
0.0
 11
-44.31840774914217
 21
-286.0960836069553
 31
0.0
  0
LINE
  5
295
330
71
100
AcDbEntity
  8
1
  6
Continuous
 62
     7
100
AcDbLine
 10
-70.8184077491418
 20
-277.5960836069553
 30
0.0
 11
-70.8184077491418
 21
-286.0960836069553
 31
0.0
  0
LINE
  5
296
330
71
100
AcDbEntity
  8
1
  6
Continuous
 62
     7
100
AcDbLine
 10
-128.5448039942148
 20
-286.0960836069553
 30
0.0
 11
-128.5448039942148
 21
-277.5960836069553
 31
0.0
  0
LINE
  5
297
330
71
100
AcDbEntity
  8
1
  6
Continuous
 62
     7
100
AcDbLine
 10
-164.9448039942147
 20
-286.0960836069553
 30
0.0
 11
-164.9448039942147
 21
-277.5960836069553
 31
0.0
  0
LINE
  5
298
330
71
100
AcDbEntity
  8
1
  6
Continuous
 62
     6
100
AcDbLine
 10
-128.5448039942148
 20
-286.0960836069553
 30
0.0
 11
-35.39999946746298
 21
-286.0960836069553
 31
0.0
  0
LINE
  5
299
330
71
100
AcDbEntity
  8
1
  6
Continuous
 62
     7
100
AcDbLine
 10
-100.6448039942148
 20
-294.5960836069553
 30
0.0
 11
-100.6448039942148
 21
-286.0960836069553
 31
0.0
  0
LINE
  5
29A
330
71
100
AcDbEntity
  8
1
  6
Continuous
 62
     6
100
AcDbLine
 10
-35.39999946746298
 20
-286.0960836069553
 30
0.0
 11
-35.39999946746298
 21
-277.5960836069553
 31
0.0
  0
LINE
  5
29B
330
71
100
AcDbEntity
  8
1
  6
Continuous
 62
     2
100
AcDbLine
 10
-172.0666661341314
 20
-303.0960836069576
 30
0.0
 11
-172.0666661341314
 21
-303.0960836069547
 31
0.0
  0
LINE
  5
29C
330
71
100
AcDbEntity
  8
1
  6
Continuous
 62
     6
100
AcDbLine
 10
-308.7333328007978
 20
-303.0960836069547
 30
0.0
 11
-164.9448039942147
 21
-303.0960836069578
 31
0.0
  0
LINE
  5
29D
330
71
100
AcDbEntity
  8
1
  6
Continuous
 62
     6
100
AcDbLine
 10
-35.39999946746482
 20
-303.0960836069552
 30
0.0
 11
-35.39999946746522
 21
-294.5960836069553
 31
0.0
  0
LINE
  5
29E
330
71
100
AcDbEntity
  8
1
  6
Continuous
 62
     6
100
AcDbLine
 10
-430.3999994674645
 20
-303.0960836069547
 30
0.0
 11
-430.3999994674655
 21
-16.0960836069545
 31
0.0
  0
LINE
  5
29F
330
71
100
AcDbEntity
  8
1
  6
Continuous
 62
     2
100
AcDbLine
 10
-450.3999994674656
 20
-159.5960836069547
 30
0.0
 11
-450.3999994674656
 21
-308.0960836069547
 31
0.0
  0
LINE
  5
2A0
330
71
100
AcDbEntity
  8
1
  6
Continuous
 62
     2
100
AcDbLine
 10
-450.3999994674656
 20
-159.5960836069547
 30
0.0
 11
-440.3999994674655
 21
-159.5960836069547
 31
0.0
  0
LINE
  5
2A1
330
71
100
AcDbEntity
  8
1
  6
Continuous
 62
     2
100
AcDbLine
 10
-450.3999994674656
 20
-11.09608360695473
 30
0.0
 11
-450.3999994674656
 21
-159.5960836069547
 31
0.0
  0
LINE
  5
2A2
330
71
100
AcDbEntity
  8
1
  6
Continuous
 62
     2
100
AcDbLine
 10
-220.3999994674676
 20
-11.09608360695473
 30
0.0
 11
-240.3999994674648
 21
-11.09608360695473
 31
0.0
  0
LINE
  5
2A3
330
71
100
AcDbEntity
  8
1
  6
Continuous
 62
     2
100
AcDbLine
 10
-220.3999994674676
 20
-11.09608360695473
 30
0.0
 11
-220.3999994674676
 21
-15.0960836069545
 31
0.0
  0
LINE
  5
2A4
330
71
100
AcDbEntity
  8
1
  6
Continuous
 62
     2
100
AcDbLine
 10
-430.3999994674655
 20
-11.09608360695473
 30
0.0
 11
-450.3999994674656
 21
-11.09608360695473
 31
0.0
  0
LINE
  5
2A5
330
71
100
AcDbEntity
  8
1
  6
Continuous
 62
     2
100
AcDbLine
 10
-430.3999994674655
 20
-11.09608360695473
 30
0.0
 11
-430.3999994674655
 21
-15.0960836069545
 31
0.0
  0
LINE
  5
2A6
330
71
100
AcDbEntity
  8
1
  6
Continuous
 62
     2
100
AcDbLine
 10
-377.0666661341314
 20
-11.09608360695473
 30
0.0
 11
-430.3999994674655
 21
-11.09608360695473
 31
0.0
  0
LINE
  5
2A7
330
71
100
AcDbEntity
  8
1
  6
Continuous
 62
     6
100
AcDbLine
 10
-377.0666661341314
 20
-16.0960836069545
 30
0.0
 11
-308.7333328007978
 21
-16.09608360695473
 31
0.0
  0
LINE
  5
2A8
330
71
100
AcDbEntity
  8
1
  6
Continuous
 62
     2
100
AcDbLine
 10
-377.0666661341314
 20
-16.0960836069545
 30
0.0
 11
-377.0666661341314
 21
-11.09608360695473
 31
0.0
  0
LINE
  5
2A9
330
71
100
AcDbEntity
  8
1
  6
Continuous
 62
     2
100
AcDbLine
 10
-308.7333328007978
 20
-11.09608360695473
 30
0.0
 11
-377.0666661341314
 21
-11.09608360695473
 31
0.0
  0
LINE
  5
2AA
330
71
100
AcDbEntity
  8
1
  6
Continuous
 62
     6
100
AcDbLine
 10
-308.7333328007978
 20
-16.09608360695473
 30
0.0
 11
-240.3999994674648
 21
-16.09608360695473
 31
0.0
  0
LINE
  5
2AB
330
71
100
AcDbEntity
  8
1
  6
Continuous
 62
     2
100
AcDbLine
 10
-308.7333328007978
 20
-16.09608360695473
 30
0.0
 11
-308.7333328007978
 21
-11.09608360695473
 31
0.0
  0
LINE
  5
2AC
330
71
100
AcDbEntity
  8
1
  6
Continuous
 62
     2
100
AcDbLine
 10
-240.3999994674648
 20
-11.09608360695473
 30
0.0
 11
-308.7333328007978
 21
-11.09608360695473
 31
0.0
  0
LINE
  5
2AD
330
71
100
AcDbEntity
  8
1
  6
Continuous
 62
     6
100
AcDbLine
 10
-240.3999994674648
 20
-16.09608360695473
 30
0.0
 11
-172.0666661341314
 21
-16.09608360695473
 31
0.0
  0
LINE
  5
2AE
330
71
100
AcDbEntity
  8
1
  6
Continuous
 62
     2
100
AcDbLine
 10
-240.3999994674648
 20
-16.09608360695473
 30
0.0
 11
-240.3999994674648
 21
-11.09608360695473
 31
0.0
  0
LINE
  5
2AF
330
71
100
AcDbEntity
  8
1
  6
Continuous
 62
     2
100
AcDbLine
 10
-172.0666661341314
 20
-11.09608360695473
 30
0.0
 11
-220.3999994674676
 21
-11.09608360695473
 31
0.0
  0
LINE
  5
2B0
330
71
100
AcDbEntity
  8
1
  6
Continuous
 62
     6
100
AcDbLine
 10
-172.0666661341314
 20
-16.09608360695473
 30
0.0
 11
-103.7333328007982
 21
-16.09608360695473
 31
0.0
  0
LINE
  5
2B1
330
71
100
AcDbEntity
  8
1
  6
Continuous
 62
     2
100
AcDbLine
 10
-172.0666661341314
 20
-16.09608360695473
 30
0.0
 11
-172.0666661341314
 21
-11.09608360695473
 31
0.0
  0
LINE
  5
2B2
330
71
100
AcDbEntity
  8
1
  6
Continuous
 62
     2
100
AcDbLine
 10
-103.7333328007982
 20
-11.09608360695473
 30
0.0
 11
-172.0666661341314
 21
-11.09608360695473
 31
0.0
  0
LINE
  5
2B3
330
71
100
AcDbEntity
  8
1
  6
Continuous
 62
     6
100
AcDbLine
 10
-103.7333328007982
 20
-16.09608360695473
 30
0.0
 11
-35.39999946746727
 21
-16.09608360695473
 31
0.0
  0
LINE
  5
2B4
330
71
100
AcDbEntity
  8
1
  6
Continuous
 62
     2
100
AcDbLine
 10
-103.7333328007982
 20
-16.09608360695473
 30
0.0
 11
-103.7333328007982
 21
-11.09608360695473
 31
0.0
  0
LINE
  5
2B5
330
71
100
AcDbEntity
  8
1
  6
Continuous
 62
     2
100
AcDbLine
 10
-35.39999946746727
 20
-11.09608360695473
 30
0.0
 11
-103.7333328007982
 21
-11.09608360695473
 31
0.0
  0
LINE
  5
2B6
330
71
100
AcDbEntity
  8
1
  6
Continuous
 62
     6
100
AcDbLine
 10
-430.3999994674655
 20
-16.0960836069545
 30
0.0
 11
-377.0666661341314
 21
-16.0960836069545
 31
0.0
  0
LINE
  5
2B7
330
71
100
AcDbEntity
  8
1
  6
Continuous
 62
     6
100
AcDbLine
 10
-35.39999946746477
 20
-188.2960836069545
 30
0.0
 11
-35.39999946746482
 21
-245.6960836069546
 31
0.0
  0
LINE
  5
2B8
330
71
100
AcDbEntity
  8
1
  6
Continuous
 62
     2
100
AcDbLine
 10
-35.39999946746477
 20
-188.2960836069545
 30
0.0
 11
-30.39999946746727
 21
-188.2960836069545
 31
0.0
  0
LINE
  5
2B9
330
71
100
AcDbEntity
  8
1
  6
Continuous
 62
     2
100
AcDbLine
 10
-30.39999946746727
 20
-130.8960836069547
 30
0.0
 11
-30.39999946746727
 21
-188.2960836069545
 31
0.0
  0
LINE
  5
2BA
330
71
100
AcDbEntity
  8
1
  6
Continuous
 62
     6
100
AcDbLine
 10
-35.39999946746477
 20
-130.8960836069547
 30
0.0
 11
-35.39999946746477
 21
-188.2960836069545
 31
0.0
  0
LINE
  5
2BB
330
71
100
AcDbEntity
  8
1
  6
Continuous
 62
     2
100
AcDbLine
 10
-35.39999946746477
 20
-130.8960836069547
 30
0.0
 11
-30.39999946746727
 21
-130.8960836069547
 31
0.0
  0
LINE
  5
2BC
330
71
100
AcDbEntity
  8
1
  6
Continuous
 62
     2
100
AcDbLine
 10
-30.39999946746727
 20
-73.49608360695481
 30
0.0
 11
-30.39999946746727
 21
-130.8960836069547
 31
0.0
  0
LINE
  5
2BD
330
71
100
AcDbEntity
  8
1
  6
Continuous
 62
     6
100
AcDbLine
 10
-35.39999946746676
 20
-73.49608360695481
 30
0.0
 11
-35.39999946746477
 21
-130.8960836069547
 31
0.0
  0
LINE
  5
2BE
330
71
100
AcDbEntity
  8
1
  6
Continuous
 62
     2
100
AcDbLine
 10
-35.39999946746676
 20
-73.49608360695481
 30
0.0
 11
-30.39999946746727
 21
-73.49608360695481
 31
0.0
  0
LINE
  5
2BF
330
71
100
AcDbEntity
  8
1
  6
Continuous
 62
     2
100
AcDbLine
 10
-30.39999946746727
 20
-16.09608360695473
 30
0.0
 11
-30.39999946746727
 21
-73.49608360695481
 31
0.0
  0
LINE
  5
2C0
330
71
100
AcDbEntity
  8
1
  6
Continuous
 62
     2
100
AcDbLine
 10
-35.39999946746727
 20
-16.09608360695473
 30
0.0
 11
-30.39999946746727
 21
-16.09608360695473
 31
0.0
  0
LINE
  5
2C1
330
71
100
AcDbEntity
  8
1
  6
Continuous
 62
     2
100
AcDbLine
 10
-35.39999946746727
 20
-16.09608360695473
 30
0.0
 11
-35.39999946746727
 21
-11.09608360695473
 31
0.0
  0
LINE
  5
2C2
330
71
100
AcDbEntity
  8
1
  6
Continuous
 62
     2
100
AcDbLine
 10
-30.39999946746727
 20
-11.09608360695473
 30
0.0
 11
-30.39999946746727
 21
-16.09608360695473
 31
0.0
  0
LINE
  5
2C3
330
71
100
AcDbEntity
  8
1
  6
Continuous
 62
     6
100
AcDbLine
 10
-35.39999946746727
 20
-16.09608360695473
 30
0.0
 11
-35.39999946746676
 21
-73.49608360695481
 31
0.0
  0
LINE
  5
2C4
330
71
100
AcDbEntity
  8
1
  6
Continuous
 62
     2
100
AcDbLine
 10
-30.39999946746727
 20
-11.09608360695473
 30
0.0
 11
-35.39999946746727
 21
-11.09608360695473
 31
0.0
  0
LINE
  5
2C5
330
71
100
AcDbEntity
  8
1
  6
Continuous
 62
     2
100
AcDbLine
 10
-30.39999946746727
 20
-303.0960836069547
 30
0.0
 11
-30.39999946746727
 21
-245.6960836069546
 31
0.0
  0
LINE
  5
2C6
330
71
100
AcDbEntity
  8
1
  6
Continuous
 62
     2
100
AcDbLine
 10
-30.39999946746727
 20
-303.0960836069547
 30
0.0
 11
-30.39999946746727
 21
-308.0960836069547
 31
0.0
  0
LINE
  5
2C7
330
71
100
AcDbEntity
  8
1
  6
Continuous
 62
     2
100
AcDbLine
 10
-30.39999946746727
 20
-308.0960836069547
 30
0.0
 11
-35.39999946746477
 21
-308.0960836069547
 31
0.0
  0
LINE
  5
2C8
330
71
100
AcDbEntity
  8
1
  6
Continuous
 62
     2
100
AcDbLine
 10
-172.0666661341314
 20
-308.0960836069547
 30
0.0
 11
-103.7333328007982
 21
-308.0960836069547
 31
0.0
  0
LINE
  5
2C9
330
71
100
AcDbEntity
  8
1
  6
Continuous
 62
     2
100
AcDbLine
 10
-220.3999994674676
 20
-308.0960836069547
 30
0.0
 11
-172.0666661341314
 21
-308.0960836069547
 31
0.0
  0
LINE
  5
2CA
330
71
100
AcDbEntity
  8
1
  6
Continuous
 62
     2
100
AcDbLine
 10
-220.3999994674676
 20
-308.0960836069547
 30
0.0
 11
-220.3999994674676
 21
-304.0960836069547
 31
0.0
  0
LINE
  5
2CB
330
71
100
AcDbEntity
  8
1
  6
Continuous
 62
     2
100
AcDbLine
 10
-220.3999994674676
 20
-308.0960836069547
 30
0.0
 11
-240.3999994674648
 21
-308.0960836069547
 31
0.0
  0
LINE
  5
2CC
330
71
100
AcDbEntity
  8
1
  6
Continuous
 62
     2
100
AcDbLine
 10
-430.3999994674655
 20
-308.0960836069547
 30
0.0
 11
-377.0666661341314
 21
-308.0960836069547
 31
0.0
  0
LINE
  5
2CD
330
71
100
AcDbEntity
  8
1
  6
Continuous
 62
     2
100
AcDbLine
 10
-430.3999994674655
 20
-308.0960836069547
 30
0.0
 11
-430.3999994674655
 21
-304.0960836069547
 31
0.0
  0
LINE
  5
2CE
330
71
100
AcDbEntity
  8
1
  6
Continuous
 62
     2
100
AcDbLine
 10
-308.7333328007978
 20
-308.0960836069547
 30
0.0
 11
-308.7333328007978
 21
-303.0960836069547
 31
0.0
  0
LINE
  5
2CF
330
71
100
AcDbEntity
  8
1
  6
Continuous
 62
     6
100
AcDbLine
 10
-377.0666661341314
 20
-303.0960836069547
 30
0.0
 11
-430.3999994674645
 21
-303.0960836069547
 31
0.0
  0
LINE
  5
2D0
330
71
100
AcDbEntity
  8
1
  6
Continuous
 62
     6
100
AcDbLine
 10
-377.0666661341314
 20
-303.0960836069547
 30
0.0
 11
-308.7333328007978
 21
-303.0960836069547
 31
0.0
  0
LINE
  5
2D1
330
71
100
AcDbEntity
  8
1
  6
Continuous
 62
     2
100
AcDbLine
 10
-377.0666661341314
 20
-308.0960836069547
 30
0.0
 11
-308.7333328007978
 21
-308.0960836069547
 31
0.0
  0
LINE
  5
2D2
330
71
100
AcDbEntity
  8
1
  6
Continuous
 62
     2
100
AcDbLine
 10
-377.0666661341314
 20
-308.0960836069547
 30
0.0
 11
-377.0666661341314
 21
-303.0960836069547
 31
0.0
  0
LINE
  5
2D3
330
71
100
AcDbEntity
  8
1
  6
Continuous
 62
     2
100
AcDbLine
 10
-430.3999994674655
 20
-308.0960836069547
 30
0.0
 11
-450.3999994674656
 21
-308.0960836069547
 31
0.0
  0
LINE
  5
2D4
330
71
100
AcDbEntity
  8
1
  6
Continuous
 62
     2
100
AcDbLine
 10
-30.39999946746727
 20
-245.6960836069546
 30
0.0
 11
-35.39999946746482
 21
-245.6960836069546
 31
0.0
  0
LINE
  5
2D5
330
71
100
AcDbEntity
  8
1
  6
Continuous
 62
     2
100
AcDbLine
 10
-30.39999946746727
 20
-245.6960836069546
 30
0.0
 11
-30.39999946746727
 21
-188.2960836069545
 31
0.0
  0
LINE
  5
2D6
330
71
100
AcDbEntity
  8
1
  6
Continuous
 62
     2
100
AcDbLine
 10
-240.3999994674648
 20
-308.0960836069547
 30
0.0
 11
-240.3999994674648
 21
-303.0960836069547
 31
0.0
  0
LINE
  5
2D7
330
71
100
AcDbEntity
  8
1
  6
Continuous
 62
     2
100
AcDbLine
 10
-172.0666661341314
 20
-308.0960836069547
 30
0.0
 11
-172.0666661341314
 21
-303.0960836069576
 31
0.0
  0
LINE
  5
2D8
330
71
100
AcDbEntity
  8
1
  6
Continuous
 62
     2
100
AcDbLine
 10
-103.7333328007982
 20
-308.0960836069547
 30
0.0
 11
-103.7333328007982
 21
-303.0960836069547
 31
0.0
  0
LINE
  5
2D9
330
71
100
AcDbEntity
  8
1
  6
Continuous
 62
     2
100
AcDbLine
 10
-103.7333328007982
 20
-308.0960836069547
 30
0.0
 11
-35.39999946746477
 21
-308.0960836069547
 31
0.0
  0
LINE
  5
2DA
330
71
100
AcDbEntity
  8
1
  6
Continuous
 62
     2
100
AcDbLine
 10
-240.3999994674648
 20
-308.0960836069547
 30
0.0
 11
-308.7333328007978
 21
-308.0960836069547
 31
0.0
  0
LINE
  5
2DB
330
71
100
AcDbEntity
  8
1
  6
Continuous
 62
     6
100
AcDbLine
 10
-35.39999946746573
 20
-281.8460836069553
 30
0.0
 11
-35.39999946746482
 21
-245.6960836069546
 31
0.0
  0
LINE
  5
2DC
330
71
100
AcDbEntity
  8
1
  6
Continuous
 62
     6
100
AcDbLine
 10
-35.39999946746477
 20
-286.0960836069553
 30
0.0
 11
-35.39999946746573
 21
-281.8460836069553
 31
0.0
  0
LINE
  5
2DD
330
71
100
AcDbEntity
  8
1
  6
Continuous
 62
     6
100
AcDbLine
 10
-35.39999946746522
 20
-294.5960836069553
 30
0.0
 11
-35.39999946746477
 21
-286.0960836069553
 31
0.0
  0
LINE
  5
2DE
330
71
100
AcDbEntity
  8
1
  6
Continuous
 62
     6
100
AcDbLine
 10
-103.7333328007982
 20
-303.0960836069547
 30
0.0
 11
-35.39999946746482
 21
-303.0960836069552
 31
0.0
  0
ARC
  5
2DF
102
{ACAD_REACTORS
330
35A
330
35B
102
}
330
71
100
AcDbEntity
  8
0
  6
Continuous
 62
     2
100
AcDbCircle
 10
-152.5733029695651
 20
-297.5883597902895
 30
0.0
 40
4.852596863497931
100
AcDbArc
 50
74.02000874164692
 51
84.84185523037603
  0
ARC
  5
2E0
102
{ACAD_REACTORS
330
35A
330
35B
102
}
330
71
100
AcDbEntity
  8
0
  6
Continuous
 62
     2
100
AcDbCircle
 10
-151.9972623608114
 20
-294.4325994344052
 30
0.0
 40
0.9059297849852959
100
AcDbArc
 50
71.55192388185858
 51
113.372277888129
  0
ARC
  5
2E1
102
{ACAD_REACTORS
330
35A
330
35B
102
}
330
71
100
AcDbEntity
  8
0
  6
Continuous
 62
     2
100
AcDbCircle
 10
-152.1537023935135
 20
-294.4807502743722
 30
0.0
 40
0.5115800601947491
100
AcDbArc
 50
208.5214732576844
 51
246.6277221118311
  0
ARC
  5
2E2
102
{ACAD_REACTORS
330
35A
330
35B
102
}
330
71
100
AcDbEntity
  8
0
  6
Continuous
 62
     2
100
AcDbCircle
 10
-151.9972623608114
 20
-294.1187582556622
 30
0.0
 40
0.9059297849848149
100
AcDbArc
 50
246.6277221118682
 51
288.4480761181539
  0
ARC
  5
2E3
102
{ACAD_REACTORS
330
35A
330
35B
102
}
330
71
100
AcDbEntity
  8
0
  6
Continuous
 62
     2
100
AcDbCircle
 10
-152.4154300944723
 20
-292.865212479625
 30
0.0
 40
2.227384008972773
100
AcDbArc
 50
288.4480761181333
 51
301.9309089499629
  0
ARC
  5
2E4
102
{ACAD_REACTORS
330
356
330
357
102
}
330
71
100
AcDbEntity
  8
0
  6
Continuous
 62
     2
100
AcDbCircle
 10
-157.640503827079
 20
-292.132710450711
 30
0.0
 40
0.9118481501443819
100
AcDbArc
 50
295.3740086781787
 51
64.62599132181052
  0
ARC
  5
2E5
102
{ACAD_REACTORS
330
356
330
357
102
}
330
71
100
AcDbEntity
  8
0
  6
Continuous
 62
     2
100
AcDbCircle
 10
-157.1144611289911
 20
-290.4180335622364
 30
0.0
 40
0.3157169230761851
100
AcDbArc
 50
90.1889670425665
 51
180.0
  0
ARC
  5
2E6
102
{ACAD_REACTORS
330
358
330
359
102
}
330
71
100
AcDbEntity
  8
0
  6
Continuous
 62
     2
100
AcDbCircle
 10
-135.9043309161569
 20
-294.4885623960776
 30
0.0
 40
0.9545230068260935
100
AcDbArc
 50
90.0
 51
109.3371432194281
  0
ARC
  5
2E7
102
{ACAD_REACTORS
330
358
330
359
102
}
330
71
100
AcDbEntity
  8
0
  6
Continuous
 62
     2
100
AcDbCircle
 10
-135.6736436561791
 20
-294.2756788450337
 30
0.0
 40
0.9410597353350352
100
AcDbArc
 50
151.4785267423573
 51
208.521473257667
  0
ARC
  5
2E8
102
{ACAD_REACTORS
330
358
330
359
102
}
330
71
100
AcDbEntity
  8
0
  6
Continuous
 62
     2
100
AcDbCircle
 10
-135.8945608815574
 20
-294.1187582556622
 30
0.0
 40
0.9059297849852095
100
AcDbArc
 50
246.6277221118105
 51
288.4480761180772
  0
ARC
  5
2E9
102
{ACAD_REACTORS
330
358
330
359
102
}
330
71
100
AcDbEntity
  8
0
  6
Continuous
 62
     2
100
AcDbCircle
 10
-136.3127286152194
 20
-292.8652124796255
 30
0.0
 40
2.227384008972773
100
AcDbArc
 50
288.4480761181333
 51
301.9309089499394
  0
ARC
  5
2EA
102
{ACAD_REACTORS
330
358
330
359
102
}
330
71
100
AcDbEntity
  8
0
  6
Continuous
 62
     2
100
AcDbCircle
 10
-136.4706014903122
 20
-290.9629978997772
 30
0.0
 40
4.852596863498889
100
AcDbArc
 50
275.1581447696373
 51
285.9799912583383
  0
ARC
  5
2EB
102
{ACAD_REACTORS
330
358
330
359
102
}
330
71
100
AcDbEntity
  8
0
  6
Continuous
 62
     2
100
AcDbCircle
 10
-136.1817453955763
 20
-294.1628884829988
 30
0.0
 40
1.639695123940488
100
AcDbArc
 50
195.0618917770988
 51
275.1581447696772
  0
ARC
  5
2EC
102
{ACAD_REACTORS
330
350
330
351
102
}
330
71
100
AcDbEntity
  8
0
  6
Continuous
 62
     2
100
AcDbCircle
 10
-151.9099587072674
 20
-290.4449492482872
 30
0.0
 40
1.055365641333708
100
AcDbArc
 50
270.0
 51
90.0
  0
ARC
  5
2ED
102
{ACAD_REACTORS
330
356
330
357
102
}
330
71
100
AcDbEntity
  8
0
  6
Continuous
 62
     2
100
AcDbCircle
 10
-159.6900098155229
 20
-294.7743111283053
 30
0.0
 40
0.3157169230755983
100
AcDbArc
 50
180.0
 51
270.0
  0
ARC
  5
2EE
102
{ACAD_REACTORS
330
356
330
357
102
}
330
71
100
AcDbEntity
  8
0
  6
Continuous
 62
     2
100
AcDbCircle
 10
-158.2141765545133
 20
-290.4178560855882
 30
0.0
 40
0.315716923076593
100
AcDbArc
 50
0.0
 51
90.0
  0
ARC
  5
2EF
102
{ACAD_REACTORS
330
356
330
357
102
}
330
71
100
AcDbEntity
  8
0
  6
Continuous
 62
     2
100
AcDbCircle
 10
-158.2141765545133
 20
-291.0218807046488
 30
0.0
 40
0.3157169230760658
100
AcDbArc
 50
295.1944106485672
 51
0.0
  0
ARC
  5
2F0
102
{ACAD_REACTORS
330
356
330
357
102
}
330
71
100
AcDbEntity
  8
0
  6
Continuous
 62
     2
100
AcDbCircle
 10
-158.2141765545133
 20
-294.7743111283053
 30
0.0
 40
0.3157169230766499
100
AcDbArc
 50
270.0
 51
0.0
  0
ARC
  5
2F1
102
{ACAD_REACTORS
330
356
330
357
102
}
330
71
100
AcDbEntity
  8
0
  6
Continuous
 62
     2
100
AcDbCircle
 10
-160.2839044922694
 20
-289.8138282223555
 30
0.0
 40
0.4242446153838841
100
AcDbArc
 50
90.0
 51
180.0
  0
ARC
  5
2F2
102
{ACAD_REACTORS
330
356
330
357
102
}
330
71
100
AcDbEntity
  8
0
  6
Continuous
 62
     2
100
AcDbCircle
 10
-154.8105924015525
 20
-289.8138282223555
 30
0.0
 40
0.4242446153838841
100
AcDbArc
 50
0.0
 51
90.0
  0
ARC
  5
2F3
102
{ACAD_REACTORS
330
356
330
357
102
}
330
71
100
AcDbEntity
  8
0
  6
Continuous
 62
     2
100
AcDbCircle
 10
-154.8105924015525
 20
-295.3783389915557
 30
0.0
 40
0.424244615383202
100
AcDbArc
 50
270.0
 51
0.0
  0
ARC
  5
2F4
102
{ACAD_REACTORS
330
354
330
355
102
}
330
71
100
AcDbEntity
  8
0
  6
Continuous
 62
     2
100
AcDbCircle
 10
-145.592208514461
 20
-290.9164883688593
 30
0.0
 40
0.7717997786795702
100
AcDbArc
 50
321.8795802028399
 51
38.12041979715683
  0
ARC
  5
2F5
102
{ACAD_REACTORS
330
354
330
355
102
}
330
71
100
AcDbEntity
  8
0
  6
Continuous
 62
     2
100
AcDbCircle
 10
-145.3924684781148
 20
-291.0732195469798
 30
0.0
 40
0.5179085730134915
100
AcDbArc
 50
218.1204197971384
 51
321.8795802028558
  0
ARC
  5
2F6
102
{ACAD_REACTORS
330
352
330
353
102
}
330
71
100
AcDbEntity
  8
0
  6
Continuous
 62
     2
100
AcDbCircle
 10
-149.0724760670751
 20
-294.2756788450337
 30
0.0
 40
1.458034083652017
100
AcDbArc
 50
297.5481481757046
 51
62.45185182429856
  0
ARC
  5
2F7
102
{ACAD_REACTORS
330
352
330
353
102
}
330
71
100
AcDbEntity
  8
0
  6
Continuous
 62
     2
100
AcDbCircle
 10
-149.6343558507417
 20
-294.2756788450337
 30
0.0
 40
1.458034083651616
100
AcDbArc
 50
117.5481481756598
 51
242.451851824337
  0
ARC
  5
2F8
102
{ACAD_REACTORS
330
352
330
353
102
}
330
71
100
AcDbEntity
  8
0
  6
Continuous
 62
     2
100
AcDbCircle
 10
-149.3534159589083
 20
-294.8142538553365
 30
0.0
 40
2.065479772208694
100
AcDbArc
 50
62.45185182430819
 51
117.5481481756674
  0
ARC
  5
2F9
102
{ACAD_REACTORS
330
352
330
353
102
}
330
71
100
AcDbEntity
  8
0
  6
Continuous
 62
     2
100
AcDbCircle
 10
-149.3534159589083
 20
-293.7371038347303
 30
0.0
 40
2.065479772208637
100
AcDbArc
 50
242.4518518243384
 51
297.548148175686
  0
ARC
  5
2FA
102
{ACAD_REACTORS
330
354
330
355
102
}
330
71
100
AcDbEntity
  8
0
  6
Continuous
 62
     2
100
AcDbCircle
 10
-145.1927284417686
 20
-290.9164883688593
 30
0.0
 40
0.7717997786796245
100
AcDbArc
 50
141.8795802028484
 51
218.1204197971549
  0
ARC
  5
2FB
102
{ACAD_REACTORS
330
354
330
355
102
}
330
71
100
AcDbEntity
  8
0
  6
Continuous
 62
     2
100
AcDbCircle
 10
-145.3924684781148
 20
-290.7597571907388
 30
0.0
 40
0.5179085730133893
100
AcDbArc
 50
38.12041979713927
 51
141.8795802028666
  0
ARC
  5
2FC
102
{ACAD_REACTORS
330
356
330
357
102
}
330
71
100
AcDbEntity
  8
0
  6
Continuous
 62
     2
100
AcDbCircle
 10
-160.2839044922694
 20
-295.3783389915557
 30
0.0
 40
0.4242446153828041
100
AcDbArc
 50
180.0
 51
270.0
  0
ARC
  5
2FD
102
{ACAD_REACTORS
330
356
330
357
102
}
330
71
100
AcDbEntity
  8
0
  6
Continuous
 62
     2
100
AcDbCircle
 10
-158.2141765545133
 20
-293.2435401967737
 30
0.0
 40
0.315716923076593
100
AcDbArc
 50
0.0
 51
64.805589351446
  0
ARC
  5
2FE
102
{ACAD_REACTORS
330
356
330
357
102
}
330
71
100
AcDbEntity
  8
0
  6
Continuous
 62
     2
100
AcDbCircle
 10
-157.6915921069383
 20
-292.132710450711
 30
0.0
 40
0.9118975235576555
100
AcDbArc
 50
115.1944106485211
 51
244.8055893514895
  0
ARC
  5
2FF
102
{ACAD_REACTORS
330
356
330
357
102
}
330
71
100
AcDbEntity
  8
0
  6
Continuous
 62
     2
100
AcDbCircle
 10
-159.6900098155229
 20
-290.4178560855882
 30
0.0
 40
0.3157169230760815
100
AcDbArc
 50
90.0
 51
180.0
  0
ARC
  5
300
102
{ACAD_REACTORS
330
350
330
351
102
}
330
71
100
AcDbEntity
  8
0
  6
Continuous
 62
     2
100
AcDbCircle
 10
-152.3514312335058
 20
-290.4055532770647
 30
0.0
 40
0.3528638246710898
100
AcDbArc
 50
270.0
 51
90.0
  0
ARC
  5
301
102
{ACAD_REACTORS
330
354
330
355
102
}
330
71
100
AcDbEntity
  8
0
  6
Continuous
 62
     2
100
AcDbCircle
 10
-145.60874048828
 20
-290.9164883688593
 30
0.0
 40
1.526904761905769
100
AcDbArc
 50
90.0
 51
270.0
  0
ARC
  5
302
102
{ACAD_REACTORS
330
358
330
359
102
}
330
71
100
AcDbEntity
  8
0
  6
Continuous
 62
     2
100
AcDbCircle
 10
-136.1817453955763
 20
-294.3884692070685
 30
0.0
 40
1.639695123940101
100
AcDbArc
 50
90.0
 51
164.9381082228993
  0
ARC
  5
303
102
{ACAD_REACTORS
330
358
330
359
102
}
330
71
100
AcDbEntity
  8
0
  6
Continuous
 62
     2
100
AcDbCircle
 10
-136.600873239038
 20
-294.2756788450337
 30
0.0
 40
1.205656168392975
100
AcDbArc
 50
164.9381082229024
 51
195.0618917770897
  0
ARC
  5
304
102
{ACAD_REACTORS
330
358
330
359
102
}
330
71
100
AcDbEntity
  8
0
  6
Continuous
 62
     2
100
AcDbCircle
 10
-136.0510009142606
 20
-294.4807502743722
 30
0.0
 40
0.5115800601959967
100
AcDbArc
 50
208.5214732576881
 51
246.6277221118428
  0
ARC
  5
305
102
{ACAD_REACTORS
330
358
330
359
102
}
330
71
100
AcDbEntity
  8
0
  6
Continuous
 62
     2
100
AcDbCircle
 10
-136.0510009142606
 20
-294.0706074156946
 30
0.0
 40
0.5115800601944048
100
AcDbArc
 50
109.3371432194823
 51
151.4785267424182
  0
ARC
  5
306
102
{ACAD_REACTORS
330
356
330
357
102
}
330
71
100
AcDbEntity
  8
0
  6
Continuous
 62
     2
100
AcDbCircle
 10
-157.1144611289911
 20
-293.8237034573744
 30
0.0
 40
0.315716923076792
100
AcDbArc
 50
180.0
 51
269.8110329574335
  0
ARC
  5
307
102
{ACAD_REACTORS
330
356
330
357
102
}
330
71
100
AcDbEntity
  8
0
  6
Continuous
 62
     2
100
AcDbCircle
 10
-157.1088449936811
 20
-292.1208685098054
 30
0.0
 40
2.018561131933266
100
AcDbArc
 50
269.8110329575827
 51
90.18896704241737
  0
ARC
  5
308
102
{ACAD_REACTORS
330
356
330
357
102
}
330
71
100
AcDbEntity
  8
0
  6
Continuous
 62
     2
100
AcDbCircle
 10
-157.1144611289911
 20
-291.0235688507432
 30
0.0
 40
0.315716923076792
100
AcDbArc
 50
180.0
 51
244.6259913216393
  0
ARC
  5
309
102
{ACAD_REACTORS
330
356
330
357
102
}
330
71
100
AcDbEntity
  8
0
  6
Continuous
 62
     2
100
AcDbCircle
 10
-157.1144611289911
 20
-293.2418520506793
 30
0.0
 40
0.3157169230765328
100
AcDbArc
 50
115.3740086783519
 51
180.0
  0
ARC
  5
30A
102
{ACAD_REACTORS
330
35A
330
35B
102
}
330
71
100
AcDbEntity
  8
0
  6
Continuous
 62
     2
100
AcDbCircle
 10
-152.2844468748292
 20
-294.3884692070685
 30
0.0
 40
1.639695123940499
100
AcDbArc
 50
84.84185523036533
 51
164.9381082228903
  0
ARC
  5
30B
102
{ACAD_REACTORS
330
35A
330
35B
102
}
330
71
100
AcDbEntity
  8
0
  6
Continuous
 62
     2
100
AcDbCircle
 10
-152.703574718292
 20
-294.2756788450337
 30
0.0
 40
1.205656168390944
100
AcDbArc
 50
164.9381082228765
 51
195.0618917770948
  0
ARC
  5
30C
102
{ACAD_REACTORS
330
35A
330
35B
102
}
330
71
100
AcDbEntity
  8
0
  6
Continuous
 62
     2
100
AcDbCircle
 10
-152.2844468748292
 20
-294.1628884829988
 30
0.0
 40
1.63969512393941
100
AcDbArc
 50
195.0618917770925
 51
275.1581447696363
  0
ARC
  5
30D
102
{ACAD_REACTORS
330
35A
330
35B
102
}
330
71
100
AcDbEntity
  8
0
  6
Continuous
 62
     2
100
AcDbCircle
 10
-152.5733029695651
 20
-290.9629978997772
 30
0.0
 40
4.852596863498272
100
AcDbArc
 50
275.1581447696238
 51
285.9799912583526
  0
ARC
  5
30E
102
{ACAD_REACTORS
330
35A
330
35B
102
}
330
71
100
AcDbEntity
  8
0
  6
Continuous
 62
     2
100
AcDbCircle
 10
-151.7763451354331
 20
-294.2756788450337
 30
0.0
 40
0.9410597353333294
100
AcDbArc
 50
151.4785267422693
 51
208.5214732576972
  0
ARC
  5
30F
102
{ACAD_REACTORS
330
35A
330
35B
102
}
330
71
100
AcDbEntity
  8
0
  6
Continuous
 62
     2
100
AcDbCircle
 10
-152.1537023935135
 20
-294.0706074156946
 30
0.0
 40
0.5115800601948701
100
AcDbArc
 50
113.3722778881891
 51
151.4785267423156
  0
ARC
  5
310
102
{ACAD_REACTORS
330
35A
330
35B
102
}
330
71
100
AcDbEntity
  8
0
  6
Continuous
 62
     2
100
AcDbCircle
 10
-152.4154300944723
 20
-295.6861452104418
 30
0.0
 40
2.227384008973465
100
AcDbArc
 50
58.06909105003707
 51
71.55192388186676
  0
ARC
  5
311
102
{ACAD_REACTORS
330
352
330
353
102
}
330
71
100
AcDbEntity
  8
0
  6
Continuous
 62
     2
100
AcDbCircle
 10
-149.3534159589083
 20
-294.1189476669132
 30
0.0
 40
0.5179085730132806
100
AcDbArc
 50
38.12041979716469
 51
141.8795802028567
  0
ARC
  5
312
102
{ACAD_REACTORS
330
352
330
353
102
}
330
71
100
AcDbEntity
  8
0
  6
Continuous
 62
     2
100
AcDbCircle
 10
-149.1536759225623
 20
-294.2756788450337
 30
0.0
 40
0.7717997786795733
100
AcDbArc
 50
141.8795802028293
 51
218.1204197971607
  0
ARC
  5
313
102
{ACAD_REACTORS
330
352
330
353
102
}
330
71
100
AcDbEntity
  8
0
  6
Continuous
 62
     2
100
AcDbCircle
 10
-149.3534159589083
 20
-294.4324100231536
 30
0.0
 40
0.5179085730138424
100
AcDbArc
 50
218.1204197971879
 51
321.8795802027908
  0
ARC
  5
314
102
{ACAD_REACTORS
330
352
330
353
102
}
330
71
100
AcDbEntity
  8
0
  6
Continuous
 62
     2
100
AcDbCircle
 10
-149.5531559952547
 20
-294.2756788450337
 30
0.0
 40
0.7717997786795351
100
AcDbArc
 50
321.8795802028432
 51
38.1204197971668
  0
CIRCLE
  5
315
330
71
100
AcDbEntity
  8
1
  6
Continuous
 62
     2
100
AcDbCircle
 10
-152.2081491076522
 20
-281.9710836069554
 30
0.0
 40
2.5
  0
CIRCLE
  5
316
330
71
100
AcDbEntity
  8
1
  6
Continuous
 62
     2
100
AcDbCircle
 10
-152.2081491076522
 20
-281.9710836069554
 30
0.0
 40
1.25
  0
CIRCLE
  5
317
102
{ACAD_REACTORS
330
356
330
357
102
}
330
71
100
AcDbEntity
  8
0
  6
Continuous
 62
     2
100
AcDbCircle
 10
-157.6643188417518
 20
-292.132710450711
 30
0.0
 40
0.4709789327785074
  0
MTEXT
  5
318
330
71
100
AcDbEntity
  8
1
 62
     3
100
AcDbMText
 10
-431.9773261561115
 20
-303.0691695074541
 30
0.0
 40
1.8
 41
0.0
 71
     7
 72
     1
  3
Weitergabe sowie Vervielf\U+00e4ltigung dieses Dokuments, Verwertung und \PMitteilung seines Inhalts sind verboten, soweit nicht ausdr\U+00fccklich gestattet. \PZuwiderhandlungen verpflichten zu Schadenersatz. Alle Rechte f\U+00fcr den Fall\Pder Pat
  1
ent-, Gebrauchsmuster- oder Designeintragung vorbehalten.
  7
CONVERTER_11
 11
0.0
 21
1.0
 31
0.0
 73
     1
 44
0.99639855942377
  0
MTEXT
  5
319
330
71
100
AcDbEntity
  8
1
 62
     3
100
AcDbMText
 10
-432.1315324672055
 20
-130.109799493301
 30
0.0
 40
1.8
 41
0.0
 71
     7
 72
     1
  3
Transfer or duplication of this document as well as the utilisation or\Pcommunication of its content are not permitted unless express consent\Pis granted. Violations give rise to claims for damages. All rights reserved\Pin case of patent, utility mo
  1
del or design patent registrations.
  7
CONVERTER_11
 11
0.0
 21
1.0
 31
0.0
 73
     1
 44
0.99639855942377
  0
TEXT
  5
31A
330
71
100
AcDbEntity
  8
1
 62
     2
100
AcDbText
 10
-145.7448039942149
 20
-301.8551008219468
 30
0.0
 40
1.8
  1
of
 41
0.9
  7
CONVERTER_11
100
AcDbText
  0
TEXT
  5
31B
330
71
100
AcDbEntity
  8
1
 62
     2
100
AcDbText
 10
-163.9448039942147
 20
-301.855100821947
 30
0.0
 40
1.8
  1
page
 41
0.9
  7
CONVERTER_11
100
AcDbText
  0
TEXT
  5
31C
330
71
100
AcDbEntity
  8
1
 62
     2
100
AcDbText
 10
-155.2985390238727
 20
-301.8953322607572
 30
0.0
 40
1.8
  1
1
 41
0.9
  7
CONVERTER_11
100
AcDbText
  0
TEXT
  5
31D
330
71
100
AcDbEntity
  8
1
 62
     2
100
AcDbText
 10
-140.5094951844012
 20
-301.8460836069553
 30
0.0
 40
1.8
  1
1
 41
0.9
  7
CONVERTER_11
100
AcDbText
  0
MTEXT
  5
31F
330
71
100
AcDbEntity
  8
1
 62
     7
100
AcDbMText
 10
-81.97240173083927
 20
-299.8460836069551
 30
0.0
 40
3.0
 41
0.0
 71
     5
 72
     1
  1
HC-RBO 10 BU
  7
CONVERTER_12
 73
     1
 44
1.20048019207683
  0
MTEXT
  5
320
330
71
100
AcDbEntity
  8
1
 62
     2
100
AcDbMText
 10
-127.5448039942148
 20
-295.5960836069553
 30
0.0
 40
1.8
 41
0.0
 71
     1
 72
     1
  1
description
  7
CONVERTER_11
 73
     1
 44
1.20048019207683
  0
MTEXT
  5
321
330
71
100
AcDbEntity
  8
1
 62
     3
100
AcDbMText
 10
-138.7448039942148
 20
-281.9710836069553
 30
0.0
 40
2.5
 41
0.0
 71
     5
 72
     1
  1
DIN A3
  7
CONVERTER_11
 73
     1
 44
1.20048019207683
  0
MTEXT
  5
322
330
71
100
AcDbEntity
  8
1
 62
     2
100
AcDbMText
 10
-199.3558272634243
 20
-290.3460836069565
 30
0.0
 40
2.0
 41
0.0
 71
     5
 72
     1
  1
General Information\P- Simplified representation\P- Document excluded from change process\P- Linear dimensions [mm]
  7
CONVERTER_11
 73
     1
 44
1.20048019207683
  0
TEXT
  5
323
330
71
100
AcDbEntity
  8
1
 62
     7
100
AcDbText
 10
-127.044803994215
 20
-293.2960836069553
 30
0.0
 40
2.5
  1
3247972
 41
0.81
  7
CONVERTER_12
100
AcDbText
  0
MTEXT
  5
324
330
71
100
AcDbEntity
  8
1
 62
     2
100
AcDbMText
 10
-127.4448039942148
 20
-287.0960836069553
 30
0.0
 40
1.8
 41
0.0
 71
     1
 72
     1
  1
ident.-No.
  7
CONVERTER_11
 73
     1
 44
1.20048019207683
  0
MTEXT
  5
325
330
71
100
AcDbEntity
  8
1
 62
     2
100
AcDbMText
 10
-43.21840774914197
 20
-278.5960836069553
 30
0.0
 40
1.8
 41
0.0
 71
     1
 72
     1
  1
scale
  7
CONVERTER_11
 73
     1
 44
1.20048019207683
  0
MTEXT
  5
327
330
71
100
AcDbEntity
  8
1
 62
     3
100
AcDbMText
 10
-39.85920360830247
 20
-284.7960836069552
 30
0.0
 40
2.5
 41
0.0
 71
     8
 72
     1
  1
1:1
  7
CONVERTER_13
 73
     1
 44
1.32052821128451
  0
TEXT
  5
328
330
71
100
AcDbEntity
  8
1
 62
     7
100
AcDbText
 10
-127.4448039942148
 20
-284.7960836069553
 30
0.0
 40
2.5
  1
01095215
 41
0.81
  7
CONVERTER_12
100
AcDbText
  0
MTEXT
  5
32A
330
71
100
AcDbEntity
  8
1
 62
     2
100
AcDbMText
 10
-127.4448039942148
 20
-278.5960836069553
 30
0.0
 40
1.8
 41
0.0
 71
     1
 72
     1
  1
document-No. / RI
  7
CONVERTER_14
 73
     1
 44
1.32052821128451
  0
TEXT
  5
32B
330
71
100
AcDbEntity
  8
1
 62
     3
100
AcDbText
 10
-99.64480399421477
 20
-293.2960836069553
 30
0.0
 40
2.5
  1
TECDOC 2D_Productdrawing
 41
0.81
  7
CONVERTER_12
100
AcDbText
  0
MTEXT
  5
32C
330
71
100
AcDbEntity
  8
1
 62
     2
100
AcDbMText
 10
-99.64480399421477
 20
-287.0960836069553
 30
0.0
 40
1.8
 41
0.0
 71
     1
 72
     1
  1
document-type
  7
CONVERTER_11
 73
     1
 44
1.20048019207683
  0
MTEXT
  5
32D
330
71
100
AcDbEntity
  8
1
 62
     2
100
AcDbMText
 10
-69.8184077491418
 20
-278.5960836069553
 30
0.0
 40
1.8
 41
0.0
 71
     1
 72
     1
  1
date
  7
CONVERTER_11
 73
     1
 44
1.32052821128451
  0
TEXT
  5
32E
330
71
100
AcDbEntity
  8
1
 62
     3
100
AcDbText
 10
-69.8184077491418
 20
-284.7960836069553
 30
0.0
 40
2.5
  1
13.01.2018
 41
0.81
  7
CONVERTER_12
100
AcDbText
  0
TEXT
  5
32F
330
71
100
AcDbEntity
  8
1
 62
     7
100
AcDbText
 10
-107.414891775159
 20
-284.7960836069553
 30
0.0
 40
2.5
  1
00
 41
0.81
  7
CONVERTER_12
100
AcDbText
  0
TEXT
  5
330
330
71
100
AcDbEntity
  8
1
 62
     7
100
AcDbText
 10
-109.571256272201
 20
-284.7960836069553
 30
0.0
 40
2.5
  1
/
 41
0.9
  7
CONVERTER_11
100
AcDbText
  0
TEXT
  5
331
330
71
100
AcDbEntity
  8
1
 62
     7
100
AcDbText
 10
-412.3999994674645
 20
-15.0960836069545
 30
0.0
 40
2.5
  1
1
 41
0.9
  7
CONVERTER_11
100
AcDbText
  0
TEXT
  5
332
330
71
100
AcDbEntity
  8
1
 62
     7
100
AcDbText
 10
-344.0666661341314
 20
-15.0960836069545
 30
0.0
 40
2.5
  1
2
 41
0.9
  7
CONVERTER_11
100
AcDbText
  0
TEXT
  5
333
330
71
100
AcDbEntity
  8
1
 62
     7
100
AcDbText
 10
-275.7333328007978
 20
-15.0960836069545
 30
0.0
 40
2.5
  1
3
 41
0.9
  7
CONVERTER_11
100
AcDbText
  0
TEXT
  5
334
330
71
100
AcDbEntity
  8
1
 62
     7
100
AcDbText
 10
-207.3999994674648
 20
-15.0960836069545
 30
0.0
 40
2.5
  1
4
 41
0.9
  7
CONVERTER_11
100
AcDbText
  0
TEXT
  5
335
330
71
100
AcDbEntity
  8
1
 62
     7
100
AcDbText
 10
-139.0666661341314
 20
-15.0960836069545
 30
0.0
 40
2.5
  1
5
 41
0.9
  7
CONVERTER_11
100
AcDbText
  0
TEXT
  5
336
330
71
100
AcDbEntity
  8
1
 62
     7
100
AcDbText
 10
-70.73333280079814
 20
-15.0960836069545
 30
0.0
 40
2.5
  1
6
 41
0.9
  7
CONVERTER_11
100
AcDbText
  0
TEXT
  5
337
330
71
100
AcDbEntity
  8
1
 62
     7
100
AcDbText
 10
-34.39999946746477
 20
-45.99608360695482
 30
0.0
 40
2.5
  1
A
 41
0.9
  7
CONVERTER_11
100
AcDbText
  0
TEXT
  5
338
330
71
100
AcDbEntity
  8
1
 62
     7
100
AcDbText
 10
-34.39999946746477
 20
-103.3960836069547
 30
0.0
 40
2.5
  1
B
 41
0.9
  7
CONVERTER_11
100
AcDbText
  0
TEXT
  5
339
330
71
100
AcDbEntity
  8
1
 62
     7
100
AcDbText
 10
-34.39999946746477
 20
-160.7960836069545
 30
0.0
 40
2.5
  1
C
 41
0.9
  7
CONVERTER_11
100
AcDbText
  0
TEXT
  5
33A
330
71
100
AcDbEntity
  8
1
 62
     7
100
AcDbText
 10
-34.39999946746477
 20
-218.1960836069546
 30
0.0
 40
2.5
  1
D
 41
0.9
  7
CONVERTER_11
100
AcDbText
  0
TEXT
  5
33B
330
71
100
AcDbEntity
  8
1
 62
     7
100
AcDbText
 10
-344.0666661341314
 20
-307.0960836069547
 30
0.0
 40
2.5
  1
2
 41
0.9
  7
CONVERTER_11
100
AcDbText
  0
TEXT
  5
33C
330
71
100
AcDbEntity
  8
1
 62
     7
100
AcDbText
 10
-412.3999994674645
 20
-307.0960836069547
 30
0.0
 40
2.5
  1
1
 41
0.9
  7
CONVERTER_11
100
AcDbText
  0
TEXT
  5
33D
330
71
100
AcDbEntity
  8
1
 62
     7
100
AcDbText
 10
-34.39999946746477
 20
-275.5960836069547
 30
0.0
 40
2.5
  1
E
 41
0.9
  7
CONVERTER_11
100
AcDbText
  0
TEXT
  5
33E
330
71
100
AcDbEntity
  8
1
 62
     7
100
AcDbText
 10
-275.7333328007978
 20
-307.0960836069547
 30
0.0
 40
2.5
  1
3
 41
0.9
  7
CONVERTER_11
100
AcDbText
  0
TEXT
  5
33F
330
71
100
AcDbEntity
  8
1
 62
     7
100
AcDbText
 10
-207.3999994674648
 20
-307.0960836069547
 30
0.0
 40
2.5
  1
4
 41
0.9
  7
CONVERTER_11
100
AcDbText
  0
TEXT
  5
340
330
71
100
AcDbEntity
  8
1
 62
     7
100
AcDbText
 10
-139.0666661341316
 20
-307.0960836069547
 30
0.0
 40
2.5
  1
5
 41
0.9
  7
CONVERTER_11
100
AcDbText
  0
TEXT
  5
341
330
71
100
AcDbEntity
  8
1
 62
     7
100
AcDbText
 10
-70.73333280079814
 20
-307.0960836069547
 30
0.0
 40
2.5
  1
6
 41
0.9
  7
CONVERTER_11
100
AcDbText
  0
HATCH
  5
342
330
71
100
AcDbEntity
  8
1
  6
Continuous
 62
     2
100
AcDbHatch
 10
0.0
 20
0.0
 30
0.0
210
0.0
220
0.0
230
1.0
  2
CUSTOM0
 70
     0
 71
     1
 91
        1
 92
        1
 93
       12
 72
     1
 10
-147.2773032812536
 20
-292.4433931307646
 11
-148.4700959834201
 21
-292.4433931307646
 72
     1
 10
-148.4700959834201
 20
-292.4433931307646
 11
-148.4700959834201
 21
-291.3091210219209
 72
     1
 10
-148.4700959834201
 20
-291.3091210219209
 11
-149.5197535613275
 21
-291.3091210219209
 72
     1
 10
-149.5197535613275
 20
-291.3091210219209
 11
-149.5197535613275
 21
-292.4433931307646
 72
     1
 10
-149.5197535613275
 20
-292.4433931307646
 11
-150.7125462634941
 21
-292.4433931307646
 72
     1
 10
-150.7125462634941
 20
-292.4433931307646
 11
-150.7125462634941
 21
-289.3895836069535
 72
     1
 10
-150.7125462634941
 20
-289.3895836069535
 11
-149.5197535613275
 21
-289.3895836069535
 72
     1
 10
-149.5197535613275
 20
-289.3895836069535
 11
-149.5197535613275
 21
-290.4584169402881
 72
     1
 10
-149.5197535613275
 20
-290.4584169402881
 11
-148.4700959834201
 21
-290.4584169402881
 72
     1
 10
-148.4700959834201
 20
-290.4584169402881
 11
-148.4700959834201
 21
-289.3895836069535
 72
     1
 10
-148.4700959834201
 20
-289.3895836069535
 11
-147.2773032812536
 21
-289.3895836069535
 72
     1
 10
-147.2773032812536
 20
-289.3895836069535
 11
-147.2773032812536
 21
-292.4433931307646
 97
       12
330
26B
330
26C
330
256
330
255
330
254
330
268
330
253
330
269
330
26A
330
252
330
251
330
250
 75
     1
 76
     2
 52
45.0
 41
0.1
 77
     0
 78
     1
 53
45.0
 43
62.7811309658083
 44
-72.3161373035813
 45
-0.1414213562373095
 46
0.0
 79
     0
 98
        1
 10
0.0
 20
0.0
  0
HATCH
  5
343
330
71
100
AcDbEntity
  8
1
  6
Continuous
 62
     2
100
AcDbHatch
 10
0.0
 20
0.0
 30
0.0
210
0.0
220
0.0
230
1.0
  2
CUSTOM1
 70
     0
 71
     1
 91
        1
 92
        1
 93
       12
 72
     1
 10
-147.2773032812536
 20
-292.4433931307646
 11
-148.4700959834201
 21
-292.4433931307646
 72
     1
 10
-148.4700959834201
 20
-292.4433931307646
 11
-148.4700959834201
 21
-291.3091210219209
 72
     1
 10
-148.4700959834201
 20
-291.3091210219209
 11
-149.5197535613275
 21
-291.3091210219209
 72
     1
 10
-149.5197535613275
 20
-291.3091210219209
 11
-149.5197535613275
 21
-292.4433931307646
 72
     1
 10
-149.5197535613275
 20
-292.4433931307646
 11
-150.7125462634941
 21
-292.4433931307646
 72
     1
 10
-150.7125462634941
 20
-292.4433931307646
 11
-150.7125462634941
 21
-289.3895836069535
 72
     1
 10
-150.7125462634941
 20
-289.3895836069535
 11
-149.5197535613275
 21
-289.3895836069535
 72
     1
 10
-149.5197535613275
 20
-289.3895836069535
 11
-149.5197535613275
 21
-290.4584169402881
 72
     1
 10
-149.5197535613275
 20
-290.4584169402881
 11
-148.4700959834201
 21
-290.4584169402881
 72
     1
 10
-148.4700959834201
 20
-290.4584169402881
 11
-148.4700959834201
 21
-289.3895836069535
 72
     1
 10
-148.4700959834201
 20
-289.3895836069535
 11
-147.2773032812536
 21
-289.3895836069535
 72
     1
 10
-147.2773032812536
 20
-289.3895836069535
 11
-147.2773032812536
 21
-292.4433931307646
 97
       12
330
26B
330
26C
330
256
330
255
330
254
330
268
330
253
330
269
330
26A
330
252
330
251
330
250
 75
     1
 76
     2
 52
45.0
 41
0.1
 77
     0
 78
     1
 53
45.0
 43
62.7811309658083
 44
-72.3161373035813
 45
-0.1414213562373095
 46
0.0
 79
     0
 98
        1
 10
0.0
 20
0.0
  0
HATCH
  5
344
330
71
100
AcDbEntity
  8
1
  6
Continuous
 62
     2
100
AcDbHatch
 10
0.0
 20
0.0
 30
0.0
210
0.0
220
0.0
230
1.0
  2
CUSTOM2
 70
     0
 71
     1
 91
        1
 92
        1
 93
       10
 72
     1
 10
-145.0350039320653
 20
-294.057549593333
 11
-146.2755083423183
 21
-292.7487740831278
 72
     1
 10
-146.2755083423183
 20
-292.7487740831278
 11
-147.4683010444858
 21
-292.7487740831278
 72
     1
 10
-147.4683010444858
 20
-292.7487740831278
 11
-147.4683010444858
 21
-295.8025836069389
 72
     1
 10
-147.4683010444858
 20
-295.8025836069389
 11
-146.2755083423183
 21
-295.8025836069389
 72
     1
 10
-146.2755083423183
 20
-295.8025836069389
 11
-146.2755083423183
 21
-294.4938080967344
 72
     1
 10
-146.2755083423183
 20
-294.4938080967344
 11
-145.0350039320653
 21
-295.8025836069389
 72
     1
 10
-145.0350039320653
 20
-295.8025836069389
 11
-143.8422112298989
 21
-295.8025836069389
 72
     1
 10
-143.8422112298989
 20
-295.8025836069389
 11
-143.8422112298989
 21
-292.7487740831278
 72
     1
 10
-143.8422112298989
 20
-292.7487740831278
 11
-145.0350039320653
 21
-292.7487740831278
 72
     1
 10
-145.0350039320653
 20
-292.7487740831278
 11
-145.0350039320653
 21
-294.057549593333
 97
       10
330
279
330
249
330
248
330
24B
330
274
330
275
330
24A
330
276
330
277
330
278
 75
     1
 76
     2
 52
45.0
 41
0.1
 77
     0
 78
     1
 53
45.0
 43
62.7811309658083
 44
-72.3161373035813
 45
-0.1414213562373095
 46
0.0
 79
     0
 98
        1
 10
0.0
 20
0.0
  0
HATCH
  5
345
330
71
100
AcDbEntity
  8
1
  6
Continuous
 62
     2
100
AcDbHatch
 10
0.0
 20
0.0
 30
0.0
210
0.0
220
0.0
230
1.0
  2
CUSTOM3
 70
     0
 71
     1
 91
        1
 92
        1
 93
       10
 72
     1
 10
-145.0350039320653
 20
-294.057549593333
 11
-146.2755083423183
 21
-292.7487740831278
 72
     1
 10
-146.2755083423183
 20
-292.7487740831278
 11
-147.4683010444858
 21
-292.7487740831278
 72
     1
 10
-147.4683010444858
 20
-292.7487740831278
 11
-147.4683010444858
 21
-295.8025836069389
 72
     1
 10
-147.4683010444858
 20
-295.8025836069389
 11
-146.2755083423183
 21
-295.8025836069389
 72
     1
 10
-146.2755083423183
 20
-295.8025836069389
 11
-146.2755083423183
 21
-294.4938080967344
 72
     1
 10
-146.2755083423183
 20
-294.4938080967344
 11
-145.0350039320653
 21
-295.8025836069389
 72
     1
 10
-145.0350039320653
 20
-295.8025836069389
 11
-143.8422112298989
 21
-295.8025836069389
 72
     1
 10
-143.8422112298989
 20
-295.8025836069389
 11
-143.8422112298989
 21
-292.7487740831278
 72
     1
 10
-143.8422112298989
 20
-292.7487740831278
 11
-145.0350039320653
 21
-292.7487740831278
 72
     1
 10
-145.0350039320653
 20
-292.7487740831278
 11
-145.0350039320653
 21
-294.057549593333
 97
       10
330
279
330
249
330
248
330
24B
330
274
330
275
330
24A
330
276
330
277
330
278
 75
     1
 76
     2
 52
45.0
 41
0.1
 77
     0
 78
     1
 53
45.0
 43
62.7811309658083
 44
-72.3161373035813
 45
-0.1414213562373095
 46
0.0
 79
     0
 98
        1
 10
0.0
 20
0.0
  0
HATCH
  5
346
330
71
100
AcDbEntity
  8
1
  6
Continuous
 62
     2
100
AcDbHatch
 10
0.0
 20
0.0
 30
0.0
210
0.0
220
0.0
230
1.0
  2
CUSTOM4
 70
     0
 71
     1
 91
        1
 92
        1
 93
       10
 72
     1
 10
-139.7865651116456
 20
-290.6983591171586
 11
-141.0270695218997
 21
-289.3895836069535
 72
     1
 10
-141.0270695218997
 20
-289.3895836069535
 11
-142.2198622240661
 21
-289.3895836069535
 72
     1
 10
-142.2198622240661
 20
-289.3895836069535
 11
-142.2198622240661
 21
-292.4433931307646
 72
     1
 10
-142.2198622240661
 20
-292.4433931307646
 11
-141.0270695218997
 21
-292.4433931307646
 72
     1
 10
-141.0270695218997
 20
-292.4433931307646
 11
-141.0270695218997
 21
-291.1346176205599
 72
     1
 10
-141.0270695218997
 20
-291.1346176205599
 11
-139.7865651116456
 21
-292.4433931307646
 72
     1
 10
-139.7865651116456
 20
-292.4433931307646
 11
-138.593772409479
 21
-292.4433931307646
 72
     1
 10
-138.593772409479
 20
-292.4433931307646
 11
-138.593772409479
 21
-289.3895836069535
 72
     1
 10
-138.593772409479
 20
-289.3895836069535
 11
-139.7865651116456
 21
-289.3895836069535
 72
     1
 10
-139.7865651116456
 20
-289.3895836069535
 11
-139.7865651116456
 21
-290.6983591171586
 97
       10
330
27E
330
246
330
245
330
27F
330
244
330
27A
330
27B
330
27C
330
27D
330
247
 75
     1
 76
     2
 52
45.0
 41
0.1
 77
     0
 78
     1
 53
45.0
 43
62.7811309658083
 44
-72.3161373035813
 45
-0.1414213562373095
 46
0.0
 79
     0
 98
        1
 10
0.0
 20
0.0
  0
HATCH
  5
347
330
71
100
AcDbEntity
  8
1
  6
Continuous
 62
     2
100
AcDbHatch
 10
0.0
 20
0.0
 30
0.0
210
0.0
220
0.0
230
1.0
  2
CUSTOM5
 70
     0
 71
     1
 91
        1
 92
        1
 93
       10
 72
     1
 10
-139.7865651116456
 20
-290.6983591171586
 11
-141.0270695218997
 21
-289.3895836069535
 72
     1
 10
-141.0270695218997
 20
-289.3895836069535
 11
-142.2198622240661
 21
-289.3895836069535
 72
     1
 10
-142.2198622240661
 20
-289.3895836069535
 11
-142.2198622240661
 21
-292.4433931307646
 72
     1
 10
-142.2198622240661
 20
-292.4433931307646
 11
-141.0270695218997
 21
-292.4433931307646
 72
     1
 10
-141.0270695218997
 20
-292.4433931307646
 11
-141.0270695218997
 21
-291.1346176205599
 72
     1
 10
-141.0270695218997
 20
-291.1346176205599
 11
-139.7865651116456
 21
-292.4433931307646
 72
     1
 10
-139.7865651116456
 20
-292.4433931307646
 11
-138.593772409479
 21
-292.4433931307646
 72
     1
 10
-138.593772409479
 20
-292.4433931307646
 11
-138.593772409479
 21
-289.3895836069535
 72
     1
 10
-138.593772409479
 20
-289.3895836069535
 11
-139.7865651116456
 21
-289.3895836069535
 72
     1
 10
-139.7865651116456
 20
-289.3895836069535
 11
-139.7865651116456
 21
-290.6983591171586
 97
       10
330
27E
330
246
330
245
330
27F
330
244
330
27A
330
27B
330
27C
330
27D
330
247
 75
     1
 76
     2
 52
45.0
 41
0.1
 77
     0
 78
     1
 53
45.0
 43
62.7811309658083
 44
-72.3161373035813
 45
-0.1414213562373095
 46
0.0
 79
     0
 98
        1
 10
0.0
 20
0.0
  0
HATCH
  5
348
330
71
100
AcDbEntity
  8
1
  6
Continuous
 62
     2
100
AcDbHatch
 10
0.0
 20
0.0
 30
0.0
210
0.0
220
0.0
230
1.0
  2
CUSTOM6
 70
     0
 71
     1
 91
        1
 92
        1
 93
        8
 72
     1
 10
-140.8840853285251
 20
-292.7487740831278
 11
-143.6990761056388
 21
-292.7487740831278
 72
     1
 10
-143.6990761056388
 20
-292.7487740831278
 11
-143.6990761056388
 21
-293.5340393892515
 72
     1
 10
-143.6990761056388
 20
-293.5340393892515
 11
-142.8879770681641
 21
-293.5340393892515
 72
     1
 10
-142.8879770681641
 20
-293.5340393892515
 11
-142.8879770681641
 21
-295.8025836069389
 72
     1
 10
-142.8879770681641
 20
-295.8025836069389
 11
-141.6951843659977
 21
-295.8025836069389
 72
     1
 10
-141.6951843659977
 20
-295.8025836069389
 11
-141.6951843659977
 21
-293.5340393892515
 72
     1
 10
-141.6951843659977
 20
-293.5340393892515
 11
-140.8840853285251
 21
-293.5340393892515
 72
     1
 10
-140.8840853285251
 20
-293.5340393892515
 11
-140.8840853285251
 21
-292.7487740831278
 97
        8
330
240
330
280
330
23F
330
281
330
282
330
243
330
242
330
241
 75
     1
 76
     2
 52
45.0
 41
0.1
 77
     0
 78
     1
 53
45.0
 43
62.7811309658083
 44
-72.3161373035813
 45
-0.1414213562373095
 46
0.0
 79
     0
 98
        1
 10
0.0
 20
0.0
  0
HATCH
  5
349
330
71
100
AcDbEntity
  8
1
  6
Continuous
 62
     2
100
AcDbHatch
 10
0.0
 20
0.0
 30
0.0
210
0.0
220
0.0
230
1.0
  2
CUSTOM7
 70
     0
 71
     1
 91
        1
 92
        1
 93
        8
 72
     1
 10
-140.8840853285251
 20
-292.7487740831278
 11
-143.6990761056388
 21
-292.7487740831278
 72
     1
 10
-143.6990761056388
 20
-292.7487740831278
 11
-143.6990761056388
 21
-293.5340393892515
 72
     1
 10
-143.6990761056388
 20
-293.5340393892515
 11
-142.8879770681641
 21
-293.5340393892515
 72
     1
 10
-142.8879770681641
 20
-293.5340393892515
 11
-142.8879770681641
 21
-295.8025836069389
 72
     1
 10
-142.8879770681641
 20
-295.8025836069389
 11
-141.6951843659977
 21
-295.8025836069389
 72
     1
 10
-141.6951843659977
 20
-295.8025836069389
 11
-141.6951843659977
 21
-293.5340393892515
 72
     1
 10
-141.6951843659977
 20
-293.5340393892515
 11
-140.8840853285251
 21
-293.5340393892515
 72
     1
 10
-140.8840853285251
 20
-293.5340393892515
 11
-140.8840853285251
 21
-292.7487740831278
 97
        8
330
240
330
280
330
23F
330
281
330
282
330
243
330
242
330
241
 75
     1
 76
     2
 52
45.0
 41
0.1
 77
     0
 78
     1
 53
45.0
 43
62.7811309658083
 44
-72.3161373035813
 45
-0.1414213562373095
 46
0.0
 79
     0
 98
        1
 10
0.0
 20
0.0
  0
HATCH
  5
34A
330
71
100
AcDbEntity
  8
1
  6
Continuous
 62
     2
100
AcDbHatch
 10
0.0
 20
0.0
 30
0.0
210
0.0
220
0.0
230
1.0
  2
CUSTOM8
 70
     0
 71
     1
 91
        2
 92
        1
 93
        8
 72
     1
 10
-138.7456578725781
 20
-295.8025836069389
 11
-138.9571379260539
 21
-295.2616230627211
 72
     1
 10
-138.9571379260539
 20
-295.2616230627211
 11
-140.0895795027278
 21
-295.2616230627211
 72
     1
 10
-140.0895795027278
 20
-295.2616230627211
 11
-140.3010595562036
 21
-295.8025836069389
 72
     1
 10
-140.3010595562036
 20
-295.8025836069389
 11
-141.5415639664565
 21
-295.8025836069389
 72
     1
 10
-141.5415639664565
 20
-295.8025836069389
 11
-140.1436109195173
 21
-292.7487740831278
 72
     1
 10
-140.1436109195173
 20
-292.7487740831278
 11
-138.9031065092645
 21
-292.7487740831278
 72
     1
 10
-138.9031065092645
 20
-292.7487740831278
 11
-137.5051534623242
 21
-295.8025836069389
 72
     1
 10
-137.5051534623242
 20
-295.8025836069389
 11
-138.7456578725781
 21
-295.8025836069389
 97
        8
330
284
330
285
330
23C
330
286
330
23B
330
23E
330
283
330
23D
 92
       16
 93
        3
 72
     1
 10
-139.8235239515827
 20
-294.5810597974145
 11
-139.5233587143904
 21
-293.8132448314278
 72
     1
 10
-139.5233587143904
 20
-293.8132448314278
 11
-139.2231934772002
 21
-294.5810597974145
 72
     1
 10
-139.2231934772002
 20
-294.5810597974145
 11
-139.8235239515827
 21
-294.5810597974145
 97
        3
330
23A
330
288
330
287
 75
     1
 76
     2
 52
45.0
 41
0.1
 77
     0
 78
     1
 53
45.0
 43
62.7811309658083
 44
-72.3161373035813
 45
-0.1414213562373095
 46
0.0
 79
     0
 98
        1
 10
0.0
 20
0.0
  0
HATCH
  5
34B
330
71
100
AcDbEntity
  8
1
  6
Continuous
 62
     2
100
AcDbHatch
 10
0.0
 20
0.0
 30
0.0
210
0.0
220
0.0
230
1.0
  2
CUSTOM9
 70
     0
 71
     1
 91
        2
 92
        1
 93
        8
 72
     1
 10
-138.7456578725781
 20
-295.8025836069389
 11
-138.9571379260539
 21
-295.2616230627211
 72
     1
 10
-138.9571379260539
 20
-295.2616230627211
 11
-140.0895795027278
 21
-295.2616230627211
 72
     1
 10
-140.0895795027278
 20
-295.2616230627211
 11
-140.3010595562036
 21
-295.8025836069389
 72
     1
 10
-140.3010595562036
 20
-295.8025836069389
 11
-141.5415639664565
 21
-295.8025836069389
 72
     1
 10
-141.5415639664565
 20
-295.8025836069389
 11
-140.1436109195173
 21
-292.7487740831278
 72
     1
 10
-140.1436109195173
 20
-292.7487740831278
 11
-138.9031065092645
 21
-292.7487740831278
 72
     1
 10
-138.9031065092645
 20
-292.7487740831278
 11
-137.5051534623242
 21
-295.8025836069389
 72
     1
 10
-137.5051534623242
 20
-295.8025836069389
 11
-138.7456578725781
 21
-295.8025836069389
 97
        8
330
284
330
285
330
23C
330
286
330
23B
330
23E
330
283
330
23D
 92
       16
 93
        3
 72
     1
 10
-139.8235239515827
 20
-294.5810597974145
 11
-139.5233587143904
 21
-293.8132448314278
 72
     1
 10
-139.5233587143904
 20
-293.8132448314278
 11
-139.2231934772002
 21
-294.5810597974145
 72
     1
 10
-139.2231934772002
 20
-294.5810597974145
 11
-139.8235239515827
 21
-294.5810597974145
 97
        3
330
23A
330
288
330
287
 75
     1
 76
     2
 52
45.0
 41
0.1
 77
     0
 78
     1
 53
45.0
 43
62.7811309658083
 44
-72.3161373035813
 45
-0.1414213562373095
 46
0.0
 79
     0
 98
        1
 10
0.0
 20
0.0
  0
HATCH
  5
34C
330
71
100
AcDbEntity
  8
1
  6
Continuous
 62
     2
100
AcDbHatch
 10
0.0
 20
0.0
 30
0.0
210
0.0
220
0.0
230
1.0
  2
CUSTOM10
 70
     0
 71
     1
 91
        1
 92
        1
 93
        4
 72
     1
 10
-137.1147094587922
 20
-292.4433931307646
 11
-138.3552138690451
 21
-292.4433931307646
 72
     1
 10
-138.3552138690451
 20
-292.4433931307646
 11
-138.3552138690451
 21
-289.3895836069535
 72
     1
 10
-138.3552138690451
 20
-289.3895836069535
 11
-137.1147094587922
 21
-289.3895836069535
 72
     1
 10
-137.1147094587922
 20
-289.3895836069535
 11
-137.1147094587922
 21
-292.4433931307646
 97
        4
330
237
330
239
330
289
330
238
 75
     1
 76
     2
 52
45.0
 41
0.1
 77
     0
 78
     1
 53
45.0
 43
62.7811309658083
 44
-72.3161373035813
 45
-0.1414213562373095
 46
0.0
 79
     0
 98
        1
 10
0.0
 20
0.0
  0
HATCH
  5
34D
330
71
100
AcDbEntity
  8
1
  6
Continuous
 62
     2
100
AcDbHatch
 10
0.0
 20
0.0
 30
0.0
210
0.0
220
0.0
230
1.0
  2
CUSTOM11
 70
     0
 71
     1
 91
        1
 92
        1
 93
        4
 72
     1
 10
-137.1147094587922
 20
-292.4433931307646
 11
-138.3552138690451
 21
-292.4433931307646
 72
     1
 10
-138.3552138690451
 20
-292.4433931307646
 11
-138.3552138690451
 21
-289.3895836069535
 72
     1
 10
-138.3552138690451
 20
-289.3895836069535
 11
-137.1147094587922
 21
-289.3895836069535
 72
     1
 10
-137.1147094587922
 20
-289.3895836069535
 11
-137.1147094587922
 21
-292.4433931307646
 97
        4
330
237
330
239
330
289
330
238
 75
     1
 76
     2
 52
45.0
 41
0.1
 77
     0
 78
     1
 53
45.0
 43
62.7811309658083
 44
-72.3161373035813
 45
-0.1414213562373095
 46
0.0
 79
     0
 98
        1
 10
0.0
 20
0.0
  0
HATCH
  5
34E
330
71
100
AcDbEntity
  8
1
  6
Continuous
 62
     2
100
AcDbHatch
 10
0.0
 20
0.0
 30
0.0
210
0.0
220
0.0
230
1.0
  2
CUSTOM12
 70
     0
 71
     1
 91
        1
 92
        1
 93
       12
 72
     1
 10
-132.8922232931214
 20
-289.3895836069535
 11
-134.194752923888
 21
-290.8625341369897
 72
     1
 10
-134.194752923888
 20
-290.8625341369897
 11
-132.7967998769477
 21
-292.4433931307646
 72
     1
 10
-132.7967998769477
 20
-292.4433931307646
 11
-134.199524094696
 21
-292.4433931307646
 72
     1
 10
-134.199524094696
 20
-292.4433931307646
 11
-134.8961150327614
 21
-291.6556613454709
 72
     1
 10
-134.8961150327614
 20
-291.6556613454709
 11
-135.5927059708272
 21
-292.4433931307646
 72
     1
 10
-135.5927059708272
 20
-292.4433931307646
 11
-136.9954301885753
 21
-292.4433931307646
 72
     1
 10
-136.9954301885753
 20
-292.4433931307646
 11
-135.597477141635
 21
-290.8625341369897
 72
     1
 10
-135.597477141635
 20
-290.8625341369897
 11
-136.9000067724025
 21
-289.3895836069535
 72
     1
 10
-136.9000067724025
 20
-289.3895836069535
 11
-135.4972825546533
 21
-289.3895836069535
 72
     1
 10
-135.4972825546533
 20
-289.3895836069535
 11
-134.8961150327614
 21
-290.069406928509
 72
     1
 10
-134.8961150327614
 20
-290.069406928509
 11
-134.2949475108686
 21
-289.3895836069535
 72
     1
 10
-134.2949475108686
 20
-289.3895836069535
 11
-132.8922232931214
 21
-289.3895836069535
 97
       12
330
232
330
231
330
230
330
28D
330
28E
330
28A
330
28B
330
236
330
235
330
234
330
233
330
28C
 75
     1
 76
     2
 52
45.0
 41
0.1
 77
     0
 78
     1
 53
45.0
 43
62.7811309658083
 44
-72.3161373035813
 45
-0.1414213562373095
 46
0.0
 79
     0
 98
        1
 10
0.0
 20
0.0
  0
HATCH
  5
34F
330
71
100
AcDbEntity
  8
1
  6
Continuous
 62
     2
100
AcDbHatch
 10
0.0
 20
0.0
 30
0.0
210
0.0
220
0.0
230
1.0
  2
CUSTOM13
 70
     0
 71
     1
 91
        1
 92
        1
 93
       12
 72
     1
 10
-132.8922232931214
 20
-289.3895836069535
 11
-134.194752923888
 21
-290.8625341369897
 72
     1
 10
-134.194752923888
 20
-290.8625341369897
 11
-132.7967998769477
 21
-292.4433931307646
 72
     1
 10
-132.7967998769477
 20
-292.4433931307646
 11
-134.199524094696
 21
-292.4433931307646
 72
     1
 10
-134.199524094696
 20
-292.4433931307646
 11
-134.8961150327614
 21
-291.6556613454709
 72
     1
 10
-134.8961150327614
 20
-291.6556613454709
 11
-135.5927059708272
 21
-292.4433931307646
 72
     1
 10
-135.5927059708272
 20
-292.4433931307646
 11
-136.9954301885753
 21
-292.4433931307646
 72
     1
 10
-136.9954301885753
 20
-292.4433931307646
 11
-135.597477141635
 21
-290.8625341369897
 72
     1
 10
-135.597477141635
 20
-290.8625341369897
 11
-136.9000067724025
 21
-289.3895836069535
 72
     1
 10
-136.9000067724025
 20
-289.3895836069535
 11
-135.4972825546533
 21
-289.3895836069535
 72
     1
 10
-135.4972825546533
 20
-289.3895836069535
 11
-134.8961150327614
 21
-290.069406928509
 72
     1
 10
-134.8961150327614
 20
-290.069406928509
 11
-134.2949475108686
 21
-289.3895836069535
 72
     1
 10
-134.2949475108686
 20
-289.3895836069535
 11
-132.8922232931214
 21
-289.3895836069535
 97
       12
330
232
330
231
330
230
330
28D
330
28E
330
28A
330
28B
330
236
330
235
330
234
330
233
330
28C
 75
     1
 76
     2
 52
45.0
 41
0.1
 77
     0
 78
     1
 53
45.0
 43
62.7811309658083
 44
-72.3161373035813
 45
-0.1414213562373095
 46
0.0
 79
     0
 98
        1
 10
0.0
 20
0.0
  0
HATCH
  5
350
330
71
100
AcDbEntity
  8
1
  6
Continuous
 62
     2
100
AcDbHatch
 10
0.0
 20
0.0
 30
0.0
210
0.0
220
0.0
230
1.0
  2
CUSTOM14
 70
     0
 71
     1
 91
        2
 92
        1
 93
        6
 72
     1
 10
-151.9099587072674
 20
-291.5003148896209
 11
-152.6687262950478
 21
-291.5003148896209
 72
     1
 10
-152.6687262950478
 20
-291.5003148896209
 11
-152.6687262950478
 21
-292.4433931307646
 72
     1
 10
-152.6687262950478
 20
-292.4433931307646
 11
-153.9092307053018
 21
-292.4433931307646
 72
     1
 10
-153.9092307053018
 20
-292.4433931307646
 11
-153.9092307053018
 21
-289.3895836069535
 72
     1
 10
-153.9092307053018
 20
-289.3895836069535
 11
-151.9099587072674
 21
-289.3895836069535
 72
     2
 10
-151.9099587072674
 20
-290.4449492482872
 40
1.055365641333708
 50
270.0
 51
450.0
 73
     0
 97
        6
330
25A
330
259
330
266
330
265
330
25B
330
2EC
 92
       16
 93
        4
 72
     2
 10
-152.3514312335058
 20
-290.4055532770647
 40
0.3528638246710898
 50
270.0
 51
450.0
 73
     1
 72
     1
 10
-152.3514312335058
 20
-290.0526894523935
 11
-152.6687262950478
 21
-290.0526894523935
 72
     1
 10
-152.6687262950478
 20
-290.0526894523935
 11
-152.6687262950478
 21
-290.7584171017358
 72
     1
 10
-152.6687262950478
 20
-290.7584171017358
 11
-152.3514312335058
 21
-290.7584171017358
 97
        4
330
300
330
257
330
267
330
258
 75
     1
 76
     2
 52
45.0
 41
0.1
 77
     0
 78
     1
 53
45.0
 43
62.7811309658083
 44
-72.3161373035813
 45
-0.1414213562373095
 46
0.0
 79
     0
 98
        1
 10
0.0
 20
0.0
  0
HATCH
  5
351
330
71
100
AcDbEntity
  8
1
  6
Continuous
 62
     2
100
AcDbHatch
 10
0.0
 20
0.0
 30
0.0
210
0.0
220
0.0
230
1.0
  2
CUSTOM15
 70
     0
 71
     1
 91
        2
 92
        1
 93
        6
 72
     1
 10
-151.9099587072674
 20
-291.5003148896209
 11
-152.6687262950478
 21
-291.5003148896209
 72
     1
 10
-152.6687262950478
 20
-291.5003148896209
 11
-152.6687262950478
 21
-292.4433931307646
 72
     1
 10
-152.6687262950478
 20
-292.4433931307646
 11
-153.9092307053018
 21
-292.4433931307646
 72
     1
 10
-153.9092307053018
 20
-292.4433931307646
 11
-153.9092307053018
 21
-289.3895836069535
 72
     1
 10
-153.9092307053018
 20
-289.3895836069535
 11
-151.9099587072674
 21
-289.3895836069535
 72
     2
 10
-151.9099587072674
 20
-290.4449492482872
 40
1.055365641333708
 50
270.0
 51
450.0
 73
     0
 97
        6
330
25A
330
259
330
266
330
265
330
25B
330
2EC
 92
       16
 93
        4
 72
     2
 10
-152.3514312335058
 20
-290.4055532770647
 40
0.3528638246710898
 50
270.0
 51
450.0
 73
     1
 72
     1
 10
-152.3514312335058
 20
-290.0526894523935
 11
-152.6687262950478
 21
-290.0526894523935
 72
     1
 10
-152.6687262950478
 20
-290.0526894523935
 11
-152.6687262950478
 21
-290.7584171017358
 72
     1
 10
-152.6687262950478
 20
-290.7584171017358
 11
-152.3514312335058
 21
-290.7584171017358
 97
        4
330
300
330
257
330
267
330
258
 75
     1
 76
     2
 52
45.0
 41
0.1
 77
     0
 78
     1
 53
45.0
 43
62.7811309658083
 44
-72.3161373035813
 45
-0.1414213562373095
 46
0.0
 79
     0
 98
        1
 10
0.0
 20
0.0
  0
HATCH
  5
352
330
71
100
AcDbEntity
  8
1
  6
Continuous
 62
     2
100
AcDbHatch
 10
0.0
 20
0.0
 30
0.0
210
0.0
220
0.0
230
1.0
  2
CUSTOM16
 70
     0
 71
     1
 91
        2
 92
        1
 93
        4
 72
     2
 10
-149.3534159589083
 20
-294.8142538553365
 40
2.065479772208694
 50
62.45185182430819
 51
117.5481481756674
 73
     1
 72
     2
 10
-149.6343558507417
 20
-294.2756788450337
 40
1.458034083651616
 50
117.5481481756598
 51
242.451851824337
 73
     1
 72
     2
 10
-149.3534159589083
 20
-293.7371038347303
 40
2.065479772208637
 50
242.4518518243384
 51
297.548148175686
 73
     1
 72
     2
 10
-149.0724760670751
 20
-294.2756788450337
 40
1.458034083652017
 50
297.5481481757046
 51
422.4518518242986
 73
     1
 97
        4
330
2F8
330
2F7
330
2F9
330
2F6
 92
       16
 93
        4
 72
     2
 10
-149.5531559952547
 20
-294.2756788450337
 40
0.7717997786795351
 50
321.8795802028432
 51
398.1204197971668
 73
     1
 72
     2
 10
-149.3534159589083
 20
-294.1189476669132
 40
0.5179085730132806
 50
38.12041979716469
 51
141.8795802028567
 73
     1
 72
     2
 10
-149.1536759225623
 20
-294.2756788450337
 40
0.7717997786795733
 50
141.8795802028293
 51
218.1204197971607
 73
     1
 72
     2
 10
-149.3534159589083
 20
-294.4324100231536
 40
0.5179085730138424
 50
218.1204197971879
 51
321.8795802027908
 73
     1
 97
        4
330
314
330
311
330
312
330
313
 75
     1
 76
     2
 52
45.0
 41
0.1
 77
     0
 78
     1
 53
45.0
 43
62.7811309658083
 44
-72.3161373035813
 45
-0.1414213562373095
 46
0.0
 79
     0
 98
        1
 10
0.0
 20
0.0
  0
HATCH
  5
353
330
71
100
AcDbEntity
  8
1
  6
Continuous
 62
     2
100
AcDbHatch
 10
0.0
 20
0.0
 30
0.0
210
0.0
220
0.0
230
1.0
  2
CUSTOM17
 70
     0
 71
     1
 91
        2
 92
        1
 93
        4
 72
     2
 10
-149.3534159589083
 20
-294.8142538553365
 40
2.065479772208694
 50
62.45185182430819
 51
117.5481481756674
 73
     1
 72
     2
 10
-149.6343558507417
 20
-294.2756788450337
 40
1.458034083651616
 50
117.5481481756598
 51
242.451851824337
 73
     1
 72
     2
 10
-149.3534159589083
 20
-293.7371038347303
 40
2.065479772208637
 50
242.4518518243384
 51
297.548148175686
 73
     1
 72
     2
 10
-149.0724760670751
 20
-294.2756788450337
 40
1.458034083652017
 50
297.5481481757046
 51
422.4518518242986
 73
     1
 97
        4
330
2F8
330
2F7
330
2F9
330
2F6
 92
       16
 93
        4
 72
     2
 10
-149.5531559952547
 20
-294.2756788450337
 40
0.7717997786795351
 50
321.8795802028432
 51
398.1204197971668
 73
     1
 72
     2
 10
-149.3534159589083
 20
-294.1189476669132
 40
0.5179085730132806
 50
38.12041979716469
 51
141.8795802028567
 73
     1
 72
     2
 10
-149.1536759225623
 20
-294.2756788450337
 40
0.7717997786795733
 50
141.8795802028293
 51
218.1204197971607
 73
     1
 72
     2
 10
-149.3534159589083
 20
-294.4324100231536
 40
0.5179085730138424
 50
218.1204197971879
 51
321.8795802027908
 73
     1
 97
        4
330
314
330
311
330
312
330
313
 75
     1
 76
     2
 52
45.0
 41
0.1
 77
     0
 78
     1
 53
45.0
 43
62.7811309658083
 44
-72.3161373035813
 45
-0.1414213562373095
 46
0.0
 79
     0
 98
        1
 10
0.0
 20
0.0
  0
HATCH
  5
354
330
71
100
AcDbEntity
  8
1
  6
Continuous
 62
     2
100
AcDbHatch
 10
0.0
 20
0.0
 30
0.0
210
0.0
220
0.0
230
1.0
  2
CUSTOM18
 70
     0
 71
     1
 91
        2
 92
        1
 93
       12
 72
     1
 10
-142.4584207644991
 20
-290.0875972123964
 11
-143.7943485909267
 21
-290.0875972123964
 72
     1
 10
-143.7943485909267
 20
-290.0875972123964
 11
-143.7943485909267
 21
-290.5674815661381
 72
     1
 10
-143.7943485909267
 20
-290.5674815661381
 11
-142.4584207644991
 21
-290.5674815661381
 72
     1
 10
-142.4584207644991
 20
-290.5674815661381
 11
-142.4584207644991
 21
-291.2654951715805
 72
     1
 10
-142.4584207644991
 20
-291.2654951715805
 11
-143.7943485909267
 21
-291.2654951715805
 72
     1
 10
-143.7943485909267
 20
-291.2654951715805
 11
-143.7943485909267
 21
-291.7453795253222
 72
     1
 10
-143.7943485909267
 20
-291.7453795253222
 11
-142.4584207644991
 21
-291.7453795253222
 72
     1
 10
-142.4584207644991
 20
-291.7453795253222
 11
-142.4584207644991
 21
-292.4433931307646
 72
     1
 10
-142.4584207644991
 20
-292.4433931307646
 11
-145.60874048828
 21
-292.4433931307646
 72
     2
 10
-145.60874048828
 20
-290.9164883688593
 40
1.526904761905769
 50
90.0
 51
270.0
 73
     0
 72
     1
 10
-145.60874048828
 20
-289.3895836069535
 11
-142.4584207644991
 21
-289.3895836069535
 72
     1
 10
-142.4584207644991
 20
-289.3895836069535
 11
-142.4584207644991
 21
-290.0875972123964
 97
       12
330
26E
330
301
330
26F
330
270
330
271
330
272
330
24F
330
24E
330
24D
330
24C
330
273
330
26D
 92
       16
 93
        4
 72
     2
 10
-145.3924684781148
 20
-290.7597571907388
 40
0.5179085730133893
 50
38.12041979713927
 51
141.8795802028666
 73
     1
 72
     2
 10
-145.1927284417686
 20
-290.9164883688593
 40
0.7717997786796245
 50
141.8795802028484
 51
218.1204197971549
 73
     1
 72
     2
 10
-145.3924684781148
 20
-291.0732195469798
 40
0.5179085730134915
 50
218.1204197971384
 51
321.8795802028558
 73
     1
 72
     2
 10
-145.592208514461
 20
-290.9164883688593
 40
0.7717997786795702
 50
321.8795802028399
 51
398.1204197971568
 73
     1
 97
        4
330
2FB
330
2FA
330
2F5
330
2F4
 75
     1
 76
     2
 52
45.0
 41
0.1
 77
     0
 78
     1
 53
45.0
 43
62.7811309658083
 44
-72.3161373035813
 45
-0.1414213562373095
 46
0.0
 79
     0
 98
        1
 10
0.0
 20
0.0
  0
HATCH
  5
355
330
71
100
AcDbEntity
  8
1
  6
Continuous
 62
     2
100
AcDbHatch
 10
0.0
 20
0.0
 30
0.0
210
0.0
220
0.0
230
1.0
  2
CUSTOM19
 70
     0
 71
     1
 91
        2
 92
        1
 93
       12
 72
     1
 10
-142.4584207644991
 20
-290.0875972123964
 11
-143.7943485909267
 21
-290.0875972123964
 72
     1
 10
-143.7943485909267
 20
-290.0875972123964
 11
-143.7943485909267
 21
-290.5674815661381
 72
     1
 10
-143.7943485909267
 20
-290.5674815661381
 11
-142.4584207644991
 21
-290.5674815661381
 72
     1
 10
-142.4584207644991
 20
-290.5674815661381
 11
-142.4584207644991
 21
-291.2654951715805
 72
     1
 10
-142.4584207644991
 20
-291.2654951715805
 11
-143.7943485909267
 21
-291.2654951715805
 72
     1
 10
-143.7943485909267
 20
-291.2654951715805
 11
-143.7943485909267
 21
-291.7453795253222
 72
     1
 10
-143.7943485909267
 20
-291.7453795253222
 11
-142.4584207644991
 21
-291.7453795253222
 72
     1
 10
-142.4584207644991
 20
-291.7453795253222
 11
-142.4584207644991
 21
-292.4433931307646
 72
     1
 10
-142.4584207644991
 20
-292.4433931307646
 11
-145.60874048828
 21
-292.4433931307646
 72
     2
 10
-145.60874048828
 20
-290.9164883688593
 40
1.526904761905769
 50
90.0
 51
270.0
 73
     0
 72
     1
 10
-145.60874048828
 20
-289.3895836069535
 11
-142.4584207644991
 21
-289.3895836069535
 72
     1
 10
-142.4584207644991
 20
-289.3895836069535
 11
-142.4584207644991
 21
-290.0875972123964
 97
       12
330
26E
330
301
330
26F
330
270
330
271
330
272
330
24F
330
24E
330
24D
330
24C
330
273
330
26D
 92
       16
 93
        4
 72
     2
 10
-145.3924684781148
 20
-290.7597571907388
 40
0.5179085730133893
 50
38.12041979713927
 51
141.8795802028666
 73
     1
 72
     2
 10
-145.1927284417686
 20
-290.9164883688593
 40
0.7717997786796245
 50
141.8795802028484
 51
218.1204197971549
 73
     1
 72
     2
 10
-145.3924684781148
 20
-291.0732195469798
 40
0.5179085730134915
 50
218.1204197971384
 51
321.8795802028558
 73
     1
 72
     2
 10
-145.592208514461
 20
-290.9164883688593
 40
0.7717997786795702
 50
321.8795802028399
 51
398.1204197971568
 73
     1
 97
        4
330
2FB
330
2FA
330
2F5
330
2F4
 75
     1
 76
     2
 52
45.0
 41
0.1
 77
     0
 78
     1
 53
45.0
 43
62.7811309658083
 44
-72.3161373035813
 45
-0.1414213562373095
 46
0.0
 79
     0
 98
        1
 10
0.0
 20
0.0
  0
HATCH
  5
356
330
71
100
AcDbEntity
  8
1
  6
Continuous
 62
     2
100
AcDbHatch
 10
0.0
 20
0.0
 30
0.0
210
0.0
220
0.0
230
1.0
  2
CUSTOM20
 70
     0
 71
     1
 91
        4
 92
        1
 93
        8
 72
     1
 10
-154.3863477861686
 20
-289.8138282223555
 11
-154.3863477861686
 21
-295.3783389915557
 72
     2
 10
-154.8105924015525
 20
-295.3783389915557
 40
0.424244615383202
 50
0.0
 51
90.0
 73
     0
 72
     1
 10
-154.8105924015525
 20
-295.8025836069389
 11
-160.2839044922694
 21
-295.8025836069389
 72
     2
 10
-160.2839044922694
 20
-295.3783389915557
 40
0.4242446153828041
 50
90.0
 51
180.0
 73
     0
 72
     1
 10
-160.7081491076522
 20
-295.3783389915557
 11
-160.7081491076522
 21
-289.8138282223555
 72
     2
 10
-160.2839044922694
 20
-289.8138282223555
 40
0.4242446153838841
 50
180.0
 51
270.0
 73
     0
 72
     1
 10
-160.2839044922694
 20
-289.3895836069716
 11
-154.8105924015525
 21
-289.3895836069716
 72
     2
 10
-154.8105924015525
 20
-289.8138282223555
 40
0.4242446153838841
 50
270.0
 51
360.0
 73
     0
 97
        8
330
262
330
2F1
330
263
330
2FC
330
260
330
2F3
330
261
330
2F2
 92
       16
 93
       12
 72
     2
 10
-159.6900098155229
 20
-294.7743111283053
 40
0.3157169230755983
 50
180.0
 51
270.0
 73
     1
 72
     1
 10
-159.6900098155229
 20
-295.090028051382
 11
-158.2141765545133
 21
-295.090028051382
 72
     2
 10
-158.2141765545133
 20
-294.7743111283053
 40
0.3157169230766499
 50
270.0
 51
360.0
 73
     1
 72
     1
 10
-157.8984596314367
 20
-294.7743111283053
 11
-157.8984596314367
 21
-293.2435401967737
 72
     2
 10
-158.2141765545133
 20
-293.2435401967737
 40
0.315716923076593
 50
0.0
 51
64.805589351446
 73
     1
 72
     2
 10
-157.6915921069383
 20
-292.132710450711
 40
0.9118975235576555
 50
115.1944106485105
 51
244.8055893514789
 73
     0
 72
     2
 10
-158.2141765545133
 20
-291.0218807046488
 40
0.3157169230760658
 50
295.1944106485672
 51
360.0
 73
     1
 72
     1
 10
-157.8984596314367
 20
-291.0218807046488
 11
-157.8984596314367
 21
-290.4178560855882
 72
     2
 10
-158.2141765545133
 20
-290.4178560855882
 40
0.315716923076593
 50
0.0
 51
90.0
 73
     1
 72
     1
 10
-158.2141765545133
 20
-290.1021391625121
 11
-159.6900098155229
 21
-290.1021391625121
 72
     2
 10
-159.6900098155229
 20
-290.4178560855882
 40
0.3157169230760815
 50
90.0
 51
180.0
 73
     1
 72
     1
 10
-160.0057267385985
 20
-290.4178560855882
 11
-160.0057267385985
 21
-294.7743111283053
 97
       12
330
2ED
330
264
330
2F0
330
25F
330
2FD
330
2FE
330
2EF
330
25E
330
2EE
330
25D
330
2FF
330
25C
 92
       16
 93
        8
 72
     2
 10
-157.1144611289911
 20
-293.2418520506793
 40
0.3157169230765328
 50
115.3740086783519
 51
180.0
 73
     1
 72
     1
 10
-157.4301780520679
 20
-293.2418520506793
 11
-157.4301780520679
 21
-293.8237034573744
 72
     2
 10
-157.1144611289911
 20
-293.8237034573744
 40
0.315716923076792
 50
180.0
 51
269.8110329574335
 73
     1
 72
     2
 10
-157.1088449936811
 20
-292.1208685098054
 40
2.018561131933266
 50
269.8110329575827
 51
450.1889670424174
 73
     1
 72
     2
 10
-157.1144611289911
 20
-290.4180335622364
 40
0.3157169230761851
 50
90.1889670425665
 51
180.0
 73
     1
 72
     1
 10
-157.4301780520679
 20
-290.4180335622364
 11
-157.4301780520679
 21
-291.0235688507432
 72
     2
 10
-157.1144611289911
 20
-291.0235688507432
 40
0.315716923076792
 50
180.0
 51
244.6259913216393
 73
     1
 72
     2
 10
-157.640503827079
 20
-292.132710450711
 40
0.9118481501443819
 50
295.3740086781895
 51
424.6259913218212
 73
     0
 97
        8
330
309
330
229
330
306
330
307
330
2E5
330
228
330
308
330
2E4
 92
       16
 93
        1
 72
     2
 10
-157.6643188417518
 20
-292.132710450711
 40
0.4709789327785074
 50
0.0
 51
360.0
 73
     1
 97
        1
330
317
 75
     1
 76
     2
 52
45.0
 41
0.1
 77
     0
 78
     1
 53
45.0
 43
62.7811309658083
 44
-72.3161373035813
 45
-0.1414213562373095
 46
0.0
 79
     0
 98
        1
 10
0.0
 20
0.0
  0
HATCH
  5
357
330
71
100
AcDbEntity
  8
1
  6
Continuous
 62
     2
100
AcDbHatch
 10
0.0
 20
0.0
 30
0.0
210
0.0
220
0.0
230
1.0
  2
CUSTOM21
 70
     0
 71
     1
 91
        4
 92
        1
 93
        8
 72
     1
 10
-154.3863477861686
 20
-289.8138282223555
 11
-154.3863477861686
 21
-295.3783389915557
 72
     2
 10
-154.8105924015525
 20
-295.3783389915557
 40
0.424244615383202
 50
0.0
 51
90.0
 73
     0
 72
     1
 10
-154.8105924015525
 20
-295.8025836069389
 11
-160.2839044922694
 21
-295.8025836069389
 72
     2
 10
-160.2839044922694
 20
-295.3783389915557
 40
0.4242446153828041
 50
90.0
 51
180.0
 73
     0
 72
     1
 10
-160.7081491076522
 20
-295.3783389915557
 11
-160.7081491076522
 21
-289.8138282223555
 72
     2
 10
-160.2839044922694
 20
-289.8138282223555
 40
0.4242446153838841
 50
180.0
 51
270.0
 73
     0
 72
     1
 10
-160.2839044922694
 20
-289.3895836069716
 11
-154.8105924015525
 21
-289.3895836069716
 72
     2
 10
-154.8105924015525
 20
-289.8138282223555
 40
0.4242446153838841
 50
270.0
 51
360.0
 73
     0
 97
        8
330
262
330
2F1
330
263
330
2FC
330
260
330
2F3
330
261
330
2F2
 92
       16
 93
       12
 72
     2
 10
-159.6900098155229
 20
-294.7743111283053
 40
0.3157169230755983
 50
180.0
 51
270.0
 73
     1
 72
     1
 10
-159.6900098155229
 20
-295.090028051382
 11
-158.2141765545133
 21
-295.090028051382
 72
     2
 10
-158.2141765545133
 20
-294.7743111283053
 40
0.3157169230766499
 50
270.0
 51
360.0
 73
     1
 72
     1
 10
-157.8984596314367
 20
-294.7743111283053
 11
-157.8984596314367
 21
-293.2435401967737
 72
     2
 10
-158.2141765545133
 20
-293.2435401967737
 40
0.315716923076593
 50
0.0
 51
64.805589351446
 73
     1
 72
     2
 10
-157.6915921069383
 20
-292.132710450711
 40
0.9118975235576555
 50
115.1944106485105
 51
244.8055893514789
 73
     0
 72
     2
 10
-158.2141765545133
 20
-291.0218807046488
 40
0.3157169230760658
 50
295.1944106485672
 51
360.0
 73
     1
 72
     1
 10
-157.8984596314367
 20
-291.0218807046488
 11
-157.8984596314367
 21
-290.4178560855882
 72
     2
 10
-158.2141765545133
 20
-290.4178560855882
 40
0.315716923076593
 50
0.0
 51
90.0
 73
     1
 72
     1
 10
-158.2141765545133
 20
-290.1021391625121
 11
-159.6900098155229
 21
-290.1021391625121
 72
     2
 10
-159.6900098155229
 20
-290.4178560855882
 40
0.3157169230760815
 50
90.0
 51
180.0
 73
     1
 72
     1
 10
-160.0057267385985
 20
-290.4178560855882
 11
-160.0057267385985
 21
-294.7743111283053
 97
       12
330
2ED
330
264
330
2F0
330
25F
330
2FD
330
2FE
330
2EF
330
25E
330
2EE
330
25D
330
2FF
330
25C
 92
       16
 93
        8
 72
     2
 10
-157.1144611289911
 20
-293.2418520506793
 40
0.3157169230765328
 50
115.3740086783519
 51
180.0
 73
     1
 72
     1
 10
-157.4301780520679
 20
-293.2418520506793
 11
-157.4301780520679
 21
-293.8237034573744
 72
     2
 10
-157.1144611289911
 20
-293.8237034573744
 40
0.315716923076792
 50
180.0
 51
269.8110329574335
 73
     1
 72
     2
 10
-157.1088449936811
 20
-292.1208685098054
 40
2.018561131933266
 50
269.8110329575827
 51
450.1889670424174
 73
     1
 72
     2
 10
-157.1144611289911
 20
-290.4180335622364
 40
0.3157169230761851
 50
90.1889670425665
 51
180.0
 73
     1
 72
     1
 10
-157.4301780520679
 20
-290.4180335622364
 11
-157.4301780520679
 21
-291.0235688507432
 72
     2
 10
-157.1144611289911
 20
-291.0235688507432
 40
0.315716923076792
 50
180.0
 51
244.6259913216393
 73
     1
 72
     2
 10
-157.640503827079
 20
-292.132710450711
 40
0.9118481501443819
 50
295.3740086781895
 51
424.6259913218212
 73
     0
 97
        8
330
309
330
229
330
306
330
307
330
2E5
330
228
330
308
330
2E4
 92
       16
 93
        1
 72
     2
 10
-157.6643188417518
 20
-292.132710450711
 40
0.4709789327785074
 50
0.0
 51
360.0
 73
     1
 97
        1
330
317
 75
     1
 76
     2
 52
45.0
 41
0.1
 77
     0
 78
     1
 53
45.0
 43
62.7811309658083
 44
-72.3161373035813
 45
-0.1414213562373095
 46
0.0
 79
     0
 98
        1
 10
0.0
 20
0.0
  0
HATCH
  5
358
330
71
100
AcDbEntity
  8
1
  6
Continuous
 62
     2
100
AcDbHatch
 10
0.0
 20
0.0
 30
0.0
210
0.0
220
0.0
230
1.0
  2
CUSTOM22
 70
     0
 71
     1
 91
        1
 92
        1
 93
       18
 72
     1
 10
-132.7967998769477
 20
-293.5340393892515
 11
-133.6078989144211
 21
-293.5340393892515
 72
     1
 10
-133.6078989144211
 20
-293.5340393892515
 11
-133.6078989144211
 21
-295.8025836069389
 72
     1
 10
-133.6078989144211
 20
-295.8025836069389
 11
-134.8006916165888
 21
-295.8025836069389
 72
     1
 10
-134.8006916165888
 20
-295.8025836069389
 11
-134.8006916165888
 21
-293.5340393892515
 72
     1
 10
-134.8006916165888
 20
-293.5340393892515
 11
-135.9043309161569
 21
-293.5340393892515
 72
     2
 10
-135.9043309161569
 20
-294.4885623960776
 40
0.9545230068260935
 50
90.0
 51
109.3371432194281
 73
     1
 72
     2
 10
-136.0510009142606
 20
-294.0706074156946
 40
0.5115800601944048
 50
109.3371432194823
 51
151.4785267424182
 73
     1
 72
     2
 10
-135.6736436561791
 20
-294.2756788450337
 40
0.9410597353350352
 50
151.4785267423573
 51
208.521473257667
 73
     1
 72
     2
 10
-136.0510009142606
 20
-294.4807502743722
 40
0.5115800601959967
 50
208.5214732576881
 51
246.6277221118428
 73
     1
 72
     2
 10
-135.8945608815574
 20
-294.1187582556622
 40
0.9059297849852095
 50
246.6277221118105
 51
288.4480761180772
 73
     1
 72
     2
 10
-136.3127286152194
 20
-292.8652124796255
 40
2.227384008972773
 50
288.4480761181333
 51
301.9309089499394
 73
     1
 72
     1
 10
-135.1346735731955
 20
-294.7555631987753
 11
-135.1346735731955
 21
-295.6280802055786
 72
     2
 10
-136.4706014903122
 20
-290.9629978997772
 40
4.852596863498889
 50
74.0200087416617
 51
84.84185523036268
 73
     0
 72
     2
 10
-136.1817453955763
 20
-294.1628884829988
 40
1.639695123940488
 50
84.84185523032279
 51
164.9381082229012
 73
     0
 72
     2
 10
-136.600873239038
 20
-294.2756788450337
 40
1.205656168392975
 50
164.9381082229103
 51
195.0618917770975
 73
     0
 72
     2
 10
-136.1817453955763
 20
-294.3884692070685
 40
1.639695123940101
 50
195.0618917771007
 51
270.0
 73
     0
 72
     1
 10
-136.1817453955763
 20
-292.7487740831284
 11
-132.7967998769477
 21
-292.7487740831278
 72
     1
 10
-132.7967998769477
 20
-292.7487740831278
 11
-132.7967998769477
 21
-293.5340393892515
 97
       18
330
22B
330
302
330
303
330
2EB
330
2EA
330
28F
330
2E9
330
2E8
330
304
330
2E7
330
305
330
2E6
330
290
330
22A
330
22F
330
22E
330
22D
330
22C
 75
     1
 76
     2
 52
45.0
 41
0.1
 77
     0
 78
     1
 53
45.0
 43
62.7811309658083
 44
-72.3161373035813
 45
-0.1414213562373095
 46
0.0
 79
     0
 98
        1
 10
0.0
 20
0.0
  0
HATCH
  5
359
330
71
100
AcDbEntity
  8
1
  6
Continuous
 62
     2
100
AcDbHatch
 10
0.0
 20
0.0
 30
0.0
210
0.0
220
0.0
230
1.0
  2
CUSTOM23
 70
     0
 71
     1
 91
        1
 92
        1
 93
       18
 72
     1
 10
-132.7967998769477
 20
-293.5340393892515
 11
-133.6078989144211
 21
-293.5340393892515
 72
     1
 10
-133.6078989144211
 20
-293.5340393892515
 11
-133.6078989144211
 21
-295.8025836069389
 72
     1
 10
-133.6078989144211
 20
-295.8025836069389
 11
-134.8006916165888
 21
-295.8025836069389
 72
     1
 10
-134.8006916165888
 20
-295.8025836069389
 11
-134.8006916165888
 21
-293.5340393892515
 72
     1
 10
-134.8006916165888
 20
-293.5340393892515
 11
-135.9043309161569
 21
-293.5340393892515
 72
     2
 10
-135.9043309161569
 20
-294.4885623960776
 40
0.9545230068260935
 50
90.0
 51
109.3371432194281
 73
     1
 72
     2
 10
-136.0510009142606
 20
-294.0706074156946
 40
0.5115800601944048
 50
109.3371432194823
 51
151.4785267424182
 73
     1
 72
     2
 10
-135.6736436561791
 20
-294.2756788450337
 40
0.9410597353350352
 50
151.4785267423573
 51
208.521473257667
 73
     1
 72
     2
 10
-136.0510009142606
 20
-294.4807502743722
 40
0.5115800601959967
 50
208.5214732576881
 51
246.6277221118428
 73
     1
 72
     2
 10
-135.8945608815574
 20
-294.1187582556622
 40
0.9059297849852095
 50
246.6277221118105
 51
288.4480761180772
 73
     1
 72
     2
 10
-136.3127286152194
 20
-292.8652124796255
 40
2.227384008972773
 50
288.4480761181333
 51
301.9309089499394
 73
     1
 72
     1
 10
-135.1346735731955
 20
-294.7555631987753
 11
-135.1346735731955
 21
-295.6280802055786
 72
     2
 10
-136.4706014903122
 20
-290.9629978997772
 40
4.852596863498889
 50
74.0200087416617
 51
84.84185523036268
 73
     0
 72
     2
 10
-136.1817453955763
 20
-294.1628884829988
 40
1.639695123940488
 50
84.84185523032279
 51
164.9381082229012
 73
     0
 72
     2
 10
-136.600873239038
 20
-294.2756788450337
 40
1.205656168392975
 50
164.9381082229103
 51
195.0618917770975
 73
     0
 72
     2
 10
-136.1817453955763
 20
-294.3884692070685
 40
1.639695123940101
 50
195.0618917771007
 51
270.0
 73
     0
 72
     1
 10
-136.1817453955763
 20
-292.7487740831284
 11
-132.7967998769477
 21
-292.7487740831278
 72
     1
 10
-132.7967998769477
 20
-292.7487740831278
 11
-132.7967998769477
 21
-293.5340393892515
 97
       18
330
22B
330
302
330
303
330
2EB
330
2EA
330
28F
330
2E9
330
2E8
330
304
330
2E7
330
305
330
2E6
330
290
330
22A
330
22F
330
22E
330
22D
330
22C
 75
     1
 76
     2
 52
45.0
 41
0.1
 77
     0
 78
     1
 53
45.0
 43
62.7811309658083
 44
-72.3161373035813
 45
-0.1414213562373095
 46
0.0
 79
     0
 98
        1
 10
0.0
 20
0.0
  0
HATCH
  5
35A
330
71
100
AcDbEntity
  8
1
  6
Continuous
 62
     2
100
AcDbHatch
 10
0.0
 20
0.0
 30
0.0
210
0.0
220
0.0
230
1.0
  2
CUSTOM24
 70
     0
 71
     1
 91
        1
 92
        1
 93
       14
 72
     2
 10
-152.2844468748292
 20
-294.3884692070685
 40
1.639695123940499
 50
84.84185523036533
 51
164.9381082228903
 73
     1
 72
     2
 10
-152.703574718292
 20
-294.2756788450337
 40
1.205656168390944
 50
164.9381082228765
 51
195.0618917770948
 73
     1
 72
     2
 10
-152.2844468748292
 20
-294.1628884829988
 40
1.63969512393941
 50
195.0618917770925
 51
275.1581447696363
 73
     1
 72
     2
 10
-152.5733029695651
 20
-290.9629978997772
 40
4.852596863498272
 50
275.1581447696238
 51
285.9799912583526
 73
     1
 72
     1
 10
-151.2373750524473
 20
-295.6280802055781
 11
-151.2373750524473
 21
-294.7555631987748
 72
     2
 10
-152.4154300944723
 20
-292.865212479625
 40
2.227384008972773
 50
58.06909105003709
 51
71.55192388186677
 73
     0
 72
     2
 10
-151.9972623608114
 20
-294.1187582556622
 40
0.9059297849848149
 50
71.55192388184605
 51
113.3722778881318
 73
     0
 72
     2
 10
-152.1537023935135
 20
-294.4807502743722
 40
0.5115800601947491
 50
113.3722778881689
 51
151.4785267423156
 73
     0
 72
     2
 10
-151.7763451354331
 20
-294.2756788450337
 40
0.9410597353333294
 50
151.4785267423028
 51
208.5214732577306
 73
     0
 72
     2
 10
-152.1537023935135
 20
-294.0706074156946
 40
0.5115800601948701
 50
208.5214732576844
 51
246.6277221118109
 73
     0
 72
     2
 10
-151.9972623608114
 20
-294.4325994344052
 40
0.9059297849852959
 50
246.627722111871
 51
288.4480761181414
 73
     0
 72
     2
 10
-152.4154300944723
 20
-295.6861452104418
 40
2.227384008973465
 50
288.4480761181333
 51
301.9309089499629
 73
     0
 72
     1
 10
-151.2373750524473
 20
-293.795794491292
 11
-151.2373750524473
 21
-292.9232774844887
 72
     2
 10
-152.5733029695651
 20
-297.5883597902895
 40
4.852596863497931
 50
74.02000874164692
 51
84.84185523037603
 73
     1
 97
       14
330
30A
330
30B
330
30C
330
30D
330
291
330
2E3
330
2E2
330
2E1
330
30E
330
30F
330
2E0
330
310
330
292
330
2DF
 75
     1
 76
     2
 52
45.0
 41
0.1
 77
     0
 78
     1
 53
45.0
 43
62.7811309658083
 44
-72.3161373035813
 45
-0.1414213562373095
 46
0.0
 79
     0
 98
        1
 10
0.0
 20
0.0
  0
HATCH
  5
35B
330
71
100
AcDbEntity
  8
1
  6
Continuous
 62
     2
100
AcDbHatch
 10
0.0
 20
0.0
 30
0.0
210
0.0
220
0.0
230
1.0
  2
CUSTOM25
 70
     0
 71
     1
 91
        1
 92
        1
 93
       14
 72
     2
 10
-152.2844468748292
 20
-294.3884692070685
 40
1.639695123940499
 50
84.84185523036533
 51
164.9381082228903
 73
     1
 72
     2
 10
-152.703574718292
 20
-294.2756788450337
 40
1.205656168390944
 50
164.9381082228765
 51
195.0618917770948
 73
     1
 72
     2
 10
-152.2844468748292
 20
-294.1628884829988
 40
1.63969512393941
 50
195.0618917770925
 51
275.1581447696363
 73
     1
 72
     2
 10
-152.5733029695651
 20
-290.9629978997772
 40
4.852596863498272
 50
275.1581447696238
 51
285.9799912583526
 73
     1
 72
     1
 10
-151.2373750524473
 20
-295.6280802055781
 11
-151.2373750524473
 21
-294.7555631987748
 72
     2
 10
-152.4154300944723
 20
-292.865212479625
 40
2.227384008972773
 50
58.06909105003709
 51
71.55192388186677
 73
     0
 72
     2
 10
-151.9972623608114
 20
-294.1187582556622
 40
0.9059297849848149
 50
71.55192388184605
 51
113.3722778881318
 73
     0
 72
     2
 10
-152.1537023935135
 20
-294.4807502743722
 40
0.5115800601947491
 50
113.3722778881689
 51
151.4785267423156
 73
     0
 72
     2
 10
-151.7763451354331
 20
-294.2756788450337
 40
0.9410597353333294
 50
151.4785267423028
 51
208.5214732577306
 73
     0
 72
     2
 10
-152.1537023935135
 20
-294.0706074156946
 40
0.5115800601948701
 50
208.5214732576844
 51
246.6277221118109
 73
     0
 72
     2
 10
-151.9972623608114
 20
-294.4325994344052
 40
0.9059297849852959
 50
246.627722111871
 51
288.4480761181414
 73
     0
 72
     2
 10
-152.4154300944723
 20
-295.6861452104418
 40
2.227384008973465
 50
288.4480761181333
 51
301.9309089499629
 73
     0
 72
     1
 10
-151.2373750524473
 20
-293.795794491292
 11
-151.2373750524473
 21
-292.9232774844887
 72
     2
 10
-152.5733029695651
 20
-297.5883597902895
 40
4.852596863497931
 50
74.02000874164692
 51
84.84185523037603
 73
     1
 97
       14
330
30A
330
30B
330
30C
330
30D
330
291
330
2E3
330
2E2
330
2E1
330
30E
330
30F
330
2E0
330
310
330
292
330
2DF
 75
     1
 76
     2
 52
45.0
 41
0.1
 77
     0
 78
     1
 53
45.0
 43
62.7811309658083
 44
-72.3161373035813
 45
-0.1414213562373095
 46
0.0
 79
     0
 98
        1
 10
0.0
 20
0.0
  0
ENDBLK
  5
73
330
71
100
AcDbEntity
  8
0
100
AcDbBlockEnd
  0
BLOCK
  5
75
330
74
100
AcDbEntity
  8
0
100
AcDbBlockBegin
  2
_punkt
 70
     0
 10
-35.39999946746482
 20
-303.0960836069552
 30
0.0
  3
_punkt
  1

  0
LINE
  5
35C
330
74
100
AcDbEntity
  8
1
  6
Continuous
 62
     2
100
AcDbLine
 10
-35.39999946746477
 20
-303.0960836069552
 30
0.0
 11
-30.39999946746715
 21
-303.0960836069552
 31
0.0
  0
LINE
  5
35D
330
74
100
AcDbEntity
  8
1
  6
Continuous
 62
     2
100
AcDbLine
 10
-35.39999946746477
 20
-303.0960836069552
 30
0.0
 11
-35.39999946746477
 21
-308.0960836069547
 31
0.0
  0
ENDBLK
  5
76
330
74
100
AcDbEntity
  8
0
100
AcDbBlockEnd
  0
BLOCK
  5
7A
330
77
100
AcDbEntity
  8
0
100
AcDbBlockBegin
  2
A3I_CS
 70
     0
 10
-35.39999946746477
 20
-308.0960836069547
 30
0.0
  3
A3I_CS
  1

  0
INSERT
  5
78
330
77
100
AcDbEntity
  8
1
100
AcDbBlockReference
  2
_rahmen
 10
-35.39999946746477
 20
-308.0960836069547
 30
0.0
  0
INSERT
  5
79
330
77
100
AcDbEntity
  8
1
100
AcDbBlockReference
  2
_punkt
 10
-35.39999946746482
 20
-303.0960836069552
 30
0.0
  0
ENDBLK
  5
7B
330
77
100
AcDbEntity
  8
0
100
AcDbBlockEnd
  0
BLOCK
  5
84
330
7C
100
AcDbEntity
  8
0
100
AcDbBlockBegin
  2
1
 70
     0
 10
0.0
 20
0.0
 30
0.0
  3
1
  1

  0
INSERT
  5
7D
330
7C
100
AcDbEntity
  8
0
100
AcDbBlockReference
  2
Allg1
 10
-131.000000000018
 20
-205.99999999989
 30
0.0
  0
INSERT
  5
7E
330
7C
100
AcDbEntity
  8
0
100
AcDbBlockReference
  2
Drfsicht1
 10
-293.9749981165171
 20
-224.2499986888624
 30
0.0
  0
INSERT
  5
7F
330
7C
100
AcDbEntity
  8
0
100
AcDbBlockReference
  2
Rckans1
 10
-108.025001883481
 20
-84.99999999980953
 30
0.0
  0
INSERT
  5
80
330
7C
100
AcDbEntity
  8
0
100
AcDbBlockReference
  2
SA_Links1
 10
-201.9999999999
 20
-84.99999999980953
 30
0.0
  0
INSERT
  5
81
330
7C
100
AcDbEntity
  8
0
100
AcDbBlockReference
  2
SA_Rechts1
 10
-393.9499962332162
 20
-84.99999999981003
 30
0.0
  0
INSERT
  5
82
330
7C
100
AcDbEntity
  8
0
100
AcDbBlockReference
  2
Vordans1
 10
-293.9749981165171
 20
-84.99999999981003
 30
0.0
  0
INSERT
  5
83
330
7C
100
AcDbEntity
  8
0
100
AcDbBlockReference
  2
A3I_CS
 10
-35.39999946746477
 20
-308.0960836069547
 30
0.0
  0
ENDBLK
  5
85
330
7C
100
AcDbEntity
  8
0
100
AcDbBlockEnd
  0
BLOCK
  5
12D
330
126
100
AcDbEntity
  8
0
100
AcDbBlockBegin
  2
*D17
 70
     1
 10
0.0
 20
0.0
 30
0.0
  3
*D17
  1

  0
LINE
  5
127
330
126
100
AcDbEntity
  8
1
  6
Continuous
 62
     2
100
AcDbLine
 10
-359.3416151768021
 20
-244.6499979020824
 30
0.0
 11
-359.3416151768021
 21
-203.8499979022424
 31
0.0
  0
LINE
  5
128
330
126
100
AcDbEntity
  8
1
  6
Continuous
 62
     2
100
AcDbLine
 10
-343.7499965113986
 20
-203.8499979022424
 30
0.0
 11
-360.8416151768021
 21
-203.8499979022424
 31
0.0
  0
LINE
  5
129
330
126
100
AcDbEntity
  8
1
  6
Continuous
 62
     2
100
AcDbLine
 10
-343.7499965113026
 20
-244.6499979020824
 30
0.0
 11
-360.8416151768021
 21
-244.6499979020824
 31
0.0
  0
SOLID
  5
12A
330
126
100
AcDbEntity
  8
1
 62
     2
100
AcDbTrace
 10
-359.8023989183579
 20
-241.1499979020824
 30
0.0
 11
-358.8808314352462
 21
-241.1499979020824
 31
0.0
 12
-359.3416151768021
 22
-244.6499979020824
 32
0.0
 13
-359.3416151768021
 23
-244.6499979020824
 33
0.0
  0
SOLID
  5
12B
330
126
100
AcDbEntity
  8
1
 62
     2
100
AcDbTrace
 10
-358.8808314352462
 20
-207.3499979022424
 30
0.0
 11
-359.8023989183579
 21
-207.3499979022424
 31
0.0
 12
-359.3416151768021
 22
-203.8499979022424
 32
0.0
 13
-359.3416151768021
 23
-203.8499979022424
 33
0.0
  0
MTEXT
  5
12C
330
126
100
AcDbEntity
  8
1
 62
     3
100
AcDbMText
 10
-361.6916151768021
 20
-228.6945159304459
 30
0.0
 40
3.5
 41
0.0
 71
     7
 72
     1
  1
40,8
  7
CONVERTER_11
 11
0.0
 21
1.0
 31
0.0
 73
     1
 44
0.60024009603842
  0
ENDBLK
  5
12E
330
126
100
AcDbEntity
  8
0
100
AcDbBlockEnd
  0
BLOCK
  5
202
330
1FB
100
AcDbEntity
  8
0
100
AcDbBlockBegin
  2
*D18
 70
     1
 10
0.0
 20
0.0
 30
0.0
  3
*D18
  1

  0
LINE
  5
1FC
330
1FB
100
AcDbEntity
  8
1
  6
Continuous
 62
     2
100
AcDbLine
 10
-349.5499965115399
 20
-136.419817230717
 30
0.0
 11
-238.3999965115141
 21
-136.419817230717
 31
0.0
  0
LINE
  5
1FD
330
1FB
100
AcDbEntity
  8
1
  6
Continuous
 62
     2
100
AcDbLine
 10
-238.3999965115141
 20
-59.14999927889639
 30
0.0
 11
-238.3999965115141
 21
-137.919817230717
 31
0.0
  0
LINE
  5
1FE
330
1FB
100
AcDbEntity
  8
1
  6
Continuous
 62
     2
100
AcDbLine
 10
-349.5499965115399
 20
-63.90735859142387
 30
0.0
 11
-349.5499965115399
 21
-137.919817230717
 31
0.0
  0
SOLID
  5
1FF
330
1FB
100
AcDbEntity
  8
1
 62
     2
100
AcDbTrace
 10
-346.0499965115399
 20
-135.9590334891611
 30
0.0
 11
-346.0499965115399
 21
-136.8806009722729
 31
0.0
 12
-349.5499965115399
 22
-136.419817230717
 32
0.0
 13
-349.5499965115399
 23
-136.419817230717
 33
0.0
  0
SOLID
  5
200
330
1FB
100
AcDbEntity
  8
1
 62
     2
100
AcDbTrace
 10
-241.8999965115141
 20
-136.8806009722729
 30
0.0
 11
-241.8999965115141
 21
-135.9590334891611
 31
0.0
 12
-238.3999965115141
 22
-136.419817230717
 32
0.0
 13
-238.3999965115141
 23
-136.419817230717
 33
0.0
  0
MTEXT
  5
201
330
1FB
100
AcDbEntity
  8
1
 62
     3
100
AcDbMText
 10
-297.1028595596001
 20
-134.069817230717
 30
0.0
 40
3.5
 41
0.0
 71
     7
 72
     1
  1
111,15
  7
CONVERTER_11
 11
0.9999999999970619
 21
2.424068405545306E-6
 31
0.0
 73
     1
 44
0.60024009603842
  0
ENDBLK
  5
203
330
1FB
100
AcDbEntity
  8
0
100
AcDbBlockEnd
  0
BLOCK
  5
20D
330
206
100
AcDbEntity
  8
0
100
AcDbBlockBegin
  2
*D19
 70
     1
 10
0.0
 20
0.0
 30
0.0
  3
*D19
  1

  0
LINE
  5
207
330
206
100
AcDbEntity
  8
1
  6
Continuous
 62
     2
100
AcDbLine
 10
-359.3416151768021
 20
-118.8499992788747
 30
0.0
 11
-359.3416151768021
 21
-51.14999927899819
 31
0.0
  0
LINE
  5
208
330
206
100
AcDbEntity
  8
1
  6
Continuous
 62
     2
100
AcDbLine
 10
-243.8999965115878
 20
-118.8499992788747
 30
0.0
 11
-360.8416151768021
 21
-118.8499992788747
 31
0.0
  0
LINE
  5
209
330
206
100
AcDbEntity
  8
1
  6
Continuous
 62
     2
100
AcDbLine
 10
-304.2125358199431
 20
-51.14999927899819
 30
0.0
 11
-360.8416151768021
 21
-51.14999927899819
 31
0.0
  0
SOLID
  5
20A
330
206
100
AcDbEntity
  8
1
 62
     2
100
AcDbTrace
 10
-359.8023989183579
 20
-115.3499992788747
 30
0.0
 11
-358.8808314352462
 21
-115.3499992788747
 31
0.0
 12
-359.3416151768021
 22
-118.8499992788747
 32
0.0
 13
-359.3416151768021
 23
-118.8499992788747
 33
0.0
  0
SOLID
  5
20B
330
206
100
AcDbEntity
  8
1
 62
     2
100
AcDbTrace
 10
-358.8808314352462
 20
-54.64999927899819
 30
0.0
 11
-359.8023989183579
 21
-54.64999927899819
 31
0.0
 12
-359.3416151768021
 22
-51.14999927899819
 32
0.0
 13
-359.3416151768021
 23
-51.14999927899819
 33
0.0
  0
MTEXT
  5
20C
330
206
100
AcDbEntity
  8
1
 62
     3
100
AcDbMText
 10
-361.6916151768021
 20
-89.382492101558
 30
0.0
 40
3.5
 41
0.0
 71
     7
 72
     1
  1
67,7
  7
CONVERTER_11
 11
0.0
 21
1.0
 31
0.0
 73
     1
 44
0.60024009603842
  0
ENDBLK
  5
20E
330
206
100
AcDbEntity
  8
0
100
AcDbBlockEnd
  0
ENDSEC
  0
SECTION
  2
ENTITIES
  0
INSERT
  5
86
330
1F
100
AcDbEntity
  8
1
100
AcDbBlockReference
  2
1
 10
0.0
 20
0.0
 30
0.0
  0
ENDSEC
  0
SECTION
  2
OBJECTS
  0
DICTIONARY
  5
C
330
0
100
AcDbDictionary
281
     1
  3
ACAD_GROUP
350
D
  3
ACAD_LAYOUT
350
1A
  3
ACAD_MATERIAL
350
3B
  3
ACAD_MLEADERSTYLE
350
385
  3
ACAD_MLINESTYLE
350
17
  3
ACAD_PLOTSETTINGS
350
19
  3
ACAD_PLOTSTYLENAME
350
E
  3
ACAD_TABLESTYLE
350
384
  3
ACAD_VISUALSTYLE
350
2A
  0
DICTIONARY
  5
D
102
{ACAD_REACTORS
330
C
102
}
330
C
100
AcDbDictionary
281
     1
  0
DICTIONARY
  5
1A
102
{ACAD_REACTORS
330
C
102
}
330
C
100
AcDbDictionary
281
     1
  3
Layout1
350
1E
  3
Layout2
350
26
  3
Model
350
22
  0
DICTIONARY
  5
3B
102
{ACAD_REACTORS
330
C
102
}
330
C
100
AcDbDictionary
281
     1
  3
ByBlock
350
3D
  3
ByLayer
350
3C
  3
Global
350
3E
  0
DICTIONARY
  5
385
102
{ACAD_REACTORS
330
C
102
}
330
C
100
AcDbDictionary
281
     1
  0
DICTIONARY
  5
17
102
{ACAD_REACTORS
330
C
102
}
330
C
100
AcDbDictionary
281
     1
  3
Standard
350
18
  0
DICTIONARY
  5
19
102
{ACAD_REACTORS
330
C
102
}
330
C
100
AcDbDictionary
281
     1
  0
ACDBDICTIONARYWDFLT
  5
E
102
{ACAD_REACTORS
330
C
102
}
330
C
100
AcDbDictionary
281
     1
  3
Normal
350
F
100
AcDbDictionaryWithDefault
340
F
  0
DICTIONARY
  5
384
102
{ACAD_REACTORS
330
C
102
}
330
C
100
AcDbDictionary
281
     1
  0
DICTIONARY
  5
2A
102
{ACAD_REACTORS
330
C
102
}
330
C
100
AcDbDictionary
281
     1
  3
2dWireframe
350
2F
  3
3D Hidden
350
31
  3
3dWireframe
350
30
  3
Basic
350
32
  3
Brighten
350
36
  3
ColorChange
350
3A
  3
Conceptual
350
34
  3
Dim
350
35
  3
Facepattern
350
39
  3
Flat
350
2B
  3
FlatWithEdges
350
2C
  3
Gouraud
350
2D
  3
GouraudWithEdges
350
2E
  3
Linepattern
350
38
  3
Realistic
350
33
  3
Thicken
350
37
  0
LAYOUT
  5
1E
102
{ACAD_REACTORS
330
1A
102
}
330
1A
100
AcDbPlotSettings
  1

  2
none_device
  4

  6

 40
0.0
 41
0.0
 42
0.0
 43
0.0
 44
0.0
 45
0.0
 46
0.0
 47
0.0
 48
0.0
 49
0.0
140
0.0
141
0.0
142
1.0
143
1.0
 70
   688
 72
     0
 73
     0
 74
     5
  7

 75
    16
 76
     0
 77
     2
 78
   300
147
1.0
148
0.0
149
0.0
100
AcDbLayout
  1
Layout1
 70
     1
 71
     1
 10
0.0
 20
0.0
 11
12.0
 21
9.0
 12
0.0
 22
0.0
 32
0.0
 14
1.00000000000000E+20
 24
1.00000000000000E+20
 34
1.00000000000000E+20
 15
-1.00000000000000E+20
 25
-1.00000000000000E+20
 35
-1.00000000000000E+20
146
0.0
 13
0.0
 23
0.0
 33
0.0
 16
1.0
 26
0.0
 36
0.0
 17
0.0
 27
1.0
 37
0.0
 76
     0
330
1B
  0
LAYOUT
  5
26
102
{ACAD_REACTORS
330
1A
102
}
330
1A
100
AcDbPlotSettings
  1

  2
none_device
  4

  6

 40
0.0
 41
0.0
 42
0.0
 43
0.0
 44
0.0
 45
0.0
 46
0.0
 47
0.0
 48
0.0
 49
0.0
140
0.0
141
0.0
142
1.0
143
1.0
 70
   688
 72
     0
 73
     0
 74
     5
  7

 75
    16
 76
     0
 77
     2
 78
   300
147
1.0
148
0.0
149
0.0
100
AcDbLayout
  1
Layout2
 70
     1
 71
     2
 10
0.0
 20
0.0
 11
0.0
 21
0.0
 12
0.0
 22
0.0
 32
0.0
 14
0.0
 24
0.0
 34
0.0
 15
0.0
 25
0.0
 35
0.0
146
0.0
 13
0.0
 23
0.0
 33
0.0
 16
1.0
 26
0.0
 36
0.0
 17
0.0
 27
1.0
 37
0.0
 76
     0
330
23
  0
LAYOUT
  5
22
102
{ACAD_REACTORS
330
1A
102
}
330
1A
100
AcDbPlotSettings
  1

  2
none_device
  4

  6

 40
0.0
 41
0.0
 42
0.0
 43
0.0
 44
0.0
 45
0.0
 46
0.0
 47
0.0
 48
0.0
 49
0.0
140
0.0
141
0.0
142
1.0
143
1.0
 70
  1712
 72
     0
 73
     0
 74
     0
  7

 75
     0
 76
     0
 77
     2
 78
   300
147
1.0
148
0.0
149
0.0
100
AcDbLayout
  1
Model
 70
     1
 71
     0
 10
0.0
 20
0.0
 11
12.0
 21
9.0
 12
0.0
 22
0.0
 32
0.0
 14
-450.3999994674656
 24
-308.0960836069547
 34
0.0
 15
-30.39999946746715
 25
-11.09608360695473
 35
0.0
146
0.0
 13
0.0
 23
0.0
 33
0.0
 16
1.0
 26
0.0
 36
0.0
 17
0.0
 27
1.0
 37
0.0
 76
     0
330
1F
331
29
  0
MATERIAL
  5
3D
102
{ACAD_REACTORS
330
3B
102
}
102
{ACAD_XDICTIONARY
360
380
102
}
330
3B
100
AcDbMaterial
  1
ByBlock
  0
MATERIAL
  5
3C
102
{ACAD_REACTORS
330
3B
102
}
102
{ACAD_XDICTIONARY
360
37E
102
}
330
3B
100
AcDbMaterial
  1
ByLayer
  0
MATERIAL
  5
3E
102
{ACAD_REACTORS
330
3B
102
}
102
{ACAD_XDICTIONARY
360
382
102
}
330
3B
100
AcDbMaterial
  1
Global
  0
MLINESTYLE
  5
18
102
{ACAD_REACTORS
330
17
102
}
330
17
100
AcDbMlineStyle
  2
Standard
 70
     0
  3

 62
   256
 51
90.0
 52
90.0
 71
     2
 49
0.5
 62
   256
  6
BYLAYER
 49
-0.5
 62
   256
  6
BYLAYER
  0
ACDBPLACEHOLDER
  5
F
102
{ACAD_REACTORS
330
E
102
}
330
E
  0
VISUALSTYLE
  5
2F
102
{ACAD_REACTORS
330
2A
102
}
102
{ACAD_XDICTIONARY
360
366
102
}
330
2A
100
AcDbVisualStyle
  2
2dWireframe
 70
     4
 71
     0
 72
     2
 73
     0
 90
        0
 40
-0.6
 41
-30.0
 62
     5
 63
     7
421
 16777215
 74
     1
 91
        4
 64
     7
 65
   257
 75
     1
175
     1
 42
1.0
 92
        0
 66
   257
 43
1.0
 76
     1
 77
     6
 78
     2
 67
     7
 79
     5
170
     0
171
     0
290
     0
174
     0
 93
        1
 44
0.0
173
     0
291
     0
 45
0.0
1001
ACAD
1000
AcDbSavedByObjectVersion
1070
     0
  0
VISUALSTYLE
  5
31
102
{ACAD_REACTORS
330
2A
102
}
102
{ACAD_XDICTIONARY
360
36A
102
}
330
2A
100
AcDbVisualStyle
  2
3D Hidden
 70
     6
 71
     1
 72
     2
 73
     2
 90
        0
 40
-0.6
 41
-30.0
 62
     5
 63
     7
421
 16777215
 74
     2
 91
        2
 64
     7
 65
   257
 75
     2
175
     1
 42
40.0
 92
        0
 66
   257
 43
1.0
 76
     1
 77
     6
 78
     2
 67
     7
 79
     3
170
     0
171
     0
290
     0
174
     0
 93
        1
 44
0.0
173
     0
291
     0
 45
0.0
1001
ACAD
1000
AcDbSavedByObjectVersion
1070
     0
  0
VISUALSTYLE
  5
30
102
{ACAD_REACTORS
330
2A
102
}
102
{ACAD_XDICTIONARY
360
368
102
}
330
2A
100
AcDbVisualStyle
  2
3dWireframe
 70
     5
 71
     0
 72
     2
 73
     0
 90
        0
 40
-0.6
 41
-30.0
 62
     5
 63
     7
421
 16777215
 74
     1
 91
        4
 64
     7
 65
   257
 75
     1
175
     1
 42
1.0
 92
        0
 66
   257
 43
1.0
 76
     1
 77
     6
 78
     2
 67
     7
 79
     5
170
     0
171
     0
290
     0
174
     0
 93
        1
 44
0.0
173
     0
291
     0
 45
0.0
1001
ACAD
1000
AcDbSavedByObjectVersion
1070
     0
  0
VISUALSTYLE
  5
32
102
{ACAD_REACTORS
330
2A
102
}
102
{ACAD_XDICTIONARY
360
36C
102
}
330
2A
100
AcDbVisualStyle
  2
Basic
 70
     7
 71
     1
 72
     0
 73
     1
 90
        0
 40
-0.6
 41
-30.0
 62
     5
 63
     7
421
 16777215
 74
     0
 91
        4
 64
     7
 65
   257
 75
     1
175
     1
 42
1.0
 92
        8
 66
     7
 43
1.0
 76
     1
 77
     6
 78
     2
 67
     7
 79
     5
170
     0
171
     0
290
     0
174
     0
 93
        1
 44
0.0
173
     0
291
     1
 45
0.0
1001
ACAD
1000
AcDbSavedByObjectVersion
1070
     0
  0
VISUALSTYLE
  5
36
102
{ACAD_REACTORS
330
2A
102
}
102
{ACAD_XDICTIONARY
360
374
102
}
330
2A
100
AcDbVisualStyle
  2
Brighten
 70
    12
 71
     2
 72
     2
 73
     0
 90
        0
 40
-0.6
 41
-30.0
 62
     5
 63
     7
421
 16777215
 74
     1
 91
        4
 64
     7
 65
   257
 75
     1
175
     1
 42
1.0
 92
        8
 66
     7
 43
1.0
 76
     1
 77
     6
 78
     2
 67
     7
 79
     5
170
     0
171
     0
290
     0
174
     0
 93
        1
 44
50.0
173
     0
291
     1
 45
0.0
1001
ACAD
1000
AcDbSavedByObjectVersion
1070
     0
  0
VISUALSTYLE
  5
3A
102
{ACAD_REACTORS
330
2A
102
}
102
{ACAD_XDICTIONARY
360
37C
102
}
330
2A
100
AcDbVisualStyle
  2
ColorChange
 70
    16
 71
     2
 72
     2
 73
     3
 90
        0
 40
-0.6
 41
-30.0
 62
     5
 63
     8
421
  8421504
 74
     1
 91
        4
 64
     7
 65
   257
 75
     1
175
     1
 42
1.0
 92
        8
 66
     8
424
  8421504
 43
1.0
 76
     1
 77
     6
 78
     2
 67
     7
 79
     5
170
     0
171
     0
290
     0
174
     0
 93
        1
 44
0.0
173
     0
291
     1
 45
0.0
1001
ACAD
1000
AcDbSavedByObjectVersion
1070
     0
  0
VISUALSTYLE
  5
34
102
{ACAD_REACTORS
330
2A
102
}
102
{ACAD_XDICTIONARY
360
370
102
}
330
2A
100
AcDbVisualStyle
  2
Conceptual
 70
     9
 71
     3
 72
     2
 73
     0
 90
        0
 40
-0.6
 41
-30.0
 62
     5
 63
     7
421
 16777215
 74
     2
 91
        2
 64
     7
 65
   257
 75
     1
175
     1
 42
40.0
 92
        8
 66
     7
 43
1.0
 76
     1
 77
     6
 78
     2
 67
     7
 79
     3
170
     0
171
     0
290
     0
174
     0
 93
        1
 44
0.0
173
     0
291
     0
 45
0.0
1001
ACAD
1000
AcDbSavedByObjectVersion
1070
     0
  0
VISUALSTYLE
  5
35
102
{ACAD_REACTORS
330
2A
102
}
102
{ACAD_XDICTIONARY
360
372
102
}
330
2A
100
AcDbVisualStyle
  2
Dim
 70
    11
 71
     2
 72
     2
 73
     0
 90
        0
 40
-0.6
 41
-30.0
 62
     5
 63
     7
421
 16777215
 74
     1
 91
        4
 64
     7
 65
   257
 75
     1
175
     1
 42
1.0
 92
        8
 66
     7
 43
1.0
 76
     1
 77
     6
 78
     2
 67
     7
 79
     5
170
     0
171
     0
290
     0
174
     0
 93
        1
 44
-50.0
173
     0
291
     1
 45
0.0
1001
ACAD
1000
AcDbSavedByObjectVersion
1070
     0
  0
VISUALSTYLE
  5
39
102
{ACAD_REACTORS
330
2A
102
}
102
{ACAD_XDICTIONARY
360
37A
102
}
330
2A
100
AcDbVisualStyle
  2
Facepattern
 70
    15
 71
     2
 72
     2
 73
     0
 90
        0
 40
-0.6
 41
-30.0
 62
     5
 63
     7
421
 16777215
 74
     1
 91
        4
 64
     7
 65
   257
 75
     1
175
     1
 42
1.0
 92
        8
 66
     7
 43
1.0
 76
     1
 77
     6
 78
     2
 67
     7
 79
     5
170
     0
171
     0
290
     0
174
     0
 93
        1
 44
0.0
173
     0
291
     1
 45
0.0
1001
ACAD
1000
AcDbSavedByObjectVersion
1070
     0
  0
VISUALSTYLE
  5
2B
102
{ACAD_REACTORS
330
2A
102
}
102
{ACAD_XDICTIONARY
360
35E
102
}
330
2A
100
AcDbVisualStyle
  2
Flat
 70
     0
 71
     2
 72
     1
 73
     1
 90
        2
 40
-0.6
 41
30.0
 62
     5
 63
     7
421
 16777215
 74
     0
 91
        4
 64
     7
 65
   257
 75
     1
175
     1
 42
1.0
 92
        8
 66
     7
 43
1.0
 76
     1
 77
     6
 78
     2
 67
     7
 79
     5
170
     0
171
     0
290
     0
174
     0
 93
       13
 44
0.0
173
     0
291
     1
 45
0.0
1001
ACAD
1000
AcDbSavedByObjectVersion
1070
     0
  0
VISUALSTYLE
  5
2C
102
{ACAD_REACTORS
330
2A
102
}
102
{ACAD_XDICTIONARY
360
360
102
}
330
2A
100
AcDbVisualStyle
  2
FlatWithEdges
 70
     1
 71
     2
 72
     1
 73
     1
 90
        2
 40
-0.6
 41
30.0
 62
     5
 63
     7
421
 16777215
 74
     1
 91
        4
 64
     7
 65
   257
 75
     1
175
     1
 42
1.0
 92
        0
 66
   257
 43
1.0
 76
     1
 77
     6
 78
     2
 67
     7
 79
     5
170
     0
171
     0
290
     0
174
     0
 93
       13
 44
0.0
173
     0
291
     1
 45
0.0
1001
ACAD
1000
AcDbSavedByObjectVersion
1070
     0
  0
VISUALSTYLE
  5
2D
102
{ACAD_REACTORS
330
2A
102
}
102
{ACAD_XDICTIONARY
360
362
102
}
330
2A
100
AcDbVisualStyle
  2
Gouraud
 70
     2
 71
     2
 72
     2
 73
     1
 90
        2
 40
-0.6
 41
30.0
 62
     5
 63
     7
421
 16777215
 74
     0
 91
        4
 64
     7
 65
   257
 75
     1
175
     1
 42
1.0
 92
        0
 66
     7
 43
1.0
 76
     1
 77
     6
 78
     2
 67
     7
 79
     5
170
     0
171
     0
290
     0
174
     0
 93
       13
 44
0.0
173
     0
291
     1
 45
0.0
1001
ACAD
1000
AcDbSavedByObjectVersion
1070
     0
  0
VISUALSTYLE
  5
2E
102
{ACAD_REACTORS
330
2A
102
}
102
{ACAD_XDICTIONARY
360
364
102
}
330
2A
100
AcDbVisualStyle
  2
GouraudWithEdges
 70
     3
 71
     2
 72
     2
 73
     1
 90
        2
 40
-0.6
 41
30.0
 62
     5
 63
     7
421
 16777215
 74
     1
 91
        4
 64
     7
 65
   257
 75
     1
175
     1
 42
1.0
 92
        0
 66
   257
 43
1.0
 76
     1
 77
     6
 78
     2
 67
     7
 79
     5
170
     0
171
     0
290
     0
174
     0
 93
       13
 44
0.0
173
     0
291
     1
 45
0.0
1001
ACAD
1000
AcDbSavedByObjectVersion
1070
     0
  0
VISUALSTYLE
  5
38
102
{ACAD_REACTORS
330
2A
102
}
102
{ACAD_XDICTIONARY
360
378
102
}
330
2A
100
AcDbVisualStyle
  2
Linepattern
 70
    14
 71
     2
 72
     2
 73
     0
 90
        0
 40
-0.6
 41
-30.0
 62
     5
 63
     7
421
 16777215
 74
     1
 91
        4
 64
     7
 65
   257
 75
     7
175
     7
 42
1.0
 92
        8
 66
     7
 43
1.0
 76
     1
 77
     6
 78
     2
 67
     7
 79
     5
170
     0
171
     0
290
     0
174
     0
 93
        1
 44
0.0
173
     0
291
     1
 45
0.0
1001
ACAD
1000
AcDbSavedByObjectVersion
1070
     0
  0
VISUALSTYLE
  5
33
102
{ACAD_REACTORS
330
2A
102
}
102
{ACAD_XDICTIONARY
360
36E
102
}
330
2A
100
AcDbVisualStyle
  2
Realistic
 70
     8
 71
     2
 72
     2
 73
     0
 90
        0
 40
-0.6
 41
-30.0
 62
     5
 63
     7
421
 16777215
 74
     1
 91
        0
 64
     7
 65
   257
 75
     1
175
     1
 42
1.0
 92
        8
 66
     8
424
  7895160
 43
1.0
 76
     1
 77
     6
 78
     2
 67
     7
 79
     5
170
     0
171
     0
290
     0
174
     0
 93
       13
 44
0.0
173
     0
291
     0
 45
0.0
1001
ACAD
1000
AcDbSavedByObjectVersion
1070
     0
  0
VISUALSTYLE
  5
37
102
{ACAD_REACTORS
330
2A
102
}
102
{ACAD_XDICTIONARY
360
376
102
}
330
2A
100
AcDbVisualStyle
  2
Thicken
 70
    13
 71
     2
 72
     2
 73
     0
 90
        0
 40
-0.6
 41
-30.0
 62
     5
 63
     7
421
 16777215
 74
     1
 91
        4
 64
     7
 65
   257
 75
     1
175
     1
 42
1.0
 92
       12
 66
     7
 43
1.0
 76
     1
 77
     6
 78
     2
 67
     7
 79
     5
170
     0
171
     0
290
     0
174
     0
 93
        1
 44
0.0
173
     0
291
     1
 45
0.0
1001
ACAD
1000
AcDbSavedByObjectVersion
1070
     0
  0
DICTIONARY
  5
380
330
3D
100
AcDbDictionary
280
     1
281
     1
  3
ACAD_XREC_ROUNDTRIP
360
381
  0
DICTIONARY
  5
37E
330
3C
100
AcDbDictionary
280
     1
281
     1
  3
ACAD_XREC_ROUNDTRIP
360
37F
  0
DICTIONARY
  5
382
330
3E
100
AcDbDictionary
280
     1
281
     1
  3
ACAD_XREC_ROUNDTRIP
360
383
  0
DICTIONARY
  5
366
330
2F
100
AcDbDictionary
280
     1
281
     1
  3
ACAD_XREC_ROUNDTRIP
360
367
  0
DICTIONARY
  5
36A
330
31
100
AcDbDictionary
280
     1
281
     1
  3
ACAD_XREC_ROUNDTRIP
360
36B
  0
DICTIONARY
  5
368
330
30
100
AcDbDictionary
280
     1
281
     1
  3
ACAD_XREC_ROUNDTRIP
360
369
  0
DICTIONARY
  5
36C
330
32
100
AcDbDictionary
280
     1
281
     1
  3
ACAD_XREC_ROUNDTRIP
360
36D
  0
DICTIONARY
  5
374
330
36
100
AcDbDictionary
280
     1
281
     1
  3
ACAD_XREC_ROUNDTRIP
360
375
  0
DICTIONARY
  5
37C
330
3A
100
AcDbDictionary
280
     1
281
     1
  3
ACAD_XREC_ROUNDTRIP
360
37D
  0
DICTIONARY
  5
370
330
34
100
AcDbDictionary
280
     1
281
     1
  3
ACAD_XREC_ROUNDTRIP
360
371
  0
DICTIONARY
  5
372
330
35
100
AcDbDictionary
280
     1
281
     1
  3
ACAD_XREC_ROUNDTRIP
360
373
  0
DICTIONARY
  5
37A
330
39
100
AcDbDictionary
280
     1
281
     1
  3
ACAD_XREC_ROUNDTRIP
360
37B
  0
DICTIONARY
  5
35E
330
2B
100
AcDbDictionary
280
     1
281
     1
  3
ACAD_XREC_ROUNDTRIP
360
35F
  0
DICTIONARY
  5
360
330
2C
100
AcDbDictionary
280
     1
281
     1
  3
ACAD_XREC_ROUNDTRIP
360
361
  0
DICTIONARY
  5
362
330
2D
100
AcDbDictionary
280
     1
281
     1
  3
ACAD_XREC_ROUNDTRIP
360
363
  0
DICTIONARY
  5
364
330
2E
100
AcDbDictionary
280
     1
281
     1
  3
ACAD_XREC_ROUNDTRIP
360
365
  0
DICTIONARY
  5
378
330
38
100
AcDbDictionary
280
     1
281
     1
  3
ACAD_XREC_ROUNDTRIP
360
379
  0
DICTIONARY
  5
36E
330
33
100
AcDbDictionary
280
     1
281
     1
  3
ACAD_XREC_ROUNDTRIP
360
36F
  0
DICTIONARY
  5
376
330
37
100
AcDbDictionary
280
     1
281
     1
  3
ACAD_XREC_ROUNDTRIP
360
377
  0
XRECORD
  5
381
102
{ACAD_REACTORS
330
380
102
}
330
380
100
AcDbXrecord
280
     1
102
MATERIAL
148
0.0
149
0.0
149
0.0
 93
        0
 94
      127
282
     0
 72
     1
 77
     1
171
     1
175
     1
179
     1
273
     0
  0
XRECORD
  5
37F
102
{ACAD_REACTORS
330
37E
102
}
330
37E
100
AcDbXrecord
280
     1
102
MATERIAL
148
0.0
149
0.0
149
0.0
 93
        0
 94
      127
282
     0
 72
     1
 77
     1
171
     1
175
     1
179
     1
273
     0
  0
XRECORD
  5
383
102
{ACAD_REACTORS
330
382
102
}
330
382
100
AcDbXrecord
280
     1
102
MATERIAL
148
0.0
149
0.0
149
0.0
 93
        0
 94
      127
282
     0
 72
     1
 77
     1
171
     1
175
     1
179
     1
273
     0
  0
XRECORD
  5
367
102
{ACAD_REACTORS
330
366
102
}
330
366
100
AcDbXrecord
280
     1
102
RTVSPropertyOp0
 70
     1
102
RTVSPropertyOp1
 70
     1
102
RTVSPropertyOp2
 70
     1
102
RTVSPropertyOp3
 70
     1
102
RTVSPropertyOp4
 70
     1
102
RTVSPropertyOp5
 70
     1
102
RTVSPropertyOp6
 70
     1
102
RTVSPropertyOp7
 70
     1
102
RTVSPropertyOp8
 70
     1
102
RTVSPropertyOp9
 70
     1
102
RTVSPropertyOp10
 70
     1
102
RTVSPropertyOp11
 70
     1
102
RTVSPropertyOp12
 70
     1
102
RTVSPropertyOp13
 70
     1
102
RTVSPropertyOp14
 70
     1
102
RTVSPropertyOp15
 70
     1
102
RTVSPropertyOp16
 70
     1
102
RTVSPropertyOp17
 70
     1
102
RTVSPropertyOp18
 70
     1
102
RTVSPropertyOp19
 70
     1
102
RTVSPropertyOp20
 70
     1
102
RTVSPropertyOp21
 70
     1
102
RTVSPropertyOp22
 70
     1
102
RTVSPropertyOp23
 70
     1
102
RTVSPropertyOp24
 70
     1
102
RTVSPropertyOp25
 70
     1
102
RTVSPropertyOp26
 70
     1
102
RTVSPropertyOp27
 70
     1
102
RTVSPropertyOp28
 70
     1
102
RTVSPropertyOp29
 70
     1
102
RTVSPropertyOp30
 70
     1
102
RTVSPropertyOp31
 70
     1
102
RTVSPropertyOp32
 70
     1
  0
XRECORD
  5
36B
102
{ACAD_REACTORS
330
36A
102
}
330
36A
100
AcDbXrecord
280
     1
102
RTVSPropertyOp0
 70
     1
102
RTVSPropertyOp1
 70
     1
102
RTVSPropertyOp2
 70
     1
102
RTVSPropertyOp3
 70
     1
102
RTVSPropertyOp4
 70
     1
102
RTVSPropertyOp5
 70
     1
102
RTVSPropertyOp6
 70
     1
102
RTVSPropertyOp7
 70
     1
102
RTVSPropertyOp8
 70
     1
102
RTVSPropertyOp9
 70
     1
102
RTVSPropertyOp10
 70
     1
102
RTVSPropertyOp11
 70
     1
102
RTVSPropertyOp12
 70
     1
102
RTVSPropertyOp13
 70
     1
102
RTVSPropertyOp14
 70
     1
102
RTVSPropertyOp15
 70
     1
102
RTVSPropertyOp16
 70
     1
102
RTVSPropertyOp17
 70
     1
102
RTVSPropertyOp18
 70
     1
102
RTVSPropertyOp19
 70
     1
102
RTVSPropertyOp20
 70
     1
102
RTVSPropertyOp21
 70
     1
102
RTVSPropertyOp22
 70
     1
102
RTVSPropertyOp23
 70
     1
102
RTVSPropertyOp24
 70
     1
102
RTVSPropertyOp25
 70
     1
102
RTVSPropertyOp26
 70
     1
102
RTVSPropertyOp27
 70
     1
102
RTVSPropertyOp28
 70
     1
102
RTVSPropertyOp29
 70
     1
102
RTVSPropertyOp30
 70
     1
102
RTVSPropertyOp31
 70
     1
102
RTVSPropertyOp32
 70
     1
  0
XRECORD
  5
369
102
{ACAD_REACTORS
330
368
102
}
330
368
100
AcDbXrecord
280
     1
102
RTVSPropertyOp0
 70
     1
102
RTVSPropertyOp1
 70
     1
102
RTVSPropertyOp2
 70
     1
102
RTVSPropertyOp3
 70
     1
102
RTVSPropertyOp4
 70
     1
102
RTVSPropertyOp5
 70
     1
102
RTVSPropertyOp6
 70
     1
102
RTVSPropertyOp7
 70
     1
102
RTVSPropertyOp8
 70
     1
102
RTVSPropertyOp9
 70
     1
102
RTVSPropertyOp10
 70
     1
102
RTVSPropertyOp11
 70
     1
102
RTVSPropertyOp12
 70
     1
102
RTVSPropertyOp13
 70
     1
102
RTVSPropertyOp14
 70
     1
102
RTVSPropertyOp15
 70
     1
102
RTVSPropertyOp16
 70
     1
102
RTVSPropertyOp17
 70
     1
102
RTVSPropertyOp18
 70
     1
102
RTVSPropertyOp19
 70
     1
102
RTVSPropertyOp20
 70
     1
102
RTVSPropertyOp21
 70
     1
102
RTVSPropertyOp22
 70
     1
102
RTVSPropertyOp23
 70
     1
102
RTVSPropertyOp24
 70
     1
102
RTVSPropertyOp25
 70
     1
102
RTVSPropertyOp26
 70
     1
102
RTVSPropertyOp27
 70
     1
102
RTVSPropertyOp28
 70
     1
102
RTVSPropertyOp29
 70
     1
102
RTVSPropertyOp30
 70
     1
102
RTVSPropertyOp31
 70
     1
102
RTVSPropertyOp32
 70
     1
  0
XRECORD
  5
36D
102
{ACAD_REACTORS
330
36C
102
}
330
36C
100
AcDbXrecord
280
     1
102
RTVSPropertyOp0
 70
     1
102
RTVSPropertyOp1
 70
     1
102
RTVSPropertyOp2
 70
     1
102
RTVSPropertyOp3
 70
     1
102
RTVSPropertyOp4
 70
     1
102
RTVSPropertyOp5
 70
     1
102
RTVSPropertyOp6
 70
     1
102
RTVSPropertyOp7
 70
     1
102
RTVSPropertyOp8
 70
     1
102
RTVSPropertyOp9
 70
     1
102
RTVSPropertyOp10
 70
     1
102
RTVSPropertyOp11
 70
     1
102
RTVSPropertyOp12
 70
     1
102
RTVSPropertyOp13
 70
     1
102
RTVSPropertyOp14
 70
     1
102
RTVSPropertyOp15
 70
     1
102
RTVSPropertyOp16
 70
     1
102
RTVSPropertyOp17
 70
     1
102
RTVSPropertyOp18
 70
     1
102
RTVSPropertyOp19
 70
     1
102
RTVSPropertyOp20
 70
     1
102
RTVSPropertyOp21
 70
     1
102
RTVSPropertyOp22
 70
     1
102
RTVSPropertyOp23
 70
     1
102
RTVSPropertyOp24
 70
     1
102
RTVSPropertyOp25
 70
     1
102
RTVSPropertyOp26
 70
     1
102
RTVSPropertyOp27
 70
     1
102
RTVSPropertyOp28
 70
     1
102
RTVSPropertyOp29
 70
     1
102
RTVSPropertyOp30
 70
     1
102
RTVSPropertyOp31
 70
     1
102
RTVSPropertyOp32
 70
     1
  0
XRECORD
  5
375
102
{ACAD_REACTORS
330
374
102
}
330
374
100
AcDbXrecord
280
     1
102
RTVSPropertyOp0
 70
     1
102
RTVSPropertyOp1
 70
     1
102
RTVSPropertyOp2
 70
     1
102
RTVSPropertyOp3
 70
     1
102
RTVSPropertyOp4
 70
     1
102
RTVSPropertyOp5
 70
     1
102
RTVSPropertyOp6
 70
     1
102
RTVSPropertyOp7
 70
     1
102
RTVSPropertyOp8
 70
     1
102
RTVSPropertyOp9
 70
     1
102
RTVSPropertyOp10
 70
     1
102
RTVSPropertyOp11
 70
     1
102
RTVSPropertyOp12
 70
     1
102
RTVSPropertyOp13
 70
     1
102
RTVSPropertyOp14
 70
     1
102
RTVSPropertyOp15
 70
     1
102
RTVSPropertyOp16
 70
     1
102
RTVSPropertyOp17
 70
     1
102
RTVSPropertyOp18
 70
     1
102
RTVSPropertyOp19
 70
     1
102
RTVSPropertyOp20
 70
     1
102
RTVSPropertyOp21
 70
     1
102
RTVSPropertyOp22
 70
     1
102
RTVSPropertyOp23
 70
     1
102
RTVSPropertyOp24
 70
     1
102
RTVSPropertyOp25
 70
     1
102
RTVSPropertyOp26
 70
     1
102
RTVSPropertyOp27
 70
     1
102
RTVSPropertyOp28
 70
     1
102
RTVSPropertyOp29
 70
     1
102
RTVSPropertyOp30
 70
     1
102
RTVSPropertyOp31
 70
     1
102
RTVSPropertyOp32
 70
     1
  0
XRECORD
  5
37D
102
{ACAD_REACTORS
330
37C
102
}
330
37C
100
AcDbXrecord
280
     1
102
RTVSPropertyOp0
 70
     1
102
RTVSPropertyOp1
 70
     1
102
RTVSPropertyOp2
 70
     1
102
RTVSPropertyOp3
 70
     1
102
RTVSPropertyOp4
 70
     1
102
RTVSPropertyOp5
 70
     1
102
RTVSPropertyOp6
 70
     1
102
RTVSPropertyOp7
 70
     1
102
RTVSPropertyOp8
 70
     1
102
RTVSPropertyOp9
 70
     1
102
RTVSPropertyOp10
 70
     1
102
RTVSPropertyOp11
 70
     1
102
RTVSPropertyOp12
 70
     1
102
RTVSPropertyOp13
 70
     1
102
RTVSPropertyOp14
 70
     1
102
RTVSPropertyOp15
 70
     1
102
RTVSPropertyOp16
 70
     1
102
RTVSPropertyOp17
 70
     1
102
RTVSPropertyOp18
 70
     1
102
RTVSPropertyOp19
 70
     1
102
RTVSPropertyOp20
 70
     1
102
RTVSPropertyOp21
 70
     1
102
RTVSPropertyOp22
 70
     1
102
RTVSPropertyOp23
 70
     1
102
RTVSPropertyOp24
 70
     1
102
RTVSPropertyOp25
 70
     1
102
RTVSPropertyOp26
 70
     1
102
RTVSPropertyOp27
 70
     1
102
RTVSPropertyOp28
 70
     1
102
RTVSPropertyOp29
 70
     1
102
RTVSPropertyOp30
 70
     1
102
RTVSPropertyOp31
 70
     1
102
RTVSPropertyOp32
 70
     1
  0
XRECORD
  5
371
102
{ACAD_REACTORS
330
370
102
}
330
370
100
AcDbXrecord
280
     1
102
RTVSPropertyOp0
 70
     1
102
RTVSPropertyOp1
 70
     1
102
RTVSPropertyOp2
 70
     1
102
RTVSPropertyOp3
 70
     1
102
RTVSPropertyOp4
 70
     1
102
RTVSPropertyOp5
 70
     1
102
RTVSPropertyOp6
 70
     1
102
RTVSPropertyOp7
 70
     1
102
RTVSPropertyOp8
 70
     1
102
RTVSPropertyOp9
 70
     1
102
RTVSPropertyOp10
 70
     1
102
RTVSPropertyOp11
 70
     1
102
RTVSPropertyOp12
 70
     1
102
RTVSPropertyOp13
 70
     1
102
RTVSPropertyOp14
 70
     1
102
RTVSPropertyOp15
 70
     1
102
RTVSPropertyOp16
 70
     1
102
RTVSPropertyOp17
 70
     1
102
RTVSPropertyOp18
 70
     1
102
RTVSPropertyOp19
 70
     1
102
RTVSPropertyOp20
 70
     1
102
RTVSPropertyOp21
 70
     1
102
RTVSPropertyOp22
 70
     1
102
RTVSPropertyOp23
 70
     1
102
RTVSPropertyOp24
 70
     1
102
RTVSPropertyOp25
 70
     1
102
RTVSPropertyOp26
 70
     1
102
RTVSPropertyOp27
 70
     1
102
RTVSPropertyOp28
 70
     1
102
RTVSPropertyOp29
 70
     1
102
RTVSPropertyOp30
 70
     1
102
RTVSPropertyOp31
 70
     1
102
RTVSPropertyOp32
 70
     1
  0
XRECORD
  5
373
102
{ACAD_REACTORS
330
372
102
}
330
372
100
AcDbXrecord
280
     1
102
RTVSPropertyOp0
 70
     1
102
RTVSPropertyOp1
 70
     1
102
RTVSPropertyOp2
 70
     1
102
RTVSPropertyOp3
 70
     1
102
RTVSPropertyOp4
 70
     1
102
RTVSPropertyOp5
 70
     1
102
RTVSPropertyOp6
 70
     1
102
RTVSPropertyOp7
 70
     1
102
RTVSPropertyOp8
 70
     1
102
RTVSPropertyOp9
 70
     1
102
RTVSPropertyOp10
 70
     1
102
RTVSPropertyOp11
 70
     1
102
RTVSPropertyOp12
 70
     1
102
RTVSPropertyOp13
 70
     1
102
RTVSPropertyOp14
 70
     1
102
RTVSPropertyOp15
 70
     1
102
RTVSPropertyOp16
 70
     1
102
RTVSPropertyOp17
 70
     1
102
RTVSPropertyOp18
 70
     1
102
RTVSPropertyOp19
 70
     1
102
RTVSPropertyOp20
 70
     1
102
RTVSPropertyOp21
 70
     1
102
RTVSPropertyOp22
 70
     1
102
RTVSPropertyOp23
 70
     1
102
RTVSPropertyOp24
 70
     1
102
RTVSPropertyOp25
 70
     1
102
RTVSPropertyOp26
 70
     1
102
RTVSPropertyOp27
 70
     1
102
RTVSPropertyOp28
 70
     1
102
RTVSPropertyOp29
 70
     1
102
RTVSPropertyOp30
 70
     1
102
RTVSPropertyOp31
 70
     1
102
RTVSPropertyOp32
 70
     1
  0
XRECORD
  5
37B
102
{ACAD_REACTORS
330
37A
102
}
330
37A
100
AcDbXrecord
280
     1
102
RTVSPropertyOp0
 70
     1
102
RTVSPropertyOp1
 70
     1
102
RTVSPropertyOp2
 70
     1
102
RTVSPropertyOp3
 70
     1
102
RTVSPropertyOp4
 70
     1
102
RTVSPropertyOp5
 70
     1
102
RTVSPropertyOp6
 70
     1
102
RTVSPropertyOp7
 70
     1
102
RTVSPropertyOp8
 70
     1
102
RTVSPropertyOp9
 70
     1
102
RTVSPropertyOp10
 70
     1
102
RTVSPropertyOp11
 70
     1
102
RTVSPropertyOp12
 70
     1
102
RTVSPropertyOp13
 70
     1
102
RTVSPropertyOp14
 70
     1
102
RTVSPropertyOp15
 70
     1
102
RTVSPropertyOp16
 70
     1
102
RTVSPropertyOp17
 70
     1
102
RTVSPropertyOp18
 70
     1
102
RTVSPropertyOp19
 70
     1
102
RTVSPropertyOp20
 70
     1
102
RTVSPropertyOp21
 70
     1
102
RTVSPropertyOp22
 70
     1
102
RTVSPropertyOp23
 70
     1
102
RTVSPropertyOp24
 70
     1
102
RTVSPropertyOp25
 70
     1
102
RTVSPropertyOp26
 70
     1
102
RTVSPropertyOp27
 70
     1
102
RTVSPropertyOp28
 70
     1
102
RTVSPropertyOp29
 70
     1
102
RTVSPropertyOp30
 70
     1
102
RTVSPropertyOp31
 70
     1
102
RTVSPropertyOp32
 70
     1
  0
XRECORD
  5
35F
102
{ACAD_REACTORS
330
35E
102
}
330
35E
100
AcDbXrecord
280
     1
102
RTVSPropertyOp0
 70
     1
102
RTVSPropertyOp1
 70
     1
102
RTVSPropertyOp2
 70
     1
102
RTVSPropertyOp3
 70
     1
102
RTVSPropertyOp4
 70
     1
102
RTVSPropertyOp5
 70
     1
102
RTVSPropertyOp6
 70
     1
102
RTVSPropertyOp7
 70
     1
102
RTVSPropertyOp8
 70
     1
102
RTVSPropertyOp9
 70
     1
102
RTVSPropertyOp10
 70
     1
102
RTVSPropertyOp11
 70
     1
102
RTVSPropertyOp12
 70
     1
102
RTVSPropertyOp13
 70
     1
102
RTVSPropertyOp14
 70
     1
102
RTVSPropertyOp15
 70
     1
102
RTVSPropertyOp16
 70
     1
102
RTVSPropertyOp17
 70
     1
102
RTVSPropertyOp18
 70
     1
102
RTVSPropertyOp19
 70
     1
102
RTVSPropertyOp20
 70
     1
102
RTVSPropertyOp21
 70
     1
102
RTVSPropertyOp22
 70
     1
102
RTVSPropertyOp23
 70
     1
102
RTVSPropertyOp24
 70
     1
102
RTVSPropertyOp25
 70
     1
102
RTVSPropertyOp26
 70
     1
102
RTVSPropertyOp27
 70
     1
102
RTVSPropertyOp28
 70
     1
102
RTVSPropertyOp29
 70
     1
102
RTVSPropertyOp30
 70
     1
102
RTVSPropertyOp31
 70
     1
102
RTVSPropertyOp32
 70
     1
  0
XRECORD
  5
361
102
{ACAD_REACTORS
330
360
102
}
330
360
100
AcDbXrecord
280
     1
102
RTVSPropertyOp0
 70
     1
102
RTVSPropertyOp1
 70
     1
102
RTVSPropertyOp2
 70
     1
102
RTVSPropertyOp3
 70
     1
102
RTVSPropertyOp4
 70
     1
102
RTVSPropertyOp5
 70
     1
102
RTVSPropertyOp6
 70
     1
102
RTVSPropertyOp7
 70
     1
102
RTVSPropertyOp8
 70
     1
102
RTVSPropertyOp9
 70
     1
102
RTVSPropertyOp10
 70
     1
102
RTVSPropertyOp11
 70
     1
102
RTVSPropertyOp12
 70
     1
102
RTVSPropertyOp13
 70
     1
102
RTVSPropertyOp14
 70
     1
102
RTVSPropertyOp15
 70
     1
102
RTVSPropertyOp16
 70
     1
102
RTVSPropertyOp17
 70
     1
102
RTVSPropertyOp18
 70
     1
102
RTVSPropertyOp19
 70
     1
102
RTVSPropertyOp20
 70
     1
102
RTVSPropertyOp21
 70
     1
102
RTVSPropertyOp22
 70
     1
102
RTVSPropertyOp23
 70
     1
102
RTVSPropertyOp24
 70
     1
102
RTVSPropertyOp25
 70
     1
102
RTVSPropertyOp26
 70
     1
102
RTVSPropertyOp27
 70
     1
102
RTVSPropertyOp28
 70
     1
102
RTVSPropertyOp29
 70
     1
102
RTVSPropertyOp30
 70
     1
102
RTVSPropertyOp31
 70
     1
102
RTVSPropertyOp32
 70
     1
  0
XRECORD
  5
363
102
{ACAD_REACTORS
330
362
102
}
330
362
100
AcDbXrecord
280
     1
102
RTVSPropertyOp0
 70
     1
102
RTVSPropertyOp1
 70
     1
102
RTVSPropertyOp2
 70
     1
102
RTVSPropertyOp3
 70
     1
102
RTVSPropertyOp4
 70
     1
102
RTVSPropertyOp5
 70
     1
102
RTVSPropertyOp6
 70
     1
102
RTVSPropertyOp7
 70
     1
102
RTVSPropertyOp8
 70
     1
102
RTVSPropertyOp9
 70
     1
102
RTVSPropertyOp10
 70
     1
102
RTVSPropertyOp11
 70
     1
102
RTVSPropertyOp12
 70
     1
102
RTVSPropertyOp13
 70
     1
102
RTVSPropertyOp14
 70
     1
102
RTVSPropertyOp15
 70
     1
102
RTVSPropertyOp16
 70
     1
102
RTVSPropertyOp17
 70
     1
102
RTVSPropertyOp18
 70
     1
102
RTVSPropertyOp19
 70
     1
102
RTVSPropertyOp20
 70
     1
102
RTVSPropertyOp21
 70
     1
102
RTVSPropertyOp22
 70
     1
102
RTVSPropertyOp23
 70
     1
102
RTVSPropertyOp24
 70
     1
102
RTVSPropertyOp25
 70
     1
102
RTVSPropertyOp26
 70
     1
102
RTVSPropertyOp27
 70
     1
102
RTVSPropertyOp28
 70
     1
102
RTVSPropertyOp29
 70
     1
102
RTVSPropertyOp30
 70
     1
102
RTVSPropertyOp31
 70
     1
102
RTVSPropertyOp32
 70
     1
  0
XRECORD
  5
365
102
{ACAD_REACTORS
330
364
102
}
330
364
100
AcDbXrecord
280
     1
102
RTVSPropertyOp0
 70
     1
102
RTVSPropertyOp1
 70
     1
102
RTVSPropertyOp2
 70
     1
102
RTVSPropertyOp3
 70
     1
102
RTVSPropertyOp4
 70
     1
102
RTVSPropertyOp5
 70
     1
102
RTVSPropertyOp6
 70
     1
102
RTVSPropertyOp7
 70
     1
102
RTVSPropertyOp8
 70
     1
102
RTVSPropertyOp9
 70
     1
102
RTVSPropertyOp10
 70
     1
102
RTVSPropertyOp11
 70
     1
102
RTVSPropertyOp12
 70
     1
102
RTVSPropertyOp13
 70
     1
102
RTVSPropertyOp14
 70
     1
102
RTVSPropertyOp15
 70
     1
102
RTVSPropertyOp16
 70
     1
102
RTVSPropertyOp17
 70
     1
102
RTVSPropertyOp18
 70
     1
102
RTVSPropertyOp19
 70
     1
102
RTVSPropertyOp20
 70
     1
102
RTVSPropertyOp21
 70
     1
102
RTVSPropertyOp22
 70
     1
102
RTVSPropertyOp23
 70
     1
102
RTVSPropertyOp24
 70
     1
102
RTVSPropertyOp25
 70
     1
102
RTVSPropertyOp26
 70
     1
102
RTVSPropertyOp27
 70
     1
102
RTVSPropertyOp28
 70
     1
102
RTVSPropertyOp29
 70
     1
102
RTVSPropertyOp30
 70
     1
102
RTVSPropertyOp31
 70
     1
102
RTVSPropertyOp32
 70
     1
  0
XRECORD
  5
379
102
{ACAD_REACTORS
330
378
102
}
330
378
100
AcDbXrecord
280
     1
102
RTVSPropertyOp0
 70
     1
102
RTVSPropertyOp1
 70
     1
102
RTVSPropertyOp2
 70
     1
102
RTVSPropertyOp3
 70
     1
102
RTVSPropertyOp4
 70
     1
102
RTVSPropertyOp5
 70
     1
102
RTVSPropertyOp6
 70
     1
102
RTVSPropertyOp7
 70
     1
102
RTVSPropertyOp8
 70
     1
102
RTVSPropertyOp9
 70
     1
102
RTVSPropertyOp10
 70
     1
102
RTVSPropertyOp11
 70
     1
102
RTVSPropertyOp12
 70
     1
102
RTVSPropertyOp13
 70
     1
102
RTVSPropertyOp14
 70
     1
102
RTVSPropertyOp15
 70
     1
102
RTVSPropertyOp16
 70
     1
102
RTVSPropertyOp17
 70
     1
102
RTVSPropertyOp18
 70
     1
102
RTVSPropertyOp19
 70
     1
102
RTVSPropertyOp20
 70
     1
102
RTVSPropertyOp21
 70
     1
102
RTVSPropertyOp22
 70
     1
102
RTVSPropertyOp23
 70
     1
102
RTVSPropertyOp24
 70
     1
102
RTVSPropertyOp25
 70
     1
102
RTVSPropertyOp26
 70
     1
102
RTVSPropertyOp27
 70
     1
102
RTVSPropertyOp28
 70
     1
102
RTVSPropertyOp29
 70
     1
102
RTVSPropertyOp30
 70
     1
102
RTVSPropertyOp31
 70
     1
102
RTVSPropertyOp32
 70
     1
  0
XRECORD
  5
36F
102
{ACAD_REACTORS
330
36E
102
}
330
36E
100
AcDbXrecord
280
     1
102
RTVSPropertyOp0
 70
     1
102
RTVSPropertyOp1
 70
     1
102
RTVSPropertyOp2
 70
     1
102
RTVSPropertyOp3
 70
     1
102
RTVSPropertyOp4
 70
     1
102
RTVSPropertyOp5
 70
     1
102
RTVSPropertyOp6
 70
     1
102
RTVSPropertyOp7
 70
     1
102
RTVSPropertyOp8
 70
     1
102
RTVSPropertyOp9
 70
     1
102
RTVSPropertyOp10
 70
     1
102
RTVSPropertyOp11
 70
     1
102
RTVSPropertyOp12
 70
     1
102
RTVSPropertyOp13
 70
     1
102
RTVSPropertyOp14
 70
     1
102
RTVSPropertyOp15
 70
     1
102
RTVSPropertyOp16
 70
     1
102
RTVSPropertyOp17
 70
     1
102
RTVSPropertyOp18
 70
     1
102
RTVSPropertyOp19
 70
     1
102
RTVSPropertyOp20
 70
     1
102
RTVSPropertyOp21
 70
     1
102
RTVSPropertyOp22
 70
     1
102
RTVSPropertyOp23
 70
     1
102
RTVSPropertyOp24
 70
     1
102
RTVSPropertyOp25
 70
     1
102
RTVSPropertyOp26
 70
     1
102
RTVSPropertyOp27
 70
     1
102
RTVSPropertyOp28
 70
     1
102
RTVSPropertyOp29
 70
     1
102
RTVSPropertyOp30
 70
     1
102
RTVSPropertyOp31
 70
     1
102
RTVSPropertyOp32
 70
     1
  0
XRECORD
  5
377
102
{ACAD_REACTORS
330
376
102
}
330
376
100
AcDbXrecord
280
     1
102
RTVSPropertyOp0
 70
     1
102
RTVSPropertyOp1
 70
     1
102
RTVSPropertyOp2
 70
     1
102
RTVSPropertyOp3
 70
     1
102
RTVSPropertyOp4
 70
     1
102
RTVSPropertyOp5
 70
     1
102
RTVSPropertyOp6
 70
     1
102
RTVSPropertyOp7
 70
     1
102
RTVSPropertyOp8
 70
     1
102
RTVSPropertyOp9
 70
     1
102
RTVSPropertyOp10
 70
     1
102
RTVSPropertyOp11
 70
     1
102
RTVSPropertyOp12
 70
     1
102
RTVSPropertyOp13
 70
     1
102
RTVSPropertyOp14
 70
     1
102
RTVSPropertyOp15
 70
     1
102
RTVSPropertyOp16
 70
     1
102
RTVSPropertyOp17
 70
     1
102
RTVSPropertyOp18
 70
     1
102
RTVSPropertyOp19
 70
     1
102
RTVSPropertyOp20
 70
     1
102
RTVSPropertyOp21
 70
     1
102
RTVSPropertyOp22
 70
     1
102
RTVSPropertyOp23
 70
     1
102
RTVSPropertyOp24
 70
     1
102
RTVSPropertyOp25
 70
     1
102
RTVSPropertyOp26
 70
     1
102
RTVSPropertyOp27
 70
     1
102
RTVSPropertyOp28
 70
     1
102
RTVSPropertyOp29
 70
     1
102
RTVSPropertyOp30
 70
     1
102
RTVSPropertyOp31
 70
     1
102
RTVSPropertyOp32
 70
     1
  0
ENDSEC
  0
EOF
