  0
SECTION
  2
HEADER
  9
$ACADVER
  1
AC1018
  9
$ACADMAINTVER
 70
     0
  9
$DWGCODEPAGE
  3
ANSI_1252
  9
$INSBASE
 10
0.0
 20
0.0
 30
0.0
  9
$EXTMIN
 10
-1232.900000984127
 20
-1180.543841386505
 30
0.0
  9
$EXTMAX
 10
-812.9000009841282
 20
-883.5438413865054
 30
0.0
  9
$LIMMIN
 10
0.0
 20
0.0
  9
$LIMMAX
 10
12.0
 20
9.0
  9
$ORTHOMODE
 70
     0
  9
$REGENMODE
 70
     1
  9
$FILLMODE
 70
     1
  9
$QTEXTMODE
 70
     0
  9
$MIRRTEXT
 70
     1
  9
$LTSCALE
 40
1.0
  9
$ATTMODE
 70
     1
  9
$TEXTSIZE
 40
0.2
  9
$TRACEWID
 40
0.05
  9
$TEXTSTYLE
  7
Standard
  9
$CLAYER
  8
0
  9
$CELTYPE
  6
ByLayer
  9
$CECOLOR
 62
   256
  9
$CELTSCALE
 40
1.0
  9
$DISPSILH
 70
     0
  9
$DIMSCALE
 40
1.0
  9
$DIMASZ
 40
0.18
  9
$DIMEXO
 40
0.0625
  9
$DIMDLI
 40
0.38
  9
$DIMRND
 40
0.0
  9
$DIMDLE
 40
0.0
  9
$DIMEXE
 40
0.18
  9
$DIMTP
 40
0.0
  9
$DIMTM
 40
0.0
  9
$DIMTXT
 40
0.18
  9
$DIMCEN
 40
0.09
  9
$DIMTSZ
 40
0.0
  9
$DIMTOL
 70
     0
  9
$DIMLIM
 70
     0
  9
$DIMTIH
 70
     1
  9
$DIMTOH
 70
     1
  9
$DIMSE1
 70
     0
  9
$DIMSE2
 70
     0
  9
$DIMTAD
 70
     0
  9
$DIMZIN
 70
     0
  9
$DIMBLK
  1

  9
$DIMASO
 70
     1
  9
$DIMSHO
 70
     1
  9
$DIMPOST
  1

  9
$DIMAPOST
  1

  9
$DIMALT
 70
     0
  9
$DIMALTD
 70
     2
  9
$DIMALTF
 40
25.4
  9
$DIMLFAC
 40
1.0
  9
$DIMTOFL
 70
     0
  9
$DIMTVP
 40
0.0
  9
$DIMTIX
 70
     0
  9
$DIMSOXD
 70
     0
  9
$DIMSAH
 70
     0
  9
$DIMBLK1
  1

  9
$DIMBLK2
  1

  9
$DIMSTYLE
  2
Standard
  9
$DIMCLRD
 70
     0
  9
$DIMCLRE
 70
     0
  9
$DIMCLRT
 70
     0
  9
$DIMTFAC
 40
1.0
  9
$DIMGAP
 40
0.09
  9
$DIMJUST
 70
     0
  9
$DIMSD1
 70
     0
  9
$DIMSD2
 70
     0
  9
$DIMTOLJ
 70
     1
  9
$DIMTZIN
 70
     0
  9
$DIMALTZ
 70
     0
  9
$DIMALTTZ
 70
     0
  9
$DIMUPT
 70
     0
  9
$DIMDEC
 70
     4
  9
$DIMTDEC
 70
     4
  9
$DIMALTU
 70
     2
  9
$DIMALTTD
 70
     2
  9
$DIMTXSTY
  7
Standard
  9
$DIMAUNIT
 70
     0
  9
$DIMADEC
 70
     0
  9
$DIMALTRND
 40
0.0
  9
$DIMAZIN
 70
     0
  9
$DIMDSEP
 70
    46
  9
$DIMATFIT
 70
     3
  9
$DIMFRAC
 70
     0
  9
$DIMLDRBLK
  1

  9
$DIMLUNIT
 70
     2
  9
$DIMLWD
 70
    -2
  9
$DIMLWE
 70
    -2
  9
$DIMTMOVE
 70
     0
  9
$LUNITS
 70
     2
  9
$LUPREC
 70
     4
  9
$SKETCHINC
 40
0.1
  9
$FILLETRAD
 40
0.5
  9
$AUNITS
 70
     0
  9
$AUPREC
 70
     0
  9
$MENU
  1
.
  9
$ELEVATION
 40
0.0
  9
$PELEVATION
 40
0.0
  9
$THICKNESS
 40
0.0
  9
$LIMCHECK
 70
     0
  9
$CHAMFERA
 40
0.5
  9
$CHAMFERB
 40
0.5
  9
$CHAMFERC
 40
1.0
  9
$CHAMFERD
 40
0.0
  9
$SKPOLY
 70
     0
  9
$TDCREATE
 40
2458132.453271285
  9
$TDUCREATE
 40
2458132.411604618
  9
$TDUPDATE
 40
2458132.453271817
  9
$TDUUPDATE
 40
2458132.41160515
  9
$TDINDWG
 40
0.0000000116
  9
$TDUSRTIMER
 40
0.0000000116
  9
$USRTIMER
 70
     1
  9
$ANGBASE
 50
0.0
  9
$ANGDIR
 70
     0
  9
$PDMODE
 70
     0
  9
$PDSIZE
 40
0.0
  9
$PLINEWID
 40
0.0
  9
$SPLFRAME
 70
     0
  9
$SPLINETYPE
 70
     6
  9
$SPLINESEGS
 70
     8
  9
$HANDSEED
  5
386
  9
$SURFTAB1
 70
     6
  9
$SURFTAB2
 70
     6
  9
$SURFTYPE
 70
     6
  9
$SURFU
 70
     6
  9
$SURFV
 70
     6
  9
$UCSBASE
  2

  9
$UCSNAME
  2

  9
$UCSORG
 10
0.0
 20
0.0
 30
0.0
  9
$UCSXDIR
 10
1.0
 20
0.0
 30
0.0
  9
$UCSYDIR
 10
0.0
 20
1.0
 30
0.0
  9
$UCSORTHOREF
  2

  9
$UCSORTHOVIEW
 70
     0
  9
$UCSORGTOP
 10
0.0
 20
0.0
 30
0.0
  9
$UCSORGBOTTOM
 10
0.0
 20
0.0
 30
0.0
  9
$UCSORGLEFT
 10
0.0
 20
0.0
 30
0.0
  9
$UCSORGRIGHT
 10
0.0
 20
0.0
 30
0.0
  9
$UCSORGFRONT
 10
0.0
 20
0.0
 30
0.0
  9
$UCSORGBACK
 10
0.0
 20
0.0
 30
0.0
  9
$PUCSBASE
  2

  9
$PUCSNAME
  2

  9
$PUCSORG
 10
0.0
 20
0.0
 30
0.0
  9
$PUCSXDIR
 10
1.0
 20
0.0
 30
0.0
  9
$PUCSYDIR
 10
0.0
 20
1.0
 30
0.0
  9
$PUCSORTHOREF
  2

  9
$PUCSORTHOVIEW
 70
     0
  9
$PUCSORGTOP
 10
0.0
 20
0.0
 30
0.0
  9
$PUCSORGBOTTOM
 10
0.0
 20
0.0
 30
0.0
  9
$PUCSORGLEFT
 10
0.0
 20
0.0
 30
0.0
  9
$PUCSORGRIGHT
 10
0.0
 20
0.0
 30
0.0
  9
$PUCSORGFRONT
 10
0.0
 20
0.0
 30
0.0
  9
$PUCSORGBACK
 10
0.0
 20
0.0
 30
0.0
  9
$USERI1
 70
     0
  9
$USERI2
 70
     0
  9
$USERI3
 70
     0
  9
$USERI4
 70
     0
  9
$USERI5
 70
     0
  9
$USERR1
 40
18.1
  9
$USERR2
 40
0.0
  9
$USERR3
 40
0.0
  9
$USERR4
 40
0.0
  9
$USERR5
 40
0.0
  9
$WORLDVIEW
 70
     1
  9
$SHADEDGE
 70
     3
  9
$SHADEDIF
 70
    70
  9
$TILEMODE
 70
     1
  9
$MAXACTVP
 70
    64
  9
$PINSBASE
 10
0.0
 20
0.0
 30
0.0
  9
$PLIMCHECK
 70
     0
  9
$PEXTMIN
 10
1.00000000000000E+20
 20
1.00000000000000E+20
 30
1.00000000000000E+20
  9
$PEXTMAX
 10
-1.00000000000000E+20
 20
-1.00000000000000E+20
 30
-1.00000000000000E+20
  9
$PLIMMIN
 10
0.0
 20
0.0
  9
$PLIMMAX
 10
12.0
 20
9.0
  9
$UNITMODE
 70
     0
  9
$VISRETAIN
 70
     1
  9
$PLINEGEN
 70
     0
  9
$PSLTSCALE
 70
     1
  9
$TREEDEPTH
 70
  3020
  9
$CMLSTYLE
  2
Standard
  9
$CMLJUST
 70
     0
  9
$CMLSCALE
 40
1.0
  9
$PROXYGRAPHICS
 70
     1
  9
$MEASUREMENT
 70
     1
  9
$CELWEIGHT
370
    -1
  9
$ENDCAPS
280
     0
  9
$JOINSTYLE
280
     0
  9
$LWDISPLAY
290
     0
  9
$INSUNITS
 70
     4
  9
$HYPERLINKBASE
  1

  9
$STYLESHEET
  1

  9
$XEDIT
290
     1
  9
$CEPSNTYPE
380
     0
  9
$PSTYLEMODE
290
     1
  9
$FINGERPRINTGUID
  2
{B144C86F-2E73-4630-913D-6777F3D4F5DE}
  9
$VERSIONGUID
  2
{FAEB1C32-E019-11D5-929B-00C0DF256EC4}
  9
$EXTNAMES
290
     1
  9
$PSVPSCALE
 40
0.0
  9
$OLESTARTUP
290
     0
  9
$SORTENTS
280
   127
  9
$INDEXCTL
280
     0
  9
$HIDETEXT
280
     1
  9
$XCLIPFRAME
290
     0
  9
$HALOGAP
280
     0
  9
$OBSCOLOR
 70
   257
  9
$OBSLTYPE
280
     0
  9
$INTERSECTIONDISPLAY
280
     0
  9
$INTERSECTIONCOLOR
 70
   257
  9
$DIMASSOC
280
     2
  9
$PROJECTNAME
  1

  0
ENDSEC
  0
SECTION
  2
CLASSES
  0
CLASS
  1
ACDBDICTIONARYWDFLT
  2
AcDbDictionaryWithDefault
  3
ObjectDBX Classes
 90
        0
 91
        4
280
     0
281
     0
  0
CLASS
  1
VISUALSTYLE
  2
AcDbVisualStyle
  3
ObjectDBX Classes
 90
     4095
 91
        4
280
     0
281
     0
  0
CLASS
  1
MATERIAL
  2
AcDbMaterial
  3
ObjectDBX Classes
 90
     1153
 91
        4
280
     0
281
     0
  0
ENDSEC
  0
SECTION
  2
TABLES
  0
TABLE
  2
VPORT
  5
8
330
0
100
AcDbSymbolTable
 70
     1
  0
VPORT
  5
29
330
8
100
AcDbSymbolTableRecord
100
AcDbViewportTableRecord
  2
*Active
 70
     0
 10
0.0
 20
0.0
 11
1.0
 21
1.0
 12
-1022.900000984128
 22
-1032.043841386505
 13
0.0
 23
0.0
 14
0.5
 24
0.5
 15
0.5
 25
0.5
 16
0.0
 26
0.0
 36
1.0
 17
0.0
 27
0.0
 37
0.0
 40
326.6999999999995
 41
1.60267857142857
 42
50.0
 43
0.0
 44
0.0
 50
0.0
 51
0.0
 71
     0
 72
   100
 73
     1
 74
     3
 75
     0
 76
     0
 77
     0
 78
     0
281
     0
 65
     1
110
0.0
120
0.0
130
0.0
111
1.0
121
0.0
131
0.0
112
0.0
122
1.0
132
0.0
 79
     0
146
0.0
  0
ENDTAB
  0
TABLE
  2
LTYPE
  5
5
330
0
100
AcDbSymbolTable
 70
     8
  0
LTYPE
  5
14
330
5
100
AcDbSymbolTableRecord
100
AcDbLinetypeTableRecord
  2
ByBlock
 70
     0
  3

 72
    65
 73
     0
 40
0.0
  0
LTYPE
  5
15
330
5
100
AcDbSymbolTableRecord
100
AcDbLinetypeTableRecord
  2
ByLayer
 70
     0
  3

 72
    65
 73
     0
 40
0.0
  0
LTYPE
  5
16
330
5
100
AcDbSymbolTableRecord
100
AcDbLinetypeTableRecord
  2
Continuous
 70
     0
  3
Solid line
 72
    65
 73
     0
 40
0.0
  0
LTYPE
  5
3F
330
5
100
AcDbSymbolTableRecord
100
AcDbLinetypeTableRecord
  2
DASHED
 70
     0
  3
Dashed
 72
    65
 73
     2
 40
15.0
 49
7.0
 74
     0
 49
-8.0
 74
     0
  0
LTYPE
  5
40
330
5
100
AcDbSymbolTableRecord
100
AcDbLinetypeTableRecord
  2
DOTTED
 70
     0
  3
Dotted
 72
    65
 73
     2
 40
1.0
 49
0.0
 74
     0
 49
-1.0
 74
     0
  0
LTYPE
  5
41
330
5
100
AcDbSymbolTableRecord
100
AcDbLinetypeTableRecord
  2
DOT_CENTER
 70
     0
  3
Dot_Center
 72
    65
 73
     4
 40
14.0
 49
12.0
 74
     0
 49
-1.0
 74
     0
 49
0.0
 74
     0
 49
-1.0
 74
     0
  0
LTYPE
  5
42
330
5
100
AcDbSymbolTableRecord
100
AcDbLinetypeTableRecord
  2
LONG_DASHED
 70
     0
  3
Long_Dashed
 72
    65
 73
     2
 40
15.0
 49
10.0
 74
     0
 49
-5.0
 74
     0
  0
LTYPE
  5
43
330
5
100
AcDbSymbolTableRecord
100
AcDbLinetypeTableRecord
  2
DASH_CENTER
 70
     0
  3
Dash_Center
 72
    65
 73
     4
 40
14.0
 49
11.0
 74
     0
 49
-1.0
 74
     0
 49
1.0
 74
     0
 49
-1.0
 74
     0
  0
LTYPE
  5
44
330
5
100
AcDbSymbolTableRecord
100
AcDbLinetypeTableRecord
  2
PHANTOM
 70
     0
  3
Phantom
 72
    65
 73
     6
 40
13.0
 49
10.0
 74
     0
 49
-1.0
 74
     0
 49
0.0
 74
     0
 49
-1.0
 74
     0
 49
0.0
 74
     0
 49
-1.0
 74
     0
  0
LTYPE
  5
45
330
5
100
AcDbSymbolTableRecord
100
AcDbLinetypeTableRecord
  2
CENTER_DASH_DASH
 70
     0
  3
Center_Dash_Dash
 72
    65
 73
     6
 40
14.0
 49
9.0
 74
     0
 49
-1.0
 74
     0
 49
1.0
 74
     0
 49
-1.0
 74
     0
 49
1.0
 74
     0
 49
-1.0
 74
     0
  0
ENDTAB
  0
TABLE
  2
LAYER
  5
2
330
0
100
AcDbSymbolTable
 70
     2
  0
LAYER
  5
10
330
2
100
AcDbSymbolTableRecord
100
AcDbLayerTableRecord
  2
0
 70
     0
 62
     7
  6
Continuous
370
    -3
390
F
  0
LAYER
  5
46
330
2
100
AcDbSymbolTableRecord
100
AcDbLayerTableRecord
  2
1
 70
     0
 62
     7
  6
Continuous
370
    -3
390
F
  0
ENDTAB
  0
TABLE
  2
STYLE
  5
3
330
0
100
AcDbSymbolTable
 70
     5
  0
STYLE
  5
11
330
3
100
AcDbSymbolTableRecord
100
AcDbTextStyleTableRecord
  2
Standard
 70
     0
 40
0.0
 41
1.0
 50
0.0
 71
     0
 42
0.2
  3
txt
  4

  0
STYLE
  5
ED
330
3
100
AcDbSymbolTableRecord
100
AcDbTextStyleTableRecord
  2
CONVERTER_11
 70
     0
 40
0.0
 41
0.9
 50
0.0
 71
     0
 42
0.2
  3
txt.shx
  4

  0
STYLE
  5
32A
330
3
100
AcDbSymbolTableRecord
100
AcDbTextStyleTableRecord
  2
CONVERTER_12
 70
     0
 40
0.0
 41
0.81
 50
0.0
 71
     0
 42
0.2
  3
txt.shx
  4

  0
STYLE
  5
330
330
3
100
AcDbSymbolTableRecord
100
AcDbTextStyleTableRecord
  2
CONVERTER_13
 70
     0
 40
0.0
 41
0.855
 50
0.0
 71
     0
 42
0.2
  3
txt.shx
  4

  0
STYLE
  5
333
330
3
100
AcDbSymbolTableRecord
100
AcDbTextStyleTableRecord
  2
CONVERTER_14
 70
     0
 40
0.0
 41
0.72
 50
0.0
 71
     0
 42
0.2
  3
txt.shx
  4

  0
ENDTAB
  0
TABLE
  2
VIEW
  5
6
330
0
100
AcDbSymbolTable
 70
     0
  0
ENDTAB
  0
TABLE
  2
UCS
  5
7
330
0
100
AcDbSymbolTable
 70
     0
  0
ENDTAB
  0
TABLE
  2
APPID
  5
9
330
0
100
AcDbSymbolTable
 70
     1
  0
APPID
  5
12
330
9
100
AcDbSymbolTableRecord
100
AcDbRegAppTableRecord
  2
ACAD
 70
     0
  0
ENDTAB
  0
TABLE
  2
DIMSTYLE
  5
A
330
0
100
AcDbSymbolTable
 70
     4
100
AcDbDimStyleTable
  0
DIMSTYLE
105
27
330
A
100
AcDbSymbolTableRecord
100
AcDbDimStyleTableRecord
  2
Standard
 70
     0
178
     0
340
11
  0
DIMSTYLE
105
12F
102
{ACAD_REACTORS
330
130
102
}
330
A
100
AcDbSymbolTableRecord
100
AcDbDimStyleTableRecord
  2
ME10_DIM_10
 70
     0
 41
3.5
 42
0.5
 44
1.5
 73
     0
 74
     0
 77
     1
 78
     8
140
3.5
147
2.0
172
     1
173
     1
174
     1
175
     1
176
     2
177
     2
271
     2
178
     3
271
     2
340
ED
  0
DIMSTYLE
105
204
102
{ACAD_REACTORS
330
205
102
}
330
A
100
AcDbSymbolTableRecord
100
AcDbDimStyleTableRecord
  2
ME10_DIM_11
 70
     0
 41
3.5
 42
0.5
 44
1.5
 73
     0
 74
     0
 77
     1
 78
     8
140
3.5
147
2.0
172
     1
173
     1
174
     1
175
     1
176
     2
177
     2
271
     2
178
     3
271
     2
340
ED
  0
DIMSTYLE
105
20F
102
{ACAD_REACTORS
330
210
102
}
330
A
100
AcDbSymbolTableRecord
100
AcDbDimStyleTableRecord
  2
ME10_DIM_12
 70
     0
 41
3.5
 42
0.5
 44
1.5
 73
     0
 74
     0
 77
     1
 78
     8
140
3.5
147
2.0
172
     1
173
     1
174
     1
175
     1
176
     2
177
     2
271
     2
178
     3
271
     2
340
ED
  0
ENDTAB
  0
TABLE
  2
BLOCK_RECORD
  5
1
330
0
100
AcDbSymbolTable
 70
    20
  0
BLOCK_RECORD
  5
1F
330
1
100
AcDbSymbolTableRecord
100
AcDbBlockTableRecord
  2
*Model_Space
340
22
  0
BLOCK_RECORD
  5
1B
330
1
100
AcDbSymbolTableRecord
100
AcDbBlockTableRecord
  2
*Paper_Space
340
1E
  0
BLOCK_RECORD
  5
23
330
1
100
AcDbSymbolTableRecord
100
AcDbBlockTableRecord
  2
*Paper_Space0
340
26
  0
BLOCK_RECORD
  5
47
330
1
100
AcDbSymbolTableRecord
100
AcDbBlockTableRecord
  2
HC-RBO_10-select__1
340
0
102
{BLKREFS
331
4B
102
}
  0
BLOCK_RECORD
  5
4A
330
1
100
AcDbSymbolTableRecord
100
AcDbBlockTableRecord
  2
Allg1
340
0
102
{BLKREFS
331
7D
102
}
  0
BLOCK_RECORD
  5
4E
330
1
100
AcDbSymbolTableRecord
100
AcDbBlockTableRecord
  2
HC-RBO_10-select__2
340
0
102
{BLKREFS
331
52
102
}
  0
BLOCK_RECORD
  5
51
330
1
100
AcDbSymbolTableRecord
100
AcDbBlockTableRecord
  2
Drfsicht1
340
0
102
{BLKREFS
331
7E
102
}
  0
BLOCK_RECORD
  5
55
330
1
100
AcDbSymbolTableRecord
100
AcDbBlockTableRecord
  2
HC-RBO_10-select__3
340
0
102
{BLKREFS
331
59
102
}
  0
BLOCK_RECORD
  5
58
330
1
100
AcDbSymbolTableRecord
100
AcDbBlockTableRecord
  2
Rckans1
340
0
102
{BLKREFS
331
7F
102
}
  0
BLOCK_RECORD
  5
5C
330
1
100
AcDbSymbolTableRecord
100
AcDbBlockTableRecord
  2
HC-RBO_10-select__4
340
0
102
{BLKREFS
331
60
102
}
  0
BLOCK_RECORD
  5
5F
330
1
100
AcDbSymbolTableRecord
100
AcDbBlockTableRecord
  2
SA_Links1
340
0
102
{BLKREFS
331
80
102
}
  0
BLOCK_RECORD
  5
63
330
1
100
AcDbSymbolTableRecord
100
AcDbBlockTableRecord
  2
HC-RBO_10-select__5
340
0
102
{BLKREFS
331
67
102
}
  0
BLOCK_RECORD
  5
66
330
1
100
AcDbSymbolTableRecord
100
AcDbBlockTableRecord
  2
SA_Rechts1
340
0
102
{BLKREFS
331
81
102
}
  0
BLOCK_RECORD
  5
6A
330
1
100
AcDbSymbolTableRecord
100
AcDbBlockTableRecord
  2
HC-RBO_10-select__6
340
0
102
{BLKREFS
331
6E
102
}
  0
BLOCK_RECORD
  5
6D
330
1
100
AcDbSymbolTableRecord
100
AcDbBlockTableRecord
  2
Vordans1
340
0
102
{BLKREFS
331
82
102
}
  0
BLOCK_RECORD
  5
71
330
1
100
AcDbSymbolTableRecord
100
AcDbBlockTableRecord
  2
_rahmen
340
0
102
{BLKREFS
331
78
102
}
  0
BLOCK_RECORD
  5
74
330
1
100
AcDbSymbolTableRecord
100
AcDbBlockTableRecord
  2
_punkt
340
0
102
{BLKREFS
331
79
102
}
  0
BLOCK_RECORD
  5
77
330
1
100
AcDbSymbolTableRecord
100
AcDbBlockTableRecord
  2
A3I_CS
340
0
102
{BLKREFS
331
83
102
}
  0
BLOCK_RECORD
  5
7C
330
1
100
AcDbSymbolTableRecord
100
AcDbBlockTableRecord
  2
1
340
0
102
{BLKREFS
331
86
102
}
  0
BLOCK_RECORD
  5
126
330
1
100
AcDbSymbolTableRecord
100
AcDbBlockTableRecord
  2
*D17
340
0
  0
BLOCK_RECORD
  5
1FB
330
1
100
AcDbSymbolTableRecord
100
AcDbBlockTableRecord
  2
*D18
340
0
  0
BLOCK_RECORD
  5
206
330
1
100
AcDbSymbolTableRecord
100
AcDbBlockTableRecord
  2
*D19
340
0
  0
ENDTAB
  0
ENDSEC
  0
SECTION
  2
BLOCKS
  0
BLOCK
  5
20
330
1F
100
AcDbEntity
  8
0
100
AcDbBlockBegin
  2
*Model_Space
 70
     0
 10
0.0
 20
0.0
 30
0.0
  3
*Model_Space
  1

  0
ENDBLK
  5
21
330
1F
100
AcDbEntity
  8
0
100
AcDbBlockEnd
  0
BLOCK
  5
1C
330
1B
100
AcDbEntity
 67
     1
  8
0
100
AcDbBlockBegin
  2
*Paper_Space
 70
     0
 10
0.0
 20
0.0
 30
0.0
  3
*Paper_Space
  1

  0
ENDBLK
  5
1D
330
1B
100
AcDbEntity
 67
     1
  8
0
100
AcDbBlockEnd
  0
BLOCK
  5
24
330
23
100
AcDbEntity
  8
0
100
AcDbBlockBegin
  2
*Paper_Space0
 70
     0
 10
0.0
 20
0.0
 30
0.0
  3
*Paper_Space0
  1

  0
ENDBLK
  5
25
330
23
100
AcDbEntity
  8
0
100
AcDbBlockEnd
  0
BLOCK
  5
48
330
47
100
AcDbEntity
  8
0
100
AcDbBlockBegin
  2
HC-RBO_10-select__1
 70
     0
 10
-964.9293608547118
 20
-1133.060119405301
 30
0.0
  3
HC-RBO_10-select__1
  1

  0
LINE
  5
87
330
47
100
AcDbEntity
  8
0
  6
Continuous
 62
     7
100
AcDbLine
 10
-956.639108312028
 20
-1054.154136141217
 30
0.0
 11
-877.4318531564238
 21
-1077.019301184046
 31
0.0
  0
LINE
  5
88
330
47
100
AcDbEntity
  8
0
  6
Continuous
 62
     7
100
AcDbLine
 10
-874.4007642431354
 20
-1082.224428202881
 30
0.0
 11
-874.4007642430698
 21
-1133.060119405301
 31
0.0
  0
LINE
  5
89
330
47
100
AcDbEntity
  8
0
  6
Continuous
 62
     7
100
AcDbLine
 10
-857.0318531564234
 20
-1059.352382946973
 30
0.0
 11
-905.0584318583647
 21
-1045.488303876031
 31
0.0
  0
LINE
  5
8A
330
47
100
AcDbEntity
  8
0
  6
Continuous
 62
     7
100
AcDbLine
 10
-956.639108312028
 20
-1054.154136141217
 30
0.0
 11
-936.2391083118715
 21
-1036.487217903957
 31
0.0
  0
LINE
  5
8B
330
47
100
AcDbEntity
  8
0
  6
Continuous
 62
     7
100
AcDbLine
 10
-943.2682734364407
 20
-1041.703818593846
 30
0.0
 11
-960.8682734364161
 21
-1056.945865700368
 31
0.0
  0
LINE
  5
8C
330
47
100
AcDbEntity
  8
0
  6
Continuous
 62
     7
100
AcDbLine
 10
-956.639108312028
 20
-1054.154136141217
 30
0.0
 11
-960.8734008107199
 21
-1057.166093682934
 31
0.0
  0
LINE
  5
8D
330
47
100
AcDbEntity
  8
0
  6
Continuous
 62
     7
100
AcDbLine
 10
-960.8682734364161
 20
-1056.945865700368
 30
0.0
 11
-959.4734008107181
 21
-1055.953658117633
 31
0.0
  0
LINE
  5
8E
330
47
100
AcDbEntity
  8
0
  6
Continuous
 62
     7
100
AcDbLine
 10
-939.018532379984
 20
-1048.47317574952
 30
0.0
 11
-940.4091088444267
 21
-1048.071750901486
 31
0.0
  0
LINE
  5
8F
330
47
100
AcDbEntity
  8
0
  6
Continuous
 62
     7
100
AcDbLine
 10
-941.8734008107873
 20
-1040.711611011143
 30
0.0
 11
-943.2682734364407
 21
-1041.703818593846
 31
0.0
  0
LINE
  5
90
330
47
100
AcDbEntity
  8
0
  6
Continuous
 62
     7
100
AcDbLine
 10
-940.473400810753
 20
-1039.499175445819
 30
0.0
 11
-941.8734008107873
 21
-1040.711611011143
 31
0.0
  0
LINE
  5
91
330
47
100
AcDbEntity
  8
0
  6
Continuous
 62
     7
100
AcDbLine
 10
-945.8074430463337
 20
-1040.970823465052
 30
0.0
 11
-947.3293608547633
 21
-1042.053401445293
 31
0.0
  0
LINE
  5
92
330
47
100
AcDbEntity
  8
0
  6
Continuous
 62
     7
100
AcDbLine
 10
-945.8074430463337
 20
-1040.970823465052
 30
0.0
 11
-943.2682734364407
 21
-1041.703818593846
 31
0.0
  0
LINE
  5
93
330
47
100
AcDbEntity
  8
0
  6
Continuous
 62
     7
100
AcDbLine
 10
-912.7289308433351
 20
-1043.274021549131
 30
0.0
 11
-936.2391083118715
 21
-1036.487217903957
 31
0.0
  0
LINE
  5
94
330
47
100
AcDbEntity
  8
0
  6
Continuous
 62
     7
100
AcDbLine
 10
-905.7168402046912
 20
-1046.655010892967
 30
0.0
 11
-905.7168402046907
 21
-1046.914818513927
 31
0.0
  0
LINE
  5
95
330
47
100
AcDbEntity
  8
0
  6
Continuous
 62
     7
100
AcDbLine
 10
-910.3753383482905
 20
-1041.297633943379
 30
0.0
 11
-906.9329554526879
 21
-1042.291364289103
 31
0.0
  0
LINE
  5
96
330
47
100
AcDbEntity
  8
0
  6
Continuous
 62
     7
100
AcDbLine
 10
-911.0753383483807
 20
-1041.903851726101
 30
0.0
 11
-910.3753383482905
 21
-1041.297633943379
 31
0.0
  0
LINE
  5
97
330
47
100
AcDbEntity
  8
0
  6
Continuous
 62
     7
100
AcDbLine
 10
-908.2775008768886
 20
-1044.559038693837
 30
0.0
 11
-910.2970609774261
 21
-1043.976041909991
 31
0.0
  0
LINE
  5
98
330
47
100
AcDbEntity
  8
0
  6
Continuous
 62
     7
100
AcDbLine
 10
-910.3861977080501
 20
-1044.498793110239
 30
0.0
 11
-907.8222635282244
 21
-1045.238937154699
 31
0.0
  0
LINE
  5
99
330
47
100
AcDbEntity
  8
0
  6
Continuous
 62
     7
100
AcDbLine
 10
-911.0861977081403
 20
-1045.105010892961
 30
0.0
 11
-910.3861977080501
 21
-1044.498793110239
 31
0.0
  0
LINE
  5
9A
330
47
100
AcDbEntity
  8
0
  6
Continuous
 62
     2
100
AcDbLine
 10
-905.7168402046912
 20
-1046.655010892967
 30
0.0
 11
-905.0168402046011
 21
-1046.048793110245
 31
0.0
  0
LINE
  5
9B
330
47
100
AcDbEntity
  8
0
  6
Continuous
 62
     7
100
AcDbLine
 10
-905.7168402046907
 20
-1046.914818513927
 30
0.0
 11
-905.0168402046005
 21
-1046.308600731205
 31
0.0
  0
LINE
  5
9C
330
47
100
AcDbEntity
  8
0
  6
Continuous
 62
     7
100
AcDbLine
 10
-905.0168402046011
 20
-1046.048793110245
 30
0.0
 11
-905.0168402046005
 21
-1046.308600731205
 31
0.0
  0
LINE
  5
9D
330
47
100
AcDbEntity
  8
0
  6
Continuous
 62
     7
100
AcDbLine
 10
-899.260139172262
 20
-1052.423208595819
 30
0.0
 11
-900.2993887101379
 21
-1051.523205295729
 31
0.0
  0
LINE
  5
9E
330
47
100
AcDbEntity
  8
0
  6
Continuous
 62
     7
100
AcDbLine
 10
-899.4101402722727
 20
-1052.553113359024
 30
0.0
 11
-900.2993887101371
 21
-1051.783012916821
 31
0.0
  0
LINE
  5
9F
330
47
100
AcDbEntity
  8
0
  6
Continuous
 62
     7
100
AcDbLine
 10
-922.873992974267
 20
-1051.52334866901
 30
0.0
 11
-923.913208216258
 21
-1052.423335468577
 31
0.0
  0
LINE
  5
A0
330
47
100
AcDbEntity
  8
0
  6
Continuous
 62
     7
100
AcDbLine
 10
-911.0753383483807
 20
-1041.903851726101
 30
0.0
 11
-907.6329554527781
 21
-1042.897582071825
 31
0.0
  0
LINE
  5
A1
330
47
100
AcDbEntity
  8
0
  6
Continuous
 62
     7
100
AcDbLine
 10
-905.7168402046907
 20
-1046.914818513927
 30
0.0
 11
-912.9914535964604
 21
-1044.814818513919
 31
0.0
  0
LINE
  5
A2
330
47
100
AcDbEntity
  8
0
  6
Continuous
 62
     7
100
AcDbLine
 10
-911.0861977081403
 20
-1045.105010892961
 30
0.0
 11
-907.6220960930119
 21
-1046.105010892968
 31
0.0
  0
LINE
  5
A3
330
47
100
AcDbEntity
  8
0
  6
Continuous
 62
     7
100
AcDbLine
 10
-912.991453596461
 20
-1044.555010892962
 30
0.0
 11
-912.9914535964604
 21
-1044.814818513919
 31
0.0
  0
LINE
  5
A4
330
47
100
AcDbEntity
  8
0
  6
Continuous
 62
     7
100
AcDbLine
 10
-912.1036923175358
 20
-1042.430109319675
 30
0.0
 11
-911.4036923174456
 21
-1041.823891536953
 31
0.0
  0
LINE
  5
A5
330
47
100
AcDbEntity
  8
0
  6
Continuous
 62
     7
100
AcDbLine
 10
-907.6329554527781
 20
-1042.897582071825
 30
0.0
 11
-906.9329554526879
 21
-1042.291364289103
 31
0.0
  0
LINE
  5
A6
330
47
100
AcDbEntity
  8
0
  6
Continuous
 62
     7
100
AcDbLine
 10
-923.7632104163646
 20
-1052.553241184475
 30
0.0
 11
-922.8739929742661
 21
-1051.783156290127
 31
0.0
  0
LINE
  5
A7
330
47
100
AcDbEntity
  8
0
  6
Continuous
 62
     7
100
AcDbLine
 10
-922.8739929742661
 20
-1051.783156290127
 30
0.0
 11
-922.873992974267
 21
-1051.52334866901
 31
0.0
  0
LINE
  5
A8
330
47
100
AcDbEntity
  8
0
  6
Continuous
 62
     7
100
AcDbLine
 10
-900.2993887101379
 20
-1051.523205295729
 30
0.0
 11
-922.873992974267
 21
-1051.52334866901
 31
0.0
  0
LINE
  5
A9
330
47
100
AcDbEntity
  8
0
  6
Continuous
 62
     7
100
AcDbLine
 10
-900.2993887101371
 20
-1051.783012916821
 30
0.0
 11
-922.8739929742661
 21
-1051.783156290127
 31
0.0
  0
LINE
  5
AA
330
47
100
AcDbEntity
  8
0
  6
Continuous
 62
     7
100
AcDbLine
 10
-900.2993887101371
 20
-1051.783012916821
 30
0.0
 11
-900.2993887101379
 21
-1051.523205295729
 31
0.0
  0
LINE
  5
AB
330
47
100
AcDbEntity
  8
0
  6
Continuous
 62
     7
100
AcDbLine
 10
-922.1152591025373
 20
-1072.116614186642
 30
0.0
 11
-959.1734008107202
 21
-1061.418850141298
 31
0.0
  0
LINE
  5
AC
330
47
100
AcDbEntity
  8
0
  6
Continuous
 62
     7
100
AcDbLine
 10
-960.8682734364161
 20
-1056.945865700368
 30
0.0
 11
-963.4074430463437
 21
-1056.212870571555
 31
0.0
  0
LINE
  5
AD
330
47
100
AcDbEntity
  8
0
  6
Continuous
 62
     7
100
AcDbLine
 10
-849.6706372242804
 20
-1064.50847186018
 30
0.0
 11
-854.000764243237
 21
-1063.258471860168
 31
0.0
  0
LINE
  5
AE
330
47
100
AcDbEntity
  8
0
  6
Continuous
 62
     7
100
AcDbLine
 10
-849.6706372242751
 20
-1065.807509965898
 30
0.0
 11
-849.6706372242804
 21
-1064.50847186018
 31
0.0
  0
LINE
  5
AF
330
47
100
AcDbEntity
  8
0
  6
Continuous
 62
     7
100
AcDbLine
 10
-961.7719773017841
 20
-1060.849971197803
 30
0.0
 11
-961.0219773017602
 21
-1060.200452144943
 31
0.0
  0
LINE
  5
B0
330
47
100
AcDbEntity
  8
0
  6
Continuous
 62
     7
100
AcDbLine
 10
-964.9293608547061
 20
-1059.67064506048
 30
0.0
 11
-964.3032677402546
 21
-1060.212857602729
 31
0.0
  0
LINE
  5
B1
330
47
100
AcDbEntity
  8
0
  6
Continuous
 62
     7
100
AcDbLine
 10
-964.3905919846175
 20
-1057.82625541373
 30
0.0
 11
-963.6405919845935
 21
-1057.17673636087
 31
0.0
  0
LINE
  5
B2
330
47
100
AcDbEntity
  8
0
  6
Continuous
 62
     7
100
AcDbLine
 10
-964.9293608547061
 20
-1059.67064506048
 30
0.0
 11
-964.9293608547118
 21
-1057.295448551752
 31
0.0
  0
LINE
  5
B3
330
47
100
AcDbEntity
  8
0
  6
Continuous
 62
     7
100
AcDbLine
 10
-963.4074430463437
 20
-1056.212870571555
 30
0.0
 11
-964.9293608547118
 21
-1057.295448551752
 31
0.0
  0
LINE
  5
B4
330
47
100
AcDbEntity
  8
0
  6
Continuous
 62
     7
100
AcDbLine
 10
-874.4007642431902
 20
-1080.925390097287
 30
0.0
 11
-870.0706372241859
 21
-1082.17539009731
 31
0.0
  0
LINE
  5
B5
330
47
100
AcDbEntity
  8
0
  6
Continuous
 62
     7
100
AcDbLine
 10
-918.3515533578125
 20
-1079.722032023981
 30
0.0
 11
-918.3515533576116
 21
-1116.672271252127
 31
0.0
  0
LINE
  5
B6
330
47
100
AcDbEntity
  8
0
  6
Continuous
 62
     7
100
AcDbLine
 10
-918.3515533576116
 20
-1116.672271252127
 30
0.0
 11
-908.1849302620747
 21
-1123.307470732397
 31
0.0
  0
LINE
  5
B7
330
47
100
AcDbEntity
  8
0
  6
Continuous
 62
     7
100
AcDbLine
 10
-872.9544130184413
 20
-1131.80754250198
 30
0.0
 11
-871.9507642428888
 21
-1129.200010323076
 31
0.0
  0
LINE
  5
B8
330
47
100
AcDbEntity
  8
0
  6
Continuous
 62
     7
100
AcDbLine
 10
-870.0706372241859
 20
-1082.17539009731
 30
0.0
 11
-849.6706372242804
 21
-1064.50847186018
 31
0.0
  0
LINE
  5
B9
330
47
100
AcDbEntity
  8
0
  6
Continuous
 62
     7
100
AcDbLine
 10
-854.000764243237
 20
-1063.258471860168
 30
0.0
 11
-874.4007642431902
 21
-1080.925390097287
 31
0.0
  0
LINE
  5
BA
330
47
100
AcDbEntity
  8
0
  6
Continuous
 62
     7
100
AcDbLine
 10
-877.4318531564238
 20
-1077.019301184046
 30
0.0
 11
-857.0318531564234
 21
-1059.352382946973
 31
0.0
  0
LINE
  5
BB
330
47
100
AcDbEntity
  8
0
  6
Continuous
 62
     7
100
AcDbLine
 10
-870.0706372241859
 20
-1082.17539009731
 30
0.0
 11
-870.0706372241805
 21
-1083.47442820288
 31
0.0
  0
LINE
  5
BC
330
47
100
AcDbEntity
  8
0
  6
Continuous
 62
     7
100
AcDbLine
 10
-854.000764243237
 20
-1063.258471860168
 30
0.0
 11
-857.0318531564234
 21
-1059.352382946973
 31
0.0
  0
LINE
  5
BD
330
47
100
AcDbEntity
  8
0
  6
Continuous
 62
     7
100
AcDbLine
 10
-870.0706372241805
 20
-1083.47442820288
 30
0.0
 11
-874.4007642431354
 21
-1082.224428202881
 31
0.0
  0
LINE
  5
BE
330
47
100
AcDbEntity
  8
0
  6
Continuous
 62
     7
100
AcDbLine
 10
-849.6706372242751
 20
-1065.807509965898
 30
0.0
 11
-870.0706372241805
 21
-1083.47442820288
 31
0.0
  0
LINE
  5
BF
330
47
100
AcDbEntity
  8
0
  6
Continuous
 62
     7
100
AcDbLine
 10
-857.6631998082848
 20
-1101.967213995476
 30
0.0
 11
-871.9507642431963
 21
-1097.842749409348
 31
0.0
  0
LINE
  5
C0
330
47
100
AcDbEntity
  8
0
  6
Continuous
 62
     7
100
AcDbLine
 10
-871.9507642431337
 20
-1111.019772880936
 30
0.0
 11
-857.6631998084048
 21
-1115.144237467183
 31
0.0
  0
LINE
  5
C1
330
47
100
AcDbEntity
  8
0
  6
Continuous
 62
     7
100
AcDbLine
 10
-871.9507642428888
 20
-1129.200010323076
 30
0.0
 11
-871.950764243267
 21
-1082.931682282595
 31
0.0
  0
LINE
  5
C2
330
47
100
AcDbEntity
  8
0
  6
Continuous
 62
     7
100
AcDbLine
 10
-856.4507642429195
 20
-1115.776616564464
 30
0.0
 11
-857.6631998082723
 21
-1115.42661656445
 31
0.0
  0
LINE
  5
C3
330
47
100
AcDbEntity
  8
0
  6
Continuous
 62
     7
100
AcDbLine
 10
-856.6595510330214
 20
-1116.295778071366
 30
0.0
 11
-857.6631998082723
 21
-1115.42661656445
 31
0.0
  0
LINE
  5
C4
330
47
100
AcDbEntity
  8
0
  6
Continuous
 62
     7
100
AcDbLine
 10
-857.6631998082723
 20
-1115.42661656445
 30
0.0
 11
-857.6631998082848
 21
-1101.967213995476
 31
0.0
  0
LINE
  5
C5
330
47
100
AcDbEntity
  8
0
  6
Continuous
 62
     7
100
AcDbLine
 10
-856.4507642429195
 20
-1115.776616564464
 30
0.0
 11
-855.4471154676445
 21
-1116.645778071367
 31
0.0
  0
LINE
  5
C6
330
47
100
AcDbEntity
  8
0
  6
Continuous
 62
     7
100
AcDbLine
 10
-856.6595510330214
 20
-1116.295778071366
 30
0.0
 11
-855.4471154676445
 21
-1116.645778071367
 31
0.0
  0
LINE
  5
C7
330
47
100
AcDbEntity
  8
0
  6
Continuous
 62
     7
100
AcDbLine
 10
-854.000764243015
 20
-1115.393201168042
 30
0.0
 11
-855.4471154676445
 21
-1116.645778071367
 31
0.0
  0
LINE
  5
C8
330
47
100
AcDbEntity
  8
0
  6
Continuous
 62
     7
100
AcDbLine
 10
-856.4507642432113
 20
-1071.679272205112
 30
0.0
 11
-856.4507642429195
 21
-1115.776616564464
 31
0.0
  0
LINE
  5
C9
330
47
100
AcDbEntity
  8
0
  6
Continuous
 62
     7
100
AcDbLine
 10
-854.000764243015
 20
-1115.393201168042
 30
0.0
 11
-854.0007642432058
 21
-1069.557509965838
 31
0.0
  0
LINE
  5
CA
330
47
100
AcDbEntity
  8
0
  6
Continuous
 62
     7
100
AcDbLine
 10
-908.1849302620747
 20
-1123.307470732397
 30
0.0
 11
-874.4007642430698
 21
-1133.060119405301
 31
0.0
  0
LINE
  5
CB
330
47
100
AcDbEntity
  8
0
  6
Continuous
 62
     7
100
AcDbLine
 10
-872.9544130184413
 20
-1131.80754250198
 30
0.0
 11
-874.4007642430698
 21
-1133.060119405301
 31
0.0
  0
LINE
  5
CC
330
47
100
AcDbEntity
  8
0
  6
Continuous
 62
     7
100
AcDbLine
 10
-918.3515533578125
 20
-1079.722032023981
 30
0.0
 11
-923.4819257690809
 21
-1069.354955399216
 31
0.0
  0
LINE
  5
CD
330
47
100
AcDbEntity
  8
0
  6
Continuous
 62
     7
100
AcDbLine
 10
-877.4318531564238
 20
-1077.019301184046
 30
0.0
 11
-874.4007642431902
 21
-1080.925390097287
 31
0.0
  0
LINE
  5
CE
330
47
100
AcDbEntity
  8
0
  6
Continuous
 62
     7
100
AcDbLine
 10
-964.9293608547118
 20
-1057.295448551752
 30
0.0
 11
-947.3293608547633
 21
-1042.053401445293
 31
0.0
  0
LINE
  5
CF
330
47
100
AcDbEntity
  8
0
  6
Continuous
 62
     7
100
AcDbLine
 10
-963.4074430463437
 20
-1056.212870571555
 30
0.0
 11
-945.8074430463337
 21
-1040.970823465052
 31
0.0
  0
LINE
  5
D0
330
47
100
AcDbEntity
  8
0
  6
Continuous
 62
     7
100
AcDbLine
 10
-910.5476782022688
 20
-1062.198504142035
 30
0.0
 11
-899.260139172262
 21
-1052.423208595819
 31
0.0
  0
LINE
  5
D1
330
47
100
AcDbEntity
  8
0
  6
Continuous
 62
     7
100
AcDbLine
 10
-923.913208216258
 20
-1052.423335468577
 30
0.0
 11
-912.6261544139435
 21
-1062.198497541748
 31
0.0
  0
LINE
  5
D2
330
47
100
AcDbEntity
  8
0
  6
Continuous
 62
     7
100
AcDbLine
 10
-923.4819257690809
 20
-1069.354955399216
 30
0.0
 11
-960.8734008107851
 21
-1058.560966308749
 31
0.0
  0
LINE
  5
D3
330
47
100
AcDbEntity
  8
0
  6
Continuous
 62
     7
100
AcDbLine
 10
-960.8734008107851
 20
-1058.560966308749
 30
0.0
 11
-960.8734008107199
 21
-1057.166093682934
 31
0.0
  0
LINE
  5
D4
330
47
100
AcDbEntity
  8
0
  6
Continuous
 62
     7
100
AcDbLine
 10
-959.1734008107202
 20
-1061.418850141298
 30
0.0
 11
-959.1734008107182
 21
-1059.051714037584
 31
0.0
  0
LINE
  5
D5
330
47
100
AcDbEntity
  8
0
  6
Continuous
 62
     7
100
AcDbLine
 10
-959.4734008106772
 20
-1061.678657762395
 30
0.0
 11
-959.4734008106816
 21
-1058.965111497215
 31
0.0
  0
LINE
  5
D6
330
47
100
AcDbEntity
  8
0
  6
Continuous
 62
     7
100
AcDbLine
 10
-959.1734008107202
 20
-1061.418850141298
 30
0.0
 11
-959.4734008106772
 21
-1061.678657762395
 31
0.0
  0
LINE
  5
D7
330
47
100
AcDbEntity
  8
0
  6
Continuous
 62
     7
100
AcDbLine
 10
-960.8734008107199
 20
-1057.166093682934
 30
0.0
 11
-959.4734008107181
 21
-1055.953658117633
 31
0.0
  0
LINE
  5
D8
330
47
100
AcDbEntity
  8
0
  6
Continuous
 62
     7
100
AcDbLine
 10
-912.6261544139435
 20
-1062.198497541748
 30
0.0
 11
-910.5476782022688
 21
-1062.198504142035
 31
0.0
  0
LINE
  5
D9
330
47
100
AcDbEntity
  8
0
  6
Continuous
 62
     7
100
AcDbLine
 10
-959.4734008106772
 20
-1061.678657762395
 30
0.0
 11
-961.9356407194656
 21
-1060.967870325328
 31
0.0
  0
LINE
  5
DA
330
47
100
AcDbEntity
  8
0
  6
Continuous
 62
     7
100
AcDbLine
 10
-936.2391083118715
 20
-1036.487217903957
 30
0.0
 11
-940.473400810753
 21
-1039.499175445819
 31
0.0
  0
SPLINE
  5
DB
330
47
100
AcDbEntity
  8
0
  6
Continuous
 62
     7
100
AcDbSpline
210
0.0
220
0.0
230
1.0
 70
     8
 71
     3
 72
     9
 73
     5
 74
     3
 42
0.000000001
 43
0.0000000001
 44
0.00000001
 40
0.0
 40
0.0
 40
0.0
 40
0.0
 40
0.2676406687933834
 40
0.5808314332509255
 40
0.5808314332509255
 40
0.5808314332509255
 40
0.5808314332509255
 10
-940.9820578557617
 20
-1047.473342062215
 30
0.0
 10
-940.9672205012522
 20
-1047.383020654471
 30
0.0
 10
-940.9350205863639
 20
-1047.187005933764
 30
0.0
 10
-940.7914977724097
 20
-1047.048192049317
 30
0.0
 10
-940.7141086671841
 20
-1046.973342065551
 30
0.0
 11
-940.9820578557617
 21
-1047.473342062215
 31
0.0
 11
-940.9139089942946
 21
-1047.214523087976
 31
0.0
 11
-940.7141086671841
 21
-1046.973342065551
 31
0.0
  0
SPLINE
  5
DC
330
47
100
AcDbEntity
  8
0
  6
Continuous
 62
     7
100
AcDbSpline
210
0.0
220
0.0
230
1.0
 70
     8
 71
     3
 72
    17
 73
    13
 74
    11
 42
0.000000001
 43
0.0000000001
 44
0.00000001
 40
0.0
 40
0.0
 40
0.0
 40
0.0
 40
0.3793598555117632
 40
0.8230125942992864
 40
1.315610998780768
 40
1.834369244307069
 40
2.35312749029217
 40
2.845725896361384
 40
3.289378635570659
 40
3.668738486612076
 40
3.98192925667645
 40
4.249569921143427
 40
4.249569921143427
 40
4.249569921143427
 40
4.249569921143427
 10
-940.7141086671841
 20
-1046.973342065551
 30
0.0
 10
-940.6108350352982
 20
-1046.899441546193
 30
0.0
 10
-940.3867852288759
 20
-1046.73911605799
 30
0.0
 10
-939.9683192743067
 20
-1046.592638837679
 30
0.0
 10
-939.4928488580883
 20
-1046.494510915984
 30
0.0
 10
-938.981983521911
 20
-1046.462370185631
 30
0.0
 10
-938.4715566674997
 20
-1046.494954108443
 30
0.0
 10
-937.9948774247952
 20
-1046.591038594341
 30
0.0
 10
-937.5801898644285
 20
-1046.744140143257
 30
0.0
 10
-937.2596809195793
 20
-1046.94579020194
 30
0.0
 10
-937.0303701800501
 20
-1047.18924765311
 30
0.0
 10
-936.9972974136186
 20
-1047.383727780404
 30
0.0
 10
-936.9820578557617
 20
-1047.473342062211
 30
0.0
 11
-940.7141086671841
 21
-1046.973342065551
 31
0.0
 11
-940.396271046002
 21
-1046.766235471998
 31
0.0
 11
-939.9820578611013
 21
-1046.60731665997
 31
0.0
 11
-939.4996958131728
 21
-1046.507416494143
 31
0.0
 11
-938.9820578603862
 21
-1046.473342062212
 31
0.0
 11
-938.4644199072845
 21
-1046.507416492946
 31
0.0
 11
-937.982057858432
 21
-1046.607316657657
 31
0.0
 11
-937.5678446720614
 21
-1046.766235468726
 31
0.0
 11
-937.2500070489639
 21
-1046.973342061543
 31
0.0
 11
-937.0502067184261
 21
-1047.214523085739
 31
0.0
 11
-936.9820578557617
 21
-1047.473342062211
 31
0.0
  0
SPLINE
  5
DD
330
47
100
AcDbEntity
  8
0
  6
Continuous
 62
     7
100
AcDbSpline
210
0.0
220
0.0
230
1.0
 70
     8
 71
     3
 72
    15
 73
    11
 74
     9
 42
0.000000001
 43
0.0000000001
 44
0.00000001
 40
0.0
 40
0.0
 40
0.0
 40
0.0
 40
0.3467845750798959
 40
0.7327937487827942
 40
1.147174856885487
 40
1.576376585599023
 40
2.00557831431251
 40
2.419959422415352
 40
2.805968596118337
 40
3.152753171197954
 40
3.152753171197954
 40
3.152753171197954
 40
3.152753171197954
 10
-940.5027484883406
 20
-1048.122861115051
 30
0.0
 10
-940.3995595799338
 20
-1048.070236219706
 30
0.0
 10
-940.1815101203308
 20
-1047.959034070452
 30
0.0
 10
-939.8113313950455
 20
-1047.85506741776
 30
0.0
 10
-939.4066705295083
 20
-1047.787083444658
 30
0.0
 10
-938.9820578557611
 20
-1047.764899355969
 30
0.0
 10
-938.5574451820144
 20
-1047.787083444657
 30
0.0
 10
-938.1527843164774
 20
-1047.855067417759
 30
0.0
 10
-937.7826055911913
 20
-1047.959034070451
 30
0.0
 10
-937.5645561315882
 20
-1048.070236219703
 30
0.0
 10
-937.4613672231815
 20
-1048.122861115048
 30
0.0
 11
-940.5027484883406
 21
-1048.122861115051
 31
0.0
 11
-940.1890579536513
 21
-1047.975017312618
 31
0.0
 11
-939.819292526764
 21
-1047.864217447654
 31
0.0
 11
-939.4106305201803
 21
-1047.795609365769
 31
0.0
 11
-938.9820578557614
 21
-1047.772380167884
 31
0.0
 11
-938.5534851913424
 21
-1047.795609365768
 31
0.0
 11
-938.1448231847585
 21
-1047.864217447653
 31
0.0
 11
-937.775057757871
 21
-1047.975017312616
 31
0.0
 11
-937.4613672231815
 21
-1048.122861115048
 31
0.0
  0
SPLINE
  5
DE
330
47
100
AcDbEntity
  8
0
  6
Continuous
 62
     7
100
AcDbSpline
210
0.0
220
0.0
230
1.0
 70
     8
 71
     3
 72
    19
 73
    15
 74
    13
 42
0.000000001
 43
0.0000000001
 44
0.00000001
 40
0.0
 40
0.0
 40
0.0
 40
0.0
 40
0.2676406686777387
 40
0.5808314346126748
 40
0.9601912858935981
 40
1.403844025770954
 40
1.896442433305667
 40
2.415200681654587
 40
2.933958930003628
 40
3.426557337538334
 40
3.870210077415926
 40
4.249569928696858
 40
4.562760694631909
 40
4.830401363309793
 40
4.830401363309793
 40
4.830401363309793
 40
4.830401363309793
 10
-936.9820578557617
 20
-1047.473342062211
 30
0.0
 10
-936.9972974021766
 20
-1047.562956324937
 30
0.0
 10
-937.030370150565
 20
-1047.757436405421
 30
0.0
 10
-937.2596811115502
 20
-1048.000894267246
 30
0.0
 10
-937.5801889067454
 20
-1048.20254229783
 30
0.0
 10
-937.9948818537173
 20
-1048.355653320364
 30
0.0
 10
-938.4715377919244
 20
-1048.451696829479
 30
0.0
 10
-938.9820578557606
 20
-1048.484444632464
 30
0.0
 10
-939.4925779195967
 20
-1048.451696829481
 30
0.0
 10
-939.9692338578047
 20
-1048.355653320367
 30
0.0
 10
-940.3839268047761
 20
-1048.202542297833
 30
0.0
 10
-940.7044345999723
 20
-1048.00089426725
 30
0.0
 10
-940.933745560958
 20
-1047.757436405425
 30
0.0
 10
-940.9668183093466
 20
-1047.562956324941
 30
0.0
 10
-940.9820578557617
 20
-1047.473342062215
 30
0.0
 11
-936.9820578557617
 21
-1047.473342062211
 31
0.0
 11
-937.050206718226
 21
-1047.732161038312
 31
0.0
 11
-937.2500070481923
 21
-1047.973342062212
 31
0.0
 11
-937.5678446704253
 21
-1048.18044865488
 31
0.0
 11
-937.9820578557608
 21
-1048.339367465997
 31
0.0
 11
-938.464419903561
 21
-1048.439267630981
 31
0.0
 11
-938.9820578557606
 21
-1048.473342062214
 31
0.0
 11
-939.4996958079604
 21
-1048.439267630983
 31
0.0
 11
-939.9820578557608
 21
-1048.339367466
 31
0.0
 11
-940.3962710410966
 21
-1048.180448654883
 31
0.0
 11
-940.7141086633301
 21
-1047.973342062216
 31
0.0
 11
-940.9139089932968
 21
-1047.732161038316
 31
0.0
 11
-940.9820578557617
 21
-1047.473342062215
 31
0.0
  0
SPLINE
  5
DF
330
47
100
AcDbEntity
  8
0
  6
Continuous
 62
     7
100
AcDbSpline
210
0.0
220
0.0
230
1.0
 70
     8
 71
     3
 72
    13
 73
     9
 74
     7
 42
0.000000001
 43
0.0000000001
 44
0.00000001
 40
0.0
 40
0.0
 40
0.0
 40
0.0
 40
0.3229120854140436
 40
0.6615040570954052
 40
1.021013069609203
 40
1.402476610830679
 40
1.803214835680813
 40
2.217737545570928
 40
2.217737545570928
 40
2.217737545570928
 40
2.217737545570928
 10
-945.126928566943
 20
-1041.167271073911
 30
0.0
 10
-945.029559073508
 20
-1041.119896933232
 30
0.0
 10
-944.8300920370015
 20
-1041.022848283215
 30
0.0
 10
-944.4865655755486
 20
-1040.982056360883
 30
0.0
 10
-944.1263092458578
 20
-1041.015862986985
 30
0.0
 10
-943.760990372144
 20
-1041.130535373511
 30
0.0
 10
-943.4036613368482
 20
-1041.314022228437
 30
0.0
 10
-943.1924910006925
 20
-1041.486062731159
 30
0.0
 10
-943.0851205960604
 20
-1041.573537424314
 30
0.0
 11
-945.126928566943
 21
-1041.167271073911
 31
0.0
 11
-944.8293155427106
 21
-1041.041976601955
 31
0.0
 11
-944.4940550654871
 21
-1040.994595822249
 31
0.0
 11
-944.1360305298563
 21
-1041.027232671707
 31
0.0
 11
-943.7711362109465
 21
-1041.138437754919
 31
0.0
 11
-943.4155712741107
 21
-1041.323274712551
 31
0.0
 11
-943.0851205960604
 21
-1041.573537424314
 31
0.0
  0
SPLINE
  5
E0
330
47
100
AcDbEntity
  8
0
  6
Continuous
 62
     7
100
AcDbSpline
210
0.0
220
0.0
230
1.0
 70
     8
 71
     3
 72
     9
 73
     5
 74
     3
 42
0.000000001
 43
0.0000000001
 44
0.00000001
 40
0.0
 40
0.0
 40
0.0
 40
0.0
 40
0.5745770341056621
 40
1.163297581343384
 40
1.163297581343384
 40
1.163297581343384
 40
1.163297581343384
 10
-911.4036923174456
 20
-1041.823891536953
 30
0.0
 10
-911.2499180485496
 20
-1041.707000748529
 30
0.0
 10
-910.9385842669119
 20
-1041.470341861008
 30
0.0
 10
-910.5646026285725
 20
-1041.355667982801
 30
0.0
 10
-910.3753383482905
 20
-1041.297633943379
 30
0.0
 11
-911.4036923174456
 21
-1041.823891536953
 31
0.0
 11
-910.9270860661659
 21
-1041.50297838559
 31
0.0
 11
-910.3753383482905
 21
-1041.297633943379
 31
0.0
  0
SPLINE
  5
E1
330
47
100
AcDbEntity
  8
0
  6
Continuous
 62
     7
100
AcDbSpline
210
0.0
220
0.0
230
1.0
 70
     8
 71
     3
 72
     9
 73
     5
 74
     3
 42
0.000000001
 43
0.0000000001
 44
0.00000001
 40
0.0
 40
0.0
 40
0.0
 40
0.0
 40
0.3177156676572883
 40
0.653575519154777
 40
0.653575519154777
 40
0.653575519154777
 40
0.653575519154777
 10
-910.249519286966
 20
-1043.863869836492
 30
0.0
 10
-910.289206405322
 20
-1043.962919453056
 30
0.0
 10
-910.3708470846086
 20
-1044.166675241211
 30
0.0
 10
-910.3809870073792
 20
-1044.386057036158
 30
0.0
 10
-910.3861977080501
 20
-1044.498793110239
 30
0.0
 11
-910.249519286966
 21
-1043.863869836492
 31
0.0
 11
-910.3516841490302
 21
-1044.164711301629
 31
0.0
 11
-910.3861977080501
 21
-1044.498793110239
 31
0.0
  0
SPLINE
  5
E2
330
47
100
AcDbEntity
  8
0
  6
Continuous
 62
     7
100
AcDbSpline
210
0.0
220
0.0
230
1.0
 70
     8
 71
     3
 72
    13
 73
     9
 74
     7
 42
0.000000001
 43
0.0000000001
 44
0.00000001
 40
0.0
 40
0.0
 40
0.0
 40
0.0
 40
0.7506788558859421
 40
1.503784215942162
 40
2.248788201665476
 40
2.975877283313139
 40
3.676889575702573
 40
4.346266989702789
 40
4.346266989702789
 40
4.346266989702789
 40
4.346266989702789
 10
-906.9329554526879
 20
-1042.291364289103
 30
0.0
 10
-906.7462292207106
 20
-1042.458517855276
 30
0.0
 10
-906.3721731905232
 20
-1042.793365307616
 30
0.0
 10
-905.9048154521154
 20
-1043.383712049517
 30
0.0
 10
-905.5191564066274
 20
-1044.019773793866
 30
0.0
 10
-905.2368027638098
 20
-1044.688889265415
 30
0.0
 10
-905.0531198493313
 20
-1045.368234336535
 30
0.0
 10
-905.0287458602422
 20
-1045.825458461723
 30
0.0
 10
-905.0168402046011
 20
-1046.048793110245
 30
0.0
 11
-906.9329554526879
 21
-1042.291364289103
 31
0.0
 11
-906.388109620021
 21
-1042.80775732061
 31
0.0
 11
-905.9161976385092
 21
-1043.394670232585
 31
0.0
 11
-905.5324085951919
 21
-1044.033213035284
 31
0.0
 11
-905.2490946847709
 21
-1044.702833646841
 31
0.0
 11
-905.0753749184496
 21
-1045.381979934371
 31
0.0
 11
-905.0168402046011
 21
-1046.048793110245
 31
0.0
  0
SPLINE
  5
E3
330
47
100
AcDbEntity
  8
0
  6
Continuous
 62
     7
100
AcDbSpline
210
0.0
220
0.0
230
1.0
 70
     8
 71
     3
 72
    13
 73
     9
 74
     7
 42
0.000000001
 43
0.0000000001
 44
0.00000001
 40
0.0
 40
0.0
 40
0.0
 40
0.0
 40
0.7506788558860159
 40
1.50378421594213
 40
2.248788201665444
 40
2.975877283313273
 40
3.676889575702734
 40
4.346266989702961
 40
4.346266989702961
 40
4.346266989702961
 40
4.346266989702961
 10
-907.6329554527781
 20
-1042.897582071825
 30
0.0
 10
-907.4462292208009
 20
-1043.064735637998
 30
0.0
 10
-907.0721731906136
 20
-1043.399583090338
 30
0.0
 10
-906.6048154522056
 20
-1043.989929832239
 30
0.0
 10
-906.2191564067172
 20
-1044.625991576587
 30
0.0
 10
-905.9368027639005
 20
-1045.295107048138
 30
0.0
 10
-905.7531198494214
 20
-1045.974452119257
 30
0.0
 10
-905.7287458603322
 20
-1046.431676244445
 30
0.0
 10
-905.7168402046912
 20
-1046.655010892967
 30
0.0
 11
-907.6329554527781
 21
-1042.897582071825
 31
0.0
 11
-907.0881096201114
 21
-1043.413975103332
 31
0.0
 11
-906.6161976385994
 21
-1044.000888015307
 31
0.0
 11
-906.2324085952821
 21
-1044.639430818006
 31
0.0
 11
-905.9490946848612
 21
-1045.309051429563
 31
0.0
 11
-905.7753749185398
 21
-1045.988197717093
 31
0.0
 11
-905.7168402046912
 21
-1046.655010892967
 31
0.0
  0
SPLINE
  5
E4
330
47
100
AcDbEntity
  8
0
  6
Continuous
 62
     7
100
AcDbSpline
210
0.0
220
0.0
230
1.0
 70
     8
 71
     3
 72
    17
 73
    13
 74
    11
 42
0.000000001
 43
0.0000000001
 44
0.00000001
 40
0.0
 40
0.0
 40
0.0
 40
0.0
 40
0.4340469405114337
 40
0.8940939120054003
 40
1.371940844025691
 40
1.85631706273506
 40
2.334897026477381
 40
2.796290082646843
 40
3.2320528199176
 40
3.638712425234616
 40
4.019500657890194
 40
4.384852940504349
 40
4.384852940504349
 40
4.384852940504349
 40
4.384852940504349
 10
-907.6220960930119
 20
-1046.105010892968
 30
0.0
 10
-907.6326256729685
 20
-1045.960124438816
 30
0.0
 10
-907.6543155845327
 20
-1045.66167262695
 30
0.0
 10
-907.8126701375877
 20
-1045.22712219804
 30
0.0
 10
-908.0505310853396
 20
-1044.814944599721
 30
0.0
 10
-908.3651769060107
 20
-1044.448234450612
 30
0.0
 10
-908.7359552593389
 20
-1044.147455506642
 30
0.0
 10
-909.1429187039801
 20
-1043.929919564158
 30
0.0
 10
-909.5642691102805
 20
-1043.807631347593
 30
0.0
 10
-909.9747237225183
 20
-1043.79171069679
 30
0.0
 10
-910.3587907036474
 20
-1043.87679149873
 30
0.0
 10
-910.5633100783348
 20
-1044.022034075864
 30
0.0
 10
-910.6634542419855
 20
-1044.093153000922
 30
0.0
 11
-907.6220960930119
 21
-1046.105010892968
 31
0.0
 11
-907.6728943667147
 21
-1045.673946766584
 31
0.0
 11
-907.8223084170255
 21
-1045.23883912825
 31
0.0
 11
-908.0615752016965
 21
-1044.825209951684
 31
0.0
 11
-908.376659247213
 21
-1044.457320884874
 31
0.0
 11
-908.7490795846435
 21
-1044.156751634435
 31
0.0
 11
-909.1569908326057
 21
-1043.941131675453
 31
0.0
 11
-909.5764666234315
 21
-1043.823109536961
 31
0.0
 11
-909.9829019984464
 21
-1043.809606846037
 31
0.0
 11
-910.3524566152134
 21
-1043.901416800428
 31
0.0
 11
-910.6634542419855
 21
-1044.093153000922
 31
0.0
  0
SPLINE
  5
E5
330
47
100
AcDbEntity
  8
0
  6
Continuous
 62
     7
100
AcDbSpline
210
0.0
220
0.0
230
1.0
 70
     8
 71
     3
 72
    11
 73
     7
 74
     5
 42
0.000000001
 43
0.0000000001
 44
0.00000001
 40
0.0
 40
0.0
 40
0.0
 40
0.0
 40
0.2681156221831786
 40
0.5425811581283708
 40
0.8285670144195957
 40
1.129302987318596
 40
1.129302987318596
 40
1.129302987318596
 40
1.129302987318596
 10
-910.6634542419855
 20
-1044.093153000922
 30
0.0
 10
-910.7271103286645
 20
-1044.156523641048
 30
0.0
 10
-910.855930089253
 20
-1044.284765769081
 30
0.0
 10
-910.986947395792
 20
-1044.531752103773
 30
0.0
 10
-911.0715366709009
 20
-1044.808494926802
 30
0.0
 10
-911.0812294753943
 20
-1045.004529475333
 30
0.0
 10
-911.0861977081403
 20
-1045.105010892961
 30
0.0
 11
-910.6634542419855
 21
-1044.093153000922
 31
0.0
 11
-910.8439167801048
 21
-1044.291443848009
 31
0.0
 11
-910.9770743231716
 21
-1044.531444682268
 31
0.0
 11
-911.0586985194034
 21
-1044.805534816586
 31
0.0
 11
-911.0861977081403
 21
-1045.105010892961
 31
0.0
  0
SPLINE
  5
E6
330
47
100
AcDbEntity
  8
0
  6
Continuous
 62
     7
100
AcDbSpline
210
0.0
220
0.0
230
1.0
 70
     8
 71
     3
 72
    11
 73
     7
 74
     5
 42
0.000000001
 43
0.0000000001
 44
0.00000001
 40
0.0
 40
0.0
 40
0.0
 40
0.0
 40
0.6315455436497451
 40
1.232115844060925
 40
1.808493472148428
 40
2.371536280466481
 40
2.371536280466481
 40
2.371536280466481
 40
2.371536280466481
 10
-912.991453596461
 20
-1044.555010892962
 30
0.0
 10
-912.9810203076856
 20
-1044.343999915756
 30
0.0
 10
-912.9606654342429
 20
-1043.932327361177
 30
0.0
 10
-912.7830279485913
 20
-1043.351167432927
 30
0.0
 10
-912.5078916104335
 20
-1042.832496123425
 30
0.0
 10
-912.2373700999726
 20
-1042.563187664348
 30
0.0
 10
-912.1036923175358
 20
-1042.430109319675
 30
0.0
 11
-912.991453596461
 21
-1044.555010892962
 31
0.0
 11
-912.9337053001141
 21
-1043.926111132574
 31
0.0
 11
-912.762294488027
 21
-1043.350521850502
 31
0.0
 11
-912.4826636475868
 21
-1042.846520098559
 31
0.0
 11
-912.1036923175358
 21
-1042.430109319675
 31
0.0
  0
SPLINE
  5
E7
330
47
100
AcDbEntity
  8
0
  6
Continuous
 62
     7
100
AcDbSpline
210
0.0
220
0.0
230
1.0
 70
     8
 71
     3
 72
     9
 73
     5
 74
     3
 42
0.000000001
 43
0.0000000001
 44
0.00000001
 40
0.0
 40
0.0
 40
0.0
 40
0.0
 40
0.5745770341056947
 40
1.163297581343443
 40
1.163297581343443
 40
1.163297581343443
 40
1.163297581343443
 10
-912.1036923175358
 20
-1042.430109319675
 30
0.0
 10
-911.94991804864
 20
-1042.313218531252
 30
0.0
 10
-911.6385842670021
 20
-1042.07655964373
 30
0.0
 10
-911.2646026286625
 20
-1041.961885765523
 30
0.0
 10
-911.0753383483807
 20
-1041.903851726101
 30
0.0
 11
-912.1036923175358
 21
-1042.430109319675
 31
0.0
 11
-911.6270860662562
 21
-1042.109196168312
 31
0.0
 11
-911.0753383483807
 21
-1041.903851726101
 31
0.0
  0
SPLINE
  5
E8
330
47
100
AcDbEntity
  8
0
  6
Continuous
 62
     7
100
AcDbSpline
210
0.0
220
0.0
230
1.0
 70
     8
 71
     3
 72
    19
 73
    15
 74
    13
 42
0.000000001
 43
0.0000000001
 44
0.00000001
 40
0.0
 40
0.0
 40
0.0
 40
0.0
 40
0.3941644373864129
 40
0.8074425663546857
 40
1.251886396916355
 40
1.729795108056364
 40
2.234897317656487
 40
2.755052536216568
 40
3.275207754776966
 40
3.780309964377257
 40
4.258218675516881
 40
4.702662506078621
 40
5.115940635047167
 40
5.510105072433503
 40
5.510105072433503
 40
5.510105072433503
 40
5.510105072433503
 10
-961.7719773017841
 20
-1060.849971197803
 30
0.0
 10
-961.8807757798811
 20
-1060.925930161979
 30
0.0
 10
-962.1036485626446
 20
-1061.081531455598
 30
0.0
 10
-962.525264956827
 20
-1061.158583583963
 30
0.0
 10
-962.9721950307489
 20
-1061.118351705456
 30
0.0
 10
-963.4248649279648
 20
-1060.956464261862
 30
0.0
 10
-963.8521817300518
 20
-1060.688390710443
 30
0.0
 10
-964.2279461914479
 20
-1060.331151336092
 30
0.0
 10
-964.5278408380152
 20
-1059.908206774718
 30
0.0
 10
-964.7321195869872
 20
-1059.446976603292
 30
0.0
 10
-964.8276794744784
 20
-1058.97582281933
 30
0.0
 10
-964.8036515540073
 20
-1058.527729353564
 30
0.0
 10
-964.667158811321
 20
-1058.121444791314
 30
0.0
 10
-964.4813145016269
 20
-1057.923086699905
 30
0.0
 10
-964.3905919846175
 20
-1057.82625541373
 30
0.0
 11
-961.7719773017841
 21
-1060.849971197803
 31
0.0
 11
-962.1100643384697
 21
-1061.052610689156
 31
0.0
 11
-962.5143379336848
 21
-1061.138410900212
 31
0.0
 11
-962.9572483022317
 21
-1061.101522878109
 31
0.0
 11
-963.408611478552
 21
-1060.944462316054
 31
0.0
 11
-963.8376677033888
 21
-1060.677930896227
 31
0.0
 11
-964.2151780622257
 21
-1060.320093811827
 31
0.0
 11
-964.5154148743998
 21
-1059.895335872976
 31
0.0
 11
-964.7179188199686
 21
-1059.432604424017
 31
0.0
 11
-964.80888800812
 21
-1058.963433512837
 31
0.0
 11
-964.7821247717415
 21
-1058.519796217381
 31
0.0
 11
-964.6394512153688
 21
-1058.131926300634
 31
0.0
 11
-964.3905919846175
 21
-1057.82625541373
 31
0.0
  0
SPLINE
  5
E9
330
47
100
AcDbEntity
  8
0
  6
Continuous
 62
     7
100
AcDbSpline
210
0.0
220
0.0
230
1.0
 70
     8
 71
     3
 72
    17
 73
    13
 74
    11
 42
0.000000001
 43
0.0000000001
 44
0.00000001
 40
0.0
 40
0.0
 40
0.0
 40
0.0
 40
0.3653522826150132
 40
0.7461405152716358
 40
1.152800120589615
 40
1.588562857861253
 40
2.049955914031792
 40
2.528535877774922
 40
3.012912096484908
 40
3.490759028505685
 40
3.950806000000413
 40
4.38485294051214
 40
4.38485294051214
 40
4.38485294051214
 40
4.38485294051214
 10
-964.3905919846175
 20
-1057.82625541373
 30
0.0
 10
-964.2904478209668
 20
-1057.755136488672
 30
0.0
 10
-964.0859284462798
 20
-1057.609893911537
 30
0.0
 10
-963.7018614651497
 20
-1057.524813109594
 30
0.0
 10
-963.291406852911
 20
-1057.540733760395
 30
0.0
 10
-962.8700564466093
 20
-1057.663021976958
 30
0.0
 10
-962.4630930019662
 20
-1057.880557919441
 30
0.0
 10
-962.0923146486367
 20
-1058.18133686341
 30
0.0
 10
-961.7776688279637
 20
-1058.548047012519
 30
0.0
 10
-961.5398078802106
 20
-1058.960224610838
 30
0.0
 10
-961.3814533271546
 20
-1059.394775039749
 30
0.0
 10
-961.3597634155898
 20
-1059.693226851614
 30
0.0
 10
-961.3492338356332
 20
-1059.838113305767
 30
0.0
 11
-964.3905919846175
 21
-1057.82625541373
 31
0.0
 11
-964.0795943578455
 21
-1057.634519213234
 31
0.0
 11
-963.7100397410779
 21
-1057.542709258841
 31
0.0
 11
-963.303604366062
 21
-1057.556211949763
 31
0.0
 11
-962.8841285752349
 21
-1057.674234088253
 31
0.0
 11
-962.4762173272708
 21
-1057.889854047235
 31
0.0
 11
-962.1037969898387
 21
-1058.190423297672
 31
0.0
 11
-961.7887129443208
 21
-1058.558312364483
 31
0.0
 11
-961.5494461596484
 21
-1058.971941541048
 31
0.0
 11
-961.4000321093365
 21
-1059.407049179383
 31
0.0
 11
-961.3492338356332
 21
-1059.838113305767
 31
0.0
  0
SPLINE
  5
EA
330
47
100
AcDbEntity
  8
0
  6
Continuous
 62
     7
100
AcDbSpline
210
0.0
220
0.0
230
1.0
 70
     8
 71
     3
 72
    15
 73
    11
 74
     9
 42
0.000000001
 43
0.0000000001
 44
0.00000001
 40
0.0
 40
0.0
 40
0.0
 40
0.0
 40
0.3493105228472092
 40
0.7122117162929981
 40
1.098224939685617
 40
1.510872873728742
 40
1.947918103793859
 40
2.402677218367224
 40
2.865629346064452
 40
3.326033933391977
 40
3.326033933391977
 40
3.326033933391977
 40
3.326033933391977
 10
-963.6405919845935
 20
-1057.17673636087
 30
0.0
 10
-963.545214116962
 20
-1057.108364971065
 30
0.0
 10
-963.3507474952902
 20
-1056.96896206854
 30
0.0
 10
-962.9872889660566
 20
-1056.88043406795
 30
0.0
 10
-962.5973530921368
 20
-1056.884216629724
 30
0.0
 10
-962.194447323674
 20
-1056.986054255191
 30
0.0
 10
-961.800546064866
 20
-1057.176615313349
 30
0.0
 10
-961.4365344088362
 20
-1057.447142244918
 30
0.0
 10
-961.1145235063893
 20
-1057.779676728471
 30
0.0
 10
-960.9536270676924
 20
-1058.042975761546
 30
0.0
 10
-960.8734008107858
 20
-1058.174262061092
 30
0.0
 11
-963.6405919845935
 21
-1057.17673636087
 31
0.0
 11
-963.3445379822741
 21
-1056.991345227033
 31
0.0
 11
-962.994102865795
 21
-1056.897045125884
 31
0.0
 11
-962.6080940865576
 21
-1056.89889803062
 31
0.0
 11
-962.2072289970963
 21
-1056.996803591508
 31
0.0
 11
-961.8130220132307
 21
-1057.185508090011
 31
0.0
 11
-961.4466300862284
 21
-1057.454882937244
 31
0.0
 11
-961.1277178479138
 21
-1057.790471459338
 31
0.0
 11
-960.8734008107858
 21
-1058.174262061092
 31
0.0
  0
SPLINE
  5
EB
330
47
100
AcDbEntity
  8
0
  6
Continuous
 62
     7
100
AcDbSpline
210
0.0
220
0.0
230
1.0
 70
     8
 71
     3
 72
    11
 73
     7
 74
     5
 42
0.000000001
 43
0.0000000001
 44
0.00000001
 40
0.0
 40
0.0
 40
0.0
 40
0.0
 40
0.4716197187570748
 40
0.9104101068622259
 40
1.31884488880596
 40
1.708740703817372
 40
1.708740703817372
 40
1.708740703817372
 40
1.708740703817372
 10
-960.6883705654798
 20
-1058.614379939717
 30
0.0
 10
-960.651473121453
 20
-1058.768110888345
 30
0.0
 10
-960.5802466695282
 20
-1059.064871615026
 30
0.0
 10
-960.6121129963326
 20
-1059.508692654539
 30
0.0
 10
-960.7479824778079
 20
-1059.908865756568
 30
0.0
 10
-960.932070665623
 20
-1060.104773149884
 30
0.0
 10
-961.0219773017602
 20
-1060.200452144943
 30
0.0
 11
-960.6883705654798
 21
-1058.614379939717
 31
0.0
 11
-960.6026953840227
 21
-1059.078152429709
 31
0.0
 11
-960.6323143005313
 21
-1059.515942021588
 31
0.0
 11
-960.7752534227166
 21
-1059.898548060841
 31
0.0
 11
-961.0219773017602
 21
-1060.200452144943
 31
0.0
  0
SPLINE
  5
EC
330
47
100
AcDbEntity
  8
0
  6
Continuous
 62
     7
100
AcDbSpline
210
0.0
220
0.0
230
1.0
 70
     8
 71
     3
 72
    11
 73
     7
 74
     5
 42
0.000000001
 43
0.0000000001
 44
0.00000001
 40
0.0
 40
0.0
 40
0.0
 40
0.0
 40
0.3007359728971578
 40
0.5867218291873163
 40
0.8611873651311065
 40
1.129302987313718
 40
1.129302987313718
 40
1.129302987313718
 40
1.129302987313718
 10
-961.3492338356332
 20
-1059.838113305767
 30
0.0
 10
-961.354202068379
 20
-1059.938594723394
 30
0.0
 10
-961.3638948728722
 20
-1060.134629271924
 30
0.0
 10
-961.4484841479808
 20
-1060.411372094952
 30
0.0
 10
-961.5795014545181
 20
-1060.658358429643
 30
0.0
 10
-961.7083212151057
 20
-1060.786600557677
 30
0.0
 10
-961.7719773017841
 20
-1060.849971197803
 30
0.0
 11
-961.3492338356332
 21
-1059.838113305767
 31
0.0
 11
-961.3767330243697
 21
-1060.13758938214
 31
0.0
 11
-961.4583572206009
 21
-1060.411679516458
 31
0.0
 11
-961.5915147636664
 21
-1060.651680350715
 31
0.0
 11
-961.7719773017841
 21
-1060.849971197803
 31
0.0
  0
ENDBLK
  5
49
330
47
100
AcDbEntity
  8
0
100
AcDbBlockEnd
  0
BLOCK
  5
4C
330
4A
100
AcDbEntity
  8
0
100
AcDbBlockBegin
  2
Allg1
 70
     0
 10
-907.99999999997
 20
-1084.000000000095
 30
0.0
  3
Allg1
  1

  0
INSERT
  5
4B
330
4A
100
AcDbEntity
  8
0
100
AcDbBlockReference
  2
HC-RBO_10-select__1
 10
-964.9293608547118
 20
-1133.060119405301
 30
0.0
  0
MTEXT
  5
EE
330
4A
100
AcDbEntity
  8
1
 62
     6
100
AcDbMText
 10
-907.99999999997
 20
-1139.310118585164
 30
0.0
 40
5.0
 41
0.0
 71
     2
 72
     1
  1
 
  7
CONVERTER_11
 73
     1
 44
1.32052821128451
  0
ENDBLK
  5
4D
330
4A
100
AcDbEntity
  8
0
100
AcDbBlockEnd
  0
BLOCK
  5
4F
330
4E
100
AcDbEntity
  8
0
100
AcDbBlockBegin
  2
HC-RBO_10-select__2
 70
     0
 10
-1121.549998991093
 20
-1099.649999622139
 30
0.0
  3
HC-RBO_10-select__2
  1

  0
LINE
  5
EF
330
4E
100
AcDbEntity
  8
1
  6
DOT_CENTER
 62
     2
100
AcDbLine
 10
-1118.549998990884
 20
-1098.349999621956
 30
0.0
 11
-1118.549998990884
 21
-1096.849999621906
 31
0.0
  0
LINE
  5
F0
330
4E
100
AcDbEntity
  8
1
  6
DOT_CENTER
 62
     2
100
AcDbLine
 10
-1118.549998990836
 20
-1061.649999622071
 30
0.0
 11
-1118.549998990836
 21
-1060.149999622021
 31
0.0
  0
LINE
  5
F1
330
4E
100
AcDbEntity
  8
1
  6
DOT_CENTER
 62
     2
100
AcDbLine
 10
-1101.749998990839
 20
-1077.049999614311
 30
0.0
 11
-1101.749998990839
 21
-1081.449999614311
 31
0.0
  0
LINE
  5
F2
330
4E
100
AcDbEntity
  8
1
  6
DOT_CENTER
 62
     2
100
AcDbLine
 10
-1099.549998990839
 20
-1079.249999614311
 30
0.0
 11
-1103.949998990839
 21
-1079.249999614311
 31
0.0
  0
LINE
  5
F3
330
4E
100
AcDbEntity
  8
0
  6
Continuous
 62
     7
100
AcDbLine
 10
-1064.199961590974
 20
-1066.923233925741
 30
0.0
 11
-1083.749998990839
 21
-1078.21078438756
 31
0.0
  0
LINE
  5
F4
330
4E
100
AcDbEntity
  8
0
  6
Continuous
 62
     7
100
AcDbLine
 10
-1062.399941790209
 20
-1090.537538659558
 30
0.0
 11
-1062.399941790211
 21
-1067.962460599539
 31
0.0
  0
LINE
  5
F5
330
4E
100
AcDbEntity
  8
0
  6
Continuous
 62
     7
100
AcDbLine
 10
-1018.899998991177
 20
-1099.64999962213
 30
0.0
 11
-1018.899998991012
 21
-1058.849999622416
 31
0.0
  0
LINE
  5
F6
330
4E
100
AcDbEntity
  8
0
  6
Continuous
 62
     7
100
AcDbLine
 10
-1010.399998991091
 20
-1099.649999622139
 30
0.0
 11
-1010.399998991029
 21
-1058.849999622436
 31
0.0
  0
LINE
  5
F7
330
4E
100
AcDbEntity
  8
0
  6
Continuous
 62
     7
100
AcDbLine
 10
-1015.399998991077
 20
-1058.849999622422
 30
0.0
 11
-1015.39999899119
 21
-1099.649999622132
 31
0.0
  0
LINE
  5
F8
330
4E
100
AcDbEntity
  8
0
  6
Continuous
 62
     7
100
AcDbLine
 10
-1018.899998991177
 20
-1099.64999962213
 30
0.0
 11
-1015.39999899119
 21
-1099.649999622132
 31
0.0
  0
LINE
  5
F9
330
4E
100
AcDbEntity
  8
0
  6
Continuous
 62
     7
100
AcDbLine
 10
-1120.549998990834
 20
-1060.149999622021
 30
0.0
 11
-1116.549998990834
 21
-1060.149999622026
 31
0.0
  0
LINE
  5
FA
330
4E
100
AcDbEntity
  8
0
  6
Continuous
 62
     7
100
AcDbLine
 10
-1010.399998991029
 20
-1058.849999622436
 30
0.0
 11
-1015.399998991077
 21
-1058.849999622422
 31
0.0
  0
LINE
  5
FB
330
4E
100
AcDbEntity
  8
0
  6
Continuous
 62
     7
100
AcDbLine
 10
-1015.399998991077
 20
-1058.849999622422
 30
0.0
 11
-1018.899998991012
 21
-1058.849999622416
 31
0.0
  0
LINE
  5
FC
330
4E
100
AcDbEntity
  8
0
  6
Continuous
 62
     7
100
AcDbLine
 10
-1018.899998991012
 20
-1058.849999622416
 30
0.0
 11
-1110.360659162697
 21
-1058.849999622162
 31
0.0
  0
LINE
  5
FD
330
4E
100
AcDbEntity
  8
0
  6
Continuous
 62
     7
100
AcDbLine
 10
-1081.899998990828
 20
-1060.24999962579
 30
0.0
 11
-1079.687459682265
 21
-1060.249999625804
 31
0.0
  0
LINE
  5
FE
330
4E
100
AcDbEntity
  8
0
  6
Continuous
 62
     7
100
AcDbLine
 10
-1075.712538299394
 20
-1060.249999625822
 30
0.0
 11
-1073.499998990828
 21
-1060.249999625829
 31
0.0
  0
LINE
  5
FF
330
4E
100
AcDbEntity
  8
0
  6
Continuous
 62
     7
100
AcDbLine
 10
-1079.687459682265
 20
-1060.249999625804
 30
0.0
 11
-1075.712538299394
 21
-1060.249999625822
 31
0.0
  0
LINE
  5
100
330
4E
100
AcDbEntity
  8
0
  6
Continuous
 62
     7
100
AcDbLine
 10
-1120.549998990836
 20
-1061.649999622065
 30
0.0
 11
-1121.549998990991
 21
-1061.649999622187
 31
0.0
  0
LINE
  5
101
330
4E
100
AcDbEntity
  8
0
  6
Continuous
 62
     7
100
AcDbLine
 10
-1119.792639678225
 20
-1061.649999622192
 30
0.0
 11
-1120.549998990836
 21
-1061.649999622065
 31
0.0
  0
LINE
  5
102
330
4E
100
AcDbEntity
  8
0
  6
Continuous
 62
     7
100
AcDbLine
 10
-1120.549998990836
 20
-1061.649999622065
 30
0.0
 11
-1120.549998990834
 21
-1060.149999622021
 31
0.0
  0
LINE
  5
103
330
4E
100
AcDbEntity
  8
0
  6
Continuous
 62
     7
100
AcDbLine
 10
-1116.549998990836
 20
-1061.649999622071
 30
0.0
 11
-1116.549998990834
 21
-1060.149999622026
 31
0.0
  0
LINE
  5
104
330
4E
100
AcDbEntity
  8
0
  6
Continuous
 62
     7
100
AcDbLine
 10
-1115.249998990825
 20
-1061.649999622205
 30
0.0
 11
-1116.549998990836
 21
-1061.649999622071
 31
0.0
  0
LINE
  5
105
330
4E
100
AcDbEntity
  8
0
  6
Continuous
 62
     7
100
AcDbLine
 10
-1083.749998990839
 20
-1080.289214871542
 30
0.0
 11
-1064.199961590971
 21
-1091.576765333357
 31
0.0
  0
LINE
  5
106
330
4E
100
AcDbEntity
  8
0
  6
Continuous
 62
     7
100
AcDbLine
 10
-1083.749998990839
 20
-1078.21078438756
 30
0.0
 11
-1083.749998990839
 21
-1080.289214871542
 31
0.0
  0
LINE
  5
107
330
4E
100
AcDbEntity
  8
0
  6
Continuous
 62
     7
100
AcDbLine
 10
-1115.249998990876
 20
-1099.649999621983
 30
0.0
 11
-1115.24999899091
 21
-1096.849999621921
 31
0.0
  0
LINE
  5
108
330
4E
100
AcDbEntity
  8
0
  6
Continuous
 62
     7
100
AcDbLine
 10
-1015.39999899119
 20
-1099.649999622132
 30
0.0
 11
-1010.399998991091
 21
-1099.649999622139
 31
0.0
  0
LINE
  5
109
330
4E
100
AcDbEntity
  8
0
  6
Continuous
 62
     7
100
AcDbLine
 10
-1110.360659162893
 20
-1099.649999622136
 30
0.0
 11
-1018.899998991177
 21
-1099.64999962213
 31
0.0
  0
LINE
  5
10A
330
4E
100
AcDbEntity
  8
0
  6
Continuous
 62
     7
100
AcDbLine
 10
-1075.712538299401
 20
-1061.649999625992
 30
0.0
 11
-1073.499998990834
 21
-1061.649999625998
 31
0.0
  0
LINE
  5
10B
330
4E
100
AcDbEntity
  8
0
  6
Continuous
 62
     7
100
AcDbLine
 10
-1079.687459682271
 20
-1061.649999625973
 30
0.0
 11
-1075.712538299401
 21
-1061.649999625992
 31
0.0
  0
LINE
  5
10C
330
4E
100
AcDbEntity
  8
0
  6
Continuous
 62
     7
100
AcDbLine
 10
-1079.687459682271
 20
-1061.649999625973
 30
0.0
 11
-1079.687459682265
 21
-1060.249999625804
 31
0.0
  0
LINE
  5
10D
330
4E
100
AcDbEntity
  8
0
  6
Continuous
 62
     7
100
AcDbLine
 10
-1081.899998990834
 20
-1061.649999625959
 30
0.0
 11
-1079.687459682271
 21
-1061.649999625973
 31
0.0
  0
LINE
  5
10E
330
4E
100
AcDbEntity
  8
0
  6
Continuous
 62
     7
100
AcDbLine
 10
-1062.399941790211
 20
-1067.962460599539
 30
0.0
 11
-1064.199961590974
 21
-1066.923233925741
 31
0.0
  0
LINE
  5
10F
330
4E
100
AcDbEntity
  8
0
  6
Continuous
 62
     7
100
AcDbLine
 10
-1081.899998990834
 20
-1061.649999625959
 30
0.0
 11
-1081.899998990828
 21
-1060.24999962579
 31
0.0
  0
LINE
  5
110
330
4E
100
AcDbEntity
  8
0
  6
Continuous
 62
     7
100
AcDbLine
 10
-1075.712538299401
 20
-1061.649999625992
 30
0.0
 11
-1075.712538299394
 21
-1060.249999625822
 31
0.0
  0
LINE
  5
111
330
4E
100
AcDbEntity
  8
0
  6
Continuous
 62
     7
100
AcDbLine
 10
-1073.499998990834
 20
-1061.649999625998
 30
0.0
 11
-1073.499998990828
 21
-1060.249999625829
 31
0.0
  0
LINE
  5
112
330
4E
100
AcDbEntity
  8
0
  6
Continuous
 62
     7
100
AcDbLine
 10
-1064.199961590971
 20
-1091.576765333357
 30
0.0
 11
-1062.399941790209
 21
-1090.537538659558
 31
0.0
  0
LINE
  5
113
330
4E
100
AcDbEntity
  8
0
  6
Continuous
 62
     7
100
AcDbLine
 10
-1121.549998991093
 20
-1096.849999621906
 30
0.0
 11
-1121.549998990991
 21
-1061.649999622187
 31
0.0
  0
LINE
  5
114
330
4E
100
AcDbEntity
  8
0
  6
Continuous
 62
     7
100
AcDbLine
 10
-1116.86065916264
 20
-1061.649999622201
 30
0.0
 11
-1116.860659162777
 21
-1096.849999621916
 31
0.0
  0
LINE
  5
115
330
4E
100
AcDbEntity
  8
0
  6
Continuous
 62
     7
100
AcDbLine
 10
-1110.360659162893
 20
-1099.649999622136
 30
0.0
 11
-1110.360659162697
 21
-1058.849999622162
 31
0.0
  0
LINE
  5
116
330
4E
100
AcDbEntity
  8
0
  6
Continuous
 62
     7
100
AcDbLine
 10
-1116.860659162777
 20
-1096.849999621916
 30
0.0
 11
-1119.792639678399
 21
-1096.849999621912
 31
0.0
  0
LINE
  5
117
330
4E
100
AcDbEntity
  8
0
  6
Continuous
 62
     7
100
AcDbLine
 10
-1119.792639678399
 20
-1096.849999621912
 30
0.0
 11
-1119.792639678225
 21
-1061.649999622192
 31
0.0
  0
LINE
  5
118
330
4E
100
AcDbEntity
  8
0
  6
Continuous
 62
     7
100
AcDbLine
 10
-1119.792639678225
 20
-1061.649999622192
 30
0.0
 11
-1116.86065916264
 21
-1061.649999622201
 31
0.0
  0
LINE
  5
119
330
4E
100
AcDbEntity
  8
0
  6
Continuous
 62
     7
100
AcDbLine
 10
-1116.549998990836
 20
-1061.649999622071
 30
0.0
 11
-1116.86065916264
 21
-1061.649999622201
 31
0.0
  0
LINE
  5
11A
330
4E
100
AcDbEntity
  8
0
  6
Continuous
 62
     7
100
AcDbLine
 10
-1116.549998990882
 20
-1096.849999621911
 30
0.0
 11
-1115.24999899091
 21
-1096.849999621921
 31
0.0
  0
LINE
  5
11B
330
4E
100
AcDbEntity
  8
0
  6
Continuous
 62
     7
100
AcDbLine
 10
-1116.860659162777
 20
-1096.849999621916
 30
0.0
 11
-1116.549998990882
 21
-1096.849999621911
 31
0.0
  0
LINE
  5
11C
330
4E
100
AcDbEntity
  8
0
  6
Continuous
 62
     7
100
AcDbLine
 10
-1110.360659162893
 20
-1099.649999622136
 30
0.0
 11
-1115.249998990876
 21
-1099.649999621983
 31
0.0
  0
LINE
  5
11D
330
4E
100
AcDbEntity
  8
0
  6
Continuous
 62
     7
100
AcDbLine
 10
-1110.360659162697
 20
-1058.849999622162
 30
0.0
 11
-1115.249998990822
 21
-1058.849999622143
 31
0.0
  0
LINE
  5
11E
330
4E
100
AcDbEntity
  8
0
  6
Continuous
 62
     7
100
AcDbLine
 10
-1115.249998990822
 20
-1058.849999622143
 30
0.0
 11
-1115.249998990825
 21
-1061.649999622205
 31
0.0
  0
LINE
  5
11F
330
4E
100
AcDbEntity
  8
0
  6
Continuous
 62
     7
100
AcDbLine
 10
-1116.549998990884
 20
-1098.349999621956
 30
0.0
 11
-1116.549998990882
 21
-1096.849999621911
 31
0.0
  0
LINE
  5
120
330
4E
100
AcDbEntity
  8
0
  6
Continuous
 62
     7
100
AcDbLine
 10
-1120.549998990882
 20
-1096.849999621906
 30
0.0
 11
-1121.549998991093
 21
-1096.849999621906
 31
0.0
  0
LINE
  5
121
330
4E
100
AcDbEntity
  8
0
  6
Continuous
 62
     7
100
AcDbLine
 10
-1119.792639678399
 20
-1096.849999621912
 30
0.0
 11
-1120.549998990882
 21
-1096.849999621906
 31
0.0
  0
LINE
  5
122
330
4E
100
AcDbEntity
  8
0
  6
Continuous
 62
     7
100
AcDbLine
 10
-1120.549998990884
 20
-1098.34999962195
 30
0.0
 11
-1116.549998990884
 21
-1098.349999621956
 31
0.0
  0
LINE
  5
123
330
4E
100
AcDbEntity
  8
0
  6
Continuous
 62
     7
100
AcDbLine
 10
-1120.549998990884
 20
-1098.34999962195
 30
0.0
 11
-1120.549998990882
 21
-1096.849999621906
 31
0.0
  0
CIRCLE
  5
124
330
4E
100
AcDbEntity
  8
0
  6
Continuous
 62
     7
100
AcDbCircle
 10
-1101.749998990839
 20
-1079.249999614311
 30
0.0
 40
2.0
  0
ENDBLK
  5
50
330
4E
100
AcDbEntity
  8
0
100
AcDbBlockEnd
  0
BLOCK
  5
53
330
51
100
AcDbEntity
  8
0
100
AcDbBlockBegin
  2
Drfsicht1
 70
     0
 10
-1065.974999881954
 20
-1079.250000000047
 30
0.0
  3
Drfsicht1
  1

  0
INSERT
  5
52
330
51
100
AcDbEntity
  8
0
100
AcDbBlockReference
  2
HC-RBO_10-select__2
 10
-1121.549998991093
 20
-1099.649999622139
 30
0.0
  0
MTEXT
  5
125
330
51
100
AcDbEntity
  8
1
 62
     6
100
AcDbMText
 10
-1065.974999881953
 20
-1104.649999618918
 30
0.0
 40
5.0
 41
0.0
 71
     2
 72
     1
  1
 
  7
CONVERTER_11
 73
     1
 44
1.32052821128451
  0
DIMENSION
  5
130
330
51
100
AcDbEntity
  8
1
100
AcDbDimension
  2
*D17
 10
-1132.7286563223
 20
-1099.649999621983
 30
0.0
 11
-1136.6536563223
 21
-1077.59869596305
 31
0.0
 70
    32
  1
<>
 71
     5
 42
-1.0
 53
90.0
  3
ME10_DIM_10
100
AcDbAlignedDimension
 13
-1115.249998990822
 23
-1058.849999622143
 33
0.0
 14
-1115.249998990876
 24
-1099.649999621983
 34
0.0
 50
90.0
100
AcDbRotatedDimension
  0
ENDBLK
  5
54
330
51
100
AcDbEntity
  8
0
100
AcDbBlockEnd
  0
BLOCK
  5
56
330
55
100
AcDbEntity
  8
0
100
AcDbBlockBegin
  2
HC-RBO_10-select__3
 70
     0
 10
-947.6000005089355
 20
-999.8500012897204
 30
0.0
  3
HC-RBO_10-select__3
  1

  0
LINE
  5
131
330
55
100
AcDbEntity
  8
1
  6
DOT_CENTER
 62
     2
100
AcDbLine
 10
-839.4500005091259
 20
-942.950001289772
 30
0.0
 11
-839.4500005091259
 21
-947.3500012897721
 31
0.0
  0
LINE
  5
132
330
55
100
AcDbEntity
  8
1
  6
DOT_CENTER
 62
     2
100
AcDbLine
 10
-837.2500005091258
 20
-945.150001289772
 30
0.0
 11
-841.6500005091259
 21
-945.150001289772
 31
0.0
  0
LINE
  5
133
330
55
100
AcDbEntity
  8
0
  6
Continuous
 62
     7
100
AcDbLine
 10
-847.639340337262
 20
-936.150001289679
 30
0.0
 11
-842.7500005091341
 21
-941.0393411178148
 31
0.0
  0
LINE
  5
134
330
55
100
AcDbEntity
  8
0
  6
Continuous
 62
     7
100
AcDbLine
 10
-842.7500005091341
 20
-941.0393411178148
 30
0.0
 11
-841.1393403373188
 21
-942.650001289634
 31
0.0
  0
LINE
  5
135
330
55
100
AcDbEntity
  8
0
  6
Continuous
 62
     7
100
AcDbLine
 10
-837.3160259126005
 20
-947.6500012898197
 30
0.0
 11
-842.7500005091362
 21
-947.6500012898027
 31
0.0
  0
LINE
  5
136
330
55
100
AcDbEntity
  8
0
  6
Continuous
 62
     7
100
AcDbLine
 10
-842.7500005091349
 20
-942.65000128972
 30
0.0
 11
-842.7500005091341
 21
-941.0393411178148
 31
0.0
  0
LINE
  5
137
330
55
100
AcDbEntity
  8
0
  6
Continuous
 62
     7
100
AcDbLine
 10
-838.2073598217344
 20
-942.6500012897558
 30
0.0
 11
-836.4500005089686
 21
-944.4073606025245
 31
0.0
  0
LINE
  5
138
330
55
100
AcDbEntity
  8
0
  6
Continuous
 62
     7
100
AcDbLine
 10
-836.450000508972
 20
-947.1500012899106
 30
0.0
 11
-837.3160259126005
 21
-947.6500012898197
 31
0.0
  0
LINE
  5
139
330
55
100
AcDbEntity
  8
0
  6
Continuous
 62
     7
100
AcDbLine
 10
-891.850000655935
 20
-995.5772072427585
 30
0.0
 11
-903.589405818105
 21
-999.8500012897204
 31
0.0
  0
LINE
  5
13A
330
55
100
AcDbEntity
  8
0
  6
Continuous
 62
     7
100
AcDbLine
 10
-942.6000005088825
 20
-939.6500012896181
 30
0.0
 11
-939.1000005089472
 21
-936.1500012896607
 31
0.0
  0
LINE
  5
13B
330
55
100
AcDbEntity
  8
0
  6
Continuous
 62
     7
100
AcDbLine
 10
-942.6000005091039
 20
-999.8500012896441
 30
0.0
 11
-942.6000005088936
 21
-941.1500012896763
 31
0.0
  0
LINE
  5
13C
330
55
100
AcDbEntity
  8
0
  6
Continuous
 62
     7
100
AcDbLine
 10
-942.6000005091039
 20
-999.8500012896441
 30
0.0
 11
-903.589405818105
 21
-999.8500012897204
 31
0.0
  0
LINE
  5
13D
330
55
100
AcDbEntity
  8
0
  6
Continuous
 62
     7
100
AcDbLine
 10
-884.6727262554829
 20
-942.6500012897433
 30
0.0
 11
-890.6601551898441
 21
-952.9996227652098
 31
0.0
  0
LINE
  5
13E
330
55
100
AcDbEntity
  8
0
  6
Continuous
 62
     7
100
AcDbLine
 10
-842.7500005091349
 20
-942.65000128972
 30
0.0
 11
-842.7500005091362
 21
-947.6500012898027
 31
0.0
  0
LINE
  5
13F
330
55
100
AcDbEntity
  8
0
  6
Continuous
 62
     7
100
AcDbLine
 10
-891.850000655935
 20
-995.5772072427585
 30
0.0
 11
-891.850000655935
 21
-952.910746112563
 31
0.0
  0
LINE
  5
140
330
55
100
AcDbEntity
  8
0
  6
Continuous
 62
     7
100
AcDbLine
 10
-842.7500005091362
 20
-947.6500012898027
 30
0.0
 11
-876.1000005091535
 21
-947.6500012896818
 31
0.0
  0
LINE
  5
141
330
55
100
AcDbEntity
  8
0
  6
Continuous
 62
     7
100
AcDbLine
 10
-887.565309790268
 20
-947.6500012896407
 30
0.0
 11
-888.8127082162805
 21
-947.6500012896363
 31
0.0
  0
LINE
  5
142
330
55
100
AcDbEntity
  8
0
  6
Continuous
 62
     7
100
AcDbLine
 10
-890.6601551898441
 20
-952.9996227652098
 30
0.0
 11
-890.3715530403562
 21
-953.5000014334312
 31
0.0
  0
LINE
  5
143
330
55
100
AcDbEntity
  8
0
  6
Continuous
 62
     7
100
AcDbLine
 10
-890.3715530403562
 20
-953.5000014334312
 30
0.0
 11
-876.1000005091628
 21
-953.5000014334714
 31
0.0
  0
LINE
  5
144
330
55
100
AcDbEntity
  8
0
  6
Continuous
 62
     7
100
AcDbLine
 10
-876.1000005091628
 20
-953.5000014334714
 30
0.0
 11
-876.1000005091455
 21
-942.6500012897367
 31
0.0
  0
LINE
  5
145
330
55
100
AcDbEntity
  8
0
  6
Continuous
 62
     7
100
AcDbLine
 10
-884.6727262554829
 20
-942.6500012897433
 30
0.0
 11
-876.1000005091455
 21
-942.6500012897367
 31
0.0
  0
LINE
  5
146
330
55
100
AcDbEntity
  8
0
  6
Continuous
 62
     7
100
AcDbLine
 10
-885.925956870462
 20
-942.6500012898609
 30
0.0
 11
-884.6727262554829
 21
-942.6500012897433
 31
0.0
  0
LINE
  5
147
330
55
100
AcDbEntity
  8
0
  6
Continuous
 62
     7
100
AcDbLine
 10
-885.925956870462
 20
-942.6500012898609
 30
0.0
 11
-891.850000655935
 21
-952.910746112563
 31
0.0
  0
LINE
  5
148
330
55
100
AcDbEntity
  8
0
  6
Continuous
 62
     7
100
AcDbLine
 10
-838.2073598217344
 20
-942.6500012897558
 30
0.0
 11
-841.1393403373188
 21
-942.650001289634
 31
0.0
  0
LINE
  5
149
330
55
100
AcDbEntity
  8
0
  6
Continuous
 62
     7
100
AcDbLine
 10
-876.1000005091455
 20
-942.6500012897367
 30
0.0
 11
-842.7500005091349
 21
-942.65000128972
 31
0.0
  0
LINE
  5
14A
330
55
100
AcDbEntity
  8
0
  6
Continuous
 62
     7
100
AcDbLine
 10
-942.6000005088936
 20
-941.1500012896763
 30
0.0
 11
-947.6000005089355
 21
-941.1500012896585
 31
0.0
  0
LINE
  5
14B
330
55
100
AcDbEntity
  8
0
  6
Continuous
 62
     7
100
AcDbLine
 10
-947.6000005089355
 20
-941.1500012896585
 30
0.0
 11
-947.6000005089302
 21
-939.650001289612
 31
0.0
  0
LINE
  5
14C
330
55
100
AcDbEntity
  8
0
  6
Continuous
 62
     7
100
AcDbLine
 10
-947.6000005089302
 20
-939.650001289612
 30
0.0
 11
-942.6000005088825
 21
-939.6500012896181
 31
0.0
  0
LINE
  5
14D
330
55
100
AcDbEntity
  8
0
  6
Continuous
 62
     7
100
AcDbLine
 10
-836.4500005089686
 20
-944.4073606025245
 30
0.0
 11
-836.450000508972
 21
-947.1500012899106
 31
0.0
  0
LINE
  5
14E
330
55
100
AcDbEntity
  8
0
  6
Continuous
 62
     7
100
AcDbLine
 10
-876.1000005091319
 20
-936.1500012897395
 30
0.0
 11
-847.639340337262
 21
-936.150001289679
 31
0.0
  0
LINE
  5
14F
330
55
100
AcDbEntity
  8
0
  6
Continuous
 62
     7
100
AcDbLine
 10
-939.1000005089472
 20
-936.1500012896607
 30
0.0
 11
-884.500000509132
 21
-936.1500012897292
 31
0.0
  0
LINE
  5
150
330
55
100
AcDbEntity
  8
0
  6
Continuous
 62
     7
100
AcDbLine
 10
-884.500000509132
 20
-936.1500012897292
 30
0.0
 11
-876.1000005091319
 21
-936.1500012897395
 31
0.0
  0
LINE
  5
151
330
55
100
AcDbEntity
  8
0
  6
Continuous
 62
     7
100
AcDbLine
 10
-876.1000005091319
 20
-936.1500012897395
 30
0.0
 11
-876.1000005091315
 21
-935.8500012899452
 31
0.0
  0
LINE
  5
152
330
55
100
AcDbEntity
  8
0
  6
Continuous
 62
     7
100
AcDbLine
 10
-884.5000005091315
 20
-935.8500012899318
 30
0.0
 11
-884.500000509132
 21
-936.1500012897292
 31
0.0
  0
LINE
  5
153
330
55
100
AcDbEntity
  8
0
  6
Continuous
 62
     7
100
AcDbLine
 10
-878.3000005091316
 20
-935.8500012899394
 30
0.0
 11
-882.3000005091316
 21
-935.8500012899376
 31
0.0
  0
LINE
  5
154
330
55
100
AcDbEntity
  8
0
  6
Continuous
 62
     7
100
AcDbLine
 10
-878.3125398176945
 20
-932.1500012899395
 30
0.0
 11
-882.2874612005651
 21
-932.1500012899376
 31
0.0
  0
ARC
  5
155
330
55
100
AcDbEntity
  8
0
  6
Continuous
 62
     7
100
AcDbCircle
 10
-880.3000005091316
 20
-935.8500012899385
 30
0.0
 40
4.200000000000053
100
AcDbArc
 50
118.2425371844086
 51
179.9999999999085
  0
ARC
  5
156
330
55
100
AcDbEntity
  8
0
  6
Continuous
 62
     7
100
AcDbCircle
 10
-880.3000005091316
 20
-935.8500012899385
 30
0.0
 40
2.0
100
AcDbArc
 50
359.999999999974
 51
179.9999999999739
  0
ARC
  5
157
330
55
100
AcDbEntity
  8
0
  6
Continuous
 62
     7
100
AcDbCircle
 10
-880.3000005091316
 20
-935.8500012899385
 30
0.0
 40
4.200000000000045
100
AcDbArc
 50
359.9999999999085
 51
61.75746281553661
  0
CIRCLE
  5
158
330
55
100
AcDbEntity
  8
0
  6
Continuous
 62
     7
100
AcDbCircle
 10
-839.4500005091259
 20
-945.150001289772
 30
0.0
 40
2.0
  0
ENDBLK
  5
57
330
55
100
AcDbEntity
  8
0
100
AcDbBlockEnd
  0
BLOCK
  5
5A
330
58
100
AcDbEntity
  8
0
100
AcDbBlockBegin
  2
Rckans1
 70
     0
 10
-892.0249996180052
 20
-968.000000000095
 30
0.0
  3
Rckans1
  1

  0
INSERT
  5
59
330
58
100
AcDbEntity
  8
0
100
AcDbBlockReference
  2
HC-RBO_10-select__3
 10
-947.6000005089355
 20
-999.8500012897204
 30
0.0
  0
MTEXT
  5
159
330
58
100
AcDbEntity
  8
1
 62
     6
100
AcDbMText
 10
-892.0249996180064
 20
-1004.850000381701
 30
0.0
 40
5.0
 41
0.0
 71
     2
 72
     1
  1
 
  7
CONVERTER_11
 73
     1
 44
1.32052821128451
  0
ENDBLK
  5
5B
330
58
100
AcDbEntity
  8
0
100
AcDbBlockEnd
  0
BLOCK
  5
5D
330
5C
100
AcDbEntity
  8
0
100
AcDbBlockBegin
  2
HC-RBO_10-select__4
 70
     0
 10
-997.4000003778951
 20
-999.8500012897335
 30
0.0
  3
HC-RBO_10-select__4
  1

  0
LINE
  5
15A
330
5C
100
AcDbEntity
  8
1
  6
DOT_CENTER
 62
     2
100
AcDbLine
 10
-957.9000003780798
 20
-945.150001289845
 30
0.0
 11
-959.4000003781322
 21
-945.150001289845
 31
0.0
  0
LINE
  5
15B
330
5C
100
AcDbEntity
  8
1
  6
DOT_CENTER
 62
     2
100
AcDbLine
 10
-994.6000003779687
 20
-945.150001289772
 30
0.0
 11
-996.1000003780133
 21
-945.150001289772
 31
0.0
  0
LINE
  5
15C
330
5C
100
AcDbEntity
  8
0
  6
Continuous
 62
     7
100
AcDbLine
 10
-961.5000003780355
 20
-997.8427312544628
 30
0.0
 11
-959.4927028269366
 21
-999.8500012897197
 31
0.0
  0
LINE
  5
15D
330
5C
100
AcDbEntity
  8
0
  6
Continuous
 62
     7
100
AcDbLine
 10
-958.0000003815848
 20
-982.3011518619566
 30
0.0
 11
-958.0000003815491
 21
-952.9107461131092
 31
0.0
  0
LINE
  5
15E
330
5C
100
AcDbEntity
  8
0
  6
Continuous
 62
     7
100
AcDbLine
 10
-958.0000003815353
 20
-999.8500012897226
 30
0.0
 11
-959.4927028269366
 21
-999.8500012897197
 31
0.0
  0
LINE
  5
15F
330
5C
100
AcDbEntity
  8
0
  6
Continuous
 62
     7
100
AcDbLine
 10
-956.6000003777816
 20
-952.9107461127154
 30
0.0
 11
-956.6000003780347
 21
-995.5772072427997
 31
0.0
  0
LINE
  5
160
330
5C
100
AcDbEntity
  8
0
  6
Continuous
 62
     7
100
AcDbLine
 10
-958.0000003816349
 20
-995.5772072427983
 30
0.0
 11
-956.6000003780347
 21
-995.5772072427997
 31
0.0
  0
LINE
  5
161
330
5C
100
AcDbEntity
  8
0
  6
Continuous
 62
     7
100
AcDbLine
 10
-958.0000003816349
 20
-995.5772072427983
 30
0.0
 11
-958.0000003815848
 21
-982.3011518619566
 31
0.0
  0
LINE
  5
162
330
5C
100
AcDbEntity
  8
0
  6
Continuous
 62
     7
100
AcDbLine
 10
-958.0000003816349
 20
-995.5772072427983
 30
0.0
 11
-958.0000003815353
 21
-999.8500012897226
 31
0.0
  0
LINE
  5
163
330
5C
100
AcDbEntity
  8
0
  6
Continuous
 62
     7
100
AcDbLine
 10
-959.400000378121
 20
-942.6500012897183
 30
0.0
 11
-994.6000003778313
 21
-942.65000128972
 31
0.0
  0
LINE
  5
164
330
5C
100
AcDbEntity
  8
0
  6
Continuous
 62
     7
100
AcDbLine
 10
-959.4000003781307
 20
-944.4073606025245
 30
0.0
 11
-994.6000003778497
 21
-944.4073606025245
 31
0.0
  0
LINE
  5
165
330
5C
100
AcDbEntity
  8
0
  6
Continuous
 62
     7
100
AcDbLine
 10
-997.4000003778121
 20
-995.5772072427585
 30
0.0
 11
-997.4000003777692
 21
-952.910746112563
 31
0.0
  0
LINE
  5
166
330
5C
100
AcDbEntity
  8
0
  6
Continuous
 62
     7
100
AcDbLine
 10
-996.0000003741902
 20
-982.3011518618885
 30
0.0
 11
-996.0000003742128
 21
-953.5000014334721
 31
0.0
  0
LINE
  5
167
330
5C
100
AcDbEntity
  8
0
  6
Continuous
 62
     7
100
AcDbLine
 10
-996.0000003742118
 20
-995.5772072428146
 30
0.0
 11
-996.0000003741902
 21
-982.3011518618885
 31
0.0
  0
LINE
  5
168
330
5C
100
AcDbEntity
  8
0
  6
Continuous
 62
     7
100
AcDbLine
 10
-996.700000374264
 20
-953.5000014334714
 30
0.0
 11
-996.7000003742535
 21
-942.6500012897367
 31
0.0
  0
LINE
  5
169
330
5C
100
AcDbEntity
  8
0
  6
Continuous
 62
     7
100
AcDbLine
 10
-997.400000377875
 20
-936.150001289679
 30
0.0
 11
-997.4000003778934
 21
-941.0393411178153
 31
0.0
  0
LINE
  5
16A
330
5C
100
AcDbEntity
  8
0
  6
Continuous
 62
     7
100
AcDbLine
 10
-996.1000003780132
 20
-947.150001289772
 30
0.0
 11
-996.1000003780133
 21
-943.150001289772
 31
0.0
  0
LINE
  5
16B
330
5C
100
AcDbEntity
  8
0
  6
Continuous
 62
     7
100
AcDbLine
 10
-996.0000003741876
 20
-999.8500012897221
 30
0.0
 11
-996.0000003742118
 21
-995.5772072428146
 31
0.0
  0
LINE
  5
16C
330
5C
100
AcDbEntity
  8
0
  6
Continuous
 62
     7
100
AcDbLine
 10
-997.4000003778951
 20
-942.6500012897084
 30
0.0
 11
-997.4000003777692
 21
-952.910746112563
 31
0.0
  0
LINE
  5
16D
330
5C
100
AcDbEntity
  8
0
  6
Continuous
 62
     7
100
AcDbLine
 10
-997.4000003778121
 20
-995.5772072427585
 30
0.0
 11
-996.0000003742118
 21
-995.5772072428146
 31
0.0
  0
LINE
  5
16E
330
5C
100
AcDbEntity
  8
0
  6
Continuous
 62
     7
100
AcDbLine
 10
-997.4000003777692
 20
-952.910746112563
 30
0.0
 11
-996.7000003742635
 21
-952.9107461126066
 31
0.0
  0
LINE
  5
16F
330
5C
100
AcDbEntity
  8
0
  6
Continuous
 62
     7
100
AcDbLine
 10
-997.4000003778121
 20
-995.5772072427585
 30
0.0
 11
-997.4000003777838
 21
-999.8500012897204
 31
0.0
  0
LINE
  5
170
330
5C
100
AcDbEntity
  8
0
  6
Continuous
 62
     7
100
AcDbLine
 10
-997.4000003777838
 20
-999.8500012897204
 30
0.0
 11
-996.0000003741876
 21
-999.8500012897221
 31
0.0
  0
LINE
  5
171
330
5C
100
AcDbEntity
  8
0
  6
Continuous
 62
     7
100
AcDbLine
 10
-992.5000003780012
 20
-947.6500012896513
 30
0.0
 11
-994.0000003779629
 21
-947.6500012896514
 31
0.0
  0
LINE
  5
172
330
5C
100
AcDbEntity
  8
0
  6
Continuous
 62
     7
100
AcDbLine
 10
-994.9000003740942
 20
-953.5000014334732
 30
0.0
 11
-996.700000374264
 21
-953.5000014334714
 31
0.0
  0
LINE
  5
173
330
5C
100
AcDbEntity
  8
0
  6
Continuous
 62
     7
100
AcDbLine
 10
-994.6000003740776
 20
-935.8500012899466
 30
0.0
 11
-994.6000003740636
 21
-932.1500012899409
 31
0.0
  0
LINE
  5
174
330
5C
100
AcDbEntity
  8
0
  6
Continuous
 62
     7
100
AcDbLine
 10
-997.4000003778951
 20
-942.6500012897084
 30
0.0
 11
-996.7000003742535
 21
-942.6500012897367
 31
0.0
  0
LINE
  5
175
330
5C
100
AcDbEntity
  8
0
  6
Continuous
 62
     7
100
AcDbLine
 10
-994.6000003779689
 20
-943.150001289772
 30
0.0
 11
-996.1000003780133
 21
-943.150001289772
 31
0.0
  0
LINE
  5
176
330
5C
100
AcDbEntity
  8
0
  6
Continuous
 62
     7
100
AcDbLine
 10
-994.9000003740841
 20
-943.150001289772
 30
0.0
 11
-994.9000003740836
 21
-942.6500012897187
 31
0.0
  0
LINE
  5
177
330
5C
100
AcDbEntity
  8
0
  6
Continuous
 62
     7
100
AcDbLine
 10
-996.7000003742535
 20
-942.6500012897367
 30
0.0
 11
-994.6000003778313
 21
-942.65000128972
 31
0.0
  0
LINE
  5
178
330
5C
100
AcDbEntity
  8
0
  6
Continuous
 62
     7
100
AcDbLine
 10
-996.0000003742471
 20
-936.1500012897395
 30
0.0
 11
-996.0000003742467
 21
-935.8500012899452
 31
0.0
  0
LINE
  5
179
330
5C
100
AcDbEntity
  8
0
  6
Continuous
 62
     7
100
AcDbLine
 10
-994.6000003779689
 20
-943.150001289772
 30
0.0
 11
-994.6000003778497
 21
-944.4073606025245
 31
0.0
  0
LINE
  5
17A
330
5C
100
AcDbEntity
  8
0
  6
Continuous
 62
     7
100
AcDbLine
 10
-994.6000003778313
 20
-942.65000128972
 30
0.0
 11
-994.6000003779689
 21
-943.150001289772
 31
0.0
  0
LINE
  5
17B
330
5C
100
AcDbEntity
  8
0
  6
Continuous
 62
     2
100
AcDbLine
 10
-994.6000003740776
 20
-935.8500012899466
 30
0.0
 11
-996.0000003742467
 21
-935.8500012899452
 31
0.0
  0
LINE
  5
17C
330
5C
100
AcDbEntity
  8
0
  6
Continuous
 62
     7
100
AcDbLine
 10
-994.6000003740776
 20
-935.8500012899466
 30
0.0
 11
-994.6000003740778
 21
-936.1500012897409
 31
0.0
  0
LINE
  5
17D
330
5C
100
AcDbEntity
  8
0
  6
Continuous
 62
     7
100
AcDbLine
 10
-994.6000003740636
 20
-932.1500012899409
 30
0.0
 11
-996.0000003742327
 21
-932.1500012899395
 31
0.0
  0
LINE
  5
17E
330
5C
100
AcDbEntity
  8
0
  6
Continuous
 62
     7
100
AcDbLine
 10
-996.0000003742467
 20
-935.8500012899452
 30
0.0
 11
-996.0000003742327
 21
-932.1500012899395
 31
0.0
  0
LINE
  5
17F
330
5C
100
AcDbEntity
  8
0
  6
Continuous
 62
     7
100
AcDbLine
 10
-994.6000003778497
 20
-947.1500012899106
 30
0.0
 11
-994.6000003778471
 21
-947.6500012898197
 31
0.0
  0
LINE
  5
180
330
5C
100
AcDbEntity
  8
0
  6
Continuous
 62
     7
100
AcDbLine
 10
-994.0000003779629
 20
-947.6500012896514
 30
0.0
 11
-994.6000003778471
 21
-947.6500012898197
 31
0.0
  0
LINE
  5
181
330
5C
100
AcDbEntity
  8
0
  6
Continuous
 62
     7
100
AcDbLine
 10
-997.4000003778951
 20
-942.6500012897084
 30
0.0
 11
-997.4000003778934
 21
-941.0393411178153
 31
0.0
  0
LINE
  5
182
330
5C
100
AcDbEntity
  8
0
  6
Continuous
 62
     7
100
AcDbLine
 10
-997.4000003778934
 20
-941.0393411178153
 30
0.0
 11
-994.6000003778313
 21
-941.0393411178148
 31
0.0
  0
LINE
  5
183
330
5C
100
AcDbEntity
  8
0
  6
Continuous
 62
     7
100
AcDbLine
 10
-996.0000003742471
 20
-936.1500012897395
 30
0.0
 11
-997.400000377875
 21
-936.150001289679
 31
0.0
  0
LINE
  5
184
330
5C
100
AcDbEntity
  8
0
  6
Continuous
 62
     7
100
AcDbLine
 10
-994.6000003740778
 20
-936.1500012897409
 30
0.0
 11
-996.0000003742471
 21
-936.1500012897395
 31
0.0
  0
LINE
  5
185
330
5C
100
AcDbEntity
  8
0
  6
Continuous
 62
     7
100
AcDbLine
 10
-956.6000003779003
 20
-936.1500012898141
 30
0.0
 11
-994.6000003740778
 21
-936.1500012897409
 31
0.0
  0
LINE
  5
186
330
5C
100
AcDbEntity
  8
0
  6
Continuous
 62
     7
100
AcDbLine
 10
-994.5072979283859
 20
-999.8500012896499
 30
0.0
 11
-992.5000003778947
 21
-997.8427312544317
 31
0.0
  0
LINE
  5
187
330
5C
100
AcDbEntity
  8
0
  6
Continuous
 62
     7
100
AcDbLine
 10
-994.0000003779195
 20
-962.3011518619267
 30
0.0
 11
-994.0000003778702
 21
-982.301151861884
 31
0.0
  0
LINE
  5
188
330
5C
100
AcDbEntity
  8
0
  6
Continuous
 62
     7
100
AcDbLine
 10
-992.5000003779835
 20
-962.3011518619265
 30
0.0
 11
-994.0000003779195
 21
-962.3011518619267
 31
0.0
  0
LINE
  5
189
330
5C
100
AcDbEntity
  8
0
  6
Continuous
 62
     7
100
AcDbLine
 10
-994.0000003779629
 20
-947.6500012896514
 30
0.0
 11
-994.0000003779195
 21
-962.3011518619267
 31
0.0
  0
LINE
  5
18A
330
5C
100
AcDbEntity
  8
0
  6
Continuous
 62
     7
100
AcDbLine
 10
-992.5000003779835
 20
-962.3011518619265
 30
0.0
 11
-992.5000003780012
 21
-947.6500012896513
 31
0.0
  0
LINE
  5
18B
330
5C
100
AcDbEntity
  8
0
  6
Continuous
 62
     7
100
AcDbLine
 10
-994.6000003778313
 20
-941.0393411178148
 30
0.0
 11
-994.6000003778313
 21
-942.65000128972
 31
0.0
  0
LINE
  5
18C
330
5C
100
AcDbEntity
  8
0
  6
Continuous
 62
     7
100
AcDbLine
 10
-994.6000003778497
 20
-944.4073606025245
 30
0.0
 11
-994.6000003778497
 21
-947.1500012899106
 31
0.0
  0
LINE
  5
18D
330
5C
100
AcDbEntity
  8
0
  6
Continuous
 62
     7
100
AcDbLine
 10
-992.500000377983
 20
-982.3011518619267
 30
0.0
 11
-992.5000003779835
 21
-962.3011518619265
 31
0.0
  0
LINE
  5
18E
330
5C
100
AcDbEntity
  8
0
  6
Continuous
 62
     7
100
AcDbLine
 10
-994.0000003778702
 20
-982.301151861884
 30
0.0
 11
-992.500000377983
 21
-982.3011518619267
 31
0.0
  0
LINE
  5
18F
330
5C
100
AcDbEntity
  8
0
  6
Continuous
 62
     7
100
AcDbLine
 10
-992.5000003778947
 20
-997.8427312544317
 30
0.0
 11
-992.500000377983
 21
-982.3011518619267
 31
0.0
  0
LINE
  5
190
330
5C
100
AcDbEntity
  8
0
  6
Continuous
 62
     7
100
AcDbLine
 10
-961.5000003779905
 20
-962.3011518619259
 30
0.0
 11
-960.0000003779336
 21
-962.3011518619259
 31
0.0
  0
LINE
  5
191
330
5C
100
AcDbEntity
  8
0
  6
Continuous
 62
     7
100
AcDbLine
 10
-961.5000003780045
 20
-982.3011518618405
 30
0.0
 11
-961.5000003779905
 21
-962.3011518619259
 31
0.0
  0
LINE
  5
192
330
5C
100
AcDbEntity
  8
0
  6
Continuous
 62
     7
100
AcDbLine
 10
-960.0000003778841
 20
-982.3011518619526
 30
0.0
 11
-958.0000003815848
 21
-982.3011518619566
 31
0.0
  0
LINE
  5
193
330
5C
100
AcDbEntity
  8
0
  6
Continuous
 62
     7
100
AcDbLine
 10
-956.6000003780347
 20
-995.5772072427997
 30
0.0
 11
-956.6000003780215
 21
-999.8500012897335
 31
0.0
  0
LINE
  5
194
330
5C
100
AcDbEntity
  8
0
  6
Continuous
 62
     7
100
AcDbLine
 10
-961.5000003780355
 20
-997.8427312544628
 30
0.0
 11
-961.5000003780045
 21
-982.3011518618405
 31
0.0
  0
LINE
  5
195
330
5C
100
AcDbEntity
  8
0
  6
Continuous
 62
     7
100
AcDbLine
 10
-958.0000003815353
 20
-999.8500012897226
 30
0.0
 11
-956.6000003780215
 21
-999.8500012897335
 31
0.0
  0
LINE
  5
196
330
5C
100
AcDbEntity
  8
0
  6
Continuous
 62
     7
100
AcDbLine
 10
-960.0000003778841
 20
-982.3011518619526
 30
0.0
 11
-961.5000003780045
 21
-982.3011518618405
 31
0.0
  0
LINE
  5
197
330
5C
100
AcDbEntity
  8
0
  6
Continuous
 62
     7
100
AcDbLine
 10
-960.0000003779336
 20
-962.3011518619259
 30
0.0
 11
-960.000000377977
 21
-947.6500012896506
 31
0.0
  0
LINE
  5
198
330
5C
100
AcDbEntity
  8
0
  6
Continuous
 62
     7
100
AcDbLine
 10
-960.0000003778841
 20
-982.3011518619526
 30
0.0
 11
-960.0000003779336
 21
-962.3011518619259
 31
0.0
  0
LINE
  5
199
330
5C
100
AcDbEntity
  8
0
  6
Continuous
 62
     7
100
AcDbLine
 10
-958.0000003815491
 20
-952.9107461131092
 30
0.0
 11
-958.0000003814151
 21
-947.1500012898448
 31
0.0
  0
LINE
  5
19A
330
5C
100
AcDbEntity
  8
0
  6
Continuous
 62
     7
100
AcDbLine
 10
-957.9000003780877
 20
-947.150001289845
 30
0.0
 11
-957.9000003780798
 21
-943.150001289845
 31
0.0
  0
LINE
  5
19B
330
5C
100
AcDbEntity
  8
0
  6
Continuous
 62
     7
100
AcDbLine
 10
-956.6000003777816
 20
-952.9107461127154
 30
0.0
 11
-956.6000003777895
 21
-942.6500012897756
 31
0.0
  0
LINE
  5
19C
330
5C
100
AcDbEntity
  8
0
  6
Continuous
 62
     7
100
AcDbLine
 10
-957.9000003780798
 20
-943.150001289845
 30
0.0
 11
-959.4000003781242
 21
-943.1500012898421
 31
0.0
  0
LINE
  5
19D
330
5C
100
AcDbEntity
  8
0
  6
Continuous
 62
     7
100
AcDbLine
 10
-957.9000003780877
 20
-947.150001289845
 30
0.0
 11
-959.4000003781362
 21
-947.1500012899106
 31
0.0
  0
LINE
  5
19E
330
5C
100
AcDbEntity
  8
0
  6
Continuous
 62
     7
100
AcDbLine
 10
-959.4000003781362
 20
-947.1500012899106
 30
0.0
 11
-959.4000003781307
 21
-944.4073606025245
 31
0.0
  0
LINE
  5
19F
330
5C
100
AcDbEntity
  8
0
  6
Continuous
 62
     7
100
AcDbLine
 10
-958.0000003815491
 20
-952.9107461131092
 30
0.0
 11
-956.6000003777816
 21
-952.9107461127154
 31
0.0
  0
LINE
  5
1A0
330
5C
100
AcDbEntity
  8
0
  6
Continuous
 62
     7
100
AcDbLine
 10
-959.4000003781362
 20
-947.1500012899106
 30
0.0
 11
-959.400000378136
 21
-947.6500012898197
 31
0.0
  0
LINE
  5
1A1
330
5C
100
AcDbEntity
  8
0
  6
Continuous
 62
     7
100
AcDbLine
 10
-958.0000003814071
 20
-943.1500012898448
 30
0.0
 11
-958.0000003815413
 21
-942.6500012897786
 31
0.0
  0
LINE
  5
1A2
330
5C
100
AcDbEntity
  8
0
  6
Continuous
 62
     7
100
AcDbLine
 10
-959.4000003781242
 20
-943.1500012898421
 30
0.0
 11
-959.4000003781307
 21
-944.4073606025245
 31
0.0
  0
LINE
  5
1A3
330
5C
100
AcDbEntity
  8
0
  6
Continuous
 62
     7
100
AcDbLine
 10
-958.0000003815413
 20
-942.6500012897786
 30
0.0
 11
-959.400000378121
 21
-942.6500012897183
 31
0.0
  0
LINE
  5
1A4
330
5C
100
AcDbEntity
  8
0
  6
Continuous
 62
     7
100
AcDbLine
 10
-956.6000003777895
 20
-942.6500012897756
 30
0.0
 11
-958.0000003815413
 21
-942.6500012897786
 31
0.0
  0
LINE
  5
1A5
330
5C
100
AcDbEntity
  8
0
  6
Continuous
 62
     7
100
AcDbLine
 10
-956.6000003777895
 20
-942.6500012897756
 30
0.0
 11
-956.6000003780534
 21
-941.0393411178093
 31
0.0
  0
LINE
  5
1A6
330
5C
100
AcDbEntity
  8
0
  6
Continuous
 62
     7
100
AcDbLine
 10
-959.400000378121
 20
-942.6500012897183
 30
0.0
 11
-959.4000003781157
 21
-941.0393411178474
 31
0.0
  0
LINE
  5
1A7
330
5C
100
AcDbEntity
  8
0
  6
Continuous
 62
     7
100
AcDbLine
 10
-959.400000378121
 20
-942.6500012897183
 30
0.0
 11
-959.4000003781242
 21
-943.1500012898421
 31
0.0
  0
LINE
  5
1A8
330
5C
100
AcDbEntity
  8
0
  6
Continuous
 62
     7
100
AcDbLine
 10
-956.6000003780534
 20
-941.0393411178093
 30
0.0
 11
-959.4000003781157
 21
-941.0393411178474
 31
0.0
  0
LINE
  5
1A9
330
5C
100
AcDbEntity
  8
0
  6
Continuous
 62
     7
100
AcDbLine
 10
-956.6000003779003
 20
-936.1500012898141
 30
0.0
 11
-956.6000003780534
 21
-941.0393411178093
 31
0.0
  0
LINE
  5
1AA
330
5C
100
AcDbEntity
  8
0
  6
Continuous
 62
     7
100
AcDbLine
 10
-959.400000378136
 20
-947.6500012898197
 30
0.0
 11
-960.000000377977
 21
-947.6500012896506
 31
0.0
  0
LINE
  5
1AB
330
5C
100
AcDbEntity
  8
0
  6
Continuous
 62
     7
100
AcDbLine
 10
-961.5000003779905
 20
-962.3011518619259
 30
0.0
 11
-961.5000003779664
 21
-947.6500012896506
 31
0.0
  0
LINE
  5
1AC
330
5C
100
AcDbEntity
  8
0
  6
Continuous
 62
     7
100
AcDbLine
 10
-960.000000377977
 20
-947.6500012896506
 30
0.0
 11
-961.5000003779664
 21
-947.6500012896506
 31
0.0
  0
LINE
  5
1AD
330
5C
100
AcDbEntity
  8
0
  6
Continuous
 62
     7
100
AcDbLine
 10
-994.9000003740942
 20
-953.5000014334732
 30
0.0
 11
-994.900000374088
 21
-947.150001289772
 31
0.0
  0
LINE
  5
1AE
330
5C
100
AcDbEntity
  8
0
  6
Continuous
 62
     7
100
AcDbLine
 10
-994.6000003778497
 20
-947.1500012899106
 30
0.0
 11
-996.1000003780132
 21
-947.150001289772
 31
0.0
  0
LINE
  5
1AF
330
5C
100
AcDbEntity
  8
0
  6
Continuous
 62
     7
100
AcDbLine
 10
-996.0000003741902
 20
-982.3011518618885
 30
0.0
 11
-994.0000003778702
 21
-982.301151861884
 31
0.0
  0
LINE
  5
1B0
330
5C
100
AcDbEntity
  8
0
  6
Continuous
 62
     7
100
AcDbLine
 10
-994.5072979283859
 20
-999.8500012896499
 30
0.0
 11
-996.0000003741876
 21
-999.8500012897221
 31
0.0
  0
LINE
  5
1B1
330
5C
100
AcDbEntity
  8
0
  6
Continuous
 62
     7
100
AcDbLine
 10
-961.5000003779664
 20
-947.6500012896506
 30
0.0
 11
-992.5000003780012
 21
-947.6500012896513
 31
0.0
  0
LINE
  5
1B2
330
5C
100
AcDbEntity
  8
0
  6
Continuous
 62
     7
100
AcDbLine
 10
-994.6000003778497
 20
-947.1500012899106
 30
0.0
 11
-959.4000003781362
 21
-947.1500012899106
 31
0.0
  0
ENDBLK
  5
5E
330
5C
100
AcDbEntity
  8
0
100
AcDbBlockEnd
  0
BLOCK
  5
61
330
5F
100
AcDbEntity
  8
0
100
AcDbBlockBegin
  2
SA_Links1
 70
     0
 10
-976.99999999999
 20
-968.000000000095
 30
0.0
  3
SA_Links1
  1

  0
INSERT
  5
60
330
5F
100
AcDbEntity
  8
0
100
AcDbBlockReference
  2
HC-RBO_10-select__4
 10
-997.4000003778951
 20
-999.8500012897335
 30
0.0
  0
MTEXT
  5
1B3
330
5F
100
AcDbEntity
  8
1
 62
     6
100
AcDbMText
 10
-976.99999999999
 20
-1004.850000381701
 30
0.0
 40
5.0
 41
0.0
 71
     2
 72
     1
  1
 
  7
CONVERTER_11
 73
     1
 44
1.32052821128451
  0
ENDBLK
  5
62
330
5F
100
AcDbEntity
  8
0
100
AcDbBlockEnd
  0
BLOCK
  5
64
330
63
100
AcDbEntity
  8
0
100
AcDbBlockBegin
  2
HC-RBO_10-select__5
 70
     0
 10
-1188.350001459288
 20
-999.8500012897255
 30
0.0
  3
HC-RBO_10-select__5
  1

  0
LINE
  5
1B4
330
63
100
AcDbEntity
  8
0
  6
Continuous
 62
     7
100
AcDbLine
 10
-1185.457299010038
 20
-999.850001289723
 30
0.0
 11
-1183.450001458926
 21
-997.8427312544583
 31
0.0
  0
LINE
  5
1B5
330
63
100
AcDbEntity
  8
0
  6
Continuous
 62
     7
100
AcDbLine
 10
-1188.350001459056
 20
-939.6500012897003
 30
0.0
 11
-1188.350001459055
 21
-941.1500012895877
 31
0.0
  0
LINE
  5
1B6
330
63
100
AcDbEntity
  8
0
  6
Continuous
 62
     7
100
AcDbLine
 10
-1188.350001459055
 20
-941.1500012895877
 30
0.0
 11
-1188.350001459288
 21
-999.8500012897255
 31
0.0
  0
LINE
  5
1B7
330
63
100
AcDbEntity
  8
0
  6
Continuous
 62
     7
100
AcDbLine
 10
-1183.450001458926
 20
-997.8427312544583
 30
0.0
 11
-1183.450001458966
 21
-947.6500012898669
 31
0.0
  0
LINE
  5
1B8
330
63
100
AcDbEntity
  8
0
  6
Continuous
 62
     7
100
AcDbLine
 10
-1183.450001458975
 20
-943.1606614615572
 30
0.0
 11
-1183.450001459039
 21
-941.1500012895983
 31
0.0
  0
LINE
  5
1B9
330
63
100
AcDbEntity
  8
0
  6
Continuous
 62
     7
100
AcDbLine
 10
-1183.450001458966
 20
-947.6500012898669
 30
0.0
 11
-1183.450001458975
 21
-943.1606614615572
 31
0.0
  0
LINE
  5
1BA
330
63
100
AcDbEntity
  8
0
  6
Continuous
 62
     7
100
AcDbLine
 10
-1188.350001459056
 20
-939.6500012897003
 30
0.0
 11
-1147.550001459346
 21
-939.6500012896182
 31
0.0
  0
LINE
  5
1BB
330
63
100
AcDbEntity
  8
0
  6
Continuous
 62
     7
100
AcDbLine
 10
-1147.550001459285
 20
-999.8500012896441
 30
0.0
 11
-1150.442703908537
 21
-999.8500012896499
 31
0.0
  0
LINE
  5
1BC
330
63
100
AcDbEntity
  8
0
  6
Continuous
 62
     7
100
AcDbLine
 10
-1152.450001459069
 20
-997.8427312544271
 30
0.0
 11
-1150.442703908537
 21
-999.8500012896499
 31
0.0
  0
LINE
  5
1BD
330
63
100
AcDbEntity
  8
0
  6
Continuous
 62
     7
100
AcDbLine
 10
-1185.457299010038
 20
-999.850001289723
 30
0.0
 11
-1188.350001459288
 21
-999.8500012897255
 31
0.0
  0
LINE
  5
1BE
330
63
100
AcDbEntity
  8
0
  6
Continuous
 62
     7
100
AcDbLine
 10
-1147.550001459285
 20
-999.8500012896441
 30
0.0
 11
-1147.550001459358
 21
-941.1500012896585
 31
0.0
  0
LINE
  5
1BF
330
63
100
AcDbEntity
  8
0
  6
Continuous
 62
     7
100
AcDbLine
 10
-1147.550001459346
 20
-939.6500012896182
 30
0.0
 11
-1147.55000145934
 21
-936.1500012896608
 31
0.0
  0
LINE
  5
1C0
330
63
100
AcDbEntity
  8
0
  6
Continuous
 62
     7
100
AcDbLine
 10
-1148.950001462747
 20
-932.1500012899377
 30
0.0
 11
-1148.950001462753
 21
-935.8500012899318
 31
0.0
  0
LINE
  5
1C1
330
63
100
AcDbEntity
  8
0
  6
Continuous
 62
     7
100
AcDbLine
 10
-1148.950001462753
 20
-935.8500012899318
 30
0.0
 11
-1148.950001462753
 21
-936.1500012897292
 31
0.0
  0
LINE
  5
1C2
330
63
100
AcDbEntity
  8
0
  6
Continuous
 62
     7
100
AcDbLine
 10
-1152.450001458863
 20
-947.6500012898044
 30
0.0
 11
-1152.450001459069
 21
-997.8427312544271
 31
0.0
  0
LINE
  5
1C3
330
63
100
AcDbEntity
  8
0
  6
Continuous
 62
     7
100
AcDbLine
 10
-1147.550001459358
 20
-941.1500012896585
 30
0.0
 11
-1147.550001459346
 21
-939.6500012896182
 31
0.0
  0
LINE
  5
1C4
330
63
100
AcDbEntity
  8
0
  6
Continuous
 62
     7
100
AcDbLine
 10
-1152.450001459068
 20
-941.1500012896657
 30
0.0
 11
-1152.450001458863
 21
-943.160661461558
 31
0.0
  0
LINE
  5
1C5
330
63
100
AcDbEntity
  8
0
  6
Continuous
 62
     7
100
AcDbLine
 10
-1152.450001458863
 20
-943.160661461558
 30
0.0
 11
-1152.450001458863
 21
-947.6500012898044
 31
0.0
  0
LINE
  5
1C6
330
63
100
AcDbEntity
  8
0
  6
Continuous
 62
     7
100
AcDbLine
 10
-1183.450001458966
 20
-947.6500012898669
 30
0.0
 11
-1152.450001458863
 21
-947.6500012898044
 31
0.0
  0
LINE
  5
1C7
330
63
100
AcDbEntity
  8
0
  6
Continuous
 62
     7
100
AcDbLine
 10
-1152.450001458863
 20
-943.160661461558
 30
0.0
 11
-1183.450001458975
 21
-943.1606614615572
 31
0.0
  0
LINE
  5
1C8
330
63
100
AcDbEntity
  8
0
  6
Continuous
 62
     7
100
AcDbLine
 10
-1152.450001459068
 20
-941.1500012896657
 30
0.0
 11
-1183.450001459039
 21
-941.1500012895983
 31
0.0
  0
LINE
  5
1C9
330
63
100
AcDbEntity
  8
0
  6
Continuous
 62
     7
100
AcDbLine
 10
-1183.450001459039
 20
-941.1500012895983
 30
0.0
 11
-1188.350001459055
 21
-941.1500012895877
 31
0.0
  0
LINE
  5
1CA
330
63
100
AcDbEntity
  8
0
  6
Continuous
 62
     7
100
AcDbLine
 10
-1147.550001459358
 20
-941.1500012896585
 30
0.0
 11
-1152.450001459068
 21
-941.1500012896657
 31
0.0
  0
LINE
  5
1CB
330
63
100
AcDbEntity
  8
0
  6
Continuous
 62
     7
100
AcDbLine
 10
-1150.350001462916
 20
-932.150001289939
 30
0.0
 11
-1150.350001462923
 21
-935.8500012899332
 31
0.0
  0
LINE
  5
1CC
330
63
100
AcDbEntity
  8
0
  6
Continuous
 62
     7
100
AcDbLine
 10
-1188.350001459054
 20
-936.1500012897019
 30
0.0
 11
-1150.350001462922
 21
-936.1500012897307
 31
0.0
  0
LINE
  5
1CD
330
63
100
AcDbEntity
  8
0
  6
Continuous
 62
     7
100
AcDbLine
 10
-1150.350001462922
 20
-936.1500012897307
 30
0.0
 11
-1148.950001462753
 21
-936.1500012897292
 31
0.0
  0
LINE
  5
1CE
330
63
100
AcDbEntity
  8
0
  6
Continuous
 62
     7
100
AcDbLine
 10
-1148.950001462753
 20
-936.1500012897292
 30
0.0
 11
-1147.55000145934
 21
-936.1500012896608
 31
0.0
  0
LINE
  5
1CF
330
63
100
AcDbEntity
  8
0
  6
Continuous
 62
     2
100
AcDbLine
 10
-1150.350001462923
 20
-935.8500012899332
 30
0.0
 11
-1148.950001462753
 21
-935.8500012899318
 31
0.0
  0
LINE
  5
1D0
330
63
100
AcDbEntity
  8
0
  6
Continuous
 62
     7
100
AcDbLine
 10
-1150.350001462923
 20
-935.8500012899332
 30
0.0
 11
-1150.350001462922
 21
-936.1500012897307
 31
0.0
  0
LINE
  5
1D1
330
63
100
AcDbEntity
  8
0
  6
Continuous
 62
     7
100
AcDbLine
 10
-1150.350001462916
 20
-932.150001289939
 30
0.0
 11
-1148.950001462747
 21
-932.1500012899377
 31
0.0
  0
LINE
  5
1D2
330
63
100
AcDbEntity
  8
0
  6
Continuous
 62
     7
100
AcDbLine
 10
-1188.350001459054
 20
-936.1500012897019
 30
0.0
 11
-1188.350001459056
 21
-939.6500012897003
 31
0.0
  0
ENDBLK
  5
65
330
63
100
AcDbEntity
  8
0
100
AcDbBlockEnd
  0
BLOCK
  5
68
330
66
100
AcDbEntity
  8
0
100
AcDbBlockBegin
  2
SA_Rechts1
 70
     0
 10
-1167.950001836971
 20
-968.000000000095
 30
0.0
  3
SA_Rechts1
  1

  0
INSERT
  5
67
330
66
100
AcDbEntity
  8
0
100
AcDbBlockReference
  2
HC-RBO_10-select__5
 10
-1188.350001459288
 20
-999.8500012897255
 30
0.0
  0
MTEXT
  5
1D3
330
66
100
AcDbEntity
  8
1
 62
     6
100
AcDbMText
 10
-1167.950001836971
 20
-1004.850000381701
 30
0.0
 40
5.0
 41
0.0
 71
     2
 72
     1
  1
 
  7
CONVERTER_11
 73
     1
 44
1.32052821128451
  0
ENDBLK
  5
69
330
66
100
AcDbEntity
  8
0
100
AcDbBlockEnd
  0
BLOCK
  5
6B
330
6A
100
AcDbEntity
  8
0
100
AcDbBlockBegin
  2
HC-RBO_10-select__6
 70
     0
 10
-1121.549999491133
 20
-999.8500012897335
 30
0.0
  3
HC-RBO_10-select__6
  1

  0
LINE
  5
1D4
330
6A
100
AcDbEntity
  8
1
  6
DOT_CENTER
 62
     2
100
AcDbLine
 10
-1118.549999490924
 20
-942.950001289845
 30
0.0
 11
-1118.549999490924
 21
-947.3500012898451
 31
0.0
  0
LINE
  5
1D5
330
6A
100
AcDbEntity
  8
1
  6
DOT_CENTER
 62
     2
100
AcDbLine
 10
-1116.349999490924
 20
-945.150001289845
 30
0.0
 11
-1120.749999490924
 21
-945.150001289845
 31
0.0
  0
LINE
  5
1D6
330
6A
100
AcDbEntity
  8
0
  6
Continuous
 62
     7
100
AcDbLine
 10
-1066.14999934392
 20
-995.5772072427997
 30
0.0
 11
-1054.410594181997
 21
-999.8500012897335
 31
0.0
  0
LINE
  5
1D7
330
6A
100
AcDbEntity
  8
0
  6
Continuous
 62
     7
100
AcDbLine
 10
-1015.39999949123
 20
-939.6500012897003
 30
0.0
 11
-1010.399999491131
 21
-939.6500012896942
 31
0.0
  0
LINE
  5
1D8
330
6A
100
AcDbEntity
  8
0
  6
Continuous
 62
     7
100
AcDbLine
 10
-1081.899999490845
 20
-953.5000014334732
 30
0.0
 11
-1081.899999490854
 21
-947.6500012896848
 31
0.0
  0
LINE
  5
1D9
330
6A
100
AcDbEntity
  8
0
  6
Continuous
 62
     7
100
AcDbLine
 10
-1069.187291783747
 20
-947.6500012896392
 30
0.0
 11
-1115.2499994908
 21
-947.6500012898044
 31
0.0
  0
LINE
  5
1DA
330
6A
100
AcDbEntity
  8
0
  6
Continuous
 62
     7
100
AcDbLine
 10
-1072.074043129388
 20
-942.6500012897756
 30
0.0
 11
-1115.249999490915
 21
-942.6500012897426
 31
0.0
  0
LINE
  5
1DB
330
6A
100
AcDbEntity
  8
0
  6
Continuous
 62
     7
100
AcDbLine
 10
-1067.628446959652
 20
-953.500001433433
 30
0.0
 11
-1081.899999490845
 21
-953.5000014334732
 31
0.0
  0
LINE
  5
1DC
330
6A
100
AcDbEntity
  8
0
  6
Continuous
 62
     7
100
AcDbLine
 10
-1010.399999491126
 20
-941.1500012895698
 30
0.0
 11
-1015.399999491168
 21
-941.1500012895877
 31
0.0
  0
LINE
  5
1DD
330
6A
100
AcDbEntity
  8
0
  6
Continuous
 62
     7
100
AcDbLine
 10
-1110.360659662932
 20
-936.1500012898141
 30
0.0
 11
-1081.899999490874
 21
-936.1500012897409
 31
0.0
  0
LINE
  5
1DE
330
6A
100
AcDbEntity
  8
0
  6
Continuous
 62
     7
100
AcDbLine
 10
-1081.899999490874
 20
-936.1500012897409
 30
0.0
 11
-1073.499999490874
 21
-936.1500012897305
 31
0.0
  0
LINE
  5
1DF
330
6A
100
AcDbEntity
  8
0
  6
Continuous
 62
     7
100
AcDbLine
 10
-1073.499999490874
 20
-936.1500012897305
 30
0.0
 11
-1018.899999491217
 21
-936.1500012897019
 31
0.0
  0
LINE
  5
1E0
330
6A
100
AcDbEntity
  8
0
  6
Continuous
 62
     7
100
AcDbLine
 10
-1073.499999490874
 20
-935.8500012899332
 30
0.0
 11
-1073.499999490874
 21
-936.1500012897305
 31
0.0
  0
LINE
  5
1E1
330
6A
100
AcDbEntity
  8
0
  6
Continuous
 62
     7
100
AcDbLine
 10
-1081.899999490874
 20
-935.8500012899466
 30
0.0
 11
-1081.899999490874
 21
-936.1500012897409
 31
0.0
  0
LINE
  5
1E2
330
6A
100
AcDbEntity
  8
0
  6
Continuous
 62
     7
100
AcDbLine
 10
-1079.699999490874
 20
-935.8500012899408
 30
0.0
 11
-1075.699999490874
 21
-935.850001289939
 31
0.0
  0
LINE
  5
1E3
330
6A
100
AcDbEntity
  8
0
  6
Continuous
 62
     7
100
AcDbLine
 10
-1079.687460182311
 20
-932.1500012899409
 30
0.0
 11
-1075.712538799441
 21
-932.150001289939
 31
0.0
  0
LINE
  5
1E4
330
6A
100
AcDbEntity
  8
0
  6
Continuous
 62
     7
100
AcDbLine
 10
-1070.434690209739
 20
-947.6500012896438
 30
0.0
 11
-1067.339844810163
 21
-952.9996227652114
 31
0.0
  0
LINE
  5
1E5
330
6A
100
AcDbEntity
  8
0
  6
Continuous
 62
     7
100
AcDbLine
 10
-1066.149999344006
 20
-952.9107461127154
 30
0.0
 11
-1069.187291783747
 21
-947.6500012896392
 31
0.0
  0
LINE
  5
1E6
330
6A
100
AcDbEntity
  8
0
  6
Continuous
 62
     7
100
AcDbLine
 10
-1066.149999344006
 20
-952.9107461127154
 30
0.0
 11
-1066.14999934392
 21
-995.5772072427997
 31
0.0
  0
LINE
  5
1E7
330
6A
100
AcDbEntity
  8
0
  6
Continuous
 62
     7
100
AcDbLine
 10
-1067.339844810163
 20
-952.9996227652114
 30
0.0
 11
-1067.628446959652
 21
-953.500001433433
 31
0.0
  0
LINE
  5
1E8
330
6A
100
AcDbEntity
  8
0
  6
Continuous
 62
     7
100
AcDbLine
 10
-1069.187291783747
 20
-947.6500012896392
 30
0.0
 11
-1072.074043129388
 21
-942.6500012897756
 31
0.0
  0
LINE
  5
1E9
330
6A
100
AcDbEntity
  8
0
  6
Continuous
 62
     7
100
AcDbLine
 10
-1116.860659662817
 20
-942.6500012897183
 30
0.0
 11
-1115.249999490916
 21
-941.0393411178094
 31
0.0
  0
LINE
  5
1EA
330
6A
100
AcDbEntity
  8
0
  6
Continuous
 62
     7
100
AcDbLine
 10
-1121.54999949113
 20
-947.1500012899106
 30
0.0
 11
-1120.683974087501
 21
-947.6500012898197
 31
0.0
  0
LINE
  5
1EB
330
6A
100
AcDbEntity
  8
0
  6
Continuous
 62
     7
100
AcDbLine
 10
-1110.360659662932
 20
-936.1500012898141
 30
0.0
 11
-1115.249999490916
 21
-941.0393411178094
 31
0.0
  0
LINE
  5
1EC
330
6A
100
AcDbEntity
  8
0
  6
Continuous
 62
     7
100
AcDbLine
 10
-1115.249999490915
 20
-942.6500012897426
 30
0.0
 11
-1115.249999490916
 21
-941.0393411178094
 31
0.0
  0
LINE
  5
1ED
330
6A
100
AcDbEntity
  8
0
  6
Continuous
 62
     7
100
AcDbLine
 10
-1116.860659662817
 20
-942.6500012897183
 30
0.0
 11
-1119.792640178438
 21
-942.6500012898266
 31
0.0
  0
LINE
  5
1EE
330
6A
100
AcDbEntity
  8
0
  6
Continuous
 62
     7
100
AcDbLine
 10
-1115.2499994908
 20
-947.6500012898044
 30
0.0
 11
-1115.249999490915
 21
-942.6500012897426
 31
0.0
  0
LINE
  5
1EF
330
6A
100
AcDbEntity
  8
0
  6
Continuous
 62
     7
100
AcDbLine
 10
-1115.2499994908
 20
-947.6500012898044
 30
0.0
 11
-1120.683974087501
 21
-947.6500012898197
 31
0.0
  0
LINE
  5
1F0
330
6A
100
AcDbEntity
  8
0
  6
Continuous
 62
     7
100
AcDbLine
 10
-1121.54999949113
 20
-947.1500012899106
 30
0.0
 11
-1121.549999491133
 21
-944.4073606025245
 31
0.0
  0
LINE
  5
1F1
330
6A
100
AcDbEntity
  8
0
  6
Continuous
 62
     7
100
AcDbLine
 10
-1119.792640178438
 20
-942.6500012898266
 30
0.0
 11
-1121.549999491133
 21
-944.4073606025245
 31
0.0
  0
LINE
  5
1F2
330
6A
100
AcDbEntity
  8
0
  6
Continuous
 62
     7
100
AcDbLine
 10
-1010.399999491131
 20
-939.6500012896942
 30
0.0
 11
-1010.399999491126
 21
-941.1500012895698
 31
0.0
  0
LINE
  5
1F3
330
6A
100
AcDbEntity
  8
0
  6
Continuous
 62
     7
100
AcDbLine
 10
-1054.410594181997
 20
-999.8500012897335
 30
0.0
 11
-1015.399999490957
 21
-999.8500012897255
 31
0.0
  0
LINE
  5
1F4
330
6A
100
AcDbEntity
  8
0
  6
Continuous
 62
     7
100
AcDbLine
 10
-1015.399999491168
 20
-941.1500012895877
 30
0.0
 11
-1015.399999490957
 21
-999.8500012897255
 31
0.0
  0
LINE
  5
1F5
330
6A
100
AcDbEntity
  8
0
  6
Continuous
 62
     7
100
AcDbLine
 10
-1018.899999491217
 20
-936.1500012897019
 30
0.0
 11
-1015.39999949123
 21
-939.6500012897003
 31
0.0
  0
ARC
  5
1F6
330
6A
100
AcDbEntity
  8
0
  6
Continuous
 62
     7
100
AcDbCircle
 10
-1077.699999490874
 20
-935.8500012899399
 30
0.0
 40
4.200000000000017
100
AcDbArc
 50
118.2425371844634
 51
180.0000000000915
  0
ARC
  5
1F7
330
6A
100
AcDbEntity
  8
0
  6
Continuous
 62
     7
100
AcDbCircle
 10
-1077.699999490874
 20
-935.8500012899399
 30
0.0
 40
4.200000000000045
100
AcDbArc
 50
0.0000000000915
 51
61.75746281559754
  0
ARC
  5
1F8
330
6A
100
AcDbEntity
  8
0
  6
Continuous
 62
     7
100
AcDbCircle
 10
-1077.699999490874
 20
-935.8500012899399
 30
0.0
 40
2.0
100
AcDbArc
 50
0.00000000002606
 51
180.0000000000261
  0
CIRCLE
  5
1F9
330
6A
100
AcDbEntity
  8
0
  6
Continuous
 62
     7
100
AcDbCircle
 10
-1118.549999490924
 20
-945.150001289845
 30
0.0
 40
2.0
  0
ENDBLK
  5
6C
330
6A
100
AcDbEntity
  8
0
100
AcDbBlockEnd
  0
BLOCK
  5
6F
330
6D
100
AcDbEntity
  8
0
100
AcDbBlockBegin
  2
Vordans1
 70
     0
 10
-1065.975000381994
 20
-968.000000000095
 30
0.0
  3
Vordans1
  1

  0
INSERT
  5
6E
330
6D
100
AcDbEntity
  8
0
100
AcDbBlockReference
  2
HC-RBO_10-select__6
 10
-1121.549999491133
 20
-999.8500012897335
 30
0.0
  0
MTEXT
  5
1FA
330
6D
100
AcDbEntity
  8
1
 62
     6
100
AcDbMText
 10
-1065.975000381994
 20
-1004.850000381701
 30
0.0
 40
5.0
 41
0.0
 71
     2
 72
     1
  1
 
  7
CONVERTER_11
 73
     1
 44
1.32052821128451
  0
DIMENSION
  5
205
330
6D
100
AcDbEntity
  8
1
100
AcDbDimension
  2
*D18
 10
-1010.399999491131
 20
-1017.80554580621
 30
0.0
 11
-1065.28317344728
 21
-1013.88054580621
 31
0.0
 70
    32
  1
<>
 71
     5
 42
-1.0
 53
0.00013888888889
  3
ME10_DIM_11
100
AcDbAlignedDimension
 13
-1121.549999491133
 23
-944.4073606025245
 33
0.0
 14
-1010.399999491131
 24
-939.6500012896942
 34
0.0
100
AcDbRotatedDimension
  0
DIMENSION
  5
210
330
6D
100
AcDbEntity
  8
1
100
AcDbDimension
  2
*D19
 10
-1132.7286563223
 20
-932.1500012899409
 30
0.0
 11
-1136.6536563223
 21
-967.800759506796
 31
0.0
 70
    32
  1
<>
 71
     5
 42
-1.0
 53
90.0
  3
ME10_DIM_12
100
AcDbAlignedDimension
 13
-1054.410594181997
 23
-999.8500012897335
 33
0.0
 14
-1079.687460182311
 24
-932.1500012899409
 34
0.0
 50
90.0
100
AcDbRotatedDimension
  0
ENDBLK
  5
70
330
6D
100
AcDbEntity
  8
0
100
AcDbBlockEnd
  0
BLOCK
  5
72
330
71
100
AcDbEntity
  8
0
100
AcDbBlockBegin
  2
_rahmen
 70
     0
 10
-817.9000009841257
 20
-1180.543841386505
 30
0.0
  3
_rahmen
  1

  0
LINE
  5
211
330
71
100
AcDbEntity
  8
1
  6
Continuous
 62
     6
100
AcDbLine
 10
-886.2333343174591
 20
-1175.543841386505
 30
0.0
 11
-817.9000009841258
 21
-1175.543841386506
 31
0.0
  0
LINE
  5
212
330
71
100
AcDbEntity
  8
1
  6
Continuous
 62
     6
100
AcDbLine
 10
-817.9000009841261
 20
-1167.043841386506
 30
0.0
 11
-817.9000009841257
 21
-1158.543841386506
 31
0.0
  0
LINE
  5
213
330
71
100
AcDbEntity
  8
1
  6
Continuous
 62
     6
100
AcDbLine
 10
-817.9000009841257
 20
-1158.543841386506
 30
0.0
 11
-817.9000009841267
 21
-1154.293841386506
 31
0.0
  0
LINE
  5
214
330
71
100
AcDbEntity
  8
1
  6
Continuous
 62
     6
100
AcDbLine
 10
-817.9000009841267
 20
-1154.293841386506
 30
0.0
 11
-817.9000009841258
 21
-1118.143841386505
 31
0.0
  0
LINE
  5
215
330
71
100
AcDbEntity
  8
1
  6
Continuous
 62
     2
100
AcDbLine
 10
-1022.900000984126
 20
-1180.543841386505
 30
0.0
 11
-1091.233334317459
 21
-1180.543841386505
 31
0.0
  0
LINE
  5
216
330
71
100
AcDbEntity
  8
1
  6
Continuous
 62
     2
100
AcDbLine
 10
-886.2333343174591
 20
-1180.543841386505
 30
0.0
 11
-817.9000009841257
 21
-1180.543841386505
 31
0.0
  0
LINE
  5
217
330
71
100
AcDbEntity
  8
1
  6
Continuous
 62
     2
100
AcDbLine
 10
-886.2333343174591
 20
-1180.543841386505
 30
0.0
 11
-886.2333343174591
 21
-1175.543841386505
 31
0.0
  0
LINE
  5
218
330
71
100
AcDbEntity
  8
1
  6
Continuous
 62
     2
100
AcDbLine
 10
-954.5666676507923
 20
-1180.543841386505
 30
0.0
 11
-954.5666676507923
 21
-1175.543841386508
 31
0.0
  0
LINE
  5
219
330
71
100
AcDbEntity
  8
1
  6
Continuous
 62
     2
100
AcDbLine
 10
-1022.900000984126
 20
-1180.543841386505
 30
0.0
 11
-1022.900000984126
 21
-1175.543841386505
 31
0.0
  0
LINE
  5
21A
330
71
100
AcDbEntity
  8
1
  6
Continuous
 62
     2
100
AcDbLine
 10
-812.9000009841282
 20
-1118.143841386505
 30
0.0
 11
-812.9000009841282
 21
-1060.743841386505
 31
0.0
  0
LINE
  5
21B
330
71
100
AcDbEntity
  8
1
  6
Continuous
 62
     2
100
AcDbLine
 10
-812.9000009841282
 20
-1118.143841386505
 30
0.0
 11
-817.9000009841258
 21
-1118.143841386505
 31
0.0
  0
LINE
  5
21C
330
71
100
AcDbEntity
  8
1
  6
Continuous
 62
     2
100
AcDbLine
 10
-1212.900000984126
 20
-1180.543841386505
 30
0.0
 11
-1232.900000984127
 21
-1180.543841386505
 31
0.0
  0
LINE
  5
21D
330
71
100
AcDbEntity
  8
1
  6
Continuous
 62
     2
100
AcDbLine
 10
-1159.566667650792
 20
-1180.543841386505
 30
0.0
 11
-1159.566667650792
 21
-1175.543841386505
 31
0.0
  0
LINE
  5
21E
330
71
100
AcDbEntity
  8
1
  6
Continuous
 62
     2
100
AcDbLine
 10
-1159.566667650792
 20
-1180.543841386505
 30
0.0
 11
-1091.233334317459
 21
-1180.543841386505
 31
0.0
  0
LINE
  5
21F
330
71
100
AcDbEntity
  8
1
  6
Continuous
 62
     6
100
AcDbLine
 10
-1159.566667650792
 20
-1175.543841386505
 30
0.0
 11
-1091.233334317459
 21
-1175.543841386505
 31
0.0
  0
LINE
  5
220
330
71
100
AcDbEntity
  8
1
  6
Continuous
 62
     6
100
AcDbLine
 10
-1159.566667650792
 20
-1175.543841386505
 30
0.0
 11
-1212.900000984125
 21
-1175.543841386505
 31
0.0
  0
LINE
  5
221
330
71
100
AcDbEntity
  8
1
  6
Continuous
 62
     2
100
AcDbLine
 10
-1091.233334317459
 20
-1180.543841386505
 30
0.0
 11
-1091.233334317459
 21
-1175.543841386505
 31
0.0
  0
LINE
  5
222
330
71
100
AcDbEntity
  8
1
  6
Continuous
 62
     2
100
AcDbLine
 10
-1212.900000984126
 20
-1180.543841386505
 30
0.0
 11
-1212.900000984126
 21
-1176.543841386505
 31
0.0
  0
LINE
  5
223
330
71
100
AcDbEntity
  8
1
  6
Continuous
 62
     2
100
AcDbLine
 10
-1212.900000984126
 20
-1180.543841386505
 30
0.0
 11
-1159.566667650792
 21
-1180.543841386505
 31
0.0
  0
LINE
  5
224
330
71
100
AcDbEntity
  8
1
  6
Continuous
 62
     2
100
AcDbLine
 10
-1002.900000984129
 20
-1180.543841386505
 30
0.0
 11
-1022.900000984126
 21
-1180.543841386505
 31
0.0
  0
LINE
  5
225
330
71
100
AcDbEntity
  8
1
  6
Continuous
 62
     2
100
AcDbLine
 10
-1002.900000984129
 20
-1180.543841386505
 30
0.0
 11
-1002.900000984129
 21
-1176.543841386505
 31
0.0
  0
LINE
  5
226
330
71
100
AcDbEntity
  8
1
  6
Continuous
 62
     2
100
AcDbLine
 10
-1002.900000984129
 20
-1180.543841386505
 30
0.0
 11
-954.5666676507923
 21
-1180.543841386505
 31
0.0
  0
LINE
  5
227
330
71
100
AcDbEntity
  8
1
  6
Continuous
 62
     2
100
AcDbLine
 10
-954.5666676507923
 20
-1180.543841386505
 30
0.0
 11
-886.2333343174591
 21
-1180.543841386505
 31
0.0
  0
LINE
  5
228
330
71
100
AcDbEntity
  8
1
  6
Continuous
 62
     2
100
AcDbLine
 10
-812.9000009841282
 20
-1180.543841386505
 30
0.0
 11
-817.9000009841257
 21
-1180.543841386505
 31
0.0
  0
LINE
  5
229
330
71
100
AcDbEntity
  8
1
  6
Continuous
 62
     2
100
AcDbLine
 10
-812.9000009841282
 20
-1175.543841386505
 30
0.0
 11
-812.9000009841282
 21
-1180.543841386505
 31
0.0
  0
LINE
  5
22A
330
71
100
AcDbEntity
  8
1
  6
Continuous
 62
     2
100
AcDbLine
 10
-812.9000009841282
 20
-1175.543841386505
 30
0.0
 11
-812.9000009841282
 21
-1118.143841386505
 31
0.0
  0
LINE
  5
22B
330
71
100
AcDbEntity
  8
1
  6
Continuous
 62
     2
100
AcDbLine
 10
-812.9000009841282
 20
-883.5438413865054
 30
0.0
 11
-817.9000009841282
 21
-883.5438413865054
 31
0.0
  0
LINE
  5
22C
330
71
100
AcDbEntity
  8
1
  6
Continuous
 62
     6
100
AcDbLine
 10
-817.9000009841282
 20
-888.5438413865054
 30
0.0
 11
-817.9000009841277
 21
-945.9438413865055
 31
0.0
  0
LINE
  5
22D
330
71
100
AcDbEntity
  8
1
  6
Continuous
 62
     2
100
AcDbLine
 10
-812.9000009841282
 20
-883.5438413865054
 30
0.0
 11
-812.9000009841282
 21
-888.5438413865054
 31
0.0
  0
LINE
  5
22E
330
71
100
AcDbEntity
  8
1
  6
Continuous
 62
     2
100
AcDbLine
 10
-817.9000009841282
 20
-888.5438413865054
 30
0.0
 11
-817.9000009841282
 21
-883.5438413865054
 31
0.0
  0
LINE
  5
22F
330
71
100
AcDbEntity
  8
1
  6
Continuous
 62
     2
100
AcDbLine
 10
-817.9000009841282
 20
-888.5438413865054
 30
0.0
 11
-812.9000009841282
 21
-888.5438413865054
 31
0.0
  0
LINE
  5
230
330
71
100
AcDbEntity
  8
1
  6
Continuous
 62
     2
100
AcDbLine
 10
-812.9000009841282
 20
-888.5438413865054
 30
0.0
 11
-812.9000009841282
 21
-945.9438413865055
 31
0.0
  0
LINE
  5
231
330
71
100
AcDbEntity
  8
1
  6
Continuous
 62
     2
100
AcDbLine
 10
-817.9000009841277
 20
-945.9438413865055
 30
0.0
 11
-812.9000009841282
 21
-945.9438413865055
 31
0.0
  0
LINE
  5
232
330
71
100
AcDbEntity
  8
1
  6
Continuous
 62
     6
100
AcDbLine
 10
-817.9000009841277
 20
-945.9438413865055
 30
0.0
 11
-817.9000009841257
 21
-1003.343841386505
 31
0.0
  0
LINE
  5
233
330
71
100
AcDbEntity
  8
1
  6
Continuous
 62
     2
100
AcDbLine
 10
-812.9000009841282
 20
-945.9438413865055
 30
0.0
 11
-812.9000009841282
 21
-1003.343841386505
 31
0.0
  0
LINE
  5
234
330
71
100
AcDbEntity
  8
1
  6
Continuous
 62
     2
100
AcDbLine
 10
-817.9000009841257
 20
-1003.343841386505
 30
0.0
 11
-812.9000009841282
 21
-1003.343841386505
 31
0.0
  0
LINE
  5
235
330
71
100
AcDbEntity
  8
1
  6
Continuous
 62
     6
100
AcDbLine
 10
-817.9000009841257
 20
-1003.343841386505
 30
0.0
 11
-817.9000009841257
 21
-1060.743841386505
 31
0.0
  0
LINE
  5
236
330
71
100
AcDbEntity
  8
1
  6
Continuous
 62
     2
100
AcDbLine
 10
-812.9000009841282
 20
-1003.343841386505
 30
0.0
 11
-812.9000009841282
 21
-1060.743841386505
 31
0.0
  0
LINE
  5
237
330
71
100
AcDbEntity
  8
1
  6
Continuous
 62
     2
100
AcDbLine
 10
-817.9000009841257
 20
-1060.743841386505
 30
0.0
 11
-812.9000009841282
 21
-1060.743841386505
 31
0.0
  0
LINE
  5
238
330
71
100
AcDbEntity
  8
1
  6
Continuous
 62
     6
100
AcDbLine
 10
-817.9000009841257
 20
-1060.743841386505
 30
0.0
 11
-817.9000009841258
 21
-1118.143841386505
 31
0.0
  0
LINE
  5
239
330
71
100
AcDbEntity
  8
1
  6
Continuous
 62
     6
100
AcDbLine
 10
-1212.900000984126
 20
-888.5438413865052
 30
0.0
 11
-1159.566667650792
 21
-888.5438413865052
 31
0.0
  0
LINE
  5
23A
330
71
100
AcDbEntity
  8
1
  6
Continuous
 62
     2
100
AcDbLine
 10
-817.9000009841282
 20
-883.5438413865054
 30
0.0
 11
-886.2333343174591
 21
-883.5438413865054
 31
0.0
  0
LINE
  5
23B
330
71
100
AcDbEntity
  8
1
  6
Continuous
 62
     2
100
AcDbLine
 10
-886.2333343174591
 20
-888.5438413865054
 30
0.0
 11
-886.2333343174591
 21
-883.5438413865054
 31
0.0
  0
LINE
  5
23C
330
71
100
AcDbEntity
  8
1
  6
Continuous
 62
     6
100
AcDbLine
 10
-886.2333343174591
 20
-888.5438413865054
 30
0.0
 11
-817.9000009841282
 21
-888.5438413865054
 31
0.0
  0
LINE
  5
23D
330
71
100
AcDbEntity
  8
1
  6
Continuous
 62
     2
100
AcDbLine
 10
-886.2333343174591
 20
-883.5438413865054
 30
0.0
 11
-954.5666676507923
 21
-883.5438413865054
 31
0.0
  0
LINE
  5
23E
330
71
100
AcDbEntity
  8
1
  6
Continuous
 62
     2
100
AcDbLine
 10
-954.5666676507923
 20
-888.5438413865054
 30
0.0
 11
-954.5666676507923
 21
-883.5438413865054
 31
0.0
  0
LINE
  5
23F
330
71
100
AcDbEntity
  8
1
  6
Continuous
 62
     6
100
AcDbLine
 10
-954.5666676507923
 20
-888.5438413865054
 30
0.0
 11
-886.2333343174591
 21
-888.5438413865054
 31
0.0
  0
LINE
  5
240
330
71
100
AcDbEntity
  8
1
  6
Continuous
 62
     2
100
AcDbLine
 10
-954.5666676507923
 20
-883.5438413865054
 30
0.0
 11
-1002.900000984129
 21
-883.5438413865054
 31
0.0
  0
LINE
  5
241
330
71
100
AcDbEntity
  8
1
  6
Continuous
 62
     2
100
AcDbLine
 10
-1022.900000984126
 20
-888.5438413865054
 30
0.0
 11
-1022.900000984126
 21
-883.5438413865054
 31
0.0
  0
LINE
  5
242
330
71
100
AcDbEntity
  8
1
  6
Continuous
 62
     6
100
AcDbLine
 10
-1022.900000984126
 20
-888.5438413865054
 30
0.0
 11
-954.5666676507923
 21
-888.5438413865054
 31
0.0
  0
LINE
  5
243
330
71
100
AcDbEntity
  8
1
  6
Continuous
 62
     2
100
AcDbLine
 10
-1022.900000984126
 20
-883.5438413865054
 30
0.0
 11
-1091.233334317459
 21
-883.5438413865054
 31
0.0
  0
LINE
  5
244
330
71
100
AcDbEntity
  8
1
  6
Continuous
 62
     2
100
AcDbLine
 10
-1091.233334317459
 20
-888.5438413865054
 30
0.0
 11
-1091.233334317459
 21
-883.5438413865054
 31
0.0
  0
LINE
  5
245
330
71
100
AcDbEntity
  8
1
  6
Continuous
 62
     6
100
AcDbLine
 10
-1091.233334317459
 20
-888.5438413865054
 30
0.0
 11
-1022.900000984126
 21
-888.5438413865054
 31
0.0
  0
LINE
  5
246
330
71
100
AcDbEntity
  8
1
  6
Continuous
 62
     2
100
AcDbLine
 10
-1091.233334317459
 20
-883.5438413865054
 30
0.0
 11
-1159.566667650792
 21
-883.5438413865054
 31
0.0
  0
LINE
  5
247
330
71
100
AcDbEntity
  8
1
  6
Continuous
 62
     2
100
AcDbLine
 10
-1159.566667650792
 20
-888.5438413865052
 30
0.0
 11
-1159.566667650792
 21
-883.5438413865054
 31
0.0
  0
LINE
  5
248
330
71
100
AcDbEntity
  8
1
  6
Continuous
 62
     6
100
AcDbLine
 10
-1159.566667650792
 20
-888.5438413865052
 30
0.0
 11
-1091.233334317459
 21
-888.5438413865054
 31
0.0
  0
LINE
  5
249
330
71
100
AcDbEntity
  8
1
  6
Continuous
 62
     2
100
AcDbLine
 10
-1159.566667650792
 20
-883.5438413865054
 30
0.0
 11
-1212.900000984126
 21
-883.5438413865054
 31
0.0
  0
LINE
  5
24A
330
71
100
AcDbEntity
  8
1
  6
Continuous
 62
     2
100
AcDbLine
 10
-1212.900000984126
 20
-883.5438413865054
 30
0.0
 11
-1212.900000984126
 21
-887.5438413865052
 31
0.0
  0
LINE
  5
24B
330
71
100
AcDbEntity
  8
1
  6
Continuous
 62
     2
100
AcDbLine
 10
-1212.900000984126
 20
-883.5438413865054
 30
0.0
 11
-1232.900000984127
 21
-883.5438413865054
 31
0.0
  0
LINE
  5
24C
330
71
100
AcDbEntity
  8
1
  6
Continuous
 62
     2
100
AcDbLine
 10
-1002.900000984129
 20
-883.5438413865054
 30
0.0
 11
-1002.900000984129
 21
-887.5438413865052
 31
0.0
  0
LINE
  5
24D
330
71
100
AcDbEntity
  8
1
  6
Continuous
 62
     2
100
AcDbLine
 10
-1002.900000984129
 20
-883.5438413865054
 30
0.0
 11
-1022.900000984126
 21
-883.5438413865054
 31
0.0
  0
LINE
  5
24E
330
71
100
AcDbEntity
  8
1
  6
Continuous
 62
     2
100
AcDbLine
 10
-1232.900000984127
 20
-883.5438413865054
 30
0.0
 11
-1232.900000984127
 21
-1032.043841386505
 31
0.0
  0
LINE
  5
24F
330
71
100
AcDbEntity
  8
1
  6
Continuous
 62
     2
100
AcDbLine
 10
-1232.900000984127
 20
-1032.043841386505
 30
0.0
 11
-1222.900000984126
 21
-1032.043841386505
 31
0.0
  0
LINE
  5
250
330
71
100
AcDbEntity
  8
1
  6
Continuous
 62
     2
100
AcDbLine
 10
-1232.900000984127
 20
-1032.043841386505
 30
0.0
 11
-1232.900000984127
 21
-1180.543841386505
 31
0.0
  0
LINE
  5
251
330
71
100
AcDbEntity
  8
1
  6
Continuous
 62
     6
100
AcDbLine
 10
-1212.900000984125
 20
-1175.543841386505
 30
0.0
 11
-1212.900000984126
 21
-888.5438413865052
 31
0.0
  0
LINE
  5
252
330
71
100
AcDbEntity
  8
1
  6
Continuous
 62
     6
100
AcDbLine
 10
-817.9000009841258
 20
-1175.543841386506
 30
0.0
 11
-817.9000009841261
 21
-1167.043841386506
 31
0.0
  0
LINE
  5
253
330
71
100
AcDbEntity
  8
1
  6
Continuous
 62
     6
100
AcDbLine
 10
-1091.233334317459
 20
-1175.543841386505
 30
0.0
 11
-947.4448055108757
 21
-1175.543841386509
 31
0.0
  0
LINE
  5
254
330
71
100
AcDbEntity
  8
1
  6
Continuous
 62
     2
100
AcDbLine
 10
-954.5666676507923
 20
-1175.543841386508
 30
0.0
 11
-954.5666676507923
 21
-1175.543841386505
 31
0.0
  0
LINE
  5
255
330
71
100
AcDbEntity
  8
1
  6
Continuous
 62
     6
100
AcDbLine
 10
-817.900000984124
 20
-1158.543841386506
 30
0.0
 11
-817.900000984124
 21
-1150.043841386506
 31
0.0
  0
LINE
  5
256
330
71
100
AcDbEntity
  8
1
  6
Continuous
 62
     7
100
AcDbLine
 10
-883.1448055108757
 20
-1167.043841386506
 30
0.0
 11
-883.1448055108757
 21
-1158.543841386506
 31
0.0
  0
LINE
  5
257
330
71
100
AcDbEntity
  8
1
  6
Continuous
 62
     6
100
AcDbLine
 10
-911.0448055108757
 20
-1158.543841386506
 30
0.0
 11
-817.900000984124
 21
-1158.543841386506
 31
0.0
  0
LINE
  5
258
330
71
100
AcDbEntity
  8
1
  6
Continuous
 62
     7
100
AcDbLine
 10
-947.4448055108757
 20
-1158.543841386506
 30
0.0
 11
-947.4448055108757
 21
-1150.043841386506
 31
0.0
  0
LINE
  5
259
330
71
100
AcDbEntity
  8
1
  6
Continuous
 62
     7
100
AcDbLine
 10
-911.0448055108757
 20
-1158.543841386506
 30
0.0
 11
-911.0448055108757
 21
-1150.043841386506
 31
0.0
  0
LINE
  5
25A
330
71
100
AcDbEntity
  8
1
  6
Continuous
 62
     7
100
AcDbLine
 10
-853.3184092658028
 20
-1150.043841386506
 30
0.0
 11
-853.3184092658028
 21
-1158.543841386506
 31
0.0
  0
LINE
  5
25B
330
71
100
AcDbEntity
  8
1
  6
Continuous
 62
     7
100
AcDbLine
 10
-826.8184092658031
 20
-1150.043841386506
 30
0.0
 11
-826.8184092658031
 21
-1158.543841386506
 31
0.0
  0
LINE
  5
25C
330
71
100
AcDbEntity
  8
1
  6
Continuous
 62
     7
100
AcDbLine
 10
-817.9000009841244
 20
-1167.043841386506
 30
0.0
 11
-911.0448055108757
 21
-1167.043841386506
 31
0.0
  0
LINE
  5
25D
102
{ACAD_REACTORS
330
342
330
343
102
}
330
71
100
AcDbEntity
  8
0
  6
Continuous
 62
     2
100
AcDbLine
 10
-933.7373765691082
 20
-1166.243552270843
 30
0.0
 11
-933.7373765691082
 21
-1165.371035264039
 31
0.0
  0
LINE
  5
25E
102
{ACAD_REACTORS
330
342
330
343
102
}
330
71
100
AcDbEntity
  8
0
  6
Continuous
 62
     2
100
AcDbLine
 10
-933.7373765691082
 20
-1167.203320978325
 30
0.0
 11
-933.7373765691082
 21
-1168.075837985129
 31
0.0
  0
LINE
  5
25F
102
{ACAD_REACTORS
330
344
330
345
102
}
330
71
100
AcDbEntity
  8
0
  6
Continuous
 62
     2
100
AcDbLine
 10
-918.4043324328178
 20
-1165.981797168802
 30
0.0
 11
-917.3006931332498
 21
-1165.981797168802
 31
0.0
  0
LINE
  5
260
102
{ACAD_REACTORS
330
344
330
345
102
}
330
71
100
AcDbEntity
  8
0
  6
Continuous
 62
     2
100
AcDbLine
 10
-917.6346750898564
 20
-1167.203320978326
 30
0.0
 11
-917.6346750898564
 21
-1168.075837985129
 31
0.0
  0
LINE
  5
261
102
{ACAD_REACTORS
330
34E
330
34F
102
}
330
71
100
AcDbEntity
  8
0
  6
Continuous
 62
     2
100
AcDbLine
 10
-919.4954317052362
 20
-1164.891150910315
 30
0.0
 11
-918.0974786582959
 21
-1163.31029191654
 31
0.0
  0
LINE
  5
262
102
{ACAD_REACTORS
330
34E
330
34F
102
}
330
71
100
AcDbEntity
  8
0
  6
Continuous
 62
     2
100
AcDbLine
 10
-919.4000082890634
 20
-1161.837341386504
 30
0.0
 11
-918.0974786582959
 21
-1163.31029191654
 31
0.0
  0
LINE
  5
263
102
{ACAD_REACTORS
330
34E
330
34F
102
}
330
71
100
AcDbEntity
  8
0
  6
Continuous
 62
     2
100
AcDbLine
 10
-916.7949490275296
 20
-1161.837341386504
 30
0.0
 11
-915.3922248097823
 21
-1161.837341386504
 31
0.0
  0
LINE
  5
264
102
{ACAD_REACTORS
330
34E
330
34F
102
}
330
71
100
AcDbEntity
  8
0
  6
Continuous
 62
     2
100
AcDbLine
 10
-918.0927074874882
 20
-1164.891150910315
 30
0.0
 11
-917.3961165494223
 21
-1164.103419125021
 31
0.0
  0
LINE
  5
265
102
{ACAD_REACTORS
330
34E
330
34F
102
}
330
71
100
AcDbEntity
  8
0
  6
Continuous
 62
     2
100
AcDbLine
 10
-918.0927074874882
 20
-1164.891150910315
 30
0.0
 11
-919.4954317052362
 21
-1164.891150910315
 31
0.0
  0
LINE
  5
266
102
{ACAD_REACTORS
330
350
330
351
102
}
330
71
100
AcDbEntity
  8
0
  6
Continuous
 62
     2
100
AcDbLine
 10
-919.6147109754531
 20
-1164.891150910315
 30
0.0
 11
-920.8552153857061
 21
-1164.891150910315
 31
0.0
  0
LINE
  5
267
102
{ACAD_REACTORS
330
352
330
353
102
}
330
71
100
AcDbEntity
  8
0
  6
Continuous
 62
     2
100
AcDbLine
 10
-921.7231949938612
 20
-1167.028817576965
 30
0.0
 11
-922.0233602310514
 21
-1166.261002610979
 31
0.0
  0
LINE
  5
268
102
{ACAD_REACTORS
330
352
330
353
102
}
330
71
100
AcDbEntity
  8
0
  6
Continuous
 62
     2
100
AcDbLine
 10
-922.3235254682436
 20
-1167.028817576965
 30
0.0
 11
-921.7231949938612
 21
-1167.028817576965
 31
0.0
  0
LINE
  5
269
102
{ACAD_REACTORS
330
352
330
353
102
}
330
71
100
AcDbEntity
  8
0
  6
Continuous
 62
     2
100
AcDbLine
 10
-924.0415654831174
 20
-1168.25034138649
 30
0.0
 11
-922.8010610728645
 21
-1168.25034138649
 31
0.0
  0
LINE
  5
26A
102
{ACAD_REACTORS
330
352
330
353
102
}
330
71
100
AcDbEntity
  8
0
  6
Continuous
 62
     2
100
AcDbLine
 10
-922.6436124361783
 20
-1165.196531862679
 30
0.0
 11
-921.4031080259253
 21
-1165.196531862679
 31
0.0
  0
LINE
  5
26B
102
{ACAD_REACTORS
330
352
330
353
102
}
330
71
100
AcDbEntity
  8
0
  6
Continuous
 62
     2
100
AcDbLine
 10
-921.4031080259253
 20
-1165.196531862679
 30
0.0
 11
-920.0051549789852
 21
-1168.25034138649
 31
0.0
  0
LINE
  5
26C
102
{ACAD_REACTORS
330
352
330
353
102
}
330
71
100
AcDbEntity
  8
0
  6
Continuous
 62
     2
100
AcDbLine
 10
-921.245659389239
 20
-1168.25034138649
 30
0.0
 11
-921.4571394427148
 21
-1167.709380842272
 31
0.0
  0
LINE
  5
26D
102
{ACAD_REACTORS
330
354
330
355
102
}
330
71
100
AcDbEntity
  8
0
  6
Continuous
 62
     2
100
AcDbLine
 10
-925.3879785848251
 20
-1168.25034138649
 30
0.0
 11
-924.1951858826586
 21
-1168.25034138649
 31
0.0
  0
LINE
  5
26E
102
{ACAD_REACTORS
330
354
330
355
102
}
330
71
100
AcDbEntity
  8
0
  6
Continuous
 62
     2
100
AcDbLine
 10
-925.3879785848251
 20
-1165.981797168802
 30
0.0
 11
-925.3879785848251
 21
-1168.25034138649
 31
0.0
  0
LINE
  5
26F
102
{ACAD_REACTORS
330
354
330
355
102
}
330
71
100
AcDbEntity
  8
0
  6
Continuous
 62
     2
100
AcDbLine
 10
-926.1990776222997
 20
-1165.196531862679
 30
0.0
 11
-926.1990776222997
 21
-1165.981797168802
 31
0.0
  0
LINE
  5
270
102
{ACAD_REACTORS
330
356
330
357
102
}
330
71
100
AcDbEntity
  8
0
  6
Continuous
 62
     2
100
AcDbLine
 10
-924.7198637407271
 20
-1164.891150910315
 30
0.0
 11
-923.5270710385606
 21
-1164.891150910315
 31
0.0
  0
LINE
  5
271
102
{ACAD_REACTORS
330
356
330
357
102
}
330
71
100
AcDbEntity
  8
0
  6
Continuous
 62
     2
100
AcDbLine
 10
-922.2865666283066
 20
-1163.146116896709
 30
0.0
 11
-923.5270710385606
 21
-1161.837341386504
 31
0.0
  0
LINE
  5
272
102
{ACAD_REACTORS
330
356
330
357
102
}
330
71
100
AcDbEntity
  8
0
  6
Continuous
 62
     2
100
AcDbLine
 10
-921.0937739261399
 20
-1161.837341386504
 30
0.0
 11
-922.2865666283066
 21
-1161.837341386504
 31
0.0
  0
LINE
  5
273
102
{ACAD_REACTORS
330
356
330
357
102
}
330
71
100
AcDbEntity
  8
0
  6
Continuous
 62
     2
100
AcDbLine
 10
-921.0937739261399
 20
-1164.891150910315
 30
0.0
 11
-921.0937739261399
 21
-1161.837341386504
 31
0.0
  0
LINE
  5
274
102
{ACAD_REACTORS
330
356
330
357
102
}
330
71
100
AcDbEntity
  8
0
  6
Continuous
 62
     2
100
AcDbLine
 10
-922.2865666283066
 20
-1164.891150910315
 30
0.0
 11
-921.0937739261399
 21
-1164.891150910315
 31
0.0
  0
LINE
  5
275
102
{ACAD_REACTORS
330
356
330
357
102
}
330
71
100
AcDbEntity
  8
0
  6
Continuous
 62
     2
100
AcDbLine
 10
-923.5270710385606
 20
-1163.582375400111
 30
0.0
 11
-922.2865666283066
 21
-1164.891150910315
 31
0.0
  0
LINE
  5
276
102
{ACAD_REACTORS
330
358
330
359
102
}
330
71
100
AcDbEntity
  8
0
  6
Continuous
 62
     2
100
AcDbLine
 10
-927.5350054487262
 20
-1166.505307372884
 30
0.0
 11
-928.7755098589791
 21
-1165.196531862679
 31
0.0
  0
LINE
  5
277
102
{ACAD_REACTORS
330
358
330
359
102
}
330
71
100
AcDbEntity
  8
0
  6
Continuous
 62
     2
100
AcDbLine
 10
-927.5350054487262
 20
-1165.196531862679
 30
0.0
 11
-927.5350054487262
 21
-1166.505307372884
 31
0.0
  0
LINE
  5
278
102
{ACAD_REACTORS
330
358
330
359
102
}
330
71
100
AcDbEntity
  8
0
  6
Continuous
 62
     2
100
AcDbLine
 10
-926.3422127465599
 20
-1165.196531862679
 30
0.0
 11
-927.5350054487262
 21
-1165.196531862679
 31
0.0
  0
LINE
  5
279
102
{ACAD_REACTORS
330
358
330
359
102
}
330
71
100
AcDbEntity
  8
0
  6
Continuous
 62
     2
100
AcDbLine
 10
-926.3422127465599
 20
-1168.25034138649
 30
0.0
 11
-926.3422127465599
 21
-1165.196531862679
 31
0.0
  0
LINE
  5
27A
102
{ACAD_REACTORS
330
358
330
359
102
}
330
71
100
AcDbEntity
  8
0
  6
Continuous
 62
     2
100
AcDbLine
 10
-928.7755098589791
 20
-1166.941565876285
 30
0.0
 11
-927.5350054487262
 21
-1168.25034138649
 31
0.0
  0
LINE
  5
27B
102
{ACAD_REACTORS
330
358
330
359
102
}
330
71
100
AcDbEntity
  8
0
  6
Continuous
 62
     2
100
AcDbLine
 10
-928.7755098589791
 20
-1168.25034138649
 30
0.0
 11
-928.7755098589791
 21
-1166.941565876285
 31
0.0
  0
LINE
  5
27C
102
{ACAD_REACTORS
330
348
330
349
102
}
330
71
100
AcDbEntity
  8
0
  6
Continuous
 62
     2
100
AcDbLine
 10
-926.2943501075877
 20
-1162.535354991947
 30
0.0
 11
-924.95842228116
 21
-1162.535354991947
 31
0.0
  0
LINE
  5
27D
102
{ACAD_REACTORS
330
348
330
349
102
}
330
71
100
AcDbEntity
  8
0
  6
Continuous
 62
     2
100
AcDbLine
 10
-926.2943501075877
 20
-1164.193137304873
 30
0.0
 11
-926.2943501075877
 21
-1163.713252951131
 31
0.0
  0
LINE
  5
27E
102
{ACAD_REACTORS
330
348
330
349
102
}
330
71
100
AcDbEntity
  8
0
  6
Continuous
 62
     2
100
AcDbLine
 10
-924.95842228116
 20
-1164.193137304873
 30
0.0
 11
-926.2943501075877
 21
-1164.193137304873
 31
0.0
  0
LINE
  5
27F
102
{ACAD_REACTORS
330
348
330
349
102
}
330
71
100
AcDbEntity
  8
0
  6
Continuous
 62
     2
100
AcDbLine
 10
-924.95842228116
 20
-1164.891150910315
 30
0.0
 11
-924.95842228116
 21
-1164.193137304873
 31
0.0
  0
LINE
  5
280
102
{ACAD_REACTORS
330
348
330
349
102
}
330
71
100
AcDbEntity
  8
0
  6
Continuous
 62
     2
100
AcDbLine
 10
-928.108742004941
 20
-1164.891150910315
 30
0.0
 11
-924.95842228116
 21
-1164.891150910315
 31
0.0
  0
LINE
  5
281
102
{ACAD_REACTORS
330
348
330
349
102
}
330
71
100
AcDbEntity
  8
0
  6
Continuous
 62
     2
100
AcDbLine
 10
-928.108742004941
 20
-1161.837341386504
 30
0.0
 11
-924.95842228116
 21
-1161.837341386504
 31
0.0
  0
LINE
  5
282
102
{ACAD_REACTORS
330
348
330
349
102
}
330
71
100
AcDbEntity
  8
0
  6
Continuous
 62
     2
100
AcDbLine
 10
-924.95842228116
 20
-1162.535354991947
 30
0.0
 11
-924.95842228116
 21
-1161.837341386504
 31
0.0
  0
LINE
  5
283
102
{ACAD_REACTORS
330
35A
330
35B
102
}
330
71
100
AcDbEntity
  8
0
  6
Continuous
 62
     2
100
AcDbLine
 10
-930.970097500081
 20
-1162.906174719839
 30
0.0
 11
-930.970097500081
 21
-1161.837341386504
 31
0.0
  0
LINE
  5
284
102
{ACAD_REACTORS
330
35A
330
35B
102
}
330
71
100
AcDbEntity
  8
0
  6
Continuous
 62
     2
100
AcDbLine
 10
-930.970097500081
 20
-1161.837341386504
 30
0.0
 11
-929.7773047979146
 21
-1161.837341386504
 31
0.0
  0
LINE
  5
285
102
{ACAD_REACTORS
330
35A
330
35B
102
}
330
71
100
AcDbEntity
  8
0
  6
Continuous
 62
     2
100
AcDbLine
 10
-930.970097500081
 20
-1163.756878801472
 30
0.0
 11
-932.0197550779884
 21
-1163.756878801472
 31
0.0
  0
LINE
  5
286
102
{ACAD_REACTORS
330
35A
330
35B
102
}
330
71
100
AcDbEntity
  8
0
  6
Continuous
 62
     2
100
AcDbLine
 10
-932.0197550779884
 20
-1163.756878801472
 30
0.0
 11
-932.0197550779884
 21
-1164.891150910315
 31
0.0
  0
LINE
  5
287
102
{ACAD_REACTORS
330
35A
330
35B
102
}
330
71
100
AcDbEntity
  8
0
  6
Continuous
 62
     2
100
AcDbLine
 10
-933.212547780155
 20
-1161.837341386504
 30
0.0
 11
-933.212547780155
 21
-1164.891150910315
 31
0.0
  0
LINE
  5
288
102
{ACAD_REACTORS
330
34C
330
34D
102
}
330
71
100
AcDbEntity
  8
0
  6
Continuous
 62
     2
100
AcDbLine
 10
-935.1687278117088
 20
-1163.206174881286
 30
0.0
 11
-935.1687278117088
 21
-1162.500447231944
 31
0.0
  0
LINE
  5
289
102
{ACAD_REACTORS
330
34C
330
34D
102
}
330
71
100
AcDbEntity
  8
0
  6
Continuous
 62
     2
100
AcDbLine
 10
-936.4092322219627
 20
-1164.891150910315
 30
0.0
 11
-935.1687278117088
 21
-1164.891150910315
 31
0.0
  0
LINE
  5
28A
102
{ACAD_REACTORS
330
34C
330
34D
102
}
330
71
100
AcDbEntity
  8
0
  6
Continuous
 62
     2
100
AcDbLine
 10
-935.1687278117088
 20
-1164.891150910315
 30
0.0
 11
-935.1687278117088
 21
-1163.948072669172
 31
0.0
  0
LINE
  5
28B
102
{ACAD_REACTORS
330
346
330
347
102
}
330
71
100
AcDbEntity
  8
0
  6
Continuous
 62
     2
100
AcDbLine
 10
-940.7141780711743
 20
-1167.537785830933
 30
0.0
 11
-942.1900113321838
 21
-1167.537785830933
 31
0.0
  0
LINE
  5
28C
102
{ACAD_REACTORS
330
346
330
347
102
}
330
71
100
AcDbEntity
  8
0
  6
Continuous
 62
     2
100
AcDbLine
 10
-943.2081506243131
 20
-1162.261586001906
 30
0.0
 11
-943.2081506243131
 21
-1167.826096771106
 31
0.0
  0
LINE
  5
28D
102
{ACAD_REACTORS
330
346
330
347
102
}
330
71
100
AcDbEntity
  8
0
  6
Continuous
 62
     2
100
AcDbLine
 10
-942.7839060089303
 20
-1161.837341386522
 30
0.0
 11
-937.3105939182134
 21
-1161.837341386522
 31
0.0
  0
LINE
  5
28E
102
{ACAD_REACTORS
330
346
330
347
102
}
330
71
100
AcDbEntity
  8
0
  6
Continuous
 62
     2
100
AcDbLine
 10
-936.8863493028296
 20
-1162.261586001906
 30
0.0
 11
-936.8863493028296
 21
-1167.826096771106
 31
0.0
  0
LINE
  5
28F
102
{ACAD_REACTORS
330
346
330
347
102
}
330
71
100
AcDbEntity
  8
0
  6
Continuous
 62
     2
100
AcDbLine
 10
-937.3105939182134
 20
-1168.25034138649
 30
0.0
 11
-942.7839060089303
 21
-1168.25034138649
 31
0.0
  0
LINE
  5
290
102
{ACAD_REACTORS
330
346
330
347
102
}
330
71
100
AcDbEntity
  8
0
  6
Continuous
 62
     2
100
AcDbLine
 10
-940.3984611480976
 20
-1167.222068907856
 30
0.0
 11
-940.3984611480976
 21
-1165.691297976324
 31
0.0
  0
LINE
  5
291
102
{ACAD_REACTORS
330
346
330
347
102
}
330
71
100
AcDbEntity
  8
0
  6
Continuous
 62
     2
100
AcDbLine
 10
-940.3984611480976
 20
-1163.4696384842
 30
0.0
 11
-940.3984611480976
 21
-1162.865613865139
 31
0.0
  0
LINE
  5
292
102
{ACAD_REACTORS
330
346
330
347
102
}
330
71
100
AcDbEntity
  8
0
  6
Continuous
 62
     2
100
AcDbLine
 10
-942.1900113321838
 20
-1162.549896942063
 30
0.0
 11
-940.7141780711743
 21
-1162.549896942063
 31
0.0
  0
LINE
  5
293
102
{ACAD_REACTORS
330
346
330
347
102
}
330
71
100
AcDbEntity
  8
0
  6
Continuous
 62
     2
100
AcDbLine
 10
-942.5057282552594
 20
-1162.865613865139
 30
0.0
 11
-942.5057282552594
 21
-1167.222068907856
 31
0.0
  0
LINE
  5
294
102
{ACAD_REACTORS
330
34C
330
34D
102
}
330
71
100
AcDbEntity
  8
0
  6
Continuous
 62
     2
100
AcDbLine
 10
-935.1687278117088
 20
-1163.948072669172
 30
0.0
 11
-934.4099602239284
 21
-1163.948072669172
 31
0.0
  0
LINE
  5
295
102
{ACAD_REACTORS
330
34C
330
34D
102
}
330
71
100
AcDbEntity
  8
0
  6
Continuous
 62
     2
100
AcDbLine
 10
-936.4092322219627
 20
-1161.837341386504
 30
0.0
 11
-934.4099602239284
 21
-1161.837341386504
 31
0.0
  0
LINE
  5
296
102
{ACAD_REACTORS
330
34C
330
34D
102
}
330
71
100
AcDbEntity
  8
0
  6
Continuous
 62
     2
100
AcDbLine
 10
-936.4092322219627
 20
-1161.837341386504
 30
0.0
 11
-936.4092322219627
 21
-1164.891150910315
 31
0.0
  0
LINE
  5
297
102
{ACAD_REACTORS
330
34C
330
34D
102
}
330
71
100
AcDbEntity
  8
0
  6
Continuous
 62
     2
100
AcDbLine
 10
-935.1687278117088
 20
-1163.206174881286
 30
0.0
 11
-934.8514327501667
 21
-1163.206174881286
 31
0.0
  0
LINE
  5
298
102
{ACAD_REACTORS
330
34C
330
34D
102
}
330
71
100
AcDbEntity
  8
0
  6
Continuous
 62
     2
100
AcDbLine
 10
-935.1687278117088
 20
-1162.500447231944
 30
0.0
 11
-934.8514327501667
 21
-1162.500447231944
 31
0.0
  0
LINE
  5
299
102
{ACAD_REACTORS
330
35A
330
35B
102
}
330
71
100
AcDbEntity
  8
0
  6
Continuous
 62
     2
100
AcDbLine
 10
-932.0197550779884
 20
-1162.906174719839
 30
0.0
 11
-930.970097500081
 21
-1162.906174719839
 31
0.0
  0
LINE
  5
29A
102
{ACAD_REACTORS
330
35A
330
35B
102
}
330
71
100
AcDbEntity
  8
0
  6
Continuous
 62
     2
100
AcDbLine
 10
-932.0197550779884
 20
-1161.837341386504
 30
0.0
 11
-932.0197550779884
 21
-1162.906174719839
 31
0.0
  0
LINE
  5
29B
102
{ACAD_REACTORS
330
35A
330
35B
102
}
330
71
100
AcDbEntity
  8
0
  6
Continuous
 62
     2
100
AcDbLine
 10
-933.212547780155
 20
-1161.837341386504
 30
0.0
 11
-932.0197550779884
 21
-1161.837341386504
 31
0.0
  0
LINE
  5
29C
102
{ACAD_REACTORS
330
35A
330
35B
102
}
330
71
100
AcDbEntity
  8
0
  6
Continuous
 62
     2
100
AcDbLine
 10
-932.0197550779884
 20
-1164.891150910315
 30
0.0
 11
-933.212547780155
 21
-1164.891150910315
 31
0.0
  0
LINE
  5
29D
102
{ACAD_REACTORS
330
35A
330
35B
102
}
330
71
100
AcDbEntity
  8
0
  6
Continuous
 62
     2
100
AcDbLine
 10
-930.970097500081
 20
-1164.891150910315
 30
0.0
 11
-930.970097500081
 21
-1163.756878801472
 31
0.0
  0
LINE
  5
29E
102
{ACAD_REACTORS
330
35A
330
35B
102
}
330
71
100
AcDbEntity
  8
0
  6
Continuous
 62
     2
100
AcDbLine
 10
-929.7773047979146
 20
-1164.891150910315
 30
0.0
 11
-930.970097500081
 21
-1164.891150910315
 31
0.0
  0
LINE
  5
29F
102
{ACAD_REACTORS
330
35A
330
35B
102
}
330
71
100
AcDbEntity
  8
0
  6
Continuous
 62
     2
100
AcDbLine
 10
-929.7773047979146
 20
-1161.837341386504
 30
0.0
 11
-929.7773047979146
 21
-1164.891150910315
 31
0.0
  0
LINE
  5
2A0
102
{ACAD_REACTORS
330
348
330
349
102
}
330
71
100
AcDbEntity
  8
0
  6
Continuous
 62
     2
100
AcDbLine
 10
-926.2943501075877
 20
-1163.713252951131
 30
0.0
 11
-924.95842228116
 21
-1163.713252951131
 31
0.0
  0
LINE
  5
2A1
102
{ACAD_REACTORS
330
348
330
349
102
}
330
71
100
AcDbEntity
  8
0
  6
Continuous
 62
     2
100
AcDbLine
 10
-924.95842228116
 20
-1163.713252951131
 30
0.0
 11
-924.95842228116
 21
-1163.015239345689
 31
0.0
  0
LINE
  5
2A2
102
{ACAD_REACTORS
330
348
330
349
102
}
330
71
100
AcDbEntity
  8
0
  6
Continuous
 62
     2
100
AcDbLine
 10
-924.95842228116
 20
-1163.015239345689
 30
0.0
 11
-926.2943501075877
 21
-1163.015239345689
 31
0.0
  0
LINE
  5
2A3
102
{ACAD_REACTORS
330
348
330
349
102
}
330
71
100
AcDbEntity
  8
0
  6
Continuous
 62
     2
100
AcDbLine
 10
-926.2943501075877
 20
-1163.015239345689
 30
0.0
 11
-926.2943501075877
 21
-1162.535354991947
 31
0.0
  0
LINE
  5
2A4
102
{ACAD_REACTORS
330
358
330
359
102
}
330
71
100
AcDbEntity
  8
0
  6
Continuous
 62
     2
100
AcDbLine
 10
-929.9683025611467
 20
-1168.25034138649
 30
0.0
 11
-928.7755098589791
 21
-1168.25034138649
 31
0.0
  0
LINE
  5
2A5
102
{ACAD_REACTORS
330
358
330
359
102
}
330
71
100
AcDbEntity
  8
0
  6
Continuous
 62
     2
100
AcDbLine
 10
-927.5350054487262
 20
-1168.25034138649
 30
0.0
 11
-926.3422127465599
 21
-1168.25034138649
 31
0.0
  0
LINE
  5
2A6
102
{ACAD_REACTORS
330
358
330
359
102
}
330
71
100
AcDbEntity
  8
0
  6
Continuous
 62
     2
100
AcDbLine
 10
-928.7755098589791
 20
-1165.196531862679
 30
0.0
 11
-929.9683025611467
 21
-1165.196531862679
 31
0.0
  0
LINE
  5
2A7
102
{ACAD_REACTORS
330
358
330
359
102
}
330
71
100
AcDbEntity
  8
0
  6
Continuous
 62
     2
100
AcDbLine
 10
-929.9683025611467
 20
-1165.196531862679
 30
0.0
 11
-929.9683025611467
 21
-1168.25034138649
 31
0.0
  0
LINE
  5
2A8
102
{ACAD_REACTORS
330
356
330
357
102
}
330
71
100
AcDbEntity
  8
0
  6
Continuous
 62
     2
100
AcDbLine
 10
-922.2865666283066
 20
-1161.837341386504
 30
0.0
 11
-922.2865666283066
 21
-1163.146116896709
 31
0.0
  0
LINE
  5
2A9
102
{ACAD_REACTORS
330
356
330
357
102
}
330
71
100
AcDbEntity
  8
0
  6
Continuous
 62
     2
100
AcDbLine
 10
-923.5270710385606
 20
-1161.837341386504
 30
0.0
 11
-924.7198637407271
 21
-1161.837341386504
 31
0.0
  0
LINE
  5
2AA
102
{ACAD_REACTORS
330
356
330
357
102
}
330
71
100
AcDbEntity
  8
0
  6
Continuous
 62
     2
100
AcDbLine
 10
-924.7198637407271
 20
-1161.837341386504
 30
0.0
 11
-924.7198637407271
 21
-1164.891150910315
 31
0.0
  0
LINE
  5
2AB
102
{ACAD_REACTORS
330
356
330
357
102
}
330
71
100
AcDbEntity
  8
0
  6
Continuous
 62
     2
100
AcDbLine
 10
-923.5270710385606
 20
-1164.891150910315
 30
0.0
 11
-923.5270710385606
 21
-1163.582375400111
 31
0.0
  0
LINE
  5
2AC
102
{ACAD_REACTORS
330
354
330
355
102
}
330
71
100
AcDbEntity
  8
0
  6
Continuous
 62
     2
100
AcDbLine
 10
-924.1951858826586
 20
-1168.25034138649
 30
0.0
 11
-924.1951858826586
 21
-1165.981797168802
 31
0.0
  0
LINE
  5
2AD
102
{ACAD_REACTORS
330
354
330
355
102
}
330
71
100
AcDbEntity
  8
0
  6
Continuous
 62
     2
100
AcDbLine
 10
-924.1951858826586
 20
-1165.981797168802
 30
0.0
 11
-923.384086845186
 21
-1165.981797168802
 31
0.0
  0
LINE
  5
2AE
102
{ACAD_REACTORS
330
354
330
355
102
}
330
71
100
AcDbEntity
  8
0
  6
Continuous
 62
     2
100
AcDbLine
 10
-923.384086845186
 20
-1165.981797168802
 30
0.0
 11
-923.384086845186
 21
-1165.196531862679
 31
0.0
  0
LINE
  5
2AF
102
{ACAD_REACTORS
330
354
330
355
102
}
330
71
100
AcDbEntity
  8
0
  6
Continuous
 62
     2
100
AcDbLine
 10
-923.384086845186
 20
-1165.196531862679
 30
0.0
 11
-926.1990776222997
 21
-1165.196531862679
 31
0.0
  0
LINE
  5
2B0
102
{ACAD_REACTORS
330
354
330
355
102
}
330
71
100
AcDbEntity
  8
0
  6
Continuous
 62
     2
100
AcDbLine
 10
-926.1990776222997
 20
-1165.981797168802
 30
0.0
 11
-925.3879785848251
 21
-1165.981797168802
 31
0.0
  0
LINE
  5
2B1
102
{ACAD_REACTORS
330
352
330
353
102
}
330
71
100
AcDbEntity
  8
0
  6
Continuous
 62
     2
100
AcDbLine
 10
-922.5895810193888
 20
-1167.709380842272
 30
0.0
 11
-921.4571394427148
 21
-1167.709380842272
 31
0.0
  0
LINE
  5
2B2
102
{ACAD_REACTORS
330
352
330
353
102
}
330
71
100
AcDbEntity
  8
0
  6
Continuous
 62
     2
100
AcDbLine
 10
-920.0051549789852
 20
-1168.25034138649
 30
0.0
 11
-921.245659389239
 21
-1168.25034138649
 31
0.0
  0
LINE
  5
2B3
102
{ACAD_REACTORS
330
352
330
353
102
}
330
71
100
AcDbEntity
  8
0
  6
Continuous
 62
     2
100
AcDbLine
 10
-922.6436124361783
 20
-1165.196531862679
 30
0.0
 11
-924.0415654831174
 21
-1168.25034138649
 31
0.0
  0
LINE
  5
2B4
102
{ACAD_REACTORS
330
352
330
353
102
}
330
71
100
AcDbEntity
  8
0
  6
Continuous
 62
     2
100
AcDbLine
 10
-922.8010610728645
 20
-1168.25034138649
 30
0.0
 11
-922.5895810193888
 21
-1167.709380842272
 31
0.0
  0
LINE
  5
2B5
102
{ACAD_REACTORS
330
352
330
353
102
}
330
71
100
AcDbEntity
  8
0
  6
Continuous
 62
     2
100
AcDbLine
 10
-922.3235254682436
 20
-1167.028817576965
 30
0.0
 11
-922.0233602310514
 21
-1166.261002610979
 31
0.0
  0
LINE
  5
2B6
102
{ACAD_REACTORS
330
350
330
351
102
}
330
71
100
AcDbEntity
  8
0
  6
Continuous
 62
     2
100
AcDbLine
 10
-920.8552153857061
 20
-1164.891150910315
 30
0.0
 11
-920.8552153857061
 21
-1161.837341386504
 31
0.0
  0
LINE
  5
2B7
102
{ACAD_REACTORS
330
350
330
351
102
}
330
71
100
AcDbEntity
  8
0
  6
Continuous
 62
     2
100
AcDbLine
 10
-919.6147109754531
 20
-1161.837341386504
 30
0.0
 11
-919.6147109754531
 21
-1164.891150910315
 31
0.0
  0
LINE
  5
2B8
102
{ACAD_REACTORS
330
350
330
351
102
}
330
71
100
AcDbEntity
  8
0
  6
Continuous
 62
     2
100
AcDbLine
 10
-920.8552153857061
 20
-1161.837341386504
 30
0.0
 11
-919.6147109754531
 21
-1161.837341386504
 31
0.0
  0
LINE
  5
2B9
102
{ACAD_REACTORS
330
34E
330
34F
102
}
330
71
100
AcDbEntity
  8
0
  6
Continuous
 62
     2
100
AcDbLine
 10
-917.3961165494223
 20
-1164.103419125021
 30
0.0
 11
-916.6995256113569
 21
-1164.891150910315
 31
0.0
  0
LINE
  5
2BA
102
{ACAD_REACTORS
330
34E
330
34F
102
}
330
71
100
AcDbEntity
  8
0
  6
Continuous
 62
     2
100
AcDbLine
 10
-916.6995256113569
 20
-1164.891150910315
 30
0.0
 11
-915.2968013936086
 21
-1164.891150910315
 31
0.0
  0
LINE
  5
2BB
102
{ACAD_REACTORS
330
34E
330
34F
102
}
330
71
100
AcDbEntity
  8
0
  6
Continuous
 62
     2
100
AcDbLine
 10
-916.6947544405489
 20
-1163.31029191654
 30
0.0
 11
-915.2968013936086
 21
-1164.891150910315
 31
0.0
  0
LINE
  5
2BC
102
{ACAD_REACTORS
330
34E
330
34F
102
}
330
71
100
AcDbEntity
  8
0
  6
Continuous
 62
     2
100
AcDbLine
 10
-916.6947544405489
 20
-1163.31029191654
 30
0.0
 11
-915.3922248097823
 21
-1161.837341386504
 31
0.0
  0
LINE
  5
2BD
102
{ACAD_REACTORS
330
34E
330
34F
102
}
330
71
100
AcDbEntity
  8
0
  6
Continuous
 62
     2
100
AcDbLine
 10
-917.3961165494223
 20
-1162.51716470806
 30
0.0
 11
-916.7949490275296
 21
-1161.837341386504
 31
0.0
  0
LINE
  5
2BE
102
{ACAD_REACTORS
330
34E
330
34F
102
}
330
71
100
AcDbEntity
  8
0
  6
Continuous
 62
     2
100
AcDbLine
 10
-917.9972840713142
 20
-1161.837341386504
 30
0.0
 11
-917.3961165494223
 21
-1162.51716470806
 31
0.0
  0
LINE
  5
2BF
102
{ACAD_REACTORS
330
34E
330
34F
102
}
330
71
100
AcDbEntity
  8
0
  6
Continuous
 62
     2
100
AcDbLine
 10
-917.9972840713142
 20
-1161.837341386504
 30
0.0
 11
-919.4000082890634
 21
-1161.837341386504
 31
0.0
  0
LINE
  5
2C0
102
{ACAD_REACTORS
330
344
330
345
102
}
330
71
100
AcDbEntity
  8
0
  6
Continuous
 62
     2
100
AcDbLine
 10
-917.3006931332498
 20
-1168.25034138649
 30
0.0
 11
-916.107900431082
 21
-1168.25034138649
 31
0.0
  0
LINE
  5
2C1
102
{ACAD_REACTORS
330
344
330
345
102
}
330
71
100
AcDbEntity
  8
0
  6
Continuous
 62
     2
100
AcDbLine
 10
-916.107900431082
 20
-1168.25034138649
 30
0.0
 11
-916.107900431082
 21
-1165.981797168802
 31
0.0
  0
LINE
  5
2C2
102
{ACAD_REACTORS
330
344
330
345
102
}
330
71
100
AcDbEntity
  8
0
  6
Continuous
 62
     2
100
AcDbLine
 10
-916.107900431082
 20
-1165.981797168802
 30
0.0
 11
-915.2968013936086
 21
-1165.981797168802
 31
0.0
  0
LINE
  5
2C3
102
{ACAD_REACTORS
330
344
330
345
102
}
330
71
100
AcDbEntity
  8
0
  6
Continuous
 62
     2
100
AcDbLine
 10
-915.2968013936086
 20
-1165.981797168802
 30
0.0
 11
-915.2968013936086
 21
-1165.196531862679
 31
0.0
  0
LINE
  5
2C4
102
{ACAD_REACTORS
330
344
330
345
102
}
330
71
100
AcDbEntity
  8
0
  6
Continuous
 62
     2
100
AcDbLine
 10
-918.6817469122373
 20
-1165.196531862679
 30
0.0
 11
-915.2968013936086
 21
-1165.196531862679
 31
0.0
  0
LINE
  5
2C5
102
{ACAD_REACTORS
330
344
330
345
102
}
330
71
100
AcDbEntity
  8
0
  6
Continuous
 62
     2
100
AcDbLine
 10
-917.3006931332498
 20
-1165.981797168802
 30
0.0
 11
-917.3006931332498
 21
-1168.25034138649
 31
0.0
  0
LINE
  5
2C6
102
{ACAD_REACTORS
330
346
330
347
102
}
330
71
100
AcDbEntity
  8
0
  6
Continuous
 62
     2
100
AcDbLine
 10
-939.9301795687288
 20
-1166.271461236925
 30
0.0
 11
-939.9301795687288
 21
-1165.68960983023
 31
0.0
  0
LINE
  5
2C7
102
{ACAD_REACTORS
330
346
330
347
102
}
330
71
100
AcDbEntity
  8
0
  6
Continuous
 62
     2
100
AcDbLine
 10
-939.9301795687288
 20
-1163.471326630294
 30
0.0
 11
-939.9301795687288
 21
-1162.865791341787
 31
0.0
  0
LINE
  5
2C8
330
71
100
AcDbEntity
  8
1
  6
Continuous
 62
     6
100
AcDbLine
 10
-861.4000009841257
 20
-1175.543841386506
 30
0.0
 11
-817.9000009841258
 21
-1175.543841386506
 31
0.0
  0
LINE
  5
2C9
330
71
100
AcDbEntity
  8
1
  6
Continuous
 62
     6
100
AcDbLine
 10
-911.4000009841257
 20
-1175.543841386506
 30
0.0
 11
-929.2448055108757
 21
-1175.543841386506
 31
0.0
  0
LINE
  5
2CA
330
71
100
AcDbEntity
  8
1
  6
Continuous
 62
     6
100
AcDbLine
 10
-947.4448055108757
 20
-1158.543841386506
 30
0.0
 11
-911.0448055108757
 21
-1158.543841386506
 31
0.0
  0
LINE
  5
2CB
330
71
100
AcDbEntity
  8
1
  6
Continuous
 62
     6
100
AcDbLine
 10
-817.9000009841258
 20
-1175.543841386506
 30
0.0
 11
-817.9000009841244
 21
-1167.043841386506
 31
0.0
  0
LINE
  5
2CC
330
71
100
AcDbEntity
  8
1
  6
Continuous
 62
     6
100
AcDbLine
 10
-911.0448055108757
 20
-1175.543841386506
 30
0.0
 11
-861.4000009841257
 21
-1175.543841386506
 31
0.0
  0
LINE
  5
2CD
330
71
100
AcDbEntity
  8
1
  6
Continuous
 62
     7
100
AcDbLine
 10
-947.4448055108757
 20
-1158.543841386506
 30
0.0
 11
-947.4448055108757
 21
-1171.293841386506
 31
0.0
  0
LINE
  5
2CE
330
71
100
AcDbEntity
  8
1
  6
Continuous
 62
     7
100
AcDbLine
 10
-911.0448055108757
 20
-1158.543841386506
 30
0.0
 11
-911.0448055108757
 21
-1171.293841386506
 31
0.0
  0
LINE
  5
2CF
330
71
100
AcDbEntity
  8
1
  6
Continuous
 62
     6
100
AcDbLine
 10
-911.0448055108757
 20
-1175.543841386506
 30
0.0
 11
-911.4000009841257
 21
-1175.543841386506
 31
0.0
  0
LINE
  5
2D0
330
71
100
AcDbEntity
  8
1
  6
Continuous
 62
     6
100
AcDbLine
 10
-817.900000984124
 20
-1158.543841386506
 30
0.0
 11
-817.9000009841244
 21
-1167.043841386506
 31
0.0
  0
LINE
  5
2D1
330
71
100
AcDbEntity
  8
1
  6
Continuous
 62
     2
100
AcDbLine
 10
-943.2081506243131
 20
-1153.168841386506
 30
0.0
 11
-938.2081506243131
 21
-1151.918841386506
 31
0.0
  0
LINE
  5
2D2
330
71
100
AcDbEntity
  8
1
  6
Continuous
 62
     2
100
AcDbLine
 10
-943.2081506243131
 20
-1155.668841386506
 30
0.0
 11
-943.2081506243131
 21
-1153.168841386506
 31
0.0
  0
LINE
  5
2D3
330
71
100
AcDbEntity
  8
1
  6
Continuous
 62
     2
100
AcDbLine
 10
-938.2081506243131
 20
-1156.918841386506
 30
0.0
 11
-943.2081506243131
 21
-1155.668841386506
 31
0.0
  0
LINE
  5
2D4
330
71
100
AcDbEntity
  8
1
  6
Continuous
 62
     2
100
AcDbLine
 10
-938.2081506243131
 20
-1151.918841386506
 30
0.0
 11
-938.2081506243131
 21
-1156.918841386506
 31
0.0
  0
LINE
  5
2D5
330
71
100
AcDbEntity
  8
1
  6
Continuous
 62
     7
100
AcDbLine
 10
-947.4448055108757
 20
-1171.293841386506
 30
0.0
 11
-929.2448055108757
 21
-1171.293841386506
 31
0.0
  0
LINE
  5
2D6
330
71
100
AcDbEntity
  8
1
  6
Continuous
 62
     7
100
AcDbLine
 10
-947.4448055108757
 20
-1171.293841386506
 30
0.0
 11
-947.4448055108757
 21
-1175.543841386506
 31
0.0
  0
LINE
  5
2D7
330
71
100
AcDbEntity
  8
1
  6
Continuous
 62
     7
100
AcDbLine
 10
-911.0448055108757
 20
-1171.293841386506
 30
0.0
 11
-911.0448055108757
 21
-1175.543841386506
 31
0.0
  0
LINE
  5
2D8
330
71
100
AcDbEntity
  8
1
  6
Continuous
 62
     7
100
AcDbLine
 10
-929.2448055108757
 20
-1171.293841386506
 30
0.0
 11
-929.2448055108757
 21
-1175.543841386506
 31
0.0
  0
LINE
  5
2D9
330
71
100
AcDbEntity
  8
1
  6
Continuous
 62
     6
100
AcDbLine
 10
-929.2448055108757
 20
-1175.543841386506
 30
0.0
 11
-947.4448055108757
 21
-1175.543841386506
 31
0.0
  0
LINE
  5
2DA
330
71
100
AcDbEntity
  8
1
  6
Continuous
 62
     7
100
AcDbLine
 10
-929.2448055108757
 20
-1171.293841386506
 30
0.0
 11
-911.0448055108757
 21
-1171.293841386506
 31
0.0
  0
LINE
  5
2DB
330
71
100
AcDbEntity
  8
1
  6
Continuous
 62
     6
100
AcDbLine
 10
-947.4448055108757
 20
-1150.043841386506
 30
0.0
 11
-817.900000984124
 21
-1150.043841386506
 31
0.0
  0
LINE
  5
2DC
330
71
100
AcDbEntity
  8
1
  6
PHANTOM
 62
     2
100
AcDbLine
 10
-931.9581506243131
 20
-1154.418841386506
 30
0.0
 11
-937.4581506243131
 21
-1154.418841386506
 31
0.0
  0
LINE
  5
2DD
330
71
100
AcDbEntity
  8
1
  6
PHANTOM
 62
     2
100
AcDbLine
 10
-934.7081506243131
 20
-1151.668841386506
 30
0.0
 11
-934.7081506243131
 21
-1157.168841386506
 31
0.0
  0
LINE
  5
2DE
330
71
100
AcDbEntity
  8
1
  6
DOT_CENTER
 62
     2
100
AcDbLine
 10
-943.4581506243131
 20
-1154.418841386506
 30
0.0
 11
-937.9581506243131
 21
-1154.418841386506
 31
0.0
  0
ARC
  5
2DF
102
{ACAD_REACTORS
330
34A
330
34B
102
}
330
71
100
AcDbEntity
  8
0
  6
Continuous
 62
     2
100
AcDbCircle
 10
-932.0531575119156
 20
-1166.723436624584
 30
0.0
 40
0.7717997786794554
100
AcDbArc
 50
321.8795802028439
 51
38.1204197971694
  0
ARC
  5
2E0
102
{ACAD_REACTORS
330
34A
330
34B
102
}
330
71
100
AcDbEntity
  8
0
  6
Continuous
 62
     2
100
AcDbCircle
 10
-931.8534174755692
 20
-1166.880167802704
 30
0.0
 40
0.5179085730138424
100
AcDbArc
 50
218.1204197971879
 51
321.8795802027889
  0
ARC
  5
2E1
102
{ACAD_REACTORS
330
34A
330
34B
102
}
330
71
100
AcDbEntity
  8
0
  6
Continuous
 62
     2
100
AcDbCircle
 10
-931.6536774392232
 20
-1166.723436624584
 30
0.0
 40
0.7717997786795957
100
AcDbArc
 50
141.8795802028306
 51
218.1204197971561
  0
ARC
  5
2E2
102
{ACAD_REACTORS
330
34A
330
34B
102
}
330
71
100
AcDbEntity
  8
0
  6
Continuous
 62
     2
100
AcDbCircle
 10
-931.8534174755692
 20
-1166.566705446464
 30
0.0
 40
0.517908573013574
100
AcDbArc
 50
38.12041979721116
 51
141.8795802028121
  0
ARC
  5
2E3
102
{ACAD_REACTORS
330
342
330
343
102
}
330
71
100
AcDbEntity
  8
0
  6
Continuous
 62
     2
100
AcDbCircle
 10
-934.9154316111333
 20
-1168.133902989993
 30
0.0
 40
2.227384008973574
100
AcDbArc
 50
58.06909105003538
 51
71.55192388187001
  0
ARC
  5
2E4
102
{ACAD_REACTORS
330
342
330
343
102
}
330
71
100
AcDbEntity
  8
0
  6
Continuous
 62
     2
100
AcDbCircle
 10
-934.6537039101744
 20
-1166.518365195245
 30
0.0
 40
0.5115800601943187
100
AcDbArc
 50
113.3722778882227
 51
151.4785267423843
  0
ARC
  5
2E5
102
{ACAD_REACTORS
330
342
330
343
102
}
330
71
100
AcDbEntity
  8
0
  6
Continuous
 62
     2
100
AcDbCircle
 10
-934.276346652094
 20
-1166.723436624584
 30
0.0
 40
0.9410597353329787
100
AcDbArc
 50
151.478526742305
 51
208.5214732577436
  0
ARC
  5
2E6
102
{ACAD_REACTORS
330
342
330
343
102
}
330
71
100
AcDbEntity
  8
0
  6
Continuous
 62
     2
100
AcDbCircle
 10
-935.073304486226
 20
-1163.410755679328
 30
0.0
 40
4.852596863497932
100
AcDbArc
 50
275.1581447696242
 51
285.9799912583526
  0
ARC
  5
2E7
102
{ACAD_REACTORS
330
342
330
343
102
}
330
71
100
AcDbEntity
  8
0
  6
Continuous
 62
     2
100
AcDbCircle
 10
-934.7844483914901
 20
-1166.610646262549
 30
0.0
 40
1.639695123939652
100
AcDbArc
 50
195.0618917771087
 51
275.1581447696339
  0
ARC
  5
2E8
102
{ACAD_REACTORS
330
342
330
343
102
}
330
71
100
AcDbEntity
  8
0
  6
Continuous
 62
     2
100
AcDbCircle
 10
-935.203576234953
 20
-1166.723436624584
 30
0.0
 40
1.205656168390927
100
AcDbArc
 50
164.9381082228846
 51
195.0618917771049
  0
ARC
  5
2E9
102
{ACAD_REACTORS
330
342
330
343
102
}
330
71
100
AcDbEntity
  8
0
  6
Continuous
 62
     2
100
AcDbCircle
 10
-934.7844483914901
 20
-1166.836226986619
 30
0.0
 40
1.63969512394044
100
AcDbArc
 50
84.84185523036614
 51
164.9381082228913
  0
ARC
  5
2EA
102
{ACAD_REACTORS
330
346
330
347
102
}
330
71
100
AcDbEntity
  8
0
  6
Continuous
 62
     2
100
AcDbCircle
 10
-939.614462645652
 20
-1165.68960983023
 30
0.0
 40
0.3157169230770072
100
AcDbArc
 50
115.3740086783167
 51
180.0
  0
ARC
  5
2EB
102
{ACAD_REACTORS
330
346
330
347
102
}
330
71
100
AcDbEntity
  8
0
  6
Continuous
 62
     2
100
AcDbCircle
 10
-939.614462645652
 20
-1163.471326630294
 30
0.0
 40
0.3157169230768204
100
AcDbArc
 50
180.0
 51
244.6259913215949
  0
ARC
  5
2EC
102
{ACAD_REACTORS
330
346
330
347
102
}
330
71
100
AcDbEntity
  8
0
  6
Continuous
 62
     2
100
AcDbCircle
 10
-939.608846510342
 20
-1164.568626289356
 30
0.0
 40
2.018561131933152
100
AcDbArc
 50
269.811032957581
 51
90.18896704241901
  0
ARC
  5
2ED
102
{ACAD_REACTORS
330
346
330
347
102
}
330
71
100
AcDbEntity
  8
0
  6
Continuous
 62
     2
100
AcDbCircle
 10
-939.614462645652
 20
-1166.271461236925
 30
0.0
 40
0.3157169230768204
100
AcDbArc
 50
180.0
 51
269.8110329574179
  0
ARC
  5
2EE
102
{ACAD_REACTORS
330
344
330
345
102
}
330
71
100
AcDbEntity
  8
0
  6
Continuous
 62
     2
100
AcDbCircle
 10
-918.5510024309215
 20
-1166.518365195245
 30
0.0
 40
0.5115800601937612
100
AcDbArc
 50
109.3371432195076
 51
151.4785267424451
  0
ARC
  5
2EF
102
{ACAD_REACTORS
330
344
330
345
102
}
330
71
100
AcDbEntity
  8
0
  6
Continuous
 62
     2
100
AcDbCircle
 10
-918.5510024309215
 20
-1166.928508053923
 30
0.0
 40
0.5115800601959901
100
AcDbArc
 50
208.5214732576668
 51
246.6277221118294
  0
ARC
  5
2F0
102
{ACAD_REACTORS
330
344
330
345
102
}
330
71
100
AcDbEntity
  8
0
  6
Continuous
 62
     2
100
AcDbCircle
 10
-919.1008747556989
 20
-1166.723436624584
 30
0.0
 40
1.205656168392903
100
AcDbArc
 50
164.9381082229099
 51
195.0618917770796
  0
ARC
  5
2F1
102
{ACAD_REACTORS
330
344
330
345
102
}
330
71
100
AcDbEntity
  8
0
  6
Continuous
 62
     2
100
AcDbCircle
 10
-918.6817469122373
 20
-1166.836226986619
 30
0.0
 40
1.639695123940101
100
AcDbArc
 50
90.0
 51
164.9381082228985
  0
ARC
  5
2F2
102
{ACAD_REACTORS
330
348
330
349
102
}
330
71
100
AcDbEntity
  8
0
  6
Continuous
 62
     2
100
AcDbCircle
 10
-928.108742004941
 20
-1163.36424614841
 30
0.0
 40
1.526904761906053
100
AcDbArc
 50
90.0
 51
270.0
  0
ARC
  5
2F3
102
{ACAD_REACTORS
330
34C
330
34D
102
}
330
71
100
AcDbEntity
  8
0
  6
Continuous
 62
     2
100
AcDbCircle
 10
-934.8514327501667
 20
-1162.853311056615
 30
0.0
 40
0.3528638246709761
100
AcDbArc
 50
270.0
 51
90.0
  0
ARC
  5
2F4
102
{ACAD_REACTORS
330
346
330
347
102
}
330
71
100
AcDbEntity
  8
0
  6
Continuous
 62
     2
100
AcDbCircle
 10
-942.1900113321838
 20
-1162.865613865139
 30
0.0
 40
0.3157169230760246
100
AcDbArc
 50
90.0
 51
180.0
  0
ARC
  5
2F5
102
{ACAD_REACTORS
330
346
330
347
102
}
330
71
100
AcDbEntity
  8
0
  6
Continuous
 62
     2
100
AcDbCircle
 10
-940.1915936235993
 20
-1164.580468230262
 30
0.0
 40
0.9118975235581699
100
AcDbArc
 50
115.1944106485059
 51
244.805589351488
  0
ARC
  5
2F6
102
{ACAD_REACTORS
330
346
330
347
102
}
330
71
100
AcDbEntity
  8
0
  6
Continuous
 62
     2
100
AcDbCircle
 10
-940.7141780711743
 20
-1165.691297976324
 30
0.0
 40
0.3157169230767067
100
AcDbArc
 50
0.0
 51
64.80558935138451
  0
ARC
  5
2F7
102
{ACAD_REACTORS
330
346
330
347
102
}
330
71
100
AcDbEntity
  8
0
  6
Continuous
 62
     2
100
AcDbCircle
 10
-942.7839060089303
 20
-1167.826096771106
 30
0.0
 40
0.4242446153828041
100
AcDbArc
 50
180.0
 51
270.0
  0
ARC
  5
2F8
102
{ACAD_REACTORS
330
348
330
349
102
}
330
71
100
AcDbEntity
  8
0
  6
Continuous
 62
     2
100
AcDbCircle
 10
-927.8924699947758
 20
-1163.20751497029
 30
0.0
 40
0.5179085730137529
100
AcDbArc
 50
38.12041979719563
 51
141.8795802028121
  0
ARC
  5
2F9
102
{ACAD_REACTORS
330
348
330
349
102
}
330
71
100
AcDbEntity
  8
0
  6
Continuous
 62
     2
100
AcDbCircle
 10
-927.6927299584295
 20
-1163.36424614841
 30
0.0
 40
0.7717997786797746
100
AcDbArc
 50
141.879580202841
 51
218.120419797159
  0
ARC
  5
2FA
102
{ACAD_REACTORS
330
34A
330
34B
102
}
330
71
100
AcDbEntity
  8
0
  6
Continuous
 62
     2
100
AcDbCircle
 10
-931.8534174755692
 20
-1166.184861614281
 30
0.0
 40
2.065479772208573
100
AcDbArc
 50
242.4518518243384
 51
297.5481481756867
  0
ARC
  5
2FB
102
{ACAD_REACTORS
330
34A
330
34B
102
}
330
71
100
AcDbEntity
  8
0
  6
Continuous
 62
     2
100
AcDbCircle
 10
-931.8534174755692
 20
-1167.262011634887
 30
0.0
 40
2.06547977220824
100
AcDbArc
 50
62.45185182430162
 51
117.5481481756732
  0
ARC
  5
2FC
102
{ACAD_REACTORS
330
34A
330
34B
102
}
330
71
100
AcDbEntity
  8
0
  6
Continuous
 62
     2
100
AcDbCircle
 10
-932.1343573674026
 20
-1166.723436624584
 30
0.0
 40
1.458034083651189
100
AcDbArc
 50
117.5481481756711
 51
242.4518518243412
  0
ARC
  5
2FD
102
{ACAD_REACTORS
330
34A
330
34B
102
}
330
71
100
AcDbEntity
  8
0
  6
Continuous
 62
     2
100
AcDbCircle
 10
-931.572477583736
 20
-1166.723436624584
 30
0.0
 40
1.458034083652319
100
AcDbArc
 50
297.5481481756983
 51
62.45185182428927
  0
ARC
  5
2FE
102
{ACAD_REACTORS
330
348
330
349
102
}
330
71
100
AcDbEntity
  8
0
  6
Continuous
 62
     2
100
AcDbCircle
 10
-927.8924699947758
 20
-1163.520977326531
 30
0.0
 40
0.517908573013281
100
AcDbArc
 50
218.1204197971087
 51
321.8795802028835
  0
ARC
  5
2FF
102
{ACAD_REACTORS
330
348
330
349
102
}
330
71
100
AcDbEntity
  8
0
  6
Continuous
 62
     2
100
AcDbCircle
 10
-928.0922100311219
 20
-1163.36424614841
 30
0.0
 40
0.7717997786795957
100
AcDbArc
 50
321.8795802028306
 51
38.1204197971694
  0
ARC
  5
300
102
{ACAD_REACTORS
330
346
330
347
102
}
330
71
100
AcDbEntity
  8
0
  6
Continuous
 62
     2
100
AcDbCircle
 10
-937.3105939182134
 20
-1167.826096771106
 30
0.0
 40
0.424244615383941
100
AcDbArc
 50
270.0
 51
0.0
  0
ARC
  5
301
102
{ACAD_REACTORS
330
346
330
347
102
}
330
71
100
AcDbEntity
  8
0
  6
Continuous
 62
     2
100
AcDbCircle
 10
-937.3105939182134
 20
-1162.261586001906
 30
0.0
 40
0.4242446153838273
100
AcDbArc
 50
0.0
 51
90.0
  0
ARC
  5
302
102
{ACAD_REACTORS
330
346
330
347
102
}
330
71
100
AcDbEntity
  8
0
  6
Continuous
 62
     2
100
AcDbCircle
 10
-942.7839060089303
 20
-1162.261586001906
 30
0.0
 40
0.424244615383941
100
AcDbArc
 50
90.0
 51
180.0
  0
ARC
  5
303
102
{ACAD_REACTORS
330
346
330
347
102
}
330
71
100
AcDbEntity
  8
0
  6
Continuous
 62
     2
100
AcDbCircle
 10
-940.7141780711743
 20
-1167.222068907856
 30
0.0
 40
0.3157169230769341
100
AcDbArc
 50
270.0
 51
0.0
  0
ARC
  5
304
102
{ACAD_REACTORS
330
346
330
347
102
}
330
71
100
AcDbEntity
  8
0
  6
Continuous
 62
     2
100
AcDbCircle
 10
-940.7141780711743
 20
-1163.4696384842
 30
0.0
 40
0.3157169230755
100
AcDbArc
 50
295.1944106486155
 51
0.0
  0
ARC
  5
305
102
{ACAD_REACTORS
330
346
330
347
102
}
330
71
100
AcDbEntity
  8
0
  6
Continuous
 62
     2
100
AcDbCircle
 10
-940.7141780711743
 20
-1162.865613865139
 30
0.0
 40
0.3157169230767067
100
AcDbArc
 50
0.0
 51
90.0
  0
ARC
  5
306
102
{ACAD_REACTORS
330
346
330
347
102
}
330
71
100
AcDbEntity
  8
0
  6
Continuous
 62
     2
100
AcDbCircle
 10
-942.1900113321838
 20
-1167.222068907856
 30
0.0
 40
0.3157169230756836
100
AcDbArc
 50
180.0
 51
270.0
  0
ARC
  5
307
102
{ACAD_REACTORS
330
34C
330
34D
102
}
330
71
100
AcDbEntity
  8
0
  6
Continuous
 62
     2
100
AcDbCircle
 10
-934.4099602239284
 20
-1162.892707027838
 30
0.0
 40
1.055365641333992
100
AcDbArc
 50
270.0
 51
90.0
  0
ARC
  5
308
102
{ACAD_REACTORS
330
344
330
345
102
}
330
71
100
AcDbEntity
  8
0
  6
Continuous
 62
     2
100
AcDbCircle
 10
-918.6817469122373
 20
-1166.610646262549
 30
0.0
 40
1.639695123940421
100
AcDbArc
 50
195.0618917771015
 51
275.1581447696745
  0
ARC
  5
309
102
{ACAD_REACTORS
330
344
330
345
102
}
330
71
100
AcDbEntity
  8
0
  6
Continuous
 62
     2
100
AcDbCircle
 10
-918.9706030069731
 20
-1163.410755679328
 30
0.0
 40
4.852596863498941
100
AcDbArc
 50
275.1581447696365
 51
285.9799912583397
  0
ARC
  5
30A
102
{ACAD_REACTORS
330
344
330
345
102
}
330
71
100
AcDbEntity
  8
0
  6
Continuous
 62
     2
100
AcDbCircle
 10
-918.8127301318804
 20
-1165.312970259176
 30
0.0
 40
2.227384008972611
100
AcDbArc
 50
288.4480761181346
 51
301.9309089499367
  0
ARC
  5
30B
102
{ACAD_REACTORS
330
344
330
345
102
}
330
71
100
AcDbEntity
  8
0
  6
Continuous
 62
     2
100
AcDbCircle
 10
-918.3945623982183
 20
-1166.566516035213
 30
0.0
 40
0.9059297849850417
100
AcDbArc
 50
246.6277221118078
 51
288.4480761180874
  0
ARC
  5
30C
102
{ACAD_REACTORS
330
344
330
345
102
}
330
71
100
AcDbEntity
  8
0
  6
Continuous
 62
     2
100
AcDbCircle
 10
-918.17364517284
 20
-1166.723436624584
 30
0.0
 40
0.9410597353349766
100
AcDbArc
 50
151.4785267423711
 51
208.5214732576775
  0
ARC
  5
30D
102
{ACAD_REACTORS
330
344
330
345
102
}
330
71
100
AcDbEntity
  8
0
  6
Continuous
 62
     2
100
AcDbCircle
 10
-918.4043324328178
 20
-1166.936320175628
 30
0.0
 40
0.9545230068260935
100
AcDbArc
 50
90.0
 51
109.3371432194401
  0
ARC
  5
30E
102
{ACAD_REACTORS
330
346
330
347
102
}
330
71
100
AcDbEntity
  8
0
  6
Continuous
 62
     2
100
AcDbCircle
 10
-939.614462645652
 20
-1162.865791341787
 30
0.0
 40
0.3157169230760149
100
AcDbArc
 50
90.18896704258206
 51
180.0
  0
ARC
  5
30F
102
{ACAD_REACTORS
330
346
330
347
102
}
330
71
100
AcDbEntity
  8
0
  6
Continuous
 62
     2
100
AcDbCircle
 10
-940.14050534374
 20
-1164.580468230262
 30
0.0
 40
0.9118481501435332
100
AcDbArc
 50
295.374008678208
 51
64.62599132182872
  0
ARC
  5
310
102
{ACAD_REACTORS
330
342
330
343
102
}
330
71
100
AcDbEntity
  8
0
  6
Continuous
 62
     2
100
AcDbCircle
 10
-934.9154316111333
 20
-1165.312970259176
 30
0.0
 40
2.227384008972647
100
AcDbArc
 50
288.4480761181374
 51
301.9309089499739
  0
ARC
  5
311
102
{ACAD_REACTORS
330
342
330
343
102
}
330
71
100
AcDbEntity
  8
0
  6
Continuous
 62
     2
100
AcDbCircle
 10
-934.4972638774723
 20
-1166.566516035213
 30
0.0
 40
0.9059297849846808
100
AcDbArc
 50
246.6277221118606
 51
288.4480761181556
  0
ARC
  5
312
102
{ACAD_REACTORS
330
342
330
343
102
}
330
71
100
AcDbEntity
  8
0
  6
Continuous
 62
     2
100
AcDbCircle
 10
-934.6537039101744
 20
-1166.928508053923
 30
0.0
 40
0.5115800601949912
100
AcDbArc
 50
208.5214732577276
 51
246.6277221118177
  0
ARC
  5
313
102
{ACAD_REACTORS
330
342
330
343
102
}
330
71
100
AcDbEntity
  8
0
  6
Continuous
 62
     2
100
AcDbCircle
 10
-934.4972638774723
 20
-1166.880357213956
 30
0.0
 40
0.9059297849855745
100
AcDbArc
 50
71.55192388186258
 51
113.3722778881394
  0
ARC
  5
314
102
{ACAD_REACTORS
330
342
330
343
102
}
330
71
100
AcDbEntity
  8
0
  6
Continuous
 62
     2
100
AcDbCircle
 10
-935.073304486226
 20
-1170.03611756984
 30
0.0
 40
4.852596863498158
100
AcDbArc
 50
74.02000874164733
 51
84.84185523037584
  0
CIRCLE
  5
315
102
{ACAD_REACTORS
330
346
330
347
102
}
330
71
100
AcDbEntity
  8
0
  6
Continuous
 62
     2
100
AcDbCircle
 10
-940.1643203584127
 20
-1164.580468230262
 30
0.0
 40
0.4709789327785074
  0
CIRCLE
  5
316
330
71
100
AcDbEntity
  8
1
  6
Continuous
 62
     2
100
AcDbCircle
 10
-934.7081506243131
 20
-1154.418841386506
 30
0.0
 40
1.25
  0
CIRCLE
  5
317
330
71
100
AcDbEntity
  8
1
  6
Continuous
 62
     2
100
AcDbCircle
 10
-934.7081506243131
 20
-1154.418841386506
 30
0.0
 40
2.5
  0
TEXT
  5
318
330
71
100
AcDbEntity
  8
1
 62
     7
100
AcDbText
 10
-853.2333343174591
 20
-1179.543841386505
 30
0.0
 40
2.5
  1
6
 41
0.9
  7
CONVERTER_11
100
AcDbText
  0
TEXT
  5
319
330
71
100
AcDbEntity
  8
1
 62
     7
100
AcDbText
 10
-921.5666676507925
 20
-1179.543841386505
 30
0.0
 40
2.5
  1
5
 41
0.9
  7
CONVERTER_11
100
AcDbText
  0
TEXT
  5
31A
330
71
100
AcDbEntity
  8
1
 62
     7
100
AcDbText
 10
-989.9000009841257
 20
-1179.543841386505
 30
0.0
 40
2.5
  1
4
 41
0.9
  7
CONVERTER_11
100
AcDbText
  0
TEXT
  5
31B
330
71
100
AcDbEntity
  8
1
 62
     7
100
AcDbText
 10
-1058.233334317459
 20
-1179.543841386505
 30
0.0
 40
2.5
  1
3
 41
0.9
  7
CONVERTER_11
100
AcDbText
  0
TEXT
  5
31C
330
71
100
AcDbEntity
  8
1
 62
     7
100
AcDbText
 10
-816.9000009841257
 20
-1148.043841386505
 30
0.0
 40
2.5
  1
E
 41
0.9
  7
CONVERTER_11
100
AcDbText
  0
TEXT
  5
31D
330
71
100
AcDbEntity
  8
1
 62
     7
100
AcDbText
 10
-1194.900000984125
 20
-1179.543841386505
 30
0.0
 40
2.5
  1
1
 41
0.9
  7
CONVERTER_11
100
AcDbText
  0
TEXT
  5
31E
330
71
100
AcDbEntity
  8
1
 62
     7
100
AcDbText
 10
-1126.566667650792
 20
-1179.543841386505
 30
0.0
 40
2.5
  1
2
 41
0.9
  7
CONVERTER_11
100
AcDbText
  0
TEXT
  5
31F
330
71
100
AcDbEntity
  8
1
 62
     7
100
AcDbText
 10
-816.9000009841257
 20
-1090.643841386505
 30
0.0
 40
2.5
  1
D
 41
0.9
  7
CONVERTER_11
100
AcDbText
  0
TEXT
  5
320
330
71
100
AcDbEntity
  8
1
 62
     7
100
AcDbText
 10
-816.9000009841257
 20
-1033.243841386505
 30
0.0
 40
2.5
  1
C
 41
0.9
  7
CONVERTER_11
100
AcDbText
  0
TEXT
  5
321
330
71
100
AcDbEntity
  8
1
 62
     7
100
AcDbText
 10
-816.9000009841257
 20
-975.8438413865053
 30
0.0
 40
2.5
  1
B
 41
0.9
  7
CONVERTER_11
100
AcDbText
  0
TEXT
  5
322
330
71
100
AcDbEntity
  8
1
 62
     7
100
AcDbText
 10
-816.9000009841257
 20
-918.4438413865055
 30
0.0
 40
2.5
  1
A
 41
0.9
  7
CONVERTER_11
100
AcDbText
  0
TEXT
  5
323
330
71
100
AcDbEntity
  8
1
 62
     7
100
AcDbText
 10
-853.2333343174591
 20
-887.5438413865052
 30
0.0
 40
2.5
  1
6
 41
0.9
  7
CONVERTER_11
100
AcDbText
  0
TEXT
  5
324
330
71
100
AcDbEntity
  8
1
 62
     7
100
AcDbText
 10
-921.5666676507923
 20
-887.5438413865052
 30
0.0
 40
2.5
  1
5
 41
0.9
  7
CONVERTER_11
100
AcDbText
  0
TEXT
  5
325
330
71
100
AcDbEntity
  8
1
 62
     7
100
AcDbText
 10
-989.9000009841257
 20
-887.5438413865052
 30
0.0
 40
2.5
  1
4
 41
0.9
  7
CONVERTER_11
100
AcDbText
  0
TEXT
  5
326
330
71
100
AcDbEntity
  8
1
 62
     7
100
AcDbText
 10
-1058.233334317459
 20
-887.5438413865052
 30
0.0
 40
2.5
  1
3
 41
0.9
  7
CONVERTER_11
100
AcDbText
  0
TEXT
  5
327
330
71
100
AcDbEntity
  8
1
 62
     7
100
AcDbText
 10
-1126.566667650792
 20
-887.5438413865052
 30
0.0
 40
2.5
  1
2
 41
0.9
  7
CONVERTER_11
100
AcDbText
  0
TEXT
  5
328
330
71
100
AcDbEntity
  8
1
 62
     7
100
AcDbText
 10
-1194.900000984125
 20
-887.5438413865052
 30
0.0
 40
2.5
  1
1
 41
0.9
  7
CONVERTER_11
100
AcDbText
  0
TEXT
  5
329
330
71
100
AcDbEntity
  8
1
 62
     7
100
AcDbText
 10
-892.0712577888619
 20
-1157.243841386506
 30
0.0
 40
2.5
  1
/
 41
0.9
  7
CONVERTER_11
100
AcDbText
  0
TEXT
  5
32B
330
71
100
AcDbEntity
  8
1
 62
     7
100
AcDbText
 10
-889.9148932918199
 20
-1157.243841386506
 30
0.0
 40
2.5
  1
01
 41
0.81
  7
CONVERTER_12
100
AcDbText
  0
TEXT
  5
32C
330
71
100
AcDbEntity
  8
1
 62
     3
100
AcDbText
 10
-852.3184092658028
 20
-1157.243841386506
 30
0.0
 40
2.5
  1
13.01.2018
 41
0.81
  7
CONVERTER_12
100
AcDbText
  0
MTEXT
  5
32D
330
71
100
AcDbEntity
  8
1
 62
     2
100
AcDbMText
 10
-852.3184092658028
 20
-1151.043841386506
 30
0.0
 40
1.8
 41
0.0
 71
     1
 72
     1
  1
date
  7
CONVERTER_11
 73
     1
 44
1.32052821128451
  0
MTEXT
  5
32E
330
71
100
AcDbEntity
  8
1
 62
     2
100
AcDbMText
 10
-882.1448055108757
 20
-1159.543841386506
 30
0.0
 40
1.8
 41
0.0
 71
     1
 72
     1
  1
document-type
  7
CONVERTER_11
 73
     1
 44
1.20048019207683
  0
TEXT
  5
32F
330
71
100
AcDbEntity
  8
1
 62
     3
100
AcDbText
 10
-882.1448055108757
 20
-1165.743841386506
 30
0.0
 40
2.5
  1
TECDOC 2D_Productdrawing
 41
0.81
  7
CONVERTER_12
100
AcDbText
  0
MTEXT
  5
331
330
71
100
AcDbEntity
  8
1
 62
     2
100
AcDbMText
 10
-909.9448055108758
 20
-1151.043841386506
 30
0.0
 40
1.8
 41
0.0
 71
     1
 72
     1
  1
document-No. / RI
  7
CONVERTER_13
 73
     1
 44
1.32052821128451
  0
TEXT
  5
332
330
71
100
AcDbEntity
  8
1
 62
     7
100
AcDbText
 10
-909.9448055108758
 20
-1157.243841386506
 30
0.0
 40
2.5
  1
00737768
 41
0.81
  7
CONVERTER_12
100
AcDbText
  0
MTEXT
  5
334
330
71
100
AcDbEntity
  8
1
 62
     3
100
AcDbMText
 10
-822.3592051249634
 20
-1157.243841386506
 30
0.0
 40
2.5
 41
0.0
 71
     8
 72
     1
  1
1:1
  7
CONVERTER_14
 73
     1
 44
1.32052821128451
  0
MTEXT
  5
335
330
71
100
AcDbEntity
  8
1
 62
     2
100
AcDbMText
 10
-825.718409265803
 20
-1151.043841386506
 30
0.0
 40
1.8
 41
0.0
 71
     1
 72
     1
  1
scale
  7
CONVERTER_11
 73
     1
 44
1.20048019207683
  0
MTEXT
  5
336
330
71
100
AcDbEntity
  8
1
 62
     2
100
AcDbMText
 10
-909.9448055108758
 20
-1159.543841386506
 30
0.0
 40
1.8
 41
0.0
 71
     1
 72
     1
  1
ident.-No.
  7
CONVERTER_11
 73
     1
 44
1.20048019207683
  0
TEXT
  5
337
330
71
100
AcDbEntity
  8
1
 62
     7
100
AcDbText
 10
-909.5448055108759
 20
-1165.743841386506
 30
0.0
 40
2.5
  1
3247970
 41
0.81
  7
CONVERTER_12
100
AcDbText
  0
MTEXT
  5
338
330
71
100
AcDbEntity
  8
1
 62
     2
100
AcDbMText
 10
-981.8558287800852
 20
-1162.793841386507
 30
0.0
 40
2.0
 41
0.0
 71
     5
 72
     1
  1
General Information\P- Simplified representation\P- Document excluded from change process\P- Linear dimensions [mm]
  7
CONVERTER_11
 73
     1
 44
1.20048019207683
  0
MTEXT
  5
339
330
71
100
AcDbEntity
  8
1
 62
     3
100
AcDbMText
 10
-921.2448055108757
 20
-1154.418841386506
 30
0.0
 40
2.5
 41
0.0
 71
     5
 72
     1
  1
DIN A3
  7
CONVERTER_11
 73
     1
 44
1.20048019207683
  0
MTEXT
  5
33A
330
71
100
AcDbEntity
  8
1
 62
     2
100
AcDbMText
 10
-910.0448055108757
 20
-1168.043841386506
 30
0.0
 40
1.8
 41
0.0
 71
     1
 72
     1
  1
description
  7
CONVERTER_11
 73
     1
 44
1.20048019207683
  0
MTEXT
  5
33B
330
71
100
AcDbEntity
  8
1
 62
     7
100
AcDbMText
 10
-864.4724032475002
 20
-1172.293841386506
 30
0.0
 40
3.0
 41
0.0
 71
     5
 72
     1
  1
HC-RBO 10
  7
CONVERTER_12
 73
     1
 44
1.20048019207683
  0
TEXT
  5
33C
330
71
100
AcDbEntity
  8
1
 62
     2
100
AcDbText
 10
-923.0094967010621
 20
-1174.293841386506
 30
0.0
 40
1.8
  1
1
 41
0.9
  7
CONVERTER_11
100
AcDbText
  0
TEXT
  5
33D
330
71
100
AcDbEntity
  8
1
 62
     2
100
AcDbText
 10
-937.7985405405336
 20
-1174.343090040308
 30
0.0
 40
1.8
  1
1
 41
0.9
  7
CONVERTER_11
100
AcDbText
  0
TEXT
  5
33E
330
71
100
AcDbEntity
  8
1
 62
     2
100
AcDbText
 10
-946.4448055108757
 20
-1174.302858601498
 30
0.0
 40
1.8
  1
page
 41
0.9
  7
CONVERTER_11
100
AcDbText
  0
TEXT
  5
33F
330
71
100
AcDbEntity
  8
1
 62
     2
100
AcDbText
 10
-928.2448055108758
 20
-1174.302858601498
 30
0.0
 40
1.8
  1
of
 41
0.9
  7
CONVERTER_11
100
AcDbText
  0
MTEXT
  5
340
330
71
100
AcDbEntity
  8
1
 62
     3
100
AcDbMText
 10
-1214.631533983866
 20
-1002.557557272852
 30
0.0
 40
1.8
 41
0.0
 71
     7
 72
     1
  3
Transfer or duplication of this document as well as the utilisation or\Pcommunication of its content are not permitted unless express consent\Pis granted. Violations give rise to claims for damages. All rights reserved\Pin case of patent, utility mo
  1
del or design patent registrations.
  7
CONVERTER_11
 11
0.0
 21
1.0
 31
0.0
 73
     1
 44
0.99639855942377
  0
MTEXT
  5
341
330
71
100
AcDbEntity
  8
1
 62
     3
100
AcDbMText
 10
-1214.477327672772
 20
-1175.516927287005
 30
0.0
 40
1.8
 41
0.0
 71
     7
 72
     1
  3
Weitergabe sowie Vervielf\U+00e4ltigung dieses Dokuments, Verwertung und \PMitteilung seines Inhalts sind verboten, soweit nicht ausdr\U+00fccklich gestattet. \PZuwiderhandlungen verpflichten zu Schadenersatz. Alle Rechte f\U+00fcr den Fall\Pder Pat
  1
ent-, Gebrauchsmuster- oder Designeintragung vorbehalten.
  7
CONVERTER_11
 11
0.0
 21
1.0
 31
0.0
 73
     1
 44
0.99639855942377
  0
HATCH
  5
342
330
71
100
AcDbEntity
  8
1
  6
Continuous
 62
     2
100
AcDbHatch
 10
0.0
 20
0.0
 30
0.0
210
0.0
220
0.0
230
1.0
  2
CUSTOM0
 70
     0
 71
     1
 91
        1
 92
        1
 93
       14
 72
     2
 10
-935.203576234953
 20
-1166.723436624584
 40
1.205656168390927
 50
164.9381082228846
 51
195.0618917771049
 73
     1
 72
     2
 10
-934.7844483914901
 20
-1166.610646262549
 40
1.639695123939652
 50
195.0618917771087
 51
275.1581447696339
 73
     1
 72
     2
 10
-935.073304486226
 20
-1163.410755679328
 40
4.852596863497932
 50
275.1581447696242
 51
285.9799912583526
 73
     1
 72
     1
 10
-933.7373765691082
 20
-1168.075837985129
 11
-933.7373765691082
 21
-1167.203320978325
 72
     2
 10
-934.9154316111333
 20
-1165.312970259176
 40
2.227384008972647
 50
58.0690910500261
 51
71.5519238818626
 73
     0
 72
     2
 10
-934.4972638774723
 20
-1166.566516035213
 40
0.9059297849846808
 50
71.55192388184437
 51
113.3722778881394
 73
     0
 72
     2
 10
-934.6537039101744
 20
-1166.928508053923
 40
0.5115800601949912
 50
113.3722778881823
 51
151.4785267422724
 73
     0
 72
     2
 10
-934.276346652094
 20
-1166.723436624584
 40
0.9410597353329787
 50
151.4785267422564
 51
208.521473257695
 73
     0
 72
     2
 10
-934.6537039101744
 20
-1166.518365195245
 40
0.5115800601943187
 50
208.5214732576157
 51
246.6277221117773
 73
     0
 72
     2
 10
-934.4972638774723
 20
-1166.880357213956
 40
0.9059297849855745
 50
246.6277221118606
 51
288.4480761181374
 73
     0
 72
     2
 10
-934.9154316111333
 20
-1168.133902989993
 40
2.227384008973574
 50
288.44807611813
 51
301.9309089499646
 73
     0
 72
     1
 10
-933.7373765691082
 20
-1166.243552270843
 11
-933.7373765691082
 21
-1165.371035264039
 72
     2
 10
-935.073304486226
 20
-1170.03611756984
 40
4.852596863498158
 50
74.02000874164733
 51
84.84185523037584
 73
     1
 72
     2
 10
-934.7844483914901
 20
-1166.836226986619
 40
1.63969512394044
 50
84.84185523036614
 51
164.9381082228913
 73
     1
 97
       14
330
314
330
25D
330
2E3
330
313
330
2E4
330
2E5
330
312
330
311
330
310
330
25E
330
2E6
330
2E7
330
2E8
330
2E9
 75
     1
 76
     2
 52
45.0
 41
0.1
 77
     0
 78
     1
 53
45.0
 43
62.7811309658083
 44
-72.3161373035813
 45
-0.1414213562373095
 46
0.0
 79
     0
 98
        1
 10
0.0
 20
0.0
  0
HATCH
  5
343
330
71
100
AcDbEntity
  8
1
  6
Continuous
 62
     2
100
AcDbHatch
 10
0.0
 20
0.0
 30
0.0
210
0.0
220
0.0
230
1.0
  2
CUSTOM1
 70
     0
 71
     1
 91
        1
 92
        1
 93
       14
 72
     2
 10
-935.203576234953
 20
-1166.723436624584
 40
1.205656168390927
 50
164.9381082228846
 51
195.0618917771049
 73
     1
 72
     2
 10
-934.7844483914901
 20
-1166.610646262549
 40
1.639695123939652
 50
195.0618917771087
 51
275.1581447696339
 73
     1
 72
     2
 10
-935.073304486226
 20
-1163.410755679328
 40
4.852596863497932
 50
275.1581447696242
 51
285.9799912583526
 73
     1
 72
     1
 10
-933.7373765691082
 20
-1168.075837985129
 11
-933.7373765691082
 21
-1167.203320978325
 72
     2
 10
-934.9154316111333
 20
-1165.312970259176
 40
2.227384008972647
 50
58.0690910500261
 51
71.5519238818626
 73
     0
 72
     2
 10
-934.4972638774723
 20
-1166.566516035213
 40
0.9059297849846808
 50
71.55192388184437
 51
113.3722778881394
 73
     0
 72
     2
 10
-934.6537039101744
 20
-1166.928508053923
 40
0.5115800601949912
 50
113.3722778881823
 51
151.4785267422724
 73
     0
 72
     2
 10
-934.276346652094
 20
-1166.723436624584
 40
0.9410597353329787
 50
151.4785267422564
 51
208.521473257695
 73
     0
 72
     2
 10
-934.6537039101744
 20
-1166.518365195245
 40
0.5115800601943187
 50
208.5214732576157
 51
246.6277221117773
 73
     0
 72
     2
 10
-934.4972638774723
 20
-1166.880357213956
 40
0.9059297849855745
 50
246.6277221118606
 51
288.4480761181374
 73
     0
 72
     2
 10
-934.9154316111333
 20
-1168.133902989993
 40
2.227384008973574
 50
288.44807611813
 51
301.9309089499646
 73
     0
 72
     1
 10
-933.7373765691082
 20
-1166.243552270843
 11
-933.7373765691082
 21
-1165.371035264039
 72
     2
 10
-935.073304486226
 20
-1170.03611756984
 40
4.852596863498158
 50
74.02000874164733
 51
84.84185523037584
 73
     1
 72
     2
 10
-934.7844483914901
 20
-1166.836226986619
 40
1.63969512394044
 50
84.84185523036614
 51
164.9381082228913
 73
     1
 97
       14
330
314
330
25D
330
2E3
330
313
330
2E4
330
2E5
330
312
330
311
330
310
330
25E
330
2E6
330
2E7
330
2E8
330
2E9
 75
     1
 76
     2
 52
45.0
 41
0.1
 77
     0
 78
     1
 53
45.0
 43
62.7811309658083
 44
-72.3161373035813
 45
-0.1414213562373095
 46
0.0
 79
     0
 98
        1
 10
0.0
 20
0.0
  0
HATCH
  5
344
330
71
100
AcDbEntity
  8
1
  6
Continuous
 62
     2
100
AcDbHatch
 10
0.0
 20
0.0
 30
0.0
210
0.0
220
0.0
230
1.0
  2
CUSTOM2
 70
     0
 71
     1
 91
        1
 92
        1
 93
       18
 72
     2
 10
-918.6817469122373
 20
-1166.836226986619
 40
1.639695123940101
 50
90.0
 51
164.9381082228985
 73
     1
 72
     2
 10
-919.1008747556989
 20
-1166.723436624584
 40
1.205656168392903
 50
164.9381082229099
 51
195.0618917770796
 73
     1
 72
     2
 10
-918.6817469122373
 20
-1166.610646262549
 40
1.639695123940421
 50
195.0618917771015
 51
275.1581447696745
 73
     1
 72
     2
 10
-918.9706030069731
 20
-1163.410755679328
 40
4.852596863498941
 50
275.1581447696365
 51
285.9799912583397
 73
     1
 72
     1
 10
-917.6346750898564
 20
-1168.075837985129
 11
-917.6346750898564
 21
-1167.203320978326
 72
     2
 10
-918.8127301318804
 20
-1165.312970259176
 40
2.227384008972611
 50
58.06909105006329
 51
71.5519238818654
 73
     0
 72
     2
 10
-918.3945623982183
 20
-1166.566516035213
 40
0.9059297849850417
 50
71.55192388191257
 51
113.3722778881922
 73
     0
 72
     2
 10
-918.5510024309215
 20
-1166.928508053923
 40
0.5115800601959901
 50
113.3722778881707
 51
151.4785267423332
 73
     0
 72
     2
 10
-918.17364517284
 20
-1166.723436624584
 40
0.9410597353349766
 50
151.4785267423225
 51
208.5214732576289
 73
     0
 72
     2
 10
-918.5510024309215
 20
-1166.518365195245
 40
0.5115800601937612
 50
208.5214732575549
 51
250.6628567804924
 73
     0
 72
     2
 10
-918.4043324328178
 20
-1166.936320175628
 40
0.9545230068260935
 50
250.6628567805599
 51
270.0
 73
     0
 72
     1
 10
-918.4043324328178
 20
-1165.981797168802
 11
-917.3006931332498
 21
-1165.981797168802
 72
     1
 10
-917.3006931332498
 20
-1165.981797168802
 11
-917.3006931332498
 21
-1168.25034138649
 72
     1
 10
-917.3006931332498
 20
-1168.25034138649
 11
-916.107900431082
 21
-1168.25034138649
 72
     1
 10
-916.107900431082
 20
-1168.25034138649
 11
-916.107900431082
 21
-1165.981797168802
 72
     1
 10
-916.107900431082
 20
-1165.981797168802
 11
-915.2968013936086
 21
-1165.981797168802
 72
     1
 10
-915.2968013936086
 20
-1165.981797168802
 11
-915.2968013936086
 21
-1165.196531862679
 72
     1
 10
-915.2968013936086
 20
-1165.196531862679
 11
-918.6817469122373
 21
-1165.196531862679
 97
       18
330
2C3
330
2C2
330
2C1
330
2C0
330
2C5
330
25F
330
30D
330
2EE
330
30C
330
2EF
330
30B
330
30A
330
260
330
309
330
308
330
2F0
330
2F1
330
2C4
 75
     1
 76
     2
 52
45.0
 41
0.1
 77
     0
 78
     1
 53
45.0
 43
62.7811309658083
 44
-72.3161373035813
 45
-0.1414213562373095
 46
0.0
 79
     0
 98
        1
 10
0.0
 20
0.0
  0
HATCH
  5
345
330
71
100
AcDbEntity
  8
1
  6
Continuous
 62
     2
100
AcDbHatch
 10
0.0
 20
0.0
 30
0.0
210
0.0
220
0.0
230
1.0
  2
CUSTOM3
 70
     0
 71
     1
 91
        1
 92
        1
 93
       18
 72
     2
 10
-918.6817469122373
 20
-1166.836226986619
 40
1.639695123940101
 50
90.0
 51
164.9381082228985
 73
     1
 72
     2
 10
-919.1008747556989
 20
-1166.723436624584
 40
1.205656168392903
 50
164.9381082229099
 51
195.0618917770796
 73
     1
 72
     2
 10
-918.6817469122373
 20
-1166.610646262549
 40
1.639695123940421
 50
195.0618917771015
 51
275.1581447696745
 73
     1
 72
     2
 10
-918.9706030069731
 20
-1163.410755679328
 40
4.852596863498941
 50
275.1581447696365
 51
285.9799912583397
 73
     1
 72
     1
 10
-917.6346750898564
 20
-1168.075837985129
 11
-917.6346750898564
 21
-1167.203320978326
 72
     2
 10
-918.8127301318804
 20
-1165.312970259176
 40
2.227384008972611
 50
58.06909105006329
 51
71.5519238818654
 73
     0
 72
     2
 10
-918.3945623982183
 20
-1166.566516035213
 40
0.9059297849850417
 50
71.55192388191257
 51
113.3722778881922
 73
     0
 72
     2
 10
-918.5510024309215
 20
-1166.928508053923
 40
0.5115800601959901
 50
113.3722778881707
 51
151.4785267423332
 73
     0
 72
     2
 10
-918.17364517284
 20
-1166.723436624584
 40
0.9410597353349766
 50
151.4785267423225
 51
208.5214732576289
 73
     0
 72
     2
 10
-918.5510024309215
 20
-1166.518365195245
 40
0.5115800601937612
 50
208.5214732575549
 51
250.6628567804924
 73
     0
 72
     2
 10
-918.4043324328178
 20
-1166.936320175628
 40
0.9545230068260935
 50
250.6628567805599
 51
270.0
 73
     0
 72
     1
 10
-918.4043324328178
 20
-1165.981797168802
 11
-917.3006931332498
 21
-1165.981797168802
 72
     1
 10
-917.3006931332498
 20
-1165.981797168802
 11
-917.3006931332498
 21
-1168.25034138649
 72
     1
 10
-917.3006931332498
 20
-1168.25034138649
 11
-916.107900431082
 21
-1168.25034138649
 72
     1
 10
-916.107900431082
 20
-1168.25034138649
 11
-916.107900431082
 21
-1165.981797168802
 72
     1
 10
-916.107900431082
 20
-1165.981797168802
 11
-915.2968013936086
 21
-1165.981797168802
 72
     1
 10
-915.2968013936086
 20
-1165.981797168802
 11
-915.2968013936086
 21
-1165.196531862679
 72
     1
 10
-915.2968013936086
 20
-1165.196531862679
 11
-918.6817469122373
 21
-1165.196531862679
 97
       18
330
2C3
330
2C2
330
2C1
330
2C0
330
2C5
330
25F
330
30D
330
2EE
330
30C
330
2EF
330
30B
330
30A
330
260
330
309
330
308
330
2F0
330
2F1
330
2C4
 75
     1
 76
     2
 52
45.0
 41
0.1
 77
     0
 78
     1
 53
45.0
 43
62.7811309658083
 44
-72.3161373035813
 45
-0.1414213562373095
 46
0.0
 79
     0
 98
        1
 10
0.0
 20
0.0
  0
HATCH
  5
346
330
71
100
AcDbEntity
  8
1
  6
Continuous
 62
     2
100
AcDbHatch
 10
0.0
 20
0.0
 30
0.0
210
0.0
220
0.0
230
1.0
  2
CUSTOM4
 70
     0
 71
     1
 91
        4
 92
        1
 93
        8
 72
     2
 10
-942.7839060089303
 20
-1162.261586001906
 40
0.424244615383941
 50
90.0
 51
180.0
 73
     1
 72
     1
 10
-943.2081506243131
 20
-1162.261586001906
 11
-943.2081506243131
 21
-1167.826096771106
 72
     2
 10
-942.7839060089303
 20
-1167.826096771106
 40
0.4242446153828041
 50
180.0
 51
270.0
 73
     1
 72
     1
 10
-942.7839060089303
 20
-1168.25034138649
 11
-937.3105939182134
 21
-1168.25034138649
 72
     2
 10
-937.3105939182134
 20
-1167.826096771106
 40
0.424244615383941
 50
270.0
 51
360.0
 73
     1
 72
     1
 10
-936.8863493028296
 20
-1167.826096771106
 11
-936.8863493028296
 21
-1162.261586001906
 72
     2
 10
-937.3105939182134
 20
-1162.261586001906
 40
0.4242446153838273
 50
0.0
 51
90.0
 73
     1
 72
     1
 10
-937.3105939182134
 20
-1161.837341386522
 11
-942.7839060089303
 21
-1161.837341386522
 97
        8
330
301
330
28E
330
300
330
28F
330
2F7
330
28C
330
302
330
28D
 92
       16
 93
       12
 72
     1
 10
-942.1900113321838
 20
-1167.537785830933
 11
-940.7141780711743
 21
-1167.537785830933
 72
     2
 10
-940.7141780711743
 20
-1167.222068907856
 40
0.3157169230769341
 50
270.0
 51
360.0
 73
     1
 72
     1
 10
-940.3984611480976
 20
-1167.222068907856
 11
-940.3984611480976
 21
-1165.691297976324
 72
     2
 10
-940.7141780711743
 20
-1165.691297976324
 40
0.3157169230767067
 50
0.0
 51
64.80558935138451
 73
     1
 72
     2
 10
-940.1915936235993
 20
-1164.580468230262
 40
0.9118975235581699
 50
115.194410648512
 51
244.8055893514941
 73
     0
 72
     2
 10
-940.7141780711743
 20
-1163.4696384842
 40
0.3157169230755
 50
295.1944106486155
 51
360.0
 73
     1
 72
     1
 10
-940.3984611480976
 20
-1163.4696384842
 11
-940.3984611480976
 21
-1162.865613865139
 72
     2
 10
-940.7141780711743
 20
-1162.865613865139
 40
0.3157169230767067
 50
0.0
 51
90.0
 73
     1
 72
     1
 10
-940.7141780711743
 20
-1162.549896942063
 11
-942.1900113321838
 21
-1162.549896942063
 72
     2
 10
-942.1900113321838
 20
-1162.865613865139
 40
0.3157169230760246
 50
90.0
 51
180.0
 73
     1
 72
     1
 10
-942.5057282552594
 20
-1162.865613865139
 11
-942.5057282552594
 21
-1167.222068907856
 72
     2
 10
-942.1900113321838
 20
-1167.222068907856
 40
0.3157169230756836
 50
180.0
 51
270.0
 73
     1
 97
       12
330
293
330
2F4
330
292
330
305
330
291
330
304
330
2F5
330
2F6
330
290
330
303
330
28B
330
306
 92
       16
 93
        8
 72
     2
 10
-940.14050534374
 20
-1164.580468230262
 40
0.9118481501435332
 50
295.374008678208
 51
424.6259913218287
 73
     1
 72
     2
 10
-939.614462645652
 20
-1163.471326630294
 40
0.3157169230768204
 50
115.3740086784052
 51
180.0
 73
     0
 72
     1
 10
-939.9301795687288
 20
-1163.471326630294
 11
-939.9301795687288
 21
-1162.865791341787
 72
     2
 10
-939.614462645652
 20
-1162.865791341787
 40
0.3157169230760149
 50
180.0
 51
269.8110329574179
 73
     0
 72
     2
 10
-939.608846510342
 20
-1164.568626289356
 40
2.018561131933152
 50
269.811032957581
 51
450.188967042419
 73
     0
 72
     2
 10
-939.614462645652
 20
-1166.271461236925
 40
0.3157169230768204
 50
90.18896704258208
 51
180.0
 73
     0
 72
     1
 10
-939.9301795687288
 20
-1166.271461236925
 11
-939.9301795687288
 21
-1165.68960983023
 72
     2
 10
-939.614462645652
 20
-1165.68960983023
 40
0.3157169230770072
 50
180.0
 51
244.6259913216833
 73
     0
 97
        8
330
30F
330
2EB
330
2C7
330
30E
330
2EC
330
2ED
330
2C6
330
2EA
 92
       16
 93
        1
 72
     2
 10
-940.1643203584127
 20
-1164.580468230262
 40
0.4709789327785074
 50
0.0
 51
360.0
 73
     1
 97
        1
330
315
 75
     1
 76
     2
 52
45.0
 41
0.1
 77
     0
 78
     1
 53
45.0
 43
62.7811309658083
 44
-72.3161373035813
 45
-0.1414213562373095
 46
0.0
 79
     0
 98
        1
 10
0.0
 20
0.0
  0
HATCH
  5
347
330
71
100
AcDbEntity
  8
1
  6
Continuous
 62
     2
100
AcDbHatch
 10
0.0
 20
0.0
 30
0.0
210
0.0
220
0.0
230
1.0
  2
CUSTOM5
 70
     0
 71
     1
 91
        4
 92
        1
 93
        8
 72
     2
 10
-942.7839060089303
 20
-1162.261586001906
 40
0.424244615383941
 50
90.0
 51
180.0
 73
     1
 72
     1
 10
-943.2081506243131
 20
-1162.261586001906
 11
-943.2081506243131
 21
-1167.826096771106
 72
     2
 10
-942.7839060089303
 20
-1167.826096771106
 40
0.4242446153828041
 50
180.0
 51
270.0
 73
     1
 72
     1
 10
-942.7839060089303
 20
-1168.25034138649
 11
-937.3105939182134
 21
-1168.25034138649
 72
     2
 10
-937.3105939182134
 20
-1167.826096771106
 40
0.424244615383941
 50
270.0
 51
360.0
 73
     1
 72
     1
 10
-936.8863493028296
 20
-1167.826096771106
 11
-936.8863493028296
 21
-1162.261586001906
 72
     2
 10
-937.3105939182134
 20
-1162.261586001906
 40
0.4242446153838273
 50
0.0
 51
90.0
 73
     1
 72
     1
 10
-937.3105939182134
 20
-1161.837341386522
 11
-942.7839060089303
 21
-1161.837341386522
 97
        8
330
301
330
28E
330
300
330
28F
330
2F7
330
28C
330
302
330
28D
 92
       16
 93
       12
 72
     1
 10
-942.1900113321838
 20
-1167.537785830933
 11
-940.7141780711743
 21
-1167.537785830933
 72
     2
 10
-940.7141780711743
 20
-1167.222068907856
 40
0.3157169230769341
 50
270.0
 51
360.0
 73
     1
 72
     1
 10
-940.3984611480976
 20
-1167.222068907856
 11
-940.3984611480976
 21
-1165.691297976324
 72
     2
 10
-940.7141780711743
 20
-1165.691297976324
 40
0.3157169230767067
 50
0.0
 51
64.80558935138451
 73
     1
 72
     2
 10
-940.1915936235993
 20
-1164.580468230262
 40
0.9118975235581699
 50
115.194410648512
 51
244.8055893514941
 73
     0
 72
     2
 10
-940.7141780711743
 20
-1163.4696384842
 40
0.3157169230755
 50
295.1944106486155
 51
360.0
 73
     1
 72
     1
 10
-940.3984611480976
 20
-1163.4696384842
 11
-940.3984611480976
 21
-1162.865613865139
 72
     2
 10
-940.7141780711743
 20
-1162.865613865139
 40
0.3157169230767067
 50
0.0
 51
90.0
 73
     1
 72
     1
 10
-940.7141780711743
 20
-1162.549896942063
 11
-942.1900113321838
 21
-1162.549896942063
 72
     2
 10
-942.1900113321838
 20
-1162.865613865139
 40
0.3157169230760246
 50
90.0
 51
180.0
 73
     1
 72
     1
 10
-942.5057282552594
 20
-1162.865613865139
 11
-942.5057282552594
 21
-1167.222068907856
 72
     2
 10
-942.1900113321838
 20
-1167.222068907856
 40
0.3157169230756836
 50
180.0
 51
270.0
 73
     1
 97
       12
330
293
330
2F4
330
292
330
305
330
291
330
304
330
2F5
330
2F6
330
290
330
303
330
28B
330
306
 92
       16
 93
        8
 72
     2
 10
-940.14050534374
 20
-1164.580468230262
 40
0.9118481501435332
 50
295.374008678208
 51
424.6259913218287
 73
     1
 72
     2
 10
-939.614462645652
 20
-1163.471326630294
 40
0.3157169230768204
 50
115.3740086784052
 51
180.0
 73
     0
 72
     1
 10
-939.9301795687288
 20
-1163.471326630294
 11
-939.9301795687288
 21
-1162.865791341787
 72
     2
 10
-939.614462645652
 20
-1162.865791341787
 40
0.3157169230760149
 50
180.0
 51
269.8110329574179
 73
     0
 72
     2
 10
-939.608846510342
 20
-1164.568626289356
 40
2.018561131933152
 50
269.811032957581
 51
450.188967042419
 73
     0
 72
     2
 10
-939.614462645652
 20
-1166.271461236925
 40
0.3157169230768204
 50
90.18896704258208
 51
180.0
 73
     0
 72
     1
 10
-939.9301795687288
 20
-1166.271461236925
 11
-939.9301795687288
 21
-1165.68960983023
 72
     2
 10
-939.614462645652
 20
-1165.68960983023
 40
0.3157169230770072
 50
180.0
 51
244.6259913216833
 73
     0
 97
        8
330
30F
330
2EB
330
2C7
330
30E
330
2EC
330
2ED
330
2C6
330
2EA
 92
       16
 93
        1
 72
     2
 10
-940.1643203584127
 20
-1164.580468230262
 40
0.4709789327785074
 50
0.0
 51
360.0
 73
     1
 97
        1
330
315
 75
     1
 76
     2
 52
45.0
 41
0.1
 77
     0
 78
     1
 53
45.0
 43
62.7811309658083
 44
-72.3161373035813
 45
-0.1414213562373095
 46
0.0
 79
     0
 98
        1
 10
0.0
 20
0.0
  0
HATCH
  5
348
330
71
100
AcDbEntity
  8
1
  6
Continuous
 62
     2
100
AcDbHatch
 10
0.0
 20
0.0
 30
0.0
210
0.0
220
0.0
230
1.0
  2
CUSTOM6
 70
     0
 71
     1
 91
        2
 92
        1
 93
       12
 72
     2
 10
-928.108742004941
 20
-1163.36424614841
 40
1.526904761906053
 50
90.0
 51
270.0
 73
     1
 72
     1
 10
-928.108742004941
 20
-1164.891150910315
 11
-924.95842228116
 21
-1164.891150910315
 72
     1
 10
-924.95842228116
 20
-1164.891150910315
 11
-924.95842228116
 21
-1164.193137304873
 72
     1
 10
-924.95842228116
 20
-1164.193137304873
 11
-926.2943501075877
 21
-1164.193137304873
 72
     1
 10
-926.2943501075877
 20
-1164.193137304873
 11
-926.2943501075877
 21
-1163.713252951131
 72
     1
 10
-926.2943501075877
 20
-1163.713252951131
 11
-924.95842228116
 21
-1163.713252951131
 72
     1
 10
-924.95842228116
 20
-1163.713252951131
 11
-924.95842228116
 21
-1163.015239345689
 72
     1
 10
-924.95842228116
 20
-1163.015239345689
 11
-926.2943501075877
 21
-1163.015239345689
 72
     1
 10
-926.2943501075877
 20
-1163.015239345689
 11
-926.2943501075877
 21
-1162.535354991947
 72
     1
 10
-926.2943501075877
 20
-1162.535354991947
 11
-924.95842228116
 21
-1162.535354991947
 72
     1
 10
-924.95842228116
 20
-1162.535354991947
 11
-924.95842228116
 21
-1161.837341386504
 72
     1
 10
-924.95842228116
 20
-1161.837341386504
 11
-928.108742004941
 21
-1161.837341386504
 97
       12
330
282
330
27C
330
2A3
330
2A2
330
2A1
330
2A0
330
27D
330
27E
330
27F
330
280
330
2F2
330
281
 92
       16
 93
        4
 72
     2
 10
-927.6927299584295
 20
-1163.36424614841
 40
0.7717997786797746
 50
141.879580202841
 51
218.120419797159
 73
     1
 72
     2
 10
-927.8924699947758
 20
-1163.520977326531
 40
0.517908573013281
 50
218.1204197971087
 51
321.8795802028835
 73
     1
 72
     2
 10
-928.0922100311219
 20
-1163.36424614841
 40
0.7717997786795957
 50
321.8795802028306
 51
398.1204197971695
 73
     1
 72
     2
 10
-927.8924699947758
 20
-1163.20751497029
 40
0.5179085730137529
 50
38.12041979719563
 51
141.8795802028121
 73
     1
 97
        4
330
2FF
330
2FE
330
2F9
330
2F8
 75
     1
 76
     2
 52
45.0
 41
0.1
 77
     0
 78
     1
 53
45.0
 43
62.7811309658083
 44
-72.3161373035813
 45
-0.1414213562373095
 46
0.0
 79
     0
 98
        1
 10
0.0
 20
0.0
  0
HATCH
  5
349
330
71
100
AcDbEntity
  8
1
  6
Continuous
 62
     2
100
AcDbHatch
 10
0.0
 20
0.0
 30
0.0
210
0.0
220
0.0
230
1.0
  2
CUSTOM7
 70
     0
 71
     1
 91
        2
 92
        1
 93
       12
 72
     2
 10
-928.108742004941
 20
-1163.36424614841
 40
1.526904761906053
 50
90.0
 51
270.0
 73
     1
 72
     1
 10
-928.108742004941
 20
-1164.891150910315
 11
-924.95842228116
 21
-1164.891150910315
 72
     1
 10
-924.95842228116
 20
-1164.891150910315
 11
-924.95842228116
 21
-1164.193137304873
 72
     1
 10
-924.95842228116
 20
-1164.193137304873
 11
-926.2943501075877
 21
-1164.193137304873
 72
     1
 10
-926.2943501075877
 20
-1164.193137304873
 11
-926.2943501075877
 21
-1163.713252951131
 72
     1
 10
-926.2943501075877
 20
-1163.713252951131
 11
-924.95842228116
 21
-1163.713252951131
 72
     1
 10
-924.95842228116
 20
-1163.713252951131
 11
-924.95842228116
 21
-1163.015239345689
 72
     1
 10
-924.95842228116
 20
-1163.015239345689
 11
-926.2943501075877
 21
-1163.015239345689
 72
     1
 10
-926.2943501075877
 20
-1163.015239345689
 11
-926.2943501075877
 21
-1162.535354991947
 72
     1
 10
-926.2943501075877
 20
-1162.535354991947
 11
-924.95842228116
 21
-1162.535354991947
 72
     1
 10
-924.95842228116
 20
-1162.535354991947
 11
-924.95842228116
 21
-1161.837341386504
 72
     1
 10
-924.95842228116
 20
-1161.837341386504
 11
-928.108742004941
 21
-1161.837341386504
 97
       12
330
282
330
27C
330
2A3
330
2A2
330
2A1
330
2A0
330
27D
330
27E
330
27F
330
280
330
2F2
330
281
 92
       16
 93
        4
 72
     2
 10
-927.6927299584295
 20
-1163.36424614841
 40
0.7717997786797746
 50
141.879580202841
 51
218.120419797159
 73
     1
 72
     2
 10
-927.8924699947758
 20
-1163.520977326531
 40
0.517908573013281
 50
218.1204197971087
 51
321.8795802028835
 73
     1
 72
     2
 10
-928.0922100311219
 20
-1163.36424614841
 40
0.7717997786795957
 50
321.8795802028306
 51
398.1204197971695
 73
     1
 72
     2
 10
-927.8924699947758
 20
-1163.20751497029
 40
0.5179085730137529
 50
38.12041979719563
 51
141.8795802028121
 73
     1
 97
        4
330
2FF
330
2FE
330
2F9
330
2F8
 75
     1
 76
     2
 52
45.0
 41
0.1
 77
     0
 78
     1
 53
45.0
 43
62.7811309658083
 44
-72.3161373035813
 45
-0.1414213562373095
 46
0.0
 79
     0
 98
        1
 10
0.0
 20
0.0
  0
HATCH
  5
34A
330
71
100
AcDbEntity
  8
1
  6
Continuous
 62
     2
100
AcDbHatch
 10
0.0
 20
0.0
 30
0.0
210
0.0
220
0.0
230
1.0
  2
CUSTOM8
 70
     0
 71
     1
 91
        2
 92
        1
 93
        4
 72
     2
 10
-932.1343573674026
 20
-1166.723436624584
 40
1.458034083651189
 50
117.5481481756711
 51
242.4518518243412
 73
     1
 72
     2
 10
-931.8534174755692
 20
-1166.184861614281
 40
2.065479772208573
 50
242.4518518243384
 51
297.5481481756867
 73
     1
 72
     2
 10
-931.572477583736
 20
-1166.723436624584
 40
1.458034083652319
 50
297.5481481756983
 51
422.4518518242893
 73
     1
 72
     2
 10
-931.8534174755692
 20
-1167.262011634887
 40
2.06547977220824
 50
62.45185182430162
 51
117.5481481756732
 73
     1
 97
        4
330
2FD
330
2FA
330
2FC
330
2FB
 92
       16
 93
        4
 72
     2
 10
-931.8534174755692
 20
-1166.566705446464
 40
0.517908573013574
 50
38.12041979721116
 51
141.8795802028121
 73
     1
 72
     2
 10
-931.6536774392232
 20
-1166.723436624584
 40
0.7717997786795957
 50
141.8795802028306
 51
218.1204197971561
 73
     1
 72
     2
 10
-931.8534174755692
 20
-1166.880167802704
 40
0.5179085730138424
 50
218.1204197971879
 51
321.8795802027889
 73
     1
 72
     2
 10
-932.0531575119156
 20
-1166.723436624584
 40
0.7717997786794554
 50
321.8795802028439
 51
398.1204197971695
 73
     1
 97
        4
330
2E0
330
2E1
330
2E2
330
2DF
 75
     1
 76
     2
 52
45.0
 41
0.1
 77
     0
 78
     1
 53
45.0
 43
62.7811309658083
 44
-72.3161373035813
 45
-0.1414213562373095
 46
0.0
 79
     0
 98
        1
 10
0.0
 20
0.0
  0
HATCH
  5
34B
330
71
100
AcDbEntity
  8
1
  6
Continuous
 62
     2
100
AcDbHatch
 10
0.0
 20
0.0
 30
0.0
210
0.0
220
0.0
230
1.0
  2
CUSTOM9
 70
     0
 71
     1
 91
        2
 92
        1
 93
        4
 72
     2
 10
-932.1343573674026
 20
-1166.723436624584
 40
1.458034083651189
 50
117.5481481756711
 51
242.4518518243412
 73
     1
 72
     2
 10
-931.8534174755692
 20
-1166.184861614281
 40
2.065479772208573
 50
242.4518518243384
 51
297.5481481756867
 73
     1
 72
     2
 10
-931.572477583736
 20
-1166.723436624584
 40
1.458034083652319
 50
297.5481481756983
 51
422.4518518242893
 73
     1
 72
     2
 10
-931.8534174755692
 20
-1167.262011634887
 40
2.06547977220824
 50
62.45185182430162
 51
117.5481481756732
 73
     1
 97
        4
330
2FD
330
2FA
330
2FC
330
2FB
 92
       16
 93
        4
 72
     2
 10
-931.8534174755692
 20
-1166.566705446464
 40
0.517908573013574
 50
38.12041979721116
 51
141.8795802028121
 73
     1
 72
     2
 10
-931.6536774392232
 20
-1166.723436624584
 40
0.7717997786795957
 50
141.8795802028306
 51
218.1204197971561
 73
     1
 72
     2
 10
-931.8534174755692
 20
-1166.880167802704
 40
0.5179085730138424
 50
218.1204197971879
 51
321.8795802027889
 73
     1
 72
     2
 10
-932.0531575119156
 20
-1166.723436624584
 40
0.7717997786794554
 50
321.8795802028439
 51
398.1204197971695
 73
     1
 97
        4
330
2E0
330
2E1
330
2E2
330
2DF
 75
     1
 76
     2
 52
45.0
 41
0.1
 77
     0
 78
     1
 53
45.0
 43
62.7811309658083
 44
-72.3161373035813
 45
-0.1414213562373095
 46
0.0
 79
     0
 98
        1
 10
0.0
 20
0.0
  0
HATCH
  5
34C
330
71
100
AcDbEntity
  8
1
  6
Continuous
 62
     2
100
AcDbHatch
 10
0.0
 20
0.0
 30
0.0
210
0.0
220
0.0
230
1.0
  2
CUSTOM10
 70
     0
 71
     1
 91
        2
 92
        1
 93
        6
 72
     1
 10
-936.4092322219627
 20
-1161.837341386504
 11
-936.4092322219627
 21
-1164.891150910315
 72
     1
 10
-936.4092322219627
 20
-1164.891150910315
 11
-935.1687278117088
 21
-1164.891150910315
 72
     1
 10
-935.1687278117088
 20
-1164.891150910315
 11
-935.1687278117088
 21
-1163.948072669172
 72
     1
 10
-935.1687278117088
 20
-1163.948072669172
 11
-934.4099602239284
 21
-1163.948072669172
 72
     2
 10
-934.4099602239284
 20
-1162.892707027838
 40
1.055365641333992
 50
270.0
 51
450.0
 73
     1
 72
     1
 10
-934.4099602239284
 20
-1161.837341386504
 11
-936.4092322219627
 21
-1161.837341386504
 97
        6
330
307
330
294
330
28A
330
289
330
296
330
295
 92
       16
 93
        4
 72
     1
 10
-934.8514327501667
 20
-1162.500447231944
 11
-935.1687278117088
 21
-1162.500447231944
 72
     1
 10
-935.1687278117088
 20
-1162.500447231944
 11
-935.1687278117088
 21
-1163.206174881286
 72
     1
 10
-935.1687278117088
 20
-1163.206174881286
 11
-934.8514327501667
 21
-1163.206174881286
 72
     2
 10
-934.8514327501667
 20
-1162.853311056615
 40
0.3528638246709761
 50
270.0
 51
450.0
 73
     1
 97
        4
330
297
330
288
330
298
330
2F3
 75
     1
 76
     2
 52
45.0
 41
0.1
 77
     0
 78
     1
 53
45.0
 43
62.7811309658083
 44
-72.3161373035813
 45
-0.1414213562373095
 46
0.0
 79
     0
 98
        1
 10
0.0
 20
0.0
  0
HATCH
  5
34D
330
71
100
AcDbEntity
  8
1
  6
Continuous
 62
     2
100
AcDbHatch
 10
0.0
 20
0.0
 30
0.0
210
0.0
220
0.0
230
1.0
  2
CUSTOM11
 70
     0
 71
     1
 91
        2
 92
        1
 93
        6
 72
     1
 10
-936.4092322219627
 20
-1161.837341386504
 11
-936.4092322219627
 21
-1164.891150910315
 72
     1
 10
-936.4092322219627
 20
-1164.891150910315
 11
-935.1687278117088
 21
-1164.891150910315
 72
     1
 10
-935.1687278117088
 20
-1164.891150910315
 11
-935.1687278117088
 21
-1163.948072669172
 72
     1
 10
-935.1687278117088
 20
-1163.948072669172
 11
-934.4099602239284
 21
-1163.948072669172
 72
     2
 10
-934.4099602239284
 20
-1162.892707027838
 40
1.055365641333992
 50
270.0
 51
450.0
 73
     1
 72
     1
 10
-934.4099602239284
 20
-1161.837341386504
 11
-936.4092322219627
 21
-1161.837341386504
 97
        6
330
307
330
294
330
28A
330
289
330
296
330
295
 92
       16
 93
        4
 72
     1
 10
-934.8514327501667
 20
-1162.500447231944
 11
-935.1687278117088
 21
-1162.500447231944
 72
     1
 10
-935.1687278117088
 20
-1162.500447231944
 11
-935.1687278117088
 21
-1163.206174881286
 72
     1
 10
-935.1687278117088
 20
-1163.206174881286
 11
-934.8514327501667
 21
-1163.206174881286
 72
     2
 10
-934.8514327501667
 20
-1162.853311056615
 40
0.3528638246709761
 50
270.0
 51
450.0
 73
     1
 97
        4
330
297
330
288
330
298
330
2F3
 75
     1
 76
     2
 52
45.0
 41
0.1
 77
     0
 78
     1
 53
45.0
 43
62.7811309658083
 44
-72.3161373035813
 45
-0.1414213562373095
 46
0.0
 79
     0
 98
        1
 10
0.0
 20
0.0
  0
HATCH
  5
34E
330
71
100
AcDbEntity
  8
1
  6
Continuous
 62
     2
100
AcDbHatch
 10
0.0
 20
0.0
 30
0.0
210
0.0
220
0.0
230
1.0
  2
CUSTOM12
 70
     0
 71
     1
 91
        1
 92
        1
 93
       12
 72
     1
 10
-916.7949490275296
 20
-1161.837341386504
 11
-915.3922248097823
 21
-1161.837341386504
 72
     1
 10
-915.3922248097823
 20
-1161.837341386504
 11
-916.6947544405489
 21
-1163.31029191654
 72
     1
 10
-916.6947544405489
 20
-1163.31029191654
 11
-915.2968013936086
 21
-1164.891150910315
 72
     1
 10
-915.2968013936086
 20
-1164.891150910315
 11
-916.6995256113569
 21
-1164.891150910315
 72
     1
 10
-916.6995256113569
 20
-1164.891150910315
 11
-917.3961165494223
 21
-1164.103419125021
 72
     1
 10
-917.3961165494223
 20
-1164.103419125021
 11
-918.0927074874882
 21
-1164.891150910315
 72
     1
 10
-918.0927074874882
 20
-1164.891150910315
 11
-919.4954317052362
 21
-1164.891150910315
 72
     1
 10
-919.4954317052362
 20
-1164.891150910315
 11
-918.0974786582959
 21
-1163.31029191654
 72
     1
 10
-918.0974786582959
 20
-1163.31029191654
 11
-919.4000082890634
 21
-1161.837341386504
 72
     1
 10
-919.4000082890634
 20
-1161.837341386504
 11
-917.9972840713142
 21
-1161.837341386504
 72
     1
 10
-917.9972840713142
 20
-1161.837341386504
 11
-917.3961165494223
 21
-1162.51716470806
 72
     1
 10
-917.3961165494223
 20
-1162.51716470806
 11
-916.7949490275296
 21
-1161.837341386504
 97
       12
330
263
330
2BC
330
2BB
330
2BA
330
2B9
330
264
330
265
330
261
330
262
330
2BF
330
2BE
330
2BD
 75
     1
 76
     2
 52
45.0
 41
0.1
 77
     0
 78
     1
 53
45.0
 43
62.7811309658083
 44
-72.3161373035813
 45
-0.1414213562373095
 46
0.0
 79
     0
 98
        1
 10
0.0
 20
0.0
  0
HATCH
  5
34F
330
71
100
AcDbEntity
  8
1
  6
Continuous
 62
     2
100
AcDbHatch
 10
0.0
 20
0.0
 30
0.0
210
0.0
220
0.0
230
1.0
  2
CUSTOM13
 70
     0
 71
     1
 91
        1
 92
        1
 93
       12
 72
     1
 10
-916.7949490275296
 20
-1161.837341386504
 11
-915.3922248097823
 21
-1161.837341386504
 72
     1
 10
-915.3922248097823
 20
-1161.837341386504
 11
-916.6947544405489
 21
-1163.31029191654
 72
     1
 10
-916.6947544405489
 20
-1163.31029191654
 11
-915.2968013936086
 21
-1164.891150910315
 72
     1
 10
-915.2968013936086
 20
-1164.891150910315
 11
-916.6995256113569
 21
-1164.891150910315
 72
     1
 10
-916.6995256113569
 20
-1164.891150910315
 11
-917.3961165494223
 21
-1164.103419125021
 72
     1
 10
-917.3961165494223
 20
-1164.103419125021
 11
-918.0927074874882
 21
-1164.891150910315
 72
     1
 10
-918.0927074874882
 20
-1164.891150910315
 11
-919.4954317052362
 21
-1164.891150910315
 72
     1
 10
-919.4954317052362
 20
-1164.891150910315
 11
-918.0974786582959
 21
-1163.31029191654
 72
     1
 10
-918.0974786582959
 20
-1163.31029191654
 11
-919.4000082890634
 21
-1161.837341386504
 72
     1
 10
-919.4000082890634
 20
-1161.837341386504
 11
-917.9972840713142
 21
-1161.837341386504
 72
     1
 10
-917.9972840713142
 20
-1161.837341386504
 11
-917.3961165494223
 21
-1162.51716470806
 72
     1
 10
-917.3961165494223
 20
-1162.51716470806
 11
-916.7949490275296
 21
-1161.837341386504
 97
       12
330
263
330
2BC
330
2BB
330
2BA
330
2B9
330
264
330
265
330
261
330
262
330
2BF
330
2BE
330
2BD
 75
     1
 76
     2
 52
45.0
 41
0.1
 77
     0
 78
     1
 53
45.0
 43
62.7811309658083
 44
-72.3161373035813
 45
-0.1414213562373095
 46
0.0
 79
     0
 98
        1
 10
0.0
 20
0.0
  0
HATCH
  5
350
330
71
100
AcDbEntity
  8
1
  6
Continuous
 62
     2
100
AcDbHatch
 10
0.0
 20
0.0
 30
0.0
210
0.0
220
0.0
230
1.0
  2
CUSTOM14
 70
     0
 71
     1
 91
        1
 92
        1
 93
        4
 72
     1
 10
-919.6147109754531
 20
-1161.837341386504
 11
-919.6147109754531
 21
-1164.891150910315
 72
     1
 10
-919.6147109754531
 20
-1164.891150910315
 11
-920.8552153857061
 21
-1164.891150910315
 72
     1
 10
-920.8552153857061
 20
-1164.891150910315
 11
-920.8552153857061
 21
-1161.837341386504
 72
     1
 10
-920.8552153857061
 20
-1161.837341386504
 11
-919.6147109754531
 21
-1161.837341386504
 97
        4
330
2B7
330
266
330
2B6
330
2B8
 75
     1
 76
     2
 52
45.0
 41
0.1
 77
     0
 78
     1
 53
45.0
 43
62.7811309658083
 44
-72.3161373035813
 45
-0.1414213562373095
 46
0.0
 79
     0
 98
        1
 10
0.0
 20
0.0
  0
HATCH
  5
351
330
71
100
AcDbEntity
  8
1
  6
Continuous
 62
     2
100
AcDbHatch
 10
0.0
 20
0.0
 30
0.0
210
0.0
220
0.0
230
1.0
  2
CUSTOM15
 70
     0
 71
     1
 91
        1
 92
        1
 93
        4
 72
     1
 10
-919.6147109754531
 20
-1161.837341386504
 11
-919.6147109754531
 21
-1164.891150910315
 72
     1
 10
-919.6147109754531
 20
-1164.891150910315
 11
-920.8552153857061
 21
-1164.891150910315
 72
     1
 10
-920.8552153857061
 20
-1164.891150910315
 11
-920.8552153857061
 21
-1161.837341386504
 72
     1
 10
-920.8552153857061
 20
-1161.837341386504
 11
-919.6147109754531
 21
-1161.837341386504
 97
        4
330
2B7
330
266
330
2B6
330
2B8
 75
     1
 76
     2
 52
45.0
 41
0.1
 77
     0
 78
     1
 53
45.0
 43
62.7811309658083
 44
-72.3161373035813
 45
-0.1414213562373095
 46
0.0
 79
     0
 98
        1
 10
0.0
 20
0.0
  0
HATCH
  5
352
330
71
100
AcDbEntity
  8
1
  6
Continuous
 62
     2
100
AcDbHatch
 10
0.0
 20
0.0
 30
0.0
210
0.0
220
0.0
230
1.0
  2
CUSTOM16
 70
     0
 71
     1
 91
        2
 92
        1
 93
        8
 72
     1
 10
-920.0051549789852
 20
-1168.25034138649
 11
-921.245659389239
 21
-1168.25034138649
 72
     1
 10
-921.245659389239
 20
-1168.25034138649
 11
-921.4571394427148
 21
-1167.709380842272
 72
     1
 10
-921.4571394427148
 20
-1167.709380842272
 11
-922.5895810193888
 21
-1167.709380842272
 72
     1
 10
-922.5895810193888
 20
-1167.709380842272
 11
-922.8010610728645
 21
-1168.25034138649
 72
     1
 10
-922.8010610728645
 20
-1168.25034138649
 11
-924.0415654831174
 21
-1168.25034138649
 72
     1
 10
-924.0415654831174
 20
-1168.25034138649
 11
-922.6436124361783
 21
-1165.196531862679
 72
     1
 10
-922.6436124361783
 20
-1165.196531862679
 11
-921.4031080259253
 21
-1165.196531862679
 72
     1
 10
-921.4031080259253
 20
-1165.196531862679
 11
-920.0051549789852
 21
-1168.25034138649
 97
        8
330
2B2
330
26C
330
2B1
330
2B4
330
269
330
2B3
330
26A
330
26B
 92
       16
 93
        3
 72
     1
 10
-922.3235254682436
 20
-1167.028817576965
 11
-921.7231949938612
 21
-1167.028817576965
 72
     1
 10
-921.7231949938612
 20
-1167.028817576965
 11
-922.0233602310514
 21
-1166.261002610979
 72
     1
 10
-922.0233602310514
 20
-1166.261002610979
 11
-922.3235254682436
 21
-1167.028817576965
 97
        3
330
268
330
267
330
2B5
 75
     1
 76
     2
 52
45.0
 41
0.1
 77
     0
 78
     1
 53
45.0
 43
62.7811309658083
 44
-72.3161373035813
 45
-0.1414213562373095
 46
0.0
 79
     0
 98
        1
 10
0.0
 20
0.0
  0
HATCH
  5
353
330
71
100
AcDbEntity
  8
1
  6
Continuous
 62
     2
100
AcDbHatch
 10
0.0
 20
0.0
 30
0.0
210
0.0
220
0.0
230
1.0
  2
CUSTOM17
 70
     0
 71
     1
 91
        2
 92
        1
 93
        8
 72
     1
 10
-920.0051549789852
 20
-1168.25034138649
 11
-921.245659389239
 21
-1168.25034138649
 72
     1
 10
-921.245659389239
 20
-1168.25034138649
 11
-921.4571394427148
 21
-1167.709380842272
 72
     1
 10
-921.4571394427148
 20
-1167.709380842272
 11
-922.5895810193888
 21
-1167.709380842272
 72
     1
 10
-922.5895810193888
 20
-1167.709380842272
 11
-922.8010610728645
 21
-1168.25034138649
 72
     1
 10
-922.8010610728645
 20
-1168.25034138649
 11
-924.0415654831174
 21
-1168.25034138649
 72
     1
 10
-924.0415654831174
 20
-1168.25034138649
 11
-922.6436124361783
 21
-1165.196531862679
 72
     1
 10
-922.6436124361783
 20
-1165.196531862679
 11
-921.4031080259253
 21
-1165.196531862679
 72
     1
 10
-921.4031080259253
 20
-1165.196531862679
 11
-920.0051549789852
 21
-1168.25034138649
 97
        8
330
2B2
330
26C
330
2B1
330
2B4
330
269
330
2B3
330
26A
330
26B
 92
       16
 93
        3
 72
     1
 10
-922.3235254682436
 20
-1167.028817576965
 11
-921.7231949938612
 21
-1167.028817576965
 72
     1
 10
-921.7231949938612
 20
-1167.028817576965
 11
-922.0233602310514
 21
-1166.261002610979
 72
     1
 10
-922.0233602310514
 20
-1166.261002610979
 11
-922.3235254682436
 21
-1167.028817576965
 97
        3
330
268
330
267
330
2B5
 75
     1
 76
     2
 52
45.0
 41
0.1
 77
     0
 78
     1
 53
45.0
 43
62.7811309658083
 44
-72.3161373035813
 45
-0.1414213562373095
 46
0.0
 79
     0
 98
        1
 10
0.0
 20
0.0
  0
HATCH
  5
354
330
71
100
AcDbEntity
  8
1
  6
Continuous
 62
     2
100
AcDbHatch
 10
0.0
 20
0.0
 30
0.0
210
0.0
220
0.0
230
1.0
  2
CUSTOM18
 70
     0
 71
     1
 91
        1
 92
        1
 93
        8
 72
     1
 10
-926.1990776222997
 20
-1165.196531862679
 11
-926.1990776222997
 21
-1165.981797168802
 72
     1
 10
-926.1990776222997
 20
-1165.981797168802
 11
-925.3879785848251
 21
-1165.981797168802
 72
     1
 10
-925.3879785848251
 20
-1165.981797168802
 11
-925.3879785848251
 21
-1168.25034138649
 72
     1
 10
-925.3879785848251
 20
-1168.25034138649
 11
-924.1951858826586
 21
-1168.25034138649
 72
     1
 10
-924.1951858826586
 20
-1168.25034138649
 11
-924.1951858826586
 21
-1165.981797168802
 72
     1
 10
-924.1951858826586
 20
-1165.981797168802
 11
-923.384086845186
 21
-1165.981797168802
 72
     1
 10
-923.384086845186
 20
-1165.981797168802
 11
-923.384086845186
 21
-1165.196531862679
 72
     1
 10
-923.384086845186
 20
-1165.196531862679
 11
-926.1990776222997
 21
-1165.196531862679
 97
        8
330
2AE
330
2AD
330
2AC
330
26D
330
26E
330
2B0
330
26F
330
2AF
 75
     1
 76
     2
 52
45.0
 41
0.1
 77
     0
 78
     1
 53
45.0
 43
62.7811309658083
 44
-72.3161373035813
 45
-0.1414213562373095
 46
0.0
 79
     0
 98
        1
 10
0.0
 20
0.0
  0
HATCH
  5
355
330
71
100
AcDbEntity
  8
1
  6
Continuous
 62
     2
100
AcDbHatch
 10
0.0
 20
0.0
 30
0.0
210
0.0
220
0.0
230
1.0
  2
CUSTOM19
 70
     0
 71
     1
 91
        1
 92
        1
 93
        8
 72
     1
 10
-926.1990776222997
 20
-1165.196531862679
 11
-926.1990776222997
 21
-1165.981797168802
 72
     1
 10
-926.1990776222997
 20
-1165.981797168802
 11
-925.3879785848251
 21
-1165.981797168802
 72
     1
 10
-925.3879785848251
 20
-1165.981797168802
 11
-925.3879785848251
 21
-1168.25034138649
 72
     1
 10
-925.3879785848251
 20
-1168.25034138649
 11
-924.1951858826586
 21
-1168.25034138649
 72
     1
 10
-924.1951858826586
 20
-1168.25034138649
 11
-924.1951858826586
 21
-1165.981797168802
 72
     1
 10
-924.1951858826586
 20
-1165.981797168802
 11
-923.384086845186
 21
-1165.981797168802
 72
     1
 10
-923.384086845186
 20
-1165.981797168802
 11
-923.384086845186
 21
-1165.196531862679
 72
     1
 10
-923.384086845186
 20
-1165.196531862679
 11
-926.1990776222997
 21
-1165.196531862679
 97
        8
330
2AE
330
2AD
330
2AC
330
26D
330
26E
330
2B0
330
26F
330
2AF
 75
     1
 76
     2
 52
45.0
 41
0.1
 77
     0
 78
     1
 53
45.0
 43
62.7811309658083
 44
-72.3161373035813
 45
-0.1414213562373095
 46
0.0
 79
     0
 98
        1
 10
0.0
 20
0.0
  0
HATCH
  5
356
330
71
100
AcDbEntity
  8
1
  6
Continuous
 62
     2
100
AcDbHatch
 10
0.0
 20
0.0
 30
0.0
210
0.0
220
0.0
230
1.0
  2
CUSTOM20
 70
     0
 71
     1
 91
        1
 92
        1
 93
       10
 72
     1
 10
-923.5270710385606
 20
-1161.837341386504
 11
-924.7198637407271
 21
-1161.837341386504
 72
     1
 10
-924.7198637407271
 20
-1161.837341386504
 11
-924.7198637407271
 21
-1164.891150910315
 72
     1
 10
-924.7198637407271
 20
-1164.891150910315
 11
-923.5270710385606
 21
-1164.891150910315
 72
     1
 10
-923.5270710385606
 20
-1164.891150910315
 11
-923.5270710385606
 21
-1163.582375400111
 72
     1
 10
-923.5270710385606
 20
-1163.582375400111
 11
-922.2865666283066
 21
-1164.891150910315
 72
     1
 10
-922.2865666283066
 20
-1164.891150910315
 11
-921.0937739261399
 21
-1164.891150910315
 72
     1
 10
-921.0937739261399
 20
-1164.891150910315
 11
-921.0937739261399
 21
-1161.837341386504
 72
     1
 10
-921.0937739261399
 20
-1161.837341386504
 11
-922.2865666283066
 21
-1161.837341386504
 72
     1
 10
-922.2865666283066
 20
-1161.837341386504
 11
-922.2865666283066
 21
-1163.146116896709
 72
     1
 10
-922.2865666283066
 20
-1163.146116896709
 11
-923.5270710385606
 21
-1161.837341386504
 97
       10
330
2A8
330
272
330
273
330
274
330
275
330
2AB
330
270
330
2AA
330
2A9
330
271
 75
     1
 76
     2
 52
45.0
 41
0.1
 77
     0
 78
     1
 53
45.0
 43
62.7811309658083
 44
-72.3161373035813
 45
-0.1414213562373095
 46
0.0
 79
     0
 98
        1
 10
0.0
 20
0.0
  0
HATCH
  5
357
330
71
100
AcDbEntity
  8
1
  6
Continuous
 62
     2
100
AcDbHatch
 10
0.0
 20
0.0
 30
0.0
210
0.0
220
0.0
230
1.0
  2
CUSTOM21
 70
     0
 71
     1
 91
        1
 92
        1
 93
       10
 72
     1
 10
-923.5270710385606
 20
-1161.837341386504
 11
-924.7198637407271
 21
-1161.837341386504
 72
     1
 10
-924.7198637407271
 20
-1161.837341386504
 11
-924.7198637407271
 21
-1164.891150910315
 72
     1
 10
-924.7198637407271
 20
-1164.891150910315
 11
-923.5270710385606
 21
-1164.891150910315
 72
     1
 10
-923.5270710385606
 20
-1164.891150910315
 11
-923.5270710385606
 21
-1163.582375400111
 72
     1
 10
-923.5270710385606
 20
-1163.582375400111
 11
-922.2865666283066
 21
-1164.891150910315
 72
     1
 10
-922.2865666283066
 20
-1164.891150910315
 11
-921.0937739261399
 21
-1164.891150910315
 72
     1
 10
-921.0937739261399
 20
-1164.891150910315
 11
-921.0937739261399
 21
-1161.837341386504
 72
     1
 10
-921.0937739261399
 20
-1161.837341386504
 11
-922.2865666283066
 21
-1161.837341386504
 72
     1
 10
-922.2865666283066
 20
-1161.837341386504
 11
-922.2865666283066
 21
-1163.146116896709
 72
     1
 10
-922.2865666283066
 20
-1163.146116896709
 11
-923.5270710385606
 21
-1161.837341386504
 97
       10
330
2A8
330
272
330
273
330
274
330
275
330
2AB
330
270
330
2AA
330
2A9
330
271
 75
     1
 76
     2
 52
45.0
 41
0.1
 77
     0
 78
     1
 53
45.0
 43
62.7811309658083
 44
-72.3161373035813
 45
-0.1414213562373095
 46
0.0
 79
     0
 98
        1
 10
0.0
 20
0.0
  0
HATCH
  5
358
330
71
100
AcDbEntity
  8
1
  6
Continuous
 62
     2
100
AcDbHatch
 10
0.0
 20
0.0
 30
0.0
210
0.0
220
0.0
230
1.0
  2
CUSTOM22
 70
     0
 71
     1
 91
        1
 92
        1
 93
       10
 72
     1
 10
-928.7755098589791
 20
-1165.196531862679
 11
-929.9683025611467
 21
-1165.196531862679
 72
     1
 10
-929.9683025611467
 20
-1165.196531862679
 11
-929.9683025611467
 21
-1168.25034138649
 72
     1
 10
-929.9683025611467
 20
-1168.25034138649
 11
-928.7755098589791
 21
-1168.25034138649
 72
     1
 10
-928.7755098589791
 20
-1168.25034138649
 11
-928.7755098589791
 21
-1166.941565876285
 72
     1
 10
-928.7755098589791
 20
-1166.941565876285
 11
-927.5350054487262
 21
-1168.25034138649
 72
     1
 10
-927.5350054487262
 20
-1168.25034138649
 11
-926.3422127465599
 21
-1168.25034138649
 72
     1
 10
-926.3422127465599
 20
-1168.25034138649
 11
-926.3422127465599
 21
-1165.196531862679
 72
     1
 10
-926.3422127465599
 20
-1165.196531862679
 11
-927.5350054487262
 21
-1165.196531862679
 72
     1
 10
-927.5350054487262
 20
-1165.196531862679
 11
-927.5350054487262
 21
-1166.505307372884
 72
     1
 10
-927.5350054487262
 20
-1166.505307372884
 11
-928.7755098589791
 21
-1165.196531862679
 97
       10
330
277
330
278
330
279
330
2A5
330
27A
330
27B
330
2A4
330
2A7
330
2A6
330
276
 75
     1
 76
     2
 52
45.0
 41
0.1
 77
     0
 78
     1
 53
45.0
 43
62.7811309658083
 44
-72.3161373035813
 45
-0.1414213562373095
 46
0.0
 79
     0
 98
        1
 10
0.0
 20
0.0
  0
HATCH
  5
359
330
71
100
AcDbEntity
  8
1
  6
Continuous
 62
     2
100
AcDbHatch
 10
0.0
 20
0.0
 30
0.0
210
0.0
220
0.0
230
1.0
  2
CUSTOM23
 70
     0
 71
     1
 91
        1
 92
        1
 93
       10
 72
     1
 10
-928.7755098589791
 20
-1165.196531862679
 11
-929.9683025611467
 21
-1165.196531862679
 72
     1
 10
-929.9683025611467
 20
-1165.196531862679
 11
-929.9683025611467
 21
-1168.25034138649
 72
     1
 10
-929.9683025611467
 20
-1168.25034138649
 11
-928.7755098589791
 21
-1168.25034138649
 72
     1
 10
-928.7755098589791
 20
-1168.25034138649
 11
-928.7755098589791
 21
-1166.941565876285
 72
     1
 10
-928.7755098589791
 20
-1166.941565876285
 11
-927.5350054487262
 21
-1168.25034138649
 72
     1
 10
-927.5350054487262
 20
-1168.25034138649
 11
-926.3422127465599
 21
-1168.25034138649
 72
     1
 10
-926.3422127465599
 20
-1168.25034138649
 11
-926.3422127465599
 21
-1165.196531862679
 72
     1
 10
-926.3422127465599
 20
-1165.196531862679
 11
-927.5350054487262
 21
-1165.196531862679
 72
     1
 10
-927.5350054487262
 20
-1165.196531862679
 11
-927.5350054487262
 21
-1166.505307372884
 72
     1
 10
-927.5350054487262
 20
-1166.505307372884
 11
-928.7755098589791
 21
-1165.196531862679
 97
       10
330
277
330
278
330
279
330
2A5
330
27A
330
27B
330
2A4
330
2A7
330
2A6
330
276
 75
     1
 76
     2
 52
45.0
 41
0.1
 77
     0
 78
     1
 53
45.0
 43
62.7811309658083
 44
-72.3161373035813
 45
-0.1414213562373095
 46
0.0
 79
     0
 98
        1
 10
0.0
 20
0.0
  0
HATCH
  5
35A
330
71
100
AcDbEntity
  8
1
  6
Continuous
 62
     2
100
AcDbHatch
 10
0.0
 20
0.0
 30
0.0
210
0.0
220
0.0
230
1.0
  2
CUSTOM24
 70
     0
 71
     1
 91
        1
 92
        1
 93
       12
 72
     1
 10
-929.7773047979146
 20
-1161.837341386504
 11
-929.7773047979146
 21
-1164.891150910315
 72
     1
 10
-929.7773047979146
 20
-1164.891150910315
 11
-930.970097500081
 21
-1164.891150910315
 72
     1
 10
-930.970097500081
 20
-1164.891150910315
 11
-930.970097500081
 21
-1163.756878801472
 72
     1
 10
-930.970097500081
 20
-1163.756878801472
 11
-932.0197550779884
 21
-1163.756878801472
 72
     1
 10
-932.0197550779884
 20
-1163.756878801472
 11
-932.0197550779884
 21
-1164.891150910315
 72
     1
 10
-932.0197550779884
 20
-1164.891150910315
 11
-933.212547780155
 21
-1164.891150910315
 72
     1
 10
-933.212547780155
 20
-1164.891150910315
 11
-933.212547780155
 21
-1161.837341386504
 72
     1
 10
-933.212547780155
 20
-1161.837341386504
 11
-932.0197550779884
 21
-1161.837341386504
 72
     1
 10
-932.0197550779884
 20
-1161.837341386504
 11
-932.0197550779884
 21
-1162.906174719839
 72
     1
 10
-932.0197550779884
 20
-1162.906174719839
 11
-930.970097500081
 21
-1162.906174719839
 72
     1
 10
-930.970097500081
 20
-1162.906174719839
 11
-930.970097500081
 21
-1161.837341386504
 72
     1
 10
-930.970097500081
 20
-1161.837341386504
 11
-929.7773047979146
 21
-1161.837341386504
 97
       12
330
29F
330
29E
330
29D
330
285
330
286
330
29C
330
287
330
29B
330
29A
330
299
330
283
330
284
 75
     1
 76
     2
 52
45.0
 41
0.1
 77
     0
 78
     1
 53
45.0
 43
62.7811309658083
 44
-72.3161373035813
 45
-0.1414213562373095
 46
0.0
 79
     0
 98
        1
 10
0.0
 20
0.0
  0
HATCH
  5
35B
330
71
100
AcDbEntity
  8
1
  6
Continuous
 62
     2
100
AcDbHatch
 10
0.0
 20
0.0
 30
0.0
210
0.0
220
0.0
230
1.0
  2
CUSTOM25
 70
     0
 71
     1
 91
        1
 92
        1
 93
       12
 72
     1
 10
-929.7773047979146
 20
-1161.837341386504
 11
-929.7773047979146
 21
-1164.891150910315
 72
     1
 10
-929.7773047979146
 20
-1164.891150910315
 11
-930.970097500081
 21
-1164.891150910315
 72
     1
 10
-930.970097500081
 20
-1164.891150910315
 11
-930.970097500081
 21
-1163.756878801472
 72
     1
 10
-930.970097500081
 20
-1163.756878801472
 11
-932.0197550779884
 21
-1163.756878801472
 72
     1
 10
-932.0197550779884
 20
-1163.756878801472
 11
-932.0197550779884
 21
-1164.891150910315
 72
     1
 10
-932.0197550779884
 20
-1164.891150910315
 11
-933.212547780155
 21
-1164.891150910315
 72
     1
 10
-933.212547780155
 20
-1164.891150910315
 11
-933.212547780155
 21
-1161.837341386504
 72
     1
 10
-933.212547780155
 20
-1161.837341386504
 11
-932.0197550779884
 21
-1161.837341386504
 72
     1
 10
-932.0197550779884
 20
-1161.837341386504
 11
-932.0197550779884
 21
-1162.906174719839
 72
     1
 10
-932.0197550779884
 20
-1162.906174719839
 11
-930.970097500081
 21
-1162.906174719839
 72
     1
 10
-930.970097500081
 20
-1162.906174719839
 11
-930.970097500081
 21
-1161.837341386504
 72
     1
 10
-930.970097500081
 20
-1161.837341386504
 11
-929.7773047979146
 21
-1161.837341386504
 97
       12
330
29F
330
29E
330
29D
330
285
330
286
330
29C
330
287
330
29B
330
29A
330
299
330
283
330
284
 75
     1
 76
     2
 52
45.0
 41
0.1
 77
     0
 78
     1
 53
45.0
 43
62.7811309658083
 44
-72.3161373035813
 45
-0.1414213562373095
 46
0.0
 79
     0
 98
        1
 10
0.0
 20
0.0
  0
ENDBLK
  5
73
330
71
100
AcDbEntity
  8
0
100
AcDbBlockEnd
  0
BLOCK
  5
75
330
74
100
AcDbEntity
  8
0
100
AcDbBlockBegin
  2
_punkt
 70
     0
 10
-817.9000009841258
 20
-1175.543841386506
 30
0.0
  3
_punkt
  1

  0
LINE
  5
35C
330
74
100
AcDbEntity
  8
1
  6
Continuous
 62
     2
100
AcDbLine
 10
-817.9000009841257
 20
-1175.543841386506
 30
0.0
 11
-817.9000009841257
 21
-1180.543841386505
 31
0.0
  0
LINE
  5
35D
330
74
100
AcDbEntity
  8
1
  6
Continuous
 62
     2
100
AcDbLine
 10
-817.9000009841257
 20
-1175.543841386506
 30
0.0
 11
-812.9000009841282
 21
-1175.543841386506
 31
0.0
  0
ENDBLK
  5
76
330
74
100
AcDbEntity
  8
0
100
AcDbBlockEnd
  0
BLOCK
  5
7A
330
77
100
AcDbEntity
  8
0
100
AcDbBlockBegin
  2
A3I_CS
 70
     0
 10
-817.9000009841257
 20
-1180.543841386505
 30
0.0
  3
A3I_CS
  1

  0
INSERT
  5
78
330
77
100
AcDbEntity
  8
1
100
AcDbBlockReference
  2
_rahmen
 10
-817.9000009841257
 20
-1180.543841386505
 30
0.0
  0
INSERT
  5
79
330
77
100
AcDbEntity
  8
1
100
AcDbBlockReference
  2
_punkt
 10
-817.9000009841258
 20
-1175.543841386506
 30
0.0
  0
ENDBLK
  5
7B
330
77
100
AcDbEntity
  8
0
100
AcDbBlockEnd
  0
BLOCK
  5
84
330
7C
100
AcDbEntity
  8
0
100
AcDbBlockBegin
  2
1
 70
     0
 10
0.0
 20
0.0
 30
0.0
  3
1
  1

  0
INSERT
  5
7D
330
7C
100
AcDbEntity
  8
0
100
AcDbBlockReference
  2
Allg1
 10
-907.99999999997
 20
-1084.000000000095
 30
0.0
  0
INSERT
  5
7E
330
7C
100
AcDbEntity
  8
0
100
AcDbBlockReference
  2
Drfsicht1
 10
-1065.974999881954
 20
-1079.250000000047
 30
0.0
  0
INSERT
  5
7F
330
7C
100
AcDbEntity
  8
0
100
AcDbBlockReference
  2
Rckans1
 10
-892.0249996180052
 20
-968.000000000095
 30
0.0
  0
INSERT
  5
80
330
7C
100
AcDbEntity
  8
0
100
AcDbBlockReference
  2
SA_Links1
 10
-976.99999999999
 20
-968.000000000095
 30
0.0
  0
INSERT
  5
81
330
7C
100
AcDbEntity
  8
0
100
AcDbBlockReference
  2
SA_Rechts1
 10
-1167.950001836971
 20
-968.000000000095
 30
0.0
  0
INSERT
  5
82
330
7C
100
AcDbEntity
  8
0
100
AcDbBlockReference
  2
Vordans1
 10
-1065.975000381994
 20
-968.000000000095
 30
0.0
  0
INSERT
  5
83
330
7C
100
AcDbEntity
  8
0
100
AcDbBlockReference
  2
A3I_CS
 10
-817.9000009841257
 20
-1180.543841386505
 30
0.0
  0
ENDBLK
  5
85
330
7C
100
AcDbEntity
  8
0
100
AcDbBlockEnd
  0
BLOCK
  5
12D
330
126
100
AcDbEntity
  8
0
100
AcDbBlockBegin
  2
*D17
 70
     1
 10
0.0
 20
0.0
 30
0.0
  3
*D17
  1

  0
LINE
  5
127
330
126
100
AcDbEntity
  8
1
  6
Continuous
 62
     2
100
AcDbLine
 10
-1132.7286563223
 20
-1099.649999621983
 30
0.0
 11
-1132.7286563223
 21
-1058.849999622143
 31
0.0
  0
LINE
  5
128
330
126
100
AcDbEntity
  8
1
  6
Continuous
 62
     2
100
AcDbLine
 10
-1115.749998990876
 20
-1099.649999621983
 30
0.0
 11
-1134.2286563223
 21
-1099.649999621983
 31
0.0
  0
LINE
  5
129
330
126
100
AcDbEntity
  8
1
  6
Continuous
 62
     2
100
AcDbLine
 10
-1115.749998990822
 20
-1058.849999622143
 30
0.0
 11
-1134.2286563223
 21
-1058.849999622143
 31
0.0
  0
SOLID
  5
12A
330
126
100
AcDbEntity
  8
1
 62
     2
100
AcDbTrace
 10
-1133.189440063856
 20
-1096.149999621983
 30
0.0
 11
-1132.267872580744
 21
-1096.149999621983
 31
0.0
 12
-1132.7286563223
 22
-1099.649999621983
 32
0.0
 13
-1132.7286563223
 23
-1099.649999621983
 33
0.0
  0
SOLID
  5
12B
330
126
100
AcDbEntity
  8
1
 62
     2
100
AcDbTrace
 10
-1132.267872580744
 20
-1062.349999622143
 30
0.0
 11
-1133.189440063856
 21
-1062.349999622143
 31
0.0
 12
-1132.7286563223
 22
-1058.849999622143
 32
0.0
 13
-1132.7286563223
 23
-1058.849999622143
 33
0.0
  0
MTEXT
  5
12C
330
126
100
AcDbEntity
  8
1
 62
     3
100
AcDbMText
 10
-1135.0786563223
 20
-1082.41119596305
 30
0.0
 40
3.5
 41
0.0
 71
     7
 72
     1
  1
40,8
  7
CONVERTER_11
 11
0.0
 21
1.0
 31
0.0
 73
     1
 44
0.60024009603842
  0
ENDBLK
  5
12E
330
126
100
AcDbEntity
  8
0
100
AcDbBlockEnd
  0
BLOCK
  5
202
330
1FB
100
AcDbEntity
  8
0
100
AcDbBlockBegin
  2
*D18
 70
     1
 10
0.0
 20
0.0
 30
0.0
  3
*D18
  1

  0
LINE
  5
1FC
330
1FB
100
AcDbEntity
  8
1
  6
Continuous
 62
     2
100
AcDbLine
 10
-1010.399999491131
 20
-1017.80554580621
 30
0.0
 11
-1121.549999491133
 21
-1017.80554580621
 31
0.0
  0
LINE
  5
1FD
330
1FB
100
AcDbEntity
  8
1
  6
Continuous
 62
     2
100
AcDbLine
 10
-1010.399999491131
 20
-940.150001289694
 30
0.0
 11
-1010.399999491131
 21
-1019.30554580621
 31
0.0
  0
LINE
  5
1FE
330
1FB
100
AcDbEntity
  8
1
  6
Continuous
 62
     2
100
AcDbLine
 10
-1121.549999491133
 20
-944.9073606025245
 30
0.0
 11
-1121.549999491133
 21
-1019.30554580621
 31
0.0
  0
SOLID
  5
1FF
330
1FB
100
AcDbEntity
  8
1
 62
     2
100
AcDbTrace
 10
-1013.899999491131
 20
-1018.266329547766
 30
0.0
 11
-1013.899999491131
 21
-1017.344762064654
 31
0.0
 12
-1010.399999491131
 22
-1017.80554580621
 32
0.0
 13
-1010.399999491131
 23
-1017.80554580621
 33
0.0
  0
SOLID
  5
200
330
1FB
100
AcDbEntity
  8
1
 62
     2
100
AcDbTrace
 10
-1118.049999491133
 20
-1017.344762064654
 30
0.0
 11
-1118.049999491133
 21
-1018.266329547766
 31
0.0
 12
-1121.549999491133
 22
-1017.80554580621
 32
0.0
 13
-1121.549999491133
 23
-1017.80554580621
 33
0.0
  0
MTEXT
  5
201
330
1FB
100
AcDbEntity
  8
1
 62
     3
100
AcDbMText
 10
-1071.14567344728
 20
-1015.45554580621
 30
0.0
 40
3.5
 41
0.0
 71
     7
 72
     1
  1
111,15
  7
CONVERTER_11
 11
0.9999999999970619
 21
2.424068405545306E-6
 31
0.0
 73
     1
 44
0.60024009603842
  0
ENDBLK
  5
203
330
1FB
100
AcDbEntity
  8
0
100
AcDbBlockEnd
  0
BLOCK
  5
20D
330
206
100
AcDbEntity
  8
0
100
AcDbBlockBegin
  2
*D19
 70
     1
 10
0.0
 20
0.0
 30
0.0
  3
*D19
  1

  0
LINE
  5
207
330
206
100
AcDbEntity
  8
1
  6
Continuous
 62
     2
100
AcDbLine
 10
-1132.7286563223
 20
-932.1500012899409
 30
0.0
 11
-1132.7286563223
 21
-999.8500012897335
 31
0.0
  0
LINE
  5
208
330
206
100
AcDbEntity
  8
1
  6
Continuous
 62
     2
100
AcDbLine
 10
-1080.187460182311
 20
-932.1500012899409
 30
0.0
 11
-1134.2286563223
 21
-932.1500012899409
 31
0.0
  0
LINE
  5
209
330
206
100
AcDbEntity
  8
1
  6
Continuous
 62
     2
100
AcDbLine
 10
-1054.910594181997
 20
-999.8500012897335
 30
0.0
 11
-1134.2286563223
 21
-999.8500012897335
 31
0.0
  0
SOLID
  5
20A
330
206
100
AcDbEntity
  8
1
 62
     2
100
AcDbTrace
 10
-1132.267872580744
 20
-935.6500012899409
 30
0.0
 11
-1133.189440063856
 21
-935.6500012899409
 31
0.0
 12
-1132.7286563223
 22
-932.1500012899409
 32
0.0
 13
-1132.7286563223
 23
-932.1500012899409
 33
0.0
  0
SOLID
  5
20B
330
206
100
AcDbEntity
  8
1
 62
     2
100
AcDbTrace
 10
-1133.189440063856
 20
-996.3500012897335
 30
0.0
 11
-1132.267872580744
 21
-996.3500012897335
 31
0.0
 12
-1132.7286563223
 22
-999.8500012897335
 32
0.0
 13
-1132.7286563223
 23
-999.8500012897335
 33
0.0
  0
MTEXT
  5
20C
330
206
100
AcDbEntity
  8
1
 62
     3
100
AcDbMText
 10
-1135.0786563223
 20
-972.613259506796
 30
0.0
 40
3.5
 41
0.0
 71
     7
 72
     1
  1
67,7
  7
CONVERTER_11
 11
0.0
 21
1.0
 31
0.0
 73
     1
 44
0.60024009603842
  0
ENDBLK
  5
20E
330
206
100
AcDbEntity
  8
0
100
AcDbBlockEnd
  0
ENDSEC
  0
SECTION
  2
ENTITIES
  0
INSERT
  5
86
330
1F
100
AcDbEntity
  8
1
100
AcDbBlockReference
  2
1
 10
0.0
 20
0.0
 30
0.0
  0
ENDSEC
  0
SECTION
  2
OBJECTS
  0
DICTIONARY
  5
C
330
0
100
AcDbDictionary
281
     1
  3
ACAD_GROUP
350
D
  3
ACAD_LAYOUT
350
1A
  3
ACAD_MATERIAL
350
3B
  3
ACAD_MLEADERSTYLE
350
385
  3
ACAD_MLINESTYLE
350
17
  3
ACAD_PLOTSETTINGS
350
19
  3
ACAD_PLOTSTYLENAME
350
E
  3
ACAD_TABLESTYLE
350
384
  3
ACAD_VISUALSTYLE
350
2A
  0
DICTIONARY
  5
D
102
{ACAD_REACTORS
330
C
102
}
330
C
100
AcDbDictionary
281
     1
  0
DICTIONARY
  5
1A
102
{ACAD_REACTORS
330
C
102
}
330
C
100
AcDbDictionary
281
     1
  3
Layout1
350
1E
  3
Layout2
350
26
  3
Model
350
22
  0
DICTIONARY
  5
3B
102
{ACAD_REACTORS
330
C
102
}
330
C
100
AcDbDictionary
281
     1
  3
ByBlock
350
3D
  3
ByLayer
350
3C
  3
Global
350
3E
  0
DICTIONARY
  5
385
102
{ACAD_REACTORS
330
C
102
}
330
C
100
AcDbDictionary
281
     1
  0
DICTIONARY
  5
17
102
{ACAD_REACTORS
330
C
102
}
330
C
100
AcDbDictionary
281
     1
  3
Standard
350
18
  0
DICTIONARY
  5
19
102
{ACAD_REACTORS
330
C
102
}
330
C
100
AcDbDictionary
281
     1
  0
ACDBDICTIONARYWDFLT
  5
E
102
{ACAD_REACTORS
330
C
102
}
330
C
100
AcDbDictionary
281
     1
  3
Normal
350
F
100
AcDbDictionaryWithDefault
340
F
  0
DICTIONARY
  5
384
102
{ACAD_REACTORS
330
C
102
}
330
C
100
AcDbDictionary
281
     1
  0
DICTIONARY
  5
2A
102
{ACAD_REACTORS
330
C
102
}
330
C
100
AcDbDictionary
281
     1
  3
2dWireframe
350
2F
  3
3D Hidden
350
31
  3
3dWireframe
350
30
  3
Basic
350
32
  3
Brighten
350
36
  3
ColorChange
350
3A
  3
Conceptual
350
34
  3
Dim
350
35
  3
Facepattern
350
39
  3
Flat
350
2B
  3
FlatWithEdges
350
2C
  3
Gouraud
350
2D
  3
GouraudWithEdges
350
2E
  3
Linepattern
350
38
  3
Realistic
350
33
  3
Thicken
350
37
  0
LAYOUT
  5
1E
102
{ACAD_REACTORS
330
1A
102
}
330
1A
100
AcDbPlotSettings
  1

  2
none_device
  4

  6

 40
0.0
 41
0.0
 42
0.0
 43
0.0
 44
0.0
 45
0.0
 46
0.0
 47
0.0
 48
0.0
 49
0.0
140
0.0
141
0.0
142
1.0
143
1.0
 70
   688
 72
     0
 73
     0
 74
     5
  7

 75
    16
 76
     0
 77
     2
 78
   300
147
1.0
148
0.0
149
0.0
100
AcDbLayout
  1
Layout1
 70
     1
 71
     1
 10
0.0
 20
0.0
 11
12.0
 21
9.0
 12
0.0
 22
0.0
 32
0.0
 14
1.00000000000000E+20
 24
1.00000000000000E+20
 34
1.00000000000000E+20
 15
-1.00000000000000E+20
 25
-1.00000000000000E+20
 35
-1.00000000000000E+20
146
0.0
 13
0.0
 23
0.0
 33
0.0
 16
1.0
 26
0.0
 36
0.0
 17
0.0
 27
1.0
 37
0.0
 76
     0
330
1B
  0
LAYOUT
  5
26
102
{ACAD_REACTORS
330
1A
102
}
330
1A
100
AcDbPlotSettings
  1

  2
none_device
  4

  6

 40
0.0
 41
0.0
 42
0.0
 43
0.0
 44
0.0
 45
0.0
 46
0.0
 47
0.0
 48
0.0
 49
0.0
140
0.0
141
0.0
142
1.0
143
1.0
 70
   688
 72
     0
 73
     0
 74
     5
  7

 75
    16
 76
     0
 77
     2
 78
   300
147
1.0
148
0.0
149
0.0
100
AcDbLayout
  1
Layout2
 70
     1
 71
     2
 10
0.0
 20
0.0
 11
0.0
 21
0.0
 12
0.0
 22
0.0
 32
0.0
 14
0.0
 24
0.0
 34
0.0
 15
0.0
 25
0.0
 35
0.0
146
0.0
 13
0.0
 23
0.0
 33
0.0
 16
1.0
 26
0.0
 36
0.0
 17
0.0
 27
1.0
 37
0.0
 76
     0
330
23
  0
LAYOUT
  5
22
102
{ACAD_REACTORS
330
1A
102
}
330
1A
100
AcDbPlotSettings
  1

  2
none_device
  4

  6

 40
0.0
 41
0.0
 42
0.0
 43
0.0
 44
0.0
 45
0.0
 46
0.0
 47
0.0
 48
0.0
 49
0.0
140
0.0
141
0.0
142
1.0
143
1.0
 70
  1712
 72
     0
 73
     0
 74
     0
  7

 75
     0
 76
     0
 77
     2
 78
   300
147
1.0
148
0.0
149
0.0
100
AcDbLayout
  1
Model
 70
     1
 71
     0
 10
0.0
 20
0.0
 11
12.0
 21
9.0
 12
0.0
 22
0.0
 32
0.0
 14
-1232.900000984127
 24
-1180.543841386505
 34
0.0
 15
-812.9000009841282
 25
-883.5438413865054
 35
0.0
146
0.0
 13
0.0
 23
0.0
 33
0.0
 16
1.0
 26
0.0
 36
0.0
 17
0.0
 27
1.0
 37
0.0
 76
     0
330
1F
331
29
  0
MATERIAL
  5
3D
102
{ACAD_REACTORS
330
3B
102
}
102
{ACAD_XDICTIONARY
360
380
102
}
330
3B
100
AcDbMaterial
  1
ByBlock
  0
MATERIAL
  5
3C
102
{ACAD_REACTORS
330
3B
102
}
102
{ACAD_XDICTIONARY
360
37E
102
}
330
3B
100
AcDbMaterial
  1
ByLayer
  0
MATERIAL
  5
3E
102
{ACAD_REACTORS
330
3B
102
}
102
{ACAD_XDICTIONARY
360
382
102
}
330
3B
100
AcDbMaterial
  1
Global
  0
MLINESTYLE
  5
18
102
{ACAD_REACTORS
330
17
102
}
330
17
100
AcDbMlineStyle
  2
Standard
 70
     0
  3

 62
   256
 51
90.0
 52
90.0
 71
     2
 49
0.5
 62
   256
  6
BYLAYER
 49
-0.5
 62
   256
  6
BYLAYER
  0
ACDBPLACEHOLDER
  5
F
102
{ACAD_REACTORS
330
E
102
}
330
E
  0
VISUALSTYLE
  5
2F
102
{ACAD_REACTORS
330
2A
102
}
102
{ACAD_XDICTIONARY
360
366
102
}
330
2A
100
AcDbVisualStyle
  2
2dWireframe
 70
     4
 71
     0
 72
     2
 73
     0
 90
        0
 40
-0.6
 41
-30.0
 62
     5
 63
     7
421
 16777215
 74
     1
 91
        4
 64
     7
 65
   257
 75
     1
175
     1
 42
1.0
 92
        0
 66
   257
 43
1.0
 76
     1
 77
     6
 78
     2
 67
     7
 79
     5
170
     0
171
     0
290
     0
174
     0
 93
        1
 44
0.0
173
     0
291
     0
 45
0.0
1001
ACAD
1000
AcDbSavedByObjectVersion
1070
     0
  0
VISUALSTYLE
  5
31
102
{ACAD_REACTORS
330
2A
102
}
102
{ACAD_XDICTIONARY
360
36A
102
}
330
2A
100
AcDbVisualStyle
  2
3D Hidden
 70
     6
 71
     1
 72
     2
 73
     2
 90
        0
 40
-0.6
 41
-30.0
 62
     5
 63
     7
421
 16777215
 74
     2
 91
        2
 64
     7
 65
   257
 75
     2
175
     1
 42
40.0
 92
        0
 66
   257
 43
1.0
 76
     1
 77
     6
 78
     2
 67
     7
 79
     3
170
     0
171
     0
290
     0
174
     0
 93
        1
 44
0.0
173
     0
291
     0
 45
0.0
1001
ACAD
1000
AcDbSavedByObjectVersion
1070
     0
  0
VISUALSTYLE
  5
30
102
{ACAD_REACTORS
330
2A
102
}
102
{ACAD_XDICTIONARY
360
368
102
}
330
2A
100
AcDbVisualStyle
  2
3dWireframe
 70
     5
 71
     0
 72
     2
 73
     0
 90
        0
 40
-0.6
 41
-30.0
 62
     5
 63
     7
421
 16777215
 74
     1
 91
        4
 64
     7
 65
   257
 75
     1
175
     1
 42
1.0
 92
        0
 66
   257
 43
1.0
 76
     1
 77
     6
 78
     2
 67
     7
 79
     5
170
     0
171
     0
290
     0
174
     0
 93
        1
 44
0.0
173
     0
291
     0
 45
0.0
1001
ACAD
1000
AcDbSavedByObjectVersion
1070
     0
  0
VISUALSTYLE
  5
32
102
{ACAD_REACTORS
330
2A
102
}
102
{ACAD_XDICTIONARY
360
36C
102
}
330
2A
100
AcDbVisualStyle
  2
Basic
 70
     7
 71
     1
 72
     0
 73
     1
 90
        0
 40
-0.6
 41
-30.0
 62
     5
 63
     7
421
 16777215
 74
     0
 91
        4
 64
     7
 65
   257
 75
     1
175
     1
 42
1.0
 92
        8
 66
     7
 43
1.0
 76
     1
 77
     6
 78
     2
 67
     7
 79
     5
170
     0
171
     0
290
     0
174
     0
 93
        1
 44
0.0
173
     0
291
     1
 45
0.0
1001
ACAD
1000
AcDbSavedByObjectVersion
1070
     0
  0
VISUALSTYLE
  5
36
102
{ACAD_REACTORS
330
2A
102
}
102
{ACAD_XDICTIONARY
360
374
102
}
330
2A
100
AcDbVisualStyle
  2
Brighten
 70
    12
 71
     2
 72
     2
 73
     0
 90
        0
 40
-0.6
 41
-30.0
 62
     5
 63
     7
421
 16777215
 74
     1
 91
        4
 64
     7
 65
   257
 75
     1
175
     1
 42
1.0
 92
        8
 66
     7
 43
1.0
 76
     1
 77
     6
 78
     2
 67
     7
 79
     5
170
     0
171
     0
290
     0
174
     0
 93
        1
 44
50.0
173
     0
291
     1
 45
0.0
1001
ACAD
1000
AcDbSavedByObjectVersion
1070
     0
  0
VISUALSTYLE
  5
3A
102
{ACAD_REACTORS
330
2A
102
}
102
{ACAD_XDICTIONARY
360
37C
102
}
330
2A
100
AcDbVisualStyle
  2
ColorChange
 70
    16
 71
     2
 72
     2
 73
     3
 90
        0
 40
-0.6
 41
-30.0
 62
     5
 63
     8
421
  8421504
 74
     1
 91
        4
 64
     7
 65
   257
 75
     1
175
     1
 42
1.0
 92
        8
 66
     8
424
  8421504
 43
1.0
 76
     1
 77
     6
 78
     2
 67
     7
 79
     5
170
     0
171
     0
290
     0
174
     0
 93
        1
 44
0.0
173
     0
291
     1
 45
0.0
1001
ACAD
1000
AcDbSavedByObjectVersion
1070
     0
  0
VISUALSTYLE
  5
34
102
{ACAD_REACTORS
330
2A
102
}
102
{ACAD_XDICTIONARY
360
370
102
}
330
2A
100
AcDbVisualStyle
  2
Conceptual
 70
     9
 71
     3
 72
     2
 73
     0
 90
        0
 40
-0.6
 41
-30.0
 62
     5
 63
     7
421
 16777215
 74
     2
 91
        2
 64
     7
 65
   257
 75
     1
175
     1
 42
40.0
 92
        8
 66
     7
 43
1.0
 76
     1
 77
     6
 78
     2
 67
     7
 79
     3
170
     0
171
     0
290
     0
174
     0
 93
        1
 44
0.0
173
     0
291
     0
 45
0.0
1001
ACAD
1000
AcDbSavedByObjectVersion
1070
     0
  0
VISUALSTYLE
  5
35
102
{ACAD_REACTORS
330
2A
102
}
102
{ACAD_XDICTIONARY
360
372
102
}
330
2A
100
AcDbVisualStyle
  2
Dim
 70
    11
 71
     2
 72
     2
 73
     0
 90
        0
 40
-0.6
 41
-30.0
 62
     5
 63
     7
421
 16777215
 74
     1
 91
        4
 64
     7
 65
   257
 75
     1
175
     1
 42
1.0
 92
        8
 66
     7
 43
1.0
 76
     1
 77
     6
 78
     2
 67
     7
 79
     5
170
     0
171
     0
290
     0
174
     0
 93
        1
 44
-50.0
173
     0
291
     1
 45
0.0
1001
ACAD
1000
AcDbSavedByObjectVersion
1070
     0
  0
VISUALSTYLE
  5
39
102
{ACAD_REACTORS
330
2A
102
}
102
{ACAD_XDICTIONARY
360
37A
102
}
330
2A
100
AcDbVisualStyle
  2
Facepattern
 70
    15
 71
     2
 72
     2
 73
     0
 90
        0
 40
-0.6
 41
-30.0
 62
     5
 63
     7
421
 16777215
 74
     1
 91
        4
 64
     7
 65
   257
 75
     1
175
     1
 42
1.0
 92
        8
 66
     7
 43
1.0
 76
     1
 77
     6
 78
     2
 67
     7
 79
     5
170
     0
171
     0
290
     0
174
     0
 93
        1
 44
0.0
173
     0
291
     1
 45
0.0
1001
ACAD
1000
AcDbSavedByObjectVersion
1070
     0
  0
VISUALSTYLE
  5
2B
102
{ACAD_REACTORS
330
2A
102
}
102
{ACAD_XDICTIONARY
360
35E
102
}
330
2A
100
AcDbVisualStyle
  2
Flat
 70
     0
 71
     2
 72
     1
 73
     1
 90
        2
 40
-0.6
 41
30.0
 62
     5
 63
     7
421
 16777215
 74
     0
 91
        4
 64
     7
 65
   257
 75
     1
175
     1
 42
1.0
 92
        8
 66
     7
 43
1.0
 76
     1
 77
     6
 78
     2
 67
     7
 79
     5
170
     0
171
     0
290
     0
174
     0
 93
       13
 44
0.0
173
     0
291
     1
 45
0.0
1001
ACAD
1000
AcDbSavedByObjectVersion
1070
     0
  0
VISUALSTYLE
  5
2C
102
{ACAD_REACTORS
330
2A
102
}
102
{ACAD_XDICTIONARY
360
360
102
}
330
2A
100
AcDbVisualStyle
  2
FlatWithEdges
 70
     1
 71
     2
 72
     1
 73
     1
 90
        2
 40
-0.6
 41
30.0
 62
     5
 63
     7
421
 16777215
 74
     1
 91
        4
 64
     7
 65
   257
 75
     1
175
     1
 42
1.0
 92
        0
 66
   257
 43
1.0
 76
     1
 77
     6
 78
     2
 67
     7
 79
     5
170
     0
171
     0
290
     0
174
     0
 93
       13
 44
0.0
173
     0
291
     1
 45
0.0
1001
ACAD
1000
AcDbSavedByObjectVersion
1070
     0
  0
VISUALSTYLE
  5
2D
102
{ACAD_REACTORS
330
2A
102
}
102
{ACAD_XDICTIONARY
360
362
102
}
330
2A
100
AcDbVisualStyle
  2
Gouraud
 70
     2
 71
     2
 72
     2
 73
     1
 90
        2
 40
-0.6
 41
30.0
 62
     5
 63
     7
421
 16777215
 74
     0
 91
        4
 64
     7
 65
   257
 75
     1
175
     1
 42
1.0
 92
        0
 66
     7
 43
1.0
 76
     1
 77
     6
 78
     2
 67
     7
 79
     5
170
     0
171
     0
290
     0
174
     0
 93
       13
 44
0.0
173
     0
291
     1
 45
0.0
1001
ACAD
1000
AcDbSavedByObjectVersion
1070
     0
  0
VISUALSTYLE
  5
2E
102
{ACAD_REACTORS
330
2A
102
}
102
{ACAD_XDICTIONARY
360
364
102
}
330
2A
100
AcDbVisualStyle
  2
GouraudWithEdges
 70
     3
 71
     2
 72
     2
 73
     1
 90
        2
 40
-0.6
 41
30.0
 62
     5
 63
     7
421
 16777215
 74
     1
 91
        4
 64
     7
 65
   257
 75
     1
175
     1
 42
1.0
 92
        0
 66
   257
 43
1.0
 76
     1
 77
     6
 78
     2
 67
     7
 79
     5
170
     0
171
     0
290
     0
174
     0
 93
       13
 44
0.0
173
     0
291
     1
 45
0.0
1001
ACAD
1000
AcDbSavedByObjectVersion
1070
     0
  0
VISUALSTYLE
  5
38
102
{ACAD_REACTORS
330
2A
102
}
102
{ACAD_XDICTIONARY
360
378
102
}
330
2A
100
AcDbVisualStyle
  2
Linepattern
 70
    14
 71
     2
 72
     2
 73
     0
 90
        0
 40
-0.6
 41
-30.0
 62
     5
 63
     7
421
 16777215
 74
     1
 91
        4
 64
     7
 65
   257
 75
     7
175
     7
 42
1.0
 92
        8
 66
     7
 43
1.0
 76
     1
 77
     6
 78
     2
 67
     7
 79
     5
170
     0
171
     0
290
     0
174
     0
 93
        1
 44
0.0
173
     0
291
     1
 45
0.0
1001
ACAD
1000
AcDbSavedByObjectVersion
1070
     0
  0
VISUALSTYLE
  5
33
102
{ACAD_REACTORS
330
2A
102
}
102
{ACAD_XDICTIONARY
360
36E
102
}
330
2A
100
AcDbVisualStyle
  2
Realistic
 70
     8
 71
     2
 72
     2
 73
     0
 90
        0
 40
-0.6
 41
-30.0
 62
     5
 63
     7
421
 16777215
 74
     1
 91
        0
 64
     7
 65
   257
 75
     1
175
     1
 42
1.0
 92
        8
 66
     8
424
  7895160
 43
1.0
 76
     1
 77
     6
 78
     2
 67
     7
 79
     5
170
     0
171
     0
290
     0
174
     0
 93
       13
 44
0.0
173
     0
291
     0
 45
0.0
1001
ACAD
1000
AcDbSavedByObjectVersion
1070
     0
  0
VISUALSTYLE
  5
37
102
{ACAD_REACTORS
330
2A
102
}
102
{ACAD_XDICTIONARY
360
376
102
}
330
2A
100
AcDbVisualStyle
  2
Thicken
 70
    13
 71
     2
 72
     2
 73
     0
 90
        0
 40
-0.6
 41
-30.0
 62
     5
 63
     7
421
 16777215
 74
     1
 91
        4
 64
     7
 65
   257
 75
     1
175
     1
 42
1.0
 92
       12
 66
     7
 43
1.0
 76
     1
 77
     6
 78
     2
 67
     7
 79
     5
170
     0
171
     0
290
     0
174
     0
 93
        1
 44
0.0
173
     0
291
     1
 45
0.0
1001
ACAD
1000
AcDbSavedByObjectVersion
1070
     0
  0
DICTIONARY
  5
380
330
3D
100
AcDbDictionary
280
     1
281
     1
  3
ACAD_XREC_ROUNDTRIP
360
381
  0
DICTIONARY
  5
37E
330
3C
100
AcDbDictionary
280
     1
281
     1
  3
ACAD_XREC_ROUNDTRIP
360
37F
  0
DICTIONARY
  5
382
330
3E
100
AcDbDictionary
280
     1
281
     1
  3
ACAD_XREC_ROUNDTRIP
360
383
  0
DICTIONARY
  5
366
330
2F
100
AcDbDictionary
280
     1
281
     1
  3
ACAD_XREC_ROUNDTRIP
360
367
  0
DICTIONARY
  5
36A
330
31
100
AcDbDictionary
280
     1
281
     1
  3
ACAD_XREC_ROUNDTRIP
360
36B
  0
DICTIONARY
  5
368
330
30
100
AcDbDictionary
280
     1
281
     1
  3
ACAD_XREC_ROUNDTRIP
360
369
  0
DICTIONARY
  5
36C
330
32
100
AcDbDictionary
280
     1
281
     1
  3
ACAD_XREC_ROUNDTRIP
360
36D
  0
DICTIONARY
  5
374
330
36
100
AcDbDictionary
280
     1
281
     1
  3
ACAD_XREC_ROUNDTRIP
360
375
  0
DICTIONARY
  5
37C
330
3A
100
AcDbDictionary
280
     1
281
     1
  3
ACAD_XREC_ROUNDTRIP
360
37D
  0
DICTIONARY
  5
370
330
34
100
AcDbDictionary
280
     1
281
     1
  3
ACAD_XREC_ROUNDTRIP
360
371
  0
DICTIONARY
  5
372
330
35
100
AcDbDictionary
280
     1
281
     1
  3
ACAD_XREC_ROUNDTRIP
360
373
  0
DICTIONARY
  5
37A
330
39
100
AcDbDictionary
280
     1
281
     1
  3
ACAD_XREC_ROUNDTRIP
360
37B
  0
DICTIONARY
  5
35E
330
2B
100
AcDbDictionary
280
     1
281
     1
  3
ACAD_XREC_ROUNDTRIP
360
35F
  0
DICTIONARY
  5
360
330
2C
100
AcDbDictionary
280
     1
281
     1
  3
ACAD_XREC_ROUNDTRIP
360
361
  0
DICTIONARY
  5
362
330
2D
100
AcDbDictionary
280
     1
281
     1
  3
ACAD_XREC_ROUNDTRIP
360
363
  0
DICTIONARY
  5
364
330
2E
100
AcDbDictionary
280
     1
281
     1
  3
ACAD_XREC_ROUNDTRIP
360
365
  0
DICTIONARY
  5
378
330
38
100
AcDbDictionary
280
     1
281
     1
  3
ACAD_XREC_ROUNDTRIP
360
379
  0
DICTIONARY
  5
36E
330
33
100
AcDbDictionary
280
     1
281
     1
  3
ACAD_XREC_ROUNDTRIP
360
36F
  0
DICTIONARY
  5
376
330
37
100
AcDbDictionary
280
     1
281
     1
  3
ACAD_XREC_ROUNDTRIP
360
377
  0
XRECORD
  5
381
102
{ACAD_REACTORS
330
380
102
}
330
380
100
AcDbXrecord
280
     1
102
MATERIAL
148
0.0
149
0.0
149
0.0
 93
        0
 94
      127
282
     0
 72
     1
 77
     1
171
     1
175
     1
179
     1
273
     0
  0
XRECORD
  5
37F
102
{ACAD_REACTORS
330
37E
102
}
330
37E
100
AcDbXrecord
280
     1
102
MATERIAL
148
0.0
149
0.0
149
0.0
 93
        0
 94
      127
282
     0
 72
     1
 77
     1
171
     1
175
     1
179
     1
273
     0
  0
XRECORD
  5
383
102
{ACAD_REACTORS
330
382
102
}
330
382
100
AcDbXrecord
280
     1
102
MATERIAL
148
0.0
149
0.0
149
0.0
 93
        0
 94
      127
282
     0
 72
     1
 77
     1
171
     1
175
     1
179
     1
273
     0
  0
XRECORD
  5
367
102
{ACAD_REACTORS
330
366
102
}
330
366
100
AcDbXrecord
280
     1
102
RTVSPropertyOp0
 70
     1
102
RTVSPropertyOp1
 70
     1
102
RTVSPropertyOp2
 70
     1
102
RTVSPropertyOp3
 70
     1
102
RTVSPropertyOp4
 70
     1
102
RTVSPropertyOp5
 70
     1
102
RTVSPropertyOp6
 70
     1
102
RTVSPropertyOp7
 70
     1
102
RTVSPropertyOp8
 70
     1
102
RTVSPropertyOp9
 70
     1
102
RTVSPropertyOp10
 70
     1
102
RTVSPropertyOp11
 70
     1
102
RTVSPropertyOp12
 70
     1
102
RTVSPropertyOp13
 70
     1
102
RTVSPropertyOp14
 70
     1
102
RTVSPropertyOp15
 70
     1
102
RTVSPropertyOp16
 70
     1
102
RTVSPropertyOp17
 70
     1
102
RTVSPropertyOp18
 70
     1
102
RTVSPropertyOp19
 70
     1
102
RTVSPropertyOp20
 70
     1
102
RTVSPropertyOp21
 70
     1
102
RTVSPropertyOp22
 70
     1
102
RTVSPropertyOp23
 70
     1
102
RTVSPropertyOp24
 70
     1
102
RTVSPropertyOp25
 70
     1
102
RTVSPropertyOp26
 70
     1
102
RTVSPropertyOp27
 70
     1
102
RTVSPropertyOp28
 70
     1
102
RTVSPropertyOp29
 70
     1
102
RTVSPropertyOp30
 70
     1
102
RTVSPropertyOp31
 70
     1
102
RTVSPropertyOp32
 70
     1
  0
XRECORD
  5
36B
102
{ACAD_REACTORS
330
36A
102
}
330
36A
100
AcDbXrecord
280
     1
102
RTVSPropertyOp0
 70
     1
102
RTVSPropertyOp1
 70
     1
102
RTVSPropertyOp2
 70
     1
102
RTVSPropertyOp3
 70
     1
102
RTVSPropertyOp4
 70
     1
102
RTVSPropertyOp5
 70
     1
102
RTVSPropertyOp6
 70
     1
102
RTVSPropertyOp7
 70
     1
102
RTVSPropertyOp8
 70
     1
102
RTVSPropertyOp9
 70
     1
102
RTVSPropertyOp10
 70
     1
102
RTVSPropertyOp11
 70
     1
102
RTVSPropertyOp12
 70
     1
102
RTVSPropertyOp13
 70
     1
102
RTVSPropertyOp14
 70
     1
102
RTVSPropertyOp15
 70
     1
102
RTVSPropertyOp16
 70
     1
102
RTVSPropertyOp17
 70
     1
102
RTVSPropertyOp18
 70
     1
102
RTVSPropertyOp19
 70
     1
102
RTVSPropertyOp20
 70
     1
102
RTVSPropertyOp21
 70
     1
102
RTVSPropertyOp22
 70
     1
102
RTVSPropertyOp23
 70
     1
102
RTVSPropertyOp24
 70
     1
102
RTVSPropertyOp25
 70
     1
102
RTVSPropertyOp26
 70
     1
102
RTVSPropertyOp27
 70
     1
102
RTVSPropertyOp28
 70
     1
102
RTVSPropertyOp29
 70
     1
102
RTVSPropertyOp30
 70
     1
102
RTVSPropertyOp31
 70
     1
102
RTVSPropertyOp32
 70
     1
  0
XRECORD
  5
369
102
{ACAD_REACTORS
330
368
102
}
330
368
100
AcDbXrecord
280
     1
102
RTVSPropertyOp0
 70
     1
102
RTVSPropertyOp1
 70
     1
102
RTVSPropertyOp2
 70
     1
102
RTVSPropertyOp3
 70
     1
102
RTVSPropertyOp4
 70
     1
102
RTVSPropertyOp5
 70
     1
102
RTVSPropertyOp6
 70
     1
102
RTVSPropertyOp7
 70
     1
102
RTVSPropertyOp8
 70
     1
102
RTVSPropertyOp9
 70
     1
102
RTVSPropertyOp10
 70
     1
102
RTVSPropertyOp11
 70
     1
102
RTVSPropertyOp12
 70
     1
102
RTVSPropertyOp13
 70
     1
102
RTVSPropertyOp14
 70
     1
102
RTVSPropertyOp15
 70
     1
102
RTVSPropertyOp16
 70
     1
102
RTVSPropertyOp17
 70
     1
102
RTVSPropertyOp18
 70
     1
102
RTVSPropertyOp19
 70
     1
102
RTVSPropertyOp20
 70
     1
102
RTVSPropertyOp21
 70
     1
102
RTVSPropertyOp22
 70
     1
102
RTVSPropertyOp23
 70
     1
102
RTVSPropertyOp24
 70
     1
102
RTVSPropertyOp25
 70
     1
102
RTVSPropertyOp26
 70
     1
102
RTVSPropertyOp27
 70
     1
102
RTVSPropertyOp28
 70
     1
102
RTVSPropertyOp29
 70
     1
102
RTVSPropertyOp30
 70
     1
102
RTVSPropertyOp31
 70
     1
102
RTVSPropertyOp32
 70
     1
  0
XRECORD
  5
36D
102
{ACAD_REACTORS
330
36C
102
}
330
36C
100
AcDbXrecord
280
     1
102
RTVSPropertyOp0
 70
     1
102
RTVSPropertyOp1
 70
     1
102
RTVSPropertyOp2
 70
     1
102
RTVSPropertyOp3
 70
     1
102
RTVSPropertyOp4
 70
     1
102
RTVSPropertyOp5
 70
     1
102
RTVSPropertyOp6
 70
     1
102
RTVSPropertyOp7
 70
     1
102
RTVSPropertyOp8
 70
     1
102
RTVSPropertyOp9
 70
     1
102
RTVSPropertyOp10
 70
     1
102
RTVSPropertyOp11
 70
     1
102
RTVSPropertyOp12
 70
     1
102
RTVSPropertyOp13
 70
     1
102
RTVSPropertyOp14
 70
     1
102
RTVSPropertyOp15
 70
     1
102
RTVSPropertyOp16
 70
     1
102
RTVSPropertyOp17
 70
     1
102
RTVSPropertyOp18
 70
     1
102
RTVSPropertyOp19
 70
     1
102
RTVSPropertyOp20
 70
     1
102
RTVSPropertyOp21
 70
     1
102
RTVSPropertyOp22
 70
     1
102
RTVSPropertyOp23
 70
     1
102
RTVSPropertyOp24
 70
     1
102
RTVSPropertyOp25
 70
     1
102
RTVSPropertyOp26
 70
     1
102
RTVSPropertyOp27
 70
     1
102
RTVSPropertyOp28
 70
     1
102
RTVSPropertyOp29
 70
     1
102
RTVSPropertyOp30
 70
     1
102
RTVSPropertyOp31
 70
     1
102
RTVSPropertyOp32
 70
     1
  0
XRECORD
  5
375
102
{ACAD_REACTORS
330
374
102
}
330
374
100
AcDbXrecord
280
     1
102
RTVSPropertyOp0
 70
     1
102
RTVSPropertyOp1
 70
     1
102
RTVSPropertyOp2
 70
     1
102
RTVSPropertyOp3
 70
     1
102
RTVSPropertyOp4
 70
     1
102
RTVSPropertyOp5
 70
     1
102
RTVSPropertyOp6
 70
     1
102
RTVSPropertyOp7
 70
     1
102
RTVSPropertyOp8
 70
     1
102
RTVSPropertyOp9
 70
     1
102
RTVSPropertyOp10
 70
     1
102
RTVSPropertyOp11
 70
     1
102
RTVSPropertyOp12
 70
     1
102
RTVSPropertyOp13
 70
     1
102
RTVSPropertyOp14
 70
     1
102
RTVSPropertyOp15
 70
     1
102
RTVSPropertyOp16
 70
     1
102
RTVSPropertyOp17
 70
     1
102
RTVSPropertyOp18
 70
     1
102
RTVSPropertyOp19
 70
     1
102
RTVSPropertyOp20
 70
     1
102
RTVSPropertyOp21
 70
     1
102
RTVSPropertyOp22
 70
     1
102
RTVSPropertyOp23
 70
     1
102
RTVSPropertyOp24
 70
     1
102
RTVSPropertyOp25
 70
     1
102
RTVSPropertyOp26
 70
     1
102
RTVSPropertyOp27
 70
     1
102
RTVSPropertyOp28
 70
     1
102
RTVSPropertyOp29
 70
     1
102
RTVSPropertyOp30
 70
     1
102
RTVSPropertyOp31
 70
     1
102
RTVSPropertyOp32
 70
     1
  0
XRECORD
  5
37D
102
{ACAD_REACTORS
330
37C
102
}
330
37C
100
AcDbXrecord
280
     1
102
RTVSPropertyOp0
 70
     1
102
RTVSPropertyOp1
 70
     1
102
RTVSPropertyOp2
 70
     1
102
RTVSPropertyOp3
 70
     1
102
RTVSPropertyOp4
 70
     1
102
RTVSPropertyOp5
 70
     1
102
RTVSPropertyOp6
 70
     1
102
RTVSPropertyOp7
 70
     1
102
RTVSPropertyOp8
 70
     1
102
RTVSPropertyOp9
 70
     1
102
RTVSPropertyOp10
 70
     1
102
RTVSPropertyOp11
 70
     1
102
RTVSPropertyOp12
 70
     1
102
RTVSPropertyOp13
 70
     1
102
RTVSPropertyOp14
 70
     1
102
RTVSPropertyOp15
 70
     1
102
RTVSPropertyOp16
 70
     1
102
RTVSPropertyOp17
 70
     1
102
RTVSPropertyOp18
 70
     1
102
RTVSPropertyOp19
 70
     1
102
RTVSPropertyOp20
 70
     1
102
RTVSPropertyOp21
 70
     1
102
RTVSPropertyOp22
 70
     1
102
RTVSPropertyOp23
 70
     1
102
RTVSPropertyOp24
 70
     1
102
RTVSPropertyOp25
 70
     1
102
RTVSPropertyOp26
 70
     1
102
RTVSPropertyOp27
 70
     1
102
RTVSPropertyOp28
 70
     1
102
RTVSPropertyOp29
 70
     1
102
RTVSPropertyOp30
 70
     1
102
RTVSPropertyOp31
 70
     1
102
RTVSPropertyOp32
 70
     1
  0
XRECORD
  5
371
102
{ACAD_REACTORS
330
370
102
}
330
370
100
AcDbXrecord
280
     1
102
RTVSPropertyOp0
 70
     1
102
RTVSPropertyOp1
 70
     1
102
RTVSPropertyOp2
 70
     1
102
RTVSPropertyOp3
 70
     1
102
RTVSPropertyOp4
 70
     1
102
RTVSPropertyOp5
 70
     1
102
RTVSPropertyOp6
 70
     1
102
RTVSPropertyOp7
 70
     1
102
RTVSPropertyOp8
 70
     1
102
RTVSPropertyOp9
 70
     1
102
RTVSPropertyOp10
 70
     1
102
RTVSPropertyOp11
 70
     1
102
RTVSPropertyOp12
 70
     1
102
RTVSPropertyOp13
 70
     1
102
RTVSPropertyOp14
 70
     1
102
RTVSPropertyOp15
 70
     1
102
RTVSPropertyOp16
 70
     1
102
RTVSPropertyOp17
 70
     1
102
RTVSPropertyOp18
 70
     1
102
RTVSPropertyOp19
 70
     1
102
RTVSPropertyOp20
 70
     1
102
RTVSPropertyOp21
 70
     1
102
RTVSPropertyOp22
 70
     1
102
RTVSPropertyOp23
 70
     1
102
RTVSPropertyOp24
 70
     1
102
RTVSPropertyOp25
 70
     1
102
RTVSPropertyOp26
 70
     1
102
RTVSPropertyOp27
 70
     1
102
RTVSPropertyOp28
 70
     1
102
RTVSPropertyOp29
 70
     1
102
RTVSPropertyOp30
 70
     1
102
RTVSPropertyOp31
 70
     1
102
RTVSPropertyOp32
 70
     1
  0
XRECORD
  5
373
102
{ACAD_REACTORS
330
372
102
}
330
372
100
AcDbXrecord
280
     1
102
RTVSPropertyOp0
 70
     1
102
RTVSPropertyOp1
 70
     1
102
RTVSPropertyOp2
 70
     1
102
RTVSPropertyOp3
 70
     1
102
RTVSPropertyOp4
 70
     1
102
RTVSPropertyOp5
 70
     1
102
RTVSPropertyOp6
 70
     1
102
RTVSPropertyOp7
 70
     1
102
RTVSPropertyOp8
 70
     1
102
RTVSPropertyOp9
 70
     1
102
RTVSPropertyOp10
 70
     1
102
RTVSPropertyOp11
 70
     1
102
RTVSPropertyOp12
 70
     1
102
RTVSPropertyOp13
 70
     1
102
RTVSPropertyOp14
 70
     1
102
RTVSPropertyOp15
 70
     1
102
RTVSPropertyOp16
 70
     1
102
RTVSPropertyOp17
 70
     1
102
RTVSPropertyOp18
 70
     1
102
RTVSPropertyOp19
 70
     1
102
RTVSPropertyOp20
 70
     1
102
RTVSPropertyOp21
 70
     1
102
RTVSPropertyOp22
 70
     1
102
RTVSPropertyOp23
 70
     1
102
RTVSPropertyOp24
 70
     1
102
RTVSPropertyOp25
 70
     1
102
RTVSPropertyOp26
 70
     1
102
RTVSPropertyOp27
 70
     1
102
RTVSPropertyOp28
 70
     1
102
RTVSPropertyOp29
 70
     1
102
RTVSPropertyOp30
 70
     1
102
RTVSPropertyOp31
 70
     1
102
RTVSPropertyOp32
 70
     1
  0
XRECORD
  5
37B
102
{ACAD_REACTORS
330
37A
102
}
330
37A
100
AcDbXrecord
280
     1
102
RTVSPropertyOp0
 70
     1
102
RTVSPropertyOp1
 70
     1
102
RTVSPropertyOp2
 70
     1
102
RTVSPropertyOp3
 70
     1
102
RTVSPropertyOp4
 70
     1
102
RTVSPropertyOp5
 70
     1
102
RTVSPropertyOp6
 70
     1
102
RTVSPropertyOp7
 70
     1
102
RTVSPropertyOp8
 70
     1
102
RTVSPropertyOp9
 70
     1
102
RTVSPropertyOp10
 70
     1
102
RTVSPropertyOp11
 70
     1
102
RTVSPropertyOp12
 70
     1
102
RTVSPropertyOp13
 70
     1
102
RTVSPropertyOp14
 70
     1
102
RTVSPropertyOp15
 70
     1
102
RTVSPropertyOp16
 70
     1
102
RTVSPropertyOp17
 70
     1
102
RTVSPropertyOp18
 70
     1
102
RTVSPropertyOp19
 70
     1
102
RTVSPropertyOp20
 70
     1
102
RTVSPropertyOp21
 70
     1
102
RTVSPropertyOp22
 70
     1
102
RTVSPropertyOp23
 70
     1
102
RTVSPropertyOp24
 70
     1
102
RTVSPropertyOp25
 70
     1
102
RTVSPropertyOp26
 70
     1
102
RTVSPropertyOp27
 70
     1
102
RTVSPropertyOp28
 70
     1
102
RTVSPropertyOp29
 70
     1
102
RTVSPropertyOp30
 70
     1
102
RTVSPropertyOp31
 70
     1
102
RTVSPropertyOp32
 70
     1
  0
XRECORD
  5
35F
102
{ACAD_REACTORS
330
35E
102
}
330
35E
100
AcDbXrecord
280
     1
102
RTVSPropertyOp0
 70
     1
102
RTVSPropertyOp1
 70
     1
102
RTVSPropertyOp2
 70
     1
102
RTVSPropertyOp3
 70
     1
102
RTVSPropertyOp4
 70
     1
102
RTVSPropertyOp5
 70
     1
102
RTVSPropertyOp6
 70
     1
102
RTVSPropertyOp7
 70
     1
102
RTVSPropertyOp8
 70
     1
102
RTVSPropertyOp9
 70
     1
102
RTVSPropertyOp10
 70
     1
102
RTVSPropertyOp11
 70
     1
102
RTVSPropertyOp12
 70
     1
102
RTVSPropertyOp13
 70
     1
102
RTVSPropertyOp14
 70
     1
102
RTVSPropertyOp15
 70
     1
102
RTVSPropertyOp16
 70
     1
102
RTVSPropertyOp17
 70
     1
102
RTVSPropertyOp18
 70
     1
102
RTVSPropertyOp19
 70
     1
102
RTVSPropertyOp20
 70
     1
102
RTVSPropertyOp21
 70
     1
102
RTVSPropertyOp22
 70
     1
102
RTVSPropertyOp23
 70
     1
102
RTVSPropertyOp24
 70
     1
102
RTVSPropertyOp25
 70
     1
102
RTVSPropertyOp26
 70
     1
102
RTVSPropertyOp27
 70
     1
102
RTVSPropertyOp28
 70
     1
102
RTVSPropertyOp29
 70
     1
102
RTVSPropertyOp30
 70
     1
102
RTVSPropertyOp31
 70
     1
102
RTVSPropertyOp32
 70
     1
  0
XRECORD
  5
361
102
{ACAD_REACTORS
330
360
102
}
330
360
100
AcDbXrecord
280
     1
102
RTVSPropertyOp0
 70
     1
102
RTVSPropertyOp1
 70
     1
102
RTVSPropertyOp2
 70
     1
102
RTVSPropertyOp3
 70
     1
102
RTVSPropertyOp4
 70
     1
102
RTVSPropertyOp5
 70
     1
102
RTVSPropertyOp6
 70
     1
102
RTVSPropertyOp7
 70
     1
102
RTVSPropertyOp8
 70
     1
102
RTVSPropertyOp9
 70
     1
102
RTVSPropertyOp10
 70
     1
102
RTVSPropertyOp11
 70
     1
102
RTVSPropertyOp12
 70
     1
102
RTVSPropertyOp13
 70
     1
102
RTVSPropertyOp14
 70
     1
102
RTVSPropertyOp15
 70
     1
102
RTVSPropertyOp16
 70
     1
102
RTVSPropertyOp17
 70
     1
102
RTVSPropertyOp18
 70
     1
102
RTVSPropertyOp19
 70
     1
102
RTVSPropertyOp20
 70
     1
102
RTVSPropertyOp21
 70
     1
102
RTVSPropertyOp22
 70
     1
102
RTVSPropertyOp23
 70
     1
102
RTVSPropertyOp24
 70
     1
102
RTVSPropertyOp25
 70
     1
102
RTVSPropertyOp26
 70
     1
102
RTVSPropertyOp27
 70
     1
102
RTVSPropertyOp28
 70
     1
102
RTVSPropertyOp29
 70
     1
102
RTVSPropertyOp30
 70
     1
102
RTVSPropertyOp31
 70
     1
102
RTVSPropertyOp32
 70
     1
  0
XRECORD
  5
363
102
{ACAD_REACTORS
330
362
102
}
330
362
100
AcDbXrecord
280
     1
102
RTVSPropertyOp0
 70
     1
102
RTVSPropertyOp1
 70
     1
102
RTVSPropertyOp2
 70
     1
102
RTVSPropertyOp3
 70
     1
102
RTVSPropertyOp4
 70
     1
102
RTVSPropertyOp5
 70
     1
102
RTVSPropertyOp6
 70
     1
102
RTVSPropertyOp7
 70
     1
102
RTVSPropertyOp8
 70
     1
102
RTVSPropertyOp9
 70
     1
102
RTVSPropertyOp10
 70
     1
102
RTVSPropertyOp11
 70
     1
102
RTVSPropertyOp12
 70
     1
102
RTVSPropertyOp13
 70
     1
102
RTVSPropertyOp14
 70
     1
102
RTVSPropertyOp15
 70
     1
102
RTVSPropertyOp16
 70
     1
102
RTVSPropertyOp17
 70
     1
102
RTVSPropertyOp18
 70
     1
102
RTVSPropertyOp19
 70
     1
102
RTVSPropertyOp20
 70
     1
102
RTVSPropertyOp21
 70
     1
102
RTVSPropertyOp22
 70
     1
102
RTVSPropertyOp23
 70
     1
102
RTVSPropertyOp24
 70
     1
102
RTVSPropertyOp25
 70
     1
102
RTVSPropertyOp26
 70
     1
102
RTVSPropertyOp27
 70
     1
102
RTVSPropertyOp28
 70
     1
102
RTVSPropertyOp29
 70
     1
102
RTVSPropertyOp30
 70
     1
102
RTVSPropertyOp31
 70
     1
102
RTVSPropertyOp32
 70
     1
  0
XRECORD
  5
365
102
{ACAD_REACTORS
330
364
102
}
330
364
100
AcDbXrecord
280
     1
102
RTVSPropertyOp0
 70
     1
102
RTVSPropertyOp1
 70
     1
102
RTVSPropertyOp2
 70
     1
102
RTVSPropertyOp3
 70
     1
102
RTVSPropertyOp4
 70
     1
102
RTVSPropertyOp5
 70
     1
102
RTVSPropertyOp6
 70
     1
102
RTVSPropertyOp7
 70
     1
102
RTVSPropertyOp8
 70
     1
102
RTVSPropertyOp9
 70
     1
102
RTVSPropertyOp10
 70
     1
102
RTVSPropertyOp11
 70
     1
102
RTVSPropertyOp12
 70
     1
102
RTVSPropertyOp13
 70
     1
102
RTVSPropertyOp14
 70
     1
102
RTVSPropertyOp15
 70
     1
102
RTVSPropertyOp16
 70
     1
102
RTVSPropertyOp17
 70
     1
102
RTVSPropertyOp18
 70
     1
102
RTVSPropertyOp19
 70
     1
102
RTVSPropertyOp20
 70
     1
102
RTVSPropertyOp21
 70
     1
102
RTVSPropertyOp22
 70
     1
102
RTVSPropertyOp23
 70
     1
102
RTVSPropertyOp24
 70
     1
102
RTVSPropertyOp25
 70
     1
102
RTVSPropertyOp26
 70
     1
102
RTVSPropertyOp27
 70
     1
102
RTVSPropertyOp28
 70
     1
102
RTVSPropertyOp29
 70
     1
102
RTVSPropertyOp30
 70
     1
102
RTVSPropertyOp31
 70
     1
102
RTVSPropertyOp32
 70
     1
  0
XRECORD
  5
379
102
{ACAD_REACTORS
330
378
102
}
330
378
100
AcDbXrecord
280
     1
102
RTVSPropertyOp0
 70
     1
102
RTVSPropertyOp1
 70
     1
102
RTVSPropertyOp2
 70
     1
102
RTVSPropertyOp3
 70
     1
102
RTVSPropertyOp4
 70
     1
102
RTVSPropertyOp5
 70
     1
102
RTVSPropertyOp6
 70
     1
102
RTVSPropertyOp7
 70
     1
102
RTVSPropertyOp8
 70
     1
102
RTVSPropertyOp9
 70
     1
102
RTVSPropertyOp10
 70
     1
102
RTVSPropertyOp11
 70
     1
102
RTVSPropertyOp12
 70
     1
102
RTVSPropertyOp13
 70
     1
102
RTVSPropertyOp14
 70
     1
102
RTVSPropertyOp15
 70
     1
102
RTVSPropertyOp16
 70
     1
102
RTVSPropertyOp17
 70
     1
102
RTVSPropertyOp18
 70
     1
102
RTVSPropertyOp19
 70
     1
102
RTVSPropertyOp20
 70
     1
102
RTVSPropertyOp21
 70
     1
102
RTVSPropertyOp22
 70
     1
102
RTVSPropertyOp23
 70
     1
102
RTVSPropertyOp24
 70
     1
102
RTVSPropertyOp25
 70
     1
102
RTVSPropertyOp26
 70
     1
102
RTVSPropertyOp27
 70
     1
102
RTVSPropertyOp28
 70
     1
102
RTVSPropertyOp29
 70
     1
102
RTVSPropertyOp30
 70
     1
102
RTVSPropertyOp31
 70
     1
102
RTVSPropertyOp32
 70
     1
  0
XRECORD
  5
36F
102
{ACAD_REACTORS
330
36E
102
}
330
36E
100
AcDbXrecord
280
     1
102
RTVSPropertyOp0
 70
     1
102
RTVSPropertyOp1
 70
     1
102
RTVSPropertyOp2
 70
     1
102
RTVSPropertyOp3
 70
     1
102
RTVSPropertyOp4
 70
     1
102
RTVSPropertyOp5
 70
     1
102
RTVSPropertyOp6
 70
     1
102
RTVSPropertyOp7
 70
     1
102
RTVSPropertyOp8
 70
     1
102
RTVSPropertyOp9
 70
     1
102
RTVSPropertyOp10
 70
     1
102
RTVSPropertyOp11
 70
     1
102
RTVSPropertyOp12
 70
     1
102
RTVSPropertyOp13
 70
     1
102
RTVSPropertyOp14
 70
     1
102
RTVSPropertyOp15
 70
     1
102
RTVSPropertyOp16
 70
     1
102
RTVSPropertyOp17
 70
     1
102
RTVSPropertyOp18
 70
     1
102
RTVSPropertyOp19
 70
     1
102
RTVSPropertyOp20
 70
     1
102
RTVSPropertyOp21
 70
     1
102
RTVSPropertyOp22
 70
     1
102
RTVSPropertyOp23
 70
     1
102
RTVSPropertyOp24
 70
     1
102
RTVSPropertyOp25
 70
     1
102
RTVSPropertyOp26
 70
     1
102
RTVSPropertyOp27
 70
     1
102
RTVSPropertyOp28
 70
     1
102
RTVSPropertyOp29
 70
     1
102
RTVSPropertyOp30
 70
     1
102
RTVSPropertyOp31
 70
     1
102
RTVSPropertyOp32
 70
     1
  0
XRECORD
  5
377
102
{ACAD_REACTORS
330
376
102
}
330
376
100
AcDbXrecord
280
     1
102
RTVSPropertyOp0
 70
     1
102
RTVSPropertyOp1
 70
     1
102
RTVSPropertyOp2
 70
     1
102
RTVSPropertyOp3
 70
     1
102
RTVSPropertyOp4
 70
     1
102
RTVSPropertyOp5
 70
     1
102
RTVSPropertyOp6
 70
     1
102
RTVSPropertyOp7
 70
     1
102
RTVSPropertyOp8
 70
     1
102
RTVSPropertyOp9
 70
     1
102
RTVSPropertyOp10
 70
     1
102
RTVSPropertyOp11
 70
     1
102
RTVSPropertyOp12
 70
     1
102
RTVSPropertyOp13
 70
     1
102
RTVSPropertyOp14
 70
     1
102
RTVSPropertyOp15
 70
     1
102
RTVSPropertyOp16
 70
     1
102
RTVSPropertyOp17
 70
     1
102
RTVSPropertyOp18
 70
     1
102
RTVSPropertyOp19
 70
     1
102
RTVSPropertyOp20
 70
     1
102
RTVSPropertyOp21
 70
     1
102
RTVSPropertyOp22
 70
     1
102
RTVSPropertyOp23
 70
     1
102
RTVSPropertyOp24
 70
     1
102
RTVSPropertyOp25
 70
     1
102
RTVSPropertyOp26
 70
     1
102
RTVSPropertyOp27
 70
     1
102
RTVSPropertyOp28
 70
     1
102
RTVSPropertyOp29
 70
     1
102
RTVSPropertyOp30
 70
     1
102
RTVSPropertyOp31
 70
     1
102
RTVSPropertyOp32
 70
     1
  0
ENDSEC
  0
EOF
