  0
SECTION
  2
HEADER
  9
$ACADVER
  1
AC1018
  9
$ACADMAINTVER
 70
     0
  9
$DWGCODEPAGE
  3
ANSI_1252
  9
$INSBASE
 10
0.0
 20
0.0
 30
0.0
  9
$EXTMIN
 10
-392.8999993089283
 20
-262.4035375965262
 30
0.0
  9
$EXTMAX
 10
-95.89999930893023
 20
-52.40353759652606
 30
0.0
  9
$LIMMIN
 10
0.0
 20
0.0
  9
$LIMMAX
 10
12.0
 20
9.0
  9
$ORTHOMODE
 70
     0
  9
$REGENMODE
 70
     1
  9
$FILLMODE
 70
     1
  9
$QTEXTMODE
 70
     0
  9
$MIRRTEXT
 70
     1
  9
$LTSCALE
 40
1.0
  9
$ATTMODE
 70
     1
  9
$TEXTSIZE
 40
0.2
  9
$TRACEWID
 40
0.05
  9
$TEXTSTYLE
  7
Standard
  9
$CLAYER
  8
0
  9
$CELTYPE
  6
ByLayer
  9
$CECOLOR
 62
   256
  9
$CELTSCALE
 40
1.0
  9
$DISPSILH
 70
     0
  9
$DIMSCALE
 40
1.0
  9
$DIMASZ
 40
0.18
  9
$DIMEXO
 40
0.0625
  9
$DIMDLI
 40
0.38
  9
$DIMRND
 40
0.0
  9
$DIMDLE
 40
0.0
  9
$DIMEXE
 40
0.18
  9
$DIMTP
 40
0.0
  9
$DIMTM
 40
0.0
  9
$DIMTXT
 40
0.18
  9
$DIMCEN
 40
0.09
  9
$DIMTSZ
 40
0.0
  9
$DIMTOL
 70
     0
  9
$DIMLIM
 70
     0
  9
$DIMTIH
 70
     1
  9
$DIMTOH
 70
     1
  9
$DIMSE1
 70
     0
  9
$DIMSE2
 70
     0
  9
$DIMTAD
 70
     0
  9
$DIMZIN
 70
     0
  9
$DIMBLK
  1

  9
$DIMASO
 70
     1
  9
$DIMSHO
 70
     1
  9
$DIMPOST
  1

  9
$DIMAPOST
  1

  9
$DIMALT
 70
     0
  9
$DIMALTD
 70
     2
  9
$DIMALTF
 40
25.4
  9
$DIMLFAC
 40
1.0
  9
$DIMTOFL
 70
     0
  9
$DIMTVP
 40
0.0
  9
$DIMTIX
 70
     0
  9
$DIMSOXD
 70
     0
  9
$DIMSAH
 70
     0
  9
$DIMBLK1
  1

  9
$DIMBLK2
  1

  9
$DIMSTYLE
  2
Standard
  9
$DIMCLRD
 70
     0
  9
$DIMCLRE
 70
     0
  9
$DIMCLRT
 70
     0
  9
$DIMTFAC
 40
1.0
  9
$DIMGAP
 40
0.09
  9
$DIMJUST
 70
     0
  9
$DIMSD1
 70
     0
  9
$DIMSD2
 70
     0
  9
$DIMTOLJ
 70
     1
  9
$DIMTZIN
 70
     0
  9
$DIMALTZ
 70
     0
  9
$DIMALTTZ
 70
     0
  9
$DIMUPT
 70
     0
  9
$DIMDEC
 70
     4
  9
$DIMTDEC
 70
     4
  9
$DIMALTU
 70
     2
  9
$DIMALTTD
 70
     2
  9
$DIMTXSTY
  7
Standard
  9
$DIMAUNIT
 70
     0
  9
$DIMADEC
 70
     0
  9
$DIMALTRND
 40
0.0
  9
$DIMAZIN
 70
     0
  9
$DIMDSEP
 70
    46
  9
$DIMATFIT
 70
     3
  9
$DIMFRAC
 70
     0
  9
$DIMLDRBLK
  1

  9
$DIMLUNIT
 70
     2
  9
$DIMLWD
 70
    -2
  9
$DIMLWE
 70
    -2
  9
$DIMTMOVE
 70
     0
  9
$LUNITS
 70
     2
  9
$LUPREC
 70
     4
  9
$SKETCHINC
 40
0.1
  9
$FILLETRAD
 40
0.5
  9
$AUNITS
 70
     0
  9
$AUPREC
 70
     0
  9
$MENU
  1
.
  9
$ELEVATION
 40
0.0
  9
$PELEVATION
 40
0.0
  9
$THICKNESS
 40
0.0
  9
$LIMCHECK
 70
     0
  9
$CHAMFERA
 40
0.5
  9
$CHAMFERB
 40
0.5
  9
$CHAMFERC
 40
1.0
  9
$CHAMFERD
 40
0.0
  9
$SKPOLY
 70
     0
  9
$TDCREATE
 40
2458132.475216643
  9
$TDUCREATE
 40
2458132.433549977
  9
$TDUPDATE
 40
2458132.475217187
  9
$TDUUPDATE
 40
2458132.433550521
  9
$TDINDWG
 40
0.0000000116
  9
$TDUSRTIMER
 40
0.0000000116
  9
$USRTIMER
 70
     1
  9
$ANGBASE
 50
0.0
  9
$ANGDIR
 70
     0
  9
$PDMODE
 70
     0
  9
$PDSIZE
 40
0.0
  9
$PLINEWID
 40
0.0
  9
$SPLFRAME
 70
     0
  9
$SPLINETYPE
 70
     6
  9
$SPLINESEGS
 70
     8
  9
$HANDSEED
  5
344
  9
$SURFTAB1
 70
     6
  9
$SURFTAB2
 70
     6
  9
$SURFTYPE
 70
     6
  9
$SURFU
 70
     6
  9
$SURFV
 70
     6
  9
$UCSBASE
  2

  9
$UCSNAME
  2

  9
$UCSORG
 10
0.0
 20
0.0
 30
0.0
  9
$UCSXDIR
 10
1.0
 20
0.0
 30
0.0
  9
$UCSYDIR
 10
0.0
 20
1.0
 30
0.0
  9
$UCSORTHOREF
  2

  9
$UCSORTHOVIEW
 70
     0
  9
$UCSORGTOP
 10
0.0
 20
0.0
 30
0.0
  9
$UCSORGBOTTOM
 10
0.0
 20
0.0
 30
0.0
  9
$UCSORGLEFT
 10
0.0
 20
0.0
 30
0.0
  9
$UCSORGRIGHT
 10
0.0
 20
0.0
 30
0.0
  9
$UCSORGFRONT
 10
0.0
 20
0.0
 30
0.0
  9
$UCSORGBACK
 10
0.0
 20
0.0
 30
0.0
  9
$PUCSBASE
  2

  9
$PUCSNAME
  2

  9
$PUCSORG
 10
0.0
 20
0.0
 30
0.0
  9
$PUCSXDIR
 10
1.0
 20
0.0
 30
0.0
  9
$PUCSYDIR
 10
0.0
 20
1.0
 30
0.0
  9
$PUCSORTHOREF
  2

  9
$PUCSORTHOVIEW
 70
     0
  9
$PUCSORGTOP
 10
0.0
 20
0.0
 30
0.0
  9
$PUCSORGBOTTOM
 10
0.0
 20
0.0
 30
0.0
  9
$PUCSORGLEFT
 10
0.0
 20
0.0
 30
0.0
  9
$PUCSORGRIGHT
 10
0.0
 20
0.0
 30
0.0
  9
$PUCSORGFRONT
 10
0.0
 20
0.0
 30
0.0
  9
$PUCSORGBACK
 10
0.0
 20
0.0
 30
0.0
  9
$USERI1
 70
     0
  9
$USERI2
 70
     0
  9
$USERI3
 70
     0
  9
$USERI4
 70
     0
  9
$USERI5
 70
     0
  9
$USERR1
 40
18.1
  9
$USERR2
 40
0.0
  9
$USERR3
 40
0.0
  9
$USERR4
 40
0.0
  9
$USERR5
 40
0.0
  9
$WORLDVIEW
 70
     1
  9
$SHADEDGE
 70
     3
  9
$SHADEDIF
 70
    70
  9
$TILEMODE
 70
     1
  9
$MAXACTVP
 70
    64
  9
$PINSBASE
 10
0.0
 20
0.0
 30
0.0
  9
$PLIMCHECK
 70
     0
  9
$PEXTMIN
 10
1.00000000000000E+20
 20
1.00000000000000E+20
 30
1.00000000000000E+20
  9
$PEXTMAX
 10
-1.00000000000000E+20
 20
-1.00000000000000E+20
 30
-1.00000000000000E+20
  9
$PLIMMIN
 10
0.0
 20
0.0
  9
$PLIMMAX
 10
12.0
 20
9.0
  9
$UNITMODE
 70
     0
  9
$VISRETAIN
 70
     1
  9
$PLINEGEN
 70
     0
  9
$PSLTSCALE
 70
     1
  9
$TREEDEPTH
 70
  3020
  9
$CMLSTYLE
  2
Standard
  9
$CMLJUST
 70
     0
  9
$CMLSCALE
 40
1.0
  9
$PROXYGRAPHICS
 70
     1
  9
$MEASUREMENT
 70
     1
  9
$CELWEIGHT
370
    -1
  9
$ENDCAPS
280
     0
  9
$JOINSTYLE
280
     0
  9
$LWDISPLAY
290
     0
  9
$INSUNITS
 70
     4
  9
$HYPERLINKBASE
  1

  9
$STYLESHEET
  1

  9
$XEDIT
290
     1
  9
$CEPSNTYPE
380
     0
  9
$PSTYLEMODE
290
     1
  9
$FINGERPRINTGUID
  2
{66CCA2DC-245F-4DEB-B811-1C0D458207AC}
  9
$VERSIONGUID
  2
{FAEB1C32-E019-11D5-929B-00C0DF256EC4}
  9
$EXTNAMES
290
     1
  9
$PSVPSCALE
 40
0.0
  9
$OLESTARTUP
290
     0
  9
$SORTENTS
280
   127
  9
$INDEXCTL
280
     0
  9
$HIDETEXT
280
     1
  9
$XCLIPFRAME
290
     0
  9
$HALOGAP
280
     0
  9
$OBSCOLOR
 70
   257
  9
$OBSLTYPE
280
     0
  9
$INTERSECTIONDISPLAY
280
     0
  9
$INTERSECTIONCOLOR
 70
   257
  9
$DIMASSOC
280
     2
  9
$PROJECTNAME
  1

  0
ENDSEC
  0
SECTION
  2
CLASSES
  0
CLASS
  1
ACDBDICTIONARYWDFLT
  2
AcDbDictionaryWithDefault
  3
ObjectDBX Classes
 90
        0
 91
        4
280
     0
281
     0
  0
CLASS
  1
VISUALSTYLE
  2
AcDbVisualStyle
  3
ObjectDBX Classes
 90
     4095
 91
        4
280
     0
281
     0
  0
CLASS
  1
MATERIAL
  2
AcDbMaterial
  3
ObjectDBX Classes
 90
     1153
 91
        4
280
     0
281
     0
  0
ENDSEC
  0
SECTION
  2
TABLES
  0
TABLE
  2
VPORT
  5
8
330
0
100
AcDbSymbolTable
 70
     1
  0
VPORT
  5
29
330
8
100
AcDbSymbolTableRecord
100
AcDbViewportTableRecord
  2
*Active
 70
     0
 10
0.0
 20
0.0
 11
1.0
 21
1.0
 12
-244.3999993089292
 22
-157.4035375965261
 13
0.0
 23
0.0
 14
0.5
 24
0.5
 15
0.5
 25
0.5
 16
0.0
 26
0.0
 36
1.0
 17
0.0
 27
0.0
 37
0.0
 40
231.0000000000001
 41
1.60267857142857
 42
50.0
 43
0.0
 44
0.0
 50
0.0
 51
0.0
 71
     0
 72
   100
 73
     1
 74
     3
 75
     0
 76
     0
 77
     0
 78
     0
281
     0
 65
     1
110
0.0
120
0.0
130
0.0
111
1.0
121
0.0
131
0.0
112
0.0
122
1.0
132
0.0
 79
     0
146
0.0
  0
ENDTAB
  0
TABLE
  2
LTYPE
  5
5
330
0
100
AcDbSymbolTable
 70
     8
  0
LTYPE
  5
14
330
5
100
AcDbSymbolTableRecord
100
AcDbLinetypeTableRecord
  2
ByBlock
 70
     0
  3

 72
    65
 73
     0
 40
0.0
  0
LTYPE
  5
15
330
5
100
AcDbSymbolTableRecord
100
AcDbLinetypeTableRecord
  2
ByLayer
 70
     0
  3

 72
    65
 73
     0
 40
0.0
  0
LTYPE
  5
16
330
5
100
AcDbSymbolTableRecord
100
AcDbLinetypeTableRecord
  2
Continuous
 70
     0
  3
Solid line
 72
    65
 73
     0
 40
0.0
  0
LTYPE
  5
3F
330
5
100
AcDbSymbolTableRecord
100
AcDbLinetypeTableRecord
  2
DASHED
 70
     0
  3
Dashed
 72
    65
 73
     2
 40
15.0
 49
7.0
 74
     0
 49
-8.0
 74
     0
  0
LTYPE
  5
40
330
5
100
AcDbSymbolTableRecord
100
AcDbLinetypeTableRecord
  2
DOTTED
 70
     0
  3
Dotted
 72
    65
 73
     2
 40
1.0
 49
0.0
 74
     0
 49
-1.0
 74
     0
  0
LTYPE
  5
41
330
5
100
AcDbSymbolTableRecord
100
AcDbLinetypeTableRecord
  2
DOT_CENTER
 70
     0
  3
Dot_Center
 72
    65
 73
     4
 40
14.0
 49
12.0
 74
     0
 49
-1.0
 74
     0
 49
0.0
 74
     0
 49
-1.0
 74
     0
  0
LTYPE
  5
42
330
5
100
AcDbSymbolTableRecord
100
AcDbLinetypeTableRecord
  2
LONG_DASHED
 70
     0
  3
Long_Dashed
 72
    65
 73
     2
 40
15.0
 49
10.0
 74
     0
 49
-5.0
 74
     0
  0
LTYPE
  5
43
330
5
100
AcDbSymbolTableRecord
100
AcDbLinetypeTableRecord
  2
DASH_CENTER
 70
     0
  3
Dash_Center
 72
    65
 73
     4
 40
14.0
 49
11.0
 74
     0
 49
-1.0
 74
     0
 49
1.0
 74
     0
 49
-1.0
 74
     0
  0
LTYPE
  5
44
330
5
100
AcDbSymbolTableRecord
100
AcDbLinetypeTableRecord
  2
PHANTOM
 70
     0
  3
Phantom
 72
    65
 73
     6
 40
13.0
 49
10.0
 74
     0
 49
-1.0
 74
     0
 49
0.0
 74
     0
 49
-1.0
 74
     0
 49
0.0
 74
     0
 49
-1.0
 74
     0
  0
LTYPE
  5
45
330
5
100
AcDbSymbolTableRecord
100
AcDbLinetypeTableRecord
  2
CENTER_DASH_DASH
 70
     0
  3
Center_Dash_Dash
 72
    65
 73
     6
 40
14.0
 49
9.0
 74
     0
 49
-1.0
 74
     0
 49
1.0
 74
     0
 49
-1.0
 74
     0
 49
1.0
 74
     0
 49
-1.0
 74
     0
  0
ENDTAB
  0
TABLE
  2
LAYER
  5
2
330
0
100
AcDbSymbolTable
 70
     2
  0
LAYER
  5
10
330
2
100
AcDbSymbolTableRecord
100
AcDbLayerTableRecord
  2
0
 70
     0
 62
     7
  6
Continuous
370
    -3
390
F
  0
LAYER
  5
46
330
2
100
AcDbSymbolTableRecord
100
AcDbLayerTableRecord
  2
1
 70
     0
 62
     7
  6
Continuous
370
    -3
390
F
  0
ENDTAB
  0
TABLE
  2
STYLE
  5
3
330
0
100
AcDbSymbolTable
 70
     5
  0
STYLE
  5
11
330
3
100
AcDbSymbolTableRecord
100
AcDbTextStyleTableRecord
  2
Standard
 70
     0
 40
0.0
 41
1.0
 50
0.0
 71
     0
 42
0.2
  3
txt
  4

  0
STYLE
  5
17D
330
3
100
AcDbSymbolTableRecord
100
AcDbTextStyleTableRecord
  2
CONVERTER_11
 70
     0
 40
0.0
 41
0.9
 50
0.0
 71
     0
 42
0.2
  3
txt.shx
  4

  0
STYLE
  5
184
330
3
100
AcDbSymbolTableRecord
100
AcDbTextStyleTableRecord
  2
CONVERTER_12
 70
     0
 40
0.0
 41
0.81
 50
0.0
 71
     0
 42
0.2
  3
txt.shx
  4

  0
STYLE
  5
19A
330
3
100
AcDbSymbolTableRecord
100
AcDbTextStyleTableRecord
  2
CONVERTER_13
 70
     0
 40
0.0
 41
0.72
 50
0.0
 71
     0
 42
0.2
  3
txt.shx
  4

  0
STYLE
  5
19D
330
3
100
AcDbSymbolTableRecord
100
AcDbTextStyleTableRecord
  2
CONVERTER_14
 70
     0
 40
0.0
 41
0.855
 50
0.0
 71
     0
 42
0.2
  3
txt.shx
  4

  0
ENDTAB
  0
TABLE
  2
VIEW
  5
6
330
0
100
AcDbSymbolTable
 70
     0
  0
ENDTAB
  0
TABLE
  2
UCS
  5
7
330
0
100
AcDbSymbolTable
 70
     0
  0
ENDTAB
  0
TABLE
  2
APPID
  5
9
330
0
100
AcDbSymbolTable
 70
     1
  0
APPID
  5
12
330
9
100
AcDbSymbolTableRecord
100
AcDbRegAppTableRecord
  2
ACAD
 70
     0
  0
ENDTAB
  0
TABLE
  2
DIMSTYLE
  5
A
330
0
100
AcDbSymbolTable
 70
     4
100
AcDbDimStyleTable
  0
DIMSTYLE
105
27
330
A
100
AcDbSymbolTableRecord
100
AcDbDimStyleTableRecord
  2
Standard
 70
     0
178
     0
340
11
  0
DIMSTYLE
105
261
102
{ACAD_REACTORS
330
262
102
}
330
A
100
AcDbSymbolTableRecord
100
AcDbDimStyleTableRecord
  2
ME10_DIM_10
 70
     0
 41
3.5
 42
0.5
 44
1.5
 73
     0
 74
     0
 77
     1
 78
     8
140
3.5
147
2.0
172
     1
173
     1
174
     1
175
     1
176
     2
177
     2
271
     2
178
     3
271
     2
340
17D
  0
DIMSTYLE
105
30F
102
{ACAD_REACTORS
330
310
102
}
330
A
100
AcDbSymbolTableRecord
100
AcDbDimStyleTableRecord
  2
ME10_DIM_11
 70
     0
 41
3.5
 42
0.5
 44
1.5
 73
     0
 74
     0
 77
     1
 78
     8
140
3.5
147
2.0
172
     1
173
     1
174
     1
175
     1
176
     2
177
     2
271
     2
178
     3
271
     2
340
17D
  0
DIMSTYLE
105
31A
102
{ACAD_REACTORS
330
31B
102
}
330
A
100
AcDbSymbolTableRecord
100
AcDbDimStyleTableRecord
  2
ME10_DIM_12
 70
     0
 41
3.5
 42
0.5
 44
1.5
 73
     0
 74
     0
 77
     1
 78
     8
140
3.5
147
2.0
172
     1
173
     1
174
     1
175
     1
176
     2
177
     2
271
     2
178
     3
271
     2
340
17D
  0
ENDTAB
  0
TABLE
  2
BLOCK_RECORD
  5
1
330
0
100
AcDbSymbolTable
 70
    20
  0
BLOCK_RECORD
  5
1F
330
1
100
AcDbSymbolTableRecord
100
AcDbBlockTableRecord
  2
*Model_Space
340
22
  0
BLOCK_RECORD
  5
1B
330
1
100
AcDbSymbolTableRecord
100
AcDbBlockTableRecord
  2
*Paper_Space
340
1E
  0
BLOCK_RECORD
  5
23
330
1
100
AcDbSymbolTableRecord
100
AcDbBlockTableRecord
  2
*Paper_Space0
340
26
  0
BLOCK_RECORD
  5
47
330
1
100
AcDbSymbolTableRecord
100
AcDbBlockTableRecord
  2
_rahmen
340
0
102
{BLKREFS
331
4E
102
}
  0
BLOCK_RECORD
  5
4A
330
1
100
AcDbSymbolTableRecord
100
AcDbBlockTableRecord
  2
_punkt
340
0
102
{BLKREFS
331
4F
102
}
  0
BLOCK_RECORD
  5
4D
330
1
100
AcDbSymbolTableRecord
100
AcDbBlockTableRecord
  2
A4I_CS
340
0
102
{BLKREFS
331
7D
102
}
  0
BLOCK_RECORD
  5
52
330
1
100
AcDbSymbolTableRecord
100
AcDbBlockTableRecord
  2
HC-RBO_8-FE-select__1
340
0
102
{BLKREFS
331
56
102
}
  0
BLOCK_RECORD
  5
55
330
1
100
AcDbSymbolTableRecord
100
AcDbBlockTableRecord
  2
Allg1
340
0
102
{BLKREFS
331
7E
102
}
  0
BLOCK_RECORD
  5
59
330
1
100
AcDbSymbolTableRecord
100
AcDbBlockTableRecord
  2
HC-RBO_8-FE-select__2
340
0
102
{BLKREFS
331
5D
102
}
  0
BLOCK_RECORD
  5
5C
330
1
100
AcDbSymbolTableRecord
100
AcDbBlockTableRecord
  2
Drfsicht1
340
0
102
{BLKREFS
331
7F
102
}
  0
BLOCK_RECORD
  5
60
330
1
100
AcDbSymbolTableRecord
100
AcDbBlockTableRecord
  2
HC-RBO_8-FE-select__3
340
0
102
{BLKREFS
331
64
102
}
  0
BLOCK_RECORD
  5
63
330
1
100
AcDbSymbolTableRecord
100
AcDbBlockTableRecord
  2
Rckans1
340
0
102
{BLKREFS
331
80
102
}
  0
BLOCK_RECORD
  5
67
330
1
100
AcDbSymbolTableRecord
100
AcDbBlockTableRecord
  2
HC-RBO_8-FE-select__4
340
0
102
{BLKREFS
331
6B
102
}
  0
BLOCK_RECORD
  5
6A
330
1
100
AcDbSymbolTableRecord
100
AcDbBlockTableRecord
  2
SA_Links1
340
0
102
{BLKREFS
331
81
102
}
  0
BLOCK_RECORD
  5
6E
330
1
100
AcDbSymbolTableRecord
100
AcDbBlockTableRecord
  2
HC-RBO_8-FE-select__5
340
0
102
{BLKREFS
331
72
102
}
  0
BLOCK_RECORD
  5
71
330
1
100
AcDbSymbolTableRecord
100
AcDbBlockTableRecord
  2
SA_Rechts1
340
0
102
{BLKREFS
331
82
102
}
  0
BLOCK_RECORD
  5
75
330
1
100
AcDbSymbolTableRecord
100
AcDbBlockTableRecord
  2
HC-RBO_8-FE-select__6
340
0
102
{BLKREFS
331
79
102
}
  0
BLOCK_RECORD
  5
78
330
1
100
AcDbSymbolTableRecord
100
AcDbBlockTableRecord
  2
Vordans1
340
0
102
{BLKREFS
331
83
102
}
  0
BLOCK_RECORD
  5
7C
330
1
100
AcDbSymbolTableRecord
100
AcDbBlockTableRecord
  2
1
340
0
102
{BLKREFS
331
86
102
}
  0
BLOCK_RECORD
  5
258
330
1
100
AcDbSymbolTableRecord
100
AcDbBlockTableRecord
  2
*D17
340
0
  0
BLOCK_RECORD
  5
306
330
1
100
AcDbSymbolTableRecord
100
AcDbBlockTableRecord
  2
*D18
340
0
  0
BLOCK_RECORD
  5
311
330
1
100
AcDbSymbolTableRecord
100
AcDbBlockTableRecord
  2
*D19
340
0
  0
ENDTAB
  0
ENDSEC
  0
SECTION
  2
BLOCKS
  0
BLOCK
  5
20
330
1F
100
AcDbEntity
  8
0
100
AcDbBlockBegin
  2
*Model_Space
 70
     0
 10
0.0
 20
0.0
 30
0.0
  3
*Model_Space
  1

  0
ENDBLK
  5
21
330
1F
100
AcDbEntity
  8
0
100
AcDbBlockEnd
  0
BLOCK
  5
1C
330
1B
100
AcDbEntity
 67
     1
  8
0
100
AcDbBlockBegin
  2
*Paper_Space
 70
     0
 10
0.0
 20
0.0
 30
0.0
  3
*Paper_Space
  1

  0
ENDBLK
  5
1D
330
1B
100
AcDbEntity
 67
     1
  8
0
100
AcDbBlockEnd
  0
BLOCK
  5
24
330
23
100
AcDbEntity
  8
0
100
AcDbBlockBegin
  2
*Paper_Space0
 70
     0
 10
0.0
 20
0.0
 30
0.0
  3
*Paper_Space0
  1

  0
ENDBLK
  5
25
330
23
100
AcDbEntity
  8
0
100
AcDbBlockEnd
  0
BLOCK
  5
48
330
47
100
AcDbEntity
  8
0
100
AcDbBlockBegin
  2
_rahmen
 70
     0
 10
-100.8999993089292
 20
-262.4035375965262
 30
0.0
  3
_rahmen
  1

  0
LINE
  5
87
330
47
100
AcDbEntity
  8
1
  6
Continuous
 62
     6
100
AcDbLine
 10
-230.4448038356792
 20
-231.9035375965261
 30
0.0
 11
-100.8999993089275
 21
-231.9035375965261
 31
0.0
  0
LINE
  5
88
330
47
100
AcDbEntity
  8
1
  6
Continuous
 62
     7
100
AcDbLine
 10
-212.2448038356792
 20
-253.1535375965261
 30
0.0
 11
-194.0448038356793
 21
-253.1535375965261
 31
0.0
  0
LINE
  5
89
330
47
100
AcDbEntity
  8
1
  6
Continuous
 62
     6
100
AcDbLine
 10
-212.2448038356792
 20
-257.4035375965261
 30
0.0
 11
-230.4448038356792
 21
-257.4035375965262
 31
0.0
  0
LINE
  5
8A
330
47
100
AcDbEntity
  8
1
  6
Continuous
 62
     7
100
AcDbLine
 10
-212.2448038356792
 20
-253.1535375965261
 30
0.0
 11
-212.2448038356792
 21
-257.4035375965261
 31
0.0
  0
LINE
  5
8B
330
47
100
AcDbEntity
  8
1
  6
Continuous
 62
     7
100
AcDbLine
 10
-194.0448038356793
 20
-253.1535375965261
 30
0.0
 11
-194.0448038356793
 21
-257.4035375965262
 31
0.0
  0
LINE
  5
8C
330
47
100
AcDbEntity
  8
1
  6
Continuous
 62
     7
100
AcDbLine
 10
-230.4448038356792
 20
-253.1535375965262
 30
0.0
 11
-230.4448038356792
 21
-257.4035375965262
 31
0.0
  0
LINE
  5
8D
330
47
100
AcDbEntity
  8
1
  6
Continuous
 62
     7
100
AcDbLine
 10
-230.4448038356792
 20
-253.1535375965262
 30
0.0
 11
-212.2448038356792
 21
-253.1535375965261
 31
0.0
  0
LINE
  5
8E
330
47
100
AcDbEntity
  8
1
  6
Continuous
 62
     2
100
AcDbLine
 10
-221.2081489491166
 20
-233.7785375965262
 30
0.0
 11
-221.2081489491166
 21
-238.7785375965262
 31
0.0
  0
LINE
  5
8F
330
47
100
AcDbEntity
  8
1
  6
Continuous
 62
     2
100
AcDbLine
 10
-221.2081489491166
 20
-238.7785375965262
 30
0.0
 11
-226.2081489491166
 21
-237.5285375965262
 31
0.0
  0
LINE
  5
90
330
47
100
AcDbEntity
  8
1
  6
Continuous
 62
     2
100
AcDbLine
 10
-226.2081489491166
 20
-237.5285375965262
 30
0.0
 11
-226.2081489491166
 21
-235.0285375965262
 31
0.0
  0
LINE
  5
91
330
47
100
AcDbEntity
  8
1
  6
Continuous
 62
     2
100
AcDbLine
 10
-226.2081489491166
 20
-235.0285375965262
 30
0.0
 11
-221.2081489491166
 21
-233.7785375965262
 31
0.0
  0
LINE
  5
92
330
47
100
AcDbEntity
  8
1
  6
Continuous
 62
     6
100
AcDbLine
 10
-352.8999993089275
 20
-257.4035375965261
 30
0.0
 11
-387.8999993089274
 21
-257.4035375965261
 31
0.0
  0
LINE
  5
93
330
47
100
AcDbEntity
  8
1
  6
Continuous
 62
     6
100
AcDbLine
 10
-100.8999993089275
 20
-240.4035375965261
 30
0.0
 11
-100.8999993089279
 21
-248.9035375965261
 31
0.0
  0
LINE
  5
94
330
47
100
AcDbEntity
  8
1
  6
Continuous
 62
     6
100
AcDbLine
 10
-194.0448038356793
 20
-257.4035375965262
 30
0.0
 11
-194.3999993089292
 21
-257.4035375965261
 31
0.0
  0
LINE
  5
95
330
47
100
AcDbEntity
  8
1
  6
Continuous
 62
     6
100
AcDbLine
 10
-346.6999993089295
 20
-257.4035375965262
 30
0.0
 11
-352.8999993089275
 21
-257.4035375965261
 31
0.0
  0
LINE
  5
96
330
47
100
AcDbEntity
  8
1
  6
Continuous
 62
     7
100
AcDbLine
 10
-194.0448038356793
 20
-240.4035375965261
 30
0.0
 11
-194.0448038356793
 21
-253.1535375965261
 31
0.0
  0
LINE
  5
97
330
47
100
AcDbEntity
  8
1
  6
Continuous
 62
     7
100
AcDbLine
 10
-230.4448038356792
 20
-240.4035375965261
 30
0.0
 11
-230.4448038356792
 21
-253.1535375965262
 31
0.0
  0
LINE
  5
98
330
47
100
AcDbEntity
  8
1
  6
Continuous
 62
     6
100
AcDbLine
 10
-244.3999993089292
 20
-257.4035375965261
 30
0.0
 11
-294.3999993089294
 21
-257.4035375965261
 31
0.0
  0
LINE
  5
99
330
47
100
AcDbEntity
  8
1
  6
Continuous
 62
     6
100
AcDbLine
 10
-346.6999993089295
 20
-257.4035375965262
 30
0.0
 11
-344.3999993089292
 21
-257.4035375965261
 31
0.0
  0
LINE
  5
9A
330
47
100
AcDbEntity
  8
1
  6
Continuous
 62
     6
100
AcDbLine
 10
-194.0448038356793
 20
-257.4035375965262
 30
0.0
 11
-144.3999993089292
 21
-257.4035375965261
 31
0.0
  0
LINE
  5
9B
330
47
100
AcDbEntity
  8
1
  6
Continuous
 62
     6
100
AcDbLine
 10
-100.8999993089292
 20
-257.4035375965261
 30
0.0
 11
-100.8999993089279
 21
-248.9035375965261
 31
0.0
  0
LINE
  5
9C
330
47
100
AcDbEntity
  8
1
  6
Continuous
 62
     2
100
AcDbLine
 10
-392.8999993089283
 20
-257.4035375965261
 30
0.0
 11
-392.8999993089283
 21
-262.4035375965262
 31
0.0
  0
LINE
  5
9D
330
47
100
AcDbEntity
  8
1
  6
Continuous
 62
     2
100
AcDbLine
 10
-387.8999993089274
 20
-257.4035375965261
 30
0.0
 11
-392.8999993089283
 21
-257.4035375965261
 31
0.0
  0
LINE
  5
9E
330
47
100
AcDbEntity
  8
1
  6
Continuous
 62
     2
100
AcDbLine
 10
-387.8999993089274
 20
-262.4035375965262
 30
0.0
 11
-344.3999993089292
 21
-262.4035375965262
 31
0.0
  0
LINE
  5
9F
330
47
100
AcDbEntity
  8
1
  6
Continuous
 62
     2
100
AcDbLine
 10
-387.8999993089274
 20
-257.4035375965261
 30
0.0
 11
-387.8999993089274
 21
-262.4035375965262
 31
0.0
  0
LINE
  5
A0
330
47
100
AcDbEntity
  8
1
  6
Continuous
 62
     2
100
AcDbLine
 10
-144.3999993089292
 20
-262.4035375965262
 30
0.0
 11
-194.3999993089292
 21
-262.4035375965262
 31
0.0
  0
LINE
  5
A1
330
47
100
AcDbEntity
  8
1
  6
Continuous
 62
     2
100
AcDbLine
 10
-144.3999993089292
 20
-262.4035375965262
 30
0.0
 11
-144.3999993089292
 21
-257.4035375965261
 31
0.0
  0
LINE
  5
A2
330
47
100
AcDbEntity
  8
1
  6
Continuous
 62
     2
100
AcDbLine
 10
-194.3999993089292
 20
-262.4035375965262
 30
0.0
 11
-194.3999993089292
 21
-257.4035375965261
 31
0.0
  0
LINE
  5
A3
330
47
100
AcDbEntity
  8
1
  6
Continuous
 62
     2
100
AcDbLine
 10
-244.3999993089292
 20
-262.4035375965262
 30
0.0
 11
-194.3999993089292
 21
-262.4035375965262
 31
0.0
  0
LINE
  5
A4
330
47
100
AcDbEntity
  8
1
  6
Continuous
 62
     2
100
AcDbLine
 10
-244.3999993089292
 20
-262.4035375965262
 30
0.0
 11
-244.3999993089292
 21
-257.4035375965261
 31
0.0
  0
LINE
  5
A5
330
47
100
AcDbEntity
  8
1
  6
Continuous
 62
     2
100
AcDbLine
 10
-294.3999993089294
 20
-262.4035375965262
 30
0.0
 11
-244.3999993089292
 21
-262.4035375965262
 31
0.0
  0
LINE
  5
A6
330
47
100
AcDbEntity
  8
1
  6
Continuous
 62
     2
100
AcDbLine
 10
-294.3999993089294
 20
-262.4035375965262
 30
0.0
 11
-294.3999993089294
 21
-257.4035375965261
 31
0.0
  0
LINE
  5
A7
330
47
100
AcDbEntity
  8
1
  6
Continuous
 62
     2
100
AcDbLine
 10
-344.3999993089292
 20
-262.4035375965262
 30
0.0
 11
-294.3999993089294
 21
-262.4035375965262
 31
0.0
  0
LINE
  5
A8
330
47
100
AcDbEntity
  8
1
  6
Continuous
 62
     2
100
AcDbLine
 10
-344.3999993089292
 20
-262.4035375965262
 30
0.0
 11
-344.3999993089292
 21
-257.4035375965261
 31
0.0
  0
LINE
  5
A9
330
47
100
AcDbEntity
  8
1
  6
Continuous
 62
     6
100
AcDbLine
 10
-387.8999993089275
 20
-207.403537596526
 30
0.0
 11
-387.8999993089274
 21
-257.4035375965261
 31
0.0
  0
LINE
  5
AA
330
47
100
AcDbEntity
  8
1
  6
Continuous
 62
     2
100
AcDbLine
 10
-392.8999993089283
 20
-207.403537596526
 30
0.0
 11
-392.8999993089283
 21
-257.4035375965261
 31
0.0
  0
LINE
  5
AB
330
47
100
AcDbEntity
  8
1
  6
Continuous
 62
     2
100
AcDbLine
 10
-392.8999993089283
 20
-207.403537596526
 30
0.0
 11
-387.8999993089275
 21
-207.403537596526
 31
0.0
  0
LINE
  5
AC
330
47
100
AcDbEntity
  8
1
  6
Continuous
 62
     6
100
AcDbLine
 10
-387.8999993089277
 20
-157.4035375965262
 30
0.0
 11
-387.8999993089275
 21
-207.403537596526
 31
0.0
  0
LINE
  5
AD
330
47
100
AcDbEntity
  8
1
  6
Continuous
 62
     2
100
AcDbLine
 10
-392.8999993089283
 20
-157.4035375965262
 30
0.0
 11
-392.8999993089283
 21
-207.403537596526
 31
0.0
  0
LINE
  5
AE
330
47
100
AcDbEntity
  8
1
  6
Continuous
 62
     2
100
AcDbLine
 10
-392.8999993089283
 20
-157.4035375965262
 30
0.0
 11
-387.8999993089277
 21
-157.4035375965262
 31
0.0
  0
LINE
  5
AF
330
47
100
AcDbEntity
  8
1
  6
Continuous
 62
     6
100
AcDbLine
 10
-387.8999993089283
 20
-107.4035375965261
 30
0.0
 11
-387.8999993089277
 21
-157.4035375965262
 31
0.0
  0
LINE
  5
B0
330
47
100
AcDbEntity
  8
1
  6
Continuous
 62
     2
100
AcDbLine
 10
-392.8999993089283
 20
-107.4035375965261
 30
0.0
 11
-392.8999993089283
 21
-157.4035375965262
 31
0.0
  0
LINE
  5
B1
330
47
100
AcDbEntity
  8
1
  6
Continuous
 62
     2
100
AcDbLine
 10
-392.8999993089283
 20
-107.4035375965261
 30
0.0
 11
-387.8999993089283
 21
-107.4035375965261
 31
0.0
  0
LINE
  5
B2
330
47
100
AcDbEntity
  8
1
  6
Continuous
 62
     6
100
AcDbLine
 10
-387.8999993089283
 20
-72.40353759652606
 30
0.0
 11
-387.8999993089283
 21
-107.4035375965261
 31
0.0
  0
LINE
  5
B3
330
47
100
AcDbEntity
  8
1
  6
Continuous
 62
     2
100
AcDbLine
 10
-392.8999993089283
 20
-52.40353759652606
 30
0.0
 11
-392.8999993089283
 21
-107.4035375965261
 31
0.0
  0
LINE
  5
B4
330
47
100
AcDbEntity
  8
1
  6
Continuous
 62
     2
100
AcDbLine
 10
-392.8999993089283
 20
-262.4035375965262
 30
0.0
 11
-387.8999993089274
 21
-262.4035375965262
 31
0.0
  0
LINE
  5
B5
330
47
100
AcDbEntity
  8
1
  6
Continuous
 62
     2
100
AcDbLine
 10
-244.3999993089292
 20
-52.40353759652606
 30
0.0
 11
-244.3999993089292
 21
-61.61222944122739
 31
0.0
  0
LINE
  5
B6
330
47
100
AcDbEntity
  8
1
  6
Continuous
 62
     2
100
AcDbLine
 10
-244.3999993089292
 20
-52.40353759652606
 30
0.0
 11
-392.8999993089283
 21
-52.40353759652606
 31
0.0
  0
LINE
  5
B7
330
47
100
AcDbEntity
  8
1
  6
Continuous
 62
     2
100
AcDbLine
 10
-95.89999930893023
 20
-257.4035375965261
 30
0.0
 11
-95.89999930893023
 21
-207.403537596526
 31
0.0
  0
LINE
  5
B8
330
47
100
AcDbEntity
  8
1
  6
Continuous
 62
     2
100
AcDbLine
 10
-95.89999930893023
 20
-107.4035375965261
 30
0.0
 11
-95.89999930893023
 21
-52.40353759652606
 31
0.0
  0
LINE
  5
B9
330
47
100
AcDbEntity
  8
1
  6
Continuous
 62
     6
100
AcDbLine
 10
-100.89999930893
 20
-107.4035375965261
 30
0.0
 11
-100.8999993089302
 21
-72.40353759652606
 31
0.0
  0
LINE
  5
BA
330
47
100
AcDbEntity
  8
1
  6
Continuous
 62
     2
100
AcDbLine
 10
-100.89999930893
 20
-107.4035375965261
 30
0.0
 11
-95.89999930893023
 21
-107.4035375965261
 31
0.0
  0
LINE
  5
BB
330
47
100
AcDbEntity
  8
1
  6
Continuous
 62
     2
100
AcDbLine
 10
-95.89999930893023
 20
-157.4035375965262
 30
0.0
 11
-95.89999930893023
 21
-107.4035375965261
 31
0.0
  0
LINE
  5
BC
330
47
100
AcDbEntity
  8
1
  6
Continuous
 62
     6
100
AcDbLine
 10
-100.8999993089288
 20
-157.4035375965262
 30
0.0
 11
-100.89999930893
 21
-107.4035375965261
 31
0.0
  0
LINE
  5
BD
330
47
100
AcDbEntity
  8
1
  6
Continuous
 62
     2
100
AcDbLine
 10
-100.8999993089288
 20
-157.4035375965262
 30
0.0
 11
-95.89999930893023
 21
-157.4035375965262
 31
0.0
  0
LINE
  5
BE
330
47
100
AcDbEntity
  8
1
  6
Continuous
 62
     2
100
AcDbLine
 10
-95.89999930893023
 20
-207.403537596526
 30
0.0
 11
-95.89999930893023
 21
-157.4035375965262
 31
0.0
  0
LINE
  5
BF
330
47
100
AcDbEntity
  8
1
  6
Continuous
 62
     6
100
AcDbLine
 10
-100.8999993089283
 20
-207.403537596526
 30
0.0
 11
-100.8999993089288
 21
-157.4035375965262
 31
0.0
  0
LINE
  5
C0
330
47
100
AcDbEntity
  8
1
  6
Continuous
 62
     2
100
AcDbLine
 10
-100.8999993089283
 20
-207.403537596526
 30
0.0
 11
-95.89999930893023
 21
-207.403537596526
 31
0.0
  0
LINE
  5
C1
330
47
100
AcDbEntity
  8
1
  6
Continuous
 62
     6
100
AcDbLine
 10
-100.8999993089302
 20
-72.40353759652606
 30
0.0
 11
-387.8999993089283
 21
-72.40353759652606
 31
0.0
  0
LINE
  5
C2
330
47
100
AcDbEntity
  8
1
  6
Continuous
 62
     2
100
AcDbLine
 10
-95.89999930893023
 20
-52.40353759652606
 30
0.0
 11
-244.3999993089292
 21
-52.40353759652606
 31
0.0
  0
LINE
  5
C3
330
47
100
AcDbEntity
  8
1
  6
Continuous
 62
     6
100
AcDbLine
 10
-100.8999993089275
 20
-240.4035375965261
 30
0.0
 11
-100.8999993089283
 21
-207.403537596526
 31
0.0
  0
LINE
  5
C4
330
47
100
AcDbEntity
  8
1
  6
Continuous
 62
     2
100
AcDbLine
 10
-100.8999993089292
 20
-262.4035375965262
 30
0.0
 11
-144.3999993089292
 21
-262.4035375965262
 31
0.0
  0
LINE
  5
C5
330
47
100
AcDbEntity
  8
1
  6
Continuous
 62
     2
100
AcDbLine
 10
-95.89999930893023
 20
-262.4035375965262
 30
0.0
 11
-100.8999993089292
 21
-262.4035375965262
 31
0.0
  0
LINE
  5
C6
330
47
100
AcDbEntity
  8
1
  6
Continuous
 62
     2
100
AcDbLine
 10
-95.89999930893023
 20
-262.4035375965262
 30
0.0
 11
-95.89999930893023
 21
-257.4035375965261
 31
0.0
  0
LINE
  5
C7
330
47
100
AcDbEntity
  8
1
  6
Continuous
 62
     6
100
AcDbLine
 10
-230.4448038356792
 20
-240.4035375965261
 30
0.0
 11
-194.0448038356793
 21
-240.4035375965261
 31
0.0
  0
LINE
  5
C8
330
47
100
AcDbEntity
  8
1
  6
Continuous
 62
     2
100
AcDbLine
 10
-100.8999993089292
 20
-257.4035375965261
 30
0.0
 11
-100.8999993089292
 21
-262.4035375965262
 31
0.0
  0
LINE
  5
C9
330
47
100
AcDbEntity
  8
1
  6
Continuous
 62
     2
100
AcDbLine
 10
-100.8999993089292
 20
-257.4035375965261
 30
0.0
 11
-95.89999930893023
 21
-257.4035375965261
 31
0.0
  0
LINE
  5
CA
330
47
100
AcDbEntity
  8
1
  6
Continuous
 62
     6
100
AcDbLine
 10
-194.3999993089292
 20
-257.4035375965261
 30
0.0
 11
-212.2448038356792
 21
-257.4035375965261
 31
0.0
  0
LINE
  5
CB
330
47
100
AcDbEntity
  8
1
  6
Continuous
 62
     6
100
AcDbLine
 10
-144.3999993089292
 20
-257.4035375965261
 30
0.0
 11
-100.8999993089292
 21
-257.4035375965261
 31
0.0
  0
LINE
  5
CC
330
47
100
AcDbEntity
  8
1
  6
Continuous
 62
     6
100
AcDbLine
 10
-294.3999993089294
 20
-257.4035375965261
 30
0.0
 11
-299.4448038356792
 21
-257.4035375965261
 31
0.0
  0
LINE
  5
CD
330
47
100
AcDbEntity
  8
1
  6
Continuous
 62
     6
100
AcDbLine
 10
-244.3999993089292
 20
-257.4035375965261
 30
0.0
 11
-230.4448038356792
 21
-257.4035375965262
 31
0.0
  0
LINE
  5
CE
102
{ACAD_REACTORS
330
1B9
330
1BA
102
}
330
47
100
AcDbEntity
  8
0
  6
Continuous
 62
     2
100
AcDbLine
 10
-222.9301778935324
 20
-245.331022840314
 30
0.0
 11
-222.9301778935324
 21
-244.7254875518072
 31
0.0
  0
LINE
  5
CF
102
{ACAD_REACTORS
330
1B9
330
1BA
102
}
330
47
100
AcDbEntity
  8
0
  6
Continuous
 62
     2
100
AcDbLine
 10
-222.9301778935324
 20
-248.1311574469453
 30
0.0
 11
-222.9301778935324
 21
-247.5493060402502
 31
0.0
  0
LINE
  5
D0
102
{ACAD_REACTORS
330
1BB
330
1BC
102
}
330
47
100
AcDbEntity
  8
0
  6
Continuous
 62
     2
100
AcDbLine
 10
-200.3006914580532
 20
-247.8414933788223
 30
0.0
 11
-200.3006914580532
 21
-250.1100375965098
 31
0.0
  0
LINE
  5
D1
102
{ACAD_REACTORS
330
1BB
330
1BC
102
}
330
47
100
AcDbEntity
  8
0
  6
Continuous
 62
     2
100
AcDbLine
 10
-201.6817452370408
 20
-247.0562280726992
 30
0.0
 11
-198.2967997184121
 21
-247.0562280726987
 31
0.0
  0
LINE
  5
D2
102
{ACAD_REACTORS
330
1BB
330
1BC
102
}
330
47
100
AcDbEntity
  8
0
  6
Continuous
 62
     2
100
AcDbLine
 10
-198.2967997184121
 20
-247.8414933788223
 30
0.0
 11
-198.2967997184121
 21
-247.0562280726987
 31
0.0
  0
LINE
  5
D3
102
{ACAD_REACTORS
330
1BB
330
1BC
102
}
330
47
100
AcDbEntity
  8
0
  6
Continuous
 62
     2
100
AcDbLine
 10
-199.1078987558855
 20
-247.8414933788223
 30
0.0
 11
-198.2967997184121
 21
-247.8414933788223
 31
0.0
  0
LINE
  5
D4
102
{ACAD_REACTORS
330
1BB
330
1BC
102
}
330
47
100
AcDbEntity
  8
0
  6
Continuous
 62
     2
100
AcDbLine
 10
-199.1078987558855
 20
-250.1100375965098
 30
0.0
 11
-199.1078987558855
 21
-247.8414933788223
 31
0.0
  0
LINE
  5
D5
102
{ACAD_REACTORS
330
1BB
330
1BC
102
}
330
47
100
AcDbEntity
  8
0
  6
Continuous
 62
     2
100
AcDbLine
 10
-200.3006914580532
 20
-250.1100375965098
 30
0.0
 11
-199.1078987558855
 21
-250.1100375965098
 31
0.0
  0
LINE
  5
D6
102
{ACAD_REACTORS
330
1B1
330
1B2
102
}
330
47
100
AcDbEntity
  8
0
  6
Continuous
 62
     2
100
AcDbLine
 10
-200.9972823961177
 20
-243.6970375965243
 30
0.0
 11
-202.400006613867
 21
-243.6970375965243
 31
0.0
  0
LINE
  5
D7
102
{ACAD_REACTORS
330
1B1
330
1B2
102
}
330
47
100
AcDbEntity
  8
0
  6
Continuous
 62
     2
100
AcDbLine
 10
-200.9972823961177
 20
-243.6970375965243
 30
0.0
 11
-200.3961148742259
 21
-244.3768609180798
 31
0.0
  0
LINE
  5
D8
102
{ACAD_REACTORS
330
1B1
330
1B2
102
}
330
47
100
AcDbEntity
  8
0
  6
Continuous
 62
     2
100
AcDbLine
 10
-200.3961148742259
 20
-244.3768609180798
 30
0.0
 11
-199.7949473523331
 21
-243.6970375965243
 31
0.0
  0
LINE
  5
D9
102
{ACAD_REACTORS
330
1B1
330
1B2
102
}
330
47
100
AcDbEntity
  8
0
  6
Continuous
 62
     2
100
AcDbLine
 10
-199.6947527653524
 20
-245.1699881265605
 30
0.0
 11
-198.3922231345859
 21
-243.6970375965243
 31
0.0
  0
LINE
  5
DA
102
{ACAD_REACTORS
330
1B1
330
1B2
102
}
330
47
100
AcDbEntity
  8
0
  6
Continuous
 62
     2
100
AcDbLine
 10
-199.6947527653524
 20
-245.1699881265605
 30
0.0
 11
-198.2967997184121
 21
-246.7508471203355
 31
0.0
  0
LINE
  5
DB
102
{ACAD_REACTORS
330
1B1
330
1B2
102
}
330
47
100
AcDbEntity
  8
0
  6
Continuous
 62
     2
100
AcDbLine
 10
-199.6995239361604
 20
-246.7508471203355
 30
0.0
 11
-198.2967997184121
 21
-246.7508471203355
 31
0.0
  0
LINE
  5
DC
102
{ACAD_REACTORS
330
1B1
330
1B2
102
}
330
47
100
AcDbEntity
  8
0
  6
Continuous
 62
     2
100
AcDbLine
 10
-200.3961148742259
 20
-245.9631153350418
 30
0.0
 11
-199.6995239361604
 21
-246.7508471203355
 31
0.0
  0
LINE
  5
DD
102
{ACAD_REACTORS
330
1AF
330
1B0
102
}
330
47
100
AcDbEntity
  8
0
  6
Continuous
 62
     2
100
AcDbLine
 10
-203.8552137105096
 20
-243.6970375965243
 30
0.0
 11
-202.6147093002567
 21
-243.6970375965243
 31
0.0
  0
LINE
  5
DE
102
{ACAD_REACTORS
330
1AF
330
1B0
102
}
330
47
100
AcDbEntity
  8
0
  6
Continuous
 62
     2
100
AcDbLine
 10
-202.6147093002567
 20
-243.6970375965243
 30
0.0
 11
-202.6147093002567
 21
-246.7508471203355
 31
0.0
  0
LINE
  5
DF
102
{ACAD_REACTORS
330
1AF
330
1B0
102
}
330
47
100
AcDbEntity
  8
0
  6
Continuous
 62
     2
100
AcDbLine
 10
-203.8552137105096
 20
-246.7508471203355
 30
0.0
 11
-203.8552137105096
 21
-243.6970375965243
 31
0.0
  0
LINE
  5
E0
102
{ACAD_REACTORS
330
1AD
330
1AE
102
}
330
47
100
AcDbEntity
  8
0
  6
Continuous
 62
     2
100
AcDbLine
 10
-205.3235237930472
 20
-248.8885137869853
 30
0.0
 11
-205.0233585558548
 21
-248.1206988209986
 31
0.0
  0
LINE
  5
E1
102
{ACAD_REACTORS
330
1AD
330
1AE
102
}
330
47
100
AcDbEntity
  8
0
  6
Continuous
 62
     2
100
AcDbLine
 10
-205.801059397668
 20
-250.1100375965098
 30
0.0
 11
-205.5895793441922
 21
-249.5690770522919
 31
0.0
  0
LINE
  5
E2
102
{ACAD_REACTORS
330
1AD
330
1AE
102
}
330
47
100
AcDbEntity
  8
0
  6
Continuous
 62
     2
100
AcDbLine
 10
-205.6436107609817
 20
-247.0562280726987
 30
0.0
 11
-207.041563807921
 21
-250.1100375965098
 31
0.0
  0
LINE
  5
E3
102
{ACAD_REACTORS
330
1AD
330
1AE
102
}
330
47
100
AcDbEntity
  8
0
  6
Continuous
 62
     2
100
AcDbLine
 10
-203.0051533037887
 20
-250.1100375965098
 30
0.0
 11
-204.2456577140426
 21
-250.1100375965098
 31
0.0
  0
LINE
  5
E4
102
{ACAD_REACTORS
330
1AD
330
1AE
102
}
330
47
100
AcDbEntity
  8
0
  6
Continuous
 62
     2
100
AcDbLine
 10
-205.5895793441922
 20
-249.5690770522919
 30
0.0
 11
-204.4571377675184
 21
-249.5690770522919
 31
0.0
  0
LINE
  5
E5
102
{ACAD_REACTORS
330
1AB
330
1AC
102
}
330
47
100
AcDbEntity
  8
0
  6
Continuous
 62
     2
100
AcDbLine
 10
-209.1990759471032
 20
-247.8414933788223
 30
0.0
 11
-208.3879769096286
 21
-247.8414933788223
 31
0.0
  0
LINE
  5
E6
102
{ACAD_REACTORS
330
1AB
330
1AC
102
}
330
47
100
AcDbEntity
  8
0
  6
Continuous
 62
     2
100
AcDbLine
 10
-206.3840851699896
 20
-247.0562280726987
 30
0.0
 11
-209.1990759471032
 21
-247.0562280726987
 31
0.0
  0
LINE
  5
E7
102
{ACAD_REACTORS
330
1AB
330
1AC
102
}
330
47
100
AcDbEntity
  8
0
  6
Continuous
 62
     2
100
AcDbLine
 10
-206.3840851699896
 20
-247.8414933788223
 30
0.0
 11
-206.3840851699896
 21
-247.0562280726987
 31
0.0
  0
LINE
  5
E8
102
{ACAD_REACTORS
330
1AB
330
1AC
102
}
330
47
100
AcDbEntity
  8
0
  6
Continuous
 62
     2
100
AcDbLine
 10
-207.1951842074621
 20
-247.8414933788223
 30
0.0
 11
-206.3840851699896
 21
-247.8414933788223
 31
0.0
  0
LINE
  5
E9
102
{ACAD_REACTORS
330
1AB
330
1AC
102
}
330
47
100
AcDbEntity
  8
0
  6
Continuous
 62
     2
100
AcDbLine
 10
-207.1951842074621
 20
-250.1100375965098
 30
0.0
 11
-207.1951842074621
 21
-247.8414933788223
 31
0.0
  0
LINE
  5
EA
102
{ACAD_REACTORS
330
1A9
330
1AA
102
}
330
47
100
AcDbEntity
  8
0
  6
Continuous
 62
     2
100
AcDbLine
 10
-206.5270693633641
 20
-246.7508471203355
 30
0.0
 11
-206.5270693633641
 21
-245.4420716101308
 31
0.0
  0
LINE
  5
EB
102
{ACAD_REACTORS
330
1A9
330
1AA
102
}
330
47
100
AcDbEntity
  8
0
  6
Continuous
 62
     2
100
AcDbLine
 10
-207.7198620655306
 20
-243.6970375965243
 30
0.0
 11
-207.7198620655306
 21
-246.7508471203355
 31
0.0
  0
LINE
  5
EC
102
{ACAD_REACTORS
330
1A9
330
1AA
102
}
330
47
100
AcDbEntity
  8
0
  6
Continuous
 62
     2
100
AcDbLine
 10
-206.5270693633641
 20
-243.6970375965243
 30
0.0
 11
-207.7198620655306
 21
-243.6970375965243
 31
0.0
  0
LINE
  5
ED
102
{ACAD_REACTORS
330
1A9
330
1AA
102
}
330
47
100
AcDbEntity
  8
0
  6
Continuous
 62
     2
100
AcDbLine
 10
-205.2865649531101
 20
-243.6970375965243
 30
0.0
 11
-205.2865649531101
 21
-245.0058131067295
 31
0.0
  0
LINE
  5
EE
102
{ACAD_REACTORS
330
1A7
330
1A8
102
}
330
47
100
AcDbEntity
  8
0
  6
Continuous
 62
     2
100
AcDbLine
 10
-212.9683008859503
 20
-247.0562280726987
 30
0.0
 11
-212.9683008859503
 21
-250.1100375965098
 31
0.0
  0
LINE
  5
EF
102
{ACAD_REACTORS
330
1A7
330
1A8
102
}
330
47
100
AcDbEntity
  8
0
  6
Continuous
 62
     2
100
AcDbLine
 10
-211.7755081837827
 20
-247.0562280726987
 30
0.0
 11
-212.9683008859503
 21
-247.0562280726987
 31
0.0
  0
LINE
  5
F0
102
{ACAD_REACTORS
330
1A7
330
1A8
102
}
330
47
100
AcDbEntity
  8
0
  6
Continuous
 62
     2
100
AcDbLine
 10
-210.5350037735298
 20
-250.1100375965098
 30
0.0
 11
-209.3422110713634
 21
-250.1100375965098
 31
0.0
  0
LINE
  5
F1
102
{ACAD_REACTORS
330
1A7
330
1A8
102
}
330
47
100
AcDbEntity
  8
0
  6
Continuous
 62
     2
100
AcDbLine
 10
-212.9683008859503
 20
-250.1100375965098
 30
0.0
 11
-211.7755081837827
 21
-250.1100375965098
 31
0.0
  0
LINE
  5
F2
102
{ACAD_REACTORS
330
1B7
330
1B8
102
}
330
47
100
AcDbEntity
  8
0
  6
Continuous
 62
     2
100
AcDbLine
 10
-209.2943484323912
 20
-244.874935555709
 30
0.0
 11
-209.2943484323912
 21
-244.3950512019673
 31
0.0
  0
LINE
  5
F3
102
{ACAD_REACTORS
330
1B7
330
1B8
102
}
330
47
100
AcDbEntity
  8
0
  6
Continuous
 62
     2
100
AcDbLine
 10
-207.9584206059635
 20
-244.874935555709
 30
0.0
 11
-209.2943484323912
 21
-244.874935555709
 31
0.0
  0
LINE
  5
F4
102
{ACAD_REACTORS
330
1B7
330
1B8
102
}
330
47
100
AcDbEntity
  8
0
  6
Continuous
 62
     2
100
AcDbLine
 10
-207.9584206059635
 20
-245.5729491611513
 30
0.0
 11
-207.9584206059635
 21
-244.874935555709
 31
0.0
  0
LINE
  5
F5
102
{ACAD_REACTORS
330
1B7
330
1B8
102
}
330
47
100
AcDbEntity
  8
0
  6
Continuous
 62
     2
100
AcDbLine
 10
-209.2943484323912
 20
-245.5729491611513
 30
0.0
 11
-207.9584206059635
 21
-245.5729491611513
 31
0.0
  0
LINE
  5
F6
102
{ACAD_REACTORS
330
1A5
330
1A6
102
}
330
47
100
AcDbEntity
  8
0
  6
Continuous
 62
     2
100
AcDbLine
 10
-212.7773031227181
 20
-243.6970375965243
 30
0.0
 11
-212.7773031227181
 21
-246.7508471203355
 31
0.0
  0
LINE
  5
F7
102
{ACAD_REACTORS
330
1A5
330
1A6
102
}
330
47
100
AcDbEntity
  8
0
  6
Continuous
 62
     2
100
AcDbLine
 10
-212.7773031227181
 20
-246.7508471203355
 30
0.0
 11
-213.9700958248845
 21
-246.7508471203355
 31
0.0
  0
LINE
  5
F8
102
{ACAD_REACTORS
330
1A5
330
1A6
102
}
330
47
100
AcDbEntity
  8
0
  6
Continuous
 62
     2
100
AcDbLine
 10
-213.9700958248845
 20
-246.7508471203355
 30
0.0
 11
-213.9700958248845
 21
-245.6165750114917
 31
0.0
  0
LINE
  5
F9
102
{ACAD_REACTORS
330
1A5
330
1A6
102
}
330
47
100
AcDbEntity
  8
0
  6
Continuous
 62
     2
100
AcDbLine
 10
-215.019753402792
 20
-246.7508471203355
 30
0.0
 11
-216.2125461049586
 21
-246.7508471203355
 31
0.0
  0
LINE
  5
FA
102
{ACAD_REACTORS
330
1A5
330
1A6
102
}
330
47
100
AcDbEntity
  8
0
  6
Continuous
 62
     2
100
AcDbLine
 10
-216.2125461049586
 20
-243.6970375965243
 30
0.0
 11
-215.019753402792
 21
-243.6970375965243
 31
0.0
  0
LINE
  5
FB
102
{ACAD_REACTORS
330
1A5
330
1A6
102
}
330
47
100
AcDbEntity
  8
0
  6
Continuous
 62
     2
100
AcDbLine
 10
-215.019753402792
 20
-243.6970375965243
 30
0.0
 11
-215.019753402792
 21
-244.7658709298589
 31
0.0
  0
LINE
  5
FC
102
{ACAD_REACTORS
330
1A5
330
1A6
102
}
330
47
100
AcDbEntity
  8
0
  6
Continuous
 62
     2
100
AcDbLine
 10
-215.019753402792
 20
-244.7658709298589
 30
0.0
 11
-213.9700958248845
 21
-244.7658709298589
 31
0.0
  0
LINE
  5
FD
102
{ACAD_REACTORS
330
1B3
330
1B4
102
}
330
47
100
AcDbEntity
  8
0
  6
Continuous
 62
     2
100
AcDbLine
 10
-218.1687261365122
 20
-244.3601434419644
 30
0.0
 11
-217.8514310749703
 21
-244.3601434419644
 31
0.0
  0
LINE
  5
FE
102
{ACAD_REACTORS
330
1B3
330
1B4
102
}
330
47
100
AcDbEntity
  8
0
  6
Continuous
 62
     2
100
AcDbLine
 10
-218.1687261365122
 20
-245.0658710913066
 30
0.0
 11
-217.8514310749703
 21
-245.0658710913066
 31
0.0
  0
LINE
  5
FF
102
{ACAD_REACTORS
330
1B3
330
1B4
102
}
330
47
100
AcDbEntity
  8
0
  6
Continuous
 62
     2
100
AcDbLine
 10
-219.4092305467663
 20
-243.6970375965243
 30
0.0
 11
-219.4092305467663
 21
-246.7508471203355
 31
0.0
  0
LINE
  5
100
102
{ACAD_REACTORS
330
1B3
330
1B4
102
}
330
47
100
AcDbEntity
  8
0
  6
Continuous
 62
     2
100
AcDbLine
 10
-219.4092305467663
 20
-243.6970375965243
 30
0.0
 11
-217.4099585487319
 21
-243.6970375965243
 31
0.0
  0
LINE
  5
101
102
{ACAD_REACTORS
330
1B3
330
1B4
102
}
330
47
100
AcDbEntity
  8
0
  6
Continuous
 62
     2
100
AcDbLine
 10
-218.1687261365122
 20
-245.8077688791917
 30
0.0
 11
-217.4099585487319
 21
-245.8077688791917
 31
0.0
  0
LINE
  5
102
102
{ACAD_REACTORS
330
1B9
330
1BA
102
}
330
47
100
AcDbEntity
  8
0
  6
Continuous
 62
     2
100
AcDbLine
 10
-225.505726580063
 20
-244.7253100751591
 30
0.0
 11
-225.505726580063
 21
-249.0817651178762
 31
0.0
  0
LINE
  5
103
102
{ACAD_REACTORS
330
1B9
330
1BA
102
}
330
47
100
AcDbEntity
  8
0
  6
Continuous
 62
     2
100
AcDbLine
 10
-225.1900096569873
 20
-244.4095931520829
 30
0.0
 11
-223.7141763959777
 21
-244.4095931520829
 31
0.0
  0
LINE
  5
104
102
{ACAD_REACTORS
330
1B9
330
1BA
102
}
330
47
100
AcDbEntity
  8
0
  6
Continuous
 62
     2
100
AcDbLine
 10
-223.3984594729011
 20
-245.3293346942196
 30
0.0
 11
-223.3984594729011
 21
-244.7253100751591
 31
0.0
  0
LINE
  5
105
102
{ACAD_REACTORS
330
1B9
330
1BA
102
}
330
47
100
AcDbEntity
  8
0
  6
Continuous
 62
     2
100
AcDbLine
 10
-223.3984594729011
 20
-249.0817651178762
 30
0.0
 11
-223.3984594729011
 21
-247.5509941863446
 31
0.0
  0
LINE
  5
106
102
{ACAD_REACTORS
330
1B9
330
1BA
102
}
330
47
100
AcDbEntity
  8
0
  6
Continuous
 62
     2
100
AcDbLine
 10
-220.310592243017
 20
-250.1100375965098
 30
0.0
 11
-225.7839043337338
 21
-250.1100375965098
 31
0.0
  0
LINE
  5
107
102
{ACAD_REACTORS
330
1B9
330
1BA
102
}
330
47
100
AcDbEntity
  8
0
  6
Continuous
 62
     2
100
AcDbLine
 10
-219.8863476276331
 20
-244.1212822119263
 30
0.0
 11
-219.8863476276331
 21
-249.6857929811265
 31
0.0
  0
LINE
  5
108
102
{ACAD_REACTORS
330
1B9
330
1BA
102
}
330
47
100
AcDbEntity
  8
0
  6
Continuous
 62
     2
100
AcDbLine
 10
-225.7839043337338
 20
-243.6970375965425
 30
0.0
 11
-220.310592243017
 21
-243.6970375965425
 31
0.0
  0
LINE
  5
109
102
{ACAD_REACTORS
330
1B9
330
1BA
102
}
330
47
100
AcDbEntity
  8
0
  6
Continuous
 62
     2
100
AcDbLine
 10
-226.2081489491166
 20
-244.1212822119263
 30
0.0
 11
-226.2081489491166
 21
-249.6857929811265
 31
0.0
  0
LINE
  5
10A
102
{ACAD_REACTORS
330
1B9
330
1BA
102
}
330
47
100
AcDbEntity
  8
0
  6
Continuous
 62
     2
100
AcDbLine
 10
-223.7141763959777
 20
-249.3974820409529
 30
0.0
 11
-225.1900096569873
 21
-249.3974820409529
 31
0.0
  0
LINE
  5
10B
102
{ACAD_REACTORS
330
1B3
330
1B4
102
}
330
47
100
AcDbEntity
  8
0
  6
Continuous
 62
     2
100
AcDbLine
 10
-218.1687261365122
 20
-246.7508471203355
 30
0.0
 11
-218.1687261365122
 21
-245.8077688791917
 31
0.0
  0
LINE
  5
10C
102
{ACAD_REACTORS
330
1B3
330
1B4
102
}
330
47
100
AcDbEntity
  8
0
  6
Continuous
 62
     2
100
AcDbLine
 10
-219.4092305467663
 20
-246.7508471203355
 30
0.0
 11
-218.1687261365122
 21
-246.7508471203355
 31
0.0
  0
LINE
  5
10D
102
{ACAD_REACTORS
330
1B3
330
1B4
102
}
330
47
100
AcDbEntity
  8
0
  6
Continuous
 62
     2
100
AcDbLine
 10
-218.1687261365122
 20
-245.0658710913066
 30
0.0
 11
-218.1687261365122
 21
-244.3601434419644
 31
0.0
  0
LINE
  5
10E
102
{ACAD_REACTORS
330
1A5
330
1A6
102
}
330
47
100
AcDbEntity
  8
0
  6
Continuous
 62
     2
100
AcDbLine
 10
-216.2125461049586
 20
-243.6970375965243
 30
0.0
 11
-216.2125461049586
 21
-246.7508471203355
 31
0.0
  0
LINE
  5
10F
102
{ACAD_REACTORS
330
1A5
330
1A6
102
}
330
47
100
AcDbEntity
  8
0
  6
Continuous
 62
     2
100
AcDbLine
 10
-215.019753402792
 20
-245.6165750114917
 30
0.0
 11
-215.019753402792
 21
-246.7508471203355
 31
0.0
  0
LINE
  5
110
102
{ACAD_REACTORS
330
1A5
330
1A6
102
}
330
47
100
AcDbEntity
  8
0
  6
Continuous
 62
     2
100
AcDbLine
 10
-213.9700958248845
 20
-245.6165750114917
 30
0.0
 11
-215.019753402792
 21
-245.6165750114917
 31
0.0
  0
LINE
  5
111
102
{ACAD_REACTORS
330
1A5
330
1A6
102
}
330
47
100
AcDbEntity
  8
0
  6
Continuous
 62
     2
100
AcDbLine
 10
-213.9700958248845
 20
-243.6970375965243
 30
0.0
 11
-212.7773031227181
 21
-243.6970375965243
 31
0.0
  0
LINE
  5
112
102
{ACAD_REACTORS
330
1A5
330
1A6
102
}
330
47
100
AcDbEntity
  8
0
  6
Continuous
 62
     2
100
AcDbLine
 10
-213.9700958248845
 20
-244.7658709298589
 30
0.0
 11
-213.9700958248845
 21
-243.6970375965243
 31
0.0
  0
LINE
  5
113
102
{ACAD_REACTORS
330
1B7
330
1B8
102
}
330
47
100
AcDbEntity
  8
0
  6
Continuous
 62
     2
100
AcDbLine
 10
-207.9584206059635
 20
-244.3950512019673
 30
0.0
 11
-207.9584206059635
 21
-243.6970375965243
 31
0.0
  0
LINE
  5
114
102
{ACAD_REACTORS
330
1B7
330
1B8
102
}
330
47
100
AcDbEntity
  8
0
  6
Continuous
 62
     2
100
AcDbLine
 10
-211.1087403297445
 20
-243.6970375965243
 30
0.0
 11
-207.9584206059635
 21
-243.6970375965243
 31
0.0
  0
LINE
  5
115
102
{ACAD_REACTORS
330
1B7
330
1B8
102
}
330
47
100
AcDbEntity
  8
0
  6
Continuous
 62
     2
100
AcDbLine
 10
-211.1087403297445
 20
-246.7508471203355
 30
0.0
 11
-207.9584206059635
 21
-246.7508471203355
 31
0.0
  0
LINE
  5
116
102
{ACAD_REACTORS
330
1B7
330
1B8
102
}
330
47
100
AcDbEntity
  8
0
  6
Continuous
 62
     2
100
AcDbLine
 10
-207.9584206059635
 20
-246.7508471203355
 30
0.0
 11
-207.9584206059635
 21
-246.052833514893
 31
0.0
  0
LINE
  5
117
102
{ACAD_REACTORS
330
1B7
330
1B8
102
}
330
47
100
AcDbEntity
  8
0
  6
Continuous
 62
     2
100
AcDbLine
 10
-207.9584206059635
 20
-246.052833514893
 30
0.0
 11
-209.2943484323912
 21
-246.052833514893
 31
0.0
  0
LINE
  5
118
102
{ACAD_REACTORS
330
1B7
330
1B8
102
}
330
47
100
AcDbEntity
  8
0
  6
Continuous
 62
     2
100
AcDbLine
 10
-209.2943484323912
 20
-246.052833514893
 30
0.0
 11
-209.2943484323912
 21
-245.5729491611513
 31
0.0
  0
LINE
  5
119
102
{ACAD_REACTORS
330
1B7
330
1B8
102
}
330
47
100
AcDbEntity
  8
0
  6
Continuous
 62
     2
100
AcDbLine
 10
-209.2943484323912
 20
-244.3950512019673
 30
0.0
 11
-207.9584206059635
 21
-244.3950512019673
 31
0.0
  0
LINE
  5
11A
102
{ACAD_REACTORS
330
1A7
330
1A8
102
}
330
47
100
AcDbEntity
  8
0
  6
Continuous
 62
     2
100
AcDbLine
 10
-211.7755081837827
 20
-250.1100375965098
 30
0.0
 11
-211.7755081837827
 21
-248.8012620863052
 31
0.0
  0
LINE
  5
11B
102
{ACAD_REACTORS
330
1A7
330
1A8
102
}
330
47
100
AcDbEntity
  8
0
  6
Continuous
 62
     2
100
AcDbLine
 10
-211.7755081837827
 20
-248.8012620863052
 30
0.0
 11
-210.5350037735298
 21
-250.1100375965098
 31
0.0
  0
LINE
  5
11C
102
{ACAD_REACTORS
330
1A7
330
1A8
102
}
330
47
100
AcDbEntity
  8
0
  6
Continuous
 62
     2
100
AcDbLine
 10
-209.3422110713634
 20
-250.1100375965098
 30
0.0
 11
-209.3422110713634
 21
-247.0562280726987
 31
0.0
  0
LINE
  5
11D
102
{ACAD_REACTORS
330
1A7
330
1A8
102
}
330
47
100
AcDbEntity
  8
0
  6
Continuous
 62
     2
100
AcDbLine
 10
-209.3422110713634
 20
-247.0562280726987
 30
0.0
 11
-210.5350037735298
 21
-247.0562280726987
 31
0.0
  0
LINE
  5
11E
102
{ACAD_REACTORS
330
1A7
330
1A8
102
}
330
47
100
AcDbEntity
  8
0
  6
Continuous
 62
     2
100
AcDbLine
 10
-210.5350037735298
 20
-247.0562280726987
 30
0.0
 11
-210.5350037735298
 21
-248.3650035829038
 31
0.0
  0
LINE
  5
11F
102
{ACAD_REACTORS
330
1A7
330
1A8
102
}
330
47
100
AcDbEntity
  8
0
  6
Continuous
 62
     2
100
AcDbLine
 10
-210.5350037735298
 20
-248.3650035829038
 30
0.0
 11
-211.7755081837827
 21
-247.0562280726987
 31
0.0
  0
LINE
  5
120
102
{ACAD_REACTORS
330
1A9
330
1AA
102
}
330
47
100
AcDbEntity
  8
0
  6
Continuous
 62
     2
100
AcDbLine
 10
-206.5270693633641
 20
-245.4420716101308
 30
0.0
 11
-205.2865649531101
 21
-246.7508471203355
 31
0.0
  0
LINE
  5
121
102
{ACAD_REACTORS
330
1A9
330
1AA
102
}
330
47
100
AcDbEntity
  8
0
  6
Continuous
 62
     2
100
AcDbLine
 10
-205.2865649531101
 20
-246.7508471203355
 30
0.0
 11
-204.0937722509435
 21
-246.7508471203355
 31
0.0
  0
LINE
  5
122
102
{ACAD_REACTORS
330
1A9
330
1AA
102
}
330
47
100
AcDbEntity
  8
0
  6
Continuous
 62
     2
100
AcDbLine
 10
-204.0937722509435
 20
-246.7508471203355
 30
0.0
 11
-204.0937722509435
 21
-243.6970375965243
 31
0.0
  0
LINE
  5
123
102
{ACAD_REACTORS
330
1A9
330
1AA
102
}
330
47
100
AcDbEntity
  8
0
  6
Continuous
 62
     2
100
AcDbLine
 10
-204.0937722509435
 20
-243.6970375965243
 30
0.0
 11
-205.2865649531101
 21
-243.6970375965243
 31
0.0
  0
LINE
  5
124
102
{ACAD_REACTORS
330
1A9
330
1AA
102
}
330
47
100
AcDbEntity
  8
0
  6
Continuous
 62
     2
100
AcDbLine
 10
-205.2865649531101
 20
-245.0058131067295
 30
0.0
 11
-206.5270693633641
 21
-243.6970375965243
 31
0.0
  0
LINE
  5
125
102
{ACAD_REACTORS
330
1A9
330
1AA
102
}
330
47
100
AcDbEntity
  8
0
  6
Continuous
 62
     2
100
AcDbLine
 10
-207.7198620655306
 20
-246.7508471203355
 30
0.0
 11
-206.5270693633641
 21
-246.7508471203355
 31
0.0
  0
LINE
  5
126
102
{ACAD_REACTORS
330
1AB
330
1AC
102
}
330
47
100
AcDbEntity
  8
0
  6
Continuous
 62
     2
100
AcDbLine
 10
-209.1990759471032
 20
-247.0562280726987
 30
0.0
 11
-209.1990759471032
 21
-247.8414933788223
 31
0.0
  0
LINE
  5
127
102
{ACAD_REACTORS
330
1AB
330
1AC
102
}
330
47
100
AcDbEntity
  8
0
  6
Continuous
 62
     2
100
AcDbLine
 10
-208.3879769096286
 20
-247.8414933788223
 30
0.0
 11
-208.3879769096286
 21
-250.1100375965098
 31
0.0
  0
LINE
  5
128
102
{ACAD_REACTORS
330
1AB
330
1AC
102
}
330
47
100
AcDbEntity
  8
0
  6
Continuous
 62
     2
100
AcDbLine
 10
-208.3879769096286
 20
-250.1100375965098
 30
0.0
 11
-207.1951842074621
 21
-250.1100375965098
 31
0.0
  0
LINE
  5
129
102
{ACAD_REACTORS
330
1AD
330
1AE
102
}
330
47
100
AcDbEntity
  8
0
  6
Continuous
 62
     2
100
AcDbLine
 10
-204.2456577140426
 20
-250.1100375965098
 30
0.0
 11
-204.4571377675184
 21
-249.5690770522919
 31
0.0
  0
LINE
  5
12A
102
{ACAD_REACTORS
330
1AD
330
1AE
102
}
330
47
100
AcDbEntity
  8
0
  6
Continuous
 62
     2
100
AcDbLine
 10
-204.403106350729
 20
-247.0562280726987
 30
0.0
 11
-203.0051533037887
 21
-250.1100375965098
 31
0.0
  0
LINE
  5
12B
102
{ACAD_REACTORS
330
1AD
330
1AE
102
}
330
47
100
AcDbEntity
  8
0
  6
Continuous
 62
     2
100
AcDbLine
 10
-205.6436107609817
 20
-247.0562280726987
 30
0.0
 11
-204.403106350729
 21
-247.0562280726987
 31
0.0
  0
LINE
  5
12C
102
{ACAD_REACTORS
330
1AD
330
1AE
102
}
330
47
100
AcDbEntity
  8
0
  6
Continuous
 62
     2
100
AcDbLine
 10
-207.041563807921
 20
-250.1100375965098
 30
0.0
 11
-205.801059397668
 21
-250.1100375965098
 31
0.0
  0
LINE
  5
12D
102
{ACAD_REACTORS
330
1AD
330
1AE
102
}
330
47
100
AcDbEntity
  8
0
  6
Continuous
 62
     2
100
AcDbLine
 10
-205.3235237930472
 20
-248.8885137869853
 30
0.0
 11
-204.7231933186647
 21
-248.8885137869853
 31
0.0
  0
LINE
  5
12E
102
{ACAD_REACTORS
330
1AD
330
1AE
102
}
330
47
100
AcDbEntity
  8
0
  6
Continuous
 62
     2
100
AcDbLine
 10
-204.7231933186647
 20
-248.8885137869853
 30
0.0
 11
-205.0233585558548
 21
-248.1206988209986
 31
0.0
  0
LINE
  5
12F
102
{ACAD_REACTORS
330
1AF
330
1B0
102
}
330
47
100
AcDbEntity
  8
0
  6
Continuous
 62
     2
100
AcDbLine
 10
-202.6147093002567
 20
-246.7508471203355
 30
0.0
 11
-203.8552137105096
 21
-246.7508471203355
 31
0.0
  0
LINE
  5
130
102
{ACAD_REACTORS
330
1B1
330
1B2
102
}
330
47
100
AcDbEntity
  8
0
  6
Continuous
 62
     2
100
AcDbLine
 10
-201.0927058122916
 20
-246.7508471203355
 30
0.0
 11
-202.4954300300398
 21
-246.7508471203355
 31
0.0
  0
LINE
  5
131
102
{ACAD_REACTORS
330
1B1
330
1B2
102
}
330
47
100
AcDbEntity
  8
0
  6
Continuous
 62
     2
100
AcDbLine
 10
-201.0927058122916
 20
-246.7508471203355
 30
0.0
 11
-200.3961148742259
 21
-245.9631153350418
 31
0.0
  0
LINE
  5
132
102
{ACAD_REACTORS
330
1B1
330
1B2
102
}
330
47
100
AcDbEntity
  8
0
  6
Continuous
 62
     2
100
AcDbLine
 10
-199.7949473523331
 20
-243.6970375965243
 30
0.0
 11
-198.3922231345859
 21
-243.6970375965243
 31
0.0
  0
LINE
  5
133
102
{ACAD_REACTORS
330
1B1
330
1B2
102
}
330
47
100
AcDbEntity
  8
0
  6
Continuous
 62
     2
100
AcDbLine
 10
-202.400006613867
 20
-243.6970375965243
 30
0.0
 11
-201.0974769830995
 21
-245.1699881265605
 31
0.0
  0
LINE
  5
134
102
{ACAD_REACTORS
330
1B1
330
1B2
102
}
330
47
100
AcDbEntity
  8
0
  6
Continuous
 62
     2
100
AcDbLine
 10
-202.4954300300398
 20
-246.7508471203355
 30
0.0
 11
-201.0974769830995
 21
-245.1699881265605
 31
0.0
  0
LINE
  5
135
102
{ACAD_REACTORS
330
1BB
330
1BC
102
}
330
47
100
AcDbEntity
  8
0
  6
Continuous
 62
     2
100
AcDbLine
 10
-200.6346734146599
 20
-249.0630171883462
 30
0.0
 11
-200.6346734146599
 21
-249.9355341951495
 31
0.0
  0
LINE
  5
136
102
{ACAD_REACTORS
330
1BB
330
1BC
102
}
330
47
100
AcDbEntity
  8
0
  6
Continuous
 62
     2
100
AcDbLine
 10
-201.4043307576213
 20
-247.8414933788223
 30
0.0
 11
-200.3006914580532
 21
-247.8414933788223
 31
0.0
  0
LINE
  5
137
102
{ACAD_REACTORS
330
1BD
330
1BE
102
}
330
47
100
AcDbEntity
  8
0
  6
Continuous
 62
     2
100
AcDbLine
 10
-216.7373748939118
 20
-249.0630171883457
 30
0.0
 11
-216.7373748939118
 21
-249.9355341951489
 31
0.0
  0
LINE
  5
138
102
{ACAD_REACTORS
330
1BD
330
1BE
102
}
330
47
100
AcDbEntity
  8
0
  6
Continuous
 62
     2
100
AcDbLine
 10
-216.7373748939118
 20
-248.1032484808628
 30
0.0
 11
-216.7373748939118
 21
-247.2307314740595
 31
0.0
  0
LINE
  5
139
330
47
100
AcDbEntity
  8
1
  6
Continuous
 62
     7
100
AcDbLine
 10
-100.8999993089279
 20
-248.9035375965261
 30
0.0
 11
-194.0448038356793
 21
-248.9035375965261
 31
0.0
  0
LINE
  5
13A
330
47
100
AcDbEntity
  8
1
  6
Continuous
 62
     6
100
AcDbLine
 10
-299.4448038356792
 20
-257.4035375965261
 30
0.0
 11
-344.3999993089292
 21
-257.4035375965261
 31
0.0
  0
LINE
  5
13B
330
47
100
AcDbEntity
  8
1
  6
Continuous
 62
     7
100
AcDbLine
 10
-109.8184075906067
 20
-231.9035375965261
 30
0.0
 11
-109.8184075906067
 21
-240.4035375965261
 31
0.0
  0
LINE
  5
13C
330
47
100
AcDbEntity
  8
1
  6
Continuous
 62
     7
100
AcDbLine
 10
-136.3184075906063
 20
-231.9035375965261
 30
0.0
 11
-136.3184075906063
 21
-240.4035375965261
 31
0.0
  0
LINE
  5
13D
330
47
100
AcDbEntity
  8
1
  6
Continuous
 62
     7
100
AcDbLine
 10
-194.0448038356793
 20
-240.4035375965261
 30
0.0
 11
-194.0448038356793
 21
-231.9035375965261
 31
0.0
  0
LINE
  5
13E
330
47
100
AcDbEntity
  8
1
  6
Continuous
 62
     7
100
AcDbLine
 10
-230.4448038356792
 20
-240.4035375965261
 30
0.0
 11
-230.4448038356792
 21
-231.9035375965261
 31
0.0
  0
LINE
  5
13F
330
47
100
AcDbEntity
  8
1
  6
Continuous
 62
     6
100
AcDbLine
 10
-194.0448038356793
 20
-240.4035375965261
 30
0.0
 11
-100.8999993089275
 21
-240.4035375965261
 31
0.0
  0
LINE
  5
140
330
47
100
AcDbEntity
  8
1
  6
Continuous
 62
     7
100
AcDbLine
 10
-166.1448038356792
 20
-248.9035375965262
 30
0.0
 11
-166.1448038356792
 21
-240.4035375965261
 31
0.0
  0
LINE
  5
141
330
47
100
AcDbEntity
  8
1
  6
PHANTOM
 62
     2
100
AcDbLine
 10
-214.9581489491166
 20
-236.2785375965262
 30
0.0
 11
-220.4581489491166
 21
-236.2785375965262
 31
0.0
  0
LINE
  5
142
330
47
100
AcDbEntity
  8
1
  6
PHANTOM
 62
     2
100
AcDbLine
 10
-217.7081489491166
 20
-233.5285375965262
 30
0.0
 11
-217.7081489491166
 21
-239.0285375965262
 31
0.0
  0
LINE
  5
143
330
47
100
AcDbEntity
  8
1
  6
DOT_CENTER
 62
     2
100
AcDbLine
 10
-226.4581489491166
 20
-236.2785375965262
 30
0.0
 11
-220.9581489491166
 21
-236.2785375965262
 31
0.0
  0
ARC
  5
144
102
{ACAD_REACTORS
330
1BD
330
1BE
102
}
330
47
100
AcDbEntity
  8
0
  6
Continuous
 62
     2
100
AcDbCircle
 10
-218.0733028110296
 20
-251.8958137798604
 30
0.0
 40
4.852596863498068
100
AcDbArc
 50
74.02000874164739
 51
84.84185523037506
  0
ARC
  5
145
102
{ACAD_REACTORS
330
1BD
330
1BE
102
}
330
47
100
AcDbEntity
  8
0
  6
Continuous
 62
     2
100
AcDbCircle
 10
-217.4972622022759
 20
-248.7400534239761
 30
0.0
 40
0.9059297849853228
100
AcDbArc
 50
71.55192388185348
 51
113.372277888129
  0
ARC
  5
146
102
{ACAD_REACTORS
330
1BD
330
1BE
102
}
330
47
100
AcDbEntity
  8
0
  6
Continuous
 62
     2
100
AcDbCircle
 10
-217.6537022349779
 20
-248.788204263943
 30
0.0
 40
0.5115800601948034
100
AcDbArc
 50
208.5214732576956
 51
246.6277221118274
  0
ARC
  5
147
102
{ACAD_REACTORS
330
1BD
330
1BE
102
}
330
47
100
AcDbEntity
  8
0
  6
Continuous
 62
     2
100
AcDbCircle
 10
-217.4972622022759
 20
-248.426212245233
 30
0.0
 40
0.9059297849849192
100
AcDbArc
 50
246.627722111871
 51
288.4480761181579
  0
ARC
  5
148
102
{ACAD_REACTORS
330
1BD
330
1BE
102
}
330
47
100
AcDbEntity
  8
0
  6
Continuous
 62
     2
100
AcDbCircle
 10
-217.9154299359367
 20
-247.1726664691958
 30
0.0
 40
2.227384008972764
100
AcDbArc
 50
288.4480761181326
 51
301.9309089499593
  0
ARC
  5
149
102
{ACAD_REACTORS
330
1B9
330
1BA
102
}
330
47
100
AcDbEntity
  8
0
  6
Continuous
 62
     2
100
AcDbCircle
 10
-223.1405036685435
 20
-246.4401644402818
 30
0.0
 40
0.9118481501444847
100
AcDbArc
 50
295.3740086781757
 51
64.62599132180748
  0
ARC
  5
14A
102
{ACAD_REACTORS
330
1B9
330
1BA
102
}
330
47
100
AcDbEntity
  8
0
  6
Continuous
 62
     2
100
AcDbCircle
 10
-222.6144609704556
 20
-244.7254875518072
 30
0.0
 40
0.3157169230760427
100
AcDbArc
 50
90.18896704254595
 51
180.0
  0
ARC
  5
14B
102
{ACAD_REACTORS
330
1BB
330
1BC
102
}
330
47
100
AcDbEntity
  8
0
  6
Continuous
 62
     2
100
AcDbCircle
 10
-201.4043307576213
 20
-248.7960163856484
 30
0.0
 40
0.9545230068260935
100
AcDbArc
 50
90.0
 51
109.337143219432
  0
ARC
  5
14C
102
{ACAD_REACTORS
330
1BB
330
1BC
102
}
330
47
100
AcDbEntity
  8
0
  6
Continuous
 62
     2
100
AcDbCircle
 10
-201.1736434976436
 20
-248.5831328346045
 30
0.0
 40
0.9410597353348924
100
AcDbArc
 50
151.4785267423624
 51
208.5214732576695
  0
ARC
  5
14D
102
{ACAD_REACTORS
330
1BB
330
1BC
102
}
330
47
100
AcDbEntity
  8
0
  6
Continuous
 62
     2
100
AcDbCircle
 10
-201.3945607230219
 20
-248.426212245233
 30
0.0
 40
0.9059297849852801
100
AcDbArc
 50
246.6277221118183
 51
288.4480761180811
  0
ARC
  5
14E
102
{ACAD_REACTORS
330
1BB
330
1BC
102
}
330
47
100
AcDbEntity
  8
0
  6
Continuous
 62
     2
100
AcDbCircle
 10
-201.8127284566838
 20
-247.1726664691964
 30
0.0
 40
2.227384008972773
100
AcDbArc
 50
288.4480761181333
 51
301.9309089499394
  0
ARC
  5
14F
102
{ACAD_REACTORS
330
1BB
330
1BC
102
}
330
47
100
AcDbEntity
  8
0
  6
Continuous
 62
     2
100
AcDbCircle
 10
-201.9706013317766
 20
-245.2704518893481
 30
0.0
 40
4.852596863498853
100
AcDbArc
 50
275.1581447696363
 51
285.9799912583387
  0
ARC
  5
150
102
{ACAD_REACTORS
330
1BB
330
1BC
102
}
330
47
100
AcDbEntity
  8
0
  6
Continuous
 62
     2
100
AcDbCircle
 10
-201.6817452370408
 20
-248.4703424725697
 30
0.0
 40
1.639695123940441
100
AcDbArc
 50
195.0618917771002
 51
275.1581447696762
  0
ARC
  5
151
102
{ACAD_REACTORS
330
1B3
330
1B4
102
}
330
47
100
AcDbEntity
  8
0
  6
Continuous
 62
     2
100
AcDbCircle
 10
-217.4099585487319
 20
-244.752403237858
 30
0.0
 40
1.055365641333708
100
AcDbArc
 50
270.0
 51
90.0
  0
ARC
  5
152
102
{ACAD_REACTORS
330
1B9
330
1BA
102
}
330
47
100
AcDbEntity
  8
0
  6
Continuous
 62
     2
100
AcDbCircle
 10
-225.1900096569873
 20
-249.0817651178762
 30
0.0
 40
0.3157169230756836
100
AcDbArc
 50
180.0
 51
270.0
  0
ARC
  5
153
102
{ACAD_REACTORS
330
1B9
330
1BA
102
}
330
47
100
AcDbEntity
  8
0
  6
Continuous
 62
     2
100
AcDbCircle
 10
-223.7141763959777
 20
-244.7253100751591
 30
0.0
 40
0.315716923076593
100
AcDbArc
 50
0.0
 51
90.0
  0
ARC
  5
154
102
{ACAD_REACTORS
330
1B9
330
1BA
102
}
330
47
100
AcDbEntity
  8
0
  6
Continuous
 62
     2
100
AcDbCircle
 10
-223.7141763959777
 20
-245.3293346942196
 30
0.0
 40
0.315716923076146
100
AcDbArc
 50
295.1944106485375
 51
0.0
  0
ARC
  5
155
102
{ACAD_REACTORS
330
1B9
330
1BA
102
}
330
47
100
AcDbEntity
  8
0
  6
Continuous
 62
     2
100
AcDbCircle
 10
-223.7141763959777
 20
-249.0817651178762
 30
0.0
 40
0.3157169230767067
100
AcDbArc
 50
270.0
 51
0.0
  0
ARC
  5
156
102
{ACAD_REACTORS
330
1B9
330
1BA
102
}
330
47
100
AcDbEntity
  8
0
  6
Continuous
 62
     2
100
AcDbCircle
 10
-225.7839043337338
 20
-244.1212822119263
 30
0.0
 40
0.4242446153838273
100
AcDbArc
 50
90.0
 51
180.0
  0
ARC
  5
157
102
{ACAD_REACTORS
330
1B9
330
1BA
102
}
330
47
100
AcDbEntity
  8
0
  6
Continuous
 62
     2
100
AcDbCircle
 10
-220.310592243017
 20
-244.1212822119263
 30
0.0
 40
0.4242446153838841
100
AcDbArc
 50
0.0
 51
90.0
  0
ARC
  5
158
102
{ACAD_REACTORS
330
1B9
330
1BA
102
}
330
47
100
AcDbEntity
  8
0
  6
Continuous
 62
     2
100
AcDbCircle
 10
-220.310592243017
 20
-249.6857929811265
 30
0.0
 40
0.4242446153833157
100
AcDbArc
 50
270.0
 51
0.0
  0
ARC
  5
159
102
{ACAD_REACTORS
330
1B7
330
1B8
102
}
330
47
100
AcDbEntity
  8
0
  6
Continuous
 62
     2
100
AcDbCircle
 10
-211.0922083559255
 20
-245.2239423584302
 30
0.0
 40
0.7717997786796198
100
AcDbArc
 50
321.8795802028454
 51
38.12041979716123
  0
ARC
  5
15A
102
{ACAD_REACTORS
330
1B7
330
1B8
102
}
330
47
100
AcDbEntity
  8
0
  6
Continuous
 62
     2
100
AcDbCircle
 10
-210.8924683195793
 20
-245.3806735365506
 30
0.0
 40
0.5179085730134372
100
AcDbArc
 50
218.1204197971511
 51
321.8795802028566
  0
ARC
  5
15B
102
{ACAD_REACTORS
330
1B5
330
1B6
102
}
330
47
100
AcDbEntity
  8
0
  6
Continuous
 62
     2
100
AcDbCircle
 10
-214.5724759085395
 20
-248.5831328346045
 30
0.0
 40
1.458034083652003
100
AcDbArc
 50
297.548148175701
 51
62.45185182429896
  0
ARC
  5
15C
102
{ACAD_REACTORS
330
1B5
330
1B6
102
}
330
47
100
AcDbEntity
  8
0
  6
Continuous
 62
     2
100
AcDbCircle
 10
-215.1343556922061
 20
-248.5831328346045
 30
0.0
 40
1.45803408365149
100
AcDbArc
 50
117.5481481756624
 51
242.4518518243375
  0
ARC
  5
15D
102
{ACAD_REACTORS
330
1B5
330
1B6
102
}
330
47
100
AcDbEntity
  8
0
  6
Continuous
 62
     2
100
AcDbCircle
 10
-214.8534158003728
 20
-249.1217078449073
 30
0.0
 40
2.065479772208568
100
AcDbArc
 50
62.45185182430637
 51
117.5481481756664
  0
ARC
  5
15E
102
{ACAD_REACTORS
330
1B5
330
1B6
102
}
330
47
100
AcDbEntity
  8
0
  6
Continuous
 62
     2
100
AcDbCircle
 10
-214.8534158003728
 20
-248.0445578243012
 30
0.0
 40
2.065479772208509
100
AcDbArc
 50
242.4518518243402
 51
297.5481481756871
  0
ARC
  5
15F
102
{ACAD_REACTORS
330
1B7
330
1B8
102
}
330
47
100
AcDbEntity
  8
0
  6
Continuous
 62
     2
100
AcDbCircle
 10
-210.692728283233
 20
-245.2239423584302
 30
0.0
 40
0.77179977867969
100
AcDbArc
 50
141.8795802028388
 51
218.1204197971546
  0
ARC
  5
160
102
{ACAD_REACTORS
330
1B7
330
1B8
102
}
330
47
100
AcDbEntity
  8
0
  6
Continuous
 62
     2
100
AcDbCircle
 10
-210.8924683195793
 20
-245.0672111803097
 30
0.0
 40
0.5179085730135266
100
AcDbArc
 50
38.12041979714334
 51
141.8795802028489
  0
ARC
  5
161
102
{ACAD_REACTORS
330
1B9
330
1BA
102
}
330
47
100
AcDbEntity
  8
0
  6
Continuous
 62
     2
100
AcDbCircle
 10
-225.7839043337338
 20
-249.6857929811265
 30
0.0
 40
0.4242446153828041
100
AcDbArc
 50
180.0
 51
270.0
  0
ARC
  5
162
102
{ACAD_REACTORS
330
1B9
330
1BA
102
}
330
47
100
AcDbEntity
  8
0
  6
Continuous
 62
     2
100
AcDbCircle
 10
-223.7141763959777
 20
-247.5509941863446
 30
0.0
 40
0.315716923076593
100
AcDbArc
 50
0.0
 51
64.80558935146249
  0
ARC
  5
163
102
{ACAD_REACTORS
330
1B9
330
1BA
102
}
330
47
100
AcDbEntity
  8
0
  6
Continuous
 62
     2
100
AcDbCircle
 10
-223.1915919484027
 20
-246.4401644402818
 30
0.0
 40
0.9118975235575889
100
AcDbArc
 50
115.194410648529
 51
244.8055893514878
  0
ARC
  5
164
102
{ACAD_REACTORS
330
1B9
330
1BA
102
}
330
47
100
AcDbEntity
  8
0
  6
Continuous
 62
     2
100
AcDbCircle
 10
-225.1900096569873
 20
-244.7253100751591
 30
0.0
 40
0.3157169230761951
100
AcDbArc
 50
90.0
 51
180.0
  0
ARC
  5
165
102
{ACAD_REACTORS
330
1B3
330
1B4
102
}
330
47
100
AcDbEntity
  8
0
  6
Continuous
 62
     2
100
AcDbCircle
 10
-217.8514310749703
 20
-244.7130072666355
 30
0.0
 40
0.3528638246711182
100
AcDbArc
 50
270.0
 51
90.0
  0
ARC
  5
166
102
{ACAD_REACTORS
330
1B7
330
1B8
102
}
330
47
100
AcDbEntity
  8
0
  6
Continuous
 62
     2
100
AcDbCircle
 10
-211.1087403297445
 20
-245.2239423584302
 30
0.0
 40
1.526904761905911
100
AcDbArc
 50
90.0
 51
270.0
  0
ARC
  5
167
102
{ACAD_REACTORS
330
1BB
330
1BC
102
}
330
47
100
AcDbEntity
  8
0
  6
Continuous
 62
     2
100
AcDbCircle
 10
-201.6817452370408
 20
-248.6959231966394
 30
0.0
 40
1.639695123940186
100
AcDbArc
 50
90.0
 51
164.9381082228959
  0
ARC
  5
168
102
{ACAD_REACTORS
330
1BB
330
1BC
102
}
330
47
100
AcDbEntity
  8
0
  6
Continuous
 62
     2
100
AcDbCircle
 10
-202.1008730805024
 20
-248.5831328346045
 30
0.0
 40
1.205656168392995
100
AcDbArc
 50
164.9381082229041
 51
195.0618917770959
  0
ARC
  5
169
102
{ACAD_REACTORS
330
1BB
330
1BC
102
}
330
47
100
AcDbEntity
  8
0
  6
Continuous
 62
     2
100
AcDbCircle
 10
-201.551000755725
 20
-248.788204263943
 30
0.0
 40
0.5115800601960215
100
AcDbArc
 50
208.5214732576866
 51
246.6277221118449
  0
ARC
  5
16A
102
{ACAD_REACTORS
330
1BB
330
1BC
102
}
330
47
100
AcDbEntity
  8
0
  6
Continuous
 62
     2
100
AcDbCircle
 10
-201.551000755725
 20
-248.3780614052655
 30
0.0
 40
0.5115800601944143
100
AcDbArc
 50
109.3371432194853
 51
151.4785267424225
  0
ARC
  5
16B
102
{ACAD_REACTORS
330
1B9
330
1BA
102
}
330
47
100
AcDbEntity
  8
0
  6
Continuous
 62
     2
100
AcDbCircle
 10
-222.6144609704556
 20
-248.1311574469453
 30
0.0
 40
0.315716923076792
100
AcDbArc
 50
180.0
 51
269.8110329574541
  0
ARC
  5
16C
102
{ACAD_REACTORS
330
1B9
330
1BA
102
}
330
47
100
AcDbEntity
  8
0
  6
Continuous
 62
     2
100
AcDbCircle
 10
-222.6088448351456
 20
-246.4283224993763
 30
0.0
 40
2.018561131933266
100
AcDbArc
 50
269.8110329575858
 51
90.18896704241416
  0
ARC
  5
16D
102
{ACAD_REACTORS
330
1B9
330
1BA
102
}
330
47
100
AcDbEntity
  8
0
  6
Continuous
 62
     2
100
AcDbCircle
 10
-222.6144609704556
 20
-245.331022840314
 30
0.0
 40
0.315716923076792
100
AcDbArc
 50
180.0
 51
244.6259913216459
  0
ARC
  5
16E
102
{ACAD_REACTORS
330
1B9
330
1BA
102
}
330
47
100
AcDbEntity
  8
0
  6
Continuous
 62
     2
100
AcDbCircle
 10
-222.6144609704556
 20
-247.5493060402502
 30
0.0
 40
0.3157169230765071
100
AcDbArc
 50
115.3740086783541
 51
180.0
  0
ARC
  5
16F
102
{ACAD_REACTORS
330
1BD
330
1BE
102
}
330
47
100
AcDbEntity
  8
0
  6
Continuous
 62
     2
100
AcDbCircle
 10
-217.7844467162937
 20
-248.6959231966394
 30
0.0
 40
1.639695123940507
100
AcDbArc
 50
84.84185523036236
 51
164.9381082228874
  0
ARC
  5
170
102
{ACAD_REACTORS
330
1BD
330
1BE
102
}
330
47
100
AcDbEntity
  8
0
  6
Continuous
 62
     2
100
AcDbCircle
 10
-218.2035745597565
 20
-248.5831328346045
 30
0.0
 40
1.205656168390937
100
AcDbArc
 50
164.9381082228778
 51
195.0618917770948
  0
ARC
  5
171
102
{ACAD_REACTORS
330
1BD
330
1BE
102
}
330
47
100
AcDbEntity
  8
0
  6
Continuous
 62
     2
100
AcDbCircle
 10
-217.7844467162937
 20
-248.4703424725697
 30
0.0
 40
1.63969512393938
100
AcDbArc
 50
195.0618917770886
 51
275.1581447696396
  0
ARC
  5
172
102
{ACAD_REACTORS
330
1BD
330
1BE
102
}
330
47
100
AcDbEntity
  8
0
  6
Continuous
 62
     2
100
AcDbCircle
 10
-218.0733028110296
 20
-245.2704518893481
 30
0.0
 40
4.852596863498138
100
AcDbArc
 50
275.1581447696249
 51
285.9799912583529
  0
ARC
  5
173
102
{ACAD_REACTORS
330
1BD
330
1BE
102
}
330
47
100
AcDbEntity
  8
0
  6
Continuous
 62
     2
100
AcDbCircle
 10
-217.2763449768976
 20
-248.5831328346045
 30
0.0
 40
0.9410597353332545
100
AcDbArc
 50
151.4785267422669
 51
208.5214732577057
  0
ARC
  5
174
102
{ACAD_REACTORS
330
1BD
330
1BE
102
}
330
47
100
AcDbEntity
  8
0
  6
Continuous
 62
     2
100
AcDbCircle
 10
-217.6537022349779
 20
-248.3780614052655
 30
0.0
 40
0.5115800601948779
100
AcDbArc
 50
113.3722778881992
 51
151.4785267423044
  0
ARC
  5
175
102
{ACAD_REACTORS
330
1BD
330
1BE
102
}
330
47
100
AcDbEntity
  8
0
  6
Continuous
 62
     2
100
AcDbCircle
 10
-217.9154299359367
 20
-249.9935992000127
 30
0.0
 40
2.227384008973501
100
AcDbArc
 50
58.06909105004111
 51
71.55192388186745
  0
ARC
  5
176
102
{ACAD_REACTORS
330
1B5
330
1B6
102
}
330
47
100
AcDbEntity
  8
0
  6
Continuous
 62
     2
100
AcDbCircle
 10
-214.8534158003728
 20
-248.426401656484
 30
0.0
 40
0.5179085730132998
100
AcDbArc
 50
38.12041979714704
 51
141.8795802028588
  0
ARC
  5
177
102
{ACAD_REACTORS
330
1B5
330
1B6
102
}
330
47
100
AcDbEntity
  8
0
  6
Continuous
 62
     2
100
AcDbCircle
 10
-214.6536757640267
 20
-248.5831328346045
 30
0.0
 40
0.7717997786794633
100
AcDbArc
 50
141.8795802028363
 51
218.1204197971703
  0
ARC
  5
178
102
{ACAD_REACTORS
330
1B5
330
1B6
102
}
330
47
100
AcDbEntity
  8
0
  6
Continuous
 62
     2
100
AcDbCircle
 10
-214.8534158003728
 20
-248.7398640127245
 30
0.0
 40
0.5179085730137529
100
AcDbArc
 50
218.1204197971956
 51
321.8795802027985
  0
ARC
  5
179
102
{ACAD_REACTORS
330
1B5
330
1B6
102
}
330
47
100
AcDbEntity
  8
0
  6
Continuous
 62
     2
100
AcDbCircle
 10
-215.0531558367192
 20
-248.5831328346045
 30
0.0
 40
0.7717997786797123
100
AcDbArc
 50
321.8795802028401
 51
38.12041979715329
  0
CIRCLE
  5
17A
330
47
100
AcDbEntity
  8
1
  6
Continuous
 62
     2
100
AcDbCircle
 10
-217.7081489491166
 20
-236.2785375965262
 30
0.0
 40
2.5
  0
CIRCLE
  5
17B
330
47
100
AcDbEntity
  8
1
  6
Continuous
 62
     2
100
AcDbCircle
 10
-217.7081489491166
 20
-236.2785375965262
 30
0.0
 40
1.249999999999915
  0
CIRCLE
  5
17C
102
{ACAD_REACTORS
330
1B9
330
1BA
102
}
330
47
100
AcDbEntity
  8
0
  6
Continuous
 62
     2
100
AcDbCircle
 10
-223.1643186832163
 20
-246.4401644402818
 30
0.0
 40
0.4709789327785074
  0
MTEXT
  5
17E
330
47
100
AcDbEntity
  8
1
 62
     3
100
AcDbMText
 10
-387.8949315228574
 20
-70.61222944122727
 30
0.0
 40
1.8
 41
0.0
 71
     7
 72
     1
  3
Weitergabe sowie Vervielf\U+00e4ltigung dieses Dokuments, Verwertung und \PMitteilung seines Inhalts sind verboten, soweit nicht ausdr\U+00fccklich gestattet. \PZuwiderhandlungen verpflichten zu Schadenersatz. Alle Rechte f\U+00fcr den Fall\Pder Pat
  1
ent-, Gebrauchsmuster- oder Designeintragung vorbehalten.
  7
CONVERTER_11
 73
     1
 44
0.99639855942377
  0
MTEXT
  5
17F
330
47
100
AcDbEntity
  8
1
 62
     3
100
AcDbMText
 10
-205.0418216840693
 20
-70.61222944122727
 30
0.0
 40
1.8
 41
0.0
 71
     7
 72
     1
  3
Transfer or duplication of this document as well as the utilisation or\Pcommunication of its content are not permitted unless express consent\Pis granted. Violations give rise to claims for damages. All rights reserved\Pin case of patent, utility mo
  1
del or design patent registrations.
  7
CONVERTER_11
 73
     1
 44
0.99639855942377
  0
TEXT
  5
180
330
47
100
AcDbEntity
  8
1
 62
     2
100
AcDbText
 10
-211.2448038356794
 20
-256.1625548115177
 30
0.0
 40
1.8
  1
of
 41
0.9
  7
CONVERTER_11
100
AcDbText
  0
TEXT
  5
181
330
47
100
AcDbEntity
  8
1
 62
     2
100
AcDbText
 10
-229.4448038356792
 20
-256.1625548115177
 30
0.0
 40
1.8
  1
page
 41
0.9
  7
CONVERTER_11
100
AcDbText
  0
TEXT
  5
182
330
47
100
AcDbEntity
  8
1
 62
     2
100
AcDbText
 10
-220.7985388653372
 20
-256.2027862503281
 30
0.0
 40
1.8
  1
1
 41
0.9
  7
CONVERTER_11
100
AcDbText
  0
TEXT
  5
183
330
47
100
AcDbEntity
  8
1
 62
     2
100
AcDbText
 10
-206.0094950258657
 20
-256.1535375965262
 30
0.0
 40
1.8
  1
1
 41
0.9
  7
CONVERTER_11
100
AcDbText
  0
MTEXT
  5
185
330
47
100
AcDbEntity
  8
1
 62
     7
100
AcDbMText
 10
-147.4724015723037
 20
-254.1535375965258
 30
0.0
 40
3.0
 41
0.0
 71
     5
 72
     1
  1
HC-RBO 8-FE
  7
CONVERTER_12
 73
     1
 44
1.20048019207683
  0
MTEXT
  5
186
330
47
100
AcDbEntity
  8
1
 62
     2
100
AcDbMText
 10
-193.0448038356793
 20
-249.9035375965261
 30
0.0
 40
1.8
 41
0.0
 71
     1
 72
     1
  1
description
  7
CONVERTER_11
 73
     1
 44
1.20048019207683
  0
MTEXT
  5
187
330
47
100
AcDbEntity
  8
1
 62
     3
100
AcDbMText
 10
-204.2448038356793
 20
-236.2785375965261
 30
0.0
 40
2.5
 41
0.0
 71
     5
 72
     1
  1
DIN A4
  7
CONVERTER_11
 73
     1
 44
1.20048019207683
  0
MTEXT
  5
188
330
47
100
AcDbEntity
  8
1
 62
     7
100
AcDbMText
 10
-390.3999993089283
 20
-234.9035375965261
 30
0.0
 40
3.5
 41
0.0
 71
     5
 72
     1
  1
D
  7
CONVERTER_11
 73
     1
 44
1.20048019207683
  0
MTEXT
  5
189
330
47
100
AcDbEntity
  8
1
 62
     7
100
AcDbMText
 10
-390.3999993089283
 20
-182.4035375965261
 30
0.0
 40
3.5
 41
0.0
 71
     5
 72
     1
  1
C
  7
CONVERTER_11
 73
     1
 44
1.20048019207683
  0
MTEXT
  5
18A
330
47
100
AcDbEntity
  8
1
 62
     7
100
AcDbMText
 10
-390.3999993089283
 20
-132.4035375965261
 30
0.0
 40
3.5
 41
0.0
 71
     5
 72
     1
  1
B
  7
CONVERTER_11
 73
     1
 44
1.20048019207683
  0
MTEXT
  5
18B
330
47
100
AcDbEntity
  8
1
 62
     7
100
AcDbMText
 10
-390.3999993089283
 20
-79.90353759652606
 30
0.0
 40
3.5
 41
0.0
 71
     5
 72
     1
  1
A
  7
CONVERTER_11
 73
     1
 44
1.20048019207683
  0
MTEXT
  5
18C
330
47
100
AcDbEntity
  8
1
 62
     7
100
AcDbMText
 10
-120.14999930893
 20
-259.9035375965262
 30
0.0
 40
3.5
 41
0.0
 71
     5
 72
     1
  1
6
  7
CONVERTER_11
 73
     1
 44
1.20048019207683
  0
MTEXT
  5
18D
330
47
100
AcDbEntity
  8
1
 62
     7
100
AcDbMText
 10
-169.3999993089292
 20
-259.9035375965262
 30
0.0
 40
3.5
 41
0.0
 71
     5
 72
     1
  1
5
  7
CONVERTER_11
 73
     1
 44
1.20048019207683
  0
MTEXT
  5
18E
330
47
100
AcDbEntity
  8
1
 62
     7
100
AcDbMText
 10
-219.3999993089293
 20
-259.9035375965262
 30
0.0
 40
3.5
 41
0.0
 71
     5
 72
     1
  1
4
  7
CONVERTER_11
 73
     1
 44
1.20048019207683
  0
MTEXT
  5
18F
330
47
100
AcDbEntity
  8
1
 62
     7
100
AcDbMText
 10
-269.3999993089292
 20
-259.9035375965262
 30
0.0
 40
3.5
 41
0.0
 71
     5
 72
     1
  1
3
  7
CONVERTER_11
 73
     1
 44
1.20048019207683
  0
MTEXT
  5
190
330
47
100
AcDbEntity
  8
1
 62
     7
100
AcDbMText
 10
-319.3999993089292
 20
-259.9035375965262
 30
0.0
 40
3.5
 41
0.0
 71
     5
 72
     1
  1
2
  7
CONVERTER_11
 73
     1
 44
1.20048019207683
  0
MTEXT
  5
191
330
47
100
AcDbEntity
  8
1
 62
     7
100
AcDbMText
 10
-368.6499993089288
 20
-259.9035375965262
 30
0.0
 40
3.5
 41
0.0
 71
     5
 72
     1
  1
1
  7
CONVERTER_11
 73
     1
 44
1.20048019207683
  0
MTEXT
  5
192
330
47
100
AcDbEntity
  8
1
 62
     7
100
AcDbMText
 10
-98.39999930893023
 20
-234.9035375965261
 30
0.0
 40
3.5
 41
0.0
 71
     5
 72
     1
  1
D
  7
CONVERTER_11
 73
     1
 44
1.20048019207683
  0
MTEXT
  5
193
330
47
100
AcDbEntity
  8
1
 62
     7
100
AcDbMText
 10
-98.39999930893023
 20
-132.4035375965242
 30
0.0
 40
3.5
 41
0.0
 71
     5
 72
     1
  1
B
  7
CONVERTER_11
 73
     1
 44
1.20048019207683
  0
MTEXT
  5
194
330
47
100
AcDbEntity
  8
1
 62
     7
100
AcDbMText
 10
-98.39999930893023
 20
-79.90353759652606
 30
0.0
 40
3.5
 41
0.0
 71
     5
 72
     1
  1
A
  7
CONVERTER_11
 73
     1
 44
1.20048019207683
  0
MTEXT
  5
195
330
47
100
AcDbEntity
  8
1
 62
     7
100
AcDbMText
 10
-98.39999930893023
 20
-182.4035375965242
 30
0.0
 40
3.5
 41
0.0
 71
     5
 72
     1
  1
C
  7
CONVERTER_11
 73
     1
 44
1.20048019207683
  0
MTEXT
  5
196
330
47
100
AcDbEntity
  8
1
 62
     2
100
AcDbMText
 10
-264.8828185607267
 20
-244.6535375965262
 30
0.0
 40
2.0
 41
0.0
 71
     5
 72
     1
  1
General Information\P- Simplified representation\P- Document excluded from change process\P- Linear dimensions [mm]
  7
CONVERTER_11
 73
     1
 44
1.20048019207683
  0
TEXT
  5
197
330
47
100
AcDbEntity
  8
1
 62
     7
100
AcDbText
 10
-192.5448038356795
 20
-247.6035375965262
 30
0.0
 40
2.5
  1
3247968
 41
0.81
  7
CONVERTER_12
100
AcDbText
  0
MTEXT
  5
198
330
47
100
AcDbEntity
  8
1
 62
     2
100
AcDbMText
 10
-192.9448038356792
 20
-241.4035375965261
 30
0.0
 40
1.8
 41
0.0
 71
     1
 72
     1
  1
ident.-No.
  7
CONVERTER_11
 73
     1
 44
1.20048019207683
  0
MTEXT
  5
199
330
47
100
AcDbEntity
  8
1
 62
     2
100
AcDbMText
 10
-108.7184075906065
 20
-232.9035375965261
 30
0.0
 40
1.8
 41
0.0
 71
     1
 72
     1
  1
scale
  7
CONVERTER_11
 73
     1
 44
1.20048019207683
  0
MTEXT
  5
19B
330
47
100
AcDbEntity
  8
1
 62
     3
100
AcDbMText
 10
-105.3592034497669
 20
-239.103537596526
 30
0.0
 40
2.5
 41
0.0
 71
     8
 72
     1
  1
1:1
  7
CONVERTER_13
 73
     1
 44
1.32052821128451
  0
TEXT
  5
19C
330
47
100
AcDbEntity
  8
1
 62
     7
100
AcDbText
 10
-192.9448038356792
 20
-239.1035375965262
 30
0.0
 40
2.5
  1
01095197
 41
0.81
  7
CONVERTER_12
100
AcDbText
  0
MTEXT
  5
19E
330
47
100
AcDbEntity
  8
1
 62
     2
100
AcDbMText
 10
-192.9448038356792
 20
-232.9035375965261
 30
0.0
 40
1.8
 41
0.0
 71
     1
 72
     1
  1
document-No. / RI
  7
CONVERTER_14
 73
     1
 44
1.32052821128451
  0
TEXT
  5
19F
330
47
100
AcDbEntity
  8
1
 62
     3
100
AcDbText
 10
-165.1448038356792
 20
-247.6035375965262
 30
0.0
 40
2.5
  1
TECDOC 2D_Productdrawing
 41
0.81
  7
CONVERTER_12
100
AcDbText
  0
MTEXT
  5
1A0
330
47
100
AcDbEntity
  8
1
 62
     2
100
AcDbMText
 10
-165.1448038356792
 20
-241.4035375965262
 30
0.0
 40
1.8
 41
0.0
 71
     1
 72
     1
  1
document-type
  7
CONVERTER_11
 73
     1
 44
1.20048019207683
  0
MTEXT
  5
1A1
330
47
100
AcDbEntity
  8
1
 62
     2
100
AcDbMText
 10
-135.3184075906063
 20
-232.9035375965262
 30
0.0
 40
1.8
 41
0.0
 71
     1
 72
     1
  1
date
  7
CONVERTER_11
 73
     1
 44
1.32052821128451
  0
TEXT
  5
1A2
330
47
100
AcDbEntity
  8
1
 62
     3
100
AcDbText
 10
-135.3184075906063
 20
-239.1035375965262
 30
0.0
 40
2.5
  1
13.01.2018
 41
0.81
  7
CONVERTER_12
100
AcDbText
  0
TEXT
  5
1A3
330
47
100
AcDbEntity
  8
1
 62
     7
100
AcDbText
 10
-172.9148916166234
 20
-239.1035375965262
 30
0.0
 40
2.5
  1
00
 41
0.81
  7
CONVERTER_12
100
AcDbText
  0
TEXT
  5
1A4
330
47
100
AcDbEntity
  8
1
 62
     7
100
AcDbText
 10
-175.0712561136654
 20
-239.1035375965262
 30
0.0
 40
2.5
  1
/
 41
0.9
  7
CONVERTER_11
100
AcDbText
  0
HATCH
  5
1A5
330
47
100
AcDbEntity
  8
1
  6
Continuous
 62
     2
100
AcDbHatch
 10
0.0
 20
0.0
 30
0.0
210
0.0
220
0.0
230
1.0
  2
_USER
 70
     0
 71
     1
 91
        1
 92
        1
 93
       12
 72
     1
 10
-212.7773031227181
 20
-246.7508471203355
 11
-213.9700958248845
 21
-246.7508471203355
 72
     1
 10
-213.9700958248845
 20
-246.7508471203355
 11
-213.9700958248845
 21
-245.6165750114917
 72
     1
 10
-213.9700958248845
 20
-245.6165750114917
 11
-215.019753402792
 21
-245.6165750114917
 72
     1
 10
-215.019753402792
 20
-245.6165750114917
 11
-215.019753402792
 21
-246.7508471203355
 72
     1
 10
-215.019753402792
 20
-246.7508471203355
 11
-216.2125461049586
 21
-246.7508471203355
 72
     1
 10
-216.2125461049586
 20
-246.7508471203355
 11
-216.2125461049586
 21
-243.6970375965243
 72
     1
 10
-216.2125461049586
 20
-243.6970375965243
 11
-215.019753402792
 21
-243.6970375965243
 72
     1
 10
-215.019753402792
 20
-243.6970375965243
 11
-215.019753402792
 21
-244.7658709298589
 72
     1
 10
-215.019753402792
 20
-244.7658709298589
 11
-213.9700958248845
 21
-244.7658709298589
 72
     1
 10
-213.9700958248845
 20
-244.7658709298589
 11
-213.9700958248845
 21
-243.6970375965243
 72
     1
 10
-213.9700958248845
 20
-243.6970375965243
 11
-212.7773031227181
 21
-243.6970375965243
 72
     1
 10
-212.7773031227181
 20
-243.6970375965243
 11
-212.7773031227181
 21
-246.7508471203355
 97
       12
330
111
330
112
330
FC
330
FB
330
FA
330
10E
330
F9
330
10F
330
110
330
F8
330
F7
330
F6
 75
     1
 76
     0
 52
45.0
 41
0.1
 77
     0
 78
     1
 53
45.0
 43
0.0
 44
0.0
 45
-0.0707106781186548
 46
0.0707106781186548
 79
     0
 98
        1
 10
0.0
 20
0.0
  0
HATCH
  5
1A6
330
47
100
AcDbEntity
  8
1
  6
Continuous
 62
     2
100
AcDbHatch
 10
0.0
 20
0.0
 30
0.0
210
0.0
220
0.0
230
1.0
  2
_USER
 70
     0
 71
     1
 91
        1
 92
        1
 93
       12
 72
     1
 10
-212.7773031227181
 20
-246.7508471203355
 11
-213.9700958248845
 21
-246.7508471203355
 72
     1
 10
-213.9700958248845
 20
-246.7508471203355
 11
-213.9700958248845
 21
-245.6165750114917
 72
     1
 10
-213.9700958248845
 20
-245.6165750114917
 11
-215.019753402792
 21
-245.6165750114917
 72
     1
 10
-215.019753402792
 20
-245.6165750114917
 11
-215.019753402792
 21
-246.7508471203355
 72
     1
 10
-215.019753402792
 20
-246.7508471203355
 11
-216.2125461049586
 21
-246.7508471203355
 72
     1
 10
-216.2125461049586
 20
-246.7508471203355
 11
-216.2125461049586
 21
-243.6970375965243
 72
     1
 10
-216.2125461049586
 20
-243.6970375965243
 11
-215.019753402792
 21
-243.6970375965243
 72
     1
 10
-215.019753402792
 20
-243.6970375965243
 11
-215.019753402792
 21
-244.7658709298589
 72
     1
 10
-215.019753402792
 20
-244.7658709298589
 11
-213.9700958248845
 21
-244.7658709298589
 72
     1
 10
-213.9700958248845
 20
-244.7658709298589
 11
-213.9700958248845
 21
-243.6970375965243
 72
     1
 10
-213.9700958248845
 20
-243.6970375965243
 11
-212.7773031227181
 21
-243.6970375965243
 72
     1
 10
-212.7773031227181
 20
-243.6970375965243
 11
-212.7773031227181
 21
-246.7508471203355
 97
       12
330
111
330
112
330
FC
330
FB
330
FA
330
10E
330
F9
330
10F
330
110
330
F8
330
F7
330
F6
 75
     1
 76
     0
 52
45.0
 41
0.1
 77
     0
 78
     1
 53
45.0
 43
0.0
 44
0.0
 45
-0.0707106781186548
 46
0.0707106781186548
 79
     0
 98
        1
 10
0.0
 20
0.0
  0
HATCH
  5
1A7
330
47
100
AcDbEntity
  8
1
  6
Continuous
 62
     2
100
AcDbHatch
 10
0.0
 20
0.0
 30
0.0
210
0.0
220
0.0
230
1.0
  2
_USER
 70
     0
 71
     1
 91
        1
 92
        1
 93
       10
 72
     1
 10
-210.5350037735298
 20
-248.3650035829038
 11
-211.7755081837827
 21
-247.0562280726987
 72
     1
 10
-211.7755081837827
 20
-247.0562280726987
 11
-212.9683008859503
 21
-247.0562280726987
 72
     1
 10
-212.9683008859503
 20
-247.0562280726987
 11
-212.9683008859503
 21
-250.1100375965098
 72
     1
 10
-212.9683008859503
 20
-250.1100375965098
 11
-211.7755081837827
 21
-250.1100375965098
 72
     1
 10
-211.7755081837827
 20
-250.1100375965098
 11
-211.7755081837827
 21
-248.8012620863052
 72
     1
 10
-211.7755081837827
 20
-248.8012620863052
 11
-210.5350037735298
 21
-250.1100375965098
 72
     1
 10
-210.5350037735298
 20
-250.1100375965098
 11
-209.3422110713634
 21
-250.1100375965098
 72
     1
 10
-209.3422110713634
 20
-250.1100375965098
 11
-209.3422110713634
 21
-247.0562280726987
 72
     1
 10
-209.3422110713634
 20
-247.0562280726987
 11
-210.5350037735298
 21
-247.0562280726987
 72
     1
 10
-210.5350037735298
 20
-247.0562280726987
 11
-210.5350037735298
 21
-248.3650035829038
 97
       10
330
11F
330
EF
330
EE
330
F1
330
11A
330
11B
330
F0
330
11C
330
11D
330
11E
 75
     1
 76
     0
 52
45.0
 41
0.1
 77
     0
 78
     1
 53
45.0
 43
0.0
 44
0.0
 45
-0.0707106781186548
 46
0.0707106781186548
 79
     0
 98
        1
 10
0.0
 20
0.0
  0
HATCH
  5
1A8
330
47
100
AcDbEntity
  8
1
  6
Continuous
 62
     2
100
AcDbHatch
 10
0.0
 20
0.0
 30
0.0
210
0.0
220
0.0
230
1.0
  2
_USER
 70
     0
 71
     1
 91
        1
 92
        1
 93
       10
 72
     1
 10
-210.5350037735298
 20
-248.3650035829038
 11
-211.7755081837827
 21
-247.0562280726987
 72
     1
 10
-211.7755081837827
 20
-247.0562280726987
 11
-212.9683008859503
 21
-247.0562280726987
 72
     1
 10
-212.9683008859503
 20
-247.0562280726987
 11
-212.9683008859503
 21
-250.1100375965098
 72
     1
 10
-212.9683008859503
 20
-250.1100375965098
 11
-211.7755081837827
 21
-250.1100375965098
 72
     1
 10
-211.7755081837827
 20
-250.1100375965098
 11
-211.7755081837827
 21
-248.8012620863052
 72
     1
 10
-211.7755081837827
 20
-248.8012620863052
 11
-210.5350037735298
 21
-250.1100375965098
 72
     1
 10
-210.5350037735298
 20
-250.1100375965098
 11
-209.3422110713634
 21
-250.1100375965098
 72
     1
 10
-209.3422110713634
 20
-250.1100375965098
 11
-209.3422110713634
 21
-247.0562280726987
 72
     1
 10
-209.3422110713634
 20
-247.0562280726987
 11
-210.5350037735298
 21
-247.0562280726987
 72
     1
 10
-210.5350037735298
 20
-247.0562280726987
 11
-210.5350037735298
 21
-248.3650035829038
 97
       10
330
11F
330
EF
330
EE
330
F1
330
11A
330
11B
330
F0
330
11C
330
11D
330
11E
 75
     1
 76
     0
 52
45.0
 41
0.1
 77
     0
 78
     1
 53
45.0
 43
0.0
 44
0.0
 45
-0.0707106781186548
 46
0.0707106781186548
 79
     0
 98
        1
 10
0.0
 20
0.0
  0
HATCH
  5
1A9
330
47
100
AcDbEntity
  8
1
  6
Continuous
 62
     2
100
AcDbHatch
 10
0.0
 20
0.0
 30
0.0
210
0.0
220
0.0
230
1.0
  2
_USER
 70
     0
 71
     1
 91
        1
 92
        1
 93
       10
 72
     1
 10
-205.2865649531101
 20
-245.0058131067295
 11
-206.5270693633641
 21
-243.6970375965243
 72
     1
 10
-206.5270693633641
 20
-243.6970375965243
 11
-207.7198620655306
 21
-243.6970375965243
 72
     1
 10
-207.7198620655306
 20
-243.6970375965243
 11
-207.7198620655306
 21
-246.7508471203355
 72
     1
 10
-207.7198620655306
 20
-246.7508471203355
 11
-206.5270693633641
 21
-246.7508471203355
 72
     1
 10
-206.5270693633641
 20
-246.7508471203355
 11
-206.5270693633641
 21
-245.4420716101308
 72
     1
 10
-206.5270693633641
 20
-245.4420716101308
 11
-205.2865649531101
 21
-246.7508471203355
 72
     1
 10
-205.2865649531101
 20
-246.7508471203355
 11
-204.0937722509435
 21
-246.7508471203355
 72
     1
 10
-204.0937722509435
 20
-246.7508471203355
 11
-204.0937722509435
 21
-243.6970375965243
 72
     1
 10
-204.0937722509435
 20
-243.6970375965243
 11
-205.2865649531101
 21
-243.6970375965243
 72
     1
 10
-205.2865649531101
 20
-243.6970375965243
 11
-205.2865649531101
 21
-245.0058131067295
 97
       10
330
124
330
EC
330
EB
330
125
330
EA
330
120
330
121
330
122
330
123
330
ED
 75
     1
 76
     0
 52
45.0
 41
0.1
 77
     0
 78
     1
 53
45.0
 43
0.0
 44
0.0
 45
-0.0707106781186548
 46
0.0707106781186548
 79
     0
 98
        1
 10
0.0
 20
0.0
  0
HATCH
  5
1AA
330
47
100
AcDbEntity
  8
1
  6
Continuous
 62
     2
100
AcDbHatch
 10
0.0
 20
0.0
 30
0.0
210
0.0
220
0.0
230
1.0
  2
_USER
 70
     0
 71
     1
 91
        1
 92
        1
 93
       10
 72
     1
 10
-205.2865649531101
 20
-245.0058131067295
 11
-206.5270693633641
 21
-243.6970375965243
 72
     1
 10
-206.5270693633641
 20
-243.6970375965243
 11
-207.7198620655306
 21
-243.6970375965243
 72
     1
 10
-207.7198620655306
 20
-243.6970375965243
 11
-207.7198620655306
 21
-246.7508471203355
 72
     1
 10
-207.7198620655306
 20
-246.7508471203355
 11
-206.5270693633641
 21
-246.7508471203355
 72
     1
 10
-206.5270693633641
 20
-246.7508471203355
 11
-206.5270693633641
 21
-245.4420716101308
 72
     1
 10
-206.5270693633641
 20
-245.4420716101308
 11
-205.2865649531101
 21
-246.7508471203355
 72
     1
 10
-205.2865649531101
 20
-246.7508471203355
 11
-204.0937722509435
 21
-246.7508471203355
 72
     1
 10
-204.0937722509435
 20
-246.7508471203355
 11
-204.0937722509435
 21
-243.6970375965243
 72
     1
 10
-204.0937722509435
 20
-243.6970375965243
 11
-205.2865649531101
 21
-243.6970375965243
 72
     1
 10
-205.2865649531101
 20
-243.6970375965243
 11
-205.2865649531101
 21
-245.0058131067295
 97
       10
330
124
330
EC
330
EB
330
125
330
EA
330
120
330
121
330
122
330
123
330
ED
 75
     1
 76
     0
 52
45.0
 41
0.1
 77
     0
 78
     1
 53
45.0
 43
0.0
 44
0.0
 45
-0.0707106781186548
 46
0.0707106781186548
 79
     0
 98
        1
 10
0.0
 20
0.0
  0
HATCH
  5
1AB
330
47
100
AcDbEntity
  8
1
  6
Continuous
 62
     2
100
AcDbHatch
 10
0.0
 20
0.0
 30
0.0
210
0.0
220
0.0
230
1.0
  2
_USER
 70
     0
 71
     1
 91
        1
 92
        1
 93
        8
 72
     1
 10
-206.3840851699896
 20
-247.0562280726987
 11
-209.1990759471032
 21
-247.0562280726987
 72
     1
 10
-209.1990759471032
 20
-247.0562280726987
 11
-209.1990759471032
 21
-247.8414933788223
 72
     1
 10
-209.1990759471032
 20
-247.8414933788223
 11
-208.3879769096286
 21
-247.8414933788223
 72
     1
 10
-208.3879769096286
 20
-247.8414933788223
 11
-208.3879769096286
 21
-250.1100375965098
 72
     1
 10
-208.3879769096286
 20
-250.1100375965098
 11
-207.1951842074621
 21
-250.1100375965098
 72
     1
 10
-207.1951842074621
 20
-250.1100375965098
 11
-207.1951842074621
 21
-247.8414933788223
 72
     1
 10
-207.1951842074621
 20
-247.8414933788223
 11
-206.3840851699896
 21
-247.8414933788223
 72
     1
 10
-206.3840851699896
 20
-247.8414933788223
 11
-206.3840851699896
 21
-247.0562280726987
 97
        8
330
E6
330
126
330
E5
330
127
330
128
330
E9
330
E8
330
E7
 75
     1
 76
     0
 52
45.0
 41
0.1
 77
     0
 78
     1
 53
45.0
 43
0.0
 44
0.0
 45
-0.0707106781186548
 46
0.0707106781186548
 79
     0
 98
        1
 10
0.0
 20
0.0
  0
HATCH
  5
1AC
330
47
100
AcDbEntity
  8
1
  6
Continuous
 62
     2
100
AcDbHatch
 10
0.0
 20
0.0
 30
0.0
210
0.0
220
0.0
230
1.0
  2
_USER
 70
     0
 71
     1
 91
        1
 92
        1
 93
        8
 72
     1
 10
-206.3840851699896
 20
-247.0562280726987
 11
-209.1990759471032
 21
-247.0562280726987
 72
     1
 10
-209.1990759471032
 20
-247.0562280726987
 11
-209.1990759471032
 21
-247.8414933788223
 72
     1
 10
-209.1990759471032
 20
-247.8414933788223
 11
-208.3879769096286
 21
-247.8414933788223
 72
     1
 10
-208.3879769096286
 20
-247.8414933788223
 11
-208.3879769096286
 21
-250.1100375965098
 72
     1
 10
-208.3879769096286
 20
-250.1100375965098
 11
-207.1951842074621
 21
-250.1100375965098
 72
     1
 10
-207.1951842074621
 20
-250.1100375965098
 11
-207.1951842074621
 21
-247.8414933788223
 72
     1
 10
-207.1951842074621
 20
-247.8414933788223
 11
-206.3840851699896
 21
-247.8414933788223
 72
     1
 10
-206.3840851699896
 20
-247.8414933788223
 11
-206.3840851699896
 21
-247.0562280726987
 97
        8
330
E6
330
126
330
E5
330
127
330
128
330
E9
330
E8
330
E7
 75
     1
 76
     0
 52
45.0
 41
0.1
 77
     0
 78
     1
 53
45.0
 43
0.0
 44
0.0
 45
-0.0707106781186548
 46
0.0707106781186548
 79
     0
 98
        1
 10
0.0
 20
0.0
  0
HATCH
  5
1AD
330
47
100
AcDbEntity
  8
1
  6
Continuous
 62
     2
100
AcDbHatch
 10
0.0
 20
0.0
 30
0.0
210
0.0
220
0.0
230
1.0
  2
_USER
 70
     0
 71
     1
 91
        2
 92
        1
 93
        8
 72
     1
 10
-204.2456577140426
 20
-250.1100375965098
 11
-204.4571377675184
 21
-249.5690770522919
 72
     1
 10
-204.4571377675184
 20
-249.5690770522919
 11
-205.5895793441922
 21
-249.5690770522919
 72
     1
 10
-205.5895793441922
 20
-249.5690770522919
 11
-205.801059397668
 21
-250.1100375965098
 72
     1
 10
-205.801059397668
 20
-250.1100375965098
 11
-207.041563807921
 21
-250.1100375965098
 72
     1
 10
-207.041563807921
 20
-250.1100375965098
 11
-205.6436107609817
 21
-247.0562280726987
 72
     1
 10
-205.6436107609817
 20
-247.0562280726987
 11
-204.403106350729
 21
-247.0562280726987
 72
     1
 10
-204.403106350729
 20
-247.0562280726987
 11
-203.0051533037887
 21
-250.1100375965098
 72
     1
 10
-203.0051533037887
 20
-250.1100375965098
 11
-204.2456577140426
 21
-250.1100375965098
 97
        8
330
12A
330
12B
330
E2
330
12C
330
E1
330
E4
330
129
330
E3
 92
       16
 93
        3
 72
     1
 10
-205.3235237930472
 20
-248.8885137869853
 11
-205.0233585558548
 21
-248.1206988209986
 72
     1
 10
-205.0233585558548
 20
-248.1206988209986
 11
-204.7231933186647
 21
-248.8885137869853
 72
     1
 10
-204.7231933186647
 20
-248.8885137869853
 11
-205.3235237930472
 21
-248.8885137869853
 97
        3
330
E0
330
12E
330
12D
 75
     1
 76
     0
 52
45.0
 41
0.1
 77
     0
 78
     1
 53
45.0
 43
0.0
 44
0.0
 45
-0.0707106781186548
 46
0.0707106781186548
 79
     0
 98
        1
 10
0.0
 20
0.0
  0
HATCH
  5
1AE
330
47
100
AcDbEntity
  8
1
  6
Continuous
 62
     2
100
AcDbHatch
 10
0.0
 20
0.0
 30
0.0
210
0.0
220
0.0
230
1.0
  2
_USER
 70
     0
 71
     1
 91
        2
 92
        1
 93
        8
 72
     1
 10
-204.2456577140426
 20
-250.1100375965098
 11
-204.4571377675184
 21
-249.5690770522919
 72
     1
 10
-204.4571377675184
 20
-249.5690770522919
 11
-205.5895793441922
 21
-249.5690770522919
 72
     1
 10
-205.5895793441922
 20
-249.5690770522919
 11
-205.801059397668
 21
-250.1100375965098
 72
     1
 10
-205.801059397668
 20
-250.1100375965098
 11
-207.041563807921
 21
-250.1100375965098
 72
     1
 10
-207.041563807921
 20
-250.1100375965098
 11
-205.6436107609817
 21
-247.0562280726987
 72
     1
 10
-205.6436107609817
 20
-247.0562280726987
 11
-204.403106350729
 21
-247.0562280726987
 72
     1
 10
-204.403106350729
 20
-247.0562280726987
 11
-203.0051533037887
 21
-250.1100375965098
 72
     1
 10
-203.0051533037887
 20
-250.1100375965098
 11
-204.2456577140426
 21
-250.1100375965098
 97
        8
330
12A
330
12B
330
E2
330
12C
330
E1
330
E4
330
129
330
E3
 92
       16
 93
        3
 72
     1
 10
-205.3235237930472
 20
-248.8885137869853
 11
-205.0233585558548
 21
-248.1206988209986
 72
     1
 10
-205.0233585558548
 20
-248.1206988209986
 11
-204.7231933186647
 21
-248.8885137869853
 72
     1
 10
-204.7231933186647
 20
-248.8885137869853
 11
-205.3235237930472
 21
-248.8885137869853
 97
        3
330
E0
330
12E
330
12D
 75
     1
 76
     0
 52
45.0
 41
0.1
 77
     0
 78
     1
 53
45.0
 43
0.0
 44
0.0
 45
-0.0707106781186548
 46
0.0707106781186548
 79
     0
 98
        1
 10
0.0
 20
0.0
  0
HATCH
  5
1AF
330
47
100
AcDbEntity
  8
1
  6
Continuous
 62
     2
100
AcDbHatch
 10
0.0
 20
0.0
 30
0.0
210
0.0
220
0.0
230
1.0
  2
_USER
 70
     0
 71
     1
 91
        1
 92
        1
 93
        4
 72
     1
 10
-202.6147093002567
 20
-246.7508471203355
 11
-203.8552137105096
 21
-246.7508471203355
 72
     1
 10
-203.8552137105096
 20
-246.7508471203355
 11
-203.8552137105096
 21
-243.6970375965243
 72
     1
 10
-203.8552137105096
 20
-243.6970375965243
 11
-202.6147093002567
 21
-243.6970375965243
 72
     1
 10
-202.6147093002567
 20
-243.6970375965243
 11
-202.6147093002567
 21
-246.7508471203355
 97
        4
330
DD
330
DF
330
12F
330
DE
 75
     1
 76
     0
 52
45.0
 41
0.1
 77
     0
 78
     1
 53
45.0
 43
0.0
 44
0.0
 45
-0.0707106781186548
 46
0.0707106781186548
 79
     0
 98
        1
 10
0.0
 20
0.0
  0
HATCH
  5
1B0
330
47
100
AcDbEntity
  8
1
  6
Continuous
 62
     2
100
AcDbHatch
 10
0.0
 20
0.0
 30
0.0
210
0.0
220
0.0
230
1.0
  2
_USER
 70
     0
 71
     1
 91
        1
 92
        1
 93
        4
 72
     1
 10
-202.6147093002567
 20
-246.7508471203355
 11
-203.8552137105096
 21
-246.7508471203355
 72
     1
 10
-203.8552137105096
 20
-246.7508471203355
 11
-203.8552137105096
 21
-243.6970375965243
 72
     1
 10
-203.8552137105096
 20
-243.6970375965243
 11
-202.6147093002567
 21
-243.6970375965243
 72
     1
 10
-202.6147093002567
 20
-243.6970375965243
 11
-202.6147093002567
 21
-246.7508471203355
 97
        4
330
DD
330
DF
330
12F
330
DE
 75
     1
 76
     0
 52
45.0
 41
0.1
 77
     0
 78
     1
 53
45.0
 43
0.0
 44
0.0
 45
-0.0707106781186548
 46
0.0707106781186548
 79
     0
 98
        1
 10
0.0
 20
0.0
  0
HATCH
  5
1B1
330
47
100
AcDbEntity
  8
1
  6
Continuous
 62
     2
100
AcDbHatch
 10
0.0
 20
0.0
 30
0.0
210
0.0
220
0.0
230
1.0
  2
_USER
 70
     0
 71
     1
 91
        1
 92
        1
 93
       12
 72
     1
 10
-198.3922231345859
 20
-243.6970375965243
 11
-199.6947527653524
 21
-245.1699881265605
 72
     1
 10
-199.6947527653524
 20
-245.1699881265605
 11
-198.2967997184121
 21
-246.7508471203355
 72
     1
 10
-198.2967997184121
 20
-246.7508471203355
 11
-199.6995239361604
 21
-246.7508471203355
 72
     1
 10
-199.6995239361604
 20
-246.7508471203355
 11
-200.3961148742259
 21
-245.9631153350418
 72
     1
 10
-200.3961148742259
 20
-245.9631153350418
 11
-201.0927058122916
 21
-246.7508471203355
 72
     1
 10
-201.0927058122916
 20
-246.7508471203355
 11
-202.4954300300398
 21
-246.7508471203355
 72
     1
 10
-202.4954300300398
 20
-246.7508471203355
 11
-201.0974769830995
 21
-245.1699881265605
 72
     1
 10
-201.0974769830995
 20
-245.1699881265605
 11
-202.400006613867
 21
-243.6970375965243
 72
     1
 10
-202.400006613867
 20
-243.6970375965243
 11
-200.9972823961177
 21
-243.6970375965243
 72
     1
 10
-200.9972823961177
 20
-243.6970375965243
 11
-200.3961148742259
 21
-244.3768609180798
 72
     1
 10
-200.3961148742259
 20
-244.3768609180798
 11
-199.7949473523331
 21
-243.6970375965243
 72
     1
 10
-199.7949473523331
 20
-243.6970375965243
 11
-198.3922231345859
 21
-243.6970375965243
 97
       12
330
D8
330
D7
330
D6
330
133
330
134
330
130
330
131
330
DC
330
DB
330
DA
330
D9
330
132
 75
     1
 76
     0
 52
45.0
 41
0.1
 77
     0
 78
     1
 53
45.0
 43
0.0
 44
0.0
 45
-0.0707106781186548
 46
0.0707106781186548
 79
     0
 98
        1
 10
0.0
 20
0.0
  0
HATCH
  5
1B2
330
47
100
AcDbEntity
  8
1
  6
Continuous
 62
     2
100
AcDbHatch
 10
0.0
 20
0.0
 30
0.0
210
0.0
220
0.0
230
1.0
  2
_USER
 70
     0
 71
     1
 91
        1
 92
        1
 93
       12
 72
     1
 10
-198.3922231345859
 20
-243.6970375965243
 11
-199.6947527653524
 21
-245.1699881265605
 72
     1
 10
-199.6947527653524
 20
-245.1699881265605
 11
-198.2967997184121
 21
-246.7508471203355
 72
     1
 10
-198.2967997184121
 20
-246.7508471203355
 11
-199.6995239361604
 21
-246.7508471203355
 72
     1
 10
-199.6995239361604
 20
-246.7508471203355
 11
-200.3961148742259
 21
-245.9631153350418
 72
     1
 10
-200.3961148742259
 20
-245.9631153350418
 11
-201.0927058122916
 21
-246.7508471203355
 72
     1
 10
-201.0927058122916
 20
-246.7508471203355
 11
-202.4954300300398
 21
-246.7508471203355
 72
     1
 10
-202.4954300300398
 20
-246.7508471203355
 11
-201.0974769830995
 21
-245.1699881265605
 72
     1
 10
-201.0974769830995
 20
-245.1699881265605
 11
-202.400006613867
 21
-243.6970375965243
 72
     1
 10
-202.400006613867
 20
-243.6970375965243
 11
-200.9972823961177
 21
-243.6970375965243
 72
     1
 10
-200.9972823961177
 20
-243.6970375965243
 11
-200.3961148742259
 21
-244.3768609180798
 72
     1
 10
-200.3961148742259
 20
-244.3768609180798
 11
-199.7949473523331
 21
-243.6970375965243
 72
     1
 10
-199.7949473523331
 20
-243.6970375965243
 11
-198.3922231345859
 21
-243.6970375965243
 97
       12
330
D8
330
D7
330
D6
330
133
330
134
330
130
330
131
330
DC
330
DB
330
DA
330
D9
330
132
 75
     1
 76
     0
 52
45.0
 41
0.1
 77
     0
 78
     1
 53
45.0
 43
0.0
 44
0.0
 45
-0.0707106781186548
 46
0.0707106781186548
 79
     0
 98
        1
 10
0.0
 20
0.0
  0
HATCH
  5
1B3
330
47
100
AcDbEntity
  8
1
  6
Continuous
 62
     2
100
AcDbHatch
 10
0.0
 20
0.0
 30
0.0
210
0.0
220
0.0
230
1.0
  2
_USER
 70
     0
 71
     1
 91
        2
 92
        1
 93
        6
 72
     1
 10
-217.4099585487319
 20
-245.8077688791917
 11
-218.1687261365122
 21
-245.8077688791917
 72
     1
 10
-218.1687261365122
 20
-245.8077688791917
 11
-218.1687261365122
 21
-246.7508471203355
 72
     1
 10
-218.1687261365122
 20
-246.7508471203355
 11
-219.4092305467663
 21
-246.7508471203355
 72
     1
 10
-219.4092305467663
 20
-246.7508471203355
 11
-219.4092305467663
 21
-243.6970375965243
 72
     1
 10
-219.4092305467663
 20
-243.6970375965243
 11
-217.4099585487319
 21
-243.6970375965243
 72
     2
 10
-217.4099585487319
 20
-244.752403237858
 40
1.055365641333708
 50
270.0
 51
450.0
 73
     0
 97
        6
330
100
330
FF
330
10C
330
10B
330
101
330
151
 92
       16
 93
        4
 72
     2
 10
-217.8514310749703
 20
-244.7130072666355
 40
0.3528638246711182
 50
270.0
 51
450.0
 73
     1
 72
     1
 10
-217.8514310749703
 20
-244.3601434419644
 11
-218.1687261365122
 21
-244.3601434419644
 72
     1
 10
-218.1687261365122
 20
-244.3601434419644
 11
-218.1687261365122
 21
-245.0658710913066
 72
     1
 10
-218.1687261365122
 20
-245.0658710913066
 11
-217.8514310749703
 21
-245.0658710913066
 97
        4
330
165
330
FD
330
10D
330
FE
 75
     1
 76
     0
 52
45.0
 41
0.1
 77
     0
 78
     1
 53
45.0
 43
0.0
 44
0.0
 45
-0.0707106781186548
 46
0.0707106781186548
 79
     0
 98
        1
 10
0.0
 20
0.0
  0
HATCH
  5
1B4
330
47
100
AcDbEntity
  8
1
  6
Continuous
 62
     2
100
AcDbHatch
 10
0.0
 20
0.0
 30
0.0
210
0.0
220
0.0
230
1.0
  2
_USER
 70
     0
 71
     1
 91
        2
 92
        1
 93
        6
 72
     1
 10
-217.4099585487319
 20
-245.8077688791917
 11
-218.1687261365122
 21
-245.8077688791917
 72
     1
 10
-218.1687261365122
 20
-245.8077688791917
 11
-218.1687261365122
 21
-246.7508471203355
 72
     1
 10
-218.1687261365122
 20
-246.7508471203355
 11
-219.4092305467663
 21
-246.7508471203355
 72
     1
 10
-219.4092305467663
 20
-246.7508471203355
 11
-219.4092305467663
 21
-243.6970375965243
 72
     1
 10
-219.4092305467663
 20
-243.6970375965243
 11
-217.4099585487319
 21
-243.6970375965243
 72
     2
 10
-217.4099585487319
 20
-244.752403237858
 40
1.055365641333708
 50
270.0
 51
450.0
 73
     0
 97
        6
330
100
330
FF
330
10C
330
10B
330
101
330
151
 92
       16
 93
        4
 72
     2
 10
-217.8514310749703
 20
-244.7130072666355
 40
0.3528638246711182
 50
270.0
 51
450.0
 73
     1
 72
     1
 10
-217.8514310749703
 20
-244.3601434419644
 11
-218.1687261365122
 21
-244.3601434419644
 72
     1
 10
-218.1687261365122
 20
-244.3601434419644
 11
-218.1687261365122
 21
-245.0658710913066
 72
     1
 10
-218.1687261365122
 20
-245.0658710913066
 11
-217.8514310749703
 21
-245.0658710913066
 97
        4
330
165
330
FD
330
10D
330
FE
 75
     1
 76
     0
 52
45.0
 41
0.1
 77
     0
 78
     1
 53
45.0
 43
0.0
 44
0.0
 45
-0.0707106781186548
 46
0.0707106781186548
 79
     0
 98
        1
 10
0.0
 20
0.0
  0
HATCH
  5
1B5
330
47
100
AcDbEntity
  8
1
  6
Continuous
 62
     2
100
AcDbHatch
 10
0.0
 20
0.0
 30
0.0
210
0.0
220
0.0
230
1.0
  2
_USER
 70
     0
 71
     1
 91
        2
 92
        1
 93
        4
 72
     2
 10
-214.8534158003728
 20
-249.1217078449073
 40
2.065479772208568
 50
62.45185182430637
 51
117.5481481756664
 73
     1
 72
     2
 10
-215.1343556922061
 20
-248.5831328346045
 40
1.45803408365149
 50
117.5481481756624
 51
242.4518518243375
 73
     1
 72
     2
 10
-214.8534158003728
 20
-248.0445578243012
 40
2.065479772208509
 50
242.4518518243402
 51
297.5481481756871
 73
     1
 72
     2
 10
-214.5724759085395
 20
-248.5831328346045
 40
1.458034083652003
 50
297.548148175701
 51
422.451851824299
 73
     1
 97
        4
330
15D
330
15C
330
15E
330
15B
 92
       16
 93
        4
 72
     2
 10
-215.0531558367192
 20
-248.5831328346045
 40
0.7717997786797123
 50
321.8795802028401
 51
398.1204197971533
 73
     1
 72
     2
 10
-214.8534158003728
 20
-248.426401656484
 40
0.5179085730132998
 50
38.12041979714704
 51
141.8795802028588
 73
     1
 72
     2
 10
-214.6536757640267
 20
-248.5831328346045
 40
0.7717997786794633
 50
141.8795802028363
 51
218.1204197971703
 73
     1
 72
     2
 10
-214.8534158003728
 20
-248.7398640127245
 40
0.5179085730137529
 50
218.1204197971956
 51
321.8795802027985
 73
     1
 97
        4
330
179
330
176
330
177
330
178
 75
     1
 76
     0
 52
45.0
 41
0.1
 77
     0
 78
     1
 53
45.0
 43
0.0
 44
0.0
 45
-0.0707106781186548
 46
0.0707106781186548
 79
     0
 98
        1
 10
0.0
 20
0.0
  0
HATCH
  5
1B6
330
47
100
AcDbEntity
  8
1
  6
Continuous
 62
     2
100
AcDbHatch
 10
0.0
 20
0.0
 30
0.0
210
0.0
220
0.0
230
1.0
  2
_USER
 70
     0
 71
     1
 91
        2
 92
        1
 93
        4
 72
     2
 10
-214.8534158003728
 20
-249.1217078449073
 40
2.065479772208568
 50
62.45185182430637
 51
117.5481481756664
 73
     1
 72
     2
 10
-215.1343556922061
 20
-248.5831328346045
 40
1.45803408365149
 50
117.5481481756624
 51
242.4518518243375
 73
     1
 72
     2
 10
-214.8534158003728
 20
-248.0445578243012
 40
2.065479772208509
 50
242.4518518243402
 51
297.5481481756871
 73
     1
 72
     2
 10
-214.5724759085395
 20
-248.5831328346045
 40
1.458034083652003
 50
297.548148175701
 51
422.451851824299
 73
     1
 97
        4
330
15D
330
15C
330
15E
330
15B
 92
       16
 93
        4
 72
     2
 10
-215.0531558367192
 20
-248.5831328346045
 40
0.7717997786797123
 50
321.8795802028401
 51
398.1204197971533
 73
     1
 72
     2
 10
-214.8534158003728
 20
-248.426401656484
 40
0.5179085730132998
 50
38.12041979714704
 51
141.8795802028588
 73
     1
 72
     2
 10
-214.6536757640267
 20
-248.5831328346045
 40
0.7717997786794633
 50
141.8795802028363
 51
218.1204197971703
 73
     1
 72
     2
 10
-214.8534158003728
 20
-248.7398640127245
 40
0.5179085730137529
 50
218.1204197971956
 51
321.8795802027985
 73
     1
 97
        4
330
179
330
176
330
177
330
178
 75
     1
 76
     0
 52
45.0
 41
0.1
 77
     0
 78
     1
 53
45.0
 43
0.0
 44
0.0
 45
-0.0707106781186548
 46
0.0707106781186548
 79
     0
 98
        1
 10
0.0
 20
0.0
  0
HATCH
  5
1B7
330
47
100
AcDbEntity
  8
1
  6
Continuous
 62
     2
100
AcDbHatch
 10
0.0
 20
0.0
 30
0.0
210
0.0
220
0.0
230
1.0
  2
_USER
 70
     0
 71
     1
 91
        2
 92
        1
 93
       12
 72
     1
 10
-207.9584206059635
 20
-244.3950512019673
 11
-209.2943484323912
 21
-244.3950512019673
 72
     1
 10
-209.2943484323912
 20
-244.3950512019673
 11
-209.2943484323912
 21
-244.874935555709
 72
     1
 10
-209.2943484323912
 20
-244.874935555709
 11
-207.9584206059635
 21
-244.874935555709
 72
     1
 10
-207.9584206059635
 20
-244.874935555709
 11
-207.9584206059635
 21
-245.5729491611513
 72
     1
 10
-207.9584206059635
 20
-245.5729491611513
 11
-209.2943484323912
 21
-245.5729491611513
 72
     1
 10
-209.2943484323912
 20
-245.5729491611513
 11
-209.2943484323912
 21
-246.052833514893
 72
     1
 10
-209.2943484323912
 20
-246.052833514893
 11
-207.9584206059635
 21
-246.052833514893
 72
     1
 10
-207.9584206059635
 20
-246.052833514893
 11
-207.9584206059635
 21
-246.7508471203355
 72
     1
 10
-207.9584206059635
 20
-246.7508471203355
 11
-211.1087403297445
 21
-246.7508471203355
 72
     2
 10
-211.1087403297445
 20
-245.2239423584302
 40
1.526904761905911
 50
90.0
 51
270.0
 73
     0
 72
     1
 10
-211.1087403297445
 20
-243.6970375965243
 11
-207.9584206059635
 21
-243.6970375965243
 72
     1
 10
-207.9584206059635
 20
-243.6970375965243
 11
-207.9584206059635
 21
-244.3950512019673
 97
       12
330
114
330
166
330
115
330
116
330
117
330
118
330
F5
330
F4
330
F3
330
F2
330
119
330
113
 92
       16
 93
        4
 72
     2
 10
-210.8924683195793
 20
-245.0672111803097
 40
0.5179085730135266
 50
38.12041979714334
 51
141.8795802028489
 73
     1
 72
     2
 10
-210.692728283233
 20
-245.2239423584302
 40
0.77179977867969
 50
141.8795802028388
 51
218.1204197971546
 73
     1
 72
     2
 10
-210.8924683195793
 20
-245.3806735365506
 40
0.5179085730134372
 50
218.1204197971511
 51
321.8795802028566
 73
     1
 72
     2
 10
-211.0922083559255
 20
-245.2239423584302
 40
0.7717997786796198
 50
321.8795802028454
 51
398.1204197971612
 73
     1
 97
        4
330
160
330
15F
330
15A
330
159
 75
     1
 76
     0
 52
45.0
 41
0.1
 77
     0
 78
     1
 53
45.0
 43
0.0
 44
0.0
 45
-0.0707106781186548
 46
0.0707106781186548
 79
     0
 98
        1
 10
0.0
 20
0.0
  0
HATCH
  5
1B8
330
47
100
AcDbEntity
  8
1
  6
Continuous
 62
     2
100
AcDbHatch
 10
0.0
 20
0.0
 30
0.0
210
0.0
220
0.0
230
1.0
  2
_USER
 70
     0
 71
     1
 91
        2
 92
        1
 93
       12
 72
     1
 10
-207.9584206059635
 20
-244.3950512019673
 11
-209.2943484323912
 21
-244.3950512019673
 72
     1
 10
-209.2943484323912
 20
-244.3950512019673
 11
-209.2943484323912
 21
-244.874935555709
 72
     1
 10
-209.2943484323912
 20
-244.874935555709
 11
-207.9584206059635
 21
-244.874935555709
 72
     1
 10
-207.9584206059635
 20
-244.874935555709
 11
-207.9584206059635
 21
-245.5729491611513
 72
     1
 10
-207.9584206059635
 20
-245.5729491611513
 11
-209.2943484323912
 21
-245.5729491611513
 72
     1
 10
-209.2943484323912
 20
-245.5729491611513
 11
-209.2943484323912
 21
-246.052833514893
 72
     1
 10
-209.2943484323912
 20
-246.052833514893
 11
-207.9584206059635
 21
-246.052833514893
 72
     1
 10
-207.9584206059635
 20
-246.052833514893
 11
-207.9584206059635
 21
-246.7508471203355
 72
     1
 10
-207.9584206059635
 20
-246.7508471203355
 11
-211.1087403297445
 21
-246.7508471203355
 72
     2
 10
-211.1087403297445
 20
-245.2239423584302
 40
1.526904761905911
 50
90.0
 51
270.0
 73
     0
 72
     1
 10
-211.1087403297445
 20
-243.6970375965243
 11
-207.9584206059635
 21
-243.6970375965243
 72
     1
 10
-207.9584206059635
 20
-243.6970375965243
 11
-207.9584206059635
 21
-244.3950512019673
 97
       12
330
114
330
166
330
115
330
116
330
117
330
118
330
F5
330
F4
330
F3
330
F2
330
119
330
113
 92
       16
 93
        4
 72
     2
 10
-210.8924683195793
 20
-245.0672111803097
 40
0.5179085730135266
 50
38.12041979714334
 51
141.8795802028489
 73
     1
 72
     2
 10
-210.692728283233
 20
-245.2239423584302
 40
0.77179977867969
 50
141.8795802028388
 51
218.1204197971546
 73
     1
 72
     2
 10
-210.8924683195793
 20
-245.3806735365506
 40
0.5179085730134372
 50
218.1204197971511
 51
321.8795802028566
 73
     1
 72
     2
 10
-211.0922083559255
 20
-245.2239423584302
 40
0.7717997786796198
 50
321.8795802028454
 51
398.1204197971612
 73
     1
 97
        4
330
160
330
15F
330
15A
330
159
 75
     1
 76
     0
 52
45.0
 41
0.1
 77
     0
 78
     1
 53
45.0
 43
0.0
 44
0.0
 45
-0.0707106781186548
 46
0.0707106781186548
 79
     0
 98
        1
 10
0.0
 20
0.0
  0
HATCH
  5
1B9
330
47
100
AcDbEntity
  8
1
  6
Continuous
 62
     2
100
AcDbHatch
 10
0.0
 20
0.0
 30
0.0
210
0.0
220
0.0
230
1.0
  2
_USER
 70
     0
 71
     1
 91
        4
 92
        1
 93
        8
 72
     1
 10
-219.8863476276331
 20
-244.1212822119263
 11
-219.8863476276331
 21
-249.6857929811265
 72
     2
 10
-220.310592243017
 20
-249.6857929811265
 40
0.4242446153833157
 50
0.0
 51
90.0
 73
     0
 72
     1
 10
-220.310592243017
 20
-250.1100375965098
 11
-225.7839043337338
 21
-250.1100375965098
 72
     2
 10
-225.7839043337338
 20
-249.6857929811265
 40
0.4242446153828041
 50
90.0
 51
180.0
 73
     0
 72
     1
 10
-226.2081489491166
 20
-249.6857929811265
 11
-226.2081489491166
 21
-244.1212822119263
 72
     2
 10
-225.7839043337338
 20
-244.1212822119263
 40
0.4242446153838273
 50
180.0
 51
270.0
 73
     0
 72
     1
 10
-225.7839043337338
 20
-243.6970375965425
 11
-220.310592243017
 21
-243.6970375965425
 72
     2
 10
-220.310592243017
 20
-244.1212822119263
 40
0.4242446153838841
 50
270.0
 51
360.0
 73
     0
 97
        8
330
108
330
156
330
109
330
161
330
106
330
158
330
107
330
157
 92
       16
 93
        1
 72
     2
 10
-223.1643186832163
 20
-246.4401644402818
 40
0.4709789327785074
 50
0.0
 51
360.0
 73
     1
 97
        1
330
17C
 92
       16
 93
        8
 72
     2
 10
-222.6144609704556
 20
-247.5493060402502
 40
0.3157169230765071
 50
115.3740086783541
 51
180.0
 73
     1
 72
     1
 10
-222.9301778935324
 20
-247.5493060402502
 11
-222.9301778935324
 21
-248.1311574469453
 72
     2
 10
-222.6144609704556
 20
-248.1311574469453
 40
0.315716923076792
 50
180.0
 51
269.8110329574541
 73
     1
 72
     2
 10
-222.6088448351456
 20
-246.4283224993763
 40
2.018561131933266
 50
269.8110329575858
 51
450.1889670424142
 73
     1
 72
     2
 10
-222.6144609704556
 20
-244.7254875518072
 40
0.3157169230760427
 50
90.18896704254595
 51
180.0
 73
     1
 72
     1
 10
-222.9301778935324
 20
-244.7254875518072
 11
-222.9301778935324
 21
-245.331022840314
 72
     2
 10
-222.6144609704556
 20
-245.331022840314
 40
0.315716923076792
 50
180.0
 51
244.6259913216459
 73
     1
 72
     2
 10
-223.1405036685435
 20
-246.4401644402818
 40
0.9118481501444847
 50
295.3740086781925
 51
424.6259913218244
 73
     0
 97
        8
330
16E
330
CF
330
16B
330
16C
330
14A
330
CE
330
16D
330
149
 92
       16
 93
       12
 72
     2
 10
-225.1900096569873
 20
-249.0817651178762
 40
0.3157169230756836
 50
180.0
 51
270.0
 73
     1
 72
     1
 10
-225.1900096569873
 20
-249.3974820409529
 11
-223.7141763959777
 21
-249.3974820409529
 72
     2
 10
-223.7141763959777
 20
-249.0817651178762
 40
0.3157169230767067
 50
270.0
 51
360.0
 73
     1
 72
     1
 10
-223.3984594729011
 20
-249.0817651178762
 11
-223.3984594729011
 21
-247.5509941863446
 72
     2
 10
-223.7141763959777
 20
-247.5509941863446
 40
0.315716923076593
 50
0.0
 51
64.80558935146249
 73
     1
 72
     2
 10
-223.1915919484027
 20
-246.4401644402818
 40
0.9118975235575889
 50
115.1944106485122
 51
244.805589351471
 73
     0
 72
     2
 10
-223.7141763959777
 20
-245.3293346942196
 40
0.315716923076146
 50
295.1944106485375
 51
360.0
 73
     1
 72
     1
 10
-223.3984594729011
 20
-245.3293346942196
 11
-223.3984594729011
 21
-244.7253100751591
 72
     2
 10
-223.7141763959777
 20
-244.7253100751591
 40
0.315716923076593
 50
0.0
 51
90.0
 73
     1
 72
     1
 10
-223.7141763959777
 20
-244.4095931520829
 11
-225.1900096569873
 21
-244.4095931520829
 72
     2
 10
-225.1900096569873
 20
-244.7253100751591
 40
0.3157169230761951
 50
90.0
 51
180.0
 73
     1
 72
     1
 10
-225.505726580063
 20
-244.7253100751591
 11
-225.505726580063
 21
-249.0817651178762
 97
       12
330
152
330
10A
330
155
330
105
330
162
330
163
330
154
330
104
330
153
330
103
330
164
330
102
 75
     1
 76
     0
 52
45.0
 41
0.1
 77
     0
 78
     1
 53
45.0
 43
0.0
 44
0.0
 45
-0.0707106781186548
 46
0.0707106781186548
 79
     0
 98
        1
 10
0.0
 20
0.0
  0
HATCH
  5
1BA
330
47
100
AcDbEntity
  8
1
  6
Continuous
 62
     2
100
AcDbHatch
 10
0.0
 20
0.0
 30
0.0
210
0.0
220
0.0
230
1.0
  2
_USER
 70
     0
 71
     1
 91
        4
 92
        1
 93
        8
 72
     1
 10
-219.8863476276331
 20
-244.1212822119263
 11
-219.8863476276331
 21
-249.6857929811265
 72
     2
 10
-220.310592243017
 20
-249.6857929811265
 40
0.4242446153833157
 50
0.0
 51
90.0
 73
     0
 72
     1
 10
-220.310592243017
 20
-250.1100375965098
 11
-225.7839043337338
 21
-250.1100375965098
 72
     2
 10
-225.7839043337338
 20
-249.6857929811265
 40
0.4242446153828041
 50
90.0
 51
180.0
 73
     0
 72
     1
 10
-226.2081489491166
 20
-249.6857929811265
 11
-226.2081489491166
 21
-244.1212822119263
 72
     2
 10
-225.7839043337338
 20
-244.1212822119263
 40
0.4242446153838273
 50
180.0
 51
270.0
 73
     0
 72
     1
 10
-225.7839043337338
 20
-243.6970375965425
 11
-220.310592243017
 21
-243.6970375965425
 72
     2
 10
-220.310592243017
 20
-244.1212822119263
 40
0.4242446153838841
 50
270.0
 51
360.0
 73
     0
 97
        8
330
108
330
156
330
109
330
161
330
106
330
158
330
107
330
157
 92
       16
 93
        1
 72
     2
 10
-223.1643186832163
 20
-246.4401644402818
 40
0.4709789327785074
 50
0.0
 51
360.0
 73
     1
 97
        1
330
17C
 92
       16
 93
        8
 72
     2
 10
-222.6144609704556
 20
-247.5493060402502
 40
0.3157169230765071
 50
115.3740086783541
 51
180.0
 73
     1
 72
     1
 10
-222.9301778935324
 20
-247.5493060402502
 11
-222.9301778935324
 21
-248.1311574469453
 72
     2
 10
-222.6144609704556
 20
-248.1311574469453
 40
0.315716923076792
 50
180.0
 51
269.8110329574541
 73
     1
 72
     2
 10
-222.6088448351456
 20
-246.4283224993763
 40
2.018561131933266
 50
269.8110329575858
 51
450.1889670424142
 73
     1
 72
     2
 10
-222.6144609704556
 20
-244.7254875518072
 40
0.3157169230760427
 50
90.18896704254595
 51
180.0
 73
     1
 72
     1
 10
-222.9301778935324
 20
-244.7254875518072
 11
-222.9301778935324
 21
-245.331022840314
 72
     2
 10
-222.6144609704556
 20
-245.331022840314
 40
0.315716923076792
 50
180.0
 51
244.6259913216459
 73
     1
 72
     2
 10
-223.1405036685435
 20
-246.4401644402818
 40
0.9118481501444847
 50
295.3740086781925
 51
424.6259913218244
 73
     0
 97
        8
330
16E
330
CF
330
16B
330
16C
330
14A
330
CE
330
16D
330
149
 92
       16
 93
       12
 72
     2
 10
-225.1900096569873
 20
-249.0817651178762
 40
0.3157169230756836
 50
180.0
 51
270.0
 73
     1
 72
     1
 10
-225.1900096569873
 20
-249.3974820409529
 11
-223.7141763959777
 21
-249.3974820409529
 72
     2
 10
-223.7141763959777
 20
-249.0817651178762
 40
0.3157169230767067
 50
270.0
 51
360.0
 73
     1
 72
     1
 10
-223.3984594729011
 20
-249.0817651178762
 11
-223.3984594729011
 21
-247.5509941863446
 72
     2
 10
-223.7141763959777
 20
-247.5509941863446
 40
0.315716923076593
 50
0.0
 51
64.80558935146249
 73
     1
 72
     2
 10
-223.1915919484027
 20
-246.4401644402818
 40
0.9118975235575889
 50
115.1944106485122
 51
244.805589351471
 73
     0
 72
     2
 10
-223.7141763959777
 20
-245.3293346942196
 40
0.315716923076146
 50
295.1944106485375
 51
360.0
 73
     1
 72
     1
 10
-223.3984594729011
 20
-245.3293346942196
 11
-223.3984594729011
 21
-244.7253100751591
 72
     2
 10
-223.7141763959777
 20
-244.7253100751591
 40
0.315716923076593
 50
0.0
 51
90.0
 73
     1
 72
     1
 10
-223.7141763959777
 20
-244.4095931520829
 11
-225.1900096569873
 21
-244.4095931520829
 72
     2
 10
-225.1900096569873
 20
-244.7253100751591
 40
0.3157169230761951
 50
90.0
 51
180.0
 73
     1
 72
     1
 10
-225.505726580063
 20
-244.7253100751591
 11
-225.505726580063
 21
-249.0817651178762
 97
       12
330
152
330
10A
330
155
330
105
330
162
330
163
330
154
330
104
330
153
330
103
330
164
330
102
 75
     1
 76
     0
 52
45.0
 41
0.1
 77
     0
 78
     1
 53
45.0
 43
0.0
 44
0.0
 45
-0.0707106781186548
 46
0.0707106781186548
 79
     0
 98
        1
 10
0.0
 20
0.0
  0
HATCH
  5
1BB
330
47
100
AcDbEntity
  8
1
  6
Continuous
 62
     2
100
AcDbHatch
 10
0.0
 20
0.0
 30
0.0
210
0.0
220
0.0
230
1.0
  2
_USER
 70
     0
 71
     1
 91
        1
 92
        1
 93
       18
 72
     1
 10
-198.2967997184121
 20
-247.8414933788223
 11
-199.1078987558855
 21
-247.8414933788223
 72
     1
 10
-199.1078987558855
 20
-247.8414933788223
 11
-199.1078987558855
 21
-250.1100375965098
 72
     1
 10
-199.1078987558855
 20
-250.1100375965098
 11
-200.3006914580532
 21
-250.1100375965098
 72
     1
 10
-200.3006914580532
 20
-250.1100375965098
 11
-200.3006914580532
 21
-247.8414933788223
 72
     1
 10
-200.3006914580532
 20
-247.8414933788223
 11
-201.4043307576213
 21
-247.8414933788223
 72
     2
 10
-201.4043307576213
 20
-248.7960163856484
 40
0.9545230068260935
 50
90.0
 51
109.337143219432
 73
     1
 72
     2
 10
-201.551000755725
 20
-248.3780614052655
 40
0.5115800601944143
 50
109.3371432194853
 51
151.4785267424225
 73
     1
 72
     2
 10
-201.1736434976436
 20
-248.5831328346045
 40
0.9410597353348924
 50
151.4785267423624
 51
208.5214732576695
 73
     1
 72
     2
 10
-201.551000755725
 20
-248.788204263943
 40
0.5115800601960215
 50
208.5214732576866
 51
246.6277221118449
 73
     1
 72
     2
 10
-201.3945607230219
 20
-248.426212245233
 40
0.9059297849852801
 50
246.6277221118183
 51
288.4480761180811
 73
     1
 72
     2
 10
-201.8127284566838
 20
-247.1726664691964
 40
2.227384008972773
 50
288.4480761181333
 51
301.9309089499394
 73
     1
 72
     1
 10
-200.6346734146599
 20
-249.0630171883462
 11
-200.6346734146599
 21
-249.9355341951495
 72
     2
 10
-201.9706013317766
 20
-245.2704518893481
 40
4.852596863498853
 50
74.02000874166129
 51
84.8418552303637
 73
     0
 72
     2
 10
-201.6817452370408
 20
-248.4703424725697
 40
1.639695123940441
 50
84.8418552303238
 51
164.9381082228998
 73
     0
 72
     2
 10
-202.1008730805024
 20
-248.5831328346045
 40
1.205656168392995
 50
164.9381082229041
 51
195.0618917770959
 73
     0
 72
     2
 10
-201.6817452370408
 20
-248.6959231966394
 40
1.639695123940186
 50
195.0618917771041
 51
270.0
 73
     0
 72
     1
 10
-201.6817452370408
 20
-247.0562280726992
 11
-198.2967997184121
 21
-247.0562280726987
 72
     1
 10
-198.2967997184121
 20
-247.0562280726987
 11
-198.2967997184121
 21
-247.8414933788223
 97
       18
330
D1
330
167
330
168
330
150
330
14F
330
135
330
14E
330
14D
330
169
330
14C
330
16A
330
14B
330
136
330
D0
330
D5
330
D4
330
D3
330
D2
 75
     1
 76
     0
 52
45.0
 41
0.1
 77
     0
 78
     1
 53
45.0
 43
0.0
 44
0.0
 45
-0.0707106781186548
 46
0.0707106781186548
 79
     0
 98
        1
 10
0.0
 20
0.0
  0
HATCH
  5
1BC
330
47
100
AcDbEntity
  8
1
  6
Continuous
 62
     2
100
AcDbHatch
 10
0.0
 20
0.0
 30
0.0
210
0.0
220
0.0
230
1.0
  2
_USER
 70
     0
 71
     1
 91
        1
 92
        1
 93
       18
 72
     1
 10
-198.2967997184121
 20
-247.8414933788223
 11
-199.1078987558855
 21
-247.8414933788223
 72
     1
 10
-199.1078987558855
 20
-247.8414933788223
 11
-199.1078987558855
 21
-250.1100375965098
 72
     1
 10
-199.1078987558855
 20
-250.1100375965098
 11
-200.3006914580532
 21
-250.1100375965098
 72
     1
 10
-200.3006914580532
 20
-250.1100375965098
 11
-200.3006914580532
 21
-247.8414933788223
 72
     1
 10
-200.3006914580532
 20
-247.8414933788223
 11
-201.4043307576213
 21
-247.8414933788223
 72
     2
 10
-201.4043307576213
 20
-248.7960163856484
 40
0.9545230068260935
 50
90.0
 51
109.337143219432
 73
     1
 72
     2
 10
-201.551000755725
 20
-248.3780614052655
 40
0.5115800601944143
 50
109.3371432194853
 51
151.4785267424225
 73
     1
 72
     2
 10
-201.1736434976436
 20
-248.5831328346045
 40
0.9410597353348924
 50
151.4785267423624
 51
208.5214732576695
 73
     1
 72
     2
 10
-201.551000755725
 20
-248.788204263943
 40
0.5115800601960215
 50
208.5214732576866
 51
246.6277221118449
 73
     1
 72
     2
 10
-201.3945607230219
 20
-248.426212245233
 40
0.9059297849852801
 50
246.6277221118183
 51
288.4480761180811
 73
     1
 72
     2
 10
-201.8127284566838
 20
-247.1726664691964
 40
2.227384008972773
 50
288.4480761181333
 51
301.9309089499394
 73
     1
 72
     1
 10
-200.6346734146599
 20
-249.0630171883462
 11
-200.6346734146599
 21
-249.9355341951495
 72
     2
 10
-201.9706013317766
 20
-245.2704518893481
 40
4.852596863498853
 50
74.02000874166129
 51
84.8418552303637
 73
     0
 72
     2
 10
-201.6817452370408
 20
-248.4703424725697
 40
1.639695123940441
 50
84.8418552303238
 51
164.9381082228998
 73
     0
 72
     2
 10
-202.1008730805024
 20
-248.5831328346045
 40
1.205656168392995
 50
164.9381082229041
 51
195.0618917770959
 73
     0
 72
     2
 10
-201.6817452370408
 20
-248.6959231966394
 40
1.639695123940186
 50
195.0618917771041
 51
270.0
 73
     0
 72
     1
 10
-201.6817452370408
 20
-247.0562280726992
 11
-198.2967997184121
 21
-247.0562280726987
 72
     1
 10
-198.2967997184121
 20
-247.0562280726987
 11
-198.2967997184121
 21
-247.8414933788223
 97
       18
330
D1
330
167
330
168
330
150
330
14F
330
135
330
14E
330
14D
330
169
330
14C
330
16A
330
14B
330
136
330
D0
330
D5
330
D4
330
D3
330
D2
 75
     1
 76
     0
 52
45.0
 41
0.1
 77
     0
 78
     1
 53
45.0
 43
0.0
 44
0.0
 45
-0.0707106781186548
 46
0.0707106781186548
 79
     0
 98
        1
 10
0.0
 20
0.0
  0
HATCH
  5
1BD
330
47
100
AcDbEntity
  8
1
  6
Continuous
 62
     2
100
AcDbHatch
 10
0.0
 20
0.0
 30
0.0
210
0.0
220
0.0
230
1.0
  2
_USER
 70
     0
 71
     1
 91
        1
 92
        1
 93
       14
 72
     2
 10
-217.7844467162937
 20
-248.6959231966394
 40
1.639695123940507
 50
84.84185523036236
 51
164.9381082228874
 73
     1
 72
     2
 10
-218.2035745597565
 20
-248.5831328346045
 40
1.205656168390937
 50
164.9381082228778
 51
195.0618917770948
 73
     1
 72
     2
 10
-217.7844467162937
 20
-248.4703424725697
 40
1.63969512393938
 50
195.0618917770886
 51
275.1581447696396
 73
     1
 72
     2
 10
-218.0733028110296
 20
-245.2704518893481
 40
4.852596863498138
 50
275.1581447696249
 51
285.9799912583529
 73
     1
 72
     1
 10
-216.7373748939118
 20
-249.9355341951489
 11
-216.7373748939118
 21
-249.0630171883457
 72
     2
 10
-217.9154299359367
 20
-247.1726664691958
 40
2.227384008972764
 50
58.0690910500407
 51
71.55192388186742
 73
     0
 72
     2
 10
-217.4972622022759
 20
-248.426212245233
 40
0.9059297849849192
 50
71.55192388184209
 51
113.372277888129
 73
     0
 72
     2
 10
-217.6537022349779
 20
-248.788204263943
 40
0.5115800601948034
 50
113.3722778881726
 51
151.4785267423044
 73
     0
 72
     2
 10
-217.2763449768976
 20
-248.5831328346045
 40
0.9410597353332545
 50
151.4785267422943
 51
208.5214732577331
 73
     0
 72
     2
 10
-217.6537022349779
 20
-248.3780614052655
 40
0.5115800601948779
 50
208.5214732576956
 51
246.6277221118009
 73
     0
 72
     2
 10
-217.4972622022759
 20
-248.7400534239761
 40
0.9059297849853228
 50
246.627722111871
 51
288.4480761181465
 73
     0
 72
     2
 10
-217.9154299359367
 20
-249.9935992000127
 40
2.227384008973501
 50
288.4480761181326
 51
301.9309089499589
 73
     0
 72
     1
 10
-216.7373748939118
 20
-248.1032484808628
 11
-216.7373748939118
 21
-247.2307314740595
 72
     2
 10
-218.0733028110296
 20
-251.8958137798604
 40
4.852596863498068
 50
74.02000874164739
 51
84.84185523037506
 73
     1
 97
       14
330
16F
330
170
330
171
330
172
330
137
330
148
330
147
330
146
330
173
330
174
330
145
330
175
330
138
330
144
 75
     1
 76
     0
 52
45.0
 41
0.1
 77
     0
 78
     1
 53
45.0
 43
0.0
 44
0.0
 45
-0.0707106781186548
 46
0.0707106781186548
 79
     0
 98
        1
 10
0.0
 20
0.0
  0
HATCH
  5
1BE
330
47
100
AcDbEntity
  8
1
  6
Continuous
 62
     2
100
AcDbHatch
 10
0.0
 20
0.0
 30
0.0
210
0.0
220
0.0
230
1.0
  2
_USER
 70
     0
 71
     1
 91
        1
 92
        1
 93
       14
 72
     2
 10
-217.7844467162937
 20
-248.6959231966394
 40
1.639695123940507
 50
84.84185523036236
 51
164.9381082228874
 73
     1
 72
     2
 10
-218.2035745597565
 20
-248.5831328346045
 40
1.205656168390937
 50
164.9381082228778
 51
195.0618917770948
 73
     1
 72
     2
 10
-217.7844467162937
 20
-248.4703424725697
 40
1.63969512393938
 50
195.0618917770886
 51
275.1581447696396
 73
     1
 72
     2
 10
-218.0733028110296
 20
-245.2704518893481
 40
4.852596863498138
 50
275.1581447696249
 51
285.9799912583529
 73
     1
 72
     1
 10
-216.7373748939118
 20
-249.9355341951489
 11
-216.7373748939118
 21
-249.0630171883457
 72
     2
 10
-217.9154299359367
 20
-247.1726664691958
 40
2.227384008972764
 50
58.0690910500407
 51
71.55192388186742
 73
     0
 72
     2
 10
-217.4972622022759
 20
-248.426212245233
 40
0.9059297849849192
 50
71.55192388184209
 51
113.372277888129
 73
     0
 72
     2
 10
-217.6537022349779
 20
-248.788204263943
 40
0.5115800601948034
 50
113.3722778881726
 51
151.4785267423044
 73
     0
 72
     2
 10
-217.2763449768976
 20
-248.5831328346045
 40
0.9410597353332545
 50
151.4785267422943
 51
208.5214732577331
 73
     0
 72
     2
 10
-217.6537022349779
 20
-248.3780614052655
 40
0.5115800601948779
 50
208.5214732576956
 51
246.6277221118009
 73
     0
 72
     2
 10
-217.4972622022759
 20
-248.7400534239761
 40
0.9059297849853228
 50
246.627722111871
 51
288.4480761181465
 73
     0
 72
     2
 10
-217.9154299359367
 20
-249.9935992000127
 40
2.227384008973501
 50
288.4480761181326
 51
301.9309089499589
 73
     0
 72
     1
 10
-216.7373748939118
 20
-248.1032484808628
 11
-216.7373748939118
 21
-247.2307314740595
 72
     2
 10
-218.0733028110296
 20
-251.8958137798604
 40
4.852596863498068
 50
74.02000874164739
 51
84.84185523037506
 73
     1
 97
       14
330
16F
330
170
330
171
330
172
330
137
330
148
330
147
330
146
330
173
330
174
330
145
330
175
330
138
330
144
 75
     1
 76
     0
 52
45.0
 41
0.1
 77
     0
 78
     1
 53
45.0
 43
0.0
 44
0.0
 45
-0.0707106781186548
 46
0.0707106781186548
 79
     0
 98
        1
 10
0.0
 20
0.0
  0
ENDBLK
  5
49
330
47
100
AcDbEntity
  8
0
100
AcDbBlockEnd
  0
BLOCK
  5
4B
330
4A
100
AcDbEntity
  8
0
100
AcDbBlockBegin
  2
_punkt
 70
     0
 10
-100.8999993089292
 20
-257.4035375965261
 30
0.0
  3
_punkt
  1

  0
LINE
  5
1BF
330
4A
100
AcDbEntity
  8
1
  6
Continuous
 62
     2
100
AcDbLine
 10
-100.8999993089292
 20
-257.4035375965261
 30
0.0
 11
-95.89999930893023
 21
-257.4035375965261
 31
0.0
  0
LINE
  5
1C0
330
4A
100
AcDbEntity
  8
1
  6
Continuous
 62
     2
100
AcDbLine
 10
-100.8999993089292
 20
-257.4035375965261
 30
0.0
 11
-100.8999993089292
 21
-262.4035375965262
 31
0.0
  0
ENDBLK
  5
4C
330
4A
100
AcDbEntity
  8
0
100
AcDbBlockEnd
  0
BLOCK
  5
50
330
4D
100
AcDbEntity
  8
0
100
AcDbBlockBegin
  2
A4I_CS
 70
     0
 10
-100.8999993089292
 20
-262.4035375965262
 30
0.0
  3
A4I_CS
  1

  0
INSERT
  5
4E
330
4D
100
AcDbEntity
  8
1
100
AcDbBlockReference
  2
_rahmen
 10
-100.8999993089292
 20
-262.4035375965262
 30
0.0
  0
INSERT
  5
4F
330
4D
100
AcDbEntity
  8
1
100
AcDbBlockReference
  2
_punkt
 10
-100.8999993089292
 20
-257.4035375965261
 30
0.0
  0
ENDBLK
  5
51
330
4D
100
AcDbEntity
  8
0
100
AcDbBlockEnd
  0
BLOCK
  5
53
330
52
100
AcDbEntity
  8
0
100
AcDbBlockBegin
  2
HC-RBO_8-FE-select__1
 70
     0
 10
-206.9158876014423
 20
-219.9070758933412
 30
0.0
  3
HC-RBO_8-FE-select__1
  1

  0
LINE
  5
1C1
330
52
100
AcDbEntity
  8
0
  6
Continuous
 62
     7
100
AcDbLine
 10
-125.3632781601003
 20
-166.6179237203686
 30
0.0
 11
-188.8862415277028
 21
-148.2804237203017
 31
0.0
  0
LINE
  5
1C2
330
52
100
AcDbEntity
  8
0
  6
Continuous
 62
     7
100
AcDbLine
 10
-195.2158876015099
 20
-150.3257079952005
 30
0.0
 11
-201.0658876004819
 21
-155.3919566064623
 31
0.0
  0
LINE
  5
1C3
330
52
100
AcDbEntity
  8
0
  6
Continuous
 62
     7
100
AcDbLine
 10
-196.0862415287019
 20
-154.5158066284307
 30
0.0
 11
-203.286241529701
 21
-160.7511895365596
 31
0.0
  0
LINE
  5
1C4
330
52
100
AcDbEntity
  8
0
  6
Continuous
 62
     2
100
AcDbLine
 10
-196.0862415287019
 20
-154.5158066284307
 30
0.0
 11
-187.3826862194778
 21
-157.0283066254897
 31
0.0
  0
LINE
  5
1C5
330
52
100
AcDbEntity
  8
0
  6
Continuous
 62
     7
100
AcDbLine
 10
-200.0512757281392
 20
-154.6702379529188
 30
0.0
 11
-205.9012757290993
 21
-159.7364865659021
 31
0.0
  0
LINE
  5
1C6
330
52
100
AcDbEntity
  8
0
  6
Continuous
 62
     2
100
AcDbLine
 10
-200.0512757281392
 20
-154.6702379529188
 30
0.0
 11
-201.0658876004819
 21
-155.3919566064623
 31
0.0
  0
LINE
  5
1C7
330
52
100
AcDbEntity
  8
0
  6
Continuous
 62
     7
100
AcDbLine
 10
-201.0658876004819
 20
-155.3919566064623
 30
0.0
 11
-206.9158876014403
 21
-160.4582052194443
 31
0.0
  0
LINE
  5
1C8
330
52
100
AcDbEntity
  8
0
  6
Continuous
 62
     2
100
AcDbLine
 10
-197.2112415287083
 20
-155.4900852076962
 30
0.0
 11
-200.0512757281392
 21
-154.6702379529188
 31
0.0
  0
LINE
  5
1C9
330
52
100
AcDbEntity
  8
0
  6
Continuous
 62
     7
100
AcDbLine
 10
-163.5789766389407
 20
-209.0197692340621
 30
0.0
 11
-153.5855586242571
 21
-215.5419272204545
 31
0.0
  0
LINE
  5
1CA
330
52
100
AcDbEntity
  8
0
  6
Continuous
 62
     7
100
AcDbLine
 10
-119.7341130355314
 20
-169.5419618260148
 30
0.0
 11
-124.0642400544519
 21
-168.2919618260111
 31
0.0
  0
LINE
  5
1CB
330
52
100
AcDbEntity
  8
0
  6
Continuous
 62
     7
100
AcDbLine
 10
-119.7341130355301
 20
-170.8409999317351
 30
0.0
 11
-126.9341130365099
 21
-177.0763828398299
 31
0.0
  0
LINE
  5
1CC
330
52
100
AcDbEntity
  8
0
  6
Continuous
 62
     7
100
AcDbLine
 10
-126.9341130365113
 20
-175.7773447341619
 30
0.0
 11
-119.7341130355314
 21
-169.5419618260148
 31
0.0
  0
LINE
  5
1CD
330
52
100
AcDbEntity
  8
0
  6
Continuous
 62
     7
100
AcDbLine
 10
-124.0642400544519
 20
-168.2919618260111
 30
0.0
 11
-131.2642400554378
 21
-174.5273447341565
 31
0.0
  0
LINE
  5
1CE
330
52
100
AcDbEntity
  8
0
  6
Continuous
 62
     7
100
AcDbLine
 10
-125.3632781601003
 20
-166.6179237203686
 30
0.0
 11
-132.563278161099
 21
-172.8533066284977
 31
0.0
  0
LINE
  5
1CF
330
52
100
AcDbEntity
  8
0
  6
Continuous
 62
     2
100
AcDbLine
 10
-131.2642400554378
 20
-174.5273447341565
 30
0.0
 11
-126.9341130365113
 21
-175.7773447341619
 31
0.0
  0
LINE
  5
1D0
330
52
100
AcDbEntity
  8
0
  6
Continuous
 62
     7
100
AcDbLine
 10
-126.9341130365099
 20
-177.0763828398299
 30
0.0
 11
-134.1341130375361
 21
-183.3117657479114
 31
0.0
  0
LINE
  5
1D1
330
52
100
AcDbEntity
  8
0
  6
Continuous
 62
     7
100
AcDbLine
 10
-134.1341130374911
 20
-182.012727642309
 30
0.0
 11
-126.9341130365113
 21
-175.7773447341619
 31
0.0
  0
LINE
  5
1D2
330
52
100
AcDbEntity
  8
0
  6
Continuous
 62
     7
100
AcDbLine
 10
-138.4642400564139
 20
-182.0617657479301
 30
0.0
 11
-134.1341130375361
 21
-183.3117657479114
 31
0.0
  0
LINE
  5
1D3
330
52
100
AcDbEntity
  8
0
  6
Continuous
 62
     7
100
AcDbLine
 10
-134.1341130374911
 20
-182.012727642309
 30
0.0
 11
-134.1341130375361
 21
-183.3117657479114
 31
0.0
  0
LINE
  5
1D4
330
52
100
AcDbEntity
  8
0
  6
Continuous
 62
     2
100
AcDbLine
 10
-126.9341130365113
 20
-175.7773447341619
 30
0.0
 11
-126.9341130365099
 21
-177.0763828398299
 31
0.0
  0
LINE
  5
1D5
330
52
100
AcDbEntity
  8
0
  6
Continuous
 62
     7
100
AcDbLine
 10
-125.3632781601003
 20
-166.6179237203686
 30
0.0
 11
-124.0642400544519
 21
-168.2919618260111
 31
0.0
  0
LINE
  5
1D6
330
52
100
AcDbEntity
  8
0
  6
Continuous
 62
     7
100
AcDbLine
 10
-119.7341130355301
 20
-170.8409999317351
 30
0.0
 11
-119.7341130355314
 21
-169.5419618260148
 31
0.0
  0
LINE
  5
1D7
330
52
100
AcDbEntity
  8
0
  6
Continuous
 62
     7
100
AcDbLine
 10
-194.2012757291565
 20
-149.6039893416494
 30
0.0
 11
-200.0512757281392
 21
-154.6702379529188
 31
0.0
  0
LINE
  5
1D8
330
52
100
AcDbEntity
  8
0
  6
Continuous
 62
     7
100
AcDbLine
 10
-188.8862415277028
 20
-148.2804237203017
 30
0.0
 11
-196.0862415287019
 21
-154.5158066284307
 31
0.0
  0
LINE
  5
1D9
330
52
100
AcDbEntity
  8
0
  6
Continuous
 62
     7
100
AcDbLine
 10
-195.2158876015099
 20
-150.3257079952005
 30
0.0
 11
-194.2012757291565
 21
-149.6039893416494
 31
0.0
  0
LINE
  5
1DA
330
52
100
AcDbEntity
  8
0
  6
Continuous
 62
     7
100
AcDbLine
 10
-194.2012757291565
 20
-149.6039893416494
 30
0.0
 11
-191.3612415297417
 21
-150.423836596419
 31
0.0
  0
LINE
  5
1DB
330
52
100
AcDbEntity
  8
0
  6
Continuous
 62
     7
100
AcDbLine
 10
-163.5789766389407
 20
-209.0197692340621
 30
0.0
 11
-163.5789766387924
 21
-182.3987933574012
 31
0.0
  0
LINE
  5
1DC
330
52
100
AcDbEntity
  8
0
  6
Continuous
 62
     7
100
AcDbLine
 10
-139.763278162124
 20
-179.0886895366192
 30
0.0
 11
-203.286241529701
 21
-160.7511895365596
 31
0.0
  0
LINE
  5
1DD
330
52
100
AcDbEntity
  8
0
  6
Continuous
 62
     2
100
AcDbLine
 10
-183.9185846039019
 20
-158.0283066289128
 30
0.0
 11
-170.0621781449764
 21
-162.0283066284574
 31
0.0
  0
LINE
  5
1DE
330
52
100
AcDbEntity
  8
0
  6
Continuous
 62
     7
100
AcDbLine
 10
-206.4271187315278
 20
-161.5396192875837
 30
0.0
 11
-205.6271187315068
 21
-160.8467989645347
 31
0.0
  0
LINE
  5
1DF
330
52
100
AcDbEntity
  8
0
  6
Continuous
 62
     7
100
AcDbLine
 10
-205.9012757290993
 20
-159.7364865659021
 30
0.0
 11
-206.9158876014403
 21
-160.4582052194443
 31
0.0
  0
LINE
  5
1E0
330
52
100
AcDbEntity
  8
0
  6
Continuous
 62
     7
100
AcDbLine
 10
-203.0612415296773
 20
-160.5563338206871
 30
0.0
 11
-205.9012757290993
 21
-159.7364865659021
 31
0.0
  0
LINE
  5
1E1
330
52
100
AcDbEntity
  8
0
  6
Continuous
 62
     2
100
AcDbLine
 10
-187.3826862194778
 20
-157.0283066254897
 30
0.0
 11
-187.3826862223312
 21
-158.0283066256166
 31
0.0
  0
LINE
  5
1E2
330
52
100
AcDbEntity
  8
0
  6
Continuous
 62
     7
100
AcDbLine
 10
-206.9158876014423
 20
-163.0529245414649
 30
0.0
 11
-206.9158876014403
 21
-160.4582052194443
 31
0.0
  0
LINE
  5
1E3
330
52
100
AcDbEntity
  8
0
  6
Continuous
 62
     7
100
AcDbLine
 10
-206.9158876014423
 20
-163.0529245414649
 30
0.0
 11
-206.7340612409368
 21
-163.2075908842058
 31
0.0
  0
LINE
  5
1E4
330
52
100
AcDbEntity
  8
0
  6
Continuous
 62
     7
100
AcDbLine
 10
-201.4599275575753
 20
-165.3487203661169
 30
0.0
 11
-203.9098516778143
 21
-164.6414881909635
 31
0.0
  0
LINE
  5
1E5
330
52
100
AcDbEntity
  8
0
  6
Continuous
 62
     7
100
AcDbLine
 10
-203.8085040486886
 20
-164.5633350716512
 30
0.0
 11
-203.0085040486677
 21
-163.8705147486022
 31
0.0
  0
LINE
  5
1E6
330
52
100
AcDbEntity
  8
0
  6
Continuous
 62
     7
100
AcDbLine
 10
-201.4599275575753
 20
-165.3487203661169
 30
0.0
 11
-201.1099275576438
 21
-165.0456114748527
 31
0.0
  0
LINE
  5
1E7
330
52
100
AcDbEntity
  8
0
  6
Continuous
 62
     7
100
AcDbLine
 10
-201.1099275576438
 20
-165.0456114748527
 30
0.0
 11
-201.1099275576759
 21
-162.6784753709973
 31
0.0
  0
LINE
  5
1E8
330
52
100
AcDbEntity
  8
0
  6
Continuous
 62
     7
100
AcDbLine
 10
-170.0621781449768
 20
-162.2881142495824
 30
0.0
 11
-170.4317879708052
 21
-162.6082057482425
 31
0.0
  0
LINE
  5
1E9
330
52
100
AcDbEntity
  8
0
  6
Continuous
 62
     7
100
AcDbLine
 10
-151.5724862369721
 20
-167.3658209286354
 30
0.0
 11
-145.9287281586399
 21
-162.4781830599294
 31
0.0
  0
LINE
  5
1EA
330
52
100
AcDbEntity
  8
0
  6
Continuous
 62
     7
100
AcDbLine
 10
-145.9287281586399
 20
-162.4781830599294
 30
0.0
 11
-146.967943400472
 21
-161.5781698593483
 31
0.0
  0
LINE
  5
1EB
330
52
100
AcDbEntity
  8
0
  6
Continuous
 62
     7
100
AcDbLine
 10
-146.9679434004722
 20
-161.837977480461
 30
0.0
 11
-146.0787259585303
 21
-162.6080849651477
 31
0.0
  0
LINE
  5
1EC
330
52
100
AcDbEntity
  8
0
  6
Continuous
 62
     7
100
AcDbLine
 10
-146.967943400472
 20
-161.5781698593483
 30
0.0
 11
-169.5425705287197
 21
-161.5783132327739
 31
0.0
  0
LINE
  5
1ED
330
52
100
AcDbEntity
  8
0
  6
Continuous
 62
     7
100
AcDbLine
 10
-146.9679434004722
 20
-161.837977480461
 30
0.0
 11
-146.967943400472
 21
-161.5781698593483
 31
0.0
  0
LINE
  5
1EE
330
52
100
AcDbEntity
  8
0
  6
Continuous
 62
     7
100
AcDbLine
 10
-169.5425705287199
 20
-161.8381208538979
 30
0.0
 11
-146.9679434004722
 21
-161.837977480461
 31
0.0
  0
LINE
  5
1EF
330
52
100
AcDbEntity
  8
0
  6
Continuous
 62
     7
100
AcDbLine
 10
-167.3426823835127
 20
-174.7933755203415
 30
0.0
 11
-201.1099275576438
 21
-165.0456114748527
 31
0.0
  0
LINE
  5
1F0
330
52
100
AcDbEntity
  8
0
  6
Continuous
 62
     7
100
AcDbLine
 10
-168.7093490502018
 20
-172.0317167326607
 30
0.0
 11
-203.2862415297027
 21
-162.0502276422605
 31
0.0
  0
LINE
  5
1F1
330
52
100
AcDbEntity
  8
0
  6
Continuous
 62
     7
100
AcDbLine
 10
-203.286241529701
 20
-160.7511895365596
 30
0.0
 11
-203.2862415297027
 21
-162.0502276422605
 31
0.0
  0
LINE
  5
1F2
330
52
100
AcDbEntity
  8
0
  6
Continuous
 62
     7
100
AcDbLine
 10
-201.4599275575753
 20
-165.3487203661169
 30
0.0
 11
-201.4599275576086
 21
-162.5774390739078
 31
0.0
  0
LINE
  5
1F3
330
52
100
AcDbEntity
  8
0
  6
Continuous
 62
     7
100
AcDbLine
 10
-170.5817857707024
 20
-162.4783000323414
 30
0.0
 11
-170.0621781449764
 21
-162.0283066284574
 31
0.0
  0
LINE
  5
1F4
330
52
100
AcDbEntity
  8
0
  6
Continuous
 62
     2
100
AcDbLine
 10
-170.0621781449768
 20
-162.2881142495824
 30
0.0
 11
-170.0621781449764
 21
-162.0283066284574
 31
0.0
  0
LINE
  5
1F5
330
52
100
AcDbEntity
  8
0
  6
Continuous
 62
     7
100
AcDbLine
 10
-169.5425705287199
 20
-161.8381208538979
 30
0.0
 11
-170.0621781449768
 21
-162.2881142495824
 31
0.0
  0
LINE
  5
1F6
330
52
100
AcDbEntity
  8
0
  6
Continuous
 62
     7
100
AcDbLine
 10
-169.5425705287197
 20
-161.5783132327739
 30
0.0
 11
-170.0621781449764
 21
-162.0283066284574
 31
0.0
  0
LINE
  5
1F7
330
52
100
AcDbEntity
  8
0
  6
Continuous
 62
     7
100
AcDbLine
 10
-169.5425705287199
 20
-161.8381208538979
 30
0.0
 11
-169.5425705287197
 21
-161.5783132327739
 31
0.0
  0
LINE
  5
1F8
330
52
100
AcDbEntity
  8
0
  6
Continuous
 62
     2
100
AcDbLine
 10
-170.0621781449768
 20
-162.2881142495824
 30
0.0
 11
-151.7974862369598
 21
-167.5606766444785
 31
0.0
  0
LINE
  5
1F9
330
52
100
AcDbEntity
  8
0
  6
Continuous
 62
     7
100
AcDbLine
 10
-159.2947205364898
 20
-172.2534720060529
 30
0.0
 11
-170.5817857707024
 21
-162.4783000323414
 31
0.0
  0
LINE
  5
1FA
330
52
100
AcDbEntity
  8
0
  6
Continuous
 62
     7
100
AcDbLine
 10
-151.5724862369721
 20
-167.3658209286354
 30
0.0
 11
-157.2162443246894
 21
-172.2534588054692
 31
0.0
  0
LINE
  5
1FB
330
52
100
AcDbEntity
  8
0
  6
Continuous
 62
     7
100
AcDbLine
 10
-163.5789766387924
 20
-182.3987933574012
 30
0.0
 11
-168.7093490502018
 21
-172.0317167326607
 31
0.0
  0
LINE
  5
1FC
330
52
100
AcDbEntity
  8
0
  6
Continuous
 62
     7
100
AcDbLine
 10
-157.2162443246894
 20
-172.2534588054692
 30
0.0
 11
-159.2947205364898
 21
-172.2534720060529
 31
0.0
  0
LINE
  5
1FD
330
52
100
AcDbEntity
  8
0
  6
Continuous
 62
     2
100
AcDbLine
 10
-151.5724862369721
 20
-167.3658209286354
 30
0.0
 11
-132.563278161099
 21
-172.8533066284977
 31
0.0
  0
LINE
  5
1FE
330
52
100
AcDbEntity
  8
0
  6
Continuous
 62
     7
100
AcDbLine
 10
-131.2642400554378
 20
-174.5273447341565
 30
0.0
 11
-138.4642400564372
 21
-180.7627276422847
 31
0.0
  0
LINE
  5
1FF
330
52
100
AcDbEntity
  8
0
  6
Continuous
 62
     7
100
AcDbLine
 10
-139.763278162124
 20
-179.0886895366192
 30
0.0
 11
-132.563278161099
 21
-172.8533066284977
 31
0.0
  0
LINE
  5
200
330
52
100
AcDbEntity
  8
0
  6
Continuous
 62
     7
100
AcDbLine
 10
-138.4642400564372
 20
-180.7627276422847
 30
0.0
 11
-139.763278162124
 21
-179.0886895366192
 31
0.0
  0
LINE
  5
201
330
52
100
AcDbEntity
  8
0
  6
Continuous
 62
     2
100
AcDbLine
 10
-131.2642400554378
 20
-174.5273447341565
 30
0.0
 11
-132.563278161099
 21
-172.8533066284977
 31
0.0
  0
LINE
  5
202
330
52
100
AcDbEntity
  8
0
  6
Continuous
 62
     7
100
AcDbLine
 10
-138.4642400564372
 20
-180.7627276422847
 30
0.0
 11
-134.1341130374911
 21
-182.012727642309
 31
0.0
  0
LINE
  5
203
330
52
100
AcDbEntity
  8
0
  6
Continuous
 62
     7
100
AcDbLine
 10
-124.0642400544152
 20
-207.4363100770571
 30
0.0
 11
-125.514240056431
 21
-208.6920469143004
 31
0.0
  0
LINE
  5
204
330
52
100
AcDbEntity
  8
0
  6
Continuous
 62
     7
100
AcDbLine
 10
-126.5142400564269
 20
-207.8260215105121
 30
0.0
 11
-125.514240056431
 21
-208.6920469143004
 31
0.0
  0
LINE
  5
205
330
52
100
AcDbEntity
  8
0
  6
Continuous
 62
     7
100
AcDbLine
 10
-127.7266756217466
 20
-207.476021510462
 30
0.0
 11
-126.7266756217925
 21
-208.3420469142809
 31
0.0
  0
LINE
  5
206
330
52
100
AcDbEntity
  8
0
  6
Continuous
 62
     7
100
AcDbLine
 10
-137.0142400563822
 20
-218.6513390578243
 30
0.0
 11
-136.0142400563568
 21
-216.0532628464735
 31
0.0
  0
LINE
  5
207
330
52
100
AcDbEntity
  8
0
  6
Continuous
 62
     7
100
AcDbLine
 10
-153.5855586242571
 20
-215.5419272204545
 30
0.0
 11
-138.4642400564097
 21
-219.9070758933412
 31
0.0
  0
LINE
  5
208
330
52
100
AcDbEntity
  8
0
  6
Continuous
 62
     7
100
AcDbLine
 10
-126.7266756217925
 20
-208.3420469142809
 30
0.0
 11
-125.514240056431
 21
-208.6920469143004
 31
0.0
  0
LINE
  5
209
330
52
100
AcDbEntity
  8
0
  6
Continuous
 62
     7
100
AcDbLine
 10
-127.7266756217466
 20
-207.476021510462
 30
0.0
 11
-126.5142400564269
 21
-207.8260215105121
 31
0.0
  0
LINE
  5
20A
330
52
100
AcDbEntity
  8
0
  6
Continuous
 62
     7
100
AcDbLine
 10
-136.0142400563749
 20
-204.7949325970918
 30
0.0
 11
-127.7266756217464
 21
-207.187346375735
 31
0.0
  0
LINE
  5
20B
330
52
100
AcDbEntity
  8
0
  6
Continuous
 62
     7
100
AcDbLine
 10
-126.5142400564019
 20
-176.7127621727299
 30
0.0
 11
-126.5142400564269
 21
-207.8260215105121
 31
0.0
  0
LINE
  5
20C
330
52
100
AcDbEntity
  8
0
  6
Continuous
 62
     7
100
AcDbLine
 10
-127.7266756217466
 20
-207.476021510462
 30
0.0
 11
-127.7266756217331
 21
-187.0821196760695
 31
0.0
  0
LINE
  5
20D
330
52
100
AcDbEntity
  8
0
  6
Continuous
 62
     7
100
AcDbLine
 10
-127.7266756217331
 20
-187.0821196760695
 30
0.0
 11
-136.0142400564073
 21
-184.6897058974303
 31
0.0
  0
LINE
  5
20E
330
52
100
AcDbEntity
  8
0
  6
Continuous
 62
     7
100
AcDbLine
 10
-124.0642400544152
 20
-207.4363100770571
 30
0.0
 11
-124.0642400544491
 21
-174.5909999317539
 31
0.0
  0
LINE
  5
20F
330
52
100
AcDbEntity
  8
0
  6
Continuous
 62
     7
100
AcDbLine
 10
-136.0142400563568
 20
-216.0532628464735
 30
0.0
 11
-136.0142400564109
 21
-184.2701305275993
 31
0.0
  0
LINE
  5
210
330
52
100
AcDbEntity
  8
0
  6
Continuous
 62
     7
100
AcDbLine
 10
-137.0142400563822
 20
-218.6513390578243
 30
0.0
 11
-138.4642400564097
 21
-219.9070758933412
 31
0.0
  0
LINE
  5
211
330
52
100
AcDbEntity
  8
0
  6
Continuous
 62
     7
100
AcDbLine
 10
-138.4642400564139
 20
-182.0617657479301
 30
0.0
 11
-138.4642400564097
 21
-219.9070758933412
 31
0.0
  0
SPLINE
  5
212
330
52
100
AcDbEntity
  8
0
  6
Continuous
 62
     7
100
AcDbSpline
210
0.0
220
0.0
230
1.0
 70
     8
 71
     3
 72
    13
 73
     9
 74
     7
 42
0.000000001
 43
0.0000000001
 44
0.00000001
 40
0.0
 40
0.0
 40
0.0
 40
0.0
 40
0.3065487610682587
 40
0.6255106235509722
 40
0.9625422654501679
 40
1.319786990918229
 40
1.696054070164107
 40
2.087464596108889
 40
2.087464596108889
 40
2.087464596108889
 40
2.087464596108889
 10
-193.0257711025086
 20
-149.943328297963
 30
0.0
 10
-192.9366315915857
 20
-149.8921874842626
 30
0.0
 10
-192.7547430305804
 20
-149.7878350210124
 30
0.0
 10
-192.434894075192
 20
-149.7251145678242
 30
0.0
 10
-192.0952936072056
 20
-149.7312167196812
 30
0.0
 10
-191.7456096279441
 20
-149.8125879209328
 30
0.0
 10
-191.3977400809675
 20
-149.959295821287
 30
0.0
 10
-191.1868923543087
 20
-150.1053019051484
 30
0.0
 10
-191.0793888710359
 20
-150.179745033855
 30
0.0
 11
-193.0257711025086
 21
-149.943328297963
 31
0.0
 11
-192.7521161231451
 21
-149.8051794758714
 31
0.0
 11
-192.4404538763099
 21
-149.737331735111
 31
0.0
 11
-192.1034625617686
 21
-149.7425454998827
 31
0.0
 11
-191.7548510337148
 21
-149.8206082794318
 31
0.0
 11
-191.408800730066
 21
-149.9683448785195
 31
0.0
 11
-191.0793888710359
 21
-150.179745033855
 31
0.0
  0
SPLINE
  5
213
330
52
100
AcDbEntity
  8
0
  6
Continuous
 62
     7
100
AcDbSpline
210
0.0
220
0.0
230
1.0
 70
     8
 71
     3
 72
     9
 73
     5
 74
     3
 42
0.000000001
 43
0.0000000001
 44
0.00000001
 40
0.0
 40
0.0
 40
0.0
 40
0.0
 40
0.2676406721142669
 40
0.5808314412871617
 40
0.5808314412871617
 40
0.5808314412871617
 40
0.5808314412871617
 10
-183.6506354093157
 20
-157.5283066267908
 30
0.0
 10
-183.6654727642162
 20
-157.6186280356515
 30
0.0
 10
-183.6976726799994
 20
-157.8146427590628
 30
0.0
 10
-183.8411954969605
 20
-157.9534566445141
 30
0.0
 10
-183.9185846039019
 20
-158.0283066289128
 30
0.0
 11
-183.6506354093157
 21
-157.5283066267908
 31
0.0
 11
-183.7187842723371
 21
-157.787125604055
 31
0.0
 11
-183.9185846039019
 21
-158.0283066289128
 31
0.0
  0
SPLINE
  5
214
330
52
100
AcDbEntity
  8
0
  6
Continuous
 62
     7
100
AcDbSpline
210
0.0
220
0.0
230
1.0
 70
     8
 71
     3
 72
    17
 73
    13
 74
    11
 42
0.000000001
 43
0.0000000001
 44
0.00000001
 40
0.0
 40
0.0
 40
0.0
 40
0.0
 40
0.3793598563678731
 40
0.8230125956760037
 40
1.315611000255432
 40
1.834369245487177
 40
2.353127490883798
 40
2.84572589620517
 40
3.289378634652518
 40
3.668738485050161
 40
3.981929254674777
 40
4.249569918884534
 40
4.249569918884534
 40
4.249569918884534
 40
4.249569918884534
 10
-187.3826862194778
 20
-157.0283066254897
 30
0.0
 10
-187.2794125870244
 20
-156.9544061064468
 30
0.0
 10
-187.0553627795007
 20
-156.7940806190194
 30
0.0
 10
-186.6368968241592
 20
-156.6476033996151
 30
0.0
 10
-186.1614264076348
 20
-156.54947547884
 30
0.0
 10
-185.6505610716836
 20
-156.5173347492834
 30
0.0
 10
-185.1401342178607
 20
-156.549918672731
 30
0.0
 10
-184.6634549759601
 20
-156.6460031590607
 30
0.0
 10
-184.2487674164537
 20
-156.799104708205
 30
0.0
 10
-183.9282584723467
 20
-157.0007547669354
 30
0.0
 10
-183.6989477334438
 20
-157.2442122180059
 30
0.0
 10
-183.6658749671246
 20
-157.4386923450691
 30
0.0
 10
-183.6506354093157
 20
-157.5283066267908
 30
0.0
 11
-187.3826862194778
 21
-157.0283066254897
 31
0.0
 11
-187.0648485966836
 21
-156.8212000328428
 31
0.0
 11
-186.6506354108475
 21
-156.6622812217996
 31
0.0
 11
-186.1682733626209
 21
-156.5623810569293
 31
0.0
 11
-185.6506354100743
 21
-156.5283066258368
 31
0.0
 11
-185.1329974576054
 21
-156.5623810572249
 31
0.0
 11
-184.6506354096066
 21
-156.6622812223707
 31
0.0
 11
-184.2364222241328
 21
-156.8212000336505
 31
0.0
 11
-183.9185846018109
 21
-157.0283066264788
 31
0.0
 11
-183.7187842717957
 21
-157.2694876505361
 31
0.0
 11
-183.6506354093157
 21
-157.5283066267908
 31
0.0
  0
SPLINE
  5
215
330
52
100
AcDbEntity
  8
0
  6
Continuous
 62
     7
100
AcDbSpline
210
0.0
220
0.0
230
1.0
 70
     8
 71
     3
 72
     9
 73
     5
 74
     3
 42
0.000000001
 43
0.0000000001
 44
0.00000001
 40
0.0
 40
0.0
 40
0.0
 40
0.0
 40
0.7566415182279387
 40
1.47138954138947
 40
1.47138954138947
 40
1.47138954138947
 40
1.47138954138947
 10
-135.8885088588911
 20
-182.8053152980516
 30
0.0
 10
-135.925069679257
 20
-183.0551312538548
 30
0.0
 10
-135.9961670118415
 20
-183.5409314344519
 30
0.0
 10
-136.0083311608182
 20
-184.0317221036865
 30
0.0
 10
-136.0142400564109
 20
-184.2701305275993
 30
0.0
 11
-135.8885088588911
 21
-182.8053152980516
 31
0.0
 11
-135.9826070952903
 21
-183.5560828450467
 31
0.0
 11
-136.0142400564109
 21
-184.2701305275993
 31
0.0
  0
SPLINE
  5
216
330
52
100
AcDbEntity
  8
0
  6
Continuous
 62
     7
100
AcDbSpline
210
0.0
220
0.0
230
1.0
 70
     8
 71
     3
 72
    13
 73
     9
 74
     7
 42
0.000000001
 43
0.0000000001
 44
0.00000001
 40
0.0
 40
0.0
 40
0.0
 40
0.0
 40
0.3750298199335362
 40
0.7666783497346525
 40
1.185929913511431
 40
1.635765314702021
 40
2.111857133490487
 40
2.604596403754726
 40
2.604596403754726
 40
2.604596403754726
 40
2.604596403754726
 10
-205.6271187315068
 20
-160.8467989645347
 30
0.0
 10
-205.5240780833359
 20
-160.7740376192459
 30
0.0
 10
-205.3134307358222
 20
-160.6252906646467
 30
0.0
 10
-204.9168748579106
 20
-160.5426914784659
 30
0.0
 10
-204.4938920785715
 20
-160.5662160558774
 30
0.0
 10
-204.0626300409071
 20
-160.702258879751
 30
0.0
 10
-203.6448038952498
 20
-160.9330419967768
 30
0.0
 10
-203.4071236704282
 20
-161.1531481401179
 30
0.0
 10
-203.2862415297018
 20
-161.265092262236
 30
0.0
 11
-205.6271187315068
 21
-160.8467989645347
 31
0.0
 11
-205.3070575150626
 21
-160.6513298199011
 31
0.0
 11
-204.9258928432335
 21
-160.5613183351746
 31
0.0
 11
-204.5071679130136
 21
-160.5823256932859
 31
0.0
 11
-204.076746866369
 21
-160.7130529373223
 31
0.0
 11
-203.6612160054929
 21
-160.9454266106258
 31
0.0
 11
-203.2862415297018
 21
-161.265092262236
 31
0.0
  0
SPLINE
  5
217
330
52
100
AcDbEntity
  8
0
  6
Continuous
 62
     7
100
AcDbSpline
210
0.0
220
0.0
230
1.0
 70
     8
 71
     3
 72
     9
 73
     5
 74
     3
 42
0.000000001
 43
0.0000000001
 44
0.00000001
 40
0.0
 40
0.0
 40
0.0
 40
0.0
 40
0.2676406716075632
 40
0.5808314400503916
 40
0.5808314400503916
 40
0.5808314400503916
 40
0.5808314400503916
 10
-187.6506354131133
 20
-157.5283066267882
 30
0.0
 10
-187.635798058275
 20
-157.4379852180979
 30
0.0
 10
-187.6035981426346
 20
-157.2419704951026
 30
0.0
 10
-187.4600753261479
 20
-157.1031566097955
 30
0.0
 10
-187.3826862194778
 20
-157.0283066254897
 30
0.0
 11
-187.6506354131133
 21
-157.5283066267882
 31
0.0
 11
-187.582486550338
 21
-157.2694876499831
 31
0.0
 11
-187.3826862194778
 21
-157.0283066254897
 31
0.0
  0
SPLINE
  5
218
330
52
100
AcDbEntity
  8
0
  6
Continuous
 62
     7
100
AcDbSpline
210
0.0
220
0.0
230
1.0
 70
     8
 71
     3
 72
    11
 73
     7
 74
     5
 42
0.000000001
 43
0.0000000001
 44
0.00000001
 40
0.0
 40
0.0
 40
0.0
 40
0.0
 40
0.3007359728960698
 40
0.5867218291850762
 40
0.8611873651279885
 40
1.129302987309514
 40
1.129302987309514
 40
1.129302987309514
 40
1.129302987309514
 10
-206.849862197678
 20
-162.5514771796158
 30
0.0
 10
-206.8448939649319
 20
-162.4509957619889
 30
0.0
 10
-206.8352011604387
 20
-162.25496121346
 30
0.0
 10
-206.7506118853299
 20
-161.9782183904328
 30
0.0
 10
-206.619594578793
 20
-161.7312320557429
 30
0.0
 10
-206.4907748182058
 20
-161.6029899277093
 30
0.0
 10
-206.4271187315278
 20
-161.5396192875837
 30
0.0
 11
-206.849862197678
 21
-162.5514771796158
 31
0.0
 11
-206.822363008941
 21
-162.2520011032443
 31
0.0
 11
-206.7407388127098
 21
-161.9779109689275
 31
0.0
 11
-206.6075812696447
 21
-161.7379101346707
 31
0.0
 11
-206.4271187315278
 21
-161.5396192875837
 31
0.0
  0
SPLINE
  5
219
330
52
100
AcDbEntity
  8
0
  6
Continuous
 62
     7
100
AcDbSpline
210
0.0
220
0.0
230
1.0
 70
     8
 71
     3
 72
    19
 73
    15
 74
    13
 42
0.000000001
 43
0.0000000001
 44
0.00000001
 40
0.0
 40
0.0
 40
0.0
 40
0.0
 40
0.3941644373871192
 40
0.8074425663561067
 40
1.251886396918135
 40
1.729795108058224
 40
2.23489731765845
 40
2.755052536218574
 40
3.275207754778767
 40
3.78030996437899
 40
4.258218675519057
 40
4.702662506081079
 40
5.115940635050027
 40
5.510105072437191
 40
5.510105072437191
 40
5.510105072437191
 40
5.510105072437191
 10
-206.4271187315278
 20
-161.5396192875837
 30
0.0
 10
-206.3183202534306
 20
-161.4636603234075
 30
0.0
 10
-206.0954474706672
 20
-161.308059029787
 30
0.0
 10
-205.673831076485
 20
-161.2310069014219
 30
0.0
 10
-205.2269010025618
 20
-161.2712387799268
 30
0.0
 10
-204.7742311053456
 20
-161.4331262235196
 30
0.0
 10
-204.3469143032578
 20
-161.701199774937
 30
0.0
 10
-203.971149841861
 20
-162.0584391492878
 30
0.0
 10
-203.671255195293
 20
-162.481383710661
 30
0.0
 10
-203.4669764463202
 20
-162.9426138820876
 30
0.0
 10
-203.3714165588288
 20
-163.4137676660494
 30
0.0
 10
-203.3954444792988
 20
-163.8618611318159
 30
0.0
 10
-203.5319372219856
 20
-164.268145694066
 30
0.0
 10
-203.7177815316788
 20
-164.4665037854756
 30
0.0
 10
-203.8085040486886
 20
-164.5633350716512
 30
0.0
 11
-206.4271187315278
 21
-161.5396192875837
 31
0.0
 11
-206.0890316948422
 21
-161.3369797962293
 31
0.0
 11
-205.6847580996265
 21
-161.2511795851721
 31
0.0
 11
-205.2418477310792
 21
-161.2880676072742
 31
0.0
 11
-204.7904845547584
 21
-161.4451281693278
 31
0.0
 11
-204.3614283299208
 21
-161.7116595891538
 31
0.0
 11
-203.9839179710833
 21
-162.0694966735531
 31
0.0
 11
-203.6836811589083
 21
-162.4942546124032
 31
0.0
 11
-203.4811772133388
 21
-162.9569860613615
 31
0.0
 11
-203.3902080251869
 21
-163.426156972542
 31
0.0
 11
-203.4169712615649
 21
-163.8697942679985
 31
0.0
 11
-203.5596448179373
 21
-164.2576641847464
 31
0.0
 11
-203.8085040486886
 21
-164.5633350716512
 31
0.0
  0
SPLINE
  5
21A
330
52
100
AcDbEntity
  8
0
  6
Continuous
 62
     7
100
AcDbSpline
210
0.0
220
0.0
230
1.0
 70
     8
 71
     3
 72
    17
 73
    13
 74
    11
 42
0.000000001
 43
0.0000000001
 44
0.00000001
 40
0.0
 40
0.0
 40
0.0
 40
0.0
 40
0.3653522826161627
 40
0.7461405152738528
 40
1.15280012059288
 40
1.588562857865459
 40
2.049955914036934
 40
2.528535877780755
 40
3.012912096491492
 40
3.490759028512748
 40
3.95080600000794
 40
4.384852940519827
 40
4.384852940519827
 40
4.384852940519827
 40
4.384852940519827
 10
-203.8085040486886
 20
-164.5633350716512
 30
0.0
 10
-203.9086482123394
 20
-164.6344539967102
 30
0.0
 10
-204.113167587027
 20
-164.7796965738459
 30
0.0
 10
-204.4972345681576
 20
-164.8647773757895
 30
0.0
 10
-204.9076891803975
 20
-164.848856724989
 30
0.0
 10
-205.3290395867006
 20
-164.7265685084265
 30
0.0
 10
-205.7360030313444
 20
-164.5090325659435
 30
0.0
 10
-206.1067813846749
 20
-164.2082536219741
 30
0.0
 10
-206.4214272053485
 20
-163.8415434728652
 30
0.0
 10
-206.6592881531018
 20
-163.4293658745453
 30
0.0
 10
-206.8176427061575
 20
-162.9948154456343
 30
0.0
 10
-206.8393326177216
 20
-162.6963636337685
 30
0.0
 10
-206.849862197678
 20
-162.5514771796158
 30
0.0
 11
-203.8085040486886
 21
-164.5633350716512
 31
0.0
 11
-204.1195016754612
 21
-164.7550712721487
 31
0.0
 11
-204.4890562922296
 21
-164.8468812265426
 31
0.0
 11
-204.8954916672466
 21
-164.8333785356213
 31
0.0
 11
-205.3149674580749
 21
-164.7153563971314
 31
0.0
 11
-205.7228787060399
 21
-164.4997364381501
 31
0.0
 11
-206.0952990434728
 21
-164.1991671877122
 31
0.0
 11
-206.4103830889914
 21
-163.8312781209013
 31
0.0
 11
-206.6496498736639
 21
-163.4176489443354
 31
0.0
 11
-206.7990639239755
 21
-162.9825413060002
 31
0.0
 11
-206.849862197678
 21
-162.5514771796158
 31
0.0
  0
SPLINE
  5
21B
330
52
100
AcDbEntity
  8
0
  6
Continuous
 62
     7
100
AcDbSpline
210
0.0
220
0.0
230
1.0
 70
     8
 71
     3
 72
    17
 73
    13
 74
    11
 42
0.000000001
 43
0.0000000001
 44
0.00000001
 40
0.0
 40
0.0
 40
0.0
 40
0.0
 40
0.3793598564659488
 40
0.8230125957937419
 40
1.31561100029998
 40
1.834369245375883
 40
2.353127490558553
 40
2.845725895639241
 40
3.289378633852336
 40
3.668738484051112
 40
3.981929253529794
 40
4.249569917638219
 40
4.249569917638219
 40
4.249569917638219
 40
4.249569917638219
 10
-183.9185846039019
 20
-158.0283066289128
 30
0.0
 10
-184.0218582364483
 20
-158.1022071478795
 30
0.0
 10
-184.2459080441478
 20
-158.2625326351229
 30
0.0
 10
-184.6643739995634
 20
-158.4090098543206
 30
0.0
 10
-185.139844416059
 20
-158.5071377748951
 30
0.0
 10
-185.6507097518696
 20
-158.5392785042881
 30
0.0
 10
-186.1611366054798
 20
-158.506694580721
 30
0.0
 10
-186.6378158471319
 20
-158.4106100943241
 30
0.0
 10
-187.0525034063899
 20
-158.2575085451635
 30
0.0
 10
-187.37301235029
 20
-158.0558584864619
 30
0.0
 10
-187.6023230890258
 20
-157.8124010354569
 30
0.0
 10
-187.6353958553167
 20
-157.6179209084762
 30
0.0
 10
-187.6506354131133
 20
-157.5283066267882
 30
0.0
 11
-183.9185846039019
 21
-158.0283066289128
 31
0.0
 11
-184.2364222269554
 21
-158.2354132213413
 31
0.0
 11
-184.6506354128989
 21
-158.3943320321598
 31
0.0
 11
-185.1329974610938
 21
-158.4942321968221
 31
0.0
 11
-185.6506354134955
 21
-158.5283066277422
 31
0.0
 11
-186.1682733657419
 21
-158.4942321962311
 31
0.0
 11
-186.650635413481
 21
-158.3943320310183
 31
0.0
 11
-187.0648485986995
 21
-158.2354132197269
 31
0.0
 11
-187.3826862208082
 21
-158.0283066269355
 31
0.0
 11
-187.5824865506825
 21
-157.7871256029511
 31
0.0
 11
-187.6506354131133
 21
-157.5283066267882
 31
0.0
  0
SPLINE
  5
21C
330
52
100
AcDbEntity
  8
0
  6
Continuous
 62
     7
100
AcDbSpline
210
0.0
220
0.0
230
1.0
 70
     8
 71
     3
 72
    13
 73
     9
 74
     7
 42
0.000000001
 43
0.0000000001
 44
0.00000001
 40
0.0
 40
0.0
 40
0.0
 40
0.0
 40
0.3992005550247128
 40
0.8305811409292037
 40
1.278845293285235
 40
1.727109445641328
 40
2.158490031545829
 40
2.557690586570496
 40
2.557690586570496
 40
2.557690586570496
 40
2.557690586570496
 10
-186.9036318228667
 20
-158.3077294901945
 30
0.0
 10
-186.7777248870978
 20
-158.2640190884599
 30
0.0
 10
-186.5157615034093
 20
-158.1730747519088
 30
0.0
 10
-186.0932105176769
 20
-158.1043862545859
 30
0.0
 10
-185.6506354112148
 20
-158.0783701914246
 30
0.0
 10
-185.2080603047528
 20
-158.1043862545865
 30
0.0
 10
-184.7855093190205
 20
-158.1730747519098
 30
0.0
 10
-184.523545935332
 20
-158.2640190884615
 30
0.0
 10
-184.3976389995633
 20
-158.3077294901962
 30
0.0
 11
-186.9036318228667
 21
-158.3077294901945
 31
0.0
 11
-186.5230294928822
 21
-158.1873012966464
 31
0.0
 11
-186.0981817119767
 21
-158.1125110969975
 31
0.0
 11
-185.6506354112149
 21
-158.0871524620337
 31
0.0
 11
-185.203089110453
 21
-158.112511096998
 31
0.0
 11
-184.7782413295475
 21
-158.1873012966475
 31
0.0
 11
-184.3976389995633
 21
-158.3077294901962
 31
0.0
  0
SPLINE
  5
21D
330
52
100
AcDbEntity
  8
0
  6
Continuous
 62
     7
100
AcDbSpline
210
0.0
220
0.0
230
1.0
 70
     8
 71
     3
 72
    11
 73
     7
 74
     5
 42
0.000000001
 43
0.0000000001
 44
0.00000001
 40
0.0
 40
0.0
 40
0.0
 40
0.0
 40
0.4914183231020621
 40
0.9480289858210262
 40
1.371711571892363
 40
1.775014765168594
 40
1.775014765168594
 40
1.775014765168594
 40
1.775014765168594
 10
-202.6953133161321
 20
-162.2208139237868
 30
0.0
 10
-202.6522972018835
 20
-162.3798695361211
 30
0.0
 10
-202.5693118627638
 20
-162.686714692439
 30
0.0
 10
-202.5917626376136
 20
-163.1491379598241
 30
0.0
 10
-202.7257652379556
 20
-163.5673411291503
 30
0.0
 10
-202.9158189377662
 20
-163.771130873811
 30
0.0
 10
-203.0085040486677
 20
-163.8705147486022
 30
0.0
 11
-202.6953133161321
 21
-162.2208139237868
 31
0.0
 11
-202.5927318875848
 21
-162.7014062861946
 31
0.0
 11
-202.613150867589
 21
-163.1575601692085
 31
0.0
 11
-202.7551163659342
 21
-163.5567502668464
 31
0.0
 11
-203.0085040486677
 21
-163.8705147486022
 31
0.0
  0
ENDBLK
  5
54
330
52
100
AcDbEntity
  8
0
100
AcDbBlockEnd
  0
BLOCK
  5
57
330
55
100
AcDbEntity
  8
0
100
AcDbBlockBegin
  2
Allg1
 70
     0
 10
-163.9999999999508
 20
-183.9999999999
 30
0.0
  3
Allg1
  1

  0
INSERT
  5
56
330
55
100
AcDbEntity
  8
0
100
AcDbBlockReference
  2
HC-RBO_8-FE-select__1
 10
-206.9158876014423
 20
-219.9070758933412
 30
0.0
  0
MTEXT
  5
21E
330
55
100
AcDbEntity
  8
1
 62
     6
100
AcDbMText
 10
-163.99999999995
 20
-226.1570755647529
 30
0.0
 40
5.0
 41
0.0
 71
     2
 72
     1
  1
 
  7
CONVERTER_11
 73
     1
 44
1.32052821128451
  0
ENDBLK
  5
58
330
55
100
AcDbEntity
  8
0
100
AcDbBlockEnd
  0
BLOCK
  5
5A
330
59
100
AcDbEntity
  8
0
100
AcDbBlockBegin
  2
HC-RBO_8-FE-select__2
 70
     0
 10
-331.0000005277536
 20
-208.1500005742876
 30
0.0
  3
HC-RBO_8-FE-select__2
  1

  0
LINE
  5
21F
330
59
100
AcDbEntity
  8
1
  6
DOT_CENTER
 62
     2
100
AcDbLine
 10
-313.2000005277453
 20
-191.5500005673177
 30
0.0
 11
-313.2000005277453
 21
-195.950000571495
 31
0.0
  0
LINE
  5
220
330
59
100
AcDbEntity
  8
1
  6
DOT_CENTER
 62
     2
100
AcDbLine
 10
-311.0000005256566
 20
-193.7500005694063
 30
0.0
 11
-315.400000529834
 21
-193.7500005694063
 31
0.0
  0
LINE
  5
221
330
59
100
AcDbEntity
  8
1
  6
DOT_CENTER
 62
     2
100
AcDbLine
 10
-328.0000005277299
 20
-207.0500005742514
 30
0.0
 11
-328.0000005277299
 21
-205.4500005742028
 31
0.0
  0
LINE
  5
222
330
59
100
AcDbEntity
  8
1
  6
DOT_CENTER
 62
     2
100
AcDbLine
 10
-328.0000005277562
 20
-182.0500005743064
 30
0.0
 11
-328.0000005277562
 21
-180.450000574298
 31
0.0
  0
LINE
  5
223
330
59
100
AcDbEntity
  8
0
  6
Continuous
 62
     7
100
AcDbLine
 10
-275.6499433271614
 20
-181.4232234454978
 30
0.0
 11
-295.2000005277359
 21
-192.7107853397202
 31
0.0
  0
LINE
  5
224
330
59
100
AcDbEntity
  8
0
  6
Continuous
 62
     7
100
AcDbLine
 10
-273.8499433271016
 20
-193.7500005722229
 30
0.0
 11
-273.8499433271563
 21
-182.462484415466
 31
0.0
  0
LINE
  5
225
330
59
100
AcDbEntity
  8
0
  6
Continuous
 62
     7
100
AcDbLine
 10
-250.400000527785
 20
-179.3500005701829
 30
0.0
 11
-250.4000005277568
 21
-193.7500005722012
 31
0.0
  0
LINE
  5
226
330
59
100
AcDbEntity
  8
0
  6
Continuous
 62
     7
100
AcDbLine
 10
-251.9000005277515
 20
-179.3500005701848
 30
0.0
 11
-250.400000527785
 21
-179.3500005701829
 31
0.0
  0
LINE
  5
227
330
59
100
AcDbEntity
  8
0
  6
Continuous
 62
     7
100
AcDbLine
 10
-250.4000005277568
 20
-193.7500005722012
 30
0.0
 11
-250.400000527744
 21
-208.1500005742193
 31
0.0
  0
LINE
  5
228
330
59
100
AcDbEntity
  8
0
  6
Continuous
 62
     7
100
AcDbLine
 10
-251.9000005277547
 20
-208.1500005742211
 30
0.0
 11
-251.9000005277379
 21
-193.750000572203
 31
0.0
  0
LINE
  5
229
330
59
100
AcDbEntity
  8
0
  6
Continuous
 62
     7
100
AcDbLine
 10
-251.9000005277515
 20
-179.3500005701848
 30
0.0
 11
-251.9000005277379
 21
-193.750000572203
 31
0.0
  0
LINE
  5
22A
330
59
100
AcDbEntity
  8
0
  6
Continuous
 62
     2
100
AcDbLine
 10
-295.2000005277309
 20
-193.7500005722422
 30
0.0
 11
-273.8499433271016
 21
-193.7500005722229
 31
0.0
  0
LINE
  5
22B
330
59
100
AcDbEntity
  8
0
  6
Continuous
 62
     2
100
AcDbLine
 10
-311.2000005258465
 20
-193.7500005722567
 30
0.0
 11
-295.2000005277309
 21
-193.7500005722422
 31
0.0
  0
LINE
  5
22C
330
59
100
AcDbEntity
  8
0
  6
Continuous
 62
     2
100
AcDbLine
 10
-325.2500005277228
 20
-193.750000572269
 30
0.0
 11
-329.8284276525012
 21
-193.7500005722731
 31
0.0
  0
LINE
  5
22D
330
59
100
AcDbEntity
  8
0
  6
Continuous
 62
     2
100
AcDbLine
 10
-329.8284276525012
 20
-193.7500005722731
 30
0.0
 11
-331.000000527741
 21
-193.7500005722738
 31
0.0
  0
LINE
  5
22E
330
59
100
AcDbEntity
  8
0
  6
Continuous
 62
     7
100
AcDbLine
 10
-295.2000005277258
 20
-194.7892158237027
 30
0.0
 11
-295.2000005277309
 21
-193.7500005722422
 31
0.0
  0
LINE
  5
22F
330
59
100
AcDbEntity
  8
0
  6
Continuous
 62
     2
100
AcDbLine
 10
-325.2500005277228
 20
-193.750000572269
 30
0.0
 11
-315.2000005296441
 21
-193.7500005665559
 31
0.0
  0
LINE
  5
230
330
59
100
AcDbEntity
  8
0
  6
Continuous
 62
     7
100
AcDbLine
 10
-295.2000005277359
 20
-192.7107853397202
 30
0.0
 11
-295.2000005277309
 21
-193.7500005722422
 31
0.0
  0
LINE
  5
231
330
59
100
AcDbEntity
  8
0
  6
Continuous
 62
     7
100
AcDbLine
 10
-325.2500005277334
 20
-182.0500005743006
 30
0.0
 11
-325.2500005277228
 21
-193.750000572269
 31
0.0
  0
LINE
  5
232
330
59
100
AcDbEntity
  8
0
  6
Continuous
 62
     7
100
AcDbLine
 10
-325.2500005277228
 20
-193.750000572269
 30
0.0
 11
-325.2500005277121
 21
-205.4500005742053
 31
0.0
  0
LINE
  5
233
330
59
100
AcDbEntity
  8
0
  6
Continuous
 62
     7
100
AcDbLine
 10
-326.0000005277562
 20
-182.0500005742987
 30
0.0
 11
-326.0000005277593
 21
-180.450000574298
 31
0.0
  0
LINE
  5
234
330
59
100
AcDbEntity
  8
0
  6
Continuous
 62
     7
100
AcDbLine
 10
-326.0000005277562
 20
-182.0500005742987
 30
0.0
 11
-325.2500005277334
 21
-182.0500005743006
 31
0.0
  0
LINE
  5
235
330
59
100
AcDbEntity
  8
0
  6
Continuous
 62
     7
100
AcDbLine
 10
-325.2500005277337
 20
-179.3500005702513
 30
0.0
 11
-325.2500005277334
 21
-182.0500005743006
 31
0.0
  0
LINE
  5
236
330
59
100
AcDbEntity
  8
0
  6
Continuous
 62
     7
100
AcDbLine
 10
-273.8499433271563
 20
-182.462484415466
 30
0.0
 11
-275.6499433271614
 21
-181.4232234454978
 31
0.0
  0
LINE
  5
237
330
59
100
AcDbEntity
  8
0
  6
Continuous
 62
     7
100
AcDbLine
 10
-251.9000005277515
 20
-179.3500005701848
 30
0.0
 11
-325.2500005277337
 21
-179.3500005702513
 31
0.0
  0
LINE
  5
238
330
59
100
AcDbEntity
  8
0
  6
Continuous
 62
     7
100
AcDbLine
 10
-330.0000005277593
 20
-180.4500005743057
 30
0.0
 11
-326.0000005277593
 21
-180.450000574298
 31
0.0
  0
LINE
  5
239
330
59
100
AcDbEntity
  8
0
  6
Continuous
 62
     7
100
AcDbLine
 10
-330.0000005277562
 20
-182.0500005743064
 30
0.0
 11
-329.8284276525014
 21
-182.0500005743094
 31
0.0
  0
LINE
  5
23A
330
59
100
AcDbEntity
  8
0
  6
Continuous
 62
     7
100
AcDbLine
 10
-329.8284276525014
 20
-182.0500005743094
 30
0.0
 11
-326.0000005277562
 21
-182.0500005742987
 31
0.0
  0
LINE
  5
23B
330
59
100
AcDbEntity
  8
0
  6
Continuous
 62
     7
100
AcDbLine
 10
-251.9000005277547
 20
-208.1500005742211
 30
0.0
 11
-325.2500005277076
 21
-208.1500005742876
 31
0.0
  0
LINE
  5
23C
330
59
100
AcDbEntity
  8
0
  6
Continuous
 62
     7
100
AcDbLine
 10
-330.0000005277299
 20
-207.0500005742514
 30
0.0
 11
-326.0000005277299
 21
-207.0500005742472
 31
0.0
  0
LINE
  5
23D
330
59
100
AcDbEntity
  8
0
  6
Continuous
 62
     7
100
AcDbLine
 10
-273.849943327047
 20
-205.0375167477501
 30
0.0
 11
-275.6499433270419
 21
-206.0767777177357
 31
0.0
  0
LINE
  5
23E
330
59
100
AcDbEntity
  8
0
  6
Continuous
 62
     7
100
AcDbLine
 10
-325.2500005277121
 20
-205.4500005742053
 30
0.0
 11
-325.2500005277076
 21
-208.1500005742876
 31
0.0
  0
LINE
  5
23F
330
59
100
AcDbEntity
  8
0
  6
Continuous
 62
     7
100
AcDbLine
 10
-325.2500005277121
 20
-205.4500005742053
 30
0.0
 11
-326.0000005277316
 21
-205.4500005742028
 31
0.0
  0
LINE
  5
240
330
59
100
AcDbEntity
  8
0
  6
Continuous
 62
     7
100
AcDbLine
 10
-326.0000005277316
 20
-205.4500005742028
 30
0.0
 11
-329.8284276524903
 21
-205.4500005742102
 31
0.0
  0
LINE
  5
241
330
59
100
AcDbEntity
  8
0
  6
Continuous
 62
     7
100
AcDbLine
 10
-326.0000005277299
 20
-207.0500005742472
 30
0.0
 11
-326.0000005277316
 21
-205.4500005742028
 31
0.0
  0
LINE
  5
242
330
59
100
AcDbEntity
  8
0
  6
Continuous
 62
     7
100
AcDbLine
 10
-329.8284276525014
 20
-182.0500005743094
 30
0.0
 11
-329.8284276525012
 21
-193.7500005722731
 31
0.0
  0
LINE
  5
243
330
59
100
AcDbEntity
  8
0
  6
Continuous
 62
     7
100
AcDbLine
 10
-329.8284276525012
 20
-193.7500005722731
 30
0.0
 11
-329.8284276524903
 21
-205.4500005742102
 31
0.0
  0
LINE
  5
244
330
59
100
AcDbEntity
  8
0
  6
Continuous
 62
     7
100
AcDbLine
 10
-329.8284276524903
 20
-205.4500005742102
 30
0.0
 11
-330.0000005277316
 21
-205.450000574207
 31
0.0
  0
LINE
  5
245
330
59
100
AcDbEntity
  8
0
  6
Continuous
 62
     7
100
AcDbLine
 10
-330.0000005277562
 20
-182.0500005743064
 30
0.0
 11
-330.0000005277593
 21
-180.4500005743057
 31
0.0
  0
LINE
  5
246
330
59
100
AcDbEntity
  8
0
  6
Continuous
 62
     7
100
AcDbLine
 10
-275.6499433270419
 20
-206.0767777177357
 30
0.0
 11
-295.2000005277258
 21
-194.7892158237027
 31
0.0
  0
LINE
  5
247
330
59
100
AcDbEntity
  8
0
  6
Continuous
 62
     7
100
AcDbLine
 10
-273.8499433271016
 20
-193.7500005722229
 30
0.0
 11
-273.849943327047
 21
-205.0375167477501
 31
0.0
  0
LINE
  5
248
330
59
100
AcDbEntity
  8
0
  6
Continuous
 62
     2
100
AcDbLine
 10
-273.8499433271016
 20
-193.7500005722229
 30
0.0
 11
-251.9000005277379
 21
-193.750000572203
 31
0.0
  0
LINE
  5
249
330
59
100
AcDbEntity
  8
0
  6
Continuous
 62
     2
100
AcDbLine
 10
-250.4000005277568
 20
-193.7500005722012
 30
0.0
 11
-245.400000527754
 21
-193.7500005721966
 31
0.0
  0
LINE
  5
24A
330
59
100
AcDbEntity
  8
0
  6
Continuous
 62
     2
100
AcDbLine
 10
-250.4000005277568
 20
-193.7500005722012
 30
0.0
 11
-251.9000005277379
 21
-193.750000572203
 31
0.0
  0
LINE
  5
24B
330
59
100
AcDbEntity
  8
0
  6
Continuous
 62
     7
100
AcDbLine
 10
-331.0000005277536
 20
-182.0500005743101
 30
0.0
 11
-331.000000527741
 21
-193.7500005722738
 31
0.0
  0
LINE
  5
24C
330
59
100
AcDbEntity
  8
0
  6
Continuous
 62
     7
100
AcDbLine
 10
-331.000000527741
 20
-193.7500005722738
 30
0.0
 11
-331.0000005277286
 21
-205.4500005742098
 31
0.0
  0
LINE
  5
24D
330
59
100
AcDbEntity
  8
0
  6
Continuous
 62
     7
100
AcDbLine
 10
-330.0000005277299
 20
-207.0500005742514
 30
0.0
 11
-330.0000005277316
 21
-205.450000574207
 31
0.0
  0
LINE
  5
24E
330
59
100
AcDbEntity
  8
0
  6
Continuous
 62
     7
100
AcDbLine
 10
-330.0000005277316
 20
-205.450000574207
 30
0.0
 11
-331.0000005277286
 21
-205.4500005742098
 31
0.0
  0
LINE
  5
24F
330
59
100
AcDbEntity
  8
0
  6
Continuous
 62
     7
100
AcDbLine
 10
-331.0000005277536
 20
-182.0500005743101
 30
0.0
 11
-330.0000005277562
 21
-182.0500005743064
 31
0.0
  0
LINE
  5
250
330
59
100
AcDbEntity
  8
0
  6
Continuous
 62
     7
100
AcDbLine
 10
-245.400000527754
 20
-193.7500005721966
 30
0.0
 11
-245.4000005277894
 21
-179.3500005701784
 31
0.0
  0
LINE
  5
251
330
59
100
AcDbEntity
  8
0
  6
Continuous
 62
     7
100
AcDbLine
 10
-245.4000005277894
 20
-179.3500005701784
 30
0.0
 11
-250.400000527785
 21
-179.3500005701829
 31
0.0
  0
LINE
  5
252
330
59
100
AcDbEntity
  8
0
  6
Continuous
 62
     7
100
AcDbLine
 10
-245.4000005277186
 20
-208.1500005742147
 30
0.0
 11
-245.400000527754
 21
-193.7500005721966
 31
0.0
  0
LINE
  5
253
330
59
100
AcDbEntity
  8
0
  6
Continuous
 62
     7
100
AcDbLine
 10
-250.400000527744
 20
-208.1500005742193
 30
0.0
 11
-245.4000005277186
 21
-208.1500005742147
 31
0.0
  0
LINE
  5
254
330
59
100
AcDbEntity
  8
0
  6
Continuous
 62
     7
100
AcDbLine
 10
-250.400000527744
 20
-208.1500005742193
 30
0.0
 11
-251.9000005277547
 21
-208.1500005742211
 31
0.0
  0
ARC
  5
255
330
59
100
AcDbEntity
  8
0
  6
Continuous
 62
     7
100
AcDbCircle
 10
-313.2000005277453
 20
-193.7500005694063
 30
0.0
 40
2.000000001898798
100
AcDbArc
 50
359.9999999183417
 51
179.9999999183425
  0
ARC
  5
256
330
59
100
AcDbEntity
  8
0
  6
Continuous
 62
     7
100
AcDbCircle
 10
-313.2000005277453
 20
-193.7500005694063
 30
0.0
 40
2.000000001898798
100
AcDbArc
 50
179.9999999183425
 51
359.9999999183417
  0
ENDBLK
  5
5B
330
59
100
AcDbEntity
  8
0
100
AcDbBlockEnd
  0
BLOCK
  5
5E
330
5C
100
AcDbEntity
  8
0
100
AcDbBlockBegin
  2
Drfsicht1
 70
     0
 10
-288.2000003806543
 20
-193.7500001899166
 30
0.0
  3
Drfsicht1
  1

  0
INSERT
  5
5D
330
5C
100
AcDbEntity
  8
0
100
AcDbBlockReference
  2
HC-RBO_8-FE-select__2
 10
-331.0000005277536
 20
-208.1500005742876
 30
0.0
  0
MTEXT
  5
257
330
5C
100
AcDbEntity
  8
1
 62
     6
100
AcDbMText
 10
-288.2000003806543
 20
-213.15000057217
 30
0.0
 40
5.0
 41
0.0
 71
     2
 72
     1
  1
 
  7
CONVERTER_11
 73
     1
 44
1.32052821128451
  0
DIMENSION
  5
262
330
5C
100
AcDbEntity
  8
1
100
AcDbDimension
  2
*D17
 10
-340.818803580303
 20
-208.1500005742876
 30
0.0
 11
-344.743803580303
 21
-192.919468141238
 31
0.0
 70
    32
  1
<>
 71
     5
 42
-1.0
 53
90.0
  3
ME10_DIM_10
100
AcDbAlignedDimension
 13
-325.2500005277337
 23
-179.3500005702513
 33
0.0
 14
-325.2500005277076
 24
-208.1500005742876
 34
0.0
 50
90.0
100
AcDbRotatedDimension
  0
ENDBLK
  5
5F
330
5C
100
AcDbEntity
  8
0
100
AcDbBlockEnd
  0
BLOCK
  5
61
330
60
100
AcDbEntity
  8
0
100
AcDbBlockBegin
  2
HC-RBO_8-FE-select__3
 70
     0
 10
-193.5999994722118
 20
-130.3499996284026
 30
0.0
  3
HC-RBO_8-FE-select__3
  1

  0
LINE
  5
263
330
60
100
AcDbEntity
  8
1
  6
DOT_CENTER
 62
     2
100
AcDbLine
 10
-110.9999994722406
 20
-85.44999962830076
 30
0.0
 11
-110.9999994722406
 21
-89.84999962830076
 31
0.0
  0
LINE
  5
264
330
60
100
AcDbEntity
  8
1
  6
DOT_CENTER
 62
     2
100
AcDbLine
 10
-108.7999994722405
 20
-87.64999962830076
 30
0.0
 11
-113.1999994722406
 21
-87.64999962830076
 31
0.0
  0
LINE
  5
265
330
60
100
AcDbEntity
  8
0
  6
Continuous
 62
     7
100
AcDbLine
 10
-113.7499994722662
 20
-83.64999962829934
 30
0.0
 11
-113.749999472264
 21
-85.14999962850386
 31
0.0
  0
LINE
  5
266
330
60
100
AcDbEntity
  8
0
  6
Continuous
 62
     7
100
AcDbLine
 10
-187.0999994722482
 20
-83.64999962841095
 30
0.0
 11
-113.7499994722662
 21
-83.64999962829934
 31
0.0
  0
LINE
  5
267
330
60
100
AcDbEntity
  8
0
  6
Continuous
 62
     7
100
AcDbLine
 10
-159.5999996192699
 20
-95.41074445108403
 30
0.0
 11
-159.599999619278
 21
-126.1499996283021
 31
0.0
  0
LINE
  5
268
330
60
100
AcDbEntity
  8
0
  6
Continuous
 62
     7
100
AcDbLine
 10
-171.1394047809862
 20
-130.3499996283566
 30
0.0
 11
-159.599999619278
 21
-126.1499996283021
 31
0.0
  0
LINE
  5
269
330
60
100
AcDbEntity
  8
0
  6
Continuous
 62
     7
100
AcDbLine
 10
-153.6759558338302
 20
-85.1499996283707
 30
0.0
 11
-114.2999994722763
 21
-85.14999962850429
 31
0.0
  0
LINE
  5
26A
330
60
100
AcDbEntity
  8
0
  6
Continuous
 62
     7
100
AcDbLine
 10
-193.5999994722118
 20
-86.64999962843977
 30
0.0
 11
-193.5999994722104
 21
-85.14999962838958
 31
0.0
  0
LINE
  5
26B
330
60
100
AcDbEntity
  8
0
  6
Continuous
 62
     7
100
AcDbLine
 10
-193.5999994722104
 20
-85.14999962838958
 30
0.0
 11
-188.5999994722148
 21
-85.14999962838196
 31
0.0
  0
LINE
  5
26C
330
60
100
AcDbEntity
  8
0
  6
Continuous
 62
     7
100
AcDbLine
 10
-114.2999994722763
 20
-85.14999962850429
 30
0.0
 11
-113.749999472264
 21
-85.14999962850386
 31
0.0
  0
LINE
  5
26D
330
60
100
AcDbEntity
  8
0
  6
Continuous
 62
     7
100
AcDbLine
 10
-193.5999994722118
 20
-86.64999962843977
 30
0.0
 11
-188.5999994722582
 21
-86.64999962839246
 31
0.0
  0
LINE
  5
26E
330
60
100
AcDbEntity
  8
0
  6
Continuous
 62
     7
100
AcDbLine
 10
-188.5999994722762
 20
-130.3499996284026
 30
0.0
 11
-171.1394047809862
 21
-130.3499996283566
 31
0.0
  0
LINE
  5
26F
330
60
100
AcDbEntity
  8
0
  6
Continuous
 62
     7
100
AcDbLine
 10
-187.0999994722482
 20
-83.64999962841095
 30
0.0
 11
-188.5999994722148
 21
-85.14999962838196
 31
0.0
  0
LINE
  5
270
330
60
100
AcDbEntity
  8
0
  6
Continuous
 62
     7
100
AcDbLine
 10
-188.5999994722582
 20
-86.64999962839246
 30
0.0
 11
-188.5999994722762
 21
-130.3499996284026
 31
0.0
  0
LINE
  5
271
330
60
100
AcDbEntity
  8
0
  6
Continuous
 62
     7
100
AcDbLine
 10
-156.5627071797761
 20
-90.14999962840281
 30
0.0
 11
-159.5999996192699
 21
-95.41074445108403
 31
0.0
  0
LINE
  5
272
330
60
100
AcDbEntity
  8
0
  6
Continuous
 62
     7
100
AcDbLine
 10
-153.6759558338302
 20
-85.1499996283707
 30
0.0
 11
-156.5627071797761
 21
-90.14999962840281
 31
0.0
  0
LINE
  5
273
330
60
100
AcDbEntity
  8
0
  6
Continuous
 62
     7
100
AcDbLine
 10
-109.4810940971136
 20
-90.14999962850241
 30
0.0
 11
-114.2999994722856
 21
-90.14999962843817
 31
0.0
  0
LINE
  5
274
330
60
100
AcDbEntity
  8
0
  6
Continuous
 62
     7
100
AcDbLine
 10
-114.2999994722856
 20
-90.14999962843817
 30
0.0
 11
-156.5627071797761
 21
-90.14999962840281
 31
0.0
  0
LINE
  5
275
330
60
100
AcDbEntity
  8
0
  6
Continuous
 62
     7
100
AcDbLine
 10
-107.9999994722462
 20
-86.32157250356053
 30
0.0
 11
-107.9999994722458
 21
-89.3176963016189
 31
0.0
  0
LINE
  5
276
330
60
100
AcDbEntity
  8
0
  6
Continuous
 62
     7
100
AcDbLine
 10
-109.4810940971136
 20
-90.14999962850241
 30
0.0
 11
-107.9999994722458
 21
-89.3176963016189
 31
0.0
  0
LINE
  5
277
330
60
100
AcDbEntity
  8
0
  6
Continuous
 62
     7
100
AcDbLine
 10
-114.2999994722763
 20
-85.14999962850429
 30
0.0
 11
-114.2999994722856
 21
-90.14999962843817
 31
0.0
  0
LINE
  5
278
330
60
100
AcDbEntity
  8
0
  6
Continuous
 62
     7
100
AcDbLine
 10
-109.1715723474983
 20
-85.14999962829592
 30
0.0
 11
-113.749999472264
 21
-85.14999962850386
 31
0.0
  0
LINE
  5
279
330
60
100
AcDbEntity
  8
0
  6
Continuous
 62
     7
100
AcDbLine
 10
-107.9999994722462
 20
-86.32157250356053
 30
0.0
 11
-109.1715723474983
 21
-85.14999962829592
 31
0.0
  0
CIRCLE
  5
27A
330
60
100
AcDbEntity
  8
0
  6
Continuous
 62
     7
100
AcDbCircle
 10
-110.9999994722406
 20
-87.64999962830076
 30
0.0
 40
2.0
  0
ENDBLK
  5
62
330
60
100
AcDbEntity
  8
0
100
AcDbBlockEnd
  0
BLOCK
  5
65
330
63
100
AcDbEntity
  8
0
100
AcDbBlockBegin
  2
Rckans1
 70
     0
 10
-150.7999996193454
 20
-106.9999999999999
 30
0.0
  3
Rckans1
  1

  0
INSERT
  5
64
330
63
100
AcDbEntity
  8
0
100
AcDbBlockReference
  2
HC-RBO_8-FE-select__3
 10
-193.5999994722118
 20
-130.3499996284026
 30
0.0
  0
MTEXT
  5
27B
330
63
100
AcDbEntity
  8
1
 62
     6
100
AcDbMText
 10
-150.7999996193457
 20
-135.3499994278295
 30
0.0
 40
5.0
 41
0.0
 71
     2
 72
     1
  1
 
  7
CONVERTER_11
 73
     1
 44
1.32052821128451
  0
ENDBLK
  5
66
330
63
100
AcDbEntity
  8
0
100
AcDbBlockEnd
  0
BLOCK
  5
68
330
67
100
AcDbEntity
  8
0
100
AcDbBlockBegin
  2
HC-RBO_8-FE-select__4
 70
     0
 10
-233.3999996201291
 20
-130.3499996283983
 30
0.0
  3
HC-RBO_8-FE-select__4
  1

  0
LINE
  5
27C
330
67
100
AcDbEntity
  8
1
  6
DOT_CENTER
 62
     2
100
AcDbLine
 10
-205.6999996160606
 20
-87.64999962833652
 30
0.0
 11
-207.2999996161104
 21
-87.64999962833652
 31
0.0
  0
LINE
  5
27D
330
67
100
AcDbEntity
  8
1
  6
DOT_CENTER
 62
     2
100
AcDbLine
 10
-230.6999996160074
 20
-87.64999962830291
 30
0.0
 11
-232.2999996160134
 21
-87.64999962830291
 31
0.0
  0
LINE
  5
27E
330
67
100
AcDbEntity
  8
0
  6
Continuous
 62
     7
100
AcDbLine
 10
-229.9999996160856
 20
-104.8011502005311
 30
0.0
 11
-231.9999996163368
 21
-104.8011502005246
 31
0.0
  0
LINE
  5
27F
330
67
100
AcDbEntity
  8
0
  6
Continuous
 62
     7
100
AcDbLine
 10
-228.4999996161312
 20
-104.8011502005331
 30
0.0
 11
-229.9999996160856
 21
-104.8011502005311
 31
0.0
  0
LINE
  5
280
330
67
100
AcDbEntity
  8
0
  6
Continuous
 62
     7
100
AcDbLine
 10
-205.9999996198874
 20
-104.8011502005596
 30
0.0
 11
-207.9999996160382
 21
-104.8011502005607
 31
0.0
  0
LINE
  5
281
330
67
100
AcDbEntity
  8
0
  6
Continuous
 62
     7
100
AcDbLine
 10
-205.9999996198561
 20
-95.41074445108401
 30
0.0
 11
-204.5999996160705
 21
-95.41074445124632
 31
0.0
  0
LINE
  5
282
330
67
100
AcDbEntity
  8
0
  6
Continuous
 62
     7
100
AcDbLine
 10
-233.3999996201068
 20
-95.41074445120758
 30
0.0
 11
-231.9999996163055
 21
-95.41074445120636
 31
0.0
  0
LINE
  5
283
330
67
100
AcDbEntity
  8
0
  6
Continuous
 62
     7
100
AcDbLine
 10
-230.699999616012
 20
-85.14999962830146
 30
0.0
 11
-218.9999996180436
 21
-85.14999962831719
 31
0.0
  0
LINE
  5
284
330
67
100
AcDbEntity
  8
0
  6
Continuous
 62
     7
100
AcDbLine
 10
-218.9999996180436
 20
-85.14999962831719
 30
0.0
 11
-207.2999996161072
 21
-85.14999962833292
 31
0.0
  0
LINE
  5
285
330
67
100
AcDbEntity
  8
0
  6
Continuous
 62
     7
100
AcDbLine
 10
-218.9999996180431
 20
-83.64999962830419
 30
0.0
 11
-204.599999616025
 21
-83.64999962830906
 31
0.0
  0
LINE
  5
286
330
67
100
AcDbEntity
  8
0
  6
Continuous
 62
     2
100
AcDbLine
 10
-218.9999996180431
 20
-83.64999962830419
 30
0.0
 11
-218.9999996180436
 21
-85.14999962831719
 31
0.0
  0
LINE
  5
287
330
67
100
AcDbEntity
  8
0
  6
Continuous
 62
     7
100
AcDbLine
 10
-233.3999996200613
 20
-83.64999962829933
 30
0.0
 11
-218.9999996180431
 21
-83.64999962830419
 31
0.0
  0
LINE
  5
288
330
67
100
AcDbEntity
  8
0
  6
Continuous
 62
     7
100
AcDbLine
 10
-233.3999996200613
 20
-83.64999962829933
 30
0.0
 11
-233.3999996200618
 21
-85.14999962850385
 31
0.0
  0
LINE
  5
289
330
67
100
AcDbEntity
  8
0
  6
Continuous
 62
     7
100
AcDbLine
 10
-233.3999996200618
 20
-85.14999962850385
 30
0.0
 11
-231.9999996162812
 21
-85.14999962836127
 31
0.0
  0
LINE
  5
28A
330
67
100
AcDbEntity
  8
0
  6
Continuous
 62
     7
100
AcDbLine
 10
-231.9999996162812
 20
-85.14999962836127
 30
0.0
 11
-230.699999616012
 21
-85.14999962830146
 31
0.0
  0
LINE
  5
28B
330
67
100
AcDbEntity
  8
0
  6
Continuous
 62
     7
100
AcDbLine
 10
-230.6999996160025
 20
-86.32157250356052
 30
0.0
 11
-230.6999996160074
 21
-85.64999962830291
 31
0.0
  0
LINE
  5
28C
330
67
100
AcDbEntity
  8
0
  6
Continuous
 62
     7
100
AcDbLine
 10
-230.6999996160074
 20
-85.64999962830291
 30
0.0
 11
-230.699999616012
 21
-85.14999962830146
 31
0.0
  0
LINE
  5
28D
330
67
100
AcDbEntity
  8
0
  6
Continuous
 62
     7
100
AcDbLine
 10
-205.6999996160606
 20
-85.64999962833652
 30
0.0
 11
-207.299999616105
 21
-85.64999962833437
 31
0.0
  0
LINE
  5
28E
330
67
100
AcDbEntity
  8
0
  6
Continuous
 62
     7
100
AcDbLine
 10
-207.2999996161072
 20
-85.14999962833292
 30
0.0
 11
-207.299999616105
 21
-85.64999962833437
 31
0.0
  0
LINE
  5
28F
330
67
100
AcDbEntity
  8
0
  6
Continuous
 62
     7
100
AcDbLine
 10
-205.9999996198318
 20
-85.14999962837068
 30
0.0
 11
-205.9999996200852
 21
-85.64999962833612
 31
0.0
  0
LINE
  5
290
330
67
100
AcDbEntity
  8
0
  6
Continuous
 62
     7
100
AcDbLine
 10
-230.6999996160074
 20
-85.64999962830291
 30
0.0
 11
-232.299999616008
 21
-85.64999962830075
 31
0.0
  0
LINE
  5
291
330
67
100
AcDbEntity
  8
0
  6
Continuous
 62
     7
100
AcDbLine
 10
-231.9999996162812
 20
-85.14999962836127
 30
0.0
 11
-231.9999996165346
 21
-85.64999962830116
 31
0.0
  0
LINE
  5
292
330
67
100
AcDbEntity
  8
0
  6
Continuous
 62
     7
100
AcDbLine
 10
-233.3999996200618
 20
-85.14999962850385
 30
0.0
 11
-233.3999996201068
 21
-95.41074445120758
 31
0.0
  0
LINE
  5
293
330
67
100
AcDbEntity
  8
0
  6
Continuous
 62
     7
100
AcDbLine
 10
-205.9999996200852
 20
-89.64999962833612
 30
0.0
 11
-205.9999996198561
 21
-95.41074445108401
 31
0.0
  0
LINE
  5
294
330
67
100
AcDbEntity
  8
0
  6
Continuous
 62
     7
100
AcDbLine
 10
-207.299999616105
 20
-85.64999962833437
 30
0.0
 11
-207.2999996161028
 21
-86.32157250356467
 31
0.0
  0
LINE
  5
295
330
67
100
AcDbEntity
  8
0
  6
Continuous
 62
     7
100
AcDbLine
 10
-207.2999996161068
 20
-89.31769630164824
 30
0.0
 11
-207.2999996161104
 21
-89.64999962833437
 31
0.0
  0
LINE
  5
296
330
67
100
AcDbEntity
  8
0
  6
Continuous
 62
     7
100
AcDbLine
 10
-232.2999996160134
 20
-89.64999962830075
 30
0.0
 11
-232.2999996160069
 21
-87.64999962829786
 31
0.0
  0
LINE
  5
297
330
67
100
AcDbEntity
  8
0
  6
Continuous
 62
     7
100
AcDbLine
 10
-230.6999996160128
 20
-89.64999962830291
 30
0.0
 11
-232.2999996160134
 21
-89.64999962830075
 31
0.0
  0
LINE
  5
298
330
67
100
AcDbEntity
  8
0
  6
Continuous
 62
     7
100
AcDbLine
 10
-230.6999996160105
 20
-90.1499996285024
 30
0.0
 11
-230.6999996160128
 21
-89.64999962830291
 31
0.0
  0
LINE
  5
299
330
67
100
AcDbEntity
  8
0
  6
Continuous
 62
     7
100
AcDbLine
 10
-232.2999996160069
 20
-87.64999962829786
 30
0.0
 11
-232.299999616008
 21
-85.64999962830075
 31
0.0
  0
LINE
  5
29A
330
67
100
AcDbEntity
  8
0
  6
Continuous
 62
     7
100
AcDbLine
 10
-209.4999996161651
 20
-128.3499996283951
 30
0.0
 11
-209.4999996160957
 21
-104.8011502005587
 31
0.0
  0
LINE
  5
29B
330
67
100
AcDbEntity
  8
0
  6
Continuous
 62
     7
100
AcDbLine
 10
-207.9999996160382
 20
-104.8011502005607
 30
0.0
 11
-207.9999996160244
 21
-90.14999962844523
 31
0.0
  0
LINE
  5
29C
330
67
100
AcDbEntity
  8
0
  6
Continuous
 62
     7
100
AcDbLine
 10
-209.499999616061
 20
-90.14999962840362
 30
0.0
 11
-209.4999996161158
 21
-91.64999962839715
 31
0.0
  0
LINE
  5
29D
330
67
100
AcDbEntity
  8
0
  6
Continuous
 62
     7
100
AcDbLine
 10
-209.4999996161158
 20
-91.64999962839715
 30
0.0
 11
-209.4999996160957
 21
-104.8011502005587
 31
0.0
  0
LINE
  5
29E
330
67
100
AcDbEntity
  8
0
  6
Continuous
 62
     7
100
AcDbLine
 10
-209.4999996160957
 20
-104.8011502005587
 30
0.0
 11
-207.9999996160382
 21
-104.8011502005607
 31
0.0
  0
LINE
  5
29F
330
67
100
AcDbEntity
  8
0
  6
Continuous
 62
     7
100
AcDbLine
 10
-228.4999996161775
 20
-128.3499996283657
 30
0.0
 11
-230.4999996160963
 21
-130.3499996283668
 31
0.0
  0
LINE
  5
2A0
330
67
100
AcDbEntity
  8
0
  6
Continuous
 62
     7
100
AcDbLine
 10
-233.3999996201172
 20
-126.1499996282944
 30
0.0
 11
-233.3999996201291
 21
-130.3499996283198
 31
0.0
  0
LINE
  5
2A1
330
67
100
AcDbEntity
  8
0
  6
Continuous
 62
     7
100
AcDbLine
 10
-205.9999996199236
 20
-130.3499996283566
 30
0.0
 11
-207.4999996161673
 21
-130.3499996283983
 31
0.0
  0
LINE
  5
2A2
330
67
100
AcDbEntity
  8
0
  6
Continuous
 62
     7
100
AcDbLine
 10
-204.5999996160809
 20
-126.1499996282641
 30
0.0
 11
-205.9999996198974
 21
-126.1499996283021
 31
0.0
  0
LINE
  5
2A3
330
67
100
AcDbEntity
  8
0
  6
Continuous
 62
     7
100
AcDbLine
 10
-230.4999996160963
 20
-130.3499996283668
 30
0.0
 11
-231.999999616373
 21
-130.3499996283212
 31
0.0
  0
LINE
  5
2A4
330
67
100
AcDbEntity
  8
0
  6
Continuous
 62
     7
100
AcDbLine
 10
-233.3999996201291
 20
-130.3499996283198
 30
0.0
 11
-231.999999616373
 21
-130.3499996283212
 31
0.0
  0
LINE
  5
2A5
330
67
100
AcDbEntity
  8
0
  6
Continuous
 62
     7
100
AcDbLine
 10
-233.3999996201068
 20
-95.41074445120758
 30
0.0
 11
-233.3999996201172
 21
-126.1499996282944
 31
0.0
  0
LINE
  5
2A6
330
67
100
AcDbEntity
  8
0
  6
Continuous
 62
     7
100
AcDbLine
 10
-231.9999996163469
 20
-126.1499996282598
 30
0.0
 11
-231.9999996163368
 21
-104.8011502005246
 31
0.0
  0
LINE
  5
2A7
330
67
100
AcDbEntity
  8
0
  6
Continuous
 62
     7
100
AcDbLine
 10
-229.9999996160856
 20
-104.8011502005311
 30
0.0
 11
-229.9999996160717
 21
-90.14999962837607
 31
0.0
  0
LINE
  5
2A8
330
67
100
AcDbEntity
  8
0
  6
Continuous
 62
     2
100
AcDbLine
 10
-218.9999996180398
 20
-89.31769630162167
 30
0.0
 11
-218.9999996180414
 21
-90.14999962846915
 31
0.0
  0
LINE
  5
2A9
330
67
100
AcDbEntity
  8
0
  6
Continuous
 62
     2
100
AcDbLine
 10
-218.9999996180436
 20
-85.14999962831719
 30
0.0
 11
-218.9999996180388
 21
-86.32157250356241
 31
0.0
  0
LINE
  5
2AA
330
67
100
AcDbEntity
  8
0
  6
Continuous
 62
     2
100
AcDbLine
 10
-218.9999996180398
 20
-89.31769630162167
 30
0.0
 11
-218.9999996180388
 21
-86.32157250356241
 31
0.0
  0
LINE
  5
2AB
330
67
100
AcDbEntity
  8
0
  6
Continuous
 62
     7
100
AcDbLine
 10
-228.4999996160734
 20
-90.1499996283781
 30
0.0
 11
-228.4999996161282
 21
-91.64999962843022
 31
0.0
  0
LINE
  5
2AC
330
67
100
AcDbEntity
  8
0
  6
Continuous
 62
     7
100
AcDbLine
 10
-228.4999996160734
 20
-90.1499996283781
 30
0.0
 11
-218.9999996180414
 21
-90.14999962846915
 31
0.0
  0
LINE
  5
2AD
330
67
100
AcDbEntity
  8
0
  6
Continuous
 62
     7
100
AcDbLine
 10
-229.9999996160717
 20
-90.14999962837607
 30
0.0
 11
-228.4999996160734
 21
-90.1499996283781
 31
0.0
  0
LINE
  5
2AE
330
67
100
AcDbEntity
  8
0
  6
Continuous
 62
     7
100
AcDbLine
 10
-228.4999996161282
 20
-91.64999962843022
 30
0.0
 11
-228.4999996161312
 21
-104.8011502005331
 31
0.0
  0
LINE
  5
2AF
330
67
100
AcDbEntity
  8
0
  6
Continuous
 62
     7
100
AcDbLine
 10
-231.9999996163368
 20
-104.8011502005246
 30
0.0
 11
-231.9999996163055
 21
-95.41074445120636
 31
0.0
  0
LINE
  5
2B0
330
67
100
AcDbEntity
  8
0
  6
Continuous
 62
     7
100
AcDbLine
 10
-231.9999996165346
 20
-89.64999962830116
 30
0.0
 11
-231.9999996163055
 21
-95.41074445120636
 31
0.0
  0
LINE
  5
2B1
330
67
100
AcDbEntity
  8
0
  6
Continuous
 62
     7
100
AcDbLine
 10
-205.9999996198874
 20
-104.8011502005596
 30
0.0
 11
-205.9999996198974
 21
-126.1499996283021
 31
0.0
  0
LINE
  5
2B2
330
67
100
AcDbEntity
  8
0
  6
Continuous
 62
     7
100
AcDbLine
 10
-205.9999996198561
 20
-95.41074445108401
 30
0.0
 11
-205.9999996198874
 21
-104.8011502005596
 31
0.0
  0
LINE
  5
2B3
330
67
100
AcDbEntity
  8
0
  6
Continuous
 62
     7
100
AcDbLine
 10
-230.6999996160065
 20
-89.31769630161888
 30
0.0
 11
-218.9999996180398
 21
-89.31769630162167
 31
0.0
  0
LINE
  5
2B4
330
67
100
AcDbEntity
  8
0
  6
Continuous
 62
     7
100
AcDbLine
 10
-205.9999996198318
 20
-85.14999962837068
 30
0.0
 11
-204.5999996160254
 21
-85.14999962833791
 31
0.0
  0
LINE
  5
2B5
330
67
100
AcDbEntity
  8
0
  6
Continuous
 62
     7
100
AcDbLine
 10
-207.2999996161072
 20
-85.14999962833292
 30
0.0
 11
-205.9999996198318
 21
-85.14999962837068
 31
0.0
  0
LINE
  5
2B6
330
67
100
AcDbEntity
  8
0
  6
Continuous
 62
     7
100
AcDbLine
 10
-218.9999996180398
 20
-89.31769630162167
 30
0.0
 11
-207.2999996161068
 21
-89.31769630164824
 31
0.0
  0
LINE
  5
2B7
330
67
100
AcDbEntity
  8
0
  6
Continuous
 62
     7
100
AcDbLine
 10
-207.2999996161068
 20
-89.31769630164824
 30
0.0
 11
-207.2999996161028
 21
-86.32157250356467
 31
0.0
  0
LINE
  5
2B8
330
67
100
AcDbEntity
  8
0
  6
Continuous
 62
     7
100
AcDbLine
 10
-207.2999996161104
 20
-89.64999962833437
 30
0.0
 11
-207.2999996161095
 21
-90.1499996284359
 31
0.0
  0
LINE
  5
2B9
330
67
100
AcDbEntity
  8
0
  6
Continuous
 62
     7
100
AcDbLine
 10
-218.9999996180388
 20
-86.32157250356241
 30
0.0
 11
-207.2999996161028
 21
-86.32157250356467
 31
0.0
  0
LINE
  5
2BA
330
67
100
AcDbEntity
  8
0
  6
Continuous
 62
     7
100
AcDbLine
 10
-218.9999996180414
 20
-90.14999962846915
 30
0.0
 11
-209.499999616061
 21
-90.14999962840362
 31
0.0
  0
LINE
  5
2BB
330
67
100
AcDbEntity
  8
0
  6
Continuous
 62
     7
100
AcDbLine
 10
-209.499999616061
 20
-90.14999962840362
 30
0.0
 11
-207.9999996160244
 21
-90.14999962844523
 31
0.0
  0
LINE
  5
2BC
330
67
100
AcDbEntity
  8
0
  6
Continuous
 62
     7
100
AcDbLine
 10
-207.9999996160244
 20
-90.14999962844523
 30
0.0
 11
-207.2999996161095
 21
-90.1499996284359
 31
0.0
  0
LINE
  5
2BD
330
67
100
AcDbEntity
  8
0
  6
Continuous
 62
     7
100
AcDbLine
 10
-205.6999996160659
 20
-89.64999962833652
 30
0.0
 11
-205.6999996160611
 21
-87.64999962833365
 31
0.0
  0
LINE
  5
2BE
330
67
100
AcDbEntity
  8
0
  6
Continuous
 62
     7
100
AcDbLine
 10
-205.6999996160611
 20
-87.64999962833365
 30
0.0
 11
-205.6999996160606
 21
-85.64999962833652
 31
0.0
  0
LINE
  5
2BF
330
67
100
AcDbEntity
  8
0
  6
Continuous
 62
     7
100
AcDbLine
 10
-205.6999996160659
 20
-89.64999962833652
 30
0.0
 11
-207.2999996161104
 21
-89.64999962833437
 31
0.0
  0
LINE
  5
2C0
330
67
100
AcDbEntity
  8
0
  6
Continuous
 62
     7
100
AcDbLine
 10
-230.6999996160105
 20
-90.1499996285024
 30
0.0
 11
-229.9999996160717
 21
-90.14999962837607
 31
0.0
  0
LINE
  5
2C1
330
67
100
AcDbEntity
  8
0
  6
Continuous
 62
     7
100
AcDbLine
 10
-230.6999996160025
 20
-86.32157250356052
 30
0.0
 11
-218.9999996180388
 21
-86.32157250356241
 31
0.0
  0
LINE
  5
2C2
330
67
100
AcDbEntity
  8
0
  6
Continuous
 62
     7
100
AcDbLine
 10
-230.6999996160025
 20
-86.32157250356052
 30
0.0
 11
-230.6999996160065
 21
-89.31769630161888
 31
0.0
  0
LINE
  5
2C3
330
67
100
AcDbEntity
  8
0
  6
Continuous
 62
     7
100
AcDbLine
 10
-230.6999996160128
 20
-89.64999962830291
 30
0.0
 11
-230.6999996160065
 21
-89.31769630161888
 31
0.0
  0
LINE
  5
2C4
330
67
100
AcDbEntity
  8
0
  6
Continuous
 62
     7
100
AcDbLine
 10
-204.5999996160809
 20
-126.1499996282641
 30
0.0
 11
-204.5999996160705
 21
-95.41074445124632
 31
0.0
  0
LINE
  5
2C5
330
67
100
AcDbEntity
  8
0
  6
Continuous
 62
     7
100
AcDbLine
 10
-204.5999996160705
 20
-95.41074445124632
 30
0.0
 11
-204.5999996160254
 21
-85.14999962833791
 31
0.0
  0
LINE
  5
2C6
330
67
100
AcDbEntity
  8
0
  6
Continuous
 62
     7
100
AcDbLine
 10
-204.599999616025
 20
-83.64999962830906
 30
0.0
 11
-204.5999996160254
 21
-85.14999962833791
 31
0.0
  0
LINE
  5
2C7
330
67
100
AcDbEntity
  8
0
  6
Continuous
 62
     7
100
AcDbLine
 10
-204.5999996160809
 20
-126.1499996282641
 30
0.0
 11
-204.5999996160928
 21
-130.3499996283252
 31
0.0
  0
LINE
  5
2C8
330
67
100
AcDbEntity
  8
0
  6
Continuous
 62
     7
100
AcDbLine
 10
-228.4999996161775
 20
-128.3499996283657
 30
0.0
 11
-228.4999996161312
 21
-104.8011502005331
 31
0.0
  0
LINE
  5
2C9
330
67
100
AcDbEntity
  8
0
  6
Continuous
 62
     7
100
AcDbLine
 10
-231.9999996163469
 20
-126.1499996282598
 30
0.0
 11
-231.999999616373
 21
-130.3499996283212
 31
0.0
  0
LINE
  5
2CA
330
67
100
AcDbEntity
  8
0
  6
Continuous
 62
     7
100
AcDbLine
 10
-207.4999996161673
 20
-130.3499996283983
 30
0.0
 11
-209.4999996161651
 21
-128.3499996283951
 31
0.0
  0
LINE
  5
2CB
330
67
100
AcDbEntity
  8
0
  6
Continuous
 62
     7
100
AcDbLine
 10
-205.9999996199236
 20
-130.3499996283566
 30
0.0
 11
-204.5999996160928
 21
-130.3499996283252
 31
0.0
  0
LINE
  5
2CC
330
67
100
AcDbEntity
  8
0
  6
Continuous
 62
     7
100
AcDbLine
 10
-205.9999996199236
 20
-130.3499996283566
 30
0.0
 11
-205.9999996198974
 21
-126.1499996283021
 31
0.0
  0
LINE
  5
2CD
330
67
100
AcDbEntity
  8
0
  6
Continuous
 62
     7
100
AcDbLine
 10
-231.9999996163469
 20
-126.1499996282598
 30
0.0
 11
-233.3999996201172
 21
-126.1499996282944
 31
0.0
  0
ARC
  5
2CE
330
67
100
AcDbEntity
  8
0
  6
Continuous
 62
     7
100
AcDbCircle
 10
-214.4999996161158
 20
-91.64999962839045
 30
0.0
 40
5.0
100
AcDbArc
 50
359.9999999999231
 51
17.45760312309312
  0
ARC
  5
2CF
330
67
100
AcDbEntity
  8
0
  6
Continuous
 62
     7
100
AcDbCircle
 10
-223.4999996161672
 20
-91.64999962816161
 30
0.0
 40
4.99999999996096
100
AcDbArc
 50
162.5423968801482
 51
180.0000000030781
  0
ENDBLK
  5
69
330
67
100
AcDbEntity
  8
0
100
AcDbBlockEnd
  0
BLOCK
  5
6C
330
6A
100
AcDbEntity
  8
0
100
AcDbBlockBegin
  2
SA_Links1
 70
     0
 10
-219.000000000396
 20
-106.9999999999999
 30
0.0
  3
SA_Links1
  1

  0
INSERT
  5
6B
330
6A
100
AcDbEntity
  8
0
100
AcDbBlockReference
  2
HC-RBO_8-FE-select__4
 10
-233.3999996201291
 20
-130.3499996283983
 30
0.0
  0
MTEXT
  5
2D0
330
6A
100
AcDbEntity
  8
1
 62
     6
100
AcDbMText
 10
-219.000000000396
 20
-135.3499994278295
 30
0.0
 40
5.0
 41
0.0
 71
     2
 72
     1
  1
 
  7
CONVERTER_11
 73
     1
 44
1.32052821128451
  0
ENDBLK
  5
6D
330
6A
100
AcDbEntity
  8
0
100
AcDbBlockEnd
  0
BLOCK
  5
6F
330
6E
100
AcDbEntity
  8
0
100
AcDbBlockBegin
  2
HC-RBO_8-FE-select__5
 70
     0
 10
-383.7999991456128
 20
-130.3499996284065
 30
0.0
  3
HC-RBO_8-FE-select__5
  1

  0
LINE
  5
2D1
330
6E
100
AcDbEntity
  8
0
  6
Continuous
 62
     2
100
AcDbLine
 10
-369.3999991436585
 20
-90.14999962847614
 30
0.0
 11
-369.3999991435878
 21
-86.64999962839892
 31
0.0
  0
LINE
  5
2D2
330
6E
100
AcDbEntity
  8
0
  6
Continuous
 62
     7
100
AcDbLine
 10
-369.3999991435878
 20
-86.64999962839892
 30
0.0
 11
-373.8999991455718
 21
-86.64999962839255
 31
0.0
  0
LINE
  5
2D3
330
6E
100
AcDbEntity
  8
0
  6
Continuous
 62
     2
100
AcDbLine
 10
-369.3999991435928
 20
-85.14999962840157
 30
0.0
 11
-369.3999991435947
 21
-83.6499996284159
 31
0.0
  0
LINE
  5
2D4
330
6E
100
AcDbEntity
  8
0
  6
Continuous
 62
     7
100
AcDbLine
 10
-354.9999991415696
 20
-86.64999962843984
 30
0.0
 11
-364.8999991454813
 21
-86.6499996284181
 31
0.0
  0
LINE
  5
2D5
330
6E
100
AcDbEntity
  8
0
  6
Continuous
 62
     7
100
AcDbLine
 10
-354.9999991415765
 20
-83.64999962841102
 30
0.0
 11
-354.9999991415746
 21
-85.14999962838203
 31
0.0
  0
LINE
  5
2D6
330
6E
100
AcDbEntity
  8
0
  6
Continuous
 62
     7
100
AcDbLine
 10
-354.9999991415696
 20
-86.64999962843984
 30
0.0
 11
-354.9999991415746
 21
-85.14999962838203
 31
0.0
  0
LINE
  5
2D7
330
6E
100
AcDbEntity
  8
0
  6
Continuous
 62
     7
100
AcDbLine
 10
-364.8999991454813
 20
-86.6499996284181
 30
0.0
 11
-369.3999991435878
 21
-86.64999962839892
 31
0.0
  0
LINE
  5
2D8
330
6E
100
AcDbEntity
  8
0
  6
Continuous
 62
     7
100
AcDbLine
 10
-373.8999991455718
 20
-86.64999962839255
 30
0.0
 11
-383.7999991456105
 21
-86.64999962836218
 31
0.0
  0
LINE
  5
2D9
330
6E
100
AcDbEntity
  8
0
  6
Continuous
 62
     2
100
AcDbLine
 10
-369.3999991435928
 20
-85.14999962840157
 30
0.0
 11
-369.3999991435878
 21
-86.64999962839892
 31
0.0
  0
LINE
  5
2DA
330
6E
100
AcDbEntity
  8
0
  6
Continuous
 62
     7
100
AcDbLine
 10
-369.3999991436585
 20
-90.14999962847614
 30
0.0
 11
-360.1303031383843
 21
-90.14999962850247
 31
0.0
  0
LINE
  5
2DB
330
6E
100
AcDbEntity
  8
0
  6
Continuous
 62
     7
100
AcDbLine
 10
-378.6696951526888
 20
-90.14999962844979
 30
0.0
 11
-369.3999991436585
 21
-90.14999962847614
 31
0.0
  0
LINE
  5
2DC
330
6E
100
AcDbEntity
  8
0
  6
Continuous
 62
     7
100
AcDbLine
 10
-380.8999991455368
 20
-130.3499996284026
 30
0.0
 11
-378.8999991455367
 21
-128.3499996283971
 31
0.0
  0
LINE
  5
2DD
330
6E
100
AcDbEntity
  8
0
  6
Continuous
 62
     7
100
AcDbLine
 10
-378.8999991455367
 20
-128.3499996283971
 30
0.0
 11
-378.899999145586
 21
-91.64999962839926
 31
0.0
  0
LINE
  5
2DE
330
6E
100
AcDbEntity
  8
0
  6
Continuous
 62
     7
100
AcDbLine
 10
-383.7999991456128
 20
-83.64999962842076
 30
0.0
 11
-369.3999991435947
 21
-83.6499996284159
 31
0.0
  0
LINE
  5
2DF
330
6E
100
AcDbEntity
  8
0
  6
Continuous
 62
     7
100
AcDbLine
 10
-354.9999991415765
 20
-83.64999962841102
 30
0.0
 11
-369.3999991435947
 21
-83.6499996284159
 31
0.0
  0
LINE
  5
2E0
330
6E
100
AcDbEntity
  8
0
  6
Continuous
 62
     7
100
AcDbLine
 10
-383.7999991456105
 20
-86.64999962836218
 30
0.0
 11
-383.7999991455957
 21
-130.3499996284065
 31
0.0
  0
LINE
  5
2E1
330
6E
100
AcDbEntity
  8
0
  6
Continuous
 62
     7
100
AcDbLine
 10
-383.799999145611
 20
-85.1499996284056
 30
0.0
 11
-383.7999991456128
 21
-83.64999962842076
 31
0.0
  0
LINE
  5
2E2
330
6E
100
AcDbEntity
  8
0
  6
Continuous
 62
     7
100
AcDbLine
 10
-383.799999145611
 20
-85.1499996284056
 30
0.0
 11
-383.7999991456105
 21
-86.64999962836218
 31
0.0
  0
LINE
  5
2E3
330
6E
100
AcDbEntity
  8
0
  6
Continuous
 62
     7
100
AcDbLine
 10
-380.8999991455368
 20
-130.3499996284026
 30
0.0
 11
-383.7999991455957
 21
-130.3499996284065
 31
0.0
  0
LINE
  5
2E4
330
6E
100
AcDbEntity
  8
0
  6
Continuous
 62
     7
100
AcDbLine
 10
-369.3999991435928
 20
-85.14999962840157
 30
0.0
 11
-354.9999991415746
 21
-85.14999962838203
 31
0.0
  0
LINE
  5
2E5
330
6E
100
AcDbEntity
  8
0
  6
Continuous
 62
     7
100
AcDbLine
 10
-383.799999145611
 20
-85.1499996284056
 30
0.0
 11
-369.3999991435928
 21
-85.14999962840157
 31
0.0
  0
LINE
  5
2E6
330
6E
100
AcDbEntity
  8
0
  6
Continuous
 62
     7
100
AcDbLine
 10
-354.9999991415593
 20
-130.3499996283678
 30
0.0
 11
-354.9999991415696
 21
-86.64999962843984
 31
0.0
  0
LINE
  5
2E7
330
6E
100
AcDbEntity
  8
0
  6
Continuous
 62
     7
100
AcDbLine
 10
-354.9999991415593
 20
-130.3499996283678
 30
0.0
 11
-357.8999991456026
 21
-130.3499996283717
 31
0.0
  0
LINE
  5
2E8
330
6E
100
AcDbEntity
  8
0
  6
Continuous
 62
     7
100
AcDbLine
 10
-359.8999991455998
 20
-128.3499996283678
 30
0.0
 11
-357.8999991456026
 21
-130.3499996283717
 31
0.0
  0
LINE
  5
2E9
330
6E
100
AcDbEntity
  8
0
  6
Continuous
 62
     7
100
AcDbLine
 10
-359.8999991454955
 20
-91.64999962843231
 30
0.0
 11
-359.8999991455998
 21
-128.3499996283678
 31
0.0
  0
ARC
  5
2EA
330
6E
100
AcDbEntity
  8
0
  6
Continuous
 62
     7
100
AcDbCircle
 10
-373.899999145586
 20
-91.64999962839255
 30
0.0
 40
5.0
100
AcDbArc
 50
89.9999999998378
 51
180.0000000000769
  0
ARC
  5
2EB
330
6E
100
AcDbEntity
  8
0
  6
Continuous
 62
     7
100
AcDbCircle
 10
-364.8999991454955
 20
-91.6499996284181
 30
0.0
 40
5.0
100
AcDbArc
 50
359.9999999998371
 51
89.99999999983716
  0
ENDBLK
  5
70
330
6E
100
AcDbEntity
  8
0
100
AcDbBlockEnd
  0
BLOCK
  5
73
330
71
100
AcDbEntity
  8
0
100
AcDbBlockBegin
  2
SA_Rechts1
 70
     0
 10
-369.3999987613083
 20
-107.0
 30
0.0
  3
SA_Rechts1
  1

  0
INSERT
  5
72
330
71
100
AcDbEntity
  8
0
100
AcDbBlockReference
  2
HC-RBO_8-FE-select__5
 10
-383.7999991456128
 20
-130.3499996284065
 30
0.0
  0
MTEXT
  5
2EC
330
71
100
AcDbEntity
  8
1
 62
     6
100
AcDbMText
 10
-369.3999987613083
 20
-135.3499994278295
 30
0.0
 40
5.0
 41
0.0
 71
     2
 72
     1
  1
 
  7
CONVERTER_11
 73
     1
 44
1.32052821128451
  0
ENDBLK
  5
74
330
71
100
AcDbEntity
  8
0
100
AcDbBlockEnd
  0
BLOCK
  5
76
330
75
100
AcDbEntity
  8
0
100
AcDbBlockBegin
  2
HC-RBO_8-FE-select__6
 70
     0
 10
-331.0000005277333
 20
-130.3499996284065
 30
0.0
  3
HC-RBO_8-FE-select__6
  1

  0
LINE
  5
2ED
330
75
100
AcDbEntity
  8
1
  6
DOT_CENTER
 62
     2
100
AcDbLine
 10
-328.00000052773
 20
-85.44999962833661
 30
0.0
 11
-328.00000052773
 21
-89.84999962833662
 31
0.0
  0
LINE
  5
2EE
330
75
100
AcDbEntity
  8
1
  6
DOT_CENTER
 62
     2
100
AcDbLine
 10
-325.8000005277299
 20
-87.64999962833662
 30
0.0
 11
-330.2000005277299
 21
-87.64999962833662
 31
0.0
  0
LINE
  5
2EF
330
75
100
AcDbEntity
  8
0
  6
Continuous
 62
     7
100
AcDbLine
 10
-245.4000005277186
 20
-85.14999962842838
 30
0.0
 11
-245.400000527771
 21
-86.649999628358
 31
0.0
  0
LINE
  5
2F0
330
75
100
AcDbEntity
  8
0
  6
Continuous
 62
     7
100
AcDbLine
 10
-250.400000527744
 20
-85.1499996284056
 30
0.0
 11
-251.9000005277547
 21
-83.64999962842076
 31
0.0
  0
LINE
  5
2F1
330
75
100
AcDbEntity
  8
0
  6
Continuous
 62
     7
100
AcDbLine
 10
-267.8605952190106
 20
-130.3499996283253
 30
0.0
 11
-250.400000527721
 21
-130.3499996284065
 31
0.0
  0
LINE
  5
2F2
330
75
100
AcDbEntity
  8
0
  6
Continuous
 62
     7
100
AcDbLine
 10
-250.4000005277174
 20
-86.64999962836218
 30
0.0
 11
-245.400000527771
 21
-86.649999628358
 31
0.0
  0
LINE
  5
2F3
330
75
100
AcDbEntity
  8
0
  6
Continuous
 62
     7
100
AcDbLine
 10
-250.400000527744
 20
-85.1499996284056
 30
0.0
 11
-245.4000005277186
 21
-85.14999962842838
 31
0.0
  0
LINE
  5
2F4
330
75
100
AcDbEntity
  8
0
  6
Continuous
 62
     7
100
AcDbLine
 10
-331.0000005277333
 20
-89.31769630164833
 30
0.0
 11
-329.5189059028593
 21
-90.149999628436
 31
0.0
  0
LINE
  5
2F5
330
75
100
AcDbEntity
  8
0
  6
Continuous
 62
     7
100
AcDbLine
 10
-331.0000005277333
 20
-89.31769630164833
 30
0.0
 11
-331.0000005277286
 21
-86.32157250356475
 31
0.0
  0
LINE
  5
2F6
330
75
100
AcDbEntity
  8
0
  6
Continuous
 62
     7
100
AcDbLine
 10
-329.8284276524903
 20
-85.14999962831396
 30
0.0
 11
-331.0000005277286
 21
-86.32157250356475
 31
0.0
  0
LINE
  5
2F7
330
75
100
AcDbEntity
  8
0
  6
Continuous
 62
     7
100
AcDbLine
 10
-324.7000005277085
 20
-90.14999962843197
 30
0.0
 11
-324.7000005277419
 21
-85.14999962828902
 31
0.0
  0
LINE
  5
2F8
330
75
100
AcDbEntity
  8
0
  6
Continuous
 62
     7
100
AcDbLine
 10
-325.2500005277076
 20
-83.64999962830916
 30
0.0
 11
-325.2500005277097
 21
-85.14999962833801
 31
0.0
  0
LINE
  5
2F9
330
75
100
AcDbEntity
  8
0
  6
Continuous
 62
     7
100
AcDbLine
 10
-324.7000005277085
 20
-90.14999962843197
 30
0.0
 11
-329.5189059028593
 21
-90.149999628436
 31
0.0
  0
LINE
  5
2FA
330
75
100
AcDbEntity
  8
0
  6
Continuous
 62
     7
100
AcDbLine
 10
-251.9000005277547
 20
-83.64999962842076
 30
0.0
 11
-325.2500005277076
 21
-83.64999962830916
 31
0.0
  0
LINE
  5
2FB
330
75
100
AcDbEntity
  8
0
  6
Continuous
 62
     7
100
AcDbLine
 10
-282.4372928202212
 20
-90.14999962839862
 30
0.0
 11
-285.324044166167
 21
-85.14999962837065
 31
0.0
  0
LINE
  5
2FC
330
75
100
AcDbEntity
  8
0
  6
Continuous
 62
     7
100
AcDbLine
 10
-325.2500005277097
 20
-85.14999962833801
 30
0.0
 11
-329.8284276524903
 21
-85.14999962831396
 31
0.0
  0
LINE
  5
2FD
330
75
100
AcDbEntity
  8
0
  6
Continuous
 62
     7
100
AcDbLine
 10
-285.324044166167
 20
-85.14999962837065
 30
0.0
 11
-324.7000005277419
 21
-85.14999962828902
 31
0.0
  0
LINE
  5
2FE
330
75
100
AcDbEntity
  8
0
  6
Continuous
 62
     7
100
AcDbLine
 10
-324.7000005277419
 20
-85.14999962828902
 30
0.0
 11
-325.2500005277097
 21
-85.14999962833801
 31
0.0
  0
LINE
  5
2FF
330
75
100
AcDbEntity
  8
0
  6
Continuous
 62
     7
100
AcDbLine
 10
-282.4372928202212
 20
-90.14999962839862
 30
0.0
 11
-324.7000005277085
 21
-90.14999962843197
 31
0.0
  0
LINE
  5
300
330
75
100
AcDbEntity
  8
0
  6
Continuous
 62
     7
100
AcDbLine
 10
-279.4000003806312
 20
-95.41074445124642
 30
0.0
 11
-282.4372928202212
 21
-90.14999962839862
 31
0.0
  0
LINE
  5
301
330
75
100
AcDbEntity
  8
0
  6
Continuous
 62
     7
100
AcDbLine
 10
-279.4000003808085
 20
-126.1499996282642
 30
0.0
 11
-279.4000003806312
 21
-95.41074445124642
 31
0.0
  0
LINE
  5
302
330
75
100
AcDbEntity
  8
0
  6
Continuous
 62
     7
100
AcDbLine
 10
-279.4000003808085
 20
-126.1499996282642
 30
0.0
 11
-267.8605952190106
 21
-130.3499996283253
 31
0.0
  0
LINE
  5
303
330
75
100
AcDbEntity
  8
0
  6
Continuous
 62
     7
100
AcDbLine
 10
-250.4000005277174
 20
-86.64999962836218
 30
0.0
 11
-250.400000527721
 21
-130.3499996284065
 31
0.0
  0
CIRCLE
  5
304
330
75
100
AcDbEntity
  8
0
  6
Continuous
 62
     7
100
AcDbCircle
 10
-328.00000052773
 20
-87.64999962833662
 30
0.0
 40
2.0
  0
ENDBLK
  5
77
330
75
100
AcDbEntity
  8
0
100
AcDbBlockEnd
  0
BLOCK
  5
7A
330
78
100
AcDbEntity
  8
0
100
AcDbBlockBegin
  2
Vordans1
 70
     0
 10
-288.2000003806543
 20
-107.0
 30
0.0
  3
Vordans1
  1

  0
INSERT
  5
79
330
78
100
AcDbEntity
  8
0
100
AcDbBlockReference
  2
HC-RBO_8-FE-select__6
 10
-331.0000005277333
 20
-130.3499996284065
 30
0.0
  0
MTEXT
  5
305
330
78
100
AcDbEntity
  8
1
 62
     6
100
AcDbMText
 10
-288.2000003806543
 20
-135.3499994278295
 30
0.0
 40
5.0
 41
0.0
 71
     2
 72
     1
  1
 
  7
CONVERTER_11
 73
     1
 44
1.32052821128451
  0
DIMENSION
  5
310
330
78
100
AcDbEntity
  8
1
100
AcDbDimension
  2
*D18
 10
-340.8188035803031
 20
-83.64999962830916
 30
0.0
 11
-344.7438035803031
 21
-106.4358206761789
 31
0.0
 70
    32
  1
<>
 71
     5
 42
-1.0
 53
90.0
  3
ME10_DIM_11
100
AcDbAlignedDimension
 13
-250.400000527721
 23
-130.3499996284065
 33
0.0
 14
-325.2500005277076
 24
-83.64999962830916
 34
0.0
 50
90.0
100
AcDbRotatedDimension
  0
DIMENSION
  5
31B
330
78
100
AcDbEntity
  8
1
100
AcDbDimension
  2
*D19
 10
-245.4000005277186
 20
-147.617451725484
 30
0.0
 11
-290.8125373061471
 21
-143.692451725484
 31
0.0
 70
    32
  1
<>
 71
     5
 42
-1.0
 53
0.00013888888889
  3
ME10_DIM_12
100
AcDbAlignedDimension
 13
-331.0000005277286
 23
-86.32157250356475
 33
0.0
 14
-245.4000005277186
 24
-85.14999962842838
 34
0.0
100
AcDbRotatedDimension
  0
ENDBLK
  5
7B
330
78
100
AcDbEntity
  8
0
100
AcDbBlockEnd
  0
BLOCK
  5
84
330
7C
100
AcDbEntity
  8
0
100
AcDbBlockBegin
  2
1
 70
     0
 10
0.0
 20
0.0
 30
0.0
  3
1
  1

  0
INSERT
  5
7D
330
7C
100
AcDbEntity
  8
0
100
AcDbBlockReference
  2
A4I_CS
 10
-100.8999993089292
 20
-262.4035375965262
 30
0.0
  0
INSERT
  5
7E
330
7C
100
AcDbEntity
  8
0
100
AcDbBlockReference
  2
Allg1
 10
-163.9999999999508
 20
-183.9999999999
 30
0.0
  0
INSERT
  5
7F
330
7C
100
AcDbEntity
  8
0
100
AcDbBlockReference
  2
Drfsicht1
 10
-288.2000003806543
 20
-193.7500001899166
 30
0.0
  0
INSERT
  5
80
330
7C
100
AcDbEntity
  8
0
100
AcDbBlockReference
  2
Rckans1
 10
-150.7999996193454
 20
-106.9999999999999
 30
0.0
  0
INSERT
  5
81
330
7C
100
AcDbEntity
  8
0
100
AcDbBlockReference
  2
SA_Links1
 10
-219.000000000396
 20
-106.9999999999999
 30
0.0
  0
INSERT
  5
82
330
7C
100
AcDbEntity
  8
0
100
AcDbBlockReference
  2
SA_Rechts1
 10
-369.3999987613083
 20
-107.0
 30
0.0
  0
INSERT
  5
83
330
7C
100
AcDbEntity
  8
0
100
AcDbBlockReference
  2
Vordans1
 10
-288.2000003806543
 20
-107.0
 30
0.0
  0
ENDBLK
  5
85
330
7C
100
AcDbEntity
  8
0
100
AcDbBlockEnd
  0
BLOCK
  5
25F
330
258
100
AcDbEntity
  8
0
100
AcDbBlockBegin
  2
*D17
 70
     1
 10
0.0
 20
0.0
 30
0.0
  3
*D17
  1

  0
LINE
  5
259
330
258
100
AcDbEntity
  8
1
  6
Continuous
 62
     2
100
AcDbLine
 10
-340.818803580303
 20
-208.1500005742876
 30
0.0
 11
-340.818803580303
 21
-179.3500005702513
 31
0.0
  0
LINE
  5
25A
330
258
100
AcDbEntity
  8
1
  6
Continuous
 62
     2
100
AcDbLine
 10
-325.7500005277337
 20
-179.3500005702513
 30
0.0
 11
-342.318803580303
 21
-179.3500005702513
 31
0.0
  0
LINE
  5
25B
330
258
100
AcDbEntity
  8
1
  6
Continuous
 62
     2
100
AcDbLine
 10
-325.7500005277076
 20
-208.1500005742876
 30
0.0
 11
-342.318803580303
 21
-208.1500005742876
 31
0.0
  0
SOLID
  5
25C
330
258
100
AcDbEntity
  8
1
 62
     2
100
AcDbTrace
 10
-341.2795873218589
 20
-204.6500005742876
 30
0.0
 11
-340.3580198387471
 21
-204.6500005742876
 31
0.0
 12
-340.818803580303
 22
-208.1500005742876
 32
0.0
 13
-340.818803580303
 23
-208.1500005742876
 33
0.0
  0
SOLID
  5
25D
330
258
100
AcDbEntity
  8
1
 62
     2
100
AcDbTrace
 10
-340.3580198387471
 20
-182.8500005702513
 30
0.0
 11
-341.2795873218589
 21
-182.8500005702513
 31
0.0
 12
-340.818803580303
 22
-179.3500005702513
 32
0.0
 13
-340.818803580303
 23
-179.3500005702513
 33
0.0
  0
MTEXT
  5
25E
330
258
100
AcDbEntity
  8
1
 62
     3
100
AcDbMText
 10
-343.168803580303
 20
-197.731968141238
 30
0.0
 40
3.5
 41
0.0
 71
     7
 72
     1
  1
28,8
  7
CONVERTER_11
 11
0.0
 21
1.0
 31
0.0
 73
     1
 44
0.60024009603842
  0
ENDBLK
  5
260
330
258
100
AcDbEntity
  8
0
100
AcDbBlockEnd
  0
BLOCK
  5
30D
330
306
100
AcDbEntity
  8
0
100
AcDbBlockBegin
  2
*D18
 70
     1
 10
0.0
 20
0.0
 30
0.0
  3
*D18
  1

  0
LINE
  5
307
330
306
100
AcDbEntity
  8
1
  6
Continuous
 62
     2
100
AcDbLine
 10
-340.8188035803031
 20
-83.64999962830916
 30
0.0
 11
-340.8188035803031
 21
-130.3499996284065
 31
0.0
  0
LINE
  5
308
330
306
100
AcDbEntity
  8
1
  6
Continuous
 62
     2
100
AcDbLine
 10
-250.9000005277211
 20
-130.3499996284065
 30
0.0
 11
-342.3188035803031
 21
-130.3499996284065
 31
0.0
  0
LINE
  5
309
330
306
100
AcDbEntity
  8
1
  6
Continuous
 62
     2
100
AcDbLine
 10
-325.7500005277077
 20
-83.64999962830916
 30
0.0
 11
-342.3188035803031
 21
-83.64999962830916
 31
0.0
  0
SOLID
  5
30A
330
306
100
AcDbEntity
  8
1
 62
     2
100
AcDbTrace
 10
-340.3580198387472
 20
-87.14999962830916
 30
0.0
 11
-341.279587321859
 21
-87.14999962830916
 31
0.0
 12
-340.8188035803031
 22
-83.64999962830916
 32
0.0
 13
-340.8188035803031
 23
-83.64999962830916
 33
0.0
  0
SOLID
  5
30B
330
306
100
AcDbEntity
  8
1
 62
     2
100
AcDbTrace
 10
-341.279587321859
 20
-126.8499996284065
 30
0.0
 11
-340.3580198387472
 21
-126.8499996284065
 31
0.0
 12
-340.8188035803031
 22
-130.3499996284065
 32
0.0
 13
-340.8188035803031
 23
-130.3499996284065
 33
0.0
  0
MTEXT
  5
30C
330
306
100
AcDbEntity
  8
1
 62
     3
100
AcDbMText
 10
-343.1688035803031
 20
-111.2483206761789
 30
0.0
 40
3.5
 41
0.0
 71
     7
 72
     1
  1
46,7
  7
CONVERTER_11
 11
0.0
 21
1.0
 31
0.0
 73
     1
 44
0.60024009603842
  0
ENDBLK
  5
30E
330
306
100
AcDbEntity
  8
0
100
AcDbBlockEnd
  0
BLOCK
  5
318
330
311
100
AcDbEntity
  8
0
100
AcDbBlockBegin
  2
*D19
 70
     1
 10
0.0
 20
0.0
 30
0.0
  3
*D19
  1

  0
LINE
  5
312
330
311
100
AcDbEntity
  8
1
  6
Continuous
 62
     2
100
AcDbLine
 10
-245.4000005277186
 20
-147.617451725484
 30
0.0
 11
-331.0000005277287
 21
-147.617451725484
 31
0.0
  0
LINE
  5
313
330
311
100
AcDbEntity
  8
1
  6
Continuous
 62
     2
100
AcDbLine
 10
-331.0000005277287
 20
-86.82157250356477
 30
0.0
 11
-331.0000005277287
 21
-149.117451725484
 31
0.0
  0
LINE
  5
314
330
311
100
AcDbEntity
  8
1
  6
Continuous
 62
     2
100
AcDbLine
 10
-245.4000005277186
 20
-85.64999962842839
 30
0.0
 11
-245.4000005277186
 21
-149.117451725484
 31
0.0
  0
SOLID
  5
315
330
311
100
AcDbEntity
  8
1
 62
     2
100
AcDbTrace
 10
-248.9000005277186
 20
-148.0782354670399
 30
0.0
 11
-248.9000005277186
 21
-147.1566679839281
 31
0.0
 12
-245.4000005277186
 22
-147.617451725484
 32
0.0
 13
-245.4000005277186
 23
-147.617451725484
 33
0.0
  0
SOLID
  5
316
330
311
100
AcDbEntity
  8
1
 62
     2
100
AcDbTrace
 10
-327.5000005277287
 20
-147.1566679839281
 30
0.0
 11
-327.5000005277287
 21
-148.0782354670399
 31
0.0
 12
-331.0000005277287
 22
-147.617451725484
 32
0.0
 13
-331.0000005277287
 23
-147.617451725484
 33
0.0
  0
MTEXT
  5
317
330
311
100
AcDbEntity
  8
1
 62
     3
100
AcDbMText
 10
-295.6250373061471
 20
-145.267451725484
 30
0.0
 40
3.5
 41
0.0
 71
     7
 72
     1
  1
85,6
  7
CONVERTER_11
 11
0.9999999999970619
 21
2.424068405545306E-6
 31
0.0
 73
     1
 44
0.60024009603842
  0
ENDBLK
  5
319
330
311
100
AcDbEntity
  8
0
100
AcDbBlockEnd
  0
ENDSEC
  0
SECTION
  2
ENTITIES
  0
INSERT
  5
86
330
1F
100
AcDbEntity
  8
1
100
AcDbBlockReference
  2
1
 10
0.0
 20
0.0
 30
0.0
  0
ENDSEC
  0
SECTION
  2
OBJECTS
  0
DICTIONARY
  5
C
330
0
100
AcDbDictionary
281
     1
  3
ACAD_GROUP
350
D
  3
ACAD_LAYOUT
350
1A
  3
ACAD_MATERIAL
350
3B
  3
ACAD_MLEADERSTYLE
350
343
  3
ACAD_MLINESTYLE
350
17
  3
ACAD_PLOTSETTINGS
350
19
  3
ACAD_PLOTSTYLENAME
350
E
  3
ACAD_TABLESTYLE
350
342
  3
ACAD_VISUALSTYLE
350
2A
  0
DICTIONARY
  5
D
102
{ACAD_REACTORS
330
C
102
}
330
C
100
AcDbDictionary
281
     1
  0
DICTIONARY
  5
1A
102
{ACAD_REACTORS
330
C
102
}
330
C
100
AcDbDictionary
281
     1
  3
Layout1
350
1E
  3
Layout2
350
26
  3
Model
350
22
  0
DICTIONARY
  5
3B
102
{ACAD_REACTORS
330
C
102
}
330
C
100
AcDbDictionary
281
     1
  3
ByBlock
350
3D
  3
ByLayer
350
3C
  3
Global
350
3E
  0
DICTIONARY
  5
343
102
{ACAD_REACTORS
330
C
102
}
330
C
100
AcDbDictionary
281
     1
  0
DICTIONARY
  5
17
102
{ACAD_REACTORS
330
C
102
}
330
C
100
AcDbDictionary
281
     1
  3
Standard
350
18
  0
DICTIONARY
  5
19
102
{ACAD_REACTORS
330
C
102
}
330
C
100
AcDbDictionary
281
     1
  0
ACDBDICTIONARYWDFLT
  5
E
102
{ACAD_REACTORS
330
C
102
}
330
C
100
AcDbDictionary
281
     1
  3
Normal
350
F
100
AcDbDictionaryWithDefault
340
F
  0
DICTIONARY
  5
342
102
{ACAD_REACTORS
330
C
102
}
330
C
100
AcDbDictionary
281
     1
  0
DICTIONARY
  5
2A
102
{ACAD_REACTORS
330
C
102
}
330
C
100
AcDbDictionary
281
     1
  3
2dWireframe
350
2F
  3
3D Hidden
350
31
  3
3dWireframe
350
30
  3
Basic
350
32
  3
Brighten
350
36
  3
ColorChange
350
3A
  3
Conceptual
350
34
  3
Dim
350
35
  3
Facepattern
350
39
  3
Flat
350
2B
  3
FlatWithEdges
350
2C
  3
Gouraud
350
2D
  3
GouraudWithEdges
350
2E
  3
Linepattern
350
38
  3
Realistic
350
33
  3
Thicken
350
37
  0
LAYOUT
  5
1E
102
{ACAD_REACTORS
330
1A
102
}
330
1A
100
AcDbPlotSettings
  1

  2
none_device
  4

  6

 40
0.0
 41
0.0
 42
0.0
 43
0.0
 44
0.0
 45
0.0
 46
0.0
 47
0.0
 48
0.0
 49
0.0
140
0.0
141
0.0
142
1.0
143
1.0
 70
   688
 72
     0
 73
     0
 74
     5
  7

 75
    16
 76
     0
 77
     2
 78
   300
147
1.0
148
0.0
149
0.0
100
AcDbLayout
  1
Layout1
 70
     1
 71
     1
 10
0.0
 20
0.0
 11
12.0
 21
9.0
 12
0.0
 22
0.0
 32
0.0
 14
1.00000000000000E+20
 24
1.00000000000000E+20
 34
1.00000000000000E+20
 15
-1.00000000000000E+20
 25
-1.00000000000000E+20
 35
-1.00000000000000E+20
146
0.0
 13
0.0
 23
0.0
 33
0.0
 16
1.0
 26
0.0
 36
0.0
 17
0.0
 27
1.0
 37
0.0
 76
     0
330
1B
  0
LAYOUT
  5
26
102
{ACAD_REACTORS
330
1A
102
}
330
1A
100
AcDbPlotSettings
  1

  2
none_device
  4

  6

 40
0.0
 41
0.0
 42
0.0
 43
0.0
 44
0.0
 45
0.0
 46
0.0
 47
0.0
 48
0.0
 49
0.0
140
0.0
141
0.0
142
1.0
143
1.0
 70
   688
 72
     0
 73
     0
 74
     5
  7

 75
    16
 76
     0
 77
     2
 78
   300
147
1.0
148
0.0
149
0.0
100
AcDbLayout
  1
Layout2
 70
     1
 71
     2
 10
0.0
 20
0.0
 11
0.0
 21
0.0
 12
0.0
 22
0.0
 32
0.0
 14
0.0
 24
0.0
 34
0.0
 15
0.0
 25
0.0
 35
0.0
146
0.0
 13
0.0
 23
0.0
 33
0.0
 16
1.0
 26
0.0
 36
0.0
 17
0.0
 27
1.0
 37
0.0
 76
     0
330
23
  0
LAYOUT
  5
22
102
{ACAD_REACTORS
330
1A
102
}
330
1A
100
AcDbPlotSettings
  1

  2
none_device
  4

  6

 40
0.0
 41
0.0
 42
0.0
 43
0.0
 44
0.0
 45
0.0
 46
0.0
 47
0.0
 48
0.0
 49
0.0
140
0.0
141
0.0
142
1.0
143
1.0
 70
  1712
 72
     0
 73
     0
 74
     0
  7

 75
     0
 76
     0
 77
     2
 78
   300
147
1.0
148
0.0
149
0.0
100
AcDbLayout
  1
Model
 70
     1
 71
     0
 10
0.0
 20
0.0
 11
12.0
 21
9.0
 12
0.0
 22
0.0
 32
0.0
 14
-392.8999993089283
 24
-262.4035375965262
 34
0.0
 15
-95.89999930893023
 25
-52.40353759652606
 35
0.0
146
0.0
 13
0.0
 23
0.0
 33
0.0
 16
1.0
 26
0.0
 36
0.0
 17
0.0
 27
1.0
 37
0.0
 76
     0
330
1F
331
29
  0
MATERIAL
  5
3D
102
{ACAD_REACTORS
330
3B
102
}
102
{ACAD_XDICTIONARY
360
33E
102
}
330
3B
100
AcDbMaterial
  1
ByBlock
  0
MATERIAL
  5
3C
102
{ACAD_REACTORS
330
3B
102
}
102
{ACAD_XDICTIONARY
360
33C
102
}
330
3B
100
AcDbMaterial
  1
ByLayer
  0
MATERIAL
  5
3E
102
{ACAD_REACTORS
330
3B
102
}
102
{ACAD_XDICTIONARY
360
340
102
}
330
3B
100
AcDbMaterial
  1
Global
  0
MLINESTYLE
  5
18
102
{ACAD_REACTORS
330
17
102
}
330
17
100
AcDbMlineStyle
  2
Standard
 70
     0
  3

 62
   256
 51
90.0
 52
90.0
 71
     2
 49
0.5
 62
   256
  6
BYLAYER
 49
-0.5
 62
   256
  6
BYLAYER
  0
ACDBPLACEHOLDER
  5
F
102
{ACAD_REACTORS
330
E
102
}
330
E
  0
VISUALSTYLE
  5
2F
102
{ACAD_REACTORS
330
2A
102
}
102
{ACAD_XDICTIONARY
360
324
102
}
330
2A
100
AcDbVisualStyle
  2
2dWireframe
 70
     4
 71
     0
 72
     2
 73
     0
 90
        0
 40
-0.6
 41
-30.0
 62
     5
 63
     7
421
 16777215
 74
     1
 91
        4
 64
     7
 65
   257
 75
     1
175
     1
 42
1.0
 92
        0
 66
   257
 43
1.0
 76
     1
 77
     6
 78
     2
 67
     7
 79
     5
170
     0
171
     0
290
     0
174
     0
 93
        1
 44
0.0
173
     0
291
     0
 45
0.0
1001
ACAD
1000
AcDbSavedByObjectVersion
1070
     0
  0
VISUALSTYLE
  5
31
102
{ACAD_REACTORS
330
2A
102
}
102
{ACAD_XDICTIONARY
360
328
102
}
330
2A
100
AcDbVisualStyle
  2
3D Hidden
 70
     6
 71
     1
 72
     2
 73
     2
 90
        0
 40
-0.6
 41
-30.0
 62
     5
 63
     7
421
 16777215
 74
     2
 91
        2
 64
     7
 65
   257
 75
     2
175
     1
 42
40.0
 92
        0
 66
   257
 43
1.0
 76
     1
 77
     6
 78
     2
 67
     7
 79
     3
170
     0
171
     0
290
     0
174
     0
 93
        1
 44
0.0
173
     0
291
     0
 45
0.0
1001
ACAD
1000
AcDbSavedByObjectVersion
1070
     0
  0
VISUALSTYLE
  5
30
102
{ACAD_REACTORS
330
2A
102
}
102
{ACAD_XDICTIONARY
360
326
102
}
330
2A
100
AcDbVisualStyle
  2
3dWireframe
 70
     5
 71
     0
 72
     2
 73
     0
 90
        0
 40
-0.6
 41
-30.0
 62
     5
 63
     7
421
 16777215
 74
     1
 91
        4
 64
     7
 65
   257
 75
     1
175
     1
 42
1.0
 92
        0
 66
   257
 43
1.0
 76
     1
 77
     6
 78
     2
 67
     7
 79
     5
170
     0
171
     0
290
     0
174
     0
 93
        1
 44
0.0
173
     0
291
     0
 45
0.0
1001
ACAD
1000
AcDbSavedByObjectVersion
1070
     0
  0
VISUALSTYLE
  5
32
102
{ACAD_REACTORS
330
2A
102
}
102
{ACAD_XDICTIONARY
360
32A
102
}
330
2A
100
AcDbVisualStyle
  2
Basic
 70
     7
 71
     1
 72
     0
 73
     1
 90
        0
 40
-0.6
 41
-30.0
 62
     5
 63
     7
421
 16777215
 74
     0
 91
        4
 64
     7
 65
   257
 75
     1
175
     1
 42
1.0
 92
        8
 66
     7
 43
1.0
 76
     1
 77
     6
 78
     2
 67
     7
 79
     5
170
     0
171
     0
290
     0
174
     0
 93
        1
 44
0.0
173
     0
291
     1
 45
0.0
1001
ACAD
1000
AcDbSavedByObjectVersion
1070
     0
  0
VISUALSTYLE
  5
36
102
{ACAD_REACTORS
330
2A
102
}
102
{ACAD_XDICTIONARY
360
332
102
}
330
2A
100
AcDbVisualStyle
  2
Brighten
 70
    12
 71
     2
 72
     2
 73
     0
 90
        0
 40
-0.6
 41
-30.0
 62
     5
 63
     7
421
 16777215
 74
     1
 91
        4
 64
     7
 65
   257
 75
     1
175
     1
 42
1.0
 92
        8
 66
     7
 43
1.0
 76
     1
 77
     6
 78
     2
 67
     7
 79
     5
170
     0
171
     0
290
     0
174
     0
 93
        1
 44
50.0
173
     0
291
     1
 45
0.0
1001
ACAD
1000
AcDbSavedByObjectVersion
1070
     0
  0
VISUALSTYLE
  5
3A
102
{ACAD_REACTORS
330
2A
102
}
102
{ACAD_XDICTIONARY
360
33A
102
}
330
2A
100
AcDbVisualStyle
  2
ColorChange
 70
    16
 71
     2
 72
     2
 73
     3
 90
        0
 40
-0.6
 41
-30.0
 62
     5
 63
     8
421
  8421504
 74
     1
 91
        4
 64
     7
 65
   257
 75
     1
175
     1
 42
1.0
 92
        8
 66
     8
424
  8421504
 43
1.0
 76
     1
 77
     6
 78
     2
 67
     7
 79
     5
170
     0
171
     0
290
     0
174
     0
 93
        1
 44
0.0
173
     0
291
     1
 45
0.0
1001
ACAD
1000
AcDbSavedByObjectVersion
1070
     0
  0
VISUALSTYLE
  5
34
102
{ACAD_REACTORS
330
2A
102
}
102
{ACAD_XDICTIONARY
360
32E
102
}
330
2A
100
AcDbVisualStyle
  2
Conceptual
 70
     9
 71
     3
 72
     2
 73
     0
 90
        0
 40
-0.6
 41
-30.0
 62
     5
 63
     7
421
 16777215
 74
     2
 91
        2
 64
     7
 65
   257
 75
     1
175
     1
 42
40.0
 92
        8
 66
     7
 43
1.0
 76
     1
 77
     6
 78
     2
 67
     7
 79
     3
170
     0
171
     0
290
     0
174
     0
 93
        1
 44
0.0
173
     0
291
     0
 45
0.0
1001
ACAD
1000
AcDbSavedByObjectVersion
1070
     0
  0
VISUALSTYLE
  5
35
102
{ACAD_REACTORS
330
2A
102
}
102
{ACAD_XDICTIONARY
360
330
102
}
330
2A
100
AcDbVisualStyle
  2
Dim
 70
    11
 71
     2
 72
     2
 73
     0
 90
        0
 40
-0.6
 41
-30.0
 62
     5
 63
     7
421
 16777215
 74
     1
 91
        4
 64
     7
 65
   257
 75
     1
175
     1
 42
1.0
 92
        8
 66
     7
 43
1.0
 76
     1
 77
     6
 78
     2
 67
     7
 79
     5
170
     0
171
     0
290
     0
174
     0
 93
        1
 44
-50.0
173
     0
291
     1
 45
0.0
1001
ACAD
1000
AcDbSavedByObjectVersion
1070
     0
  0
VISUALSTYLE
  5
39
102
{ACAD_REACTORS
330
2A
102
}
102
{ACAD_XDICTIONARY
360
338
102
}
330
2A
100
AcDbVisualStyle
  2
Facepattern
 70
    15
 71
     2
 72
     2
 73
     0
 90
        0
 40
-0.6
 41
-30.0
 62
     5
 63
     7
421
 16777215
 74
     1
 91
        4
 64
     7
 65
   257
 75
     1
175
     1
 42
1.0
 92
        8
 66
     7
 43
1.0
 76
     1
 77
     6
 78
     2
 67
     7
 79
     5
170
     0
171
     0
290
     0
174
     0
 93
        1
 44
0.0
173
     0
291
     1
 45
0.0
1001
ACAD
1000
AcDbSavedByObjectVersion
1070
     0
  0
VISUALSTYLE
  5
2B
102
{ACAD_REACTORS
330
2A
102
}
102
{ACAD_XDICTIONARY
360
31C
102
}
330
2A
100
AcDbVisualStyle
  2
Flat
 70
     0
 71
     2
 72
     1
 73
     1
 90
        2
 40
-0.6
 41
30.0
 62
     5
 63
     7
421
 16777215
 74
     0
 91
        4
 64
     7
 65
   257
 75
     1
175
     1
 42
1.0
 92
        8
 66
     7
 43
1.0
 76
     1
 77
     6
 78
     2
 67
     7
 79
     5
170
     0
171
     0
290
     0
174
     0
 93
       13
 44
0.0
173
     0
291
     1
 45
0.0
1001
ACAD
1000
AcDbSavedByObjectVersion
1070
     0
  0
VISUALSTYLE
  5
2C
102
{ACAD_REACTORS
330
2A
102
}
102
{ACAD_XDICTIONARY
360
31E
102
}
330
2A
100
AcDbVisualStyle
  2
FlatWithEdges
 70
     1
 71
     2
 72
     1
 73
     1
 90
        2
 40
-0.6
 41
30.0
 62
     5
 63
     7
421
 16777215
 74
     1
 91
        4
 64
     7
 65
   257
 75
     1
175
     1
 42
1.0
 92
        0
 66
   257
 43
1.0
 76
     1
 77
     6
 78
     2
 67
     7
 79
     5
170
     0
171
     0
290
     0
174
     0
 93
       13
 44
0.0
173
     0
291
     1
 45
0.0
1001
ACAD
1000
AcDbSavedByObjectVersion
1070
     0
  0
VISUALSTYLE
  5
2D
102
{ACAD_REACTORS
330
2A
102
}
102
{ACAD_XDICTIONARY
360
320
102
}
330
2A
100
AcDbVisualStyle
  2
Gouraud
 70
     2
 71
     2
 72
     2
 73
     1
 90
        2
 40
-0.6
 41
30.0
 62
     5
 63
     7
421
 16777215
 74
     0
 91
        4
 64
     7
 65
   257
 75
     1
175
     1
 42
1.0
 92
        0
 66
     7
 43
1.0
 76
     1
 77
     6
 78
     2
 67
     7
 79
     5
170
     0
171
     0
290
     0
174
     0
 93
       13
 44
0.0
173
     0
291
     1
 45
0.0
1001
ACAD
1000
AcDbSavedByObjectVersion
1070
     0
  0
VISUALSTYLE
  5
2E
102
{ACAD_REACTORS
330
2A
102
}
102
{ACAD_XDICTIONARY
360
322
102
}
330
2A
100
AcDbVisualStyle
  2
GouraudWithEdges
 70
     3
 71
     2
 72
     2
 73
     1
 90
        2
 40
-0.6
 41
30.0
 62
     5
 63
     7
421
 16777215
 74
     1
 91
        4
 64
     7
 65
   257
 75
     1
175
     1
 42
1.0
 92
        0
 66
   257
 43
1.0
 76
     1
 77
     6
 78
     2
 67
     7
 79
     5
170
     0
171
     0
290
     0
174
     0
 93
       13
 44
0.0
173
     0
291
     1
 45
0.0
1001
ACAD
1000
AcDbSavedByObjectVersion
1070
     0
  0
VISUALSTYLE
  5
38
102
{ACAD_REACTORS
330
2A
102
}
102
{ACAD_XDICTIONARY
360
336
102
}
330
2A
100
AcDbVisualStyle
  2
Linepattern
 70
    14
 71
     2
 72
     2
 73
     0
 90
        0
 40
-0.6
 41
-30.0
 62
     5
 63
     7
421
 16777215
 74
     1
 91
        4
 64
     7
 65
   257
 75
     7
175
     7
 42
1.0
 92
        8
 66
     7
 43
1.0
 76
     1
 77
     6
 78
     2
 67
     7
 79
     5
170
     0
171
     0
290
     0
174
     0
 93
        1
 44
0.0
173
     0
291
     1
 45
0.0
1001
ACAD
1000
AcDbSavedByObjectVersion
1070
     0
  0
VISUALSTYLE
  5
33
102
{ACAD_REACTORS
330
2A
102
}
102
{ACAD_XDICTIONARY
360
32C
102
}
330
2A
100
AcDbVisualStyle
  2
Realistic
 70
     8
 71
     2
 72
     2
 73
     0
 90
        0
 40
-0.6
 41
-30.0
 62
     5
 63
     7
421
 16777215
 74
     1
 91
        0
 64
     7
 65
   257
 75
     1
175
     1
 42
1.0
 92
        8
 66
     8
424
  7895160
 43
1.0
 76
     1
 77
     6
 78
     2
 67
     7
 79
     5
170
     0
171
     0
290
     0
174
     0
 93
       13
 44
0.0
173
     0
291
     0
 45
0.0
1001
ACAD
1000
AcDbSavedByObjectVersion
1070
     0
  0
VISUALSTYLE
  5
37
102
{ACAD_REACTORS
330
2A
102
}
102
{ACAD_XDICTIONARY
360
334
102
}
330
2A
100
AcDbVisualStyle
  2
Thicken
 70
    13
 71
     2
 72
     2
 73
     0
 90
        0
 40
-0.6
 41
-30.0
 62
     5
 63
     7
421
 16777215
 74
     1
 91
        4
 64
     7
 65
   257
 75
     1
175
     1
 42
1.0
 92
       12
 66
     7
 43
1.0
 76
     1
 77
     6
 78
     2
 67
     7
 79
     5
170
     0
171
     0
290
     0
174
     0
 93
        1
 44
0.0
173
     0
291
     1
 45
0.0
1001
ACAD
1000
AcDbSavedByObjectVersion
1070
     0
  0
DICTIONARY
  5
33E
330
3D
100
AcDbDictionary
280
     1
281
     1
  3
ACAD_XREC_ROUNDTRIP
360
33F
  0
DICTIONARY
  5
33C
330
3C
100
AcDbDictionary
280
     1
281
     1
  3
ACAD_XREC_ROUNDTRIP
360
33D
  0
DICTIONARY
  5
340
330
3E
100
AcDbDictionary
280
     1
281
     1
  3
ACAD_XREC_ROUNDTRIP
360
341
  0
DICTIONARY
  5
324
330
2F
100
AcDbDictionary
280
     1
281
     1
  3
ACAD_XREC_ROUNDTRIP
360
325
  0
DICTIONARY
  5
328
330
31
100
AcDbDictionary
280
     1
281
     1
  3
ACAD_XREC_ROUNDTRIP
360
329
  0
DICTIONARY
  5
326
330
30
100
AcDbDictionary
280
     1
281
     1
  3
ACAD_XREC_ROUNDTRIP
360
327
  0
DICTIONARY
  5
32A
330
32
100
AcDbDictionary
280
     1
281
     1
  3
ACAD_XREC_ROUNDTRIP
360
32B
  0
DICTIONARY
  5
332
330
36
100
AcDbDictionary
280
     1
281
     1
  3
ACAD_XREC_ROUNDTRIP
360
333
  0
DICTIONARY
  5
33A
330
3A
100
AcDbDictionary
280
     1
281
     1
  3
ACAD_XREC_ROUNDTRIP
360
33B
  0
DICTIONARY
  5
32E
330
34
100
AcDbDictionary
280
     1
281
     1
  3
ACAD_XREC_ROUNDTRIP
360
32F
  0
DICTIONARY
  5
330
330
35
100
AcDbDictionary
280
     1
281
     1
  3
ACAD_XREC_ROUNDTRIP
360
331
  0
DICTIONARY
  5
338
330
39
100
AcDbDictionary
280
     1
281
     1
  3
ACAD_XREC_ROUNDTRIP
360
339
  0
DICTIONARY
  5
31C
330
2B
100
AcDbDictionary
280
     1
281
     1
  3
ACAD_XREC_ROUNDTRIP
360
31D
  0
DICTIONARY
  5
31E
330
2C
100
AcDbDictionary
280
     1
281
     1
  3
ACAD_XREC_ROUNDTRIP
360
31F
  0
DICTIONARY
  5
320
330
2D
100
AcDbDictionary
280
     1
281
     1
  3
ACAD_XREC_ROUNDTRIP
360
321
  0
DICTIONARY
  5
322
330
2E
100
AcDbDictionary
280
     1
281
     1
  3
ACAD_XREC_ROUNDTRIP
360
323
  0
DICTIONARY
  5
336
330
38
100
AcDbDictionary
280
     1
281
     1
  3
ACAD_XREC_ROUNDTRIP
360
337
  0
DICTIONARY
  5
32C
330
33
100
AcDbDictionary
280
     1
281
     1
  3
ACAD_XREC_ROUNDTRIP
360
32D
  0
DICTIONARY
  5
334
330
37
100
AcDbDictionary
280
     1
281
     1
  3
ACAD_XREC_ROUNDTRIP
360
335
  0
XRECORD
  5
33F
102
{ACAD_REACTORS
330
33E
102
}
330
33E
100
AcDbXrecord
280
     1
102
MATERIAL
148
0.0
149
0.0
149
0.0
 93
        0
 94
      127
282
     0
 72
     1
 77
     1
171
     1
175
     1
179
     1
273
     0
  0
XRECORD
  5
33D
102
{ACAD_REACTORS
330
33C
102
}
330
33C
100
AcDbXrecord
280
     1
102
MATERIAL
148
0.0
149
0.0
149
0.0
 93
        0
 94
      127
282
     0
 72
     1
 77
     1
171
     1
175
     1
179
     1
273
     0
  0
XRECORD
  5
341
102
{ACAD_REACTORS
330
340
102
}
330
340
100
AcDbXrecord
280
     1
102
MATERIAL
148
0.0
149
0.0
149
0.0
 93
        0
 94
      127
282
     0
 72
     1
 77
     1
171
     1
175
     1
179
     1
273
     0
  0
XRECORD
  5
325
102
{ACAD_REACTORS
330
324
102
}
330
324
100
AcDbXrecord
280
     1
102
RTVSPropertyOp0
 70
     1
102
RTVSPropertyOp1
 70
     1
102
RTVSPropertyOp2
 70
     1
102
RTVSPropertyOp3
 70
     1
102
RTVSPropertyOp4
 70
     1
102
RTVSPropertyOp5
 70
     1
102
RTVSPropertyOp6
 70
     1
102
RTVSPropertyOp7
 70
     1
102
RTVSPropertyOp8
 70
     1
102
RTVSPropertyOp9
 70
     1
102
RTVSPropertyOp10
 70
     1
102
RTVSPropertyOp11
 70
     1
102
RTVSPropertyOp12
 70
     1
102
RTVSPropertyOp13
 70
     1
102
RTVSPropertyOp14
 70
     1
102
RTVSPropertyOp15
 70
     1
102
RTVSPropertyOp16
 70
     1
102
RTVSPropertyOp17
 70
     1
102
RTVSPropertyOp18
 70
     1
102
RTVSPropertyOp19
 70
     1
102
RTVSPropertyOp20
 70
     1
102
RTVSPropertyOp21
 70
     1
102
RTVSPropertyOp22
 70
     1
102
RTVSPropertyOp23
 70
     1
102
RTVSPropertyOp24
 70
     1
102
RTVSPropertyOp25
 70
     1
102
RTVSPropertyOp26
 70
     1
102
RTVSPropertyOp27
 70
     1
102
RTVSPropertyOp28
 70
     1
102
RTVSPropertyOp29
 70
     1
102
RTVSPropertyOp30
 70
     1
102
RTVSPropertyOp31
 70
     1
102
RTVSPropertyOp32
 70
     1
  0
XRECORD
  5
329
102
{ACAD_REACTORS
330
328
102
}
330
328
100
AcDbXrecord
280
     1
102
RTVSPropertyOp0
 70
     1
102
RTVSPropertyOp1
 70
     1
102
RTVSPropertyOp2
 70
     1
102
RTVSPropertyOp3
 70
     1
102
RTVSPropertyOp4
 70
     1
102
RTVSPropertyOp5
 70
     1
102
RTVSPropertyOp6
 70
     1
102
RTVSPropertyOp7
 70
     1
102
RTVSPropertyOp8
 70
     1
102
RTVSPropertyOp9
 70
     1
102
RTVSPropertyOp10
 70
     1
102
RTVSPropertyOp11
 70
     1
102
RTVSPropertyOp12
 70
     1
102
RTVSPropertyOp13
 70
     1
102
RTVSPropertyOp14
 70
     1
102
RTVSPropertyOp15
 70
     1
102
RTVSPropertyOp16
 70
     1
102
RTVSPropertyOp17
 70
     1
102
RTVSPropertyOp18
 70
     1
102
RTVSPropertyOp19
 70
     1
102
RTVSPropertyOp20
 70
     1
102
RTVSPropertyOp21
 70
     1
102
RTVSPropertyOp22
 70
     1
102
RTVSPropertyOp23
 70
     1
102
RTVSPropertyOp24
 70
     1
102
RTVSPropertyOp25
 70
     1
102
RTVSPropertyOp26
 70
     1
102
RTVSPropertyOp27
 70
     1
102
RTVSPropertyOp28
 70
     1
102
RTVSPropertyOp29
 70
     1
102
RTVSPropertyOp30
 70
     1
102
RTVSPropertyOp31
 70
     1
102
RTVSPropertyOp32
 70
     1
  0
XRECORD
  5
327
102
{ACAD_REACTORS
330
326
102
}
330
326
100
AcDbXrecord
280
     1
102
RTVSPropertyOp0
 70
     1
102
RTVSPropertyOp1
 70
     1
102
RTVSPropertyOp2
 70
     1
102
RTVSPropertyOp3
 70
     1
102
RTVSPropertyOp4
 70
     1
102
RTVSPropertyOp5
 70
     1
102
RTVSPropertyOp6
 70
     1
102
RTVSPropertyOp7
 70
     1
102
RTVSPropertyOp8
 70
     1
102
RTVSPropertyOp9
 70
     1
102
RTVSPropertyOp10
 70
     1
102
RTVSPropertyOp11
 70
     1
102
RTVSPropertyOp12
 70
     1
102
RTVSPropertyOp13
 70
     1
102
RTVSPropertyOp14
 70
     1
102
RTVSPropertyOp15
 70
     1
102
RTVSPropertyOp16
 70
     1
102
RTVSPropertyOp17
 70
     1
102
RTVSPropertyOp18
 70
     1
102
RTVSPropertyOp19
 70
     1
102
RTVSPropertyOp20
 70
     1
102
RTVSPropertyOp21
 70
     1
102
RTVSPropertyOp22
 70
     1
102
RTVSPropertyOp23
 70
     1
102
RTVSPropertyOp24
 70
     1
102
RTVSPropertyOp25
 70
     1
102
RTVSPropertyOp26
 70
     1
102
RTVSPropertyOp27
 70
     1
102
RTVSPropertyOp28
 70
     1
102
RTVSPropertyOp29
 70
     1
102
RTVSPropertyOp30
 70
     1
102
RTVSPropertyOp31
 70
     1
102
RTVSPropertyOp32
 70
     1
  0
XRECORD
  5
32B
102
{ACAD_REACTORS
330
32A
102
}
330
32A
100
AcDbXrecord
280
     1
102
RTVSPropertyOp0
 70
     1
102
RTVSPropertyOp1
 70
     1
102
RTVSPropertyOp2
 70
     1
102
RTVSPropertyOp3
 70
     1
102
RTVSPropertyOp4
 70
     1
102
RTVSPropertyOp5
 70
     1
102
RTVSPropertyOp6
 70
     1
102
RTVSPropertyOp7
 70
     1
102
RTVSPropertyOp8
 70
     1
102
RTVSPropertyOp9
 70
     1
102
RTVSPropertyOp10
 70
     1
102
RTVSPropertyOp11
 70
     1
102
RTVSPropertyOp12
 70
     1
102
RTVSPropertyOp13
 70
     1
102
RTVSPropertyOp14
 70
     1
102
RTVSPropertyOp15
 70
     1
102
RTVSPropertyOp16
 70
     1
102
RTVSPropertyOp17
 70
     1
102
RTVSPropertyOp18
 70
     1
102
RTVSPropertyOp19
 70
     1
102
RTVSPropertyOp20
 70
     1
102
RTVSPropertyOp21
 70
     1
102
RTVSPropertyOp22
 70
     1
102
RTVSPropertyOp23
 70
     1
102
RTVSPropertyOp24
 70
     1
102
RTVSPropertyOp25
 70
     1
102
RTVSPropertyOp26
 70
     1
102
RTVSPropertyOp27
 70
     1
102
RTVSPropertyOp28
 70
     1
102
RTVSPropertyOp29
 70
     1
102
RTVSPropertyOp30
 70
     1
102
RTVSPropertyOp31
 70
     1
102
RTVSPropertyOp32
 70
     1
  0
XRECORD
  5
333
102
{ACAD_REACTORS
330
332
102
}
330
332
100
AcDbXrecord
280
     1
102
RTVSPropertyOp0
 70
     1
102
RTVSPropertyOp1
 70
     1
102
RTVSPropertyOp2
 70
     1
102
RTVSPropertyOp3
 70
     1
102
RTVSPropertyOp4
 70
     1
102
RTVSPropertyOp5
 70
     1
102
RTVSPropertyOp6
 70
     1
102
RTVSPropertyOp7
 70
     1
102
RTVSPropertyOp8
 70
     1
102
RTVSPropertyOp9
 70
     1
102
RTVSPropertyOp10
 70
     1
102
RTVSPropertyOp11
 70
     1
102
RTVSPropertyOp12
 70
     1
102
RTVSPropertyOp13
 70
     1
102
RTVSPropertyOp14
 70
     1
102
RTVSPropertyOp15
 70
     1
102
RTVSPropertyOp16
 70
     1
102
RTVSPropertyOp17
 70
     1
102
RTVSPropertyOp18
 70
     1
102
RTVSPropertyOp19
 70
     1
102
RTVSPropertyOp20
 70
     1
102
RTVSPropertyOp21
 70
     1
102
RTVSPropertyOp22
 70
     1
102
RTVSPropertyOp23
 70
     1
102
RTVSPropertyOp24
 70
     1
102
RTVSPropertyOp25
 70
     1
102
RTVSPropertyOp26
 70
     1
102
RTVSPropertyOp27
 70
     1
102
RTVSPropertyOp28
 70
     1
102
RTVSPropertyOp29
 70
     1
102
RTVSPropertyOp30
 70
     1
102
RTVSPropertyOp31
 70
     1
102
RTVSPropertyOp32
 70
     1
  0
XRECORD
  5
33B
102
{ACAD_REACTORS
330
33A
102
}
330
33A
100
AcDbXrecord
280
     1
102
RTVSPropertyOp0
 70
     1
102
RTVSPropertyOp1
 70
     1
102
RTVSPropertyOp2
 70
     1
102
RTVSPropertyOp3
 70
     1
102
RTVSPropertyOp4
 70
     1
102
RTVSPropertyOp5
 70
     1
102
RTVSPropertyOp6
 70
     1
102
RTVSPropertyOp7
 70
     1
102
RTVSPropertyOp8
 70
     1
102
RTVSPropertyOp9
 70
     1
102
RTVSPropertyOp10
 70
     1
102
RTVSPropertyOp11
 70
     1
102
RTVSPropertyOp12
 70
     1
102
RTVSPropertyOp13
 70
     1
102
RTVSPropertyOp14
 70
     1
102
RTVSPropertyOp15
 70
     1
102
RTVSPropertyOp16
 70
     1
102
RTVSPropertyOp17
 70
     1
102
RTVSPropertyOp18
 70
     1
102
RTVSPropertyOp19
 70
     1
102
RTVSPropertyOp20
 70
     1
102
RTVSPropertyOp21
 70
     1
102
RTVSPropertyOp22
 70
     1
102
RTVSPropertyOp23
 70
     1
102
RTVSPropertyOp24
 70
     1
102
RTVSPropertyOp25
 70
     1
102
RTVSPropertyOp26
 70
     1
102
RTVSPropertyOp27
 70
     1
102
RTVSPropertyOp28
 70
     1
102
RTVSPropertyOp29
 70
     1
102
RTVSPropertyOp30
 70
     1
102
RTVSPropertyOp31
 70
     1
102
RTVSPropertyOp32
 70
     1
  0
XRECORD
  5
32F
102
{ACAD_REACTORS
330
32E
102
}
330
32E
100
AcDbXrecord
280
     1
102
RTVSPropertyOp0
 70
     1
102
RTVSPropertyOp1
 70
     1
102
RTVSPropertyOp2
 70
     1
102
RTVSPropertyOp3
 70
     1
102
RTVSPropertyOp4
 70
     1
102
RTVSPropertyOp5
 70
     1
102
RTVSPropertyOp6
 70
     1
102
RTVSPropertyOp7
 70
     1
102
RTVSPropertyOp8
 70
     1
102
RTVSPropertyOp9
 70
     1
102
RTVSPropertyOp10
 70
     1
102
RTVSPropertyOp11
 70
     1
102
RTVSPropertyOp12
 70
     1
102
RTVSPropertyOp13
 70
     1
102
RTVSPropertyOp14
 70
     1
102
RTVSPropertyOp15
 70
     1
102
RTVSPropertyOp16
 70
     1
102
RTVSPropertyOp17
 70
     1
102
RTVSPropertyOp18
 70
     1
102
RTVSPropertyOp19
 70
     1
102
RTVSPropertyOp20
 70
     1
102
RTVSPropertyOp21
 70
     1
102
RTVSPropertyOp22
 70
     1
102
RTVSPropertyOp23
 70
     1
102
RTVSPropertyOp24
 70
     1
102
RTVSPropertyOp25
 70
     1
102
RTVSPropertyOp26
 70
     1
102
RTVSPropertyOp27
 70
     1
102
RTVSPropertyOp28
 70
     1
102
RTVSPropertyOp29
 70
     1
102
RTVSPropertyOp30
 70
     1
102
RTVSPropertyOp31
 70
     1
102
RTVSPropertyOp32
 70
     1
  0
XRECORD
  5
331
102
{ACAD_REACTORS
330
330
102
}
330
330
100
AcDbXrecord
280
     1
102
RTVSPropertyOp0
 70
     1
102
RTVSPropertyOp1
 70
     1
102
RTVSPropertyOp2
 70
     1
102
RTVSPropertyOp3
 70
     1
102
RTVSPropertyOp4
 70
     1
102
RTVSPropertyOp5
 70
     1
102
RTVSPropertyOp6
 70
     1
102
RTVSPropertyOp7
 70
     1
102
RTVSPropertyOp8
 70
     1
102
RTVSPropertyOp9
 70
     1
102
RTVSPropertyOp10
 70
     1
102
RTVSPropertyOp11
 70
     1
102
RTVSPropertyOp12
 70
     1
102
RTVSPropertyOp13
 70
     1
102
RTVSPropertyOp14
 70
     1
102
RTVSPropertyOp15
 70
     1
102
RTVSPropertyOp16
 70
     1
102
RTVSPropertyOp17
 70
     1
102
RTVSPropertyOp18
 70
     1
102
RTVSPropertyOp19
 70
     1
102
RTVSPropertyOp20
 70
     1
102
RTVSPropertyOp21
 70
     1
102
RTVSPropertyOp22
 70
     1
102
RTVSPropertyOp23
 70
     1
102
RTVSPropertyOp24
 70
     1
102
RTVSPropertyOp25
 70
     1
102
RTVSPropertyOp26
 70
     1
102
RTVSPropertyOp27
 70
     1
102
RTVSPropertyOp28
 70
     1
102
RTVSPropertyOp29
 70
     1
102
RTVSPropertyOp30
 70
     1
102
RTVSPropertyOp31
 70
     1
102
RTVSPropertyOp32
 70
     1
  0
XRECORD
  5
339
102
{ACAD_REACTORS
330
338
102
}
330
338
100
AcDbXrecord
280
     1
102
RTVSPropertyOp0
 70
     1
102
RTVSPropertyOp1
 70
     1
102
RTVSPropertyOp2
 70
     1
102
RTVSPropertyOp3
 70
     1
102
RTVSPropertyOp4
 70
     1
102
RTVSPropertyOp5
 70
     1
102
RTVSPropertyOp6
 70
     1
102
RTVSPropertyOp7
 70
     1
102
RTVSPropertyOp8
 70
     1
102
RTVSPropertyOp9
 70
     1
102
RTVSPropertyOp10
 70
     1
102
RTVSPropertyOp11
 70
     1
102
RTVSPropertyOp12
 70
     1
102
RTVSPropertyOp13
 70
     1
102
RTVSPropertyOp14
 70
     1
102
RTVSPropertyOp15
 70
     1
102
RTVSPropertyOp16
 70
     1
102
RTVSPropertyOp17
 70
     1
102
RTVSPropertyOp18
 70
     1
102
RTVSPropertyOp19
 70
     1
102
RTVSPropertyOp20
 70
     1
102
RTVSPropertyOp21
 70
     1
102
RTVSPropertyOp22
 70
     1
102
RTVSPropertyOp23
 70
     1
102
RTVSPropertyOp24
 70
     1
102
RTVSPropertyOp25
 70
     1
102
RTVSPropertyOp26
 70
     1
102
RTVSPropertyOp27
 70
     1
102
RTVSPropertyOp28
 70
     1
102
RTVSPropertyOp29
 70
     1
102
RTVSPropertyOp30
 70
     1
102
RTVSPropertyOp31
 70
     1
102
RTVSPropertyOp32
 70
     1
  0
XRECORD
  5
31D
102
{ACAD_REACTORS
330
31C
102
}
330
31C
100
AcDbXrecord
280
     1
102
RTVSPropertyOp0
 70
     1
102
RTVSPropertyOp1
 70
     1
102
RTVSPropertyOp2
 70
     1
102
RTVSPropertyOp3
 70
     1
102
RTVSPropertyOp4
 70
     1
102
RTVSPropertyOp5
 70
     1
102
RTVSPropertyOp6
 70
     1
102
RTVSPropertyOp7
 70
     1
102
RTVSPropertyOp8
 70
     1
102
RTVSPropertyOp9
 70
     1
102
RTVSPropertyOp10
 70
     1
102
RTVSPropertyOp11
 70
     1
102
RTVSPropertyOp12
 70
     1
102
RTVSPropertyOp13
 70
     1
102
RTVSPropertyOp14
 70
     1
102
RTVSPropertyOp15
 70
     1
102
RTVSPropertyOp16
 70
     1
102
RTVSPropertyOp17
 70
     1
102
RTVSPropertyOp18
 70
     1
102
RTVSPropertyOp19
 70
     1
102
RTVSPropertyOp20
 70
     1
102
RTVSPropertyOp21
 70
     1
102
RTVSPropertyOp22
 70
     1
102
RTVSPropertyOp23
 70
     1
102
RTVSPropertyOp24
 70
     1
102
RTVSPropertyOp25
 70
     1
102
RTVSPropertyOp26
 70
     1
102
RTVSPropertyOp27
 70
     1
102
RTVSPropertyOp28
 70
     1
102
RTVSPropertyOp29
 70
     1
102
RTVSPropertyOp30
 70
     1
102
RTVSPropertyOp31
 70
     1
102
RTVSPropertyOp32
 70
     1
  0
XRECORD
  5
31F
102
{ACAD_REACTORS
330
31E
102
}
330
31E
100
AcDbXrecord
280
     1
102
RTVSPropertyOp0
 70
     1
102
RTVSPropertyOp1
 70
     1
102
RTVSPropertyOp2
 70
     1
102
RTVSPropertyOp3
 70
     1
102
RTVSPropertyOp4
 70
     1
102
RTVSPropertyOp5
 70
     1
102
RTVSPropertyOp6
 70
     1
102
RTVSPropertyOp7
 70
     1
102
RTVSPropertyOp8
 70
     1
102
RTVSPropertyOp9
 70
     1
102
RTVSPropertyOp10
 70
     1
102
RTVSPropertyOp11
 70
     1
102
RTVSPropertyOp12
 70
     1
102
RTVSPropertyOp13
 70
     1
102
RTVSPropertyOp14
 70
     1
102
RTVSPropertyOp15
 70
     1
102
RTVSPropertyOp16
 70
     1
102
RTVSPropertyOp17
 70
     1
102
RTVSPropertyOp18
 70
     1
102
RTVSPropertyOp19
 70
     1
102
RTVSPropertyOp20
 70
     1
102
RTVSPropertyOp21
 70
     1
102
RTVSPropertyOp22
 70
     1
102
RTVSPropertyOp23
 70
     1
102
RTVSPropertyOp24
 70
     1
102
RTVSPropertyOp25
 70
     1
102
RTVSPropertyOp26
 70
     1
102
RTVSPropertyOp27
 70
     1
102
RTVSPropertyOp28
 70
     1
102
RTVSPropertyOp29
 70
     1
102
RTVSPropertyOp30
 70
     1
102
RTVSPropertyOp31
 70
     1
102
RTVSPropertyOp32
 70
     1
  0
XRECORD
  5
321
102
{ACAD_REACTORS
330
320
102
}
330
320
100
AcDbXrecord
280
     1
102
RTVSPropertyOp0
 70
     1
102
RTVSPropertyOp1
 70
     1
102
RTVSPropertyOp2
 70
     1
102
RTVSPropertyOp3
 70
     1
102
RTVSPropertyOp4
 70
     1
102
RTVSPropertyOp5
 70
     1
102
RTVSPropertyOp6
 70
     1
102
RTVSPropertyOp7
 70
     1
102
RTVSPropertyOp8
 70
     1
102
RTVSPropertyOp9
 70
     1
102
RTVSPropertyOp10
 70
     1
102
RTVSPropertyOp11
 70
     1
102
RTVSPropertyOp12
 70
     1
102
RTVSPropertyOp13
 70
     1
102
RTVSPropertyOp14
 70
     1
102
RTVSPropertyOp15
 70
     1
102
RTVSPropertyOp16
 70
     1
102
RTVSPropertyOp17
 70
     1
102
RTVSPropertyOp18
 70
     1
102
RTVSPropertyOp19
 70
     1
102
RTVSPropertyOp20
 70
     1
102
RTVSPropertyOp21
 70
     1
102
RTVSPropertyOp22
 70
     1
102
RTVSPropertyOp23
 70
     1
102
RTVSPropertyOp24
 70
     1
102
RTVSPropertyOp25
 70
     1
102
RTVSPropertyOp26
 70
     1
102
RTVSPropertyOp27
 70
     1
102
RTVSPropertyOp28
 70
     1
102
RTVSPropertyOp29
 70
     1
102
RTVSPropertyOp30
 70
     1
102
RTVSPropertyOp31
 70
     1
102
RTVSPropertyOp32
 70
     1
  0
XRECORD
  5
323
102
{ACAD_REACTORS
330
322
102
}
330
322
100
AcDbXrecord
280
     1
102
RTVSPropertyOp0
 70
     1
102
RTVSPropertyOp1
 70
     1
102
RTVSPropertyOp2
 70
     1
102
RTVSPropertyOp3
 70
     1
102
RTVSPropertyOp4
 70
     1
102
RTVSPropertyOp5
 70
     1
102
RTVSPropertyOp6
 70
     1
102
RTVSPropertyOp7
 70
     1
102
RTVSPropertyOp8
 70
     1
102
RTVSPropertyOp9
 70
     1
102
RTVSPropertyOp10
 70
     1
102
RTVSPropertyOp11
 70
     1
102
RTVSPropertyOp12
 70
     1
102
RTVSPropertyOp13
 70
     1
102
RTVSPropertyOp14
 70
     1
102
RTVSPropertyOp15
 70
     1
102
RTVSPropertyOp16
 70
     1
102
RTVSPropertyOp17
 70
     1
102
RTVSPropertyOp18
 70
     1
102
RTVSPropertyOp19
 70
     1
102
RTVSPropertyOp20
 70
     1
102
RTVSPropertyOp21
 70
     1
102
RTVSPropertyOp22
 70
     1
102
RTVSPropertyOp23
 70
     1
102
RTVSPropertyOp24
 70
     1
102
RTVSPropertyOp25
 70
     1
102
RTVSPropertyOp26
 70
     1
102
RTVSPropertyOp27
 70
     1
102
RTVSPropertyOp28
 70
     1
102
RTVSPropertyOp29
 70
     1
102
RTVSPropertyOp30
 70
     1
102
RTVSPropertyOp31
 70
     1
102
RTVSPropertyOp32
 70
     1
  0
XRECORD
  5
337
102
{ACAD_REACTORS
330
336
102
}
330
336
100
AcDbXrecord
280
     1
102
RTVSPropertyOp0
 70
     1
102
RTVSPropertyOp1
 70
     1
102
RTVSPropertyOp2
 70
     1
102
RTVSPropertyOp3
 70
     1
102
RTVSPropertyOp4
 70
     1
102
RTVSPropertyOp5
 70
     1
102
RTVSPropertyOp6
 70
     1
102
RTVSPropertyOp7
 70
     1
102
RTVSPropertyOp8
 70
     1
102
RTVSPropertyOp9
 70
     1
102
RTVSPropertyOp10
 70
     1
102
RTVSPropertyOp11
 70
     1
102
RTVSPropertyOp12
 70
     1
102
RTVSPropertyOp13
 70
     1
102
RTVSPropertyOp14
 70
     1
102
RTVSPropertyOp15
 70
     1
102
RTVSPropertyOp16
 70
     1
102
RTVSPropertyOp17
 70
     1
102
RTVSPropertyOp18
 70
     1
102
RTVSPropertyOp19
 70
     1
102
RTVSPropertyOp20
 70
     1
102
RTVSPropertyOp21
 70
     1
102
RTVSPropertyOp22
 70
     1
102
RTVSPropertyOp23
 70
     1
102
RTVSPropertyOp24
 70
     1
102
RTVSPropertyOp25
 70
     1
102
RTVSPropertyOp26
 70
     1
102
RTVSPropertyOp27
 70
     1
102
RTVSPropertyOp28
 70
     1
102
RTVSPropertyOp29
 70
     1
102
RTVSPropertyOp30
 70
     1
102
RTVSPropertyOp31
 70
     1
102
RTVSPropertyOp32
 70
     1
  0
XRECORD
  5
32D
102
{ACAD_REACTORS
330
32C
102
}
330
32C
100
AcDbXrecord
280
     1
102
RTVSPropertyOp0
 70
     1
102
RTVSPropertyOp1
 70
     1
102
RTVSPropertyOp2
 70
     1
102
RTVSPropertyOp3
 70
     1
102
RTVSPropertyOp4
 70
     1
102
RTVSPropertyOp5
 70
     1
102
RTVSPropertyOp6
 70
     1
102
RTVSPropertyOp7
 70
     1
102
RTVSPropertyOp8
 70
     1
102
RTVSPropertyOp9
 70
     1
102
RTVSPropertyOp10
 70
     1
102
RTVSPropertyOp11
 70
     1
102
RTVSPropertyOp12
 70
     1
102
RTVSPropertyOp13
 70
     1
102
RTVSPropertyOp14
 70
     1
102
RTVSPropertyOp15
 70
     1
102
RTVSPropertyOp16
 70
     1
102
RTVSPropertyOp17
 70
     1
102
RTVSPropertyOp18
 70
     1
102
RTVSPropertyOp19
 70
     1
102
RTVSPropertyOp20
 70
     1
102
RTVSPropertyOp21
 70
     1
102
RTVSPropertyOp22
 70
     1
102
RTVSPropertyOp23
 70
     1
102
RTVSPropertyOp24
 70
     1
102
RTVSPropertyOp25
 70
     1
102
RTVSPropertyOp26
 70
     1
102
RTVSPropertyOp27
 70
     1
102
RTVSPropertyOp28
 70
     1
102
RTVSPropertyOp29
 70
     1
102
RTVSPropertyOp30
 70
     1
102
RTVSPropertyOp31
 70
     1
102
RTVSPropertyOp32
 70
     1
  0
XRECORD
  5
335
102
{ACAD_REACTORS
330
334
102
}
330
334
100
AcDbXrecord
280
     1
102
RTVSPropertyOp0
 70
     1
102
RTVSPropertyOp1
 70
     1
102
RTVSPropertyOp2
 70
     1
102
RTVSPropertyOp3
 70
     1
102
RTVSPropertyOp4
 70
     1
102
RTVSPropertyOp5
 70
     1
102
RTVSPropertyOp6
 70
     1
102
RTVSPropertyOp7
 70
     1
102
RTVSPropertyOp8
 70
     1
102
RTVSPropertyOp9
 70
     1
102
RTVSPropertyOp10
 70
     1
102
RTVSPropertyOp11
 70
     1
102
RTVSPropertyOp12
 70
     1
102
RTVSPropertyOp13
 70
     1
102
RTVSPropertyOp14
 70
     1
102
RTVSPropertyOp15
 70
     1
102
RTVSPropertyOp16
 70
     1
102
RTVSPropertyOp17
 70
     1
102
RTVSPropertyOp18
 70
     1
102
RTVSPropertyOp19
 70
     1
102
RTVSPropertyOp20
 70
     1
102
RTVSPropertyOp21
 70
     1
102
RTVSPropertyOp22
 70
     1
102
RTVSPropertyOp23
 70
     1
102
RTVSPropertyOp24
 70
     1
102
RTVSPropertyOp25
 70
     1
102
RTVSPropertyOp26
 70
     1
102
RTVSPropertyOp27
 70
     1
102
RTVSPropertyOp28
 70
     1
102
RTVSPropertyOp29
 70
     1
102
RTVSPropertyOp30
 70
     1
102
RTVSPropertyOp31
 70
     1
102
RTVSPropertyOp32
 70
     1
  0
ENDSEC
  0
EOF
