  0
SECTION
  2
HEADER
  9
$ACADVER
  1
AC1018
  9
$ACADMAINTVER
 70
     0
  9
$DWGCODEPAGE
  3
ANSI_1252
  9
$INSBASE
 10
0.0
 20
0.0
 30
0.0
  9
$EXTMIN
 10
-227.9000011974624
 20
-36.40353900056982
 30
0.0
  9
$EXTMAX
 10
69.09999880253571
 20
173.5964609994303
 30
0.0
  9
$LIMMIN
 10
0.0
 20
0.0
  9
$LIMMAX
 10
12.0
 20
9.0
  9
$ORTHOMODE
 70
     0
  9
$REGENMODE
 70
     1
  9
$FILLMODE
 70
     1
  9
$QTEXTMODE
 70
     0
  9
$MIRRTEXT
 70
     1
  9
$LTSCALE
 40
1.0
  9
$ATTMODE
 70
     1
  9
$TEXTSIZE
 40
0.2
  9
$TRACEWID
 40
0.05
  9
$TEXTSTYLE
  7
Standard
  9
$CLAYER
  8
0
  9
$CELTYPE
  6
ByLayer
  9
$CECOLOR
 62
   256
  9
$CELTSCALE
 40
1.0
  9
$DISPSILH
 70
     0
  9
$DIMSCALE
 40
1.0
  9
$DIMASZ
 40
0.18
  9
$DIMEXO
 40
0.0625
  9
$DIMDLI
 40
0.38
  9
$DIMRND
 40
0.0
  9
$DIMDLE
 40
0.0
  9
$DIMEXE
 40
0.18
  9
$DIMTP
 40
0.0
  9
$DIMTM
 40
0.0
  9
$DIMTXT
 40
0.18
  9
$DIMCEN
 40
0.09
  9
$DIMTSZ
 40
0.0
  9
$DIMTOL
 70
     0
  9
$DIMLIM
 70
     0
  9
$DIMTIH
 70
     1
  9
$DIMTOH
 70
     1
  9
$DIMSE1
 70
     0
  9
$DIMSE2
 70
     0
  9
$DIMTAD
 70
     0
  9
$DIMZIN
 70
     0
  9
$DIMBLK
  1

  9
$DIMASO
 70
     1
  9
$DIMSHO
 70
     1
  9
$DIMPOST
  1

  9
$DIMAPOST
  1

  9
$DIMALT
 70
     0
  9
$DIMALTD
 70
     2
  9
$DIMALTF
 40
25.4
  9
$DIMLFAC
 40
1.0
  9
$DIMTOFL
 70
     0
  9
$DIMTVP
 40
0.0
  9
$DIMTIX
 70
     0
  9
$DIMSOXD
 70
     0
  9
$DIMSAH
 70
     0
  9
$DIMBLK1
  1

  9
$DIMBLK2
  1

  9
$DIMSTYLE
  2
Standard
  9
$DIMCLRD
 70
     0
  9
$DIMCLRE
 70
     0
  9
$DIMCLRT
 70
     0
  9
$DIMTFAC
 40
1.0
  9
$DIMGAP
 40
0.09
  9
$DIMJUST
 70
     0
  9
$DIMSD1
 70
     0
  9
$DIMSD2
 70
     0
  9
$DIMTOLJ
 70
     1
  9
$DIMTZIN
 70
     0
  9
$DIMALTZ
 70
     0
  9
$DIMALTTZ
 70
     0
  9
$DIMUPT
 70
     0
  9
$DIMDEC
 70
     4
  9
$DIMTDEC
 70
     4
  9
$DIMALTU
 70
     2
  9
$DIMALTTD
 70
     2
  9
$DIMTXSTY
  7
Standard
  9
$DIMAUNIT
 70
     0
  9
$DIMADEC
 70
     0
  9
$DIMALTRND
 40
0.0
  9
$DIMAZIN
 70
     0
  9
$DIMDSEP
 70
    46
  9
$DIMATFIT
 70
     3
  9
$DIMFRAC
 70
     0
  9
$DIMLDRBLK
  1

  9
$DIMLUNIT
 70
     2
  9
$DIMLWD
 70
    -2
  9
$DIMLWE
 70
    -2
  9
$DIMTMOVE
 70
     0
  9
$LUNITS
 70
     2
  9
$LUPREC
 70
     4
  9
$SKETCHINC
 40
0.1
  9
$FILLETRAD
 40
0.5
  9
$AUNITS
 70
     0
  9
$AUPREC
 70
     0
  9
$MENU
  1
.
  9
$ELEVATION
 40
0.0
  9
$PELEVATION
 40
0.0
  9
$THICKNESS
 40
0.0
  9
$LIMCHECK
 70
     0
  9
$CHAMFERA
 40
0.5
  9
$CHAMFERB
 40
0.5
  9
$CHAMFERC
 40
1.0
  9
$CHAMFERD
 40
0.0
  9
$SKPOLY
 70
     0
  9
$TDCREATE
 40
2458132.471635104
  9
$TDUCREATE
 40
2458132.429968438
  9
$TDUPDATE
 40
2458132.471635463
  9
$TDUUPDATE
 40
2458132.429968796
  9
$TDINDWG
 40
0.0000000116
  9
$TDUSRTIMER
 40
0.0000000116
  9
$USRTIMER
 70
     1
  9
$ANGBASE
 50
0.0
  9
$ANGDIR
 70
     0
  9
$PDMODE
 70
     0
  9
$PDSIZE
 40
0.0
  9
$PLINEWID
 40
0.0
  9
$SPLFRAME
 70
     0
  9
$SPLINETYPE
 70
     6
  9
$SPLINESEGS
 70
     8
  9
$HANDSEED
  5
30D
  9
$SURFTAB1
 70
     6
  9
$SURFTAB2
 70
     6
  9
$SURFTYPE
 70
     6
  9
$SURFU
 70
     6
  9
$SURFV
 70
     6
  9
$UCSBASE
  2

  9
$UCSNAME
  2

  9
$UCSORG
 10
0.0
 20
0.0
 30
0.0
  9
$UCSXDIR
 10
1.0
 20
0.0
 30
0.0
  9
$UCSYDIR
 10
0.0
 20
1.0
 30
0.0
  9
$UCSORTHOREF
  2

  9
$UCSORTHOVIEW
 70
     0
  9
$UCSORGTOP
 10
0.0
 20
0.0
 30
0.0
  9
$UCSORGBOTTOM
 10
0.0
 20
0.0
 30
0.0
  9
$UCSORGLEFT
 10
0.0
 20
0.0
 30
0.0
  9
$UCSORGRIGHT
 10
0.0
 20
0.0
 30
0.0
  9
$UCSORGFRONT
 10
0.0
 20
0.0
 30
0.0
  9
$UCSORGBACK
 10
0.0
 20
0.0
 30
0.0
  9
$PUCSBASE
  2

  9
$PUCSNAME
  2

  9
$PUCSORG
 10
0.0
 20
0.0
 30
0.0
  9
$PUCSXDIR
 10
1.0
 20
0.0
 30
0.0
  9
$PUCSYDIR
 10
0.0
 20
1.0
 30
0.0
  9
$PUCSORTHOREF
  2

  9
$PUCSORTHOVIEW
 70
     0
  9
$PUCSORGTOP
 10
0.0
 20
0.0
 30
0.0
  9
$PUCSORGBOTTOM
 10
0.0
 20
0.0
 30
0.0
  9
$PUCSORGLEFT
 10
0.0
 20
0.0
 30
0.0
  9
$PUCSORGRIGHT
 10
0.0
 20
0.0
 30
0.0
  9
$PUCSORGFRONT
 10
0.0
 20
0.0
 30
0.0
  9
$PUCSORGBACK
 10
0.0
 20
0.0
 30
0.0
  9
$USERI1
 70
     0
  9
$USERI2
 70
     0
  9
$USERI3
 70
     0
  9
$USERI4
 70
     0
  9
$USERI5
 70
     0
  9
$USERR1
 40
18.1
  9
$USERR2
 40
0.0
  9
$USERR3
 40
0.0
  9
$USERR4
 40
0.0
  9
$USERR5
 40
0.0
  9
$WORLDVIEW
 70
     1
  9
$SHADEDGE
 70
     3
  9
$SHADEDIF
 70
    70
  9
$TILEMODE
 70
     1
  9
$MAXACTVP
 70
    64
  9
$PINSBASE
 10
0.0
 20
0.0
 30
0.0
  9
$PLIMCHECK
 70
     0
  9
$PEXTMIN
 10
1.00000000000000E+20
 20
1.00000000000000E+20
 30
1.00000000000000E+20
  9
$PEXTMAX
 10
-1.00000000000000E+20
 20
-1.00000000000000E+20
 30
-1.00000000000000E+20
  9
$PLIMMIN
 10
0.0
 20
0.0
  9
$PLIMMAX
 10
12.0
 20
9.0
  9
$UNITMODE
 70
     0
  9
$VISRETAIN
 70
     1
  9
$PLINEGEN
 70
     0
  9
$PSLTSCALE
 70
     1
  9
$TREEDEPTH
 70
  3020
  9
$CMLSTYLE
  2
Standard
  9
$CMLJUST
 70
     0
  9
$CMLSCALE
 40
1.0
  9
$PROXYGRAPHICS
 70
     1
  9
$MEASUREMENT
 70
     1
  9
$CELWEIGHT
370
    -1
  9
$ENDCAPS
280
     0
  9
$JOINSTYLE
280
     0
  9
$LWDISPLAY
290
     0
  9
$INSUNITS
 70
     4
  9
$HYPERLINKBASE
  1

  9
$STYLESHEET
  1

  9
$XEDIT
290
     1
  9
$CEPSNTYPE
380
     0
  9
$PSTYLEMODE
290
     1
  9
$FINGERPRINTGUID
  2
{F813E1CB-AF9F-4862-BCAF-772B4C89E6DB}
  9
$VERSIONGUID
  2
{FAEB1C32-E019-11D5-929B-00C0DF256EC4}
  9
$EXTNAMES
290
     1
  9
$PSVPSCALE
 40
0.0
  9
$OLESTARTUP
290
     0
  9
$SORTENTS
280
   127
  9
$INDEXCTL
280
     0
  9
$HIDETEXT
280
     1
  9
$XCLIPFRAME
290
     0
  9
$HALOGAP
280
     0
  9
$OBSCOLOR
 70
   257
  9
$OBSLTYPE
280
     0
  9
$INTERSECTIONDISPLAY
280
     0
  9
$INTERSECTIONCOLOR
 70
   257
  9
$DIMASSOC
280
     2
  9
$PROJECTNAME
  1

  0
ENDSEC
  0
SECTION
  2
CLASSES
  0
CLASS
  1
ACDBDICTIONARYWDFLT
  2
AcDbDictionaryWithDefault
  3
ObjectDBX Classes
 90
        0
 91
        4
280
     0
281
     0
  0
CLASS
  1
VISUALSTYLE
  2
AcDbVisualStyle
  3
ObjectDBX Classes
 90
     4095
 91
        4
280
     0
281
     0
  0
CLASS
  1
MATERIAL
  2
AcDbMaterial
  3
ObjectDBX Classes
 90
     1153
 91
        4
280
     0
281
     0
  0
ENDSEC
  0
SECTION
  2
TABLES
  0
TABLE
  2
VPORT
  5
8
330
0
100
AcDbSymbolTable
 70
     1
  0
VPORT
  5
29
330
8
100
AcDbSymbolTableRecord
100
AcDbViewportTableRecord
  2
*Active
 70
     0
 10
0.0
 20
0.0
 11
1.0
 21
1.0
 12
-79.40000119746334
 22
68.59646099943024
 13
0.0
 23
0.0
 14
0.5
 24
0.5
 15
0.5
 25
0.5
 16
0.0
 26
0.0
 36
1.0
 17
0.0
 27
0.0
 37
0.0
 40
231.0000000000001
 41
1.60267857142857
 42
50.0
 43
0.0
 44
0.0
 50
0.0
 51
0.0
 71
     0
 72
   100
 73
     1
 74
     3
 75
     0
 76
     0
 77
     0
 78
     0
281
     0
 65
     1
110
0.0
120
0.0
130
0.0
111
1.0
121
0.0
131
0.0
112
0.0
122
1.0
132
0.0
 79
     0
146
0.0
  0
ENDTAB
  0
TABLE
  2
LTYPE
  5
5
330
0
100
AcDbSymbolTable
 70
     8
  0
LTYPE
  5
14
330
5
100
AcDbSymbolTableRecord
100
AcDbLinetypeTableRecord
  2
ByBlock
 70
     0
  3

 72
    65
 73
     0
 40
0.0
  0
LTYPE
  5
15
330
5
100
AcDbSymbolTableRecord
100
AcDbLinetypeTableRecord
  2
ByLayer
 70
     0
  3

 72
    65
 73
     0
 40
0.0
  0
LTYPE
  5
16
330
5
100
AcDbSymbolTableRecord
100
AcDbLinetypeTableRecord
  2
Continuous
 70
     0
  3
Solid line
 72
    65
 73
     0
 40
0.0
  0
LTYPE
  5
3F
330
5
100
AcDbSymbolTableRecord
100
AcDbLinetypeTableRecord
  2
DASHED
 70
     0
  3
Dashed
 72
    65
 73
     2
 40
15.0
 49
7.0
 74
     0
 49
-8.0
 74
     0
  0
LTYPE
  5
40
330
5
100
AcDbSymbolTableRecord
100
AcDbLinetypeTableRecord
  2
DOTTED
 70
     0
  3
Dotted
 72
    65
 73
     2
 40
1.0
 49
0.0
 74
     0
 49
-1.0
 74
     0
  0
LTYPE
  5
41
330
5
100
AcDbSymbolTableRecord
100
AcDbLinetypeTableRecord
  2
DOT_CENTER
 70
     0
  3
Dot_Center
 72
    65
 73
     4
 40
14.0
 49
12.0
 74
     0
 49
-1.0
 74
     0
 49
0.0
 74
     0
 49
-1.0
 74
     0
  0
LTYPE
  5
42
330
5
100
AcDbSymbolTableRecord
100
AcDbLinetypeTableRecord
  2
LONG_DASHED
 70
     0
  3
Long_Dashed
 72
    65
 73
     2
 40
15.0
 49
10.0
 74
     0
 49
-5.0
 74
     0
  0
LTYPE
  5
43
330
5
100
AcDbSymbolTableRecord
100
AcDbLinetypeTableRecord
  2
DASH_CENTER
 70
     0
  3
Dash_Center
 72
    65
 73
     4
 40
14.0
 49
11.0
 74
     0
 49
-1.0
 74
     0
 49
1.0
 74
     0
 49
-1.0
 74
     0
  0
LTYPE
  5
44
330
5
100
AcDbSymbolTableRecord
100
AcDbLinetypeTableRecord
  2
PHANTOM
 70
     0
  3
Phantom
 72
    65
 73
     6
 40
13.0
 49
10.0
 74
     0
 49
-1.0
 74
     0
 49
0.0
 74
     0
 49
-1.0
 74
     0
 49
0.0
 74
     0
 49
-1.0
 74
     0
  0
LTYPE
  5
45
330
5
100
AcDbSymbolTableRecord
100
AcDbLinetypeTableRecord
  2
CENTER_DASH_DASH
 70
     0
  3
Center_Dash_Dash
 72
    65
 73
     6
 40
14.0
 49
9.0
 74
     0
 49
-1.0
 74
     0
 49
1.0
 74
     0
 49
-1.0
 74
     0
 49
1.0
 74
     0
 49
-1.0
 74
     0
  0
ENDTAB
  0
TABLE
  2
LAYER
  5
2
330
0
100
AcDbSymbolTable
 70
     2
  0
LAYER
  5
10
330
2
100
AcDbSymbolTableRecord
100
AcDbLayerTableRecord
  2
0
 70
     0
 62
     7
  6
Continuous
370
    -3
390
F
  0
LAYER
  5
46
330
2
100
AcDbSymbolTableRecord
100
AcDbLayerTableRecord
  2
1
 70
     0
 62
     7
  6
Continuous
370
    -3
390
F
  0
ENDTAB
  0
TABLE
  2
STYLE
  5
3
330
0
100
AcDbSymbolTable
 70
     5
  0
STYLE
  5
11
330
3
100
AcDbSymbolTableRecord
100
AcDbTextStyleTableRecord
  2
Standard
 70
     0
 40
0.0
 41
1.0
 50
0.0
 71
     0
 42
0.2
  3
txt
  4

  0
STYLE
  5
17D
330
3
100
AcDbSymbolTableRecord
100
AcDbTextStyleTableRecord
  2
CONVERTER_11
 70
     0
 40
0.0
 41
0.9
 50
0.0
 71
     0
 42
0.2
  3
txt.shx
  4

  0
STYLE
  5
184
330
3
100
AcDbSymbolTableRecord
100
AcDbTextStyleTableRecord
  2
CONVERTER_12
 70
     0
 40
0.0
 41
0.81
 50
0.0
 71
     0
 42
0.2
  3
txt.shx
  4

  0
STYLE
  5
19A
330
3
100
AcDbSymbolTableRecord
100
AcDbTextStyleTableRecord
  2
CONVERTER_13
 70
     0
 40
0.0
 41
0.72
 50
0.0
 71
     0
 42
0.2
  3
txt.shx
  4

  0
STYLE
  5
19D
330
3
100
AcDbSymbolTableRecord
100
AcDbTextStyleTableRecord
  2
CONVERTER_14
 70
     0
 40
0.0
 41
0.855
 50
0.0
 71
     0
 42
0.2
  3
txt.shx
  4

  0
ENDTAB
  0
TABLE
  2
VIEW
  5
6
330
0
100
AcDbSymbolTable
 70
     0
  0
ENDTAB
  0
TABLE
  2
UCS
  5
7
330
0
100
AcDbSymbolTable
 70
     0
  0
ENDTAB
  0
TABLE
  2
APPID
  5
9
330
0
100
AcDbSymbolTable
 70
     1
  0
APPID
  5
12
330
9
100
AcDbSymbolTableRecord
100
AcDbRegAppTableRecord
  2
ACAD
 70
     0
  0
ENDTAB
  0
TABLE
  2
DIMSTYLE
  5
A
330
0
100
AcDbSymbolTable
 70
     4
100
AcDbDimStyleTable
  0
DIMSTYLE
105
27
330
A
100
AcDbSymbolTableRecord
100
AcDbDimStyleTableRecord
  2
Standard
 70
     0
178
     0
340
11
  0
DIMSTYLE
105
23A
102
{ACAD_REACTORS
330
23B
102
}
330
A
100
AcDbSymbolTableRecord
100
AcDbDimStyleTableRecord
  2
ME10_DIM_10
 70
     0
 41
3.5
 42
0.5
 44
1.5
 73
     0
 74
     0
 77
     1
 78
     8
140
3.5
147
2.0
172
     1
173
     1
174
     1
175
     1
176
     2
177
     2
271
     2
178
     3
271
     2
340
17D
  0
DIMSTYLE
105
2D8
102
{ACAD_REACTORS
330
2D9
102
}
330
A
100
AcDbSymbolTableRecord
100
AcDbDimStyleTableRecord
  2
ME10_DIM_11
 70
     0
 41
3.5
 42
0.5
 44
1.5
 73
     0
 74
     0
 77
     1
 78
     8
140
3.5
147
2.0
172
     1
173
     1
174
     1
175
     1
176
     2
177
     2
271
     2
178
     3
271
     2
340
17D
  0
DIMSTYLE
105
2E3
102
{ACAD_REACTORS
330
2E4
102
}
330
A
100
AcDbSymbolTableRecord
100
AcDbDimStyleTableRecord
  2
ME10_DIM_12
 70
     0
 41
3.5
 42
0.5
 44
1.5
 73
     0
 74
     0
 77
     1
 78
     8
140
3.5
147
2.0
172
     1
173
     1
174
     1
175
     1
176
     2
177
     2
271
     2
178
     3
271
     2
340
17D
  0
ENDTAB
  0
TABLE
  2
BLOCK_RECORD
  5
1
330
0
100
AcDbSymbolTable
 70
    20
  0
BLOCK_RECORD
  5
1F
330
1
100
AcDbSymbolTableRecord
100
AcDbBlockTableRecord
  2
*Model_Space
340
22
  0
BLOCK_RECORD
  5
1B
330
1
100
AcDbSymbolTableRecord
100
AcDbBlockTableRecord
  2
*Paper_Space
340
1E
  0
BLOCK_RECORD
  5
23
330
1
100
AcDbSymbolTableRecord
100
AcDbBlockTableRecord
  2
*Paper_Space0
340
26
  0
BLOCK_RECORD
  5
47
330
1
100
AcDbSymbolTableRecord
100
AcDbBlockTableRecord
  2
_rahmen
340
0
102
{BLKREFS
331
4E
102
}
  0
BLOCK_RECORD
  5
4A
330
1
100
AcDbSymbolTableRecord
100
AcDbBlockTableRecord
  2
_punkt
340
0
102
{BLKREFS
331
4F
102
}
  0
BLOCK_RECORD
  5
4D
330
1
100
AcDbSymbolTableRecord
100
AcDbBlockTableRecord
  2
A4I_CS
340
0
102
{BLKREFS
331
7D
102
}
  0
BLOCK_RECORD
  5
52
330
1
100
AcDbSymbolTableRecord
100
AcDbBlockTableRecord
  2
HC-RBO_8-select__1
340
0
102
{BLKREFS
331
56
102
}
  0
BLOCK_RECORD
  5
55
330
1
100
AcDbSymbolTableRecord
100
AcDbBlockTableRecord
  2
AllgSicht1
340
0
102
{BLKREFS
331
7E
102
}
  0
BLOCK_RECORD
  5
59
330
1
100
AcDbSymbolTableRecord
100
AcDbBlockTableRecord
  2
HC-RBO_8-select__2
340
0
102
{BLKREFS
331
5D
102
}
  0
BLOCK_RECORD
  5
5C
330
1
100
AcDbSymbolTableRecord
100
AcDbBlockTableRecord
  2
Drfsicht1
340
0
102
{BLKREFS
331
7F
102
}
  0
BLOCK_RECORD
  5
60
330
1
100
AcDbSymbolTableRecord
100
AcDbBlockTableRecord
  2
HC-RBO_8-select__3
340
0
102
{BLKREFS
331
64
102
}
  0
BLOCK_RECORD
  5
63
330
1
100
AcDbSymbolTableRecord
100
AcDbBlockTableRecord
  2
Rckans1
340
0
102
{BLKREFS
331
80
102
}
  0
BLOCK_RECORD
  5
67
330
1
100
AcDbSymbolTableRecord
100
AcDbBlockTableRecord
  2
HC-RBO_8-select__4
340
0
102
{BLKREFS
331
6B
102
}
  0
BLOCK_RECORD
  5
6A
330
1
100
AcDbSymbolTableRecord
100
AcDbBlockTableRecord
  2
SA_Links1
340
0
102
{BLKREFS
331
81
102
}
  0
BLOCK_RECORD
  5
6E
330
1
100
AcDbSymbolTableRecord
100
AcDbBlockTableRecord
  2
HC-RBO_8-select__5
340
0
102
{BLKREFS
331
72
102
}
  0
BLOCK_RECORD
  5
71
330
1
100
AcDbSymbolTableRecord
100
AcDbBlockTableRecord
  2
SA_Rechts1
340
0
102
{BLKREFS
331
82
102
}
  0
BLOCK_RECORD
  5
75
330
1
100
AcDbSymbolTableRecord
100
AcDbBlockTableRecord
  2
HC-RBO_8-select__6
340
0
102
{BLKREFS
331
79
102
}
  0
BLOCK_RECORD
  5
78
330
1
100
AcDbSymbolTableRecord
100
AcDbBlockTableRecord
  2
Vordans1
340
0
102
{BLKREFS
331
83
102
}
  0
BLOCK_RECORD
  5
7C
330
1
100
AcDbSymbolTableRecord
100
AcDbBlockTableRecord
  2
1
340
0
102
{BLKREFS
331
86
102
}
  0
BLOCK_RECORD
  5
231
330
1
100
AcDbSymbolTableRecord
100
AcDbBlockTableRecord
  2
*D17
340
0
  0
BLOCK_RECORD
  5
2CF
330
1
100
AcDbSymbolTableRecord
100
AcDbBlockTableRecord
  2
*D18
340
0
  0
BLOCK_RECORD
  5
2DA
330
1
100
AcDbSymbolTableRecord
100
AcDbBlockTableRecord
  2
*D19
340
0
  0
ENDTAB
  0
ENDSEC
  0
SECTION
  2
BLOCKS
  0
BLOCK
  5
20
330
1F
100
AcDbEntity
  8
0
100
AcDbBlockBegin
  2
*Model_Space
 70
     0
 10
0.0
 20
0.0
 30
0.0
  3
*Model_Space
  1

  0
ENDBLK
  5
21
330
1F
100
AcDbEntity
  8
0
100
AcDbBlockEnd
  0
BLOCK
  5
1C
330
1B
100
AcDbEntity
 67
     1
  8
0
100
AcDbBlockBegin
  2
*Paper_Space
 70
     0
 10
0.0
 20
0.0
 30
0.0
  3
*Paper_Space
  1

  0
ENDBLK
  5
1D
330
1B
100
AcDbEntity
 67
     1
  8
0
100
AcDbBlockEnd
  0
BLOCK
  5
24
330
23
100
AcDbEntity
  8
0
100
AcDbBlockBegin
  2
*Paper_Space0
 70
     0
 10
0.0
 20
0.0
 30
0.0
  3
*Paper_Space0
  1

  0
ENDBLK
  5
25
330
23
100
AcDbEntity
  8
0
100
AcDbBlockEnd
  0
BLOCK
  5
48
330
47
100
AcDbEntity
  8
0
100
AcDbBlockBegin
  2
_rahmen
 70
     0
 10
64.09999880253672
 20
-36.40353900056982
 30
0.0
  3
_rahmen
  1

  0
LINE
  5
87
330
47
100
AcDbEntity
  8
1
  6
Continuous
 62
     6
100
AcDbLine
 10
-65.4448057242133
 20
-5.90353900056971
 30
0.0
 11
64.09999880253841
 21
-5.90353900056971
 31
0.0
  0
LINE
  5
88
330
47
100
AcDbEntity
  8
1
  6
Continuous
 62
     7
100
AcDbLine
 10
-47.24480572421328
 20
-27.15353900056971
 30
0.0
 11
-29.04480572421338
 21
-27.15353900056971
 31
0.0
  0
LINE
  5
89
330
47
100
AcDbEntity
  8
1
  6
Continuous
 62
     6
100
AcDbLine
 10
-47.24480572421328
 20
-31.40353900056971
 30
0.0
 11
-65.4448057242133
 21
-31.40353900056982
 31
0.0
  0
LINE
  5
8A
330
47
100
AcDbEntity
  8
1
  6
Continuous
 62
     7
100
AcDbLine
 10
-47.24480572421328
 20
-27.15353900056971
 30
0.0
 11
-47.24480572421328
 21
-31.40353900056971
 31
0.0
  0
LINE
  5
8B
330
47
100
AcDbEntity
  8
1
  6
Continuous
 62
     7
100
AcDbLine
 10
-29.04480572421338
 20
-27.15353900056971
 30
0.0
 11
-29.04480572421338
 21
-31.40353900056982
 31
0.0
  0
LINE
  5
8C
330
47
100
AcDbEntity
  8
1
  6
Continuous
 62
     7
100
AcDbLine
 10
-65.4448057242133
 20
-27.15353900056982
 30
0.0
 11
-65.4448057242133
 21
-31.40353900056982
 31
0.0
  0
LINE
  5
8D
330
47
100
AcDbEntity
  8
1
  6
Continuous
 62
     7
100
AcDbLine
 10
-65.4448057242133
 20
-27.15353900056982
 30
0.0
 11
-47.24480572421328
 21
-27.15353900056971
 31
0.0
  0
LINE
  5
8E
330
47
100
AcDbEntity
  8
1
  6
Continuous
 62
     2
100
AcDbLine
 10
-56.20815083765069
 20
-7.77853900056979
 30
0.0
 11
-56.20815083765069
 21
-12.77853900056979
 31
0.0
  0
LINE
  5
8F
330
47
100
AcDbEntity
  8
1
  6
Continuous
 62
     2
100
AcDbLine
 10
-56.20815083765069
 20
-12.77853900056979
 30
0.0
 11
-61.20815083765069
 21
-11.52853900056979
 31
0.0
  0
LINE
  5
90
330
47
100
AcDbEntity
  8
1
  6
Continuous
 62
     2
100
AcDbLine
 10
-61.20815083765069
 20
-11.52853900056979
 30
0.0
 11
-61.20815083765069
 21
-9.02853900056979
 31
0.0
  0
LINE
  5
91
330
47
100
AcDbEntity
  8
1
  6
Continuous
 62
     2
100
AcDbLine
 10
-61.20815083765069
 20
-9.02853900056979
 30
0.0
 11
-56.20815083765069
 21
-7.77853900056979
 31
0.0
  0
LINE
  5
92
330
47
100
AcDbEntity
  8
1
  6
Continuous
 62
     6
100
AcDbLine
 10
-187.9000011974615
 20
-31.40353900056971
 30
0.0
 11
-222.9000011974614
 21
-31.40353900056971
 31
0.0
  0
LINE
  5
93
330
47
100
AcDbEntity
  8
1
  6
Continuous
 62
     6
100
AcDbLine
 10
64.09999880253841
 20
-14.40353900056971
 30
0.0
 11
64.09999880253801
 21
-22.90353900056971
 31
0.0
  0
LINE
  5
94
330
47
100
AcDbEntity
  8
1
  6
Continuous
 62
     6
100
AcDbLine
 10
-29.04480572421338
 20
-31.40353900056982
 30
0.0
 11
-29.4000011974633
 21
-31.40353900056971
 31
0.0
  0
LINE
  5
95
330
47
100
AcDbEntity
  8
1
  6
Continuous
 62
     6
100
AcDbLine
 10
-181.7000011974635
 20
-31.40353900056982
 30
0.0
 11
-187.9000011974615
 21
-31.40353900056971
 31
0.0
  0
LINE
  5
96
330
47
100
AcDbEntity
  8
1
  6
Continuous
 62
     7
100
AcDbLine
 10
-29.04480572421338
 20
-14.40353900056971
 30
0.0
 11
-29.04480572421338
 21
-27.15353900056971
 31
0.0
  0
LINE
  5
97
330
47
100
AcDbEntity
  8
1
  6
Continuous
 62
     7
100
AcDbLine
 10
-65.4448057242133
 20
-14.40353900056971
 30
0.0
 11
-65.4448057242133
 21
-27.15353900056982
 31
0.0
  0
LINE
  5
98
330
47
100
AcDbEntity
  8
1
  6
Continuous
 62
     6
100
AcDbLine
 10
-79.40000119746327
 20
-31.40353900056971
 30
0.0
 11
-129.4000011974635
 21
-31.40353900056971
 31
0.0
  0
LINE
  5
99
330
47
100
AcDbEntity
  8
1
  6
Continuous
 62
     6
100
AcDbLine
 10
-181.7000011974635
 20
-31.40353900056982
 30
0.0
 11
-179.4000011974633
 21
-31.40353900056971
 31
0.0
  0
LINE
  5
9A
330
47
100
AcDbEntity
  8
1
  6
Continuous
 62
     6
100
AcDbLine
 10
-29.04480572421338
 20
-31.40353900056982
 30
0.0
 11
20.5999988025367
 21
-31.40353900056971
 31
0.0
  0
LINE
  5
9B
330
47
100
AcDbEntity
  8
1
  6
Continuous
 62
     6
100
AcDbLine
 10
64.09999880253672
 20
-31.40353900056971
 30
0.0
 11
64.09999880253801
 21
-22.90353900056971
 31
0.0
  0
LINE
  5
9C
330
47
100
AcDbEntity
  8
1
  6
Continuous
 62
     2
100
AcDbLine
 10
-227.9000011974624
 20
-31.40353900056971
 30
0.0
 11
-227.9000011974624
 21
-36.40353900056982
 31
0.0
  0
LINE
  5
9D
330
47
100
AcDbEntity
  8
1
  6
Continuous
 62
     2
100
AcDbLine
 10
-222.9000011974614
 20
-31.40353900056971
 30
0.0
 11
-227.9000011974624
 21
-31.40353900056971
 31
0.0
  0
LINE
  5
9E
330
47
100
AcDbEntity
  8
1
  6
Continuous
 62
     2
100
AcDbLine
 10
-222.9000011974614
 20
-36.40353900056982
 30
0.0
 11
-179.4000011974633
 21
-36.40353900056982
 31
0.0
  0
LINE
  5
9F
330
47
100
AcDbEntity
  8
1
  6
Continuous
 62
     2
100
AcDbLine
 10
-222.9000011974614
 20
-31.40353900056971
 30
0.0
 11
-222.9000011974614
 21
-36.40353900056982
 31
0.0
  0
LINE
  5
A0
330
47
100
AcDbEntity
  8
1
  6
Continuous
 62
     2
100
AcDbLine
 10
20.5999988025367
 20
-36.40353900056982
 30
0.0
 11
-29.4000011974633
 21
-36.40353900056982
 31
0.0
  0
LINE
  5
A1
330
47
100
AcDbEntity
  8
1
  6
Continuous
 62
     2
100
AcDbLine
 10
20.5999988025367
 20
-36.40353900056982
 30
0.0
 11
20.5999988025367
 21
-31.40353900056971
 31
0.0
  0
LINE
  5
A2
330
47
100
AcDbEntity
  8
1
  6
Continuous
 62
     2
100
AcDbLine
 10
-29.4000011974633
 20
-36.40353900056982
 30
0.0
 11
-29.4000011974633
 21
-31.40353900056971
 31
0.0
  0
LINE
  5
A3
330
47
100
AcDbEntity
  8
1
  6
Continuous
 62
     2
100
AcDbLine
 10
-79.40000119746327
 20
-36.40353900056982
 30
0.0
 11
-29.4000011974633
 21
-36.40353900056982
 31
0.0
  0
LINE
  5
A4
330
47
100
AcDbEntity
  8
1
  6
Continuous
 62
     2
100
AcDbLine
 10
-79.40000119746327
 20
-36.40353900056982
 30
0.0
 11
-79.40000119746327
 21
-31.40353900056971
 31
0.0
  0
LINE
  5
A5
330
47
100
AcDbEntity
  8
1
  6
Continuous
 62
     2
100
AcDbLine
 10
-129.4000011974635
 20
-36.40353900056982
 30
0.0
 11
-79.40000119746327
 21
-36.40353900056982
 31
0.0
  0
LINE
  5
A6
330
47
100
AcDbEntity
  8
1
  6
Continuous
 62
     2
100
AcDbLine
 10
-129.4000011974635
 20
-36.40353900056982
 30
0.0
 11
-129.4000011974635
 21
-31.40353900056971
 31
0.0
  0
LINE
  5
A7
330
47
100
AcDbEntity
  8
1
  6
Continuous
 62
     2
100
AcDbLine
 10
-179.4000011974633
 20
-36.40353900056982
 30
0.0
 11
-129.4000011974635
 21
-36.40353900056982
 31
0.0
  0
LINE
  5
A8
330
47
100
AcDbEntity
  8
1
  6
Continuous
 62
     2
100
AcDbLine
 10
-179.4000011974633
 20
-36.40353900056982
 30
0.0
 11
-179.4000011974633
 21
-31.40353900056971
 31
0.0
  0
LINE
  5
A9
330
47
100
AcDbEntity
  8
1
  6
Continuous
 62
     6
100
AcDbLine
 10
-222.9000011974616
 20
18.59646099943041
 30
0.0
 11
-222.9000011974614
 21
-31.40353900056971
 31
0.0
  0
LINE
  5
AA
330
47
100
AcDbEntity
  8
1
  6
Continuous
 62
     2
100
AcDbLine
 10
-227.9000011974624
 20
18.59646099943041
 30
0.0
 11
-227.9000011974624
 21
-31.40353900056971
 31
0.0
  0
LINE
  5
AB
330
47
100
AcDbEntity
  8
1
  6
Continuous
 62
     2
100
AcDbLine
 10
-227.9000011974624
 20
18.59646099943041
 30
0.0
 11
-222.9000011974616
 21
18.59646099943041
 31
0.0
  0
LINE
  5
AC
330
47
100
AcDbEntity
  8
1
  6
Continuous
 62
     6
100
AcDbLine
 10
-222.9000011974618
 20
68.5964609994302
 30
0.0
 11
-222.9000011974616
 21
18.59646099943041
 31
0.0
  0
LINE
  5
AD
330
47
100
AcDbEntity
  8
1
  6
Continuous
 62
     2
100
AcDbLine
 10
-227.9000011974624
 20
68.5964609994302
 30
0.0
 11
-227.9000011974624
 21
18.59646099943041
 31
0.0
  0
LINE
  5
AE
330
47
100
AcDbEntity
  8
1
  6
Continuous
 62
     2
100
AcDbLine
 10
-227.9000011974624
 20
68.5964609994302
 30
0.0
 11
-222.9000011974618
 21
68.5964609994302
 31
0.0
  0
LINE
  5
AF
330
47
100
AcDbEntity
  8
1
  6
Continuous
 62
     6
100
AcDbLine
 10
-222.9000011974623
 20
118.5964609994303
 30
0.0
 11
-222.9000011974618
 21
68.5964609994302
 31
0.0
  0
LINE
  5
B0
330
47
100
AcDbEntity
  8
1
  6
Continuous
 62
     2
100
AcDbLine
 10
-227.9000011974624
 20
118.5964609994303
 30
0.0
 11
-227.9000011974624
 21
68.5964609994302
 31
0.0
  0
LINE
  5
B1
330
47
100
AcDbEntity
  8
1
  6
Continuous
 62
     2
100
AcDbLine
 10
-227.9000011974624
 20
118.5964609994303
 30
0.0
 11
-222.9000011974623
 21
118.5964609994303
 31
0.0
  0
LINE
  5
B2
330
47
100
AcDbEntity
  8
1
  6
Continuous
 62
     6
100
AcDbLine
 10
-222.9000011974624
 20
153.5964609994303
 30
0.0
 11
-222.9000011974623
 21
118.5964609994303
 31
0.0
  0
LINE
  5
B3
330
47
100
AcDbEntity
  8
1
  6
Continuous
 62
     2
100
AcDbLine
 10
-227.9000011974624
 20
173.5964609994303
 30
0.0
 11
-227.9000011974624
 21
118.5964609994303
 31
0.0
  0
LINE
  5
B4
330
47
100
AcDbEntity
  8
1
  6
Continuous
 62
     2
100
AcDbLine
 10
-227.9000011974624
 20
-36.40353900056982
 30
0.0
 11
-222.9000011974614
 21
-36.40353900056982
 31
0.0
  0
LINE
  5
B5
330
47
100
AcDbEntity
  8
1
  6
Continuous
 62
     2
100
AcDbLine
 10
-79.40000119746327
 20
173.5964609994303
 30
0.0
 11
-79.40000119746327
 21
164.387769154729
 31
0.0
  0
LINE
  5
B6
330
47
100
AcDbEntity
  8
1
  6
Continuous
 62
     2
100
AcDbLine
 10
-79.40000119746327
 20
173.5964609994303
 30
0.0
 11
-227.9000011974624
 21
173.5964609994303
 31
0.0
  0
LINE
  5
B7
330
47
100
AcDbEntity
  8
1
  6
Continuous
 62
     2
100
AcDbLine
 10
69.09999880253571
 20
-31.40353900056971
 30
0.0
 11
69.09999880253571
 21
18.59646099943041
 31
0.0
  0
LINE
  5
B8
330
47
100
AcDbEntity
  8
1
  6
Continuous
 62
     2
100
AcDbLine
 10
69.09999880253571
 20
118.5964609994303
 30
0.0
 11
69.09999880253571
 21
173.5964609994303
 31
0.0
  0
LINE
  5
B9
330
47
100
AcDbEntity
  8
1
  6
Continuous
 62
     6
100
AcDbLine
 10
64.09999880253591
 20
118.5964609994303
 30
0.0
 11
64.09999880253571
 21
153.5964609994303
 31
0.0
  0
LINE
  5
BA
330
47
100
AcDbEntity
  8
1
  6
Continuous
 62
     2
100
AcDbLine
 10
64.09999880253591
 20
118.5964609994303
 30
0.0
 11
69.09999880253571
 21
118.5964609994303
 31
0.0
  0
LINE
  5
BB
330
47
100
AcDbEntity
  8
1
  6
Continuous
 62
     2
100
AcDbLine
 10
69.09999880253571
 20
68.5964609994302
 30
0.0
 11
69.09999880253571
 21
118.5964609994303
 31
0.0
  0
LINE
  5
BC
330
47
100
AcDbEntity
  8
1
  6
Continuous
 62
     6
100
AcDbLine
 10
64.09999880253712
 20
68.5964609994302
 30
0.0
 11
64.09999880253591
 21
118.5964609994303
 31
0.0
  0
LINE
  5
BD
330
47
100
AcDbEntity
  8
1
  6
Continuous
 62
     2
100
AcDbLine
 10
64.09999880253712
 20
68.5964609994302
 30
0.0
 11
69.09999880253571
 21
68.5964609994302
 31
0.0
  0
LINE
  5
BE
330
47
100
AcDbEntity
  8
1
  6
Continuous
 62
     2
100
AcDbLine
 10
69.09999880253571
 20
18.59646099943041
 30
0.0
 11
69.09999880253571
 21
68.5964609994302
 31
0.0
  0
LINE
  5
BF
330
47
100
AcDbEntity
  8
1
  6
Continuous
 62
     6
100
AcDbLine
 10
64.09999880253761
 20
18.59646099943041
 30
0.0
 11
64.09999880253712
 21
68.5964609994302
 31
0.0
  0
LINE
  5
C0
330
47
100
AcDbEntity
  8
1
  6
Continuous
 62
     2
100
AcDbLine
 10
64.09999880253761
 20
18.59646099943041
 30
0.0
 11
69.09999880253571
 21
18.59646099943041
 31
0.0
  0
LINE
  5
C1
330
47
100
AcDbEntity
  8
1
  6
Continuous
 62
     6
100
AcDbLine
 10
64.09999880253571
 20
153.5964609994303
 30
0.0
 11
-222.9000011974624
 21
153.5964609994303
 31
0.0
  0
LINE
  5
C2
330
47
100
AcDbEntity
  8
1
  6
Continuous
 62
     2
100
AcDbLine
 10
69.09999880253571
 20
173.5964609994303
 30
0.0
 11
-79.40000119746327
 21
173.5964609994303
 31
0.0
  0
LINE
  5
C3
330
47
100
AcDbEntity
  8
1
  6
Continuous
 62
     6
100
AcDbLine
 10
64.09999880253841
 20
-14.40353900056971
 30
0.0
 11
64.09999880253761
 21
18.59646099943041
 31
0.0
  0
LINE
  5
C4
330
47
100
AcDbEntity
  8
1
  6
Continuous
 62
     2
100
AcDbLine
 10
64.09999880253672
 20
-36.40353900056982
 30
0.0
 11
20.5999988025367
 21
-36.40353900056982
 31
0.0
  0
LINE
  5
C5
330
47
100
AcDbEntity
  8
1
  6
Continuous
 62
     2
100
AcDbLine
 10
69.09999880253571
 20
-36.40353900056982
 30
0.0
 11
64.09999880253672
 21
-36.40353900056982
 31
0.0
  0
LINE
  5
C6
330
47
100
AcDbEntity
  8
1
  6
Continuous
 62
     2
100
AcDbLine
 10
69.09999880253571
 20
-36.40353900056982
 30
0.0
 11
69.09999880253571
 21
-31.40353900056971
 31
0.0
  0
LINE
  5
C7
330
47
100
AcDbEntity
  8
1
  6
Continuous
 62
     6
100
AcDbLine
 10
-65.4448057242133
 20
-14.40353900056971
 30
0.0
 11
-29.04480572421338
 21
-14.40353900056971
 31
0.0
  0
LINE
  5
C8
330
47
100
AcDbEntity
  8
1
  6
Continuous
 62
     2
100
AcDbLine
 10
64.09999880253672
 20
-31.40353900056971
 30
0.0
 11
64.09999880253672
 21
-36.40353900056982
 31
0.0
  0
LINE
  5
C9
330
47
100
AcDbEntity
  8
1
  6
Continuous
 62
     2
100
AcDbLine
 10
64.09999880253672
 20
-31.40353900056971
 30
0.0
 11
69.09999880253571
 21
-31.40353900056971
 31
0.0
  0
LINE
  5
CA
330
47
100
AcDbEntity
  8
1
  6
Continuous
 62
     6
100
AcDbLine
 10
-29.4000011974633
 20
-31.40353900056971
 30
0.0
 11
-47.24480572421328
 21
-31.40353900056971
 31
0.0
  0
LINE
  5
CB
330
47
100
AcDbEntity
  8
1
  6
Continuous
 62
     6
100
AcDbLine
 10
20.5999988025367
 20
-31.40353900056971
 30
0.0
 11
64.09999880253672
 21
-31.40353900056971
 31
0.0
  0
LINE
  5
CC
330
47
100
AcDbEntity
  8
1
  6
Continuous
 62
     6
100
AcDbLine
 10
-129.4000011974635
 20
-31.40353900056971
 30
0.0
 11
-134.4448057242133
 21
-31.40353900056971
 31
0.0
  0
LINE
  5
CD
330
47
100
AcDbEntity
  8
1
  6
Continuous
 62
     6
100
AcDbLine
 10
-79.40000119746327
 20
-31.40353900056971
 30
0.0
 11
-65.4448057242133
 21
-31.40353900056982
 31
0.0
  0
LINE
  5
CE
102
{ACAD_REACTORS
330
1B9
330
1BA
102
}
330
47
100
AcDbEntity
  8
0
  6
Continuous
 62
     2
100
AcDbLine
 10
-57.93017978206649
 20
-19.33102424435759
 30
0.0
 11
-57.93017978206649
 21
-18.72548895585081
 31
0.0
  0
LINE
  5
CF
102
{ACAD_REACTORS
330
1B9
330
1BA
102
}
330
47
100
AcDbEntity
  8
0
  6
Continuous
 62
     2
100
AcDbLine
 10
-57.93017978206649
 20
-22.1311588509889
 30
0.0
 11
-57.93017978206649
 21
-21.54930744429382
 31
0.0
  0
LINE
  5
D0
102
{ACAD_REACTORS
330
1BB
330
1BC
102
}
330
47
100
AcDbEntity
  8
0
  6
Continuous
 62
     2
100
AcDbLine
 10
-35.30069334658728
 20
-21.84149478286591
 30
0.0
 11
-35.30069334658728
 21
-24.1100390005534
 31
0.0
  0
LINE
  5
D1
102
{ACAD_REACTORS
330
1BB
330
1BC
102
}
330
47
100
AcDbEntity
  8
0
  6
Continuous
 62
     2
100
AcDbLine
 10
-36.68174712557487
 20
-21.0562294767428
 30
0.0
 11
-33.29680160694619
 21
-21.05622947674232
 31
0.0
  0
LINE
  5
D2
102
{ACAD_REACTORS
330
1BB
330
1BC
102
}
330
47
100
AcDbEntity
  8
0
  6
Continuous
 62
     2
100
AcDbLine
 10
-33.29680160694619
 20
-21.84149478286591
 30
0.0
 11
-33.29680160694619
 21
-21.05622947674232
 31
0.0
  0
LINE
  5
D3
102
{ACAD_REACTORS
330
1BB
330
1BC
102
}
330
47
100
AcDbEntity
  8
0
  6
Continuous
 62
     2
100
AcDbLine
 10
-34.10790064441957
 20
-21.84149478286591
 30
0.0
 11
-33.29680160694619
 21
-21.84149478286591
 31
0.0
  0
LINE
  5
D4
102
{ACAD_REACTORS
330
1BB
330
1BC
102
}
330
47
100
AcDbEntity
  8
0
  6
Continuous
 62
     2
100
AcDbLine
 10
-34.10790064441957
 20
-24.1100390005534
 30
0.0
 11
-34.10790064441957
 21
-21.84149478286591
 31
0.0
  0
LINE
  5
D5
102
{ACAD_REACTORS
330
1BB
330
1BC
102
}
330
47
100
AcDbEntity
  8
0
  6
Continuous
 62
     2
100
AcDbLine
 10
-35.30069334658728
 20
-24.1100390005534
 30
0.0
 11
-34.10790064441957
 21
-24.1100390005534
 31
0.0
  0
LINE
  5
D6
102
{ACAD_REACTORS
330
1B1
330
1B2
102
}
330
47
100
AcDbEntity
  8
0
  6
Continuous
 62
     2
100
AcDbLine
 10
-35.99728428465178
 20
-17.69703900056791
 30
0.0
 11
-37.40000850240108
 21
-17.69703900056791
 31
0.0
  0
LINE
  5
D7
102
{ACAD_REACTORS
330
1B1
330
1B2
102
}
330
47
100
AcDbEntity
  8
0
  6
Continuous
 62
     2
100
AcDbLine
 10
-35.99728428465178
 20
-17.69703900056791
 30
0.0
 11
-35.39611676275999
 21
-18.3768623221234
 31
0.0
  0
LINE
  5
D8
102
{ACAD_REACTORS
330
1B1
330
1B2
102
}
330
47
100
AcDbEntity
  8
0
  6
Continuous
 62
     2
100
AcDbLine
 10
-35.39611676275999
 20
-18.3768623221234
 30
0.0
 11
-34.7949492408672
 21
-17.69703900056791
 31
0.0
  0
LINE
  5
D9
102
{ACAD_REACTORS
330
1B1
330
1B2
102
}
330
47
100
AcDbEntity
  8
0
  6
Continuous
 62
     2
100
AcDbLine
 10
-34.69475465388649
 20
-19.16998953060411
 30
0.0
 11
-33.39222502311998
 21
-17.69703900056791
 31
0.0
  0
LINE
  5
DA
102
{ACAD_REACTORS
330
1B1
330
1B2
102
}
330
47
100
AcDbEntity
  8
0
  6
Continuous
 62
     2
100
AcDbLine
 10
-34.69475465388649
 20
-19.16998953060411
 30
0.0
 11
-33.29680160694619
 21
-20.75084852437911
 31
0.0
  0
LINE
  5
DB
102
{ACAD_REACTORS
330
1B1
330
1B2
102
}
330
47
100
AcDbEntity
  8
0
  6
Continuous
 62
     2
100
AcDbLine
 10
-34.69952582469449
 20
-20.75084852437911
 30
0.0
 11
-33.29680160694619
 21
-20.75084852437911
 31
0.0
  0
LINE
  5
DC
102
{ACAD_REACTORS
330
1B1
330
1B2
102
}
330
47
100
AcDbEntity
  8
0
  6
Continuous
 62
     2
100
AcDbLine
 10
-35.39611676275999
 20
-19.96311673908539
 30
0.0
 11
-34.69952582469449
 21
-20.75084852437911
 31
0.0
  0
LINE
  5
DD
102
{ACAD_REACTORS
330
1AF
330
1B0
102
}
330
47
100
AcDbEntity
  8
0
  6
Continuous
 62
     2
100
AcDbLine
 10
-38.85521559904368
 20
-17.69703900056791
 30
0.0
 11
-37.61471118879078
 21
-17.69703900056791
 31
0.0
  0
LINE
  5
DE
102
{ACAD_REACTORS
330
1AF
330
1B0
102
}
330
47
100
AcDbEntity
  8
0
  6
Continuous
 62
     2
100
AcDbLine
 10
-37.61471118879078
 20
-17.69703900056791
 30
0.0
 11
-37.61471118879078
 21
-20.75084852437911
 31
0.0
  0
LINE
  5
DF
102
{ACAD_REACTORS
330
1AF
330
1B0
102
}
330
47
100
AcDbEntity
  8
0
  6
Continuous
 62
     2
100
AcDbLine
 10
-38.85521559904368
 20
-20.75084852437911
 30
0.0
 11
-38.85521559904368
 21
-17.69703900056791
 31
0.0
  0
LINE
  5
E0
102
{ACAD_REACTORS
330
1AD
330
1AE
102
}
330
47
100
AcDbEntity
  8
0
  6
Continuous
 62
     2
100
AcDbLine
 10
-40.32352568158129
 20
-22.88851519102892
 30
0.0
 11
-40.02336044438889
 21
-22.12070022504221
 31
0.0
  0
LINE
  5
E1
102
{ACAD_REACTORS
330
1AD
330
1AE
102
}
330
47
100
AcDbEntity
  8
0
  6
Continuous
 62
     2
100
AcDbLine
 10
-40.8010612862021
 20
-24.1100390005534
 30
0.0
 11
-40.58958123272629
 21
-23.56907845633552
 31
0.0
  0
LINE
  5
E2
102
{ACAD_REACTORS
330
1AD
330
1AE
102
}
330
47
100
AcDbEntity
  8
0
  6
Continuous
 62
     2
100
AcDbLine
 10
-40.64361264951577
 20
-21.05622947674232
 30
0.0
 11
-42.04156569645508
 21
-24.1100390005534
 31
0.0
  0
LINE
  5
E3
102
{ACAD_REACTORS
330
1AD
330
1AE
102
}
330
47
100
AcDbEntity
  8
0
  6
Continuous
 62
     2
100
AcDbLine
 10
-38.00515519232278
 20
-24.1100390005534
 30
0.0
 11
-39.24565960257669
 21
-24.1100390005534
 31
0.0
  0
LINE
  5
E4
102
{ACAD_REACTORS
330
1AD
330
1AE
102
}
330
47
100
AcDbEntity
  8
0
  6
Continuous
 62
     2
100
AcDbLine
 10
-40.58958123272629
 20
-23.56907845633552
 30
0.0
 11
-39.45713965605248
 21
-23.56907845633552
 31
0.0
  0
LINE
  5
E5
102
{ACAD_REACTORS
330
1AB
330
1AC
102
}
330
47
100
AcDbEntity
  8
0
  6
Continuous
 62
     2
100
AcDbLine
 10
-44.1990778356373
 20
-21.84149478286591
 30
0.0
 11
-43.38797879816269
 21
-21.84149478286591
 31
0.0
  0
LINE
  5
E6
102
{ACAD_REACTORS
330
1AB
330
1AC
102
}
330
47
100
AcDbEntity
  8
0
  6
Continuous
 62
     2
100
AcDbLine
 10
-41.38408705852368
 20
-21.05622947674232
 30
0.0
 11
-44.1990778356373
 21
-21.05622947674232
 31
0.0
  0
LINE
  5
E7
102
{ACAD_REACTORS
330
1AB
330
1AC
102
}
330
47
100
AcDbEntity
  8
0
  6
Continuous
 62
     2
100
AcDbLine
 10
-41.38408705852368
 20
-21.84149478286591
 30
0.0
 11
-41.38408705852368
 21
-21.05622947674232
 31
0.0
  0
LINE
  5
E8
102
{ACAD_REACTORS
330
1AB
330
1AC
102
}
330
47
100
AcDbEntity
  8
0
  6
Continuous
 62
     2
100
AcDbLine
 10
-42.19518609599618
 20
-21.84149478286591
 30
0.0
 11
-41.38408705852368
 21
-21.84149478286591
 31
0.0
  0
LINE
  5
E9
102
{ACAD_REACTORS
330
1AB
330
1AC
102
}
330
47
100
AcDbEntity
  8
0
  6
Continuous
 62
     2
100
AcDbLine
 10
-42.19518609599618
 20
-24.1100390005534
 30
0.0
 11
-42.19518609599618
 21
-21.84149478286591
 31
0.0
  0
LINE
  5
EA
102
{ACAD_REACTORS
330
1A9
330
1AA
102
}
330
47
100
AcDbEntity
  8
0
  6
Continuous
 62
     2
100
AcDbLine
 10
-41.52707125189818
 20
-20.75084852437911
 30
0.0
 11
-41.52707125189818
 21
-19.44207301417441
 31
0.0
  0
LINE
  5
EB
102
{ACAD_REACTORS
330
1A9
330
1AA
102
}
330
47
100
AcDbEntity
  8
0
  6
Continuous
 62
     2
100
AcDbLine
 10
-42.71986395406469
 20
-17.69703900056791
 30
0.0
 11
-42.71986395406469
 21
-20.75084852437911
 31
0.0
  0
LINE
  5
EC
102
{ACAD_REACTORS
330
1A9
330
1AA
102
}
330
47
100
AcDbEntity
  8
0
  6
Continuous
 62
     2
100
AcDbLine
 10
-41.52707125189818
 20
-17.69703900056791
 30
0.0
 11
-42.71986395406469
 21
-17.69703900056791
 31
0.0
  0
LINE
  5
ED
102
{ACAD_REACTORS
330
1A9
330
1AA
102
}
330
47
100
AcDbEntity
  8
0
  6
Continuous
 62
     2
100
AcDbLine
 10
-40.28656684164417
 20
-17.69703900056791
 30
0.0
 11
-40.28656684164417
 21
-19.00581451077309
 31
0.0
  0
LINE
  5
EE
102
{ACAD_REACTORS
330
1A7
330
1A8
102
}
330
47
100
AcDbEntity
  8
0
  6
Continuous
 62
     2
100
AcDbLine
 10
-47.96830277448439
 20
-21.05622947674232
 30
0.0
 11
-47.96830277448439
 21
-24.1100390005534
 31
0.0
  0
LINE
  5
EF
102
{ACAD_REACTORS
330
1A7
330
1A8
102
}
330
47
100
AcDbEntity
  8
0
  6
Continuous
 62
     2
100
AcDbLine
 10
-46.77551007231679
 20
-21.05622947674232
 30
0.0
 11
-47.96830277448439
 21
-21.05622947674232
 31
0.0
  0
LINE
  5
F0
102
{ACAD_REACTORS
330
1A7
330
1A8
102
}
330
47
100
AcDbEntity
  8
0
  6
Continuous
 62
     2
100
AcDbLine
 10
-45.5350056620639
 20
-24.1100390005534
 30
0.0
 11
-44.3422129598975
 21
-24.1100390005534
 31
0.0
  0
LINE
  5
F1
102
{ACAD_REACTORS
330
1A7
330
1A8
102
}
330
47
100
AcDbEntity
  8
0
  6
Continuous
 62
     2
100
AcDbLine
 10
-47.96830277448439
 20
-24.1100390005534
 30
0.0
 11
-46.77551007231679
 21
-24.1100390005534
 31
0.0
  0
LINE
  5
F2
102
{ACAD_REACTORS
330
1B7
330
1B8
102
}
330
47
100
AcDbEntity
  8
0
  6
Continuous
 62
     2
100
AcDbLine
 10
-44.29435032092528
 20
-18.8749369597526
 30
0.0
 11
-44.29435032092528
 21
-18.39505260601089
 31
0.0
  0
LINE
  5
F3
102
{ACAD_REACTORS
330
1B7
330
1B8
102
}
330
47
100
AcDbEntity
  8
0
  6
Continuous
 62
     2
100
AcDbLine
 10
-42.9584224944976
 20
-18.8749369597526
 30
0.0
 11
-44.29435032092528
 21
-18.8749369597526
 31
0.0
  0
LINE
  5
F4
102
{ACAD_REACTORS
330
1B7
330
1B8
102
}
330
47
100
AcDbEntity
  8
0
  6
Continuous
 62
     2
100
AcDbLine
 10
-42.9584224944976
 20
-19.5729505651949
 30
0.0
 11
-42.9584224944976
 21
-18.8749369597526
 31
0.0
  0
LINE
  5
F5
102
{ACAD_REACTORS
330
1B7
330
1B8
102
}
330
47
100
AcDbEntity
  8
0
  6
Continuous
 62
     2
100
AcDbLine
 10
-44.29435032092528
 20
-19.5729505651949
 30
0.0
 11
-42.9584224944976
 21
-19.5729505651949
 31
0.0
  0
LINE
  5
F6
102
{ACAD_REACTORS
330
1A5
330
1A6
102
}
330
47
100
AcDbEntity
  8
0
  6
Continuous
 62
     2
100
AcDbLine
 10
-47.7773050112522
 20
-17.69703900056791
 30
0.0
 11
-47.7773050112522
 21
-20.75084852437911
 31
0.0
  0
LINE
  5
F7
102
{ACAD_REACTORS
330
1A5
330
1A6
102
}
330
47
100
AcDbEntity
  8
0
  6
Continuous
 62
     2
100
AcDbLine
 10
-47.7773050112522
 20
-20.75084852437911
 30
0.0
 11
-48.9700977134186
 21
-20.75084852437911
 31
0.0
  0
LINE
  5
F8
102
{ACAD_REACTORS
330
1A5
330
1A6
102
}
330
47
100
AcDbEntity
  8
0
  6
Continuous
 62
     2
100
AcDbLine
 10
-48.9700977134186
 20
-20.75084852437911
 30
0.0
 11
-48.9700977134186
 21
-19.61657641553529
 31
0.0
  0
LINE
  5
F9
102
{ACAD_REACTORS
330
1A5
330
1A6
102
}
330
47
100
AcDbEntity
  8
0
  6
Continuous
 62
     2
100
AcDbLine
 10
-50.01975529132608
 20
-20.75084852437911
 30
0.0
 11
-51.21254799349268
 21
-20.75084852437911
 31
0.0
  0
LINE
  5
FA
102
{ACAD_REACTORS
330
1A5
330
1A6
102
}
330
47
100
AcDbEntity
  8
0
  6
Continuous
 62
     2
100
AcDbLine
 10
-51.21254799349268
 20
-17.69703900056791
 30
0.0
 11
-50.01975529132608
 21
-17.69703900056791
 31
0.0
  0
LINE
  5
FB
102
{ACAD_REACTORS
330
1A5
330
1A6
102
}
330
47
100
AcDbEntity
  8
0
  6
Continuous
 62
     2
100
AcDbLine
 10
-50.01975529132608
 20
-17.69703900056791
 30
0.0
 11
-50.01975529132608
 21
-18.76587233390251
 31
0.0
  0
LINE
  5
FC
102
{ACAD_REACTORS
330
1A5
330
1A6
102
}
330
47
100
AcDbEntity
  8
0
  6
Continuous
 62
     2
100
AcDbLine
 10
-50.01975529132608
 20
-18.76587233390251
 30
0.0
 11
-48.9700977134186
 21
-18.76587233390251
 31
0.0
  0
LINE
  5
FD
102
{ACAD_REACTORS
330
1B3
330
1B4
102
}
330
47
100
AcDbEntity
  8
0
  6
Continuous
 62
     2
100
AcDbLine
 10
-53.16872802504628
 20
-18.36014484600801
 30
0.0
 11
-52.85143296350438
 21
-18.36014484600801
 31
0.0
  0
LINE
  5
FE
102
{ACAD_REACTORS
330
1B3
330
1B4
102
}
330
47
100
AcDbEntity
  8
0
  6
Continuous
 62
     2
100
AcDbLine
 10
-53.16872802504628
 20
-19.06587249535022
 30
0.0
 11
-52.85143296350438
 21
-19.06587249535022
 31
0.0
  0
LINE
  5
FF
102
{ACAD_REACTORS
330
1B3
330
1B4
102
}
330
47
100
AcDbEntity
  8
0
  6
Continuous
 62
     2
100
AcDbLine
 10
-54.4092324353004
 20
-17.69703900056791
 30
0.0
 11
-54.4092324353004
 21
-20.75084852437911
 31
0.0
  0
LINE
  5
100
102
{ACAD_REACTORS
330
1B3
330
1B4
102
}
330
47
100
AcDbEntity
  8
0
  6
Continuous
 62
     2
100
AcDbLine
 10
-54.4092324353004
 20
-17.69703900056791
 30
0.0
 11
-52.40996043726599
 21
-17.69703900056791
 31
0.0
  0
LINE
  5
101
102
{ACAD_REACTORS
330
1B3
330
1B4
102
}
330
47
100
AcDbEntity
  8
0
  6
Continuous
 62
     2
100
AcDbLine
 10
-53.16872802504628
 20
-19.8077702832353
 30
0.0
 11
-52.40996043726599
 21
-19.8077702832353
 31
0.0
  0
LINE
  5
102
102
{ACAD_REACTORS
330
1B9
330
1BA
102
}
330
47
100
AcDbEntity
  8
0
  6
Continuous
 62
     2
100
AcDbLine
 10
-60.50572846859708
 20
-18.7253114792027
 30
0.0
 11
-60.50572846859708
 21
-23.0817665219198
 31
0.0
  0
LINE
  5
103
102
{ACAD_REACTORS
330
1B9
330
1BA
102
}
330
47
100
AcDbEntity
  8
0
  6
Continuous
 62
     2
100
AcDbLine
 10
-60.1900115455214
 20
-18.40959455612651
 30
0.0
 11
-58.71417828451178
 21
-18.40959455612651
 31
0.0
  0
LINE
  5
104
102
{ACAD_REACTORS
330
1B9
330
1BA
102
}
330
47
100
AcDbEntity
  8
0
  6
Continuous
 62
     2
100
AcDbLine
 10
-58.39846136143518
 20
-19.32933609826321
 30
0.0
 11
-58.39846136143518
 21
-18.7253114792027
 31
0.0
  0
LINE
  5
105
102
{ACAD_REACTORS
330
1B9
330
1BA
102
}
330
47
100
AcDbEntity
  8
0
  6
Continuous
 62
     2
100
AcDbLine
 10
-58.39846136143518
 20
-23.0817665219198
 30
0.0
 11
-58.39846136143518
 21
-21.5509955903882
 31
0.0
  0
LINE
  5
106
102
{ACAD_REACTORS
330
1B9
330
1BA
102
}
330
47
100
AcDbEntity
  8
0
  6
Continuous
 62
     2
100
AcDbLine
 10
-55.31059413155109
 20
-24.1100390005534
 30
0.0
 11
-60.78390622226789
 21
-24.1100390005534
 31
0.0
  0
LINE
  5
107
102
{ACAD_REACTORS
330
1B9
330
1BA
102
}
330
47
100
AcDbEntity
  8
0
  6
Continuous
 62
     2
100
AcDbLine
 10
-54.8863495161672
 20
-18.1212836159699
 30
0.0
 11
-54.8863495161672
 21
-23.68579438517011
 31
0.0
  0
LINE
  5
108
102
{ACAD_REACTORS
330
1B9
330
1BA
102
}
330
47
100
AcDbEntity
  8
0
  6
Continuous
 62
     2
100
AcDbLine
 10
-60.78390622226789
 20
-17.6970390005861
 30
0.0
 11
-55.31059413155109
 21
-17.6970390005861
 31
0.0
  0
LINE
  5
109
102
{ACAD_REACTORS
330
1B9
330
1BA
102
}
330
47
100
AcDbEntity
  8
0
  6
Continuous
 62
     2
100
AcDbLine
 10
-61.20815083765069
 20
-18.1212836159699
 30
0.0
 11
-61.20815083765069
 21
-23.68579438517011
 31
0.0
  0
LINE
  5
10A
102
{ACAD_REACTORS
330
1B9
330
1BA
102
}
330
47
100
AcDbEntity
  8
0
  6
Continuous
 62
     2
100
AcDbLine
 10
-58.71417828451178
 20
-23.39748344499651
 30
0.0
 11
-60.1900115455214
 21
-23.39748344499651
 31
0.0
  0
LINE
  5
10B
102
{ACAD_REACTORS
330
1B3
330
1B4
102
}
330
47
100
AcDbEntity
  8
0
  6
Continuous
 62
     2
100
AcDbLine
 10
-53.16872802504628
 20
-20.75084852437911
 30
0.0
 11
-53.16872802504628
 21
-19.8077702832353
 31
0.0
  0
LINE
  5
10C
102
{ACAD_REACTORS
330
1B3
330
1B4
102
}
330
47
100
AcDbEntity
  8
0
  6
Continuous
 62
     2
100
AcDbLine
 10
-54.4092324353004
 20
-20.75084852437911
 30
0.0
 11
-53.16872802504628
 21
-20.75084852437911
 31
0.0
  0
LINE
  5
10D
102
{ACAD_REACTORS
330
1B3
330
1B4
102
}
330
47
100
AcDbEntity
  8
0
  6
Continuous
 62
     2
100
AcDbLine
 10
-53.16872802504628
 20
-19.06587249535022
 30
0.0
 11
-53.16872802504628
 21
-18.36014484600801
 31
0.0
  0
LINE
  5
10E
102
{ACAD_REACTORS
330
1A5
330
1A6
102
}
330
47
100
AcDbEntity
  8
0
  6
Continuous
 62
     2
100
AcDbLine
 10
-51.21254799349268
 20
-17.69703900056791
 30
0.0
 11
-51.21254799349268
 21
-20.75084852437911
 31
0.0
  0
LINE
  5
10F
102
{ACAD_REACTORS
330
1A5
330
1A6
102
}
330
47
100
AcDbEntity
  8
0
  6
Continuous
 62
     2
100
AcDbLine
 10
-50.01975529132608
 20
-19.61657641553529
 30
0.0
 11
-50.01975529132608
 21
-20.75084852437911
 31
0.0
  0
LINE
  5
110
102
{ACAD_REACTORS
330
1A5
330
1A6
102
}
330
47
100
AcDbEntity
  8
0
  6
Continuous
 62
     2
100
AcDbLine
 10
-48.9700977134186
 20
-19.61657641553529
 30
0.0
 11
-50.01975529132608
 21
-19.61657641553529
 31
0.0
  0
LINE
  5
111
102
{ACAD_REACTORS
330
1A5
330
1A6
102
}
330
47
100
AcDbEntity
  8
0
  6
Continuous
 62
     2
100
AcDbLine
 10
-48.9700977134186
 20
-17.69703900056791
 30
0.0
 11
-47.7773050112522
 21
-17.69703900056791
 31
0.0
  0
LINE
  5
112
102
{ACAD_REACTORS
330
1A5
330
1A6
102
}
330
47
100
AcDbEntity
  8
0
  6
Continuous
 62
     2
100
AcDbLine
 10
-48.9700977134186
 20
-18.76587233390251
 30
0.0
 11
-48.9700977134186
 21
-17.69703900056791
 31
0.0
  0
LINE
  5
113
102
{ACAD_REACTORS
330
1B7
330
1B8
102
}
330
47
100
AcDbEntity
  8
0
  6
Continuous
 62
     2
100
AcDbLine
 10
-42.9584224944976
 20
-18.39505260601089
 30
0.0
 11
-42.9584224944976
 21
-17.69703900056791
 31
0.0
  0
LINE
  5
114
102
{ACAD_REACTORS
330
1B7
330
1B8
102
}
330
47
100
AcDbEntity
  8
0
  6
Continuous
 62
     2
100
AcDbLine
 10
-46.10874221827859
 20
-17.69703900056791
 30
0.0
 11
-42.9584224944976
 21
-17.69703900056791
 31
0.0
  0
LINE
  5
115
102
{ACAD_REACTORS
330
1B7
330
1B8
102
}
330
47
100
AcDbEntity
  8
0
  6
Continuous
 62
     2
100
AcDbLine
 10
-46.10874221827859
 20
-20.75084852437911
 30
0.0
 11
-42.9584224944976
 21
-20.75084852437911
 31
0.0
  0
LINE
  5
116
102
{ACAD_REACTORS
330
1B7
330
1B8
102
}
330
47
100
AcDbEntity
  8
0
  6
Continuous
 62
     2
100
AcDbLine
 10
-42.9584224944976
 20
-20.75084852437911
 30
0.0
 11
-42.9584224944976
 21
-20.05283491893661
 31
0.0
  0
LINE
  5
117
102
{ACAD_REACTORS
330
1B7
330
1B8
102
}
330
47
100
AcDbEntity
  8
0
  6
Continuous
 62
     2
100
AcDbLine
 10
-42.9584224944976
 20
-20.05283491893661
 30
0.0
 11
-44.29435032092528
 21
-20.05283491893661
 31
0.0
  0
LINE
  5
118
102
{ACAD_REACTORS
330
1B7
330
1B8
102
}
330
47
100
AcDbEntity
  8
0
  6
Continuous
 62
     2
100
AcDbLine
 10
-44.29435032092528
 20
-20.05283491893661
 30
0.0
 11
-44.29435032092528
 21
-19.5729505651949
 31
0.0
  0
LINE
  5
119
102
{ACAD_REACTORS
330
1B7
330
1B8
102
}
330
47
100
AcDbEntity
  8
0
  6
Continuous
 62
     2
100
AcDbLine
 10
-44.29435032092528
 20
-18.39505260601089
 30
0.0
 11
-42.9584224944976
 21
-18.39505260601089
 31
0.0
  0
LINE
  5
11A
102
{ACAD_REACTORS
330
1A7
330
1A8
102
}
330
47
100
AcDbEntity
  8
0
  6
Continuous
 62
     2
100
AcDbLine
 10
-46.77551007231679
 20
-24.1100390005534
 30
0.0
 11
-46.77551007231679
 21
-22.80126349034882
 31
0.0
  0
LINE
  5
11B
102
{ACAD_REACTORS
330
1A7
330
1A8
102
}
330
47
100
AcDbEntity
  8
0
  6
Continuous
 62
     2
100
AcDbLine
 10
-46.77551007231679
 20
-22.80126349034882
 30
0.0
 11
-45.5350056620639
 21
-24.1100390005534
 31
0.0
  0
LINE
  5
11C
102
{ACAD_REACTORS
330
1A7
330
1A8
102
}
330
47
100
AcDbEntity
  8
0
  6
Continuous
 62
     2
100
AcDbLine
 10
-44.3422129598975
 20
-24.1100390005534
 30
0.0
 11
-44.3422129598975
 21
-21.05622947674232
 31
0.0
  0
LINE
  5
11D
102
{ACAD_REACTORS
330
1A7
330
1A8
102
}
330
47
100
AcDbEntity
  8
0
  6
Continuous
 62
     2
100
AcDbLine
 10
-44.3422129598975
 20
-21.05622947674232
 30
0.0
 11
-45.5350056620639
 21
-21.05622947674232
 31
0.0
  0
LINE
  5
11E
102
{ACAD_REACTORS
330
1A7
330
1A8
102
}
330
47
100
AcDbEntity
  8
0
  6
Continuous
 62
     2
100
AcDbLine
 10
-45.5350056620639
 20
-21.05622947674232
 30
0.0
 11
-45.5350056620639
 21
-22.36500498694741
 31
0.0
  0
LINE
  5
11F
102
{ACAD_REACTORS
330
1A7
330
1A8
102
}
330
47
100
AcDbEntity
  8
0
  6
Continuous
 62
     2
100
AcDbLine
 10
-45.5350056620639
 20
-22.36500498694741
 30
0.0
 11
-46.77551007231679
 21
-21.05622947674232
 31
0.0
  0
LINE
  5
120
102
{ACAD_REACTORS
330
1A9
330
1AA
102
}
330
47
100
AcDbEntity
  8
0
  6
Continuous
 62
     2
100
AcDbLine
 10
-41.52707125189818
 20
-19.44207301417441
 30
0.0
 11
-40.28656684164417
 21
-20.75084852437911
 31
0.0
  0
LINE
  5
121
102
{ACAD_REACTORS
330
1A9
330
1AA
102
}
330
47
100
AcDbEntity
  8
0
  6
Continuous
 62
     2
100
AcDbLine
 10
-40.28656684164417
 20
-20.75084852437911
 30
0.0
 11
-39.09377413947757
 21
-20.75084852437911
 31
0.0
  0
LINE
  5
122
102
{ACAD_REACTORS
330
1A9
330
1AA
102
}
330
47
100
AcDbEntity
  8
0
  6
Continuous
 62
     2
100
AcDbLine
 10
-39.09377413947757
 20
-20.75084852437911
 30
0.0
 11
-39.09377413947757
 21
-17.69703900056791
 31
0.0
  0
LINE
  5
123
102
{ACAD_REACTORS
330
1A9
330
1AA
102
}
330
47
100
AcDbEntity
  8
0
  6
Continuous
 62
     2
100
AcDbLine
 10
-39.09377413947757
 20
-17.69703900056791
 30
0.0
 11
-40.28656684164417
 21
-17.69703900056791
 31
0.0
  0
LINE
  5
124
102
{ACAD_REACTORS
330
1A9
330
1AA
102
}
330
47
100
AcDbEntity
  8
0
  6
Continuous
 62
     2
100
AcDbLine
 10
-40.28656684164417
 20
-19.00581451077309
 30
0.0
 11
-41.52707125189818
 21
-17.69703900056791
 31
0.0
  0
LINE
  5
125
102
{ACAD_REACTORS
330
1A9
330
1AA
102
}
330
47
100
AcDbEntity
  8
0
  6
Continuous
 62
     2
100
AcDbLine
 10
-42.71986395406469
 20
-20.75084852437911
 30
0.0
 11
-41.52707125189818
 21
-20.75084852437911
 31
0.0
  0
LINE
  5
126
102
{ACAD_REACTORS
330
1AB
330
1AC
102
}
330
47
100
AcDbEntity
  8
0
  6
Continuous
 62
     2
100
AcDbLine
 10
-44.1990778356373
 20
-21.05622947674232
 30
0.0
 11
-44.1990778356373
 21
-21.84149478286591
 31
0.0
  0
LINE
  5
127
102
{ACAD_REACTORS
330
1AB
330
1AC
102
}
330
47
100
AcDbEntity
  8
0
  6
Continuous
 62
     2
100
AcDbLine
 10
-43.38797879816269
 20
-21.84149478286591
 30
0.0
 11
-43.38797879816269
 21
-24.1100390005534
 31
0.0
  0
LINE
  5
128
102
{ACAD_REACTORS
330
1AB
330
1AC
102
}
330
47
100
AcDbEntity
  8
0
  6
Continuous
 62
     2
100
AcDbLine
 10
-43.38797879816269
 20
-24.1100390005534
 30
0.0
 11
-42.19518609599618
 21
-24.1100390005534
 31
0.0
  0
LINE
  5
129
102
{ACAD_REACTORS
330
1AD
330
1AE
102
}
330
47
100
AcDbEntity
  8
0
  6
Continuous
 62
     2
100
AcDbLine
 10
-39.24565960257669
 20
-24.1100390005534
 30
0.0
 11
-39.45713965605248
 21
-23.56907845633552
 31
0.0
  0
LINE
  5
12A
102
{ACAD_REACTORS
330
1AD
330
1AE
102
}
330
47
100
AcDbEntity
  8
0
  6
Continuous
 62
     2
100
AcDbLine
 10
-39.40310823926308
 20
-21.05622947674232
 30
0.0
 11
-38.00515519232278
 21
-24.1100390005534
 31
0.0
  0
LINE
  5
12B
102
{ACAD_REACTORS
330
1AD
330
1AE
102
}
330
47
100
AcDbEntity
  8
0
  6
Continuous
 62
     2
100
AcDbLine
 10
-40.64361264951577
 20
-21.05622947674232
 30
0.0
 11
-39.40310823926308
 21
-21.05622947674232
 31
0.0
  0
LINE
  5
12C
102
{ACAD_REACTORS
330
1AD
330
1AE
102
}
330
47
100
AcDbEntity
  8
0
  6
Continuous
 62
     2
100
AcDbLine
 10
-42.04156569645508
 20
-24.1100390005534
 30
0.0
 11
-40.8010612862021
 21
-24.1100390005534
 31
0.0
  0
LINE
  5
12D
102
{ACAD_REACTORS
330
1AD
330
1AE
102
}
330
47
100
AcDbEntity
  8
0
  6
Continuous
 62
     2
100
AcDbLine
 10
-40.32352568158129
 20
-22.88851519102892
 30
0.0
 11
-39.72319520719879
 21
-22.88851519102892
 31
0.0
  0
LINE
  5
12E
102
{ACAD_REACTORS
330
1AD
330
1AE
102
}
330
47
100
AcDbEntity
  8
0
  6
Continuous
 62
     2
100
AcDbLine
 10
-39.72319520719879
 20
-22.88851519102892
 30
0.0
 11
-40.02336044438889
 21
-22.12070022504221
 31
0.0
  0
LINE
  5
12F
102
{ACAD_REACTORS
330
1AF
330
1B0
102
}
330
47
100
AcDbEntity
  8
0
  6
Continuous
 62
     2
100
AcDbLine
 10
-37.61471118879078
 20
-20.75084852437911
 30
0.0
 11
-38.85521559904368
 21
-20.75084852437911
 31
0.0
  0
LINE
  5
130
102
{ACAD_REACTORS
330
1B1
330
1B2
102
}
330
47
100
AcDbEntity
  8
0
  6
Continuous
 62
     2
100
AcDbLine
 10
-36.09270770082568
 20
-20.75084852437911
 30
0.0
 11
-37.4954319185739
 21
-20.75084852437911
 31
0.0
  0
LINE
  5
131
102
{ACAD_REACTORS
330
1B1
330
1B2
102
}
330
47
100
AcDbEntity
  8
0
  6
Continuous
 62
     2
100
AcDbLine
 10
-36.09270770082568
 20
-20.75084852437911
 30
0.0
 11
-35.39611676275999
 21
-19.96311673908539
 31
0.0
  0
LINE
  5
132
102
{ACAD_REACTORS
330
1B1
330
1B2
102
}
330
47
100
AcDbEntity
  8
0
  6
Continuous
 62
     2
100
AcDbLine
 10
-34.7949492408672
 20
-17.69703900056791
 30
0.0
 11
-33.39222502311998
 21
-17.69703900056791
 31
0.0
  0
LINE
  5
133
102
{ACAD_REACTORS
330
1B1
330
1B2
102
}
330
47
100
AcDbEntity
  8
0
  6
Continuous
 62
     2
100
AcDbLine
 10
-37.40000850240108
 20
-17.69703900056791
 30
0.0
 11
-36.0974788716336
 21
-19.16998953060411
 31
0.0
  0
LINE
  5
134
102
{ACAD_REACTORS
330
1B1
330
1B2
102
}
330
47
100
AcDbEntity
  8
0
  6
Continuous
 62
     2
100
AcDbLine
 10
-37.4954319185739
 20
-20.75084852437911
 30
0.0
 11
-36.0974788716336
 21
-19.16998953060411
 31
0.0
  0
LINE
  5
135
102
{ACAD_REACTORS
330
1BB
330
1BC
102
}
330
47
100
AcDbEntity
  8
0
  6
Continuous
 62
     2
100
AcDbLine
 10
-35.63467530319397
 20
-23.0630185923898
 30
0.0
 11
-35.63467530319397
 21
-23.93553559919312
 31
0.0
  0
LINE
  5
136
102
{ACAD_REACTORS
330
1BB
330
1BC
102
}
330
47
100
AcDbEntity
  8
0
  6
Continuous
 62
     2
100
AcDbLine
 10
-36.40433264615538
 20
-21.84149478286591
 30
0.0
 11
-35.30069334658728
 21
-21.84149478286591
 31
0.0
  0
LINE
  5
137
102
{ACAD_REACTORS
330
1BD
330
1BE
102
}
330
47
100
AcDbEntity
  8
0
  6
Continuous
 62
     2
100
AcDbLine
 10
-51.73737678244589
 20
-23.06301859238931
 30
0.0
 11
-51.73737678244589
 21
-23.93553559919252
 31
0.0
  0
LINE
  5
138
102
{ACAD_REACTORS
330
1BD
330
1BE
102
}
330
47
100
AcDbEntity
  8
0
  6
Continuous
 62
     2
100
AcDbLine
 10
-51.73737678244589
 20
-22.1032498849064
 30
0.0
 11
-51.73737678244589
 21
-21.23073287810311
 31
0.0
  0
LINE
  5
139
330
47
100
AcDbEntity
  8
1
  6
Continuous
 62
     7
100
AcDbLine
 10
64.09999880253801
 20
-22.90353900056971
 30
0.0
 11
-29.04480572421338
 21
-22.90353900056971
 31
0.0
  0
LINE
  5
13A
330
47
100
AcDbEntity
  8
1
  6
Continuous
 62
     6
100
AcDbLine
 10
-134.4448057242133
 20
-31.40353900056971
 30
0.0
 11
-179.4000011974633
 21
-31.40353900056971
 31
0.0
  0
LINE
  5
13B
330
47
100
AcDbEntity
  8
1
  6
Continuous
 62
     7
100
AcDbLine
 10
55.1815905208592
 20
-5.90353900056971
 30
0.0
 11
55.1815905208592
 21
-14.40353900056971
 31
0.0
  0
LINE
  5
13C
330
47
100
AcDbEntity
  8
1
  6
Continuous
 62
     7
100
AcDbLine
 10
28.6815905208596
 20
-5.90353900056971
 30
0.0
 11
28.6815905208596
 21
-14.40353900056971
 31
0.0
  0
LINE
  5
13D
330
47
100
AcDbEntity
  8
1
  6
Continuous
 62
     7
100
AcDbLine
 10
-29.04480572421338
 20
-14.40353900056971
 30
0.0
 11
-29.04480572421338
 21
-5.90353900056971
 31
0.0
  0
LINE
  5
13E
330
47
100
AcDbEntity
  8
1
  6
Continuous
 62
     7
100
AcDbLine
 10
-65.4448057242133
 20
-14.40353900056971
 30
0.0
 11
-65.4448057242133
 21
-5.90353900056971
 31
0.0
  0
LINE
  5
13F
330
47
100
AcDbEntity
  8
1
  6
Continuous
 62
     6
100
AcDbLine
 10
-29.04480572421338
 20
-14.40353900056971
 30
0.0
 11
64.09999880253841
 21
-14.40353900056971
 31
0.0
  0
LINE
  5
140
330
47
100
AcDbEntity
  8
1
  6
Continuous
 62
     7
100
AcDbLine
 10
-1.14480572421328
 20
-22.90353900056979
 30
0.0
 11
-1.14480572421328
 21
-14.40353900056971
 31
0.0
  0
LINE
  5
141
330
47
100
AcDbEntity
  8
1
  6
PHANTOM
 62
     2
100
AcDbLine
 10
-49.95815083765069
 20
-10.27853900056979
 30
0.0
 11
-55.45815083765069
 21
-10.27853900056979
 31
0.0
  0
LINE
  5
142
330
47
100
AcDbEntity
  8
1
  6
PHANTOM
 62
     2
100
AcDbLine
 10
-52.70815083765069
 20
-7.52853900056979
 30
0.0
 11
-52.70815083765069
 21
-13.02853900056979
 31
0.0
  0
LINE
  5
143
330
47
100
AcDbEntity
  8
1
  6
DOT_CENTER
 62
     2
100
AcDbLine
 10
-61.45815083765069
 20
-10.27853900056979
 30
0.0
 11
-55.95815083765069
 21
-10.27853900056979
 31
0.0
  0
ARC
  5
144
102
{ACAD_REACTORS
330
1BD
330
1BE
102
}
330
47
100
AcDbEntity
  8
0
  6
Continuous
 62
     2
100
AcDbCircle
 10
-53.07330469956369
 20
-25.89581518390401
 30
0.0
 40
4.852596863498071
100
AcDbArc
 50
74.02000874164739
 51
84.84185523037506
  0
ARC
  5
145
102
{ACAD_REACTORS
330
1BD
330
1BE
102
}
330
47
100
AcDbEntity
  8
0
  6
Continuous
 62
     2
100
AcDbCircle
 10
-52.49726409080998
 20
-22.74005482801971
 30
0.0
 40
0.9059297849853194
100
AcDbArc
 50
71.55192388185341
 51
113.3722778881286
  0
ARC
  5
146
102
{ACAD_REACTORS
330
1BD
330
1BE
102
}
330
47
100
AcDbEntity
  8
0
  6
Continuous
 62
     2
100
AcDbCircle
 10
-52.653704123512
 20
-22.7882056679866
 30
0.0
 40
0.5115800601948034
100
AcDbArc
 50
208.5214732576956
 51
246.6277221118285
  0
ARC
  5
147
102
{ACAD_REACTORS
330
1BD
330
1BE
102
}
330
47
100
AcDbEntity
  8
0
  6
Continuous
 62
     2
100
AcDbCircle
 10
-52.49726409080998
 20
-22.42621364927661
 30
0.0
 40
0.9059297849849132
100
AcDbArc
 50
246.6277221118714
 51
288.4480761181586
  0
ARC
  5
148
102
{ACAD_REACTORS
330
1BD
330
1BE
102
}
330
47
100
AcDbEntity
  8
0
  6
Continuous
 62
     2
100
AcDbCircle
 10
-52.91543182447077
 20
-21.17266787323942
 30
0.0
 40
2.227384008972737
100
AcDbArc
 50
288.4480761181328
 51
301.9309089499593
  0
ARC
  5
149
102
{ACAD_REACTORS
330
1B9
330
1BA
102
}
330
47
100
AcDbEntity
  8
0
  6
Continuous
 62
     2
100
AcDbCircle
 10
-58.14050555707757
 20
-20.44016584432541
 30
0.0
 40
0.911848150144456
100
AcDbArc
 50
295.374008678176
 51
64.62599132180796
  0
ARC
  5
14A
102
{ACAD_REACTORS
330
1B9
330
1BA
102
}
330
47
100
AcDbEntity
  8
0
  6
Continuous
 62
     2
100
AcDbCircle
 10
-57.6144628589897
 20
-18.72548895585081
 30
0.0
 40
0.3157169230760746
100
AcDbArc
 50
90.18896704254722
 51
180.0
  0
ARC
  5
14B
102
{ACAD_REACTORS
330
1BB
330
1BC
102
}
330
47
100
AcDbEntity
  8
0
  6
Continuous
 62
     2
100
AcDbCircle
 10
-36.40433264615538
 20
-22.796017789692
 30
0.0
 40
0.9545230068260899
100
AcDbArc
 50
90.0
 51
109.337143219432
  0
ARC
  5
14C
102
{ACAD_REACTORS
330
1BB
330
1BC
102
}
330
47
100
AcDbEntity
  8
0
  6
Continuous
 62
     2
100
AcDbCircle
 10
-36.1736453861777
 20
-22.58313423864811
 30
0.0
 40
0.9410597353348907
100
AcDbArc
 50
151.4785267423626
 51
208.5214732576695
  0
ARC
  5
14D
102
{ACAD_REACTORS
330
1BB
330
1BC
102
}
330
47
100
AcDbEntity
  8
0
  6
Continuous
 62
     2
100
AcDbCircle
 10
-36.39456261155598
 20
-22.42621364927661
 30
0.0
 40
0.9059297849852768
100
AcDbArc
 50
246.6277221118181
 51
288.4480761180814
  0
ARC
  5
14E
102
{ACAD_REACTORS
330
1BB
330
1BC
102
}
330
47
100
AcDbEntity
  8
0
  6
Continuous
 62
     2
100
AcDbCircle
 10
-36.81273034521789
 20
-21.17266787324002
 30
0.0
 40
2.227384008972744
100
AcDbArc
 50
288.4480761181333
 51
301.9309089499397
  0
ARC
  5
14F
102
{ACAD_REACTORS
330
1BB
330
1BC
102
}
330
47
100
AcDbEntity
  8
0
  6
Continuous
 62
     2
100
AcDbCircle
 10
-36.97060322031069
 20
-19.27045329339171
 30
0.0
 40
4.852596863498825
100
AcDbArc
 50
275.1581447696364
 51
285.9799912583387
  0
ARC
  5
150
102
{ACAD_REACTORS
330
1BB
330
1BC
102
}
330
47
100
AcDbEntity
  8
0
  6
Continuous
 62
     2
100
AcDbCircle
 10
-36.68174712557487
 20
-22.4703438766133
 30
0.0
 40
1.639695123940449
100
AcDbArc
 50
195.0618917771013
 51
275.1581447696762
  0
ARC
  5
151
102
{ACAD_REACTORS
330
1B3
330
1B4
102
}
330
47
100
AcDbEntity
  8
0
  6
Continuous
 62
     2
100
AcDbCircle
 10
-52.40996043726599
 20
-18.75240464190159
 30
0.0
 40
1.055365641333708
100
AcDbArc
 50
270.0
 51
90.0
  0
ARC
  5
152
102
{ACAD_REACTORS
330
1B9
330
1BA
102
}
330
47
100
AcDbEntity
  8
0
  6
Continuous
 62
     2
100
AcDbCircle
 10
-60.1900115455214
 20
-23.0817665219198
 30
0.0
 40
0.3157169230756764
100
AcDbArc
 50
180.0
 51
270.0
  0
ARC
  5
153
102
{ACAD_REACTORS
330
1B9
330
1BA
102
}
330
47
100
AcDbEntity
  8
0
  6
Continuous
 62
     2
100
AcDbCircle
 10
-58.71417828451178
 20
-18.7253114792027
 30
0.0
 40
0.3157169230766002
100
AcDbArc
 50
0.0
 51
90.0
  0
ARC
  5
154
102
{ACAD_REACTORS
330
1B9
330
1BA
102
}
330
47
100
AcDbEntity
  8
0
  6
Continuous
 62
     2
100
AcDbCircle
 10
-58.71417828451178
 20
-19.32933609826321
 30
0.0
 40
0.3157169230761233
100
AcDbArc
 50
295.1944106485409
 51
0.0
  0
ARC
  5
155
102
{ACAD_REACTORS
330
1B9
330
1BA
102
}
330
47
100
AcDbEntity
  8
0
  6
Continuous
 62
     2
100
AcDbCircle
 10
-58.71417828451178
 20
-23.0817665219198
 30
0.0
 40
0.3157169230767103
100
AcDbArc
 50
270.0
 51
0.0
  0
ARC
  5
156
102
{ACAD_REACTORS
330
1B9
330
1BA
102
}
330
47
100
AcDbEntity
  8
0
  6
Continuous
 62
     2
100
AcDbCircle
 10
-60.78390622226789
 20
-18.1212836159699
 30
0.0
 40
0.4242446153838024
100
AcDbArc
 50
90.0
 51
180.0
  0
ARC
  5
157
102
{ACAD_REACTORS
330
1B9
330
1BA
102
}
330
47
100
AcDbEntity
  8
0
  6
Continuous
 62
     2
100
AcDbCircle
 10
-55.31059413155109
 20
-18.1212836159699
 30
0.0
 40
0.4242446153838912
100
AcDbArc
 50
0.0
 51
90.0
  0
ARC
  5
158
102
{ACAD_REACTORS
330
1B9
330
1BA
102
}
330
47
100
AcDbEntity
  8
0
  6
Continuous
 62
     2
100
AcDbCircle
 10
-55.31059413155109
 20
-23.68579438517011
 30
0.0
 40
0.4242446153832908
100
AcDbArc
 50
270.0
 51
0.0
  0
ARC
  5
159
102
{ACAD_REACTORS
330
1B7
330
1B8
102
}
330
47
100
AcDbEntity
  8
0
  6
Continuous
 62
     2
100
AcDbCircle
 10
-46.09221024445958
 20
-19.2239437624738
 30
0.0
 40
0.7717997786796351
100
AcDbArc
 50
321.879580202844
 51
38.12041979715978
  0
ARC
  5
15A
102
{ACAD_REACTORS
330
1B7
330
1B8
102
}
330
47
100
AcDbEntity
  8
0
  6
Continuous
 62
     2
100
AcDbCircle
 10
-45.89247020811339
 20
-19.38067494059422
 30
0.0
 40
0.5179085730134505
100
AcDbArc
 50
218.1204197971504
 51
321.8795802028558
  0
ARC
  5
15B
102
{ACAD_REACTORS
330
1B5
330
1B6
102
}
330
47
100
AcDbEntity
  8
0
  6
Continuous
 62
     2
100
AcDbCircle
 10
-49.57247779707359
 20
-22.58313423864811
 30
0.0
 40
1.458034083652003
100
AcDbArc
 50
297.548148175701
 51
62.45185182429882
  0
ARC
  5
15C
102
{ACAD_REACTORS
330
1B5
330
1B6
102
}
330
47
100
AcDbEntity
  8
0
  6
Continuous
 62
     2
100
AcDbCircle
 10
-50.13435758074019
 20
-22.58313423864811
 30
0.0
 40
1.458034083651484
100
AcDbArc
 50
117.5481481756626
 51
242.4518518243375
  0
ARC
  5
15D
102
{ACAD_REACTORS
330
1B5
330
1B6
102
}
330
47
100
AcDbEntity
  8
0
  6
Continuous
 62
     2
100
AcDbCircle
 10
-49.85341768890689
 20
-23.12170924895091
 30
0.0
 40
2.065479772208568
100
AcDbArc
 50
62.45185182430637
 51
117.5481481756666
  0
ARC
  5
15E
102
{ACAD_REACTORS
330
1B5
330
1B6
102
}
330
47
100
AcDbEntity
  8
0
  6
Continuous
 62
     2
100
AcDbCircle
 10
-49.85341768890689
 20
-22.04455922834481
 30
0.0
 40
2.065479772208509
100
AcDbArc
 50
242.45185182434
 51
297.5481481756871
  0
ARC
  5
15F
102
{ACAD_REACTORS
330
1B7
330
1B8
102
}
330
47
100
AcDbEntity
  8
0
  6
Continuous
 62
     2
100
AcDbCircle
 10
-45.6927301717671
 20
-19.2239437624738
 30
0.0
 40
0.7717997786796745
100
AcDbArc
 50
141.8795802028402
 51
218.120419797156
  0
ARC
  5
160
102
{ACAD_REACTORS
330
1B7
330
1B8
102
}
330
47
100
AcDbEntity
  8
0
  6
Continuous
 62
     2
100
AcDbCircle
 10
-45.89247020811339
 20
-19.06721258435331
 30
0.0
 40
0.5179085730135166
100
AcDbArc
 50
38.12041979714321
 51
141.8795802028505
  0
ARC
  5
161
102
{ACAD_REACTORS
330
1B9
330
1BA
102
}
330
47
100
AcDbEntity
  8
0
  6
Continuous
 62
     2
100
AcDbCircle
 10
-60.78390622226789
 20
-23.68579438517011
 30
0.0
 40
0.4242446153828041
100
AcDbArc
 50
180.0
 51
270.0
  0
ARC
  5
162
102
{ACAD_REACTORS
330
1B9
330
1BA
102
}
330
47
100
AcDbEntity
  8
0
  6
Continuous
 62
     2
100
AcDbCircle
 10
-58.71417828451178
 20
-21.5509955903882
 30
0.0
 40
0.3157169230766002
100
AcDbArc
 50
0.0
 51
64.8055893514591
  0
ARC
  5
163
102
{ACAD_REACTORS
330
1B9
330
1BA
102
}
330
47
100
AcDbEntity
  8
0
  6
Continuous
 62
     2
100
AcDbCircle
 10
-58.19159383693679
 20
-20.44016584432541
 30
0.0
 40
0.911897523557621
100
AcDbArc
 50
115.194410648528
 51
244.8055893514878
  0
ARC
  5
164
102
{ACAD_REACTORS
330
1B9
330
1BA
102
}
330
47
100
AcDbEntity
  8
0
  6
Continuous
 62
     2
100
AcDbCircle
 10
-60.1900115455214
 20
-18.7253114792027
 30
0.0
 40
0.315716923076188
100
AcDbArc
 50
90.0
 51
180.0
  0
ARC
  5
165
102
{ACAD_REACTORS
330
1B3
330
1B4
102
}
330
47
100
AcDbEntity
  8
0
  6
Continuous
 62
     2
100
AcDbCircle
 10
-52.85143296350438
 20
-18.7130086706791
 30
0.0
 40
0.3528638246711218
100
AcDbArc
 50
270.0
 51
90.0
  0
ARC
  5
166
102
{ACAD_REACTORS
330
1B7
330
1B8
102
}
330
47
100
AcDbEntity
  8
0
  6
Continuous
 62
     2
100
AcDbCircle
 10
-46.10874221827859
 20
-19.2239437624738
 30
0.0
 40
1.526904761905893
100
AcDbArc
 50
90.0
 51
270.0
  0
ARC
  5
167
102
{ACAD_REACTORS
330
1BB
330
1BC
102
}
330
47
100
AcDbEntity
  8
0
  6
Continuous
 62
     2
100
AcDbCircle
 10
-36.68174712557487
 20
-22.69592460068301
 30
0.0
 40
1.639695123940211
100
AcDbArc
 50
90.0
 51
164.938108222895
  0
ARC
  5
168
102
{ACAD_REACTORS
330
1BB
330
1BC
102
}
330
47
100
AcDbEntity
  8
0
  6
Continuous
 62
     2
100
AcDbCircle
 10
-37.10087496903648
 20
-22.58313423864811
 30
0.0
 40
1.205656168393002
100
AcDbArc
 50
164.9381082229028
 51
195.0618917770962
  0
ARC
  5
169
102
{ACAD_REACTORS
330
1BB
330
1BC
102
}
330
47
100
AcDbEntity
  8
0
  6
Continuous
 62
     2
100
AcDbCircle
 10
-36.55100264425909
 20
-22.7882056679866
 30
0.0
 40
0.5115800601960153
100
AcDbArc
 50
208.521473257687
 51
246.627722111846
  0
ARC
  5
16A
102
{ACAD_REACTORS
330
1BB
330
1BC
102
}
330
47
100
AcDbEntity
  8
0
  6
Continuous
 62
     2
100
AcDbCircle
 10
-36.55100264425909
 20
-22.37806280930911
 30
0.0
 40
0.5115800601944086
100
AcDbArc
 50
109.3371432194847
 51
151.4785267424224
  0
ARC
  5
16B
102
{ACAD_REACTORS
330
1B9
330
1BA
102
}
330
47
100
AcDbEntity
  8
0
  6
Continuous
 62
     2
100
AcDbCircle
 10
-57.6144628589897
 20
-22.1311588509889
 30
0.0
 40
0.315716923076792
100
AcDbArc
 50
180.0
 51
269.8110329574529
  0
ARC
  5
16C
102
{ACAD_REACTORS
330
1B9
330
1BA
102
}
330
47
100
AcDbEntity
  8
0
  6
Continuous
 62
     2
100
AcDbCircle
 10
-57.60884672367968
 20
-20.42832390341991
 30
0.0
 40
2.018561131933269
100
AcDbArc
 50
269.8110329575858
 51
90.18896704241416
  0
ARC
  5
16D
102
{ACAD_REACTORS
330
1B9
330
1BA
102
}
330
47
100
AcDbEntity
  8
0
  6
Continuous
 62
     2
100
AcDbCircle
 10
-57.6144628589897
 20
-19.33102424435759
 30
0.0
 40
0.315716923076792
100
AcDbArc
 50
180.0
 51
244.6259913216484
  0
ARC
  5
16E
102
{ACAD_REACTORS
330
1B9
330
1BA
102
}
330
47
100
AcDbEntity
  8
0
  6
Continuous
 62
     2
100
AcDbCircle
 10
-57.6144628589897
 20
-21.54930744429382
 30
0.0
 40
0.3157169230765328
100
AcDbArc
 50
115.3740086783519
 51
180.0
  0
ARC
  5
16F
102
{ACAD_REACTORS
330
1BD
330
1BE
102
}
330
47
100
AcDbEntity
  8
0
  6
Continuous
 62
     2
100
AcDbCircle
 10
-52.78444860482779
 20
-22.69592460068301
 30
0.0
 40
1.639695123940507
100
AcDbArc
 50
84.84185523036236
 51
164.9381082228864
  0
ARC
  5
170
102
{ACAD_REACTORS
330
1BD
330
1BE
102
}
330
47
100
AcDbEntity
  8
0
  6
Continuous
 62
     2
100
AcDbCircle
 10
-53.20357644829059
 20
-22.58313423864811
 30
0.0
 40
1.205656168390944
100
AcDbArc
 50
164.9381082228765
 51
195.061891777095
  0
ARC
  5
171
102
{ACAD_REACTORS
330
1BD
330
1BE
102
}
330
47
100
AcDbEntity
  8
0
  6
Continuous
 62
     2
100
AcDbCircle
 10
-52.78444860482779
 20
-22.4703438766133
 30
0.0
 40
1.639695123939387
100
AcDbArc
 50
195.0618917770896
 51
275.1581447696395
  0
ARC
  5
172
102
{ACAD_REACTORS
330
1BD
330
1BE
102
}
330
47
100
AcDbEntity
  8
0
  6
Continuous
 62
     2
100
AcDbCircle
 10
-53.07330469956369
 20
-19.27045329339171
 30
0.0
 40
4.852596863498134
100
AcDbArc
 50
275.1581447696249
 51
285.9799912583529
  0
ARC
  5
173
102
{ACAD_REACTORS
330
1BD
330
1BE
102
}
330
47
100
AcDbEntity
  8
0
  6
Continuous
 62
     2
100
AcDbCircle
 10
-52.27634686543169
 20
-22.58313423864811
 30
0.0
 40
0.9410597353332545
100
AcDbArc
 50
151.4785267422669
 51
208.5214732577057
  0
ARC
  5
174
102
{ACAD_REACTORS
330
1BD
330
1BE
102
}
330
47
100
AcDbEntity
  8
0
  6
Continuous
 62
     2
100
AcDbCircle
 10
-52.653704123512
 20
-22.37806280930911
 30
0.0
 40
0.5115800601948685
100
AcDbArc
 50
113.3722778881987
 51
151.4785267423044
  0
ARC
  5
175
102
{ACAD_REACTORS
330
1BD
330
1BE
102
}
330
47
100
AcDbEntity
  8
0
  6
Continuous
 62
     2
100
AcDbCircle
 10
-52.91543182447077
 20
-23.9936006040563
 30
0.0
 40
2.227384008973484
100
AcDbArc
 50
58.06909105004083
 51
71.55192388186722
  0
ARC
  5
176
102
{ACAD_REACTORS
330
1B5
330
1B6
102
}
330
47
100
AcDbEntity
  8
0
  6
Continuous
 62
     2
100
AcDbCircle
 10
-49.85341768890689
 20
-22.42640306052761
 30
0.0
 40
0.5179085730133021
100
AcDbArc
 50
38.12041979714734
 51
141.8795802028585
  0
ARC
  5
177
102
{ACAD_REACTORS
330
1B5
330
1B6
102
}
330
47
100
AcDbEntity
  8
0
  6
Continuous
 62
     2
100
AcDbCircle
 10
-49.65367765256079
 20
-22.58313423864811
 30
0.0
 40
0.771799778679461
100
AcDbArc
 50
141.8795802028365
 51
218.1204197971687
  0
ARC
  5
178
102
{ACAD_REACTORS
330
1B5
330
1B6
102
}
330
47
100
AcDbEntity
  8
0
  6
Continuous
 62
     2
100
AcDbCircle
 10
-49.85341768890689
 20
-22.73986541676811
 30
0.0
 40
0.5179085730137332
100
AcDbArc
 50
218.1204197971929
 51
321.8795802028013
  0
ARC
  5
179
102
{ACAD_REACTORS
330
1B5
330
1B6
102
}
330
47
100
AcDbEntity
  8
0
  6
Continuous
 62
     2
100
AcDbCircle
 10
-50.0531577252533
 20
-22.58313423864811
 30
0.0
 40
0.7717997786796947
100
AcDbArc
 50
321.8795802028417
 51
38.12041979715308
  0
CIRCLE
  5
17A
330
47
100
AcDbEntity
  8
1
  6
Continuous
 62
     2
100
AcDbCircle
 10
-52.70815083765069
 20
-10.27853900056979
 30
0.0
 40
2.5
  0
CIRCLE
  5
17B
330
47
100
AcDbEntity
  8
1
  6
Continuous
 62
     2
100
AcDbCircle
 10
-52.70815083765069
 20
-10.27853900056979
 30
0.0
 40
1.249999999999915
  0
CIRCLE
  5
17C
102
{ACAD_REACTORS
330
1B9
330
1BA
102
}
330
47
100
AcDbEntity
  8
0
  6
Continuous
 62
     2
100
AcDbCircle
 10
-58.16432057175038
 20
-20.44016584432541
 30
0.0
 40
0.4709789327785074
  0
MTEXT
  5
17E
330
47
100
AcDbEntity
  8
1
 62
     3
100
AcDbMText
 10
-222.8949334113915
 20
155.3877691547291
 30
0.0
 40
1.8
 41
0.0
 71
     7
 72
     1
  3
Weitergabe sowie Vervielf\U+00e4ltigung dieses Dokuments, Verwertung und \PMitteilung seines Inhalts sind verboten, soweit nicht ausdr\U+00fccklich gestattet. \PZuwiderhandlungen verpflichten zu Schadenersatz. Alle Rechte f\U+00fcr den Fall\Pder Pat
  1
ent-, Gebrauchsmuster- oder Designeintragung vorbehalten.
  7
CONVERTER_11
 73
     1
 44
0.99639855942377
  0
MTEXT
  5
17F
330
47
100
AcDbEntity
  8
1
 62
     3
100
AcDbMText
 10
-40.04182357260339
 20
155.3877691547291
 30
0.0
 40
1.8
 41
0.0
 71
     7
 72
     1
  3
Transfer or duplication of this document as well as the utilisation or\Pcommunication of its content are not permitted unless express consent\Pis granted. Violations give rise to claims for damages. All rights reserved\Pin case of patent, utility mo
  1
del or design patent registrations.
  7
CONVERTER_11
 73
     1
 44
0.99639855942377
  0
TEXT
  5
180
330
47
100
AcDbEntity
  8
1
 62
     2
100
AcDbText
 10
-46.24480572421348
 20
-30.16255621556132
 30
0.0
 40
1.8
  1
of
 41
0.9
  7
CONVERTER_11
100
AcDbText
  0
TEXT
  5
181
330
47
100
AcDbEntity
  8
1
 62
     2
100
AcDbText
 10
-64.4448057242133
 20
-30.16255621556138
 30
0.0
 40
1.8
  1
page
 41
0.9
  7
CONVERTER_11
100
AcDbText
  0
TEXT
  5
182
330
47
100
AcDbEntity
  8
1
 62
     2
100
AcDbText
 10
-55.79854075387129
 20
-30.20278765437172
 30
0.0
 40
1.8
  1
1
 41
0.9
  7
CONVERTER_11
100
AcDbText
  0
TEXT
  5
183
330
47
100
AcDbEntity
  8
1
 62
     2
100
AcDbText
 10
-41.00949691439979
 20
-30.15353900056982
 30
0.0
 40
1.8
  1
1
 41
0.9
  7
CONVERTER_11
100
AcDbText
  0
MTEXT
  5
185
330
47
100
AcDbEntity
  8
1
 62
     7
100
AcDbMText
 10
17.5275965391622
 20
-28.15353900056948
 30
0.0
 40
3.0
 41
0.0
 71
     5
 72
     1
  1
HC-RBO 8
  7
CONVERTER_12
 73
     1
 44
1.20048019207683
  0
MTEXT
  5
186
330
47
100
AcDbEntity
  8
1
 62
     2
100
AcDbMText
 10
-28.04480572421338
 20
-23.90353900056971
 30
0.0
 40
1.8
 41
0.0
 71
     1
 72
     1
  1
description
  7
CONVERTER_11
 73
     1
 44
1.20048019207683
  0
MTEXT
  5
187
330
47
100
AcDbEntity
  8
1
 62
     3
100
AcDbMText
 10
-39.24480572421339
 20
-10.27853900056971
 30
0.0
 40
2.5
 41
0.0
 71
     5
 72
     1
  1
DIN A4
  7
CONVERTER_11
 73
     1
 44
1.20048019207683
  0
MTEXT
  5
188
330
47
100
AcDbEntity
  8
1
 62
     7
100
AcDbMText
 10
-225.4000011974624
 20
-8.90353900056971
 30
0.0
 40
3.5
 41
0.0
 71
     5
 72
     1
  1
D
  7
CONVERTER_11
 73
     1
 44
1.20048019207683
  0
MTEXT
  5
189
330
47
100
AcDbEntity
  8
1
 62
     7
100
AcDbMText
 10
-225.4000011974624
 20
43.59646099943029
 30
0.0
 40
3.5
 41
0.0
 71
     5
 72
     1
  1
C
  7
CONVERTER_11
 73
     1
 44
1.20048019207683
  0
MTEXT
  5
18A
330
47
100
AcDbEntity
  8
1
 62
     7
100
AcDbMText
 10
-225.4000011974624
 20
93.59646099943029
 30
0.0
 40
3.5
 41
0.0
 71
     5
 72
     1
  1
B
  7
CONVERTER_11
 73
     1
 44
1.20048019207683
  0
MTEXT
  5
18B
330
47
100
AcDbEntity
  8
1
 62
     7
100
AcDbMText
 10
-225.4000011974624
 20
146.0964609994303
 30
0.0
 40
3.5
 41
0.0
 71
     5
 72
     1
  1
A
  7
CONVERTER_11
 73
     1
 44
1.20048019207683
  0
MTEXT
  5
18C
330
47
100
AcDbEntity
  8
1
 62
     7
100
AcDbMText
 10
44.84999880253591
 20
-33.90353900056982
 30
0.0
 40
3.5
 41
0.0
 71
     5
 72
     1
  1
6
  7
CONVERTER_11
 73
     1
 44
1.20048019207683
  0
MTEXT
  5
18D
330
47
100
AcDbEntity
  8
1
 62
     7
100
AcDbMText
 10
-4.4000011974633
 20
-33.90353900056982
 30
0.0
 40
3.5
 41
0.0
 71
     5
 72
     1
  1
5
  7
CONVERTER_11
 73
     1
 44
1.20048019207683
  0
MTEXT
  5
18E
330
47
100
AcDbEntity
  8
1
 62
     7
100
AcDbMText
 10
-54.40000119746338
 20
-33.90353900056982
 30
0.0
 40
3.5
 41
0.0
 71
     5
 72
     1
  1
4
  7
CONVERTER_11
 73
     1
 44
1.20048019207683
  0
MTEXT
  5
18F
330
47
100
AcDbEntity
  8
1
 62
     7
100
AcDbMText
 10
-104.4000011974633
 20
-33.90353900056982
 30
0.0
 40
3.5
 41
0.0
 71
     5
 72
     1
  1
3
  7
CONVERTER_11
 73
     1
 44
1.20048019207683
  0
MTEXT
  5
190
330
47
100
AcDbEntity
  8
1
 62
     7
100
AcDbMText
 10
-154.4000011974633
 20
-33.90353900056982
 30
0.0
 40
3.5
 41
0.0
 71
     5
 72
     1
  1
2
  7
CONVERTER_11
 73
     1
 44
1.20048019207683
  0
MTEXT
  5
191
330
47
100
AcDbEntity
  8
1
 62
     7
100
AcDbMText
 10
-203.6500011974629
 20
-33.90353900056982
 30
0.0
 40
3.5
 41
0.0
 71
     5
 72
     1
  1
1
  7
CONVERTER_11
 73
     1
 44
1.20048019207683
  0
MTEXT
  5
192
330
47
100
AcDbEntity
  8
1
 62
     7
100
AcDbMText
 10
66.59999880253571
 20
-8.90353900056971
 30
0.0
 40
3.5
 41
0.0
 71
     5
 72
     1
  1
D
  7
CONVERTER_11
 73
     1
 44
1.20048019207683
  0
MTEXT
  5
193
330
47
100
AcDbEntity
  8
1
 62
     7
100
AcDbMText
 10
66.59999880253571
 20
93.5964609994322
 30
0.0
 40
3.5
 41
0.0
 71
     5
 72
     1
  1
B
  7
CONVERTER_11
 73
     1
 44
1.20048019207683
  0
MTEXT
  5
194
330
47
100
AcDbEntity
  8
1
 62
     7
100
AcDbMText
 10
66.59999880253571
 20
146.0964609994303
 30
0.0
 40
3.5
 41
0.0
 71
     5
 72
     1
  1
A
  7
CONVERTER_11
 73
     1
 44
1.20048019207683
  0
MTEXT
  5
195
330
47
100
AcDbEntity
  8
1
 62
     7
100
AcDbMText
 10
66.59999880253571
 20
43.5964609994322
 30
0.0
 40
3.5
 41
0.0
 71
     5
 72
     1
  1
C
  7
CONVERTER_11
 73
     1
 44
1.20048019207683
  0
MTEXT
  5
196
330
47
100
AcDbEntity
  8
1
 62
     2
100
AcDbMText
 10
-99.8828204492608
 20
-18.65353900056979
 30
0.0
 40
2.0
 41
0.0
 71
     5
 72
     1
  1
General Information\P- Simplified representation\P- Document excluded from change process\P- Linear dimensions [mm]
  7
CONVERTER_11
 73
     1
 44
1.20048019207683
  0
TEXT
  5
197
330
47
100
AcDbEntity
  8
1
 62
     7
100
AcDbText
 10
-27.54480572421358
 20
-21.60353900056981
 30
0.0
 40
2.5
  1
3247967
 41
0.81
  7
CONVERTER_12
100
AcDbText
  0
MTEXT
  5
198
330
47
100
AcDbEntity
  8
1
 62
     2
100
AcDbMText
 10
-27.9448057242133
 20
-15.40353900056971
 30
0.0
 40
1.8
 41
0.0
 71
     1
 72
     1
  1
ident.-No.
  7
CONVERTER_11
 73
     1
 44
1.20048019207683
  0
MTEXT
  5
199
330
47
100
AcDbEntity
  8
1
 62
     2
100
AcDbMText
 10
56.28159052085942
 20
-6.90353900056971
 30
0.0
 40
1.8
 41
0.0
 71
     1
 72
     1
  1
scale
  7
CONVERTER_11
 73
     1
 44
1.20048019207683
  0
MTEXT
  5
19B
330
47
100
AcDbEntity
  8
1
 62
     3
100
AcDbMText
 10
59.64079466169902
 20
-13.10353900056961
 30
0.0
 40
2.5
 41
0.0
 71
     8
 72
     1
  1
1:1
  7
CONVERTER_13
 73
     1
 44
1.32052821128451
  0
TEXT
  5
19C
330
47
100
AcDbEntity
  8
1
 62
     7
100
AcDbText
 10
-27.9448057242133
 20
-13.10353900056981
 30
0.0
 40
2.5
  1
00582312
 41
0.81
  7
CONVERTER_12
100
AcDbText
  0
MTEXT
  5
19E
330
47
100
AcDbEntity
  8
1
 62
     2
100
AcDbMText
 10
-27.9448057242133
 20
-6.90353900056971
 30
0.0
 40
1.8
 41
0.0
 71
     1
 72
     1
  1
document-No. / RI
  7
CONVERTER_14
 73
     1
 44
1.32052821128451
  0
TEXT
  5
19F
330
47
100
AcDbEntity
  8
1
 62
     3
100
AcDbText
 10
-0.14480572421328
 20
-21.60353900056981
 30
0.0
 40
2.5
  1
TECDOC 2D_Productdrawing
 41
0.81
  7
CONVERTER_12
100
AcDbText
  0
MTEXT
  5
1A0
330
47
100
AcDbEntity
  8
1
 62
     2
100
AcDbMText
 10
-0.14480572421328
 20
-15.40353900056979
 30
0.0
 40
1.8
 41
0.0
 71
     1
 72
     1
  1
document-type
  7
CONVERTER_11
 73
     1
 44
1.20048019207683
  0
MTEXT
  5
1A1
330
47
100
AcDbEntity
  8
1
 62
     2
100
AcDbMText
 10
29.6815905208596
 20
-6.90353900056979
 30
0.0
 40
1.8
 41
0.0
 71
     1
 72
     1
  1
date
  7
CONVERTER_11
 73
     1
 44
1.32052821128451
  0
TEXT
  5
1A2
330
47
100
AcDbEntity
  8
1
 62
     3
100
AcDbText
 10
29.6815905208596
 20
-13.10353900056981
 30
0.0
 40
2.5
  1
13.01.2018
 41
0.81
  7
CONVERTER_12
100
AcDbText
  0
TEXT
  5
1A3
330
47
100
AcDbEntity
  8
1
 62
     7
100
AcDbText
 10
-7.91489350515749
 20
-13.10353900056981
 30
0.0
 40
2.5
  1
01
 41
0.81
  7
CONVERTER_12
100
AcDbText
  0
TEXT
  5
1A4
330
47
100
AcDbEntity
  8
1
 62
     7
100
AcDbText
 10
-10.0712580021995
 20
-13.10353900056981
 30
0.0
 40
2.5
  1
/
 41
0.9
  7
CONVERTER_11
100
AcDbText
  0
HATCH
  5
1A5
330
47
100
AcDbEntity
  8
1
  6
Continuous
 62
     2
100
AcDbHatch
 10
0.0
 20
0.0
 30
0.0
210
0.0
220
0.0
230
1.0
  2
_USER
 70
     0
 71
     1
 91
        1
 92
        1
 93
       12
 72
     1
 10
-47.7773050112522
 20
-20.75084852437911
 11
-48.9700977134186
 21
-20.75084852437911
 72
     1
 10
-48.9700977134186
 20
-20.75084852437911
 11
-48.9700977134186
 21
-19.61657641553529
 72
     1
 10
-48.9700977134186
 20
-19.61657641553529
 11
-50.01975529132608
 21
-19.61657641553529
 72
     1
 10
-50.01975529132608
 20
-19.61657641553529
 11
-50.01975529132608
 21
-20.75084852437911
 72
     1
 10
-50.01975529132608
 20
-20.75084852437911
 11
-51.21254799349268
 21
-20.75084852437911
 72
     1
 10
-51.21254799349268
 20
-20.75084852437911
 11
-51.21254799349268
 21
-17.69703900056791
 72
     1
 10
-51.21254799349268
 20
-17.69703900056791
 11
-50.01975529132608
 21
-17.69703900056791
 72
     1
 10
-50.01975529132608
 20
-17.69703900056791
 11
-50.01975529132608
 21
-18.76587233390251
 72
     1
 10
-50.01975529132608
 20
-18.76587233390251
 11
-48.9700977134186
 21
-18.76587233390251
 72
     1
 10
-48.9700977134186
 20
-18.76587233390251
 11
-48.9700977134186
 21
-17.69703900056791
 72
     1
 10
-48.9700977134186
 20
-17.69703900056791
 11
-47.7773050112522
 21
-17.69703900056791
 72
     1
 10
-47.7773050112522
 20
-17.69703900056791
 11
-47.7773050112522
 21
-20.75084852437911
 97
       12
330
111
330
112
330
FC
330
FB
330
FA
330
10E
330
F9
330
10F
330
110
330
F8
330
F7
330
F6
 75
     1
 76
     0
 52
45.0
 41
0.1
 77
     0
 78
     1
 53
45.0
 43
0.0
 44
0.0
 45
-0.0707106781186548
 46
0.0707106781186548
 79
     0
 98
        1
 10
0.0
 20
0.0
  0
HATCH
  5
1A6
330
47
100
AcDbEntity
  8
1
  6
Continuous
 62
     2
100
AcDbHatch
 10
0.0
 20
0.0
 30
0.0
210
0.0
220
0.0
230
1.0
  2
_USER
 70
     0
 71
     1
 91
        1
 92
        1
 93
       12
 72
     1
 10
-47.7773050112522
 20
-20.75084852437911
 11
-48.9700977134186
 21
-20.75084852437911
 72
     1
 10
-48.9700977134186
 20
-20.75084852437911
 11
-48.9700977134186
 21
-19.61657641553529
 72
     1
 10
-48.9700977134186
 20
-19.61657641553529
 11
-50.01975529132608
 21
-19.61657641553529
 72
     1
 10
-50.01975529132608
 20
-19.61657641553529
 11
-50.01975529132608
 21
-20.75084852437911
 72
     1
 10
-50.01975529132608
 20
-20.75084852437911
 11
-51.21254799349268
 21
-20.75084852437911
 72
     1
 10
-51.21254799349268
 20
-20.75084852437911
 11
-51.21254799349268
 21
-17.69703900056791
 72
     1
 10
-51.21254799349268
 20
-17.69703900056791
 11
-50.01975529132608
 21
-17.69703900056791
 72
     1
 10
-50.01975529132608
 20
-17.69703900056791
 11
-50.01975529132608
 21
-18.76587233390251
 72
     1
 10
-50.01975529132608
 20
-18.76587233390251
 11
-48.9700977134186
 21
-18.76587233390251
 72
     1
 10
-48.9700977134186
 20
-18.76587233390251
 11
-48.9700977134186
 21
-17.69703900056791
 72
     1
 10
-48.9700977134186
 20
-17.69703900056791
 11
-47.7773050112522
 21
-17.69703900056791
 72
     1
 10
-47.7773050112522
 20
-17.69703900056791
 11
-47.7773050112522
 21
-20.75084852437911
 97
       12
330
111
330
112
330
FC
330
FB
330
FA
330
10E
330
F9
330
10F
330
110
330
F8
330
F7
330
F6
 75
     1
 76
     0
 52
45.0
 41
0.1
 77
     0
 78
     1
 53
45.0
 43
0.0
 44
0.0
 45
-0.0707106781186548
 46
0.0707106781186548
 79
     0
 98
        1
 10
0.0
 20
0.0
  0
HATCH
  5
1A7
330
47
100
AcDbEntity
  8
1
  6
Continuous
 62
     2
100
AcDbHatch
 10
0.0
 20
0.0
 30
0.0
210
0.0
220
0.0
230
1.0
  2
_USER
 70
     0
 71
     1
 91
        1
 92
        1
 93
       10
 72
     1
 10
-45.5350056620639
 20
-22.36500498694741
 11
-46.77551007231679
 21
-21.05622947674232
 72
     1
 10
-46.77551007231679
 20
-21.05622947674232
 11
-47.96830277448439
 21
-21.05622947674232
 72
     1
 10
-47.96830277448439
 20
-21.05622947674232
 11
-47.96830277448439
 21
-24.1100390005534
 72
     1
 10
-47.96830277448439
 20
-24.1100390005534
 11
-46.77551007231679
 21
-24.1100390005534
 72
     1
 10
-46.77551007231679
 20
-24.1100390005534
 11
-46.77551007231679
 21
-22.80126349034882
 72
     1
 10
-46.77551007231679
 20
-22.80126349034882
 11
-45.5350056620639
 21
-24.1100390005534
 72
     1
 10
-45.5350056620639
 20
-24.1100390005534
 11
-44.3422129598975
 21
-24.1100390005534
 72
     1
 10
-44.3422129598975
 20
-24.1100390005534
 11
-44.3422129598975
 21
-21.05622947674232
 72
     1
 10
-44.3422129598975
 20
-21.05622947674232
 11
-45.5350056620639
 21
-21.05622947674232
 72
     1
 10
-45.5350056620639
 20
-21.05622947674232
 11
-45.5350056620639
 21
-22.36500498694741
 97
       10
330
11F
330
EF
330
EE
330
F1
330
11A
330
11B
330
F0
330
11C
330
11D
330
11E
 75
     1
 76
     0
 52
45.0
 41
0.1
 77
     0
 78
     1
 53
45.0
 43
0.0
 44
0.0
 45
-0.0707106781186548
 46
0.0707106781186548
 79
     0
 98
        1
 10
0.0
 20
0.0
  0
HATCH
  5
1A8
330
47
100
AcDbEntity
  8
1
  6
Continuous
 62
     2
100
AcDbHatch
 10
0.0
 20
0.0
 30
0.0
210
0.0
220
0.0
230
1.0
  2
_USER
 70
     0
 71
     1
 91
        1
 92
        1
 93
       10
 72
     1
 10
-45.5350056620639
 20
-22.36500498694741
 11
-46.77551007231679
 21
-21.05622947674232
 72
     1
 10
-46.77551007231679
 20
-21.05622947674232
 11
-47.96830277448439
 21
-21.05622947674232
 72
     1
 10
-47.96830277448439
 20
-21.05622947674232
 11
-47.96830277448439
 21
-24.1100390005534
 72
     1
 10
-47.96830277448439
 20
-24.1100390005534
 11
-46.77551007231679
 21
-24.1100390005534
 72
     1
 10
-46.77551007231679
 20
-24.1100390005534
 11
-46.77551007231679
 21
-22.80126349034882
 72
     1
 10
-46.77551007231679
 20
-22.80126349034882
 11
-45.5350056620639
 21
-24.1100390005534
 72
     1
 10
-45.5350056620639
 20
-24.1100390005534
 11
-44.3422129598975
 21
-24.1100390005534
 72
     1
 10
-44.3422129598975
 20
-24.1100390005534
 11
-44.3422129598975
 21
-21.05622947674232
 72
     1
 10
-44.3422129598975
 20
-21.05622947674232
 11
-45.5350056620639
 21
-21.05622947674232
 72
     1
 10
-45.5350056620639
 20
-21.05622947674232
 11
-45.5350056620639
 21
-22.36500498694741
 97
       10
330
11F
330
EF
330
EE
330
F1
330
11A
330
11B
330
F0
330
11C
330
11D
330
11E
 75
     1
 76
     0
 52
45.0
 41
0.1
 77
     0
 78
     1
 53
45.0
 43
0.0
 44
0.0
 45
-0.0707106781186548
 46
0.0707106781186548
 79
     0
 98
        1
 10
0.0
 20
0.0
  0
HATCH
  5
1A9
330
47
100
AcDbEntity
  8
1
  6
Continuous
 62
     2
100
AcDbHatch
 10
0.0
 20
0.0
 30
0.0
210
0.0
220
0.0
230
1.0
  2
_USER
 70
     0
 71
     1
 91
        1
 92
        1
 93
       10
 72
     1
 10
-40.28656684164417
 20
-19.00581451077309
 11
-41.52707125189818
 21
-17.69703900056791
 72
     1
 10
-41.52707125189818
 20
-17.69703900056791
 11
-42.71986395406469
 21
-17.69703900056791
 72
     1
 10
-42.71986395406469
 20
-17.69703900056791
 11
-42.71986395406469
 21
-20.75084852437911
 72
     1
 10
-42.71986395406469
 20
-20.75084852437911
 11
-41.52707125189818
 21
-20.75084852437911
 72
     1
 10
-41.52707125189818
 20
-20.75084852437911
 11
-41.52707125189818
 21
-19.44207301417441
 72
     1
 10
-41.52707125189818
 20
-19.44207301417441
 11
-40.28656684164417
 21
-20.75084852437911
 72
     1
 10
-40.28656684164417
 20
-20.75084852437911
 11
-39.09377413947757
 21
-20.75084852437911
 72
     1
 10
-39.09377413947757
 20
-20.75084852437911
 11
-39.09377413947757
 21
-17.69703900056791
 72
     1
 10
-39.09377413947757
 20
-17.69703900056791
 11
-40.28656684164417
 21
-17.69703900056791
 72
     1
 10
-40.28656684164417
 20
-17.69703900056791
 11
-40.28656684164417
 21
-19.00581451077309
 97
       10
330
124
330
EC
330
EB
330
125
330
EA
330
120
330
121
330
122
330
123
330
ED
 75
     1
 76
     0
 52
45.0
 41
0.1
 77
     0
 78
     1
 53
45.0
 43
0.0
 44
0.0
 45
-0.0707106781186548
 46
0.0707106781186548
 79
     0
 98
        1
 10
0.0
 20
0.0
  0
HATCH
  5
1AA
330
47
100
AcDbEntity
  8
1
  6
Continuous
 62
     2
100
AcDbHatch
 10
0.0
 20
0.0
 30
0.0
210
0.0
220
0.0
230
1.0
  2
_USER
 70
     0
 71
     1
 91
        1
 92
        1
 93
       10
 72
     1
 10
-40.28656684164417
 20
-19.00581451077309
 11
-41.52707125189818
 21
-17.69703900056791
 72
     1
 10
-41.52707125189818
 20
-17.69703900056791
 11
-42.71986395406469
 21
-17.69703900056791
 72
     1
 10
-42.71986395406469
 20
-17.69703900056791
 11
-42.71986395406469
 21
-20.75084852437911
 72
     1
 10
-42.71986395406469
 20
-20.75084852437911
 11
-41.52707125189818
 21
-20.75084852437911
 72
     1
 10
-41.52707125189818
 20
-20.75084852437911
 11
-41.52707125189818
 21
-19.44207301417441
 72
     1
 10
-41.52707125189818
 20
-19.44207301417441
 11
-40.28656684164417
 21
-20.75084852437911
 72
     1
 10
-40.28656684164417
 20
-20.75084852437911
 11
-39.09377413947757
 21
-20.75084852437911
 72
     1
 10
-39.09377413947757
 20
-20.75084852437911
 11
-39.09377413947757
 21
-17.69703900056791
 72
     1
 10
-39.09377413947757
 20
-17.69703900056791
 11
-40.28656684164417
 21
-17.69703900056791
 72
     1
 10
-40.28656684164417
 20
-17.69703900056791
 11
-40.28656684164417
 21
-19.00581451077309
 97
       10
330
124
330
EC
330
EB
330
125
330
EA
330
120
330
121
330
122
330
123
330
ED
 75
     1
 76
     0
 52
45.0
 41
0.1
 77
     0
 78
     1
 53
45.0
 43
0.0
 44
0.0
 45
-0.0707106781186548
 46
0.0707106781186548
 79
     0
 98
        1
 10
0.0
 20
0.0
  0
HATCH
  5
1AB
330
47
100
AcDbEntity
  8
1
  6
Continuous
 62
     2
100
AcDbHatch
 10
0.0
 20
0.0
 30
0.0
210
0.0
220
0.0
230
1.0
  2
_USER
 70
     0
 71
     1
 91
        1
 92
        1
 93
        8
 72
     1
 10
-41.38408705852368
 20
-21.05622947674232
 11
-44.1990778356373
 21
-21.05622947674232
 72
     1
 10
-44.1990778356373
 20
-21.05622947674232
 11
-44.1990778356373
 21
-21.84149478286591
 72
     1
 10
-44.1990778356373
 20
-21.84149478286591
 11
-43.38797879816269
 21
-21.84149478286591
 72
     1
 10
-43.38797879816269
 20
-21.84149478286591
 11
-43.38797879816269
 21
-24.1100390005534
 72
     1
 10
-43.38797879816269
 20
-24.1100390005534
 11
-42.19518609599618
 21
-24.1100390005534
 72
     1
 10
-42.19518609599618
 20
-24.1100390005534
 11
-42.19518609599618
 21
-21.84149478286591
 72
     1
 10
-42.19518609599618
 20
-21.84149478286591
 11
-41.38408705852368
 21
-21.84149478286591
 72
     1
 10
-41.38408705852368
 20
-21.84149478286591
 11
-41.38408705852368
 21
-21.05622947674232
 97
        8
330
E6
330
126
330
E5
330
127
330
128
330
E9
330
E8
330
E7
 75
     1
 76
     0
 52
45.0
 41
0.1
 77
     0
 78
     1
 53
45.0
 43
0.0
 44
0.0
 45
-0.0707106781186548
 46
0.0707106781186548
 79
     0
 98
        1
 10
0.0
 20
0.0
  0
HATCH
  5
1AC
330
47
100
AcDbEntity
  8
1
  6
Continuous
 62
     2
100
AcDbHatch
 10
0.0
 20
0.0
 30
0.0
210
0.0
220
0.0
230
1.0
  2
_USER
 70
     0
 71
     1
 91
        1
 92
        1
 93
        8
 72
     1
 10
-41.38408705852368
 20
-21.05622947674232
 11
-44.1990778356373
 21
-21.05622947674232
 72
     1
 10
-44.1990778356373
 20
-21.05622947674232
 11
-44.1990778356373
 21
-21.84149478286591
 72
     1
 10
-44.1990778356373
 20
-21.84149478286591
 11
-43.38797879816269
 21
-21.84149478286591
 72
     1
 10
-43.38797879816269
 20
-21.84149478286591
 11
-43.38797879816269
 21
-24.1100390005534
 72
     1
 10
-43.38797879816269
 20
-24.1100390005534
 11
-42.19518609599618
 21
-24.1100390005534
 72
     1
 10
-42.19518609599618
 20
-24.1100390005534
 11
-42.19518609599618
 21
-21.84149478286591
 72
     1
 10
-42.19518609599618
 20
-21.84149478286591
 11
-41.38408705852368
 21
-21.84149478286591
 72
     1
 10
-41.38408705852368
 20
-21.84149478286591
 11
-41.38408705852368
 21
-21.05622947674232
 97
        8
330
E6
330
126
330
E5
330
127
330
128
330
E9
330
E8
330
E7
 75
     1
 76
     0
 52
45.0
 41
0.1
 77
     0
 78
     1
 53
45.0
 43
0.0
 44
0.0
 45
-0.0707106781186548
 46
0.0707106781186548
 79
     0
 98
        1
 10
0.0
 20
0.0
  0
HATCH
  5
1AD
330
47
100
AcDbEntity
  8
1
  6
Continuous
 62
     2
100
AcDbHatch
 10
0.0
 20
0.0
 30
0.0
210
0.0
220
0.0
230
1.0
  2
_USER
 70
     0
 71
     1
 91
        2
 92
        1
 93
        8
 72
     1
 10
-39.24565960257669
 20
-24.1100390005534
 11
-39.45713965605248
 21
-23.56907845633552
 72
     1
 10
-39.45713965605248
 20
-23.56907845633552
 11
-40.58958123272629
 21
-23.56907845633552
 72
     1
 10
-40.58958123272629
 20
-23.56907845633552
 11
-40.8010612862021
 21
-24.1100390005534
 72
     1
 10
-40.8010612862021
 20
-24.1100390005534
 11
-42.04156569645508
 21
-24.1100390005534
 72
     1
 10
-42.04156569645508
 20
-24.1100390005534
 11
-40.64361264951577
 21
-21.05622947674232
 72
     1
 10
-40.64361264951577
 20
-21.05622947674232
 11
-39.40310823926308
 21
-21.05622947674232
 72
     1
 10
-39.40310823926308
 20
-21.05622947674232
 11
-38.00515519232278
 21
-24.1100390005534
 72
     1
 10
-38.00515519232278
 20
-24.1100390005534
 11
-39.24565960257669
 21
-24.1100390005534
 97
        8
330
12A
330
12B
330
E2
330
12C
330
E1
330
E4
330
129
330
E3
 92
       16
 93
        3
 72
     1
 10
-40.32352568158129
 20
-22.88851519102892
 11
-40.02336044438889
 21
-22.12070022504221
 72
     1
 10
-40.02336044438889
 20
-22.12070022504221
 11
-39.72319520719879
 21
-22.88851519102892
 72
     1
 10
-39.72319520719879
 20
-22.88851519102892
 11
-40.32352568158129
 21
-22.88851519102892
 97
        3
330
E0
330
12E
330
12D
 75
     1
 76
     0
 52
45.0
 41
0.1
 77
     0
 78
     1
 53
45.0
 43
0.0
 44
0.0
 45
-0.0707106781186548
 46
0.0707106781186548
 79
     0
 98
        1
 10
0.0
 20
0.0
  0
HATCH
  5
1AE
330
47
100
AcDbEntity
  8
1
  6
Continuous
 62
     2
100
AcDbHatch
 10
0.0
 20
0.0
 30
0.0
210
0.0
220
0.0
230
1.0
  2
_USER
 70
     0
 71
     1
 91
        2
 92
        1
 93
        8
 72
     1
 10
-39.24565960257669
 20
-24.1100390005534
 11
-39.45713965605248
 21
-23.56907845633552
 72
     1
 10
-39.45713965605248
 20
-23.56907845633552
 11
-40.58958123272629
 21
-23.56907845633552
 72
     1
 10
-40.58958123272629
 20
-23.56907845633552
 11
-40.8010612862021
 21
-24.1100390005534
 72
     1
 10
-40.8010612862021
 20
-24.1100390005534
 11
-42.04156569645508
 21
-24.1100390005534
 72
     1
 10
-42.04156569645508
 20
-24.1100390005534
 11
-40.64361264951577
 21
-21.05622947674232
 72
     1
 10
-40.64361264951577
 20
-21.05622947674232
 11
-39.40310823926308
 21
-21.05622947674232
 72
     1
 10
-39.40310823926308
 20
-21.05622947674232
 11
-38.00515519232278
 21
-24.1100390005534
 72
     1
 10
-38.00515519232278
 20
-24.1100390005534
 11
-39.24565960257669
 21
-24.1100390005534
 97
        8
330
12A
330
12B
330
E2
330
12C
330
E1
330
E4
330
129
330
E3
 92
       16
 93
        3
 72
     1
 10
-40.32352568158129
 20
-22.88851519102892
 11
-40.02336044438889
 21
-22.12070022504221
 72
     1
 10
-40.02336044438889
 20
-22.12070022504221
 11
-39.72319520719879
 21
-22.88851519102892
 72
     1
 10
-39.72319520719879
 20
-22.88851519102892
 11
-40.32352568158129
 21
-22.88851519102892
 97
        3
330
E0
330
12E
330
12D
 75
     1
 76
     0
 52
45.0
 41
0.1
 77
     0
 78
     1
 53
45.0
 43
0.0
 44
0.0
 45
-0.0707106781186548
 46
0.0707106781186548
 79
     0
 98
        1
 10
0.0
 20
0.0
  0
HATCH
  5
1AF
330
47
100
AcDbEntity
  8
1
  6
Continuous
 62
     2
100
AcDbHatch
 10
0.0
 20
0.0
 30
0.0
210
0.0
220
0.0
230
1.0
  2
_USER
 70
     0
 71
     1
 91
        1
 92
        1
 93
        4
 72
     1
 10
-37.61471118879078
 20
-20.75084852437911
 11
-38.85521559904368
 21
-20.75084852437911
 72
     1
 10
-38.85521559904368
 20
-20.75084852437911
 11
-38.85521559904368
 21
-17.69703900056791
 72
     1
 10
-38.85521559904368
 20
-17.69703900056791
 11
-37.61471118879078
 21
-17.69703900056791
 72
     1
 10
-37.61471118879078
 20
-17.69703900056791
 11
-37.61471118879078
 21
-20.75084852437911
 97
        4
330
DD
330
DF
330
12F
330
DE
 75
     1
 76
     0
 52
45.0
 41
0.1
 77
     0
 78
     1
 53
45.0
 43
0.0
 44
0.0
 45
-0.0707106781186548
 46
0.0707106781186548
 79
     0
 98
        1
 10
0.0
 20
0.0
  0
HATCH
  5
1B0
330
47
100
AcDbEntity
  8
1
  6
Continuous
 62
     2
100
AcDbHatch
 10
0.0
 20
0.0
 30
0.0
210
0.0
220
0.0
230
1.0
  2
_USER
 70
     0
 71
     1
 91
        1
 92
        1
 93
        4
 72
     1
 10
-37.61471118879078
 20
-20.75084852437911
 11
-38.85521559904368
 21
-20.75084852437911
 72
     1
 10
-38.85521559904368
 20
-20.75084852437911
 11
-38.85521559904368
 21
-17.69703900056791
 72
     1
 10
-38.85521559904368
 20
-17.69703900056791
 11
-37.61471118879078
 21
-17.69703900056791
 72
     1
 10
-37.61471118879078
 20
-17.69703900056791
 11
-37.61471118879078
 21
-20.75084852437911
 97
        4
330
DD
330
DF
330
12F
330
DE
 75
     1
 76
     0
 52
45.0
 41
0.1
 77
     0
 78
     1
 53
45.0
 43
0.0
 44
0.0
 45
-0.0707106781186548
 46
0.0707106781186548
 79
     0
 98
        1
 10
0.0
 20
0.0
  0
HATCH
  5
1B1
330
47
100
AcDbEntity
  8
1
  6
Continuous
 62
     2
100
AcDbHatch
 10
0.0
 20
0.0
 30
0.0
210
0.0
220
0.0
230
1.0
  2
_USER
 70
     0
 71
     1
 91
        1
 92
        1
 93
       12
 72
     1
 10
-33.39222502311998
 20
-17.69703900056791
 11
-34.69475465388649
 21
-19.16998953060411
 72
     1
 10
-34.69475465388649
 20
-19.16998953060411
 11
-33.29680160694619
 21
-20.75084852437911
 72
     1
 10
-33.29680160694619
 20
-20.75084852437911
 11
-34.69952582469449
 21
-20.75084852437911
 72
     1
 10
-34.69952582469449
 20
-20.75084852437911
 11
-35.39611676275999
 21
-19.96311673908539
 72
     1
 10
-35.39611676275999
 20
-19.96311673908539
 11
-36.09270770082568
 21
-20.75084852437911
 72
     1
 10
-36.09270770082568
 20
-20.75084852437911
 11
-37.4954319185739
 21
-20.75084852437911
 72
     1
 10
-37.4954319185739
 20
-20.75084852437911
 11
-36.0974788716336
 21
-19.16998953060411
 72
     1
 10
-36.0974788716336
 20
-19.16998953060411
 11
-37.40000850240108
 21
-17.69703900056791
 72
     1
 10
-37.40000850240108
 20
-17.69703900056791
 11
-35.99728428465178
 21
-17.69703900056791
 72
     1
 10
-35.99728428465178
 20
-17.69703900056791
 11
-35.39611676275999
 21
-18.3768623221234
 72
     1
 10
-35.39611676275999
 20
-18.3768623221234
 11
-34.7949492408672
 21
-17.69703900056791
 72
     1
 10
-34.7949492408672
 20
-17.69703900056791
 11
-33.39222502311998
 21
-17.69703900056791
 97
       12
330
D8
330
D7
330
D6
330
133
330
134
330
130
330
131
330
DC
330
DB
330
DA
330
D9
330
132
 75
     1
 76
     0
 52
45.0
 41
0.1
 77
     0
 78
     1
 53
45.0
 43
0.0
 44
0.0
 45
-0.0707106781186548
 46
0.0707106781186548
 79
     0
 98
        1
 10
0.0
 20
0.0
  0
HATCH
  5
1B2
330
47
100
AcDbEntity
  8
1
  6
Continuous
 62
     2
100
AcDbHatch
 10
0.0
 20
0.0
 30
0.0
210
0.0
220
0.0
230
1.0
  2
_USER
 70
     0
 71
     1
 91
        1
 92
        1
 93
       12
 72
     1
 10
-33.39222502311998
 20
-17.69703900056791
 11
-34.69475465388649
 21
-19.16998953060411
 72
     1
 10
-34.69475465388649
 20
-19.16998953060411
 11
-33.29680160694619
 21
-20.75084852437911
 72
     1
 10
-33.29680160694619
 20
-20.75084852437911
 11
-34.69952582469449
 21
-20.75084852437911
 72
     1
 10
-34.69952582469449
 20
-20.75084852437911
 11
-35.39611676275999
 21
-19.96311673908539
 72
     1
 10
-35.39611676275999
 20
-19.96311673908539
 11
-36.09270770082568
 21
-20.75084852437911
 72
     1
 10
-36.09270770082568
 20
-20.75084852437911
 11
-37.4954319185739
 21
-20.75084852437911
 72
     1
 10
-37.4954319185739
 20
-20.75084852437911
 11
-36.0974788716336
 21
-19.16998953060411
 72
     1
 10
-36.0974788716336
 20
-19.16998953060411
 11
-37.40000850240108
 21
-17.69703900056791
 72
     1
 10
-37.40000850240108
 20
-17.69703900056791
 11
-35.99728428465178
 21
-17.69703900056791
 72
     1
 10
-35.99728428465178
 20
-17.69703900056791
 11
-35.39611676275999
 21
-18.3768623221234
 72
     1
 10
-35.39611676275999
 20
-18.3768623221234
 11
-34.7949492408672
 21
-17.69703900056791
 72
     1
 10
-34.7949492408672
 20
-17.69703900056791
 11
-33.39222502311998
 21
-17.69703900056791
 97
       12
330
D8
330
D7
330
D6
330
133
330
134
330
130
330
131
330
DC
330
DB
330
DA
330
D9
330
132
 75
     1
 76
     0
 52
45.0
 41
0.1
 77
     0
 78
     1
 53
45.0
 43
0.0
 44
0.0
 45
-0.0707106781186548
 46
0.0707106781186548
 79
     0
 98
        1
 10
0.0
 20
0.0
  0
HATCH
  5
1B3
330
47
100
AcDbEntity
  8
1
  6
Continuous
 62
     2
100
AcDbHatch
 10
0.0
 20
0.0
 30
0.0
210
0.0
220
0.0
230
1.0
  2
_USER
 70
     0
 71
     1
 91
        2
 92
        1
 93
        6
 72
     1
 10
-52.40996043726599
 20
-19.8077702832353
 11
-53.16872802504628
 21
-19.8077702832353
 72
     1
 10
-53.16872802504628
 20
-19.8077702832353
 11
-53.16872802504628
 21
-20.75084852437911
 72
     1
 10
-53.16872802504628
 20
-20.75084852437911
 11
-54.4092324353004
 21
-20.75084852437911
 72
     1
 10
-54.4092324353004
 20
-20.75084852437911
 11
-54.4092324353004
 21
-17.69703900056791
 72
     1
 10
-54.4092324353004
 20
-17.69703900056791
 11
-52.40996043726599
 21
-17.69703900056791
 72
     2
 10
-52.40996043726599
 20
-18.75240464190159
 40
1.055365641333708
 50
270.0
 51
450.0
 73
     0
 97
        6
330
100
330
FF
330
10C
330
10B
330
101
330
151
 92
       16
 93
        4
 72
     2
 10
-52.85143296350438
 20
-18.7130086706791
 40
0.3528638246711218
 50
270.0
 51
450.0
 73
     1
 72
     1
 10
-52.85143296350438
 20
-18.36014484600801
 11
-53.16872802504628
 21
-18.36014484600801
 72
     1
 10
-53.16872802504628
 20
-18.36014484600801
 11
-53.16872802504628
 21
-19.06587249535022
 72
     1
 10
-53.16872802504628
 20
-19.06587249535022
 11
-52.85143296350438
 21
-19.06587249535022
 97
        4
330
165
330
FD
330
10D
330
FE
 75
     1
 76
     0
 52
45.0
 41
0.1
 77
     0
 78
     1
 53
45.0
 43
0.0
 44
0.0
 45
-0.0707106781186548
 46
0.0707106781186548
 79
     0
 98
        1
 10
0.0
 20
0.0
  0
HATCH
  5
1B4
330
47
100
AcDbEntity
  8
1
  6
Continuous
 62
     2
100
AcDbHatch
 10
0.0
 20
0.0
 30
0.0
210
0.0
220
0.0
230
1.0
  2
_USER
 70
     0
 71
     1
 91
        2
 92
        1
 93
        6
 72
     1
 10
-52.40996043726599
 20
-19.8077702832353
 11
-53.16872802504628
 21
-19.8077702832353
 72
     1
 10
-53.16872802504628
 20
-19.8077702832353
 11
-53.16872802504628
 21
-20.75084852437911
 72
     1
 10
-53.16872802504628
 20
-20.75084852437911
 11
-54.4092324353004
 21
-20.75084852437911
 72
     1
 10
-54.4092324353004
 20
-20.75084852437911
 11
-54.4092324353004
 21
-17.69703900056791
 72
     1
 10
-54.4092324353004
 20
-17.69703900056791
 11
-52.40996043726599
 21
-17.69703900056791
 72
     2
 10
-52.40996043726599
 20
-18.75240464190159
 40
1.055365641333708
 50
270.0
 51
450.0
 73
     0
 97
        6
330
100
330
FF
330
10C
330
10B
330
101
330
151
 92
       16
 93
        4
 72
     2
 10
-52.85143296350438
 20
-18.7130086706791
 40
0.3528638246711218
 50
270.0
 51
450.0
 73
     1
 72
     1
 10
-52.85143296350438
 20
-18.36014484600801
 11
-53.16872802504628
 21
-18.36014484600801
 72
     1
 10
-53.16872802504628
 20
-18.36014484600801
 11
-53.16872802504628
 21
-19.06587249535022
 72
     1
 10
-53.16872802504628
 20
-19.06587249535022
 11
-52.85143296350438
 21
-19.06587249535022
 97
        4
330
165
330
FD
330
10D
330
FE
 75
     1
 76
     0
 52
45.0
 41
0.1
 77
     0
 78
     1
 53
45.0
 43
0.0
 44
0.0
 45
-0.0707106781186548
 46
0.0707106781186548
 79
     0
 98
        1
 10
0.0
 20
0.0
  0
HATCH
  5
1B5
330
47
100
AcDbEntity
  8
1
  6
Continuous
 62
     2
100
AcDbHatch
 10
0.0
 20
0.0
 30
0.0
210
0.0
220
0.0
230
1.0
  2
_USER
 70
     0
 71
     1
 91
        2
 92
        1
 93
        4
 72
     2
 10
-49.85341768890689
 20
-23.12170924895091
 40
2.065479772208568
 50
62.45185182430637
 51
117.5481481756666
 73
     1
 72
     2
 10
-50.13435758074019
 20
-22.58313423864811
 40
1.458034083651484
 50
117.5481481756626
 51
242.4518518243375
 73
     1
 72
     2
 10
-49.85341768890689
 20
-22.04455922834481
 40
2.065479772208509
 50
242.45185182434
 51
297.5481481756871
 73
     1
 72
     2
 10
-49.57247779707359
 20
-22.58313423864811
 40
1.458034083652003
 50
297.548148175701
 51
422.4518518242988
 73
     1
 97
        4
330
15D
330
15C
330
15E
330
15B
 92
       16
 93
        4
 72
     2
 10
-50.0531577252533
 20
-22.58313423864811
 40
0.7717997786796947
 50
321.8795802028417
 51
398.120419797153
 73
     1
 72
     2
 10
-49.85341768890689
 20
-22.42640306052761
 40
0.5179085730133021
 50
38.12041979714734
 51
141.8795802028585
 73
     1
 72
     2
 10
-49.65367765256079
 20
-22.58313423864811
 40
0.771799778679461
 50
141.8795802028365
 51
218.1204197971687
 73
     1
 72
     2
 10
-49.85341768890689
 20
-22.73986541676811
 40
0.5179085730137332
 50
218.1204197971929
 51
321.8795802028013
 73
     1
 97
        4
330
179
330
176
330
177
330
178
 75
     1
 76
     0
 52
45.0
 41
0.1
 77
     0
 78
     1
 53
45.0
 43
0.0
 44
0.0
 45
-0.0707106781186548
 46
0.0707106781186548
 79
     0
 98
        1
 10
0.0
 20
0.0
  0
HATCH
  5
1B6
330
47
100
AcDbEntity
  8
1
  6
Continuous
 62
     2
100
AcDbHatch
 10
0.0
 20
0.0
 30
0.0
210
0.0
220
0.0
230
1.0
  2
_USER
 70
     0
 71
     1
 91
        2
 92
        1
 93
        4
 72
     2
 10
-49.85341768890689
 20
-23.12170924895091
 40
2.065479772208568
 50
62.45185182430637
 51
117.5481481756666
 73
     1
 72
     2
 10
-50.13435758074019
 20
-22.58313423864811
 40
1.458034083651484
 50
117.5481481756626
 51
242.4518518243375
 73
     1
 72
     2
 10
-49.85341768890689
 20
-22.04455922834481
 40
2.065479772208509
 50
242.45185182434
 51
297.5481481756871
 73
     1
 72
     2
 10
-49.57247779707359
 20
-22.58313423864811
 40
1.458034083652003
 50
297.548148175701
 51
422.4518518242988
 73
     1
 97
        4
330
15D
330
15C
330
15E
330
15B
 92
       16
 93
        4
 72
     2
 10
-50.0531577252533
 20
-22.58313423864811
 40
0.7717997786796947
 50
321.8795802028417
 51
398.120419797153
 73
     1
 72
     2
 10
-49.85341768890689
 20
-22.42640306052761
 40
0.5179085730133021
 50
38.12041979714734
 51
141.8795802028585
 73
     1
 72
     2
 10
-49.65367765256079
 20
-22.58313423864811
 40
0.771799778679461
 50
141.8795802028365
 51
218.1204197971687
 73
     1
 72
     2
 10
-49.85341768890689
 20
-22.73986541676811
 40
0.5179085730137332
 50
218.1204197971929
 51
321.8795802028013
 73
     1
 97
        4
330
179
330
176
330
177
330
178
 75
     1
 76
     0
 52
45.0
 41
0.1
 77
     0
 78
     1
 53
45.0
 43
0.0
 44
0.0
 45
-0.0707106781186548
 46
0.0707106781186548
 79
     0
 98
        1
 10
0.0
 20
0.0
  0
HATCH
  5
1B7
330
47
100
AcDbEntity
  8
1
  6
Continuous
 62
     2
100
AcDbHatch
 10
0.0
 20
0.0
 30
0.0
210
0.0
220
0.0
230
1.0
  2
_USER
 70
     0
 71
     1
 91
        2
 92
        1
 93
       12
 72
     1
 10
-42.9584224944976
 20
-18.39505260601089
 11
-44.29435032092528
 21
-18.39505260601089
 72
     1
 10
-44.29435032092528
 20
-18.39505260601089
 11
-44.29435032092528
 21
-18.8749369597526
 72
     1
 10
-44.29435032092528
 20
-18.8749369597526
 11
-42.9584224944976
 21
-18.8749369597526
 72
     1
 10
-42.9584224944976
 20
-18.8749369597526
 11
-42.9584224944976
 21
-19.5729505651949
 72
     1
 10
-42.9584224944976
 20
-19.5729505651949
 11
-44.29435032092528
 21
-19.5729505651949
 72
     1
 10
-44.29435032092528
 20
-19.5729505651949
 11
-44.29435032092528
 21
-20.05283491893661
 72
     1
 10
-44.29435032092528
 20
-20.05283491893661
 11
-42.9584224944976
 21
-20.05283491893661
 72
     1
 10
-42.9584224944976
 20
-20.05283491893661
 11
-42.9584224944976
 21
-20.75084852437911
 72
     1
 10
-42.9584224944976
 20
-20.75084852437911
 11
-46.10874221827859
 21
-20.75084852437911
 72
     2
 10
-46.10874221827859
 20
-19.2239437624738
 40
1.526904761905893
 50
90.0
 51
270.0
 73
     0
 72
     1
 10
-46.10874221827859
 20
-17.69703900056791
 11
-42.9584224944976
 21
-17.69703900056791
 72
     1
 10
-42.9584224944976
 20
-17.69703900056791
 11
-42.9584224944976
 21
-18.39505260601089
 97
       12
330
114
330
166
330
115
330
116
330
117
330
118
330
F5
330
F4
330
F3
330
F2
330
119
330
113
 92
       16
 93
        4
 72
     2
 10
-45.89247020811339
 20
-19.06721258435331
 40
0.5179085730135166
 50
38.12041979714321
 51
141.8795802028505
 73
     1
 72
     2
 10
-45.6927301717671
 20
-19.2239437624738
 40
0.7717997786796745
 50
141.8795802028402
 51
218.120419797156
 73
     1
 72
     2
 10
-45.89247020811339
 20
-19.38067494059422
 40
0.5179085730134505
 50
218.1204197971504
 51
321.8795802028558
 73
     1
 72
     2
 10
-46.09221024445958
 20
-19.2239437624738
 40
0.7717997786796351
 50
321.879580202844
 51
398.1204197971597
 73
     1
 97
        4
330
160
330
15F
330
15A
330
159
 75
     1
 76
     0
 52
45.0
 41
0.1
 77
     0
 78
     1
 53
45.0
 43
0.0
 44
0.0
 45
-0.0707106781186548
 46
0.0707106781186548
 79
     0
 98
        1
 10
0.0
 20
0.0
  0
HATCH
  5
1B8
330
47
100
AcDbEntity
  8
1
  6
Continuous
 62
     2
100
AcDbHatch
 10
0.0
 20
0.0
 30
0.0
210
0.0
220
0.0
230
1.0
  2
_USER
 70
     0
 71
     1
 91
        2
 92
        1
 93
       12
 72
     1
 10
-42.9584224944976
 20
-18.39505260601089
 11
-44.29435032092528
 21
-18.39505260601089
 72
     1
 10
-44.29435032092528
 20
-18.39505260601089
 11
-44.29435032092528
 21
-18.8749369597526
 72
     1
 10
-44.29435032092528
 20
-18.8749369597526
 11
-42.9584224944976
 21
-18.8749369597526
 72
     1
 10
-42.9584224944976
 20
-18.8749369597526
 11
-42.9584224944976
 21
-19.5729505651949
 72
     1
 10
-42.9584224944976
 20
-19.5729505651949
 11
-44.29435032092528
 21
-19.5729505651949
 72
     1
 10
-44.29435032092528
 20
-19.5729505651949
 11
-44.29435032092528
 21
-20.05283491893661
 72
     1
 10
-44.29435032092528
 20
-20.05283491893661
 11
-42.9584224944976
 21
-20.05283491893661
 72
     1
 10
-42.9584224944976
 20
-20.05283491893661
 11
-42.9584224944976
 21
-20.75084852437911
 72
     1
 10
-42.9584224944976
 20
-20.75084852437911
 11
-46.10874221827859
 21
-20.75084852437911
 72
     2
 10
-46.10874221827859
 20
-19.2239437624738
 40
1.526904761905893
 50
90.0
 51
270.0
 73
     0
 72
     1
 10
-46.10874221827859
 20
-17.69703900056791
 11
-42.9584224944976
 21
-17.69703900056791
 72
     1
 10
-42.9584224944976
 20
-17.69703900056791
 11
-42.9584224944976
 21
-18.39505260601089
 97
       12
330
114
330
166
330
115
330
116
330
117
330
118
330
F5
330
F4
330
F3
330
F2
330
119
330
113
 92
       16
 93
        4
 72
     2
 10
-45.89247020811339
 20
-19.06721258435331
 40
0.5179085730135166
 50
38.12041979714321
 51
141.8795802028505
 73
     1
 72
     2
 10
-45.6927301717671
 20
-19.2239437624738
 40
0.7717997786796745
 50
141.8795802028402
 51
218.120419797156
 73
     1
 72
     2
 10
-45.89247020811339
 20
-19.38067494059422
 40
0.5179085730134505
 50
218.1204197971504
 51
321.8795802028558
 73
     1
 72
     2
 10
-46.09221024445958
 20
-19.2239437624738
 40
0.7717997786796351
 50
321.879580202844
 51
398.1204197971597
 73
     1
 97
        4
330
160
330
15F
330
15A
330
159
 75
     1
 76
     0
 52
45.0
 41
0.1
 77
     0
 78
     1
 53
45.0
 43
0.0
 44
0.0
 45
-0.0707106781186548
 46
0.0707106781186548
 79
     0
 98
        1
 10
0.0
 20
0.0
  0
HATCH
  5
1B9
330
47
100
AcDbEntity
  8
1
  6
Continuous
 62
     2
100
AcDbHatch
 10
0.0
 20
0.0
 30
0.0
210
0.0
220
0.0
230
1.0
  2
_USER
 70
     0
 71
     1
 91
        4
 92
        1
 93
        8
 72
     1
 10
-54.8863495161672
 20
-18.1212836159699
 11
-54.8863495161672
 21
-23.68579438517011
 72
     2
 10
-55.31059413155109
 20
-23.68579438517011
 40
0.4242446153832908
 50
0.0
 51
90.0
 73
     0
 72
     1
 10
-55.31059413155109
 20
-24.1100390005534
 11
-60.78390622226789
 21
-24.1100390005534
 72
     2
 10
-60.78390622226789
 20
-23.68579438517011
 40
0.4242446153828041
 50
90.0
 51
180.0
 73
     0
 72
     1
 10
-61.20815083765069
 20
-23.68579438517011
 11
-61.20815083765069
 21
-18.1212836159699
 72
     2
 10
-60.78390622226789
 20
-18.1212836159699
 40
0.4242446153838024
 50
180.0
 51
270.0
 73
     0
 72
     1
 10
-60.78390622226789
 20
-17.6970390005861
 11
-55.31059413155109
 21
-17.6970390005861
 72
     2
 10
-55.31059413155109
 20
-18.1212836159699
 40
0.4242446153838912
 50
270.0
 51
360.0
 73
     0
 97
        8
330
108
330
156
330
109
330
161
330
106
330
158
330
107
330
157
 92
       16
 93
        1
 72
     2
 10
-58.16432057175038
 20
-20.44016584432541
 40
0.4709789327785074
 50
0.0
 51
360.0
 73
     1
 97
        1
330
17C
 92
       16
 93
        8
 72
     2
 10
-57.6144628589897
 20
-21.54930744429382
 40
0.3157169230765328
 50
115.3740086783519
 51
180.0
 73
     1
 72
     1
 10
-57.93017978206649
 20
-21.54930744429382
 11
-57.93017978206649
 21
-22.1311588509889
 72
     2
 10
-57.6144628589897
 20
-22.1311588509889
 40
0.315716923076792
 50
180.0
 51
269.8110329574529
 73
     1
 72
     2
 10
-57.60884672367968
 20
-20.42832390341991
 40
2.018561131933269
 50
269.8110329575858
 51
450.1889670424142
 73
     1
 72
     2
 10
-57.6144628589897
 20
-18.72548895585081
 40
0.3157169230760746
 50
90.18896704254722
 51
180.0
 73
     1
 72
     1
 10
-57.93017978206649
 20
-18.72548895585081
 11
-57.93017978206649
 21
-19.33102424435759
 72
     2
 10
-57.6144628589897
 20
-19.33102424435759
 40
0.315716923076792
 50
180.0
 51
244.6259913216484
 73
     1
 72
     2
 10
-58.14050555707757
 20
-20.44016584432541
 40
0.911848150144456
 50
295.3740086781921
 51
424.625991321824
 73
     0
 97
        8
330
16E
330
CF
330
16B
330
16C
330
14A
330
CE
330
16D
330
149
 92
       16
 93
       12
 72
     2
 10
-60.1900115455214
 20
-23.0817665219198
 40
0.3157169230756764
 50
180.0
 51
270.0
 73
     1
 72
     1
 10
-60.1900115455214
 20
-23.39748344499651
 11
-58.71417828451178
 21
-23.39748344499651
 72
     2
 10
-58.71417828451178
 20
-23.0817665219198
 40
0.3157169230767103
 50
270.0
 51
360.0
 73
     1
 72
     1
 10
-58.39846136143518
 20
-23.0817665219198
 11
-58.39846136143518
 21
-21.5509955903882
 72
     2
 10
-58.71417828451178
 20
-21.5509955903882
 40
0.3157169230766002
 50
0.0
 51
64.8055893514591
 73
     1
 72
     2
 10
-58.19159383693679
 20
-20.44016584432541
 40
0.911897523557621
 50
115.1944106485122
 51
244.805589351472
 73
     0
 72
     2
 10
-58.71417828451178
 20
-19.32933609826321
 40
0.3157169230761233
 50
295.1944106485409
 51
360.0
 73
     1
 72
     1
 10
-58.39846136143518
 20
-19.32933609826321
 11
-58.39846136143518
 21
-18.7253114792027
 72
     2
 10
-58.71417828451178
 20
-18.7253114792027
 40
0.3157169230766002
 50
0.0
 51
90.0
 73
     1
 72
     1
 10
-58.71417828451178
 20
-18.40959455612651
 11
-60.1900115455214
 21
-18.40959455612651
 72
     2
 10
-60.1900115455214
 20
-18.7253114792027
 40
0.315716923076188
 50
90.0
 51
180.0
 73
     1
 72
     1
 10
-60.50572846859708
 20
-18.7253114792027
 11
-60.50572846859708
 21
-23.0817665219198
 97
       12
330
152
330
10A
330
155
330
105
330
162
330
163
330
154
330
104
330
153
330
103
330
164
330
102
 75
     1
 76
     0
 52
45.0
 41
0.1
 77
     0
 78
     1
 53
45.0
 43
0.0
 44
0.0
 45
-0.0707106781186548
 46
0.0707106781186548
 79
     0
 98
        1
 10
0.0
 20
0.0
  0
HATCH
  5
1BA
330
47
100
AcDbEntity
  8
1
  6
Continuous
 62
     2
100
AcDbHatch
 10
0.0
 20
0.0
 30
0.0
210
0.0
220
0.0
230
1.0
  2
_USER
 70
     0
 71
     1
 91
        4
 92
        1
 93
        8
 72
     1
 10
-54.8863495161672
 20
-18.1212836159699
 11
-54.8863495161672
 21
-23.68579438517011
 72
     2
 10
-55.31059413155109
 20
-23.68579438517011
 40
0.4242446153832908
 50
0.0
 51
90.0
 73
     0
 72
     1
 10
-55.31059413155109
 20
-24.1100390005534
 11
-60.78390622226789
 21
-24.1100390005534
 72
     2
 10
-60.78390622226789
 20
-23.68579438517011
 40
0.4242446153828041
 50
90.0
 51
180.0
 73
     0
 72
     1
 10
-61.20815083765069
 20
-23.68579438517011
 11
-61.20815083765069
 21
-18.1212836159699
 72
     2
 10
-60.78390622226789
 20
-18.1212836159699
 40
0.4242446153838024
 50
180.0
 51
270.0
 73
     0
 72
     1
 10
-60.78390622226789
 20
-17.6970390005861
 11
-55.31059413155109
 21
-17.6970390005861
 72
     2
 10
-55.31059413155109
 20
-18.1212836159699
 40
0.4242446153838912
 50
270.0
 51
360.0
 73
     0
 97
        8
330
108
330
156
330
109
330
161
330
106
330
158
330
107
330
157
 92
       16
 93
        1
 72
     2
 10
-58.16432057175038
 20
-20.44016584432541
 40
0.4709789327785074
 50
0.0
 51
360.0
 73
     1
 97
        1
330
17C
 92
       16
 93
        8
 72
     2
 10
-57.6144628589897
 20
-21.54930744429382
 40
0.3157169230765328
 50
115.3740086783519
 51
180.0
 73
     1
 72
     1
 10
-57.93017978206649
 20
-21.54930744429382
 11
-57.93017978206649
 21
-22.1311588509889
 72
     2
 10
-57.6144628589897
 20
-22.1311588509889
 40
0.315716923076792
 50
180.0
 51
269.8110329574529
 73
     1
 72
     2
 10
-57.60884672367968
 20
-20.42832390341991
 40
2.018561131933269
 50
269.8110329575858
 51
450.1889670424142
 73
     1
 72
     2
 10
-57.6144628589897
 20
-18.72548895585081
 40
0.3157169230760746
 50
90.18896704254722
 51
180.0
 73
     1
 72
     1
 10
-57.93017978206649
 20
-18.72548895585081
 11
-57.93017978206649
 21
-19.33102424435759
 72
     2
 10
-57.6144628589897
 20
-19.33102424435759
 40
0.315716923076792
 50
180.0
 51
244.6259913216484
 73
     1
 72
     2
 10
-58.14050555707757
 20
-20.44016584432541
 40
0.911848150144456
 50
295.3740086781921
 51
424.625991321824
 73
     0
 97
        8
330
16E
330
CF
330
16B
330
16C
330
14A
330
CE
330
16D
330
149
 92
       16
 93
       12
 72
     2
 10
-60.1900115455214
 20
-23.0817665219198
 40
0.3157169230756764
 50
180.0
 51
270.0
 73
     1
 72
     1
 10
-60.1900115455214
 20
-23.39748344499651
 11
-58.71417828451178
 21
-23.39748344499651
 72
     2
 10
-58.71417828451178
 20
-23.0817665219198
 40
0.3157169230767103
 50
270.0
 51
360.0
 73
     1
 72
     1
 10
-58.39846136143518
 20
-23.0817665219198
 11
-58.39846136143518
 21
-21.5509955903882
 72
     2
 10
-58.71417828451178
 20
-21.5509955903882
 40
0.3157169230766002
 50
0.0
 51
64.8055893514591
 73
     1
 72
     2
 10
-58.19159383693679
 20
-20.44016584432541
 40
0.911897523557621
 50
115.1944106485122
 51
244.805589351472
 73
     0
 72
     2
 10
-58.71417828451178
 20
-19.32933609826321
 40
0.3157169230761233
 50
295.1944106485409
 51
360.0
 73
     1
 72
     1
 10
-58.39846136143518
 20
-19.32933609826321
 11
-58.39846136143518
 21
-18.7253114792027
 72
     2
 10
-58.71417828451178
 20
-18.7253114792027
 40
0.3157169230766002
 50
0.0
 51
90.0
 73
     1
 72
     1
 10
-58.71417828451178
 20
-18.40959455612651
 11
-60.1900115455214
 21
-18.40959455612651
 72
     2
 10
-60.1900115455214
 20
-18.7253114792027
 40
0.315716923076188
 50
90.0
 51
180.0
 73
     1
 72
     1
 10
-60.50572846859708
 20
-18.7253114792027
 11
-60.50572846859708
 21
-23.0817665219198
 97
       12
330
152
330
10A
330
155
330
105
330
162
330
163
330
154
330
104
330
153
330
103
330
164
330
102
 75
     1
 76
     0
 52
45.0
 41
0.1
 77
     0
 78
     1
 53
45.0
 43
0.0
 44
0.0
 45
-0.0707106781186548
 46
0.0707106781186548
 79
     0
 98
        1
 10
0.0
 20
0.0
  0
HATCH
  5
1BB
330
47
100
AcDbEntity
  8
1
  6
Continuous
 62
     2
100
AcDbHatch
 10
0.0
 20
0.0
 30
0.0
210
0.0
220
0.0
230
1.0
  2
_USER
 70
     0
 71
     1
 91
        1
 92
        1
 93
       18
 72
     1
 10
-33.29680160694619
 20
-21.84149478286591
 11
-34.10790064441957
 21
-21.84149478286591
 72
     1
 10
-34.10790064441957
 20
-21.84149478286591
 11
-34.10790064441957
 21
-24.1100390005534
 72
     1
 10
-34.10790064441957
 20
-24.1100390005534
 11
-35.30069334658728
 21
-24.1100390005534
 72
     1
 10
-35.30069334658728
 20
-24.1100390005534
 11
-35.30069334658728
 21
-21.84149478286591
 72
     1
 10
-35.30069334658728
 20
-21.84149478286591
 11
-36.40433264615538
 21
-21.84149478286591
 72
     2
 10
-36.40433264615538
 20
-22.796017789692
 40
0.9545230068260899
 50
90.0
 51
109.337143219432
 73
     1
 72
     2
 10
-36.55100264425909
 20
-22.37806280930911
 40
0.5115800601944086
 50
109.3371432194847
 51
151.4785267424224
 73
     1
 72
     2
 10
-36.1736453861777
 20
-22.58313423864811
 40
0.9410597353348907
 50
151.4785267423626
 51
208.5214732576695
 73
     1
 72
     2
 10
-36.55100264425909
 20
-22.7882056679866
 40
0.5115800601960153
 50
208.521473257687
 51
246.627722111846
 73
     1
 72
     2
 10
-36.39456261155598
 20
-22.42621364927661
 40
0.9059297849852768
 50
246.6277221118181
 51
288.4480761180814
 73
     1
 72
     2
 10
-36.81273034521789
 20
-21.17266787324002
 40
2.227384008972744
 50
288.4480761181333
 51
301.9309089499397
 73
     1
 72
     1
 10
-35.63467530319397
 20
-23.0630185923898
 11
-35.63467530319397
 21
-23.93553559919312
 72
     2
 10
-36.97060322031069
 20
-19.27045329339171
 40
4.852596863498825
 50
74.02000874166129
 51
84.84185523036365
 73
     0
 72
     2
 10
-36.68174712557487
 20
-22.4703438766133
 40
1.639695123940449
 50
84.8418552303238
 51
164.9381082228987
 73
     0
 72
     2
 10
-37.10087496903648
 20
-22.58313423864811
 40
1.205656168393002
 50
164.9381082229038
 51
195.0618917770972
 73
     0
 72
     2
 10
-36.68174712557487
 20
-22.69592460068301
 40
1.639695123940211
 50
195.061891777105
 51
270.0
 73
     0
 72
     1
 10
-36.68174712557487
 20
-21.0562294767428
 11
-33.29680160694619
 21
-21.05622947674232
 72
     1
 10
-33.29680160694619
 20
-21.05622947674232
 11
-33.29680160694619
 21
-21.84149478286591
 97
       18
330
D1
330
167
330
168
330
150
330
14F
330
135
330
14E
330
14D
330
169
330
14C
330
16A
330
14B
330
136
330
D0
330
D5
330
D4
330
D3
330
D2
 75
     1
 76
     0
 52
45.0
 41
0.1
 77
     0
 78
     1
 53
45.0
 43
0.0
 44
0.0
 45
-0.0707106781186548
 46
0.0707106781186548
 79
     0
 98
        1
 10
0.0
 20
0.0
  0
HATCH
  5
1BC
330
47
100
AcDbEntity
  8
1
  6
Continuous
 62
     2
100
AcDbHatch
 10
0.0
 20
0.0
 30
0.0
210
0.0
220
0.0
230
1.0
  2
_USER
 70
     0
 71
     1
 91
        1
 92
        1
 93
       18
 72
     1
 10
-33.29680160694619
 20
-21.84149478286591
 11
-34.10790064441957
 21
-21.84149478286591
 72
     1
 10
-34.10790064441957
 20
-21.84149478286591
 11
-34.10790064441957
 21
-24.1100390005534
 72
     1
 10
-34.10790064441957
 20
-24.1100390005534
 11
-35.30069334658728
 21
-24.1100390005534
 72
     1
 10
-35.30069334658728
 20
-24.1100390005534
 11
-35.30069334658728
 21
-21.84149478286591
 72
     1
 10
-35.30069334658728
 20
-21.84149478286591
 11
-36.40433264615538
 21
-21.84149478286591
 72
     2
 10
-36.40433264615538
 20
-22.796017789692
 40
0.9545230068260899
 50
90.0
 51
109.337143219432
 73
     1
 72
     2
 10
-36.55100264425909
 20
-22.37806280930911
 40
0.5115800601944086
 50
109.3371432194847
 51
151.4785267424224
 73
     1
 72
     2
 10
-36.1736453861777
 20
-22.58313423864811
 40
0.9410597353348907
 50
151.4785267423626
 51
208.5214732576695
 73
     1
 72
     2
 10
-36.55100264425909
 20
-22.7882056679866
 40
0.5115800601960153
 50
208.521473257687
 51
246.627722111846
 73
     1
 72
     2
 10
-36.39456261155598
 20
-22.42621364927661
 40
0.9059297849852768
 50
246.6277221118181
 51
288.4480761180814
 73
     1
 72
     2
 10
-36.81273034521789
 20
-21.17266787324002
 40
2.227384008972744
 50
288.4480761181333
 51
301.9309089499397
 73
     1
 72
     1
 10
-35.63467530319397
 20
-23.0630185923898
 11
-35.63467530319397
 21
-23.93553559919312
 72
     2
 10
-36.97060322031069
 20
-19.27045329339171
 40
4.852596863498825
 50
74.02000874166129
 51
84.84185523036365
 73
     0
 72
     2
 10
-36.68174712557487
 20
-22.4703438766133
 40
1.639695123940449
 50
84.8418552303238
 51
164.9381082228987
 73
     0
 72
     2
 10
-37.10087496903648
 20
-22.58313423864811
 40
1.205656168393002
 50
164.9381082229038
 51
195.0618917770972
 73
     0
 72
     2
 10
-36.68174712557487
 20
-22.69592460068301
 40
1.639695123940211
 50
195.061891777105
 51
270.0
 73
     0
 72
     1
 10
-36.68174712557487
 20
-21.0562294767428
 11
-33.29680160694619
 21
-21.05622947674232
 72
     1
 10
-33.29680160694619
 20
-21.05622947674232
 11
-33.29680160694619
 21
-21.84149478286591
 97
       18
330
D1
330
167
330
168
330
150
330
14F
330
135
330
14E
330
14D
330
169
330
14C
330
16A
330
14B
330
136
330
D0
330
D5
330
D4
330
D3
330
D2
 75
     1
 76
     0
 52
45.0
 41
0.1
 77
     0
 78
     1
 53
45.0
 43
0.0
 44
0.0
 45
-0.0707106781186548
 46
0.0707106781186548
 79
     0
 98
        1
 10
0.0
 20
0.0
  0
HATCH
  5
1BD
330
47
100
AcDbEntity
  8
1
  6
Continuous
 62
     2
100
AcDbHatch
 10
0.0
 20
0.0
 30
0.0
210
0.0
220
0.0
230
1.0
  2
_USER
 70
     0
 71
     1
 91
        1
 92
        1
 93
       14
 72
     2
 10
-52.78444860482779
 20
-22.69592460068301
 40
1.639695123940507
 50
84.84185523036236
 51
164.9381082228864
 73
     1
 72
     2
 10
-53.20357644829059
 20
-22.58313423864811
 40
1.205656168390944
 50
164.9381082228765
 51
195.061891777095
 73
     1
 72
     2
 10
-52.78444860482779
 20
-22.4703438766133
 40
1.639695123939387
 50
195.0618917770896
 51
275.1581447696395
 73
     1
 72
     2
 10
-53.07330469956369
 20
-19.27045329339171
 40
4.852596863498134
 50
275.1581447696249
 51
285.9799912583529
 73
     1
 72
     1
 10
-51.73737678244589
 20
-23.93553559919252
 11
-51.73737678244589
 21
-23.06301859238931
 72
     2
 10
-52.91543182447077
 20
-21.17266787323942
 40
2.227384008972737
 50
58.06909105004065
 51
71.55192388186722
 73
     0
 72
     2
 10
-52.49726409080998
 20
-22.42621364927661
 40
0.9059297849849132
 50
71.55192388184138
 51
113.3722778881286
 73
     0
 72
     2
 10
-52.653704123512
 20
-22.7882056679866
 40
0.5115800601948034
 50
113.3722778881716
 51
151.4785267423044
 73
     0
 72
     2
 10
-52.27634686543169
 20
-22.58313423864811
 40
0.9410597353332545
 50
151.4785267422943
 51
208.5214732577331
 73
     0
 72
     2
 10
-52.653704123512
 20
-22.37806280930911
 40
0.5115800601948685
 50
208.5214732576956
 51
246.6277221118013
 73
     0
 72
     2
 10
-52.49726409080998
 20
-22.74005482801971
 40
0.9059297849853194
 50
246.6277221118714
 51
288.4480761181466
 73
     0
 72
     2
 10
-52.91543182447077
 20
-23.9936006040563
 40
2.227384008973484
 50
288.4480761181328
 51
301.9309089499591
 73
     0
 72
     1
 10
-51.73737678244589
 20
-22.1032498849064
 11
-51.73737678244589
 21
-21.23073287810311
 72
     2
 10
-53.07330469956369
 20
-25.89581518390401
 40
4.852596863498071
 50
74.02000874164739
 51
84.84185523037506
 73
     1
 97
       14
330
16F
330
170
330
171
330
172
330
137
330
148
330
147
330
146
330
173
330
174
330
145
330
175
330
138
330
144
 75
     1
 76
     0
 52
45.0
 41
0.1
 77
     0
 78
     1
 53
45.0
 43
0.0
 44
0.0
 45
-0.0707106781186548
 46
0.0707106781186548
 79
     0
 98
        1
 10
0.0
 20
0.0
  0
HATCH
  5
1BE
330
47
100
AcDbEntity
  8
1
  6
Continuous
 62
     2
100
AcDbHatch
 10
0.0
 20
0.0
 30
0.0
210
0.0
220
0.0
230
1.0
  2
_USER
 70
     0
 71
     1
 91
        1
 92
        1
 93
       14
 72
     2
 10
-52.78444860482779
 20
-22.69592460068301
 40
1.639695123940507
 50
84.84185523036236
 51
164.9381082228864
 73
     1
 72
     2
 10
-53.20357644829059
 20
-22.58313423864811
 40
1.205656168390944
 50
164.9381082228765
 51
195.061891777095
 73
     1
 72
     2
 10
-52.78444860482779
 20
-22.4703438766133
 40
1.639695123939387
 50
195.0618917770896
 51
275.1581447696395
 73
     1
 72
     2
 10
-53.07330469956369
 20
-19.27045329339171
 40
4.852596863498134
 50
275.1581447696249
 51
285.9799912583529
 73
     1
 72
     1
 10
-51.73737678244589
 20
-23.93553559919252
 11
-51.73737678244589
 21
-23.06301859238931
 72
     2
 10
-52.91543182447077
 20
-21.17266787323942
 40
2.227384008972737
 50
58.06909105004065
 51
71.55192388186722
 73
     0
 72
     2
 10
-52.49726409080998
 20
-22.42621364927661
 40
0.9059297849849132
 50
71.55192388184138
 51
113.3722778881286
 73
     0
 72
     2
 10
-52.653704123512
 20
-22.7882056679866
 40
0.5115800601948034
 50
113.3722778881716
 51
151.4785267423044
 73
     0
 72
     2
 10
-52.27634686543169
 20
-22.58313423864811
 40
0.9410597353332545
 50
151.4785267422943
 51
208.5214732577331
 73
     0
 72
     2
 10
-52.653704123512
 20
-22.37806280930911
 40
0.5115800601948685
 50
208.5214732576956
 51
246.6277221118013
 73
     0
 72
     2
 10
-52.49726409080998
 20
-22.74005482801971
 40
0.9059297849853194
 50
246.6277221118714
 51
288.4480761181466
 73
     0
 72
     2
 10
-52.91543182447077
 20
-23.9936006040563
 40
2.227384008973484
 50
288.4480761181328
 51
301.9309089499591
 73
     0
 72
     1
 10
-51.73737678244589
 20
-22.1032498849064
 11
-51.73737678244589
 21
-21.23073287810311
 72
     2
 10
-53.07330469956369
 20
-25.89581518390401
 40
4.852596863498071
 50
74.02000874164739
 51
84.84185523037506
 73
     1
 97
       14
330
16F
330
170
330
171
330
172
330
137
330
148
330
147
330
146
330
173
330
174
330
145
330
175
330
138
330
144
 75
     1
 76
     0
 52
45.0
 41
0.1
 77
     0
 78
     1
 53
45.0
 43
0.0
 44
0.0
 45
-0.0707106781186548
 46
0.0707106781186548
 79
     0
 98
        1
 10
0.0
 20
0.0
  0
ENDBLK
  5
49
330
47
100
AcDbEntity
  8
0
100
AcDbBlockEnd
  0
BLOCK
  5
4B
330
4A
100
AcDbEntity
  8
0
100
AcDbBlockBegin
  2
_punkt
 70
     0
 10
64.09999880253672
 20
-31.40353900056971
 30
0.0
  3
_punkt
  1

  0
LINE
  5
1BF
330
4A
100
AcDbEntity
  8
1
  6
Continuous
 62
     2
100
AcDbLine
 10
64.09999880253672
 20
-31.40353900056971
 30
0.0
 11
69.09999880253571
 21
-31.40353900056971
 31
0.0
  0
LINE
  5
1C0
330
4A
100
AcDbEntity
  8
1
  6
Continuous
 62
     2
100
AcDbLine
 10
64.09999880253672
 20
-31.40353900056971
 30
0.0
 11
64.09999880253672
 21
-36.40353900056982
 31
0.0
  0
ENDBLK
  5
4C
330
4A
100
AcDbEntity
  8
0
100
AcDbBlockEnd
  0
BLOCK
  5
50
330
4D
100
AcDbEntity
  8
0
100
AcDbBlockBegin
  2
A4I_CS
 70
     0
 10
64.09999880253672
 20
-36.40353900056982
 30
0.0
  3
A4I_CS
  1

  0
INSERT
  5
4E
330
4D
100
AcDbEntity
  8
1
100
AcDbBlockReference
  2
_rahmen
 10
64.09999880253672
 20
-36.40353900056982
 30
0.0
  0
INSERT
  5
4F
330
4D
100
AcDbEntity
  8
1
100
AcDbBlockReference
  2
_punkt
 10
64.09999880253672
 20
-31.40353900056971
 30
0.0
  0
ENDBLK
  5
51
330
4D
100
AcDbEntity
  8
0
100
AcDbBlockEnd
  0
BLOCK
  5
53
330
52
100
AcDbEntity
  8
0
100
AcDbBlockBegin
  2
HC-RBO_8-select__1
 70
     0
 10
-42.9158867724627
 20
2.09292253820312
 30
0.0
  3
HC-RBO_8-select__1
  1

  0
LINE
  5
1C1
330
52
100
AcDbEntity
  8
0
  6
Continuous
 62
     7
100
AcDbLine
 10
38.63672266879891
 20
55.38207471120753
 30
0.0
 11
-24.88624069866179
 21
73.71957471108705
 31
0.0
  0
LINE
  5
1C2
330
52
100
AcDbEntity
  8
0
  6
Continuous
 62
     7
100
AcDbLine
 10
24.23672266667879
 20
42.91130889496813
 30
0.0
 11
-39.2862407007564
 21
61.24880889481983
 31
0.0
  0
LINE
  5
1C3
330
52
100
AcDbEntity
  8
0
  6
Continuous
 62
     7
100
AcDbLine
 10
-39.06124070074989
 20
61.44366461069648
 30
0.0
 11
-41.90127490012969
 21
62.26351186546185
 31
0.0
  0
LINE
  5
1C4
330
52
100
AcDbEntity
  8
0
  6
Continuous
 62
     7
100
AcDbLine
 10
-39.8085032197213
 20
57.43666335971107
 30
0.0
 11
-39.00850321969509
 21
58.1294836827595
 31
0.0
  0
LINE
  5
1C5
330
52
100
AcDbEntity
  8
0
  6
Continuous
 62
     7
100
AcDbLine
 10
-42.42711790254921
 20
60.46037914378841
 30
0.0
 11
-41.62711790252291
 21
61.15319946683684
 31
0.0
  0
LINE
  5
1C6
330
52
100
AcDbEntity
  8
0
  6
Continuous
 62
     7
100
AcDbLine
 10
-37.4599267285914
 20
56.65127806525649
 30
0.0
 11
-39.90985084883801
 21
57.35851024040573
 31
0.0
  0
LINE
  5
1C7
330
52
100
AcDbEntity
  8
0
  6
Continuous
 62
     7
100
AcDbLine
 10
0.42102419012059
 20
39.60120507409633
 30
0.0
 11
-4.70934822132799
 21
49.96828169883014
 31
0.0
  0
LINE
  5
1C8
330
52
100
AcDbEntity
  8
0
  6
Continuous
 62
     7
100
AcDbLine
 10
17.0320574284662
 20
60.42182857216134
 30
0.0
 11
-5.54256969978149
 21
60.42168519868473
 31
0.0
  0
LINE
  5
1C9
330
52
100
AcDbEntity
  8
0
  6
Continuous
 62
     7
100
AcDbLine
 10
-5.54256969978019
 20
60.16187757756044
 30
0.0
 11
-6.43178714187249
 21
59.39179268321562
 31
0.0
  0
LINE
  5
1CA
330
52
100
AcDbEntity
  8
0
  6
Continuous
 62
     7
100
AcDbLine
 10
-5.54256969978019
 20
60.16187757756044
 30
0.0
 11
-5.54256969978149
 21
60.42168519868473
 31
0.0
  0
LINE
  5
1CB
330
52
100
AcDbEntity
  8
0
  6
Continuous
 62
     7
100
AcDbLine
 10
-6.5817849417711
 20
59.52169839911808
 30
0.0
 11
4.70528029236581
 21
49.74652642546628
 31
0.0
  0
LINE
  5
1CC
330
52
100
AcDbEntity
  8
0
  6
Continuous
 62
     7
100
AcDbLine
 10
4.70528029236581
 20
49.74652642546628
 30
0.0
 11
6.78375650416629
 21
49.74653962605467
 31
0.0
  0
LINE
  5
1CD
330
52
100
AcDbEntity
  8
0
  6
Continuous
 62
     7
100
AcDbLine
 10
6.78375650416629
 20
49.74653962605467
 30
0.0
 11
18.07127267029131
 21
59.52181537158582
 31
0.0
  0
LINE
  5
1CE
330
52
100
AcDbEntity
  8
0
  6
Continuous
 62
     7
100
AcDbLine
 10
17.03205742846751
 20
60.16202095104837
 30
0.0
 11
17.92127487040099
 21
59.39191346636853
 31
0.0
  0
LINE
  5
1CF
330
52
100
AcDbEntity
  8
0
  6
Continuous
 62
     7
100
AcDbLine
 10
18.07127267029131
 20
59.52181537158582
 30
0.0
 11
17.0320574284662
 21
60.42182857216134
 31
0.0
  0
LINE
  5
1D0
330
52
100
AcDbEntity
  8
0
  6
Continuous
 62
     7
100
AcDbLine
 10
-3.34268155462689
 20
47.20662291114937
 30
0.0
 11
-37.1099267286574
 21
56.95438695652047
 31
0.0
  0
LINE
  5
1D1
330
52
100
AcDbEntity
  8
0
  6
Continuous
 62
     7
100
AcDbLine
 10
-4.70934822132799
 20
49.96828169883014
 30
0.0
 11
-39.2862407007508
 21
59.94977078911744
 31
0.0
  0
LINE
  5
1D2
330
52
100
AcDbEntity
  8
0
  6
Continuous
 62
     7
100
AcDbLine
 10
-39.2862407007564
 20
61.24880889481983
 30
0.0
 11
-39.2862407007508
 21
59.94977078911744
 31
0.0
  0
LINE
  5
1D3
330
52
100
AcDbEntity
  8
0
  6
Continuous
 62
     7
100
AcDbLine
 10
-37.4599267285914
 20
56.65127806525649
 30
0.0
 11
-37.45992672864011
 21
59.42255935747018
 31
0.0
  0
LINE
  5
1D4
330
52
100
AcDbEntity
  8
0
  6
Continuous
 62
     7
100
AcDbLine
 10
-37.4599267285914
 20
56.65127806525649
 30
0.0
 11
-37.1099267286574
 21
56.95438695652047
 31
0.0
  0
LINE
  5
1D5
330
52
100
AcDbEntity
  8
0
  6
Continuous
 62
     7
100
AcDbLine
 10
-37.1099267286574
 20
56.95438695652047
 30
0.0
 11
-37.10992672870279
 21
59.32152306038027
 31
0.0
  0
LINE
  5
1D6
330
52
100
AcDbEntity
  8
0
  6
Continuous
 62
     7
100
AcDbLine
 10
-5.54256969978149
 20
60.42168519868473
 30
0.0
 11
-6.5817849417711
 21
59.52169839911808
 31
0.0
  0
LINE
  5
1D7
330
52
100
AcDbEntity
  8
0
  6
Continuous
 62
     7
100
AcDbLine
 10
-5.54256969978019
 20
60.16187757756044
 30
0.0
 11
17.03205742846751
 21
60.16202095104837
 31
0.0
  0
LINE
  5
1D8
330
52
100
AcDbEntity
  8
0
  6
Continuous
 62
     7
100
AcDbLine
 10
17.03205742846751
 20
60.16202095104837
 30
0.0
 11
17.0320574284662
 21
60.42182857216134
 31
0.0
  0
LINE
  5
1D9
330
52
100
AcDbEntity
  8
0
  6
Continuous
 62
     7
100
AcDbLine
 10
39.93576077470721
 20
14.56368835447607
 30
0.0
 11
38.48576077268169
 21
13.30795151723391
 31
0.0
  0
LINE
  5
1DA
330
52
100
AcDbEntity
  8
0
  6
Continuous
 62
     7
100
AcDbLine
 10
37.48576077266941
 20
14.17397692102497
 30
0.0
 11
38.48576077268169
 21
13.30795151723391
 31
0.0
  0
LINE
  5
1DB
330
52
100
AcDbEntity
  8
0
  6
Continuous
 62
     7
100
AcDbLine
 10
36.27332520735251
 20
14.52397692107116
 30
0.0
 11
37.48576077266941
 21
14.17397692102497
 31
0.0
  0
LINE
  5
1DC
330
52
100
AcDbEntity
  8
0
  6
Continuous
 62
     7
100
AcDbLine
 10
26.98576077265349
 20
3.34865937371891
 30
0.0
 11
25.53576077261641
 21
2.09292253820312
 31
0.0
  0
LINE
  5
1DD
330
52
100
AcDbEntity
  8
0
  6
Continuous
 62
     7
100
AcDbLine
 10
36.27332520735251
 20
14.52397692107116
 30
0.0
 11
37.2733252073229
 21
13.6579515172494
 31
0.0
  0
LINE
  5
1DE
330
52
100
AcDbEntity
  8
0
  6
Continuous
 62
     7
100
AcDbLine
 10
37.2733252073229
 20
13.6579515172494
 30
0.0
 11
38.48576077268169
 21
13.30795151723391
 31
0.0
  0
LINE
  5
1DF
330
52
100
AcDbEntity
  8
0
  6
Continuous
 62
     7
100
AcDbLine
 10
10.41444220480111
 20
6.45807121103677
 30
0.0
 11
25.53576077261641
 21
2.09292253820312
 31
0.0
  0
LINE
  5
1E0
330
52
100
AcDbEntity
  8
0
  6
Continuous
 62
     7
100
AcDbLine
 10
0.42102419012099
 20
12.9802291974043
 30
0.0
 11
10.41444220480111
 21
6.45807121103677
 31
0.0
  0
LINE
  5
1E1
330
52
100
AcDbEntity
  8
0
  6
Continuous
 62
     7
100
AcDbLine
 10
-42.91588677245011
 20
58.94707388989155
 30
0.0
 11
-42.7340604119598
 21
58.79240754716414
 31
0.0
  0
LINE
  5
1E2
330
52
100
AcDbEntity
  8
0
  6
Continuous
 62
     7
100
AcDbLine
 10
-42.91588677245011
 20
58.94707388989155
 30
0.0
 11
-42.9158867724627
 21
61.54179321191518
 31
0.0
  0
LINE
  5
1E3
330
52
100
AcDbEntity
  8
0
  6
Continuous
 62
     7
100
AcDbLine
 10
-24.88624069866179
 20
73.71957471108705
 30
0.0
 11
-39.2862407007564
 21
61.24880889481983
 31
0.0
  0
LINE
  5
1E4
330
52
100
AcDbEntity
  8
0
  6
Continuous
 62
     7
100
AcDbLine
 10
-30.20127490010839
 20
72.3960090897055
 30
0.0
 11
-41.90127490012969
 21
62.26351186546185
 31
0.0
  0
LINE
  5
1E5
330
52
100
AcDbEntity
  8
0
  6
Continuous
 62
     7
100
AcDbLine
 10
-31.21588677245401
 20
71.67429043614987
 30
0.0
 11
-42.9158867724627
 21
61.54179321191518
 31
0.0
  0
LINE
  5
1E6
330
52
100
AcDbEntity
  8
0
  6
Continuous
 62
     7
100
AcDbLine
 10
-31.21588677245401
 20
71.67429043614987
 30
0.0
 11
-30.20127490010839
 21
72.3960090897055
 31
0.0
  0
LINE
  5
1E7
330
52
100
AcDbEntity
  8
0
  6
Continuous
 62
     7
100
AcDbLine
 10
-41.90127490012969
 20
62.26351186546185
 30
0.0
 11
-42.9158867724627
 21
61.54179321191518
 31
0.0
  0
LINE
  5
1E8
330
52
100
AcDbEntity
  8
0
  6
Continuous
 62
     7
100
AcDbLine
 10
-30.20127490010839
 20
72.3960090897055
 30
0.0
 11
-27.3612407007183
 21
71.57616183495047
 31
0.0
  0
LINE
  5
1E9
330
52
100
AcDbEntity
  8
0
  6
Continuous
 62
     7
100
AcDbLine
 10
0.42102419012099
 20
12.9802291974043
 30
0.0
 11
0.42102419012059
 21
39.60120507409633
 31
0.0
  0
LINE
  5
1EA
330
52
100
AcDbEntity
  8
0
  6
Continuous
 62
     7
100
AcDbLine
 10
44.26588779337109
 20
51.15899849985648
 30
0.0
 11
29.86588779126871
 21
38.68823268369129
 31
0.0
  0
LINE
  5
1EB
330
52
100
AcDbEntity
  8
0
  6
Continuous
 62
     7
100
AcDbLine
 10
38.63672266879891
 20
55.38207471120753
 30
0.0
 11
24.23672266667879
 21
42.91130889496813
 31
0.0
  0
LINE
  5
1EC
330
52
100
AcDbEntity
  8
0
  6
Continuous
 62
     7
100
AcDbLine
 10
39.93576077445169
 20
53.70803660556783
 30
0.0
 11
25.5357607723569
 21
41.23727078929604
 31
0.0
  0
LINE
  5
1ED
330
52
100
AcDbEntity
  8
0
  6
Continuous
 62
     7
100
AcDbLine
 10
25.5357607723569
 20
41.23727078929604
 30
0.0
 11
29.86588779126001
 21
39.98727078930866
 31
0.0
  0
LINE
  5
1EE
330
52
100
AcDbEntity
  8
0
  6
Continuous
 62
     7
100
AcDbLine
 10
44.26588779336251
 20
52.45803660557822
 30
0.0
 11
39.93576077445169
 21
53.70803660556783
 31
0.0
  0
LINE
  5
1EF
330
52
100
AcDbEntity
  8
0
  6
Continuous
 62
     7
100
AcDbLine
 10
29.86588779126001
 20
39.98727078930866
 30
0.0
 11
44.26588779336251
 21
52.45803660557822
 31
0.0
  0
LINE
  5
1F0
330
52
100
AcDbEntity
  8
0
  6
Continuous
 62
     7
100
AcDbLine
 10
25.53576077240061
 20
39.93823268365838
 30
0.0
 11
29.86588779126871
 21
38.68823268369129
 31
0.0
  0
LINE
  5
1F1
330
52
100
AcDbEntity
  8
0
  6
Continuous
 62
     7
100
AcDbLine
 10
29.86588779126001
 20
39.98727078930866
 30
0.0
 11
29.86588779126871
 21
38.68823268369129
 31
0.0
  0
LINE
  5
1F2
330
52
100
AcDbEntity
  8
0
  6
Continuous
 62
     7
100
AcDbLine
 10
38.63672266879891
 20
55.38207471120753
 30
0.0
 11
39.93576077445169
 21
53.70803660556783
 31
0.0
  0
LINE
  5
1F3
330
52
100
AcDbEntity
  8
0
  6
Continuous
 62
     7
100
AcDbLine
 10
27.985760772676
 20
5.94673558507094
 30
0.0
 11
27.98576077244411
 21
37.7298679039823
 31
0.0
  0
LINE
  5
1F4
330
52
100
AcDbEntity
  8
0
  6
Continuous
 62
     7
100
AcDbLine
 10
25.53576077240061
 20
39.93823268365838
 30
0.0
 11
25.53576077261641
 21
2.09292253820312
 31
0.0
  0
LINE
  5
1F5
330
52
100
AcDbEntity
  8
0
  6
Continuous
 62
     7
100
AcDbLine
 10
25.5357607723569
 20
41.23727078929604
 30
0.0
 11
24.23672266667879
 21
42.91130889496813
 31
0.0
  0
LINE
  5
1F6
330
52
100
AcDbEntity
  8
0
  6
Continuous
 62
     7
100
AcDbLine
 10
36.2733252072519
 20
34.91787875548744
 30
0.0
 11
27.98576077245011
 21
37.3102925341417
 31
0.0
  0
LINE
  5
1F7
330
52
100
AcDbEntity
  8
0
  6
Continuous
 62
     7
100
AcDbLine
 10
44.26588779337109
 20
51.15899849985648
 30
0.0
 11
44.26588779336251
 21
52.45803660557822
 31
0.0
  0
LINE
  5
1F8
330
52
100
AcDbEntity
  8
0
  6
Continuous
 62
     7
100
AcDbLine
 10
39.93576077470721
 20
14.56368835447607
 30
0.0
 11
39.93576077448969
 21
47.40899849989868
 31
0.0
  0
LINE
  5
1F9
330
52
100
AcDbEntity
  8
0
  6
Continuous
 62
     7
100
AcDbLine
 10
27.98576077259489
 20
17.205065834455
 30
0.0
 11
36.27332520735101
 21
14.81265205579681
 31
0.0
  0
LINE
  5
1FA
330
52
100
AcDbEntity
  8
0
  6
Continuous
 62
     7
100
AcDbLine
 10
36.27332520735251
 20
14.52397692107116
 30
0.0
 11
36.2733252072519
 21
34.91787875548744
 31
0.0
  0
LINE
  5
1FB
330
52
100
AcDbEntity
  8
0
  6
Continuous
 62
     7
100
AcDbLine
 10
26.98576077265349
 20
3.34865937371891
 30
0.0
 11
27.985760772676
 21
5.94673558507094
 31
0.0
  0
LINE
  5
1FC
330
52
100
AcDbEntity
  8
0
  6
Continuous
 62
     7
100
AcDbLine
 10
37.48576077252051
 20
45.28723625892459
 30
0.0
 11
37.48576077266941
 21
14.17397692102497
 31
0.0
  0
SPLINE
  5
1FD
330
52
100
AcDbEntity
  8
0
  6
Continuous
 62
     7
100
AcDbSpline
210
0.0
220
0.0
230
1.0
 70
     8
 71
     3
 72
    19
 73
    15
 74
    13
 42
0.000000001
 43
0.0000000001
 44
0.00000001
 40
0.0
 40
0.0
 40
0.0
 40
0.0
 40
0.3941644373861305
 40
0.8074425663542598
 40
1.25188639691577
 40
1.729795108055506
 40
2.234897317655582
 40
2.75505253621573
 40
3.275207754775904
 40
3.780309964376038
 40
4.258218675515808
 40
4.702662506077254
 40
5.115940635045361
 40
5.510105072431493
 40
5.510105072431493
 40
5.510105072431493
 40
5.510105072431493
 10
-42.42711790254921
 20
60.46037914378841
 30
0.0
 10
-42.31831942445197
 20
60.53633810796405
 30
0.0
 10
-42.09544664168847
 20
60.69193940158315
 30
0.0
 10
-41.6738302475065
 20
60.76899152994609
 30
0.0
 10
-41.22690017358435
 20
60.72875965143888
 30
0.0
 10
-40.77423027636912
 20
60.56687220784404
 30
0.0
 10
-40.34691347428268
 20
60.29879865642479
 30
0.0
 10
-39.97114901288754
 20
59.94155928207238
 30
0.0
 10
-39.67125436632082
 20
59.51861472069829
 30
0.0
 10
-39.46697561734946
 20
59.05738454927119
 30
0.0
 10
-39.37141572985937
 20
58.58623076530952
 30
0.0
 10
-39.39544365033036
 20
58.13813729954362
 30
0.0
 10
-39.53193639301794
 20
57.73185273729462
 30
0.0
 10
-39.71778070271144
 20
57.53349464588608
 30
0.0
 10
-39.8085032197213
 20
57.43666335971107
 30
0.0
 11
-42.42711790254921
 21
60.46037914378841
 31
0.0
 11
-42.08903086586363
 21
60.66301863514091
 31
0.0
 11
-41.68475727064839
 21
60.74881884619596
 31
0.0
 11
-41.24184690210173
 21
60.71193082409163
 31
0.0
 11
-40.79048372578204
 21
60.55487026203595
 31
0.0
 11
-40.36142750094587
 21
60.28833884220803
 31
0.0
 11
-39.9839171421097
 21
59.93050175780722
 31
0.0
 11
-39.68368032993625
 21
59.50574381895612
 31
0.0
 11
-39.4811763843681
 21
59.04301236999728
 31
0.0
 11
-39.39020719621745
 21
58.57384145881684
 31
0.0
 11
-39.4169704325965
 21
58.13020416336099
 31
0.0
 11
-39.5596439889697
 21
57.74233424661423
 31
0.0
 11
-39.8085032197213
 21
57.43666335971107
 31
0.0
  0
SPLINE
  5
1FE
330
52
100
AcDbEntity
  8
0
  6
Continuous
 62
     7
100
AcDbSpline
210
0.0
220
0.0
230
1.0
 70
     8
 71
     3
 72
    17
 73
    13
 74
    11
 42
0.000000001
 43
0.0000000001
 44
0.00000001
 40
0.0
 40
0.0
 40
0.0
 40
0.0
 40
0.3653522826140231
 40
0.7461405152695662
 40
1.152800120586393
 40
1.588562857856883
 40
2.049955914026351
 40
2.52853587776835
 40
3.012912096477528
 40
3.490759028497439
 40
3.950805999991609
 40
4.384852940502574
 40
4.384852940502574
 40
4.384852940502574
 40
4.384852940502574
 10
-39.8085032197213
 20
57.43666335971107
 30
0.0
 10
-39.9086473833718
 20
57.36554443465285
 30
0.0
 10
-40.11316675805879
 20
57.22030185751882
 30
0.0
 10
-40.49723373918751
 20
57.13522105557701
 30
0.0
 10
-40.90768835142508
 20
57.15114170637865
 30
0.0
 10
-41.32903875772595
 20
57.27342992294155
 30
0.0
 10
-41.73600220236752
 20
57.49096586542428
 30
0.0
 10
-42.1067805556964
 20
57.79174480939292
 30
0.0
 10
-42.42142637636895
 20
58.15845495850053
 30
0.0
 10
-42.65928732412216
 20
58.57063255681886
 30
0.0
 10
-42.81764187717852
 20
59.00518298572839
 30
0.0
 10
-42.83933178874409
 20
59.30363479759343
 30
0.0
 10
-42.8498613687012
 20
59.44852125174575
 30
0.0
 11
-39.8085032197213
 21
57.43666335971107
 31
0.0
 11
-40.11950084649274
 21
57.24492715921584
 31
0.0
 11
-40.4890554632594
 21
57.1531172048237
 31
0.0
 11
-40.89549083827416
 21
57.1666198957462
 31
0.0
 11
-41.31496662910016
 21
57.28464203423651
 31
0.0
 11
-41.72287787706308
 21
57.50026199321763
 31
0.0
 11
-42.09529821449435
 21
57.80083124365463
 31
0.0
 11
-42.4103822600119
 21
58.16872031046422
 31
0.0
 11
-42.64964904468434
 21
58.58234948702871
 31
0.0
 11
-42.7990630949968
 21
59.01745712536248
 31
0.0
 11
-42.8498613687012
 21
59.44852125174575
 31
0.0
  0
SPLINE
  5
1FF
330
52
100
AcDbEntity
  8
0
  6
Continuous
 62
     7
100
AcDbSpline
210
0.0
220
0.0
230
1.0
 70
     8
 71
     3
 72
    11
 73
     7
 74
     5
 42
0.000000001
 43
0.0000000001
 44
0.00000001
 40
0.0
 40
0.0
 40
0.0
 40
0.0
 40
0.3007359728996767
 40
0.5867218291917067
 40
0.8611873651371879
 40
1.129302987320976
 40
1.129302987320976
 40
1.129302987320976
 40
1.129302987320976
 10
-42.8498613687012
 20
59.44852125174575
 30
0.0
 10
-42.84489313595557
 20
59.54900266937386
 30
0.0
 10
-42.83520033146333
 20
59.74503721790505
 30
0.0
 10
-42.75061105635446
 20
60.02178004093556
 30
0.0
 10
-42.61959374981669
 20
60.268766375628
 30
0.0
 10
-42.4907739892279
 20
60.39700850366233
 30
0.0
 10
-42.42711790254921
 20
60.46037914378841
 30
0.0
 11
-42.8498613687012
 21
59.44852125174575
 31
0.0
 11
-42.82236217996535
 21
59.74799732812102
 31
0.0
 11
-42.74073798373421
 21
60.02208746244098
 31
0.0
 11
-42.60758044066807
 21
60.26208829670014
 31
0.0
 11
-42.42711790254921
 21
60.46037914378841
 31
0.0
  0
SPLINE
  5
200
330
52
100
AcDbEntity
  8
0
  6
Continuous
 62
     7
100
AcDbSpline
210
0.0
220
0.0
230
1.0
 70
     8
 71
     3
 72
    13
 73
     9
 74
     7
 42
0.000000001
 43
0.0000000001
 44
0.00000001
 40
0.0
 40
0.0
 40
0.0
 40
0.0
 40
0.3750298199268516
 40
0.7666783497206435
 40
1.185929913489407
 40
1.635765314671296
 40
2.111857133450866
 40
2.604596403706695
 40
2.604596403706695
 40
2.604596403706695
 40
2.604596403706695
 10
-41.62711790252291
 20
61.15319946683684
 30
0.0
 10
-41.52407725435374
 20
61.22596081212413
 30
0.0
 10
-41.31342990684343
 20
61.37470776671997
 30
0.0
 10
-40.91687402893967
 20
61.45730695290014
 30
0.0
 10
-40.49389124960857
 20
61.43378237549128
 30
0.0
 10
-40.06262921195147
 20
61.29773955162342
 30
0.0
 10
-39.64480306629974
 20
61.06695643460569
 30
0.0
 10
-39.40712284147981
 20
60.84685029127138
 30
0.0
 10
-39.28624070075409
 20
60.73490616915673
 30
0.0
 11
-41.62711790252291
 21
61.15319946683684
 31
0.0
 11
-41.30705668608401
 21
61.34866861146642
 31
0.0
 11
-40.92589201426225
 21
61.4386800961919
 31
0.0
 11
-40.50716708405029
 21
61.41767273808311
 31
0.0
 11
-40.07674603741305
 21
61.28694549405232
 31
0.0
 11
-39.66121517654249
 21
61.05457182075706
 31
0.0
 11
-39.28624070075409
 21
60.73490616915673
 31
0.0
  0
SPLINE
  5
201
330
52
100
AcDbEntity
  8
0
  6
Continuous
 62
     7
100
AcDbSpline
210
0.0
220
0.0
230
1.0
 70
     8
 71
     3
 72
    11
 73
     7
 74
     5
 42
0.000000001
 43
0.0000000001
 44
0.00000001
 40
0.0
 40
0.0
 40
0.0
 40
0.0
 40
0.4914183231067343
 40
0.9480289858295635
 40
1.37171157190384
 40
1.775014765182304
 40
1.775014765182304
 40
1.775014765182304
 40
1.775014765182304
 10
-38.69531248716129
 20
59.77918450758718
 30
0.0
 10
-38.65229637291162
 20
59.62012889525155
 30
0.0
 10
-38.56931103378989
 20
59.31328373893128
 30
0.0
 10
-38.59176180863819
 20
58.85086047154209
 30
0.0
 10
-38.72576440898051
 20
58.43265730221262
 30
0.0
 10
-38.91581810879276
 20
58.22886755755108
 30
0.0
 10
-39.00850321969509
 20
58.1294836827595
 30
0.0
 11
-38.69531248716129
 21
59.77918450758718
 31
0.0
 11
-38.59273105861104
 21
59.29859214517524
 31
0.0
 11
-38.61315003861395
 21
58.84243826215742
 31
0.0
 11
-38.75511553695959
 21
58.44324816451653
 31
0.0
 11
-39.00850321969509
 21
58.1294836827595
 31
0.0
  0
SPLINE
  5
202
330
52
100
AcDbEntity
  8
0
  6
Continuous
 62
     7
100
AcDbSpline
210
0.0
220
0.0
230
1.0
 70
     8
 71
     3
 72
    19
 73
    15
 74
    13
 42
0.000000001
 43
0.0000000001
 44
0.00000001
 40
0.0
 40
0.0
 40
0.0
 40
0.0
 40
0.2676406689311385
 40
0.5808314351634054
 40
0.9601912868043445
 40
1.403844027102909
 40
1.896442435105169
 40
2.4152006839467
 40
2.933958932788226
 40
3.426557340790481
 40
3.87021008108904
 40
4.249569932729981
 40
4.562760698962261
 40
4.830401367893407
 40
4.830401367893407
 40
4.830401367893407
 40
4.830401367893407
 10
-19.65063458034621
 20
64.47169180462839
 30
0.0
 10
-19.66587412677535
 20
64.38207754181781
 30
0.0
 10
-19.69894687519432
 20
64.18759746114861
 30
0.0
 10
-19.92825783639604
 20
63.94413959909189
 30
0.0
 10
-20.24876563189537
 20
63.74249156831561
 30
0.0
 10
-20.66345857925969
 20
63.58938054563451
 30
0.0
 10
-21.14011451791943
 20
63.49333703642708
 30
0.0
 10
-21.65063458223999
 20
63.46058923340887
 30
0.0
 10
-22.16115464656086
 20
63.49333703642202
 30
0.0
 10
-22.63781058522155
 20
63.58938054562478
 30
0.0
 10
-23.05250353258739
 20
63.74249156830177
 30
0.0
 10
-23.3730113280887
 20
63.94413959907493
 30
0.0
 10
-23.6023222892928
 20
64.18759746112936
 30
0.0
 10
-23.63539503771375
 20
64.38207754179822
 30
0.0
 10
-23.6506345841438
 20
64.47169180460867
 30
0.0
 11
-19.65063458034621
 21
64.47169180462839
 31
0.0
 11
-19.71878344287425
 21
64.21287282828251
 31
0.0
 11
-19.9185837730292
 21
63.97169180415247
 31
0.0
 11
-20.23642139556322
 21
63.76458521128654
 31
0.0
 11
-20.6506345812913
 21
63.60566640001701
 31
0.0
 11
-21.13299662954901
 21
63.50576623493657
 31
0.0
 11
-21.65063458224004
 21
63.47169180366934
 31
0.0
 11
-22.16827253493141
 21
63.50576623493146
 31
0.0
 11
-22.6506345831901
 21
63.60566640000715
 31
0.0
 11
-23.06484776891975
 21
63.76458521127257
 31
0.0
 11
-23.38268539145581
 21
63.97169180413539
 31
0.0
 11
-23.58248572161314
 21
64.21287282826347
 31
0.0
 11
-23.6506345841438
 21
64.47169180460867
 31
0.0
  0
SPLINE
  5
203
330
52
100
AcDbEntity
  8
0
  6
Continuous
 62
     7
100
AcDbSpline
210
0.0
220
0.0
230
1.0
 70
     8
 71
     3
 72
    13
 73
     9
 74
     7
 42
0.000000001
 43
0.0000000001
 44
0.00000001
 40
0.0
 40
0.0
 40
0.0
 40
0.0
 40
0.3992005550219769
 40
0.8305811409230737
 40
1.278845293275335
 40
1.727109445627609
 40
2.158490031528744
 40
2.557690586550695
 40
2.557690586550695
 40
2.557690586550695
 40
2.557690586550695
 10
-22.90363099388381
 20
63.69226894120559
 30
0.0
 10
-22.77772405811587
 20
63.73597934294001
 30
0.0
 10
-22.51576067442936
 20
63.8269236794909
 30
0.0
 10
-22.09320968870056
 20
63.89561217681468
 30
0.0
 10
-21.65063458224229
 20
63.92162823997802
 30
0.0
 10
-21.20805947578375
 20
63.89561217681902
 30
0.0
 10
-20.78550849005427
 20
63.82692367949945
 30
0.0
 10
-20.52354510636686
 20
63.73597934295112
 30
0.0
 10
-20.3976381705985
 20
63.69226894121795
 30
0.0
 11
-22.90363099388381
 21
63.69226894120559
 31
0.0
 11
-22.52302866390214
 21
63.81269713475353
 31
0.0
 11
-22.09818088300015
 21
63.88748733440332
 31
0.0
 11
-21.65063458224225
 21
63.91284596936902
 31
0.0
 11
-21.2030882814841
 21
63.88748733440773
 31
0.0
 11
-20.77824050058133
 21
63.81269713476214
 31
0.0
 11
-20.3976381705985
 21
63.69226894121795
 31
0.0
  0
SPLINE
  5
204
330
52
100
AcDbEntity
  8
0
  6
Continuous
 62
     7
100
AcDbSpline
210
0.0
220
0.0
230
1.0
 70
     8
 71
     3
 72
    17
 73
    13
 74
    11
 42
0.000000001
 43
0.0000000001
 44
0.00000001
 40
0.0
 40
0.0
 40
0.0
 40
0.0
 40
0.3793598563681558
 40
0.8230125956762002
 40
1.31561100025506
 40
1.834369245485702
 40
2.35312749088085
 40
2.845725896200447
 40
3.289378634645959
 40
3.668738485041821
 40
3.981929254664762
 40
4.249569918872965
 40
4.249569918872965
 40
4.249569918872965
 40
4.249569918872965
 10
-23.38268539050449
 20
64.9716918059127
 30
0.0
 10
-23.27941175805081
 20
65.04559232495542
 30
0.0
 10
-23.05536195052674
 20
65.20591781238215
 30
0.0
 10
-22.6368959951855
 20
65.35239503178698
 30
0.0
 10
-22.16142557866209
 20
65.45052295256272
 30
0.0
 10
-21.65056024271184
 20
65.48266368212106
 30
0.0
 10
-21.14013338889043
 20
65.45007975867557
 30
0.0
 10
-20.66345414699102
 20
65.35399527234848
 30
0.0
 10
-20.24876658748551
 20
65.20089372320695
 30
0.0
 10
-19.92825764337894
 20
64.99924366447922
 30
0.0
 10
-19.69894690447583
 20
64.75578621341131
 30
0.0
 10
-19.66587413815552
 20
64.56130608634946
 30
0.0
 10
-19.65063458034621
 20
64.47169180462839
 30
0.0
 11
-23.38268539050449
 21
64.9716918059127
 31
0.0
 11
-23.06484776770963
 21
65.17879839855905
 31
0.0
 11
-22.65063458187366
 21
65.33771720960252
 31
0.0
 11
-22.16827253364785
 21
65.43761737447369
 31
0.0
 11
-21.65063458110245
 21
65.47169180556767
 31
0.0
 11
-21.13299662863492
 21
65.4376173741818
 31
0.0
 11
-20.65063458063736
 21
65.33771720903863
 31
0.0
 11
-20.23642139516449
 21
65.1787983977616
 31
0.0
 11
-19.91858377284289
 21
64.971691804936
 31
0.0
 11
-19.71878344282734
 21
64.73051078088122
 31
0.0
 11
-19.65063458034621
 21
64.47169180462839
 31
0.0
  0
SPLINE
  5
205
330
52
100
AcDbEntity
  8
0
  6
Continuous
 62
     7
100
AcDbSpline
210
0.0
220
0.0
230
1.0
 70
     8
 71
     3
 72
     9
 73
     5
 74
     3
 42
0.000000001
 43
0.0000000001
 44
0.00000001
 40
0.0
 40
0.0
 40
0.0
 40
0.0
 40
0.2676406716101715
 40
0.5808314400574943
 40
0.5808314400574943
 40
0.5808314400574943
 40
0.5808314400574943
 10
-23.6506345841438
 20
64.47169180460867
 30
0.0
 10
-23.63579722930556
 20
64.56201321329988
 30
0.0
 10
-23.60359731366518
 20
64.75802793629781
 30
0.0
 10
-23.46007449717603
 20
64.89684182160607
 30
0.0
 10
-23.38268539050449
 20
64.9716918059127
 30
0.0
 11
-23.6506345841438
 21
64.47169180460867
 31
0.0
 11
-23.58248572136822
 21
64.73051078141636
 31
0.0
 11
-23.38268539050449
 21
64.9716918059127
 31
0.0
  0
SPLINE
  5
206
330
52
100
AcDbEntity
  8
0
  6
Continuous
 62
     7
100
AcDbSpline
210
0.0
220
0.0
230
1.0
 70
     8
 71
     3
 72
    13
 73
     9
 74
     7
 42
0.000000001
 43
0.0000000001
 44
0.00000001
 40
0.0
 40
0.0
 40
0.0
 40
0.0
 40
0.3065487610639098
 40
0.6255106235417984
 40
0.9625422654357618
 40
1.319786990898366
 40
1.696054070138661
 40
2.087464596078041
 40
2.087464596078041
 40
2.087464596078041
 40
2.087464596078041
 10
-29.02577027345021
 20
72.05667013339193
 30
0.0
 10
-28.93663076252885
 20
72.10781094709218
 30
0.0
 10
-28.75474220152695
 20
72.212163410342
 30
0.0
 10
-28.43489324614391
 20
72.27488386353176
 30
0.0
 10
-28.09529277816265
 20
72.26878171167778
 30
0.0
 10
-27.7456087989057
 20
72.18741051043065
 30
0.0
 10
-27.39773925193276
 20
72.040702610082
 30
0.0
 10
-27.18689152527543
 20
71.89469652622493
 30
0.0
 10
-27.0793880420033
 20
71.82025339752056
 30
0.0
 11
-29.02577027345021
 21
72.05667013339193
 31
0.0
 11
-28.75211529409151
 21
72.19481895548333
 31
0.0
 11
-28.44045304726155
 21
72.26266669624522
 31
0.0
 11
-28.10346173272539
 21
72.25745293147642
 31
0.0
 11
-27.75485020467625
 21
72.1793901519317
 31
0.0
 11
-27.40879990103113
 21
72.03165355284963
 31
0.0
 11
-27.0793880420033
 21
71.82025339752056
 31
0.0
  0
SPLINE
  5
207
330
52
100
AcDbEntity
  8
0
  6
Continuous
 62
     7
100
AcDbSpline
210
0.0
220
0.0
230
1.0
 70
     8
 71
     3
 72
     9
 73
     5
 74
     3
 42
0.000000001
 43
0.0000000001
 44
0.00000001
 40
0.0
 40
0.0
 40
0.0
 40
0.0
 40
0.7566415182295055
 40
1.471389541392778
 40
1.471389541392778
 40
1.471389541392778
 40
1.471389541392778
 10
28.1114919699576
 20
39.19468313353383
 30
0.0
 10
28.07493114959255
 20
38.94486717772997
 30
0.0
 10
28.00383381700973
 20
38.45906699713145
 30
0.0
 10
27.99166966803558
 20
37.96827632789571
 30
0.0
 10
27.98576077244411
 20
37.7298679039823
 30
0.0
 11
28.1114919699576
 21
39.19468313353383
 31
0.0
 11
28.01739373356117
 21
38.44391558653675
 31
0.0
 11
27.98576077244411
 21
37.7298679039823
 31
0.0
  0
ENDBLK
  5
54
330
52
100
AcDbEntity
  8
0
100
AcDbBlockEnd
  0
BLOCK
  5
57
330
55
100
AcDbEntity
  8
0
100
AcDbBlockBegin
  2
AllgSicht1
 70
     0
 10
0.00000000019091
 20
37.99999999986903
 30
0.0
  3
AllgSicht1
  1

  0
INSERT
  5
56
330
55
100
AcDbEntity
  8
0
100
AcDbBlockReference
  2
HC-RBO_8-select__1
 10
-42.9158867724627
 20
2.09292253820312
 30
0.0
  0
MTEXT
  5
208
330
55
100
AcDbEntity
  8
1
 62
     6
100
AcDbMText
 10
0.00000000018997
 20
-4.15707671150176
 30
0.0
 40
5.0
 41
0.0
 71
     2
 72
     1
  1
 
  7
CONVERTER_11
 73
     1
 44
1.32052821128451
  0
ENDBLK
  5
58
330
55
100
AcDbEntity
  8
0
100
AcDbBlockEnd
  0
BLOCK
  5
5A
330
59
100
AcDbEntity
  8
0
100
AcDbBlockBegin
  2
HC-RBO_8-select__2
 70
     0
 10
-161.9999999180864
 20
20.84999930542219
 30
0.0
  3
HC-RBO_8-select__2
  1

  0
LINE
  5
209
330
59
100
AcDbEntity
  8
1
  6
DOT_CENTER
 62
     2
100
AcDbLine
 10
-158.9999999180871
 20
21.94999930571154
 30
0.0
 11
-158.9999999180871
 21
23.5499993057677
 31
0.0
  0
LINE
  5
20A
330
59
100
AcDbEntity
  8
1
  6
DOT_CENTER
 62
     2
100
AcDbLine
 10
-158.9999999180141
 20
46.94999930566013
 30
0.0
 11
-158.9999999180141
 21
48.54999930566896
 31
0.0
  0
LINE
  5
20B
330
59
100
AcDbEntity
  8
1
  6
DOT_CENTER
 62
     2
100
AcDbLine
 10
-144.1999999180704
 20
37.44999931353839
 30
0.0
 11
-144.1999999180704
 21
33.04999930936103
 31
0.0
  0
LINE
  5
20C
330
59
100
AcDbEntity
  8
1
  6
DOT_CENTER
 62
     2
100
AcDbLine
 10
-141.9999999159818
 20
35.2499993114497
 30
0.0
 11
-146.3999999201591
 21
35.2499993114497
 31
0.0
  0
LINE
  5
20D
330
59
100
AcDbEntity
  8
0
  6
Continuous
 62
     7
100
AcDbLine
 10
-106.6499427174376
 20
47.57677643425834
 30
0.0
 11
-126.199999918057
 21
36.28921454011356
 31
0.0
  0
LINE
  5
20E
330
59
100
AcDbEntity
  8
0
  6
Continuous
 62
     7
100
AcDbLine
 10
-106.6499427174161
 20
22.92322216202044
 30
0.0
 11
-104.849942717417
 21
23.96248313199891
 31
0.0
  0
LINE
  5
20F
330
59
100
AcDbEntity
  8
0
  6
Continuous
 62
     7
100
AcDbLine
 10
-82.8999999181371
 20
20.84999930544061
 30
0.0
 11
-156.2499999180899
 21
20.84999930566551
 31
0.0
  0
LINE
  5
210
330
59
100
AcDbEntity
  8
0
  6
Continuous
 62
     7
100
AcDbLine
 10
-81.3999999181337
 20
20.84999930543751
 30
0.0
 11
-82.8999999181371
 21
20.84999930544061
 31
0.0
  0
LINE
  5
211
330
59
100
AcDbEntity
  8
0
  6
Continuous
 62
     7
100
AcDbLine
 10
-126.1999999180551
 20
34.21078405613113
 30
0.0
 11
-106.6499427174161
 21
22.92322216202044
 31
0.0
  0
LINE
  5
212
330
59
100
AcDbEntity
  8
0
  6
Continuous
 62
     7
100
AcDbLine
 10
-126.199999918057
 20
36.28921454011356
 30
0.0
 11
-126.1999999180551
 21
34.21078405613113
 31
0.0
  0
LINE
  5
213
330
59
100
AcDbEntity
  8
0
  6
Continuous
 62
     7
100
AcDbLine
 10
-160.9999999180824
 20
23.5499993057677
 30
0.0
 11
-161.9999999180864
 21
23.54999930576796
 31
0.0
  0
LINE
  5
214
330
59
100
AcDbEntity
  8
0
  6
Continuous
 62
     7
100
AcDbLine
 10
-160.8284270428541
 20
23.54999930576216
 30
0.0
 11
-160.9999999180824
 21
23.5499993057677
 31
0.0
  0
LINE
  5
215
330
59
100
AcDbEntity
  8
0
  6
Continuous
 62
     7
100
AcDbLine
 10
-156.249999918076
 20
23.5499993057488
 30
0.0
 11
-156.9999999180824
 21
23.54999930575602
 31
0.0
  0
LINE
  5
216
330
59
100
AcDbEntity
  8
0
  6
Continuous
 62
     7
100
AcDbLine
 10
-76.3999999181469
 20
20.84999930542219
 30
0.0
 11
-76.3999999180495
 21
49.64999930945854
 31
0.0
  0
LINE
  5
217
330
59
100
AcDbEntity
  8
0
  6
Continuous
 62
     7
100
AcDbLine
 10
-81.3999999181337
 20
20.84999930543751
 30
0.0
 11
-76.3999999181469
 21
20.84999930542219
 31
0.0
  0
LINE
  5
218
330
59
100
AcDbEntity
  8
0
  6
Continuous
 62
     7
100
AcDbLine
 10
-161.9999999180184
 20
46.94999930566769
 30
0.0
 11
-160.9999999180141
 21
46.94999930566831
 31
0.0
  0
LINE
  5
219
330
59
100
AcDbEntity
  8
0
  6
Continuous
 62
     7
100
AcDbLine
 10
-160.9999999180141
 20
46.94999930566831
 30
0.0
 11
-160.8284270427723
 21
46.94999930566294
 31
0.0
  0
LINE
  5
21A
330
59
100
AcDbEntity
  8
0
  6
Continuous
 62
     7
100
AcDbLine
 10
-160.8284270427723
 20
46.94999930566294
 30
0.0
 11
-156.9999999180141
 21
46.94999930566013
 31
0.0
  0
LINE
  5
21B
330
59
100
AcDbEntity
  8
0
  6
Continuous
 62
     7
100
AcDbLine
 10
-156.9999999180141
 20
46.94999930566013
 30
0.0
 11
-156.2499999180043
 21
46.94999930565356
 31
0.0
  0
LINE
  5
21C
330
59
100
AcDbEntity
  8
0
  6
Continuous
 62
     7
100
AcDbLine
 10
-160.9999999180108
 20
48.54999930566896
 30
0.0
 11
-156.9999999180108
 21
48.54999930566078
 31
0.0
  0
LINE
  5
21D
330
59
100
AcDbEntity
  8
0
  6
Continuous
 62
     7
100
AcDbLine
 10
-82.8999999180195
 20
49.64999930947695
 30
0.0
 11
-156.2499999180017
 21
49.64999930970186
 31
0.0
  0
LINE
  5
21E
330
59
100
AcDbEntity
  8
0
  6
Continuous
 62
     7
100
AcDbLine
 10
-82.8999999180195
 20
49.64999930947695
 30
0.0
 11
-81.3999999180452
 21
49.64999930947386
 31
0.0
  0
LINE
  5
21F
330
59
100
AcDbEntity
  8
0
  6
Continuous
 62
     7
100
AcDbLine
 10
-156.2499999180043
 20
46.94999930565356
 30
0.0
 11
-156.249999918076
 21
23.5499993057488
 31
0.0
  0
LINE
  5
220
330
59
100
AcDbEntity
  8
0
  6
Continuous
 62
     7
100
AcDbLine
 10
-160.8284270427723
 20
46.94999930566294
 30
0.0
 11
-160.8284270428541
 21
23.54999930576216
 31
0.0
  0
LINE
  5
221
330
59
100
AcDbEntity
  8
0
  6
Continuous
 62
     7
100
AcDbLine
 10
-156.249999918076
 20
23.5499993057488
 30
0.0
 11
-156.2499999180899
 21
20.84999930566551
 31
0.0
  0
LINE
  5
222
330
59
100
AcDbEntity
  8
0
  6
Continuous
 62
     7
100
AcDbLine
 10
-156.9999999180824
 20
23.54999930575602
 30
0.0
 11
-160.8284270428541
 21
23.54999930576216
 31
0.0
  0
LINE
  5
223
330
59
100
AcDbEntity
  8
0
  6
Continuous
 62
     7
100
AcDbLine
 10
-156.2499999180017
 20
49.64999930970186
 30
0.0
 11
-156.2499999180043
 21
46.94999930565356
 31
0.0
  0
LINE
  5
224
330
59
100
AcDbEntity
  8
0
  6
Continuous
 62
     7
100
AcDbLine
 10
-156.9999999180141
 20
46.94999930566013
 30
0.0
 11
-156.9999999180108
 21
48.54999930566078
 31
0.0
  0
LINE
  5
225
330
59
100
AcDbEntity
  8
0
  6
Continuous
 62
     7
100
AcDbLine
 10
-156.9999999180871
 20
21.94999930571154
 30
0.0
 11
-156.9999999180824
 21
23.54999930575602
 31
0.0
  0
LINE
  5
226
330
59
100
AcDbEntity
  8
0
  6
Continuous
 62
     7
100
AcDbLine
 10
-81.3999999180452
 20
49.64999930947386
 30
0.0
 11
-81.3999999181337
 21
20.84999930543751
 31
0.0
  0
LINE
  5
227
330
59
100
AcDbEntity
  8
0
  6
Continuous
 62
     7
100
AcDbLine
 10
-104.849942717417
 20
23.96248313199891
 30
0.0
 11
-104.8499427174367
 21
46.53751546428302
 31
0.0
  0
LINE
  5
228
330
59
100
AcDbEntity
  8
0
  6
Continuous
 62
     7
100
AcDbLine
 10
-82.8999999180195
 20
49.64999930947695
 30
0.0
 11
-82.8999999181371
 21
20.84999930544061
 31
0.0
  0
LINE
  5
229
330
59
100
AcDbEntity
  8
0
  6
Continuous
 62
     7
100
AcDbLine
 10
-104.8499427174367
 20
46.53751546428302
 30
0.0
 11
-106.6499427174376
 21
47.57677643425834
 31
0.0
  0
LINE
  5
22A
330
59
100
AcDbEntity
  8
0
  6
Continuous
 62
     7
100
AcDbLine
 10
-76.3999999180495
 20
49.64999930945854
 30
0.0
 11
-81.3999999180452
 21
49.64999930947386
 31
0.0
  0
LINE
  5
22B
330
59
100
AcDbEntity
  8
0
  6
Continuous
 62
     7
100
AcDbLine
 10
-160.9999999180871
 20
21.94999930572323
 30
0.0
 11
-156.9999999180871
 21
21.94999930571154
 31
0.0
  0
LINE
  5
22C
330
59
100
AcDbEntity
  8
0
  6
Continuous
 62
     7
100
AcDbLine
 10
-160.9999999180871
 20
21.94999930572323
 30
0.0
 11
-160.9999999180824
 21
23.5499993057677
 31
0.0
  0
LINE
  5
22D
330
59
100
AcDbEntity
  8
0
  6
Continuous
 62
     7
100
AcDbLine
 10
-160.9999999180141
 20
46.94999930566831
 30
0.0
 11
-160.9999999180108
 21
48.54999930566896
 31
0.0
  0
LINE
  5
22E
330
59
100
AcDbEntity
  8
0
  6
Continuous
 62
     7
100
AcDbLine
 10
-161.9999999180184
 20
46.94999930566769
 30
0.0
 11
-161.9999999180864
 21
23.54999930576796
 31
0.0
  0
CIRCLE
  5
22F
330
59
100
AcDbEntity
  8
0
  6
Continuous
 62
     7
100
AcDbCircle
 10
-144.1999999180704
 20
35.2499993114497
 30
0.0
 40
2.000000001898798
  0
ENDBLK
  5
5B
330
59
100
AcDbEntity
  8
0
100
AcDbBlockEnd
  0
BLOCK
  5
5E
330
5C
100
AcDbEntity
  8
0
100
AcDbBlockBegin
  2
Drfsicht1
 70
     0
 10
-119.2000006182985
 20
35.24999949993003
 30
0.0
  3
Drfsicht1
  1

  0
INSERT
  5
5D
330
5C
100
AcDbEntity
  8
0
100
AcDbBlockReference
  2
HC-RBO_8-select__2
 10
-161.9999999180864
 20
20.84999930542219
 30
0.0
  0
MTEXT
  5
230
330
5C
100
AcDbEntity
  8
1
 62
     6
100
AcDbMText
 10
-119.2000006182981
 20
15.84999892746305
 30
0.0
 40
5.0
 41
0.0
 71
     2
 72
     1
  1
 
  7
CONVERTER_11
 73
     1
 44
1.32052821128451
  0
DIMENSION
  5
23B
330
5C
100
AcDbEntity
  8
1
100
AcDbDimension
  2
*D17
 10
-174.596049048438
 20
20.84999930566551
 30
0.0
 11
-178.521049048438
 21
35.4853513683125
 31
0.0
 70
    32
  1
<>
 71
     5
 42
-1.0
 53
90.0
  3
ME10_DIM_10
100
AcDbAlignedDimension
 13
-156.2499999180017
 23
49.64999930970186
 33
0.0
 14
-156.2499999180899
 24
20.84999930566551
 34
0.0
 50
90.0
100
AcDbRotatedDimension
  0
ENDBLK
  5
5F
330
5C
100
AcDbEntity
  8
0
100
AcDbBlockEnd
  0
BLOCK
  5
61
330
60
100
AcDbEntity
  8
0
100
AcDbBlockBegin
  2
HC-RBO_8-select__3
 70
     0
 10
-28.6000004369433
 20
95.6499987103152
 30
0.0
  3
HC-RBO_8-select__3
  1

  0
LINE
  5
23C
330
60
100
AcDbEntity
  8
1
  6
DOT_CENTER
 62
     2
100
AcDbLine
 10
53.9999995630271
 20
140.5499987100756
 30
0.0
 11
53.9999995630271
 21
136.1499987100757
 31
0.0
  0
LINE
  5
23D
330
60
100
AcDbEntity
  8
1
  6
DOT_CENTER
 62
     2
100
AcDbLine
 10
56.19999956302711
 20
138.3499987100757
 30
0.0
 11
51.7999995630271
 21
138.3499987100757
 31
0.0
  0
LINE
  5
23E
330
60
100
AcDbEntity
  8
0
  6
Continuous
 62
     7
100
AcDbLine
 10
-6.1394057458364
 20
95.6499987103152
 30
0.0
 11
-23.6000004372072
 21
95.6499987104132
 31
0.0
  0
LINE
  5
23F
330
60
100
AcDbEntity
  8
0
  6
Continuous
 62
     7
100
AcDbLine
 10
8.43729185558431
 20
135.8499987101955
 30
0.0
 11
5.3999994160618
 21
130.5892538875277
 31
0.0
  0
LINE
  5
240
330
60
100
AcDbEntity
  8
0
  6
Continuous
 62
     7
100
AcDbLine
 10
5.3999994160618
 20
130.5892538875277
 30
0.0
 11
5.3999994158938
 21
99.8499987103097
 31
0.0
  0
LINE
  5
241
330
60
100
AcDbEntity
  8
0
  6
Continuous
 62
     7
100
AcDbLine
 10
11.32404320155479
 20
140.8499987102102
 30
0.0
 11
50.69999956301069
 21
140.8499987098882
 31
0.0
  0
LINE
  5
242
330
60
100
AcDbEntity
  8
0
  6
Continuous
 62
     7
100
AcDbLine
 10
55.82842668778861
 20
140.8499987100699
 30
0.0
 11
51.2499995630123
 21
140.8499987101357
 31
0.0
  0
LINE
  5
243
330
60
100
AcDbEntity
  8
0
  6
Continuous
 62
     7
100
AcDbLine
 10
50.69999956301069
 20
140.8499987098882
 30
0.0
 11
51.2499995630123
 21
140.8499987101357
 31
0.0
  0
LINE
  5
244
330
60
100
AcDbEntity
  8
0
  6
Continuous
 62
     7
100
AcDbLine
 10
51.24999956301789
 20
142.3499987101158
 30
0.0
 11
51.2499995630123
 21
140.8499987101357
 31
0.0
  0
LINE
  5
245
330
60
100
AcDbEntity
  8
0
  6
Continuous
 62
     7
100
AcDbLine
 10
-22.10000043696431
 20
142.3499987103622
 30
0.0
 11
51.24999956301789
 21
142.3499987101158
 31
0.0
  0
LINE
  5
246
330
60
100
AcDbEntity
  8
0
  6
Continuous
 62
     7
100
AcDbLine
 10
-28.6000004369433
 20
139.3499987103672
 30
0.0
 11
-23.6000004369433
 21
139.349998710337
 31
0.0
  0
LINE
  5
247
330
60
100
AcDbEntity
  8
0
  6
Continuous
 62
     7
100
AcDbLine
 10
-22.10000043696431
 20
142.3499987103622
 30
0.0
 11
-23.6000004369385
 21
140.849998710399
 31
0.0
  0
LINE
  5
248
330
60
100
AcDbEntity
  8
0
  6
Continuous
 62
     7
100
AcDbLine
 10
-28.60000043693421
 20
140.8499987104174
 30
0.0
 11
-23.6000004369385
 21
140.849998710399
 31
0.0
  0
LINE
  5
249
330
60
100
AcDbEntity
  8
0
  6
Continuous
 62
     7
100
AcDbLine
 10
-28.6000004369433
 20
139.3499987103672
 30
0.0
 11
-28.60000043693421
 21
140.8499987104174
 31
0.0
  0
LINE
  5
24A
330
60
100
AcDbEntity
  8
0
  6
Continuous
 62
     7
100
AcDbLine
 10
55.51890493814739
 20
135.849998709865
 30
0.0
 11
56.99999956301949
 21
136.6823020367409
 31
0.0
  0
LINE
  5
24B
330
60
100
AcDbEntity
  8
0
  6
Continuous
 62
     7
100
AcDbLine
 10
55.51890493814739
 20
135.849998709865
 30
0.0
 11
50.69999956305961
 21
135.8499987099402
 31
0.0
  0
LINE
  5
24C
330
60
100
AcDbEntity
  8
0
  6
Continuous
 62
     7
100
AcDbLine
 10
56.99999956303469
 20
139.6784258347992
 30
0.0
 11
55.82842668778861
 21
140.8499987100699
 31
0.0
  0
LINE
  5
24D
330
60
100
AcDbEntity
  8
0
  6
Continuous
 62
     7
100
AcDbLine
 10
11.32404320155479
 20
140.8499987102102
 30
0.0
 11
8.43729185558431
 21
135.8499987101955
 31
0.0
  0
LINE
  5
24E
330
60
100
AcDbEntity
  8
0
  6
Continuous
 62
     7
100
AcDbLine
 10
50.69999956305961
 20
135.8499987099402
 30
0.0
 11
8.43729185558431
 21
135.8499987101955
 31
0.0
  0
LINE
  5
24F
330
60
100
AcDbEntity
  8
0
  6
Continuous
 62
     7
100
AcDbLine
 10
50.69999956301069
 20
140.8499987098882
 30
0.0
 11
50.69999956305961
 21
135.8499987099402
 31
0.0
  0
LINE
  5
250
330
60
100
AcDbEntity
  8
0
  6
Continuous
 62
     7
100
AcDbLine
 10
56.99999956303469
 20
139.6784258347992
 30
0.0
 11
56.99999956301949
 21
136.6823020367409
 31
0.0
  0
LINE
  5
251
330
60
100
AcDbEntity
  8
0
  6
Continuous
 62
     7
100
AcDbLine
 10
-23.6000004372072
 20
95.6499987104132
 30
0.0
 11
-23.6000004369433
 21
139.349998710337
 31
0.0
  0
LINE
  5
252
330
60
100
AcDbEntity
  8
0
  6
Continuous
 62
     7
100
AcDbLine
 10
-6.1394057458364
 20
95.6499987103152
 30
0.0
 11
5.3999994158938
 21
99.8499987103097
 31
0.0
  0
CIRCLE
  5
253
330
60
100
AcDbEntity
  8
0
  6
Continuous
 62
     7
100
AcDbCircle
 10
53.9999995630271
 20
138.3499987100757
 30
0.0
 40
2.0
  0
ENDBLK
  5
62
330
60
100
AcDbEntity
  8
0
100
AcDbBlockEnd
  0
BLOCK
  5
65
330
63
100
AcDbEntity
  8
0
100
AcDbBlockBegin
  2
Rckans1
 70
     0
 10
14.20000026331479
 20
118.9999999998599
 30
0.0
  3
Rckans1
  1

  0
INSERT
  5
64
330
63
100
AcDbEntity
  8
0
100
AcDbBlockReference
  2
HC-RBO_8-select__3
 10
-28.6000004369433
 20
95.6499987103152
 30
0.0
  0
MTEXT
  5
254
330
63
100
AcDbEntity
  8
1
 62
     6
100
AcDbMText
 10
14.20000026331582
 20
90.6499996181801
 30
0.0
 40
5.0
 41
0.0
 71
     2
 72
     1
  1
 
  7
CONVERTER_11
 73
     1
 44
1.32052821128451
  0
ENDBLK
  5
66
330
63
100
AcDbEntity
  8
0
100
AcDbBlockEnd
  0
BLOCK
  5
68
330
67
100
AcDbEntity
  8
0
100
AcDbBlockBegin
  2
HC-RBO_8-select__4
 70
     0
 10
-66.33941937927068
 20
95.6499987103153
 30
0.0
  3
HC-RBO_8-select__4
  1

  0
LINE
  5
255
330
67
100
AcDbEntity
  8
1
  6
DOT_CENTER
 62
     2
100
AcDbLine
 10
-38.63941937528068
 20
138.3499987100222
 30
0.0
 11
-40.23941937533319
 21
138.3499987100222
 31
0.0
  0
LINE
  5
256
330
67
100
AcDbEntity
  8
1
  6
DOT_CENTER
 62
     2
100
AcDbLine
 10
-63.63941937522751
 20
138.3499987100726
 30
0.0
 11
-65.2394193752362
 21
138.3499987100726
 31
0.0
  0
LINE
  5
257
330
67
100
AcDbEntity
  8
0
  6
Continuous
 62
     7
100
AcDbLine
 10
-66.33941937914041
 20
130.5892538874226
 30
0.0
 11
-64.93941937533913
 21
130.5892538874229
 31
0.0
  0
LINE
  5
258
330
67
100
AcDbEntity
  8
0
  6
Continuous
 62
     7
100
AcDbLine
 10
-38.93941937888972
 20
130.5892538875278
 30
0.0
 11
-37.53941937510405
 21
130.5892538873646
 31
0.0
  0
LINE
  5
259
330
67
100
AcDbEntity
  8
0
  6
Continuous
 62
     7
100
AcDbLine
 10
-66.33941937926915
 20
142.3499987101159
 30
0.0
 11
-37.53941937523281
 21
142.3499987100632
 31
0.0
  0
LINE
  5
25A
330
67
100
AcDbEntity
  8
0
  6
Continuous
 62
     7
100
AcDbLine
 10
-40.43941937511467
 20
95.6499987103582
 30
0.0
 11
-42.43941937511111
 21
97.6499987103628
 31
0.0
  0
LINE
  5
25B
330
67
100
AcDbEntity
  8
0
  6
Continuous
 62
     7
100
AcDbLine
 10
-40.93941937505272
 20
121.1988481380857
 30
0.0
 11
-40.93941937506268
 21
135.8499987101572
 31
0.0
  0
LINE
  5
25C
330
67
100
AcDbEntity
  8
0
  6
Continuous
 62
     7
100
AcDbLine
 10
-42.43941937503724
 20
134.3499987103606
 30
0.0
 11
-42.43941937511025
 21
121.1988481380888
 31
0.0
  0
LINE
  5
25D
330
67
100
AcDbEntity
  8
0
  6
Continuous
 62
     7
100
AcDbLine
 10
-38.93941937875582
 20
136.3499987100228
 30
0.0
 11
-38.93941937888972
 21
130.5892538875278
 31
0.0
  0
LINE
  5
25E
330
67
100
AcDbEntity
  8
0
  6
Continuous
 62
     7
100
AcDbLine
 10
-38.93941937888205
 20
140.8499987102103
 30
0.0
 11
-38.93941937874777
 21
140.3499987100228
 31
0.0
  0
LINE
  5
25F
330
67
100
AcDbEntity
  8
0
  6
Continuous
 62
     7
100
AcDbLine
 10
-40.23941937533319
 20
136.3499987100254
 30
0.0
 11
-40.23941937533864
 21
135.849998709916
 31
0.0
  0
LINE
  5
260
330
67
100
AcDbEntity
  8
0
  6
Continuous
 62
     7
100
AcDbLine
 10
-40.23941937534129
 20
136.682302036696
 30
0.0
 11
-40.23941937533319
 21
136.3499987100254
 31
0.0
  0
LINE
  5
261
330
67
100
AcDbEntity
  8
0
  6
Continuous
 62
     7
100
AcDbLine
 10
-40.23941937534129
 20
136.682302036696
 30
0.0
 11
-40.23941937533525
 21
139.6784258347796
 31
0.0
  0
LINE
  5
262
330
67
100
AcDbEntity
  8
0
  6
Continuous
 62
     7
100
AcDbLine
 10
-40.23941937532514
 20
140.3499987100254
 30
0.0
 11
-40.23941937533525
 21
139.6784258347796
 31
0.0
  0
LINE
  5
263
330
67
100
AcDbEntity
  8
0
  6
Continuous
 62
     7
100
AcDbLine
 10
-40.23941937532947
 20
140.8499987100365
 30
0.0
 11
-40.23941937532514
 21
140.3499987100254
 31
0.0
  0
LINE
  5
264
330
67
100
AcDbEntity
  8
0
  6
Continuous
 62
     7
100
AcDbLine
 10
-42.43941937509929
 20
135.8499987101998
 30
0.0
 11
-42.43941937503724
 21
134.3499987103606
 31
0.0
  0
LINE
  5
265
330
67
100
AcDbEntity
  8
0
  6
Continuous
 62
     7
100
AcDbLine
 10
-40.93941937506268
 20
135.8499987101572
 30
0.0
 11
-40.23941937533864
 21
135.849998709916
 31
0.0
  0
LINE
  5
266
330
67
100
AcDbEntity
  8
0
  6
Continuous
 62
     7
100
AcDbLine
 10
-42.43941937509929
 20
135.8499987101998
 30
0.0
 11
-40.93941937506268
 21
135.8499987101572
 31
0.0
  0
LINE
  5
267
330
67
100
AcDbEntity
  8
0
  6
Continuous
 62
     7
100
AcDbLine
 10
-38.93941937888558
 20
121.1988481381069
 30
0.0
 11
-40.93941937505272
 21
121.1988481380857
 31
0.0
  0
LINE
  5
268
330
67
100
AcDbEntity
  8
0
  6
Continuous
 62
     7
100
AcDbLine
 10
-42.43941937511025
 20
121.1988481380888
 30
0.0
 11
-40.93941937505272
 21
121.1988481380857
 31
0.0
  0
LINE
  5
269
330
67
100
AcDbEntity
  8
0
  6
Continuous
 62
     7
100
AcDbLine
 10
-42.43941937511111
 20
97.6499987103628
 30
0.0
 11
-42.43941937511025
 21
121.1988481380888
 31
0.0
  0
LINE
  5
26A
330
67
100
AcDbEntity
  8
0
  6
Continuous
 62
     7
100
AcDbLine
 10
-66.33941937927068
 20
140.8499987101359
 30
0.0
 11
-64.93941937533147
 21
140.8499987102371
 31
0.0
  0
LINE
  5
26B
330
67
100
AcDbEntity
  8
0
  6
Continuous
 62
     7
100
AcDbLine
 10
-64.93941937533147
 20
140.8499987102371
 30
0.0
 11
-63.63941937523025
 21
140.8499987100701
 31
0.0
  0
LINE
  5
26C
330
67
100
AcDbEntity
  8
0
  6
Continuous
 62
     7
100
AcDbLine
 10
-63.63941937523968
 20
135.8499987098652
 30
0.0
 11
-62.93941937511007
 21
135.849998710241
 31
0.0
  0
LINE
  5
26D
330
67
100
AcDbEntity
  8
0
  6
Continuous
 62
     7
100
AcDbLine
 10
-61.43941937511168
 20
135.849998710238
 30
0.0
 11
-61.43941937504961
 21
134.3499987103403
 31
0.0
  0
LINE
  5
26E
330
67
100
AcDbEntity
  8
0
  6
Continuous
 62
     7
100
AcDbLine
 10
-62.93941937511007
 20
135.849998710241
 30
0.0
 11
-61.43941937511168
 21
135.849998710238
 31
0.0
  0
LINE
  5
26F
330
67
100
AcDbEntity
  8
0
  6
Continuous
 62
     7
100
AcDbLine
 10
-63.639419375235
 20
139.6784258347994
 30
0.0
 11
-63.63941937524103
 21
136.682302036741
 31
0.0
  0
LINE
  5
270
330
67
100
AcDbEntity
  8
0
  6
Continuous
 62
     7
100
AcDbLine
 10
-63.63941937523968
 20
135.8499987098652
 30
0.0
 11
-63.63941937523556
 21
136.3499987100726
 31
0.0
  0
LINE
  5
271
330
67
100
AcDbEntity
  8
0
  6
Continuous
 62
     7
100
AcDbLine
 10
-63.63941937523556
 20
136.3499987100726
 30
0.0
 11
-63.63941937524103
 21
136.682302036741
 31
0.0
  0
LINE
  5
272
330
67
100
AcDbEntity
  8
0
  6
Continuous
 62
     7
100
AcDbLine
 10
-65.2394193752362
 20
136.3499987100758
 30
0.0
 11
-65.23941937523627
 21
138.3499987100683
 31
0.0
  0
LINE
  5
273
330
67
100
AcDbEntity
  8
0
  6
Continuous
 62
     7
100
AcDbLine
 10
-63.63941937523556
 20
136.3499987100726
 30
0.0
 11
-65.2394193752362
 21
136.3499987100758
 31
0.0
  0
LINE
  5
274
330
67
100
AcDbEntity
  8
0
  6
Continuous
 62
     7
100
AcDbLine
 10
-63.63941937522751
 20
140.3499987100726
 30
0.0
 11
-65.23941937522815
 21
140.3499987100758
 31
0.0
  0
LINE
  5
275
330
67
100
AcDbEntity
  8
0
  6
Continuous
 62
     7
100
AcDbLine
 10
-63.639419375235
 20
139.6784258347994
 30
0.0
 11
-63.63941937522751
 21
140.3499987100726
 31
0.0
  0
LINE
  5
276
330
67
100
AcDbEntity
  8
0
  6
Continuous
 62
     7
100
AcDbLine
 10
-65.23941937523627
 20
138.3499987100683
 30
0.0
 11
-65.23941937522815
 21
140.3499987100758
 31
0.0
  0
LINE
  5
277
330
67
100
AcDbEntity
  8
0
  6
Continuous
 62
     7
100
AcDbLine
 10
-38.63941937528873
 20
136.3499987100222
 30
0.0
 11
-38.63941937529054
 21
138.3499987100147
 31
0.0
  0
LINE
  5
278
330
67
100
AcDbEntity
  8
0
  6
Continuous
 62
     7
100
AcDbLine
 10
-37.53941937510405
 20
130.5892538873646
 30
0.0
 11
-37.53941937523432
 21
140.8499987100344
 31
0.0
  0
LINE
  5
279
330
67
100
AcDbEntity
  8
0
  6
Continuous
 62
     7
100
AcDbLine
 10
-37.53941937513499
 20
99.8499987103468
 30
0.0
 11
-37.53941937510385
 21
95.6499987103411
 31
0.0
  0
LINE
  5
27A
330
67
100
AcDbEntity
  8
0
  6
Continuous
 62
     7
100
AcDbLine
 10
-37.53941937513499
 20
99.8499987103468
 30
0.0
 11
-37.53941937510405
 21
130.5892538873646
 31
0.0
  0
LINE
  5
27B
330
67
100
AcDbEntity
  8
0
  6
Continuous
 62
     7
100
AcDbLine
 10
-37.53941937523281
 20
142.3499987100632
 30
0.0
 11
-37.53941937523432
 21
140.8499987100344
 31
0.0
  0
LINE
  5
27C
330
67
100
AcDbEntity
  8
0
  6
Continuous
 62
     7
100
AcDbLine
 10
-38.63941937529054
 20
138.3499987100147
 30
0.0
 11
-38.63941937528068
 21
140.3499987100222
 31
0.0
  0
LINE
  5
27D
330
67
100
AcDbEntity
  8
0
  6
Continuous
 62
     7
100
AcDbLine
 10
-66.33941937914041
 20
130.5892538874226
 30
0.0
 11
-66.33941937917135
 21
99.8499987103358
 31
0.0
  0
LINE
  5
27E
330
67
100
AcDbEntity
  8
0
  6
Continuous
 62
     7
100
AcDbLine
 10
-66.33941937917135
 20
99.8499987103358
 30
0.0
 11
-66.3394193791402
 21
95.6499987103701
 31
0.0
  0
LINE
  5
27F
330
67
100
AcDbEntity
  8
0
  6
Continuous
 62
     7
100
AcDbLine
 10
-64.939419375401
 20
99.8499987103695
 30
0.0
 11
-66.33941937917135
 21
99.8499987103358
 31
0.0
  0
LINE
  5
280
330
67
100
AcDbEntity
  8
0
  6
Continuous
 62
     7
100
AcDbLine
 10
-66.33941937927068
 20
140.8499987101359
 30
0.0
 11
-66.33941937914041
 21
130.5892538874226
 31
0.0
  0
LINE
  5
281
330
67
100
AcDbEntity
  8
0
  6
Continuous
 62
     7
100
AcDbLine
 10
-66.33941937926915
 20
142.3499987101159
 30
0.0
 11
-66.33941937927068
 21
140.8499987101359
 31
0.0
  0
LINE
  5
282
330
67
100
AcDbEntity
  8
0
  6
Continuous
 62
     7
100
AcDbLine
 10
-66.3394193791402
 20
95.6499987103701
 30
0.0
 11
-64.93941937538415
 21
95.6499987103681
 31
0.0
  0
LINE
  5
283
330
67
100
AcDbEntity
  8
0
  6
Continuous
 62
     7
100
AcDbLine
 10
-61.43941937512349
 20
97.6499987104048
 30
0.0
 11
-63.43941937504366
 21
95.649998710405
 31
0.0
  0
LINE
  5
284
330
67
100
AcDbEntity
  8
0
  6
Continuous
 62
     7
100
AcDbLine
 10
-64.939419375401
 20
99.8499987103695
 30
0.0
 11
-64.939419375335
 21
121.1988481381592
 31
0.0
  0
LINE
  5
285
330
67
100
AcDbEntity
  8
0
  6
Continuous
 62
     7
100
AcDbLine
 10
-62.93941937510011
 20
121.19884813813
 30
0.0
 11
-62.93941937511007
 21
135.849998710241
 31
0.0
  0
LINE
  5
286
330
67
100
AcDbEntity
  8
0
  6
Continuous
 62
     7
100
AcDbLine
 10
-64.939419375335
 20
121.1988481381592
 30
0.0
 11
-64.93941937533913
 21
130.5892538874229
 31
0.0
  0
LINE
  5
287
330
67
100
AcDbEntity
  8
0
  6
Continuous
 62
     7
100
AcDbLine
 10
-64.93941937520522
 20
136.3499987100752
 30
0.0
 11
-64.93941937533913
 21
130.5892538874229
 31
0.0
  0
LINE
  5
288
330
67
100
AcDbEntity
  8
0
  6
Continuous
 62
     7
100
AcDbLine
 10
-63.63941937522751
 20
140.3499987100726
 30
0.0
 11
-63.63941937523025
 21
140.8499987100701
 31
0.0
  0
LINE
  5
289
330
67
100
AcDbEntity
  8
0
  6
Continuous
 62
     7
100
AcDbLine
 10
-64.93941937533147
 20
140.8499987102371
 30
0.0
 11
-64.93941937519716
 21
140.3499987100752
 31
0.0
  0
LINE
  5
28A
330
67
100
AcDbEntity
  8
0
  6
Continuous
 62
     7
100
AcDbLine
 10
-64.939419375401
 20
99.8499987103695
 30
0.0
 11
-64.93941937538415
 21
95.6499987103681
 31
0.0
  0
LINE
  5
28B
330
67
100
AcDbEntity
  8
0
  6
Continuous
 62
     7
100
AcDbLine
 10
-62.93941937510011
 20
121.19884813813
 30
0.0
 11
-64.939419375335
 21
121.1988481381592
 31
0.0
  0
LINE
  5
28C
330
67
100
AcDbEntity
  8
0
  6
Continuous
 62
     7
100
AcDbLine
 10
-63.43941937504366
 20
95.649998710405
 30
0.0
 11
-64.93941937538415
 21
95.6499987103681
 31
0.0
  0
LINE
  5
28D
330
67
100
AcDbEntity
  8
0
  6
Continuous
 62
     7
100
AcDbLine
 10
-61.43941937514568
 20
121.198848138127
 30
0.0
 11
-62.93941937510011
 21
121.19884813813
 31
0.0
  0
LINE
  5
28E
330
67
100
AcDbEntity
  8
0
  6
Continuous
 62
     7
100
AcDbLine
 10
-61.43941937504961
 20
134.3499987103403
 30
0.0
 11
-61.43941937514568
 21
121.198848138127
 31
0.0
  0
LINE
  5
28F
330
67
100
AcDbEntity
  8
0
  6
Continuous
 62
     7
100
AcDbLine
 10
-61.43941937512349
 20
97.6499987104048
 30
0.0
 11
-61.43941937514568
 21
121.198848138127
 31
0.0
  0
LINE
  5
290
330
67
100
AcDbEntity
  8
0
  6
Continuous
 62
     7
100
AcDbLine
 10
-38.63941937528068
 20
140.3499987100222
 30
0.0
 11
-40.23941937532514
 21
140.3499987100254
 31
0.0
  0
LINE
  5
291
330
67
100
AcDbEntity
  8
0
  6
Continuous
 62
     7
100
AcDbLine
 10
-63.63941937523025
 20
140.8499987100701
 30
0.0
 11
-40.23941937532947
 21
140.8499987100365
 31
0.0
  0
LINE
  5
292
330
67
100
AcDbEntity
  8
0
  6
Continuous
 62
     7
100
AcDbLine
 10
-38.93941937888205
 20
140.8499987102103
 30
0.0
 11
-37.53941937523432
 21
140.8499987100344
 31
0.0
  0
LINE
  5
293
330
67
100
AcDbEntity
  8
0
  6
Continuous
 62
     7
100
AcDbLine
 10
-40.23941937532947
 20
140.8499987100365
 30
0.0
 11
-38.93941937888205
 21
140.8499987102103
 31
0.0
  0
LINE
  5
294
330
67
100
AcDbEntity
  8
0
  6
Continuous
 62
     7
100
AcDbLine
 10
-38.93941937893474
 20
95.6499987103153
 30
0.0
 11
-40.43941937511467
 21
95.6499987103582
 31
0.0
  0
LINE
  5
295
330
67
100
AcDbEntity
  8
0
  6
Continuous
 62
     7
100
AcDbLine
 10
-38.93941937888558
 20
121.1988481381069
 30
0.0
 11
-38.93941937895159
 21
99.8499987103098
 31
0.0
  0
LINE
  5
296
330
67
100
AcDbEntity
  8
0
  6
Continuous
 62
     7
100
AcDbLine
 10
-38.93941937893474
 20
95.6499987103153
 30
0.0
 11
-37.53941937510385
 21
95.6499987103411
 31
0.0
  0
LINE
  5
297
330
67
100
AcDbEntity
  8
0
  6
Continuous
 62
     7
100
AcDbLine
 10
-38.93941937893474
 20
95.6499987103153
 30
0.0
 11
-38.93941937895159
 21
99.8499987103098
 31
0.0
  0
LINE
  5
298
330
67
100
AcDbEntity
  8
0
  6
Continuous
 62
     7
100
AcDbLine
 10
-37.53941937513499
 20
99.8499987103468
 30
0.0
 11
-38.93941937895159
 21
99.8499987103098
 31
0.0
  0
LINE
  5
299
330
67
100
AcDbEntity
  8
0
  6
Continuous
 62
     7
100
AcDbLine
 10
-38.93941937888972
 20
130.5892538875278
 30
0.0
 11
-38.93941937888558
 21
121.1988481381069
 31
0.0
  0
LINE
  5
29A
330
67
100
AcDbEntity
  8
0
  6
Continuous
 62
     7
100
AcDbLine
 10
-38.63941937528873
 20
136.3499987100222
 30
0.0
 11
-40.23941937533319
 21
136.3499987100254
 31
0.0
  0
LINE
  5
29B
330
67
100
AcDbEntity
  8
0
  6
Continuous
 62
     7
100
AcDbLine
 10
-63.63941937524103
 20
136.682302036741
 30
0.0
 11
-40.23941937534129
 21
136.682302036696
 31
0.0
  0
LINE
  5
29C
330
67
100
AcDbEntity
  8
0
  6
Continuous
 62
     7
100
AcDbLine
 10
-61.43941937511168
 20
135.849998710238
 30
0.0
 11
-42.43941937509929
 21
135.8499987101998
 31
0.0
  0
LINE
  5
29D
330
67
100
AcDbEntity
  8
0
  6
Continuous
 62
     7
100
AcDbLine
 10
-63.639419375235
 20
139.6784258347994
 30
0.0
 11
-40.23941937533525
 21
139.6784258347796
 31
0.0
  0
ARC
  5
29E
330
67
100
AcDbEntity
  8
0
  6
Continuous
 62
     7
100
AcDbCircle
 10
-47.43941937503725
 20
134.3499987103707
 30
0.0
 40
5.000000000000007
100
AcDbArc
 50
359.9999999998844
 51
17.45760311819628
  0
ARC
  5
29F
330
67
100
AcDbEntity
  8
0
  6
Continuous
 62
     7
100
AcDbCircle
 10
-56.43941937508868
 20
134.3499987106056
 30
0.0
 40
4.999999999960911
100
AcDbArc
 50
162.5423968849688
 51
180.0000000030403
  0
ENDBLK
  5
69
330
67
100
AcDbEntity
  8
0
100
AcDbBlockEnd
  0
BLOCK
  5
6C
330
6A
100
AcDbEntity
  8
0
100
AcDbBlockBegin
  2
SA_Links1
 70
     0
 10
-51.93941956949734
 20
118.99999999986
 30
0.0
  3
SA_Links1
  1

  0
INSERT
  5
6B
330
6A
100
AcDbEntity
  8
0
100
AcDbBlockReference
  2
HC-RBO_8-select__4
 10
-66.33941937927068
 20
95.6499987103153
 30
0.0
  0
MTEXT
  5
2A0
330
6A
100
AcDbEntity
  8
1
 62
     6
100
AcDbMText
 10
-51.93941956949734
 20
90.6499996181801
 30
0.0
 40
5.0
 41
0.0
 71
     2
 72
     1
  1
 
  7
CONVERTER_11
 73
     1
 44
1.32052821128451
  0
ENDBLK
  5
6D
330
6A
100
AcDbEntity
  8
0
100
AcDbBlockEnd
  0
BLOCK
  5
6F
330
6E
100
AcDbEntity
  8
0
100
AcDbBlockBegin
  2
HC-RBO_8-select__5
 70
     0
 10
-216.8000019579613
 20
95.6499987103553
 30
0.0
  3
HC-RBO_8-select__5
  1

  0
LINE
  5
2A1
330
6E
100
AcDbEntity
  8
0
  6
Continuous
 62
     7
100
AcDbLine
 10
-216.8000019579613
 20
139.3499987104298
 30
0.0
 11
-216.800001957902
 21
95.6499987103553
 31
0.0
  0
LINE
  5
2A2
330
6E
100
AcDbEntity
  8
0
  6
Continuous
 62
     7
100
AcDbLine
 10
-216.8000019579475
 20
140.8499987103411
 30
0.0
 11
-216.8000019579613
 21
139.3499987104298
 31
0.0
  0
LINE
  5
2A3
330
6E
100
AcDbEntity
  8
0
  6
Continuous
 62
     7
100
AcDbLine
 10
-211.6696979651435
 20
135.8499987099289
 30
0.0
 11
-193.1303059505958
 21
135.8499987098886
 31
0.0
  0
LINE
  5
2A4
330
6E
100
AcDbEntity
  8
0
  6
Continuous
 62
     7
100
AcDbLine
 10
-188.0000019539081
 20
142.3499987103622
 30
0.0
 11
-216.8000019579444
 21
142.3499987103332
 31
0.0
  0
LINE
  5
2A5
330
6E
100
AcDbEntity
  8
0
  6
Continuous
 62
     7
100
AcDbLine
 10
-188.000001953925
 20
139.3499987103672
 30
0.0
 11
-197.9000019578168
 21
139.3499987103564
 31
0.0
  0
LINE
  5
2A6
330
6E
100
AcDbEntity
  8
0
  6
Continuous
 62
     7
100
AcDbLine
 10
-206.9000019579073
 20
139.3499987103759
 30
0.0
 11
-216.8000019579613
 21
139.3499987104298
 31
0.0
  0
LINE
  5
2A7
330
6E
100
AcDbEntity
  8
0
  6
Continuous
 62
     7
100
AcDbLine
 10
-197.9000019578168
 20
139.3499987103564
 30
0.0
 11
-206.9000019579073
 21
139.3499987103759
 31
0.0
  0
LINE
  5
2A8
330
6E
100
AcDbEntity
  8
0
  6
Continuous
 62
     7
100
AcDbLine
 10
-216.8000019579475
 20
140.8499987103411
 30
0.0
 11
-216.8000019579444
 21
142.3499987103332
 31
0.0
  0
LINE
  5
2A9
330
6E
100
AcDbEntity
  8
0
  6
Continuous
 62
     7
100
AcDbLine
 10
-213.9000019578431
 20
95.6499987103612
 30
0.0
 11
-216.800001957902
 21
95.6499987103553
 31
0.0
  0
LINE
  5
2AA
330
6E
100
AcDbEntity
  8
0
  6
Continuous
 62
     7
100
AcDbLine
 10
-216.8000019579475
 20
140.8499987103411
 30
0.0
 11
-188.0000019539112
 21
140.849998710399
 31
0.0
  0
LINE
  5
2AB
330
6E
100
AcDbEntity
  8
0
  6
Continuous
 62
     7
100
AcDbLine
 10
-213.9000019578431
 20
95.6499987103612
 30
0.0
 11
-211.9000019578443
 21
97.649998710368
 31
0.0
  0
LINE
  5
2AC
330
6E
100
AcDbEntity
  8
0
  6
Continuous
 62
     7
100
AcDbLine
 10
-211.9000019578443
 20
97.649998710368
 30
0.0
 11
-211.9000019579182
 21
134.3499987103658
 31
0.0
  0
LINE
  5
2AD
330
6E
100
AcDbEntity
  8
0
  6
Continuous
 62
     7
100
AcDbLine
 10
-188.0000019538657
 20
95.6499987104133
 30
0.0
 11
-188.000001953925
 21
139.3499987103672
 31
0.0
  0
LINE
  5
2AE
330
6E
100
AcDbEntity
  8
0
  6
Continuous
 62
     7
100
AcDbLine
 10
-192.9000019579075
 20
97.64999871041
 30
0.0
 11
-190.900001957909
 21
95.6499987104075
 31
0.0
  0
LINE
  5
2AF
330
6E
100
AcDbEntity
  8
0
  6
Continuous
 62
     7
100
AcDbLine
 10
-192.9000019578277
 20
134.3499987103455
 30
0.0
 11
-192.9000019579075
 21
97.64999871041
 31
0.0
  0
LINE
  5
2B0
330
6E
100
AcDbEntity
  8
0
  6
Continuous
 62
     7
100
AcDbLine
 10
-188.000001953925
 20
139.3499987103672
 30
0.0
 11
-188.0000019539112
 21
140.849998710399
 31
0.0
  0
LINE
  5
2B1
330
6E
100
AcDbEntity
  8
0
  6
Continuous
 62
     7
100
AcDbLine
 10
-188.0000019539081
 20
142.3499987103622
 30
0.0
 11
-188.0000019539112
 21
140.849998710399
 31
0.0
  0
LINE
  5
2B2
330
6E
100
AcDbEntity
  8
0
  6
Continuous
 62
     7
100
AcDbLine
 10
-188.0000019538657
 20
95.6499987104133
 30
0.0
 11
-190.900001957909
 21
95.6499987104075
 31
0.0
  0
ARC
  5
2B3
330
6E
100
AcDbEntity
  8
0
  6
Continuous
 62
     7
100
AcDbCircle
 10
-206.9000019579182
 20
134.3499987103759
 30
0.0
 40
5.0
100
AcDbArc
 50
89.99999999987526
 51
180.0000000001156
  0
ARC
  5
2B4
330
6E
100
AcDbEntity
  8
0
  6
Continuous
 62
     7
100
AcDbCircle
 10
-197.9000019578277
 20
134.3499987103564
 30
0.0
 40
5.0
100
AcDbArc
 50
359.9999999998749
 51
89.99999999987526
  0
ENDBLK
  5
70
330
6E
100
AcDbEntity
  8
0
100
AcDbBlockEnd
  0
BLOCK
  5
73
330
71
100
AcDbEntity
  8
0
100
AcDbBlockBegin
  2
SA_Rechts1
 70
     0
 10
-202.400001763455
 20
118.9999999998599
 30
0.0
  3
SA_Rechts1
  1

  0
INSERT
  5
72
330
71
100
AcDbEntity
  8
0
100
AcDbBlockReference
  2
HC-RBO_8-select__5
 10
-216.8000019579613
 20
95.6499987103553
 30
0.0
  0
MTEXT
  5
2B5
330
71
100
AcDbEntity
  8
1
 62
     6
100
AcDbMText
 10
-202.400001763455
 20
90.6499996181801
 30
0.0
 40
5.0
 41
0.0
 71
     2
 72
     1
  1
 
  7
CONVERTER_11
 73
     1
 44
1.32052821128451
  0
ENDBLK
  5
74
330
71
100
AcDbEntity
  8
0
100
AcDbBlockEnd
  0
BLOCK
  5
76
330
75
100
AcDbEntity
  8
0
100
AcDbBlockBegin
  2
HC-RBO_8-select__6
 70
     0
 10
-162.0000006814905
 20
95.6499987103411
 30
0.0
  3
HC-RBO_8-select__6
  1

  0
LINE
  5
2B6
330
75
100
AcDbEntity
  8
1
  6
DOT_CENTER
 62
     2
100
AcDbLine
 10
-159.0000006814912
 20
140.5499987100222
 30
0.0
 11
-159.0000006814912
 21
136.1499987100222
 31
0.0
  0
LINE
  5
2B7
330
75
100
AcDbEntity
  8
1
  6
DOT_CENTER
 62
     2
100
AcDbLine
 10
-156.8000006814912
 20
138.3499987100222
 30
0.0
 11
-161.2000006814912
 21
138.3499987100222
 31
0.0
  0
LINE
  5
2B8
330
75
100
AcDbEntity
  8
0
  6
Continuous
 62
     7
100
AcDbLine
 10
-76.400000681551
 20
140.8499987103595
 30
0.0
 11
-76.4000006815418
 21
139.3499987104298
 31
0.0
  0
LINE
  5
2B9
330
75
100
AcDbEntity
  8
0
  6
Continuous
 62
     7
100
AcDbLine
 10
-81.4000006815378
 20
140.8499987103411
 30
0.0
 11
-82.9000006815412
 21
142.3499987103333
 31
0.0
  0
LINE
  5
2BA
330
75
100
AcDbEntity
  8
0
  6
Continuous
 62
     7
100
AcDbLine
 10
-155.7000006814251
 20
135.849998709899
 30
0.0
 11
-160.5189060566013
 21
135.849998709916
 31
0.0
  0
LINE
  5
2BB
330
75
100
AcDbEntity
  8
0
  6
Continuous
 62
     7
100
AcDbLine
 10
-162.0000006814795
 20
136.6823020366959
 30
0.0
 11
-160.5189060566013
 21
135.849998709916
 31
0.0
  0
LINE
  5
2BC
330
75
100
AcDbEntity
  8
0
  6
Continuous
 62
     7
100
AcDbLine
 10
-160.8284278062582
 20
140.8499987100364
 30
0.0
 11
-162.0000006814905
 21
139.6784258347795
 31
0.0
  0
LINE
  5
2BD
330
75
100
AcDbEntity
  8
0
  6
Continuous
 62
     7
100
AcDbLine
 10
-155.7000006814251
 20
135.849998709899
 30
0.0
 11
-155.7000006815097
 21
140.849998710088
 31
0.0
  0
LINE
  5
2BE
330
75
100
AcDbEntity
  8
0
  6
Continuous
 62
     7
100
AcDbLine
 10
-156.250000681494
 20
142.3499987100632
 30
0.0
 11
-156.2500006814884
 21
140.8499987100344
 31
0.0
  0
LINE
  5
2BF
330
75
100
AcDbEntity
  8
0
  6
Continuous
 62
     7
100
AcDbLine
 10
-156.2500006814884
 20
140.8499987100344
 30
0.0
 11
-160.8284278062582
 21
140.8499987100364
 31
0.0
  0
LINE
  5
2C0
330
75
100
AcDbEntity
  8
0
  6
Continuous
 62
     7
100
AcDbLine
 10
-162.0000006814795
 20
136.6823020366959
 30
0.0
 11
-162.0000006814905
 21
139.6784258347795
 31
0.0
  0
LINE
  5
2C1
330
75
100
AcDbEntity
  8
0
  6
Continuous
 62
     7
100
AcDbLine
 10
-98.8605953725558
 20
95.6499987103411
 30
0.0
 11
-81.4000006812645
 21
95.6499987103553
 31
0.0
  0
LINE
  5
2C2
330
75
100
AcDbEntity
  8
0
  6
Continuous
 62
     7
100
AcDbLine
 10
-155.7000006814251
 20
135.849998709899
 30
0.0
 11
-113.4372929739493
 21
135.8499987101542
 31
0.0
  0
LINE
  5
2C3
330
75
100
AcDbEntity
  8
0
  6
Continuous
 62
     7
100
AcDbLine
 10
-116.3240443199467
 20
140.8499987102089
 30
0.0
 11
-155.7000006815097
 21
140.849998710088
 31
0.0
  0
LINE
  5
2C4
330
75
100
AcDbEntity
  8
0
  6
Continuous
 62
     7
100
AcDbLine
 10
-155.7000006815097
 20
140.849998710088
 30
0.0
 11
-156.2500006814884
 21
140.8499987100344
 31
0.0
  0
LINE
  5
2C5
330
75
100
AcDbEntity
  8
0
  6
Continuous
 62
     7
100
AcDbLine
 10
-113.4372929739493
 20
135.8499987101542
 30
0.0
 11
-116.3240443199467
 21
140.8499987102089
 31
0.0
  0
LINE
  5
2C6
330
75
100
AcDbEntity
  8
0
  6
Continuous
 62
     7
100
AcDbLine
 10
-110.4000005343565
 20
130.5892538873645
 30
0.0
 11
-113.4372929739493
 21
135.8499987101542
 31
0.0
  0
LINE
  5
2C7
330
75
100
AcDbEntity
  8
0
  6
Continuous
 62
     7
100
AcDbLine
 10
-110.4000005343738
 20
99.8499987103467
 30
0.0
 11
-110.4000005343565
 21
130.5892538873645
 31
0.0
  0
LINE
  5
2C8
330
75
100
AcDbEntity
  8
0
  6
Continuous
 62
     7
100
AcDbLine
 10
-81.4000006814882
 20
139.3499987103997
 30
0.0
 11
-76.4000006815418
 21
139.3499987104298
 31
0.0
  0
LINE
  5
2C9
330
75
100
AcDbEntity
  8
0
  6
Continuous
 62
     7
100
AcDbLine
 10
-81.4000006815378
 20
140.8499987103411
 30
0.0
 11
-76.400000681551
 21
140.8499987103595
 31
0.0
  0
LINE
  5
2CA
330
75
100
AcDbEntity
  8
0
  6
Continuous
 62
     7
100
AcDbLine
 10
-110.4000005343738
 20
99.8499987103467
 30
0.0
 11
-98.8605953725558
 21
95.6499987103411
 31
0.0
  0
LINE
  5
2CB
330
75
100
AcDbEntity
  8
0
  6
Continuous
 62
     7
100
AcDbLine
 10
-81.4000006814882
 20
139.3499987103997
 30
0.0
 11
-81.4000006812645
 21
95.6499987103553
 31
0.0
  0
LINE
  5
2CC
330
75
100
AcDbEntity
  8
0
  6
Continuous
 62
     7
100
AcDbLine
 10
-82.9000006815412
 20
142.3499987103333
 30
0.0
 11
-156.250000681494
 21
142.3499987100632
 31
0.0
  0
CIRCLE
  5
2CD
330
75
100
AcDbEntity
  8
0
  6
Continuous
 62
     7
100
AcDbCircle
 10
-159.0000006814912
 20
138.3499987100222
 30
0.0
 40
2.0
  0
ENDBLK
  5
77
330
75
100
AcDbEntity
  8
0
100
AcDbBlockEnd
  0
BLOCK
  5
7A
330
78
100
AcDbEntity
  8
0
100
AcDbBlockBegin
  2
Vordans1
 70
     0
 10
-119.2000013817026
 20
118.9999999998599
 30
0.0
  3
Vordans1
  1

  0
INSERT
  5
79
330
78
100
AcDbEntity
  8
0
100
AcDbBlockReference
  2
HC-RBO_8-select__6
 10
-162.0000006814905
 20
95.6499987103411
 30
0.0
  0
MTEXT
  5
2CE
330
78
100
AcDbEntity
  8
1
 62
     6
100
AcDbMText
 10
-119.2000013817021
 20
90.6499996181801
 30
0.0
 40
5.0
 41
0.0
 71
     2
 72
     1
  1
 
  7
CONVERTER_11
 73
     1
 44
1.32052821128451
  0
DIMENSION
  5
2D9
330
78
100
AcDbEntity
  8
1
100
AcDbDimension
  2
*D18
 10
-174.596049048438
 20
142.3499987103333
 30
0.0
 11
-178.521049048438
 21
121.675845713306
 31
0.0
 70
    32
  1
<>
 71
     5
 42
-1.0
 53
90.0
  3
ME10_DIM_11
100
AcDbAlignedDimension
 13
-81.4000006812645
 23
95.6499987103553
 33
0.0
 14
-82.9000006815412
 24
142.3499987103333
 34
0.0
 50
90.0
100
AcDbRotatedDimension
  0
DIMENSION
  5
2E4
330
78
100
AcDbEntity
  8
1
100
AcDbDimension
  2
*D19
 10
-76.4000006815418
 20
81.14000357938801
 30
0.0
 11
-112.999685582372
 21
85.065003579388
 31
0.0
 70
    32
  1
<>
 71
     5
 42
-1.0
 53
0.00013888888889
  3
ME10_DIM_12
100
AcDbAlignedDimension
 13
-162.0000006814795
 23
136.6823020366959
 33
0.0
 14
-76.4000006815418
 24
139.3499987104298
 34
0.0
100
AcDbRotatedDimension
  0
ENDBLK
  5
7B
330
78
100
AcDbEntity
  8
0
100
AcDbBlockEnd
  0
BLOCK
  5
84
330
7C
100
AcDbEntity
  8
0
100
AcDbBlockBegin
  2
1
 70
     0
 10
0.0
 20
0.0
 30
0.0
  3
1
  1

  0
INSERT
  5
7D
330
7C
100
AcDbEntity
  8
0
100
AcDbBlockReference
  2
A4I_CS
 10
64.09999880253672
 20
-36.40353900056982
 30
0.0
  0
INSERT
  5
7E
330
7C
100
AcDbEntity
  8
0
100
AcDbBlockReference
  2
AllgSicht1
 10
0.00000000019091
 20
37.99999999986903
 30
0.0
  0
INSERT
  5
7F
330
7C
100
AcDbEntity
  8
0
100
AcDbBlockReference
  2
Drfsicht1
 10
-119.2000006182985
 20
35.24999949993003
 30
0.0
  0
INSERT
  5
80
330
7C
100
AcDbEntity
  8
0
100
AcDbBlockReference
  2
Rckans1
 10
14.20000026331479
 20
118.9999999998599
 30
0.0
  0
INSERT
  5
81
330
7C
100
AcDbEntity
  8
0
100
AcDbBlockReference
  2
SA_Links1
 10
-51.93941956949734
 20
118.99999999986
 30
0.0
  0
INSERT
  5
82
330
7C
100
AcDbEntity
  8
0
100
AcDbBlockReference
  2
SA_Rechts1
 10
-202.400001763455
 20
118.9999999998599
 30
0.0
  0
INSERT
  5
83
330
7C
100
AcDbEntity
  8
0
100
AcDbBlockReference
  2
Vordans1
 10
-119.2000013817026
 20
118.9999999998599
 30
0.0
  0
ENDBLK
  5
85
330
7C
100
AcDbEntity
  8
0
100
AcDbBlockEnd
  0
BLOCK
  5
238
330
231
100
AcDbEntity
  8
0
100
AcDbBlockBegin
  2
*D17
 70
     1
 10
0.0
 20
0.0
 30
0.0
  3
*D17
  1

  0
LINE
  5
232
330
231
100
AcDbEntity
  8
1
  6
Continuous
 62
     2
100
AcDbLine
 10
-174.596049048438
 20
20.84999930566551
 30
0.0
 11
-174.596049048438
 21
49.64999930970185
 31
0.0
  0
LINE
  5
233
330
231
100
AcDbEntity
  8
1
  6
Continuous
 62
     2
100
AcDbLine
 10
-156.7499999180016
 20
49.64999930970185
 30
0.0
 11
-176.096049048438
 21
49.64999930970185
 31
0.0
  0
LINE
  5
234
330
231
100
AcDbEntity
  8
1
  6
Continuous
 62
     2
100
AcDbLine
 10
-156.7499999180899
 20
20.84999930566551
 30
0.0
 11
-176.096049048438
 21
20.84999930566551
 31
0.0
  0
SOLID
  5
235
330
231
100
AcDbEntity
  8
1
 62
     2
100
AcDbTrace
 10
-175.0568327899938
 20
24.34999930566551
 30
0.0
 11
-174.1352653068821
 21
24.34999930566551
 31
0.0
 12
-174.596049048438
 22
20.84999930566551
 32
0.0
 13
-174.596049048438
 23
20.84999930566551
 33
0.0
  0
SOLID
  5
236
330
231
100
AcDbEntity
  8
1
 62
     2
100
AcDbTrace
 10
-174.1352653068821
 20
46.14999930970185
 30
0.0
 11
-175.0568327899938
 21
46.14999930970185
 31
0.0
 12
-174.596049048438
 22
49.64999930970185
 32
0.0
 13
-174.596049048438
 23
49.64999930970185
 33
0.0
  0
MTEXT
  5
237
330
231
100
AcDbEntity
  8
1
 62
     3
100
AcDbMText
 10
-176.946049048438
 20
30.6728513683125
 30
0.0
 40
3.5
 41
0.0
 71
     7
 72
     1
  1
28,8
  7
CONVERTER_11
 11
0.0
 21
1.0
 31
0.0
 73
     1
 44
0.60024009603842
  0
ENDBLK
  5
239
330
231
100
AcDbEntity
  8
0
100
AcDbBlockEnd
  0
BLOCK
  5
2D6
330
2CF
100
AcDbEntity
  8
0
100
AcDbBlockBegin
  2
*D18
 70
     1
 10
0.0
 20
0.0
 30
0.0
  3
*D18
  1

  0
LINE
  5
2D0
330
2CF
100
AcDbEntity
  8
1
  6
Continuous
 62
     2
100
AcDbLine
 10
-174.596049048438
 20
142.3499987103333
 30
0.0
 11
-174.596049048438
 21
95.64999871035533
 31
0.0
  0
LINE
  5
2D1
330
2CF
100
AcDbEntity
  8
1
  6
Continuous
 62
     2
100
AcDbLine
 10
-81.90000068126447
 20
95.64999871035533
 30
0.0
 11
-176.096049048438
 21
95.64999871035533
 31
0.0
  0
LINE
  5
2D2
330
2CF
100
AcDbEntity
  8
1
  6
Continuous
 62
     2
100
AcDbLine
 10
-83.40000068154117
 20
142.3499987103333
 30
0.0
 11
-176.096049048438
 21
142.3499987103333
 31
0.0
  0
SOLID
  5
2D3
330
2CF
100
AcDbEntity
  8
1
 62
     2
100
AcDbTrace
 10
-174.1352653068821
 20
138.8499987103333
 30
0.0
 11
-175.0568327899938
 21
138.8499987103333
 31
0.0
 12
-174.596049048438
 22
142.3499987103333
 32
0.0
 13
-174.596049048438
 23
142.3499987103333
 33
0.0
  0
SOLID
  5
2D4
330
2CF
100
AcDbEntity
  8
1
 62
     2
100
AcDbTrace
 10
-175.0568327899938
 20
99.14999871035533
 30
0.0
 11
-174.1352653068821
 21
99.14999871035533
 31
0.0
 12
-174.596049048438
 22
95.64999871035533
 32
0.0
 13
-174.596049048438
 23
95.64999871035533
 33
0.0
  0
MTEXT
  5
2D5
330
2CF
100
AcDbEntity
  8
1
 62
     3
100
AcDbMText
 10
-176.946049048438
 20
116.863345713306
 30
0.0
 40
3.5
 41
0.0
 71
     7
 72
     1
  1
46,7
  7
CONVERTER_11
 11
0.0
 21
1.0
 31
0.0
 73
     1
 44
0.60024009603842
  0
ENDBLK
  5
2D7
330
2CF
100
AcDbEntity
  8
0
100
AcDbBlockEnd
  0
BLOCK
  5
2E1
330
2DA
100
AcDbEntity
  8
0
100
AcDbBlockBegin
  2
*D19
 70
     1
 10
0.0
 20
0.0
 30
0.0
  3
*D19
  1

  0
LINE
  5
2DB
330
2DA
100
AcDbEntity
  8
1
  6
Continuous
 62
     2
100
AcDbLine
 10
-76.4000006815418
 20
81.14000357938801
 30
0.0
 11
-162.0000006814795
 21
81.14000357938801
 31
0.0
  0
LINE
  5
2DC
330
2DA
100
AcDbEntity
  8
1
  6
Continuous
 62
     2
100
AcDbLine
 10
-162.0000006814795
 20
136.1823020366959
 30
0.0
 11
-162.0000006814795
 21
79.64000357938801
 31
0.0
  0
LINE
  5
2DD
330
2DA
100
AcDbEntity
  8
1
  6
Continuous
 62
     2
100
AcDbLine
 10
-76.4000006815418
 20
138.8499987104299
 30
0.0
 11
-76.4000006815418
 21
79.64000357938801
 31
0.0
  0
SOLID
  5
2DE
330
2DA
100
AcDbEntity
  8
1
 62
     2
100
AcDbTrace
 10
-79.9000006815418
 20
80.67921983783212
 30
0.0
 11
-79.9000006815418
 21
81.6007873209439
 31
0.0
 12
-76.4000006815418
 22
81.14000357938801
 32
0.0
 13
-76.4000006815418
 23
81.14000357938801
 33
0.0
  0
SOLID
  5
2DF
330
2DA
100
AcDbEntity
  8
1
 62
     2
100
AcDbTrace
 10
-158.5000006814795
 20
81.6007873209439
 30
0.0
 11
-158.5000006814795
 21
80.67921983783212
 31
0.0
 12
-162.0000006814795
 22
81.14000357938801
 32
0.0
 13
-162.0000006814795
 23
81.14000357938801
 33
0.0
  0
MTEXT
  5
2E0
330
2DA
100
AcDbEntity
  8
1
 62
     3
100
AcDbMText
 10
-117.812185582372
 20
83.490003579388
 30
0.0
 40
3.5
 41
0.0
 71
     7
 72
     1
  1
85,6
  7
CONVERTER_11
 11
0.9999999999970619
 21
2.424068405545306E-6
 31
0.0
 73
     1
 44
0.60024009603842
  0
ENDBLK
  5
2E2
330
2DA
100
AcDbEntity
  8
0
100
AcDbBlockEnd
  0
ENDSEC
  0
SECTION
  2
ENTITIES
  0
INSERT
  5
86
330
1F
100
AcDbEntity
  8
1
100
AcDbBlockReference
  2
1
 10
0.0
 20
0.0
 30
0.0
  0
ENDSEC
  0
SECTION
  2
OBJECTS
  0
DICTIONARY
  5
C
330
0
100
AcDbDictionary
281
     1
  3
ACAD_GROUP
350
D
  3
ACAD_LAYOUT
350
1A
  3
ACAD_MATERIAL
350
3B
  3
ACAD_MLEADERSTYLE
350
30C
  3
ACAD_MLINESTYLE
350
17
  3
ACAD_PLOTSETTINGS
350
19
  3
ACAD_PLOTSTYLENAME
350
E
  3
ACAD_TABLESTYLE
350
30B
  3
ACAD_VISUALSTYLE
350
2A
  0
DICTIONARY
  5
D
102
{ACAD_REACTORS
330
C
102
}
330
C
100
AcDbDictionary
281
     1
  0
DICTIONARY
  5
1A
102
{ACAD_REACTORS
330
C
102
}
330
C
100
AcDbDictionary
281
     1
  3
Layout1
350
1E
  3
Layout2
350
26
  3
Model
350
22
  0
DICTIONARY
  5
3B
102
{ACAD_REACTORS
330
C
102
}
330
C
100
AcDbDictionary
281
     1
  3
ByBlock
350
3D
  3
ByLayer
350
3C
  3
Global
350
3E
  0
DICTIONARY
  5
30C
102
{ACAD_REACTORS
330
C
102
}
330
C
100
AcDbDictionary
281
     1
  0
DICTIONARY
  5
17
102
{ACAD_REACTORS
330
C
102
}
330
C
100
AcDbDictionary
281
     1
  3
Standard
350
18
  0
DICTIONARY
  5
19
102
{ACAD_REACTORS
330
C
102
}
330
C
100
AcDbDictionary
281
     1
  0
ACDBDICTIONARYWDFLT
  5
E
102
{ACAD_REACTORS
330
C
102
}
330
C
100
AcDbDictionary
281
     1
  3
Normal
350
F
100
AcDbDictionaryWithDefault
340
F
  0
DICTIONARY
  5
30B
102
{ACAD_REACTORS
330
C
102
}
330
C
100
AcDbDictionary
281
     1
  0
DICTIONARY
  5
2A
102
{ACAD_REACTORS
330
C
102
}
330
C
100
AcDbDictionary
281
     1
  3
2dWireframe
350
2F
  3
3D Hidden
350
31
  3
3dWireframe
350
30
  3
Basic
350
32
  3
Brighten
350
36
  3
ColorChange
350
3A
  3
Conceptual
350
34
  3
Dim
350
35
  3
Facepattern
350
39
  3
Flat
350
2B
  3
FlatWithEdges
350
2C
  3
Gouraud
350
2D
  3
GouraudWithEdges
350
2E
  3
Linepattern
350
38
  3
Realistic
350
33
  3
Thicken
350
37
  0
LAYOUT
  5
1E
102
{ACAD_REACTORS
330
1A
102
}
330
1A
100
AcDbPlotSettings
  1

  2
none_device
  4

  6

 40
0.0
 41
0.0
 42
0.0
 43
0.0
 44
0.0
 45
0.0
 46
0.0
 47
0.0
 48
0.0
 49
0.0
140
0.0
141
0.0
142
1.0
143
1.0
 70
   688
 72
     0
 73
     0
 74
     5
  7

 75
    16
 76
     0
 77
     2
 78
   300
147
1.0
148
0.0
149
0.0
100
AcDbLayout
  1
Layout1
 70
     1
 71
     1
 10
0.0
 20
0.0
 11
12.0
 21
9.0
 12
0.0
 22
0.0
 32
0.0
 14
1.00000000000000E+20
 24
1.00000000000000E+20
 34
1.00000000000000E+20
 15
-1.00000000000000E+20
 25
-1.00000000000000E+20
 35
-1.00000000000000E+20
146
0.0
 13
0.0
 23
0.0
 33
0.0
 16
1.0
 26
0.0
 36
0.0
 17
0.0
 27
1.0
 37
0.0
 76
     0
330
1B
  0
LAYOUT
  5
26
102
{ACAD_REACTORS
330
1A
102
}
330
1A
100
AcDbPlotSettings
  1

  2
none_device
  4

  6

 40
0.0
 41
0.0
 42
0.0
 43
0.0
 44
0.0
 45
0.0
 46
0.0
 47
0.0
 48
0.0
 49
0.0
140
0.0
141
0.0
142
1.0
143
1.0
 70
   688
 72
     0
 73
     0
 74
     5
  7

 75
    16
 76
     0
 77
     2
 78
   300
147
1.0
148
0.0
149
0.0
100
AcDbLayout
  1
Layout2
 70
     1
 71
     2
 10
0.0
 20
0.0
 11
0.0
 21
0.0
 12
0.0
 22
0.0
 32
0.0
 14
0.0
 24
0.0
 34
0.0
 15
0.0
 25
0.0
 35
0.0
146
0.0
 13
0.0
 23
0.0
 33
0.0
 16
1.0
 26
0.0
 36
0.0
 17
0.0
 27
1.0
 37
0.0
 76
     0
330
23
  0
LAYOUT
  5
22
102
{ACAD_REACTORS
330
1A
102
}
330
1A
100
AcDbPlotSettings
  1

  2
none_device
  4

  6

 40
0.0
 41
0.0
 42
0.0
 43
0.0
 44
0.0
 45
0.0
 46
0.0
 47
0.0
 48
0.0
 49
0.0
140
0.0
141
0.0
142
1.0
143
1.0
 70
  1712
 72
     0
 73
     0
 74
     0
  7

 75
     0
 76
     0
 77
     2
 78
   300
147
1.0
148
0.0
149
0.0
100
AcDbLayout
  1
Model
 70
     1
 71
     0
 10
0.0
 20
0.0
 11
12.0
 21
9.0
 12
0.0
 22
0.0
 32
0.0
 14
-227.9000011974624
 24
-36.40353900056982
 34
0.0
 15
69.09999880253571
 25
173.5964609994303
 35
0.0
146
0.0
 13
0.0
 23
0.0
 33
0.0
 16
1.0
 26
0.0
 36
0.0
 17
0.0
 27
1.0
 37
0.0
 76
     0
330
1F
331
29
  0
MATERIAL
  5
3D
102
{ACAD_REACTORS
330
3B
102
}
102
{ACAD_XDICTIONARY
360
307
102
}
330
3B
100
AcDbMaterial
  1
ByBlock
  0
MATERIAL
  5
3C
102
{ACAD_REACTORS
330
3B
102
}
102
{ACAD_XDICTIONARY
360
305
102
}
330
3B
100
AcDbMaterial
  1
ByLayer
  0
MATERIAL
  5
3E
102
{ACAD_REACTORS
330
3B
102
}
102
{ACAD_XDICTIONARY
360
309
102
}
330
3B
100
AcDbMaterial
  1
Global
  0
MLINESTYLE
  5
18
102
{ACAD_REACTORS
330
17
102
}
330
17
100
AcDbMlineStyle
  2
Standard
 70
     0
  3

 62
   256
 51
90.0
 52
90.0
 71
     2
 49
0.5
 62
   256
  6
BYLAYER
 49
-0.5
 62
   256
  6
BYLAYER
  0
ACDBPLACEHOLDER
  5
F
102
{ACAD_REACTORS
330
E
102
}
330
E
  0
VISUALSTYLE
  5
2F
102
{ACAD_REACTORS
330
2A
102
}
102
{ACAD_XDICTIONARY
360
2ED
102
}
330
2A
100
AcDbVisualStyle
  2
2dWireframe
 70
     4
 71
     0
 72
     2
 73
     0
 90
        0
 40
-0.6
 41
-30.0
 62
     5
 63
     7
421
 16777215
 74
     1
 91
        4
 64
     7
 65
   257
 75
     1
175
     1
 42
1.0
 92
        0
 66
   257
 43
1.0
 76
     1
 77
     6
 78
     2
 67
     7
 79
     5
170
     0
171
     0
290
     0
174
     0
 93
        1
 44
0.0
173
     0
291
     0
 45
0.0
1001
ACAD
1000
AcDbSavedByObjectVersion
1070
     0
  0
VISUALSTYLE
  5
31
102
{ACAD_REACTORS
330
2A
102
}
102
{ACAD_XDICTIONARY
360
2F1
102
}
330
2A
100
AcDbVisualStyle
  2
3D Hidden
 70
     6
 71
     1
 72
     2
 73
     2
 90
        0
 40
-0.6
 41
-30.0
 62
     5
 63
     7
421
 16777215
 74
     2
 91
        2
 64
     7
 65
   257
 75
     2
175
     1
 42
40.0
 92
        0
 66
   257
 43
1.0
 76
     1
 77
     6
 78
     2
 67
     7
 79
     3
170
     0
171
     0
290
     0
174
     0
 93
        1
 44
0.0
173
     0
291
     0
 45
0.0
1001
ACAD
1000
AcDbSavedByObjectVersion
1070
     0
  0
VISUALSTYLE
  5
30
102
{ACAD_REACTORS
330
2A
102
}
102
{ACAD_XDICTIONARY
360
2EF
102
}
330
2A
100
AcDbVisualStyle
  2
3dWireframe
 70
     5
 71
     0
 72
     2
 73
     0
 90
        0
 40
-0.6
 41
-30.0
 62
     5
 63
     7
421
 16777215
 74
     1
 91
        4
 64
     7
 65
   257
 75
     1
175
     1
 42
1.0
 92
        0
 66
   257
 43
1.0
 76
     1
 77
     6
 78
     2
 67
     7
 79
     5
170
     0
171
     0
290
     0
174
     0
 93
        1
 44
0.0
173
     0
291
     0
 45
0.0
1001
ACAD
1000
AcDbSavedByObjectVersion
1070
     0
  0
VISUALSTYLE
  5
32
102
{ACAD_REACTORS
330
2A
102
}
102
{ACAD_XDICTIONARY
360
2F3
102
}
330
2A
100
AcDbVisualStyle
  2
Basic
 70
     7
 71
     1
 72
     0
 73
     1
 90
        0
 40
-0.6
 41
-30.0
 62
     5
 63
     7
421
 16777215
 74
     0
 91
        4
 64
     7
 65
   257
 75
     1
175
     1
 42
1.0
 92
        8
 66
     7
 43
1.0
 76
     1
 77
     6
 78
     2
 67
     7
 79
     5
170
     0
171
     0
290
     0
174
     0
 93
        1
 44
0.0
173
     0
291
     1
 45
0.0
1001
ACAD
1000
AcDbSavedByObjectVersion
1070
     0
  0
VISUALSTYLE
  5
36
102
{ACAD_REACTORS
330
2A
102
}
102
{ACAD_XDICTIONARY
360
2FB
102
}
330
2A
100
AcDbVisualStyle
  2
Brighten
 70
    12
 71
     2
 72
     2
 73
     0
 90
        0
 40
-0.6
 41
-30.0
 62
     5
 63
     7
421
 16777215
 74
     1
 91
        4
 64
     7
 65
   257
 75
     1
175
     1
 42
1.0
 92
        8
 66
     7
 43
1.0
 76
     1
 77
     6
 78
     2
 67
     7
 79
     5
170
     0
171
     0
290
     0
174
     0
 93
        1
 44
50.0
173
     0
291
     1
 45
0.0
1001
ACAD
1000
AcDbSavedByObjectVersion
1070
     0
  0
VISUALSTYLE
  5
3A
102
{ACAD_REACTORS
330
2A
102
}
102
{ACAD_XDICTIONARY
360
303
102
}
330
2A
100
AcDbVisualStyle
  2
ColorChange
 70
    16
 71
     2
 72
     2
 73
     3
 90
        0
 40
-0.6
 41
-30.0
 62
     5
 63
     8
421
  8421504
 74
     1
 91
        4
 64
     7
 65
   257
 75
     1
175
     1
 42
1.0
 92
        8
 66
     8
424
  8421504
 43
1.0
 76
     1
 77
     6
 78
     2
 67
     7
 79
     5
170
     0
171
     0
290
     0
174
     0
 93
        1
 44
0.0
173
     0
291
     1
 45
0.0
1001
ACAD
1000
AcDbSavedByObjectVersion
1070
     0
  0
VISUALSTYLE
  5
34
102
{ACAD_REACTORS
330
2A
102
}
102
{ACAD_XDICTIONARY
360
2F7
102
}
330
2A
100
AcDbVisualStyle
  2
Conceptual
 70
     9
 71
     3
 72
     2
 73
     0
 90
        0
 40
-0.6
 41
-30.0
 62
     5
 63
     7
421
 16777215
 74
     2
 91
        2
 64
     7
 65
   257
 75
     1
175
     1
 42
40.0
 92
        8
 66
     7
 43
1.0
 76
     1
 77
     6
 78
     2
 67
     7
 79
     3
170
     0
171
     0
290
     0
174
     0
 93
        1
 44
0.0
173
     0
291
     0
 45
0.0
1001
ACAD
1000
AcDbSavedByObjectVersion
1070
     0
  0
VISUALSTYLE
  5
35
102
{ACAD_REACTORS
330
2A
102
}
102
{ACAD_XDICTIONARY
360
2F9
102
}
330
2A
100
AcDbVisualStyle
  2
Dim
 70
    11
 71
     2
 72
     2
 73
     0
 90
        0
 40
-0.6
 41
-30.0
 62
     5
 63
     7
421
 16777215
 74
     1
 91
        4
 64
     7
 65
   257
 75
     1
175
     1
 42
1.0
 92
        8
 66
     7
 43
1.0
 76
     1
 77
     6
 78
     2
 67
     7
 79
     5
170
     0
171
     0
290
     0
174
     0
 93
        1
 44
-50.0
173
     0
291
     1
 45
0.0
1001
ACAD
1000
AcDbSavedByObjectVersion
1070
     0
  0
VISUALSTYLE
  5
39
102
{ACAD_REACTORS
330
2A
102
}
102
{ACAD_XDICTIONARY
360
301
102
}
330
2A
100
AcDbVisualStyle
  2
Facepattern
 70
    15
 71
     2
 72
     2
 73
     0
 90
        0
 40
-0.6
 41
-30.0
 62
     5
 63
     7
421
 16777215
 74
     1
 91
        4
 64
     7
 65
   257
 75
     1
175
     1
 42
1.0
 92
        8
 66
     7
 43
1.0
 76
     1
 77
     6
 78
     2
 67
     7
 79
     5
170
     0
171
     0
290
     0
174
     0
 93
        1
 44
0.0
173
     0
291
     1
 45
0.0
1001
ACAD
1000
AcDbSavedByObjectVersion
1070
     0
  0
VISUALSTYLE
  5
2B
102
{ACAD_REACTORS
330
2A
102
}
102
{ACAD_XDICTIONARY
360
2E5
102
}
330
2A
100
AcDbVisualStyle
  2
Flat
 70
     0
 71
     2
 72
     1
 73
     1
 90
        2
 40
-0.6
 41
30.0
 62
     5
 63
     7
421
 16777215
 74
     0
 91
        4
 64
     7
 65
   257
 75
     1
175
     1
 42
1.0
 92
        8
 66
     7
 43
1.0
 76
     1
 77
     6
 78
     2
 67
     7
 79
     5
170
     0
171
     0
290
     0
174
     0
 93
       13
 44
0.0
173
     0
291
     1
 45
0.0
1001
ACAD
1000
AcDbSavedByObjectVersion
1070
     0
  0
VISUALSTYLE
  5
2C
102
{ACAD_REACTORS
330
2A
102
}
102
{ACAD_XDICTIONARY
360
2E7
102
}
330
2A
100
AcDbVisualStyle
  2
FlatWithEdges
 70
     1
 71
     2
 72
     1
 73
     1
 90
        2
 40
-0.6
 41
30.0
 62
     5
 63
     7
421
 16777215
 74
     1
 91
        4
 64
     7
 65
   257
 75
     1
175
     1
 42
1.0
 92
        0
 66
   257
 43
1.0
 76
     1
 77
     6
 78
     2
 67
     7
 79
     5
170
     0
171
     0
290
     0
174
     0
 93
       13
 44
0.0
173
     0
291
     1
 45
0.0
1001
ACAD
1000
AcDbSavedByObjectVersion
1070
     0
  0
VISUALSTYLE
  5
2D
102
{ACAD_REACTORS
330
2A
102
}
102
{ACAD_XDICTIONARY
360
2E9
102
}
330
2A
100
AcDbVisualStyle
  2
Gouraud
 70
     2
 71
     2
 72
     2
 73
     1
 90
        2
 40
-0.6
 41
30.0
 62
     5
 63
     7
421
 16777215
 74
     0
 91
        4
 64
     7
 65
   257
 75
     1
175
     1
 42
1.0
 92
        0
 66
     7
 43
1.0
 76
     1
 77
     6
 78
     2
 67
     7
 79
     5
170
     0
171
     0
290
     0
174
     0
 93
       13
 44
0.0
173
     0
291
     1
 45
0.0
1001
ACAD
1000
AcDbSavedByObjectVersion
1070
     0
  0
VISUALSTYLE
  5
2E
102
{ACAD_REACTORS
330
2A
102
}
102
{ACAD_XDICTIONARY
360
2EB
102
}
330
2A
100
AcDbVisualStyle
  2
GouraudWithEdges
 70
     3
 71
     2
 72
     2
 73
     1
 90
        2
 40
-0.6
 41
30.0
 62
     5
 63
     7
421
 16777215
 74
     1
 91
        4
 64
     7
 65
   257
 75
     1
175
     1
 42
1.0
 92
        0
 66
   257
 43
1.0
 76
     1
 77
     6
 78
     2
 67
     7
 79
     5
170
     0
171
     0
290
     0
174
     0
 93
       13
 44
0.0
173
     0
291
     1
 45
0.0
1001
ACAD
1000
AcDbSavedByObjectVersion
1070
     0
  0
VISUALSTYLE
  5
38
102
{ACAD_REACTORS
330
2A
102
}
102
{ACAD_XDICTIONARY
360
2FF
102
}
330
2A
100
AcDbVisualStyle
  2
Linepattern
 70
    14
 71
     2
 72
     2
 73
     0
 90
        0
 40
-0.6
 41
-30.0
 62
     5
 63
     7
421
 16777215
 74
     1
 91
        4
 64
     7
 65
   257
 75
     7
175
     7
 42
1.0
 92
        8
 66
     7
 43
1.0
 76
     1
 77
     6
 78
     2
 67
     7
 79
     5
170
     0
171
     0
290
     0
174
     0
 93
        1
 44
0.0
173
     0
291
     1
 45
0.0
1001
ACAD
1000
AcDbSavedByObjectVersion
1070
     0
  0
VISUALSTYLE
  5
33
102
{ACAD_REACTORS
330
2A
102
}
102
{ACAD_XDICTIONARY
360
2F5
102
}
330
2A
100
AcDbVisualStyle
  2
Realistic
 70
     8
 71
     2
 72
     2
 73
     0
 90
        0
 40
-0.6
 41
-30.0
 62
     5
 63
     7
421
 16777215
 74
     1
 91
        0
 64
     7
 65
   257
 75
     1
175
     1
 42
1.0
 92
        8
 66
     8
424
  7895160
 43
1.0
 76
     1
 77
     6
 78
     2
 67
     7
 79
     5
170
     0
171
     0
290
     0
174
     0
 93
       13
 44
0.0
173
     0
291
     0
 45
0.0
1001
ACAD
1000
AcDbSavedByObjectVersion
1070
     0
  0
VISUALSTYLE
  5
37
102
{ACAD_REACTORS
330
2A
102
}
102
{ACAD_XDICTIONARY
360
2FD
102
}
330
2A
100
AcDbVisualStyle
  2
Thicken
 70
    13
 71
     2
 72
     2
 73
     0
 90
        0
 40
-0.6
 41
-30.0
 62
     5
 63
     7
421
 16777215
 74
     1
 91
        4
 64
     7
 65
   257
 75
     1
175
     1
 42
1.0
 92
       12
 66
     7
 43
1.0
 76
     1
 77
     6
 78
     2
 67
     7
 79
     5
170
     0
171
     0
290
     0
174
     0
 93
        1
 44
0.0
173
     0
291
     1
 45
0.0
1001
ACAD
1000
AcDbSavedByObjectVersion
1070
     0
  0
DICTIONARY
  5
307
330
3D
100
AcDbDictionary
280
     1
281
     1
  3
ACAD_XREC_ROUNDTRIP
360
308
  0
DICTIONARY
  5
305
330
3C
100
AcDbDictionary
280
     1
281
     1
  3
ACAD_XREC_ROUNDTRIP
360
306
  0
DICTIONARY
  5
309
330
3E
100
AcDbDictionary
280
     1
281
     1
  3
ACAD_XREC_ROUNDTRIP
360
30A
  0
DICTIONARY
  5
2ED
330
2F
100
AcDbDictionary
280
     1
281
     1
  3
ACAD_XREC_ROUNDTRIP
360
2EE
  0
DICTIONARY
  5
2F1
330
31
100
AcDbDictionary
280
     1
281
     1
  3
ACAD_XREC_ROUNDTRIP
360
2F2
  0
DICTIONARY
  5
2EF
330
30
100
AcDbDictionary
280
     1
281
     1
  3
ACAD_XREC_ROUNDTRIP
360
2F0
  0
DICTIONARY
  5
2F3
330
32
100
AcDbDictionary
280
     1
281
     1
  3
ACAD_XREC_ROUNDTRIP
360
2F4
  0
DICTIONARY
  5
2FB
330
36
100
AcDbDictionary
280
     1
281
     1
  3
ACAD_XREC_ROUNDTRIP
360
2FC
  0
DICTIONARY
  5
303
330
3A
100
AcDbDictionary
280
     1
281
     1
  3
ACAD_XREC_ROUNDTRIP
360
304
  0
DICTIONARY
  5
2F7
330
34
100
AcDbDictionary
280
     1
281
     1
  3
ACAD_XREC_ROUNDTRIP
360
2F8
  0
DICTIONARY
  5
2F9
330
35
100
AcDbDictionary
280
     1
281
     1
  3
ACAD_XREC_ROUNDTRIP
360
2FA
  0
DICTIONARY
  5
301
330
39
100
AcDbDictionary
280
     1
281
     1
  3
ACAD_XREC_ROUNDTRIP
360
302
  0
DICTIONARY
  5
2E5
330
2B
100
AcDbDictionary
280
     1
281
     1
  3
ACAD_XREC_ROUNDTRIP
360
2E6
  0
DICTIONARY
  5
2E7
330
2C
100
AcDbDictionary
280
     1
281
     1
  3
ACAD_XREC_ROUNDTRIP
360
2E8
  0
DICTIONARY
  5
2E9
330
2D
100
AcDbDictionary
280
     1
281
     1
  3
ACAD_XREC_ROUNDTRIP
360
2EA
  0
DICTIONARY
  5
2EB
330
2E
100
AcDbDictionary
280
     1
281
     1
  3
ACAD_XREC_ROUNDTRIP
360
2EC
  0
DICTIONARY
  5
2FF
330
38
100
AcDbDictionary
280
     1
281
     1
  3
ACAD_XREC_ROUNDTRIP
360
300
  0
DICTIONARY
  5
2F5
330
33
100
AcDbDictionary
280
     1
281
     1
  3
ACAD_XREC_ROUNDTRIP
360
2F6
  0
DICTIONARY
  5
2FD
330
37
100
AcDbDictionary
280
     1
281
     1
  3
ACAD_XREC_ROUNDTRIP
360
2FE
  0
XRECORD
  5
308
102
{ACAD_REACTORS
330
307
102
}
330
307
100
AcDbXrecord
280
     1
102
MATERIAL
148
0.0
149
0.0
149
0.0
 93
        0
 94
      127
282
     0
 72
     1
 77
     1
171
     1
175
     1
179
     1
273
     0
  0
XRECORD
  5
306
102
{ACAD_REACTORS
330
305
102
}
330
305
100
AcDbXrecord
280
     1
102
MATERIAL
148
0.0
149
0.0
149
0.0
 93
        0
 94
      127
282
     0
 72
     1
 77
     1
171
     1
175
     1
179
     1
273
     0
  0
XRECORD
  5
30A
102
{ACAD_REACTORS
330
309
102
}
330
309
100
AcDbXrecord
280
     1
102
MATERIAL
148
0.0
149
0.0
149
0.0
 93
        0
 94
      127
282
     0
 72
     1
 77
     1
171
     1
175
     1
179
     1
273
     0
  0
XRECORD
  5
2EE
102
{ACAD_REACTORS
330
2ED
102
}
330
2ED
100
AcDbXrecord
280
     1
102
RTVSPropertyOp0
 70
     1
102
RTVSPropertyOp1
 70
     1
102
RTVSPropertyOp2
 70
     1
102
RTVSPropertyOp3
 70
     1
102
RTVSPropertyOp4
 70
     1
102
RTVSPropertyOp5
 70
     1
102
RTVSPropertyOp6
 70
     1
102
RTVSPropertyOp7
 70
     1
102
RTVSPropertyOp8
 70
     1
102
RTVSPropertyOp9
 70
     1
102
RTVSPropertyOp10
 70
     1
102
RTVSPropertyOp11
 70
     1
102
RTVSPropertyOp12
 70
     1
102
RTVSPropertyOp13
 70
     1
102
RTVSPropertyOp14
 70
     1
102
RTVSPropertyOp15
 70
     1
102
RTVSPropertyOp16
 70
     1
102
RTVSPropertyOp17
 70
     1
102
RTVSPropertyOp18
 70
     1
102
RTVSPropertyOp19
 70
     1
102
RTVSPropertyOp20
 70
     1
102
RTVSPropertyOp21
 70
     1
102
RTVSPropertyOp22
 70
     1
102
RTVSPropertyOp23
 70
     1
102
RTVSPropertyOp24
 70
     1
102
RTVSPropertyOp25
 70
     1
102
RTVSPropertyOp26
 70
     1
102
RTVSPropertyOp27
 70
     1
102
RTVSPropertyOp28
 70
     1
102
RTVSPropertyOp29
 70
     1
102
RTVSPropertyOp30
 70
     1
102
RTVSPropertyOp31
 70
     1
102
RTVSPropertyOp32
 70
     1
  0
XRECORD
  5
2F2
102
{ACAD_REACTORS
330
2F1
102
}
330
2F1
100
AcDbXrecord
280
     1
102
RTVSPropertyOp0
 70
     1
102
RTVSPropertyOp1
 70
     1
102
RTVSPropertyOp2
 70
     1
102
RTVSPropertyOp3
 70
     1
102
RTVSPropertyOp4
 70
     1
102
RTVSPropertyOp5
 70
     1
102
RTVSPropertyOp6
 70
     1
102
RTVSPropertyOp7
 70
     1
102
RTVSPropertyOp8
 70
     1
102
RTVSPropertyOp9
 70
     1
102
RTVSPropertyOp10
 70
     1
102
RTVSPropertyOp11
 70
     1
102
RTVSPropertyOp12
 70
     1
102
RTVSPropertyOp13
 70
     1
102
RTVSPropertyOp14
 70
     1
102
RTVSPropertyOp15
 70
     1
102
RTVSPropertyOp16
 70
     1
102
RTVSPropertyOp17
 70
     1
102
RTVSPropertyOp18
 70
     1
102
RTVSPropertyOp19
 70
     1
102
RTVSPropertyOp20
 70
     1
102
RTVSPropertyOp21
 70
     1
102
RTVSPropertyOp22
 70
     1
102
RTVSPropertyOp23
 70
     1
102
RTVSPropertyOp24
 70
     1
102
RTVSPropertyOp25
 70
     1
102
RTVSPropertyOp26
 70
     1
102
RTVSPropertyOp27
 70
     1
102
RTVSPropertyOp28
 70
     1
102
RTVSPropertyOp29
 70
     1
102
RTVSPropertyOp30
 70
     1
102
RTVSPropertyOp31
 70
     1
102
RTVSPropertyOp32
 70
     1
  0
XRECORD
  5
2F0
102
{ACAD_REACTORS
330
2EF
102
}
330
2EF
100
AcDbXrecord
280
     1
102
RTVSPropertyOp0
 70
     1
102
RTVSPropertyOp1
 70
     1
102
RTVSPropertyOp2
 70
     1
102
RTVSPropertyOp3
 70
     1
102
RTVSPropertyOp4
 70
     1
102
RTVSPropertyOp5
 70
     1
102
RTVSPropertyOp6
 70
     1
102
RTVSPropertyOp7
 70
     1
102
RTVSPropertyOp8
 70
     1
102
RTVSPropertyOp9
 70
     1
102
RTVSPropertyOp10
 70
     1
102
RTVSPropertyOp11
 70
     1
102
RTVSPropertyOp12
 70
     1
102
RTVSPropertyOp13
 70
     1
102
RTVSPropertyOp14
 70
     1
102
RTVSPropertyOp15
 70
     1
102
RTVSPropertyOp16
 70
     1
102
RTVSPropertyOp17
 70
     1
102
RTVSPropertyOp18
 70
     1
102
RTVSPropertyOp19
 70
     1
102
RTVSPropertyOp20
 70
     1
102
RTVSPropertyOp21
 70
     1
102
RTVSPropertyOp22
 70
     1
102
RTVSPropertyOp23
 70
     1
102
RTVSPropertyOp24
 70
     1
102
RTVSPropertyOp25
 70
     1
102
RTVSPropertyOp26
 70
     1
102
RTVSPropertyOp27
 70
     1
102
RTVSPropertyOp28
 70
     1
102
RTVSPropertyOp29
 70
     1
102
RTVSPropertyOp30
 70
     1
102
RTVSPropertyOp31
 70
     1
102
RTVSPropertyOp32
 70
     1
  0
XRECORD
  5
2F4
102
{ACAD_REACTORS
330
2F3
102
}
330
2F3
100
AcDbXrecord
280
     1
102
RTVSPropertyOp0
 70
     1
102
RTVSPropertyOp1
 70
     1
102
RTVSPropertyOp2
 70
     1
102
RTVSPropertyOp3
 70
     1
102
RTVSPropertyOp4
 70
     1
102
RTVSPropertyOp5
 70
     1
102
RTVSPropertyOp6
 70
     1
102
RTVSPropertyOp7
 70
     1
102
RTVSPropertyOp8
 70
     1
102
RTVSPropertyOp9
 70
     1
102
RTVSPropertyOp10
 70
     1
102
RTVSPropertyOp11
 70
     1
102
RTVSPropertyOp12
 70
     1
102
RTVSPropertyOp13
 70
     1
102
RTVSPropertyOp14
 70
     1
102
RTVSPropertyOp15
 70
     1
102
RTVSPropertyOp16
 70
     1
102
RTVSPropertyOp17
 70
     1
102
RTVSPropertyOp18
 70
     1
102
RTVSPropertyOp19
 70
     1
102
RTVSPropertyOp20
 70
     1
102
RTVSPropertyOp21
 70
     1
102
RTVSPropertyOp22
 70
     1
102
RTVSPropertyOp23
 70
     1
102
RTVSPropertyOp24
 70
     1
102
RTVSPropertyOp25
 70
     1
102
RTVSPropertyOp26
 70
     1
102
RTVSPropertyOp27
 70
     1
102
RTVSPropertyOp28
 70
     1
102
RTVSPropertyOp29
 70
     1
102
RTVSPropertyOp30
 70
     1
102
RTVSPropertyOp31
 70
     1
102
RTVSPropertyOp32
 70
     1
  0
XRECORD
  5
2FC
102
{ACAD_REACTORS
330
2FB
102
}
330
2FB
100
AcDbXrecord
280
     1
102
RTVSPropertyOp0
 70
     1
102
RTVSPropertyOp1
 70
     1
102
RTVSPropertyOp2
 70
     1
102
RTVSPropertyOp3
 70
     1
102
RTVSPropertyOp4
 70
     1
102
RTVSPropertyOp5
 70
     1
102
RTVSPropertyOp6
 70
     1
102
RTVSPropertyOp7
 70
     1
102
RTVSPropertyOp8
 70
     1
102
RTVSPropertyOp9
 70
     1
102
RTVSPropertyOp10
 70
     1
102
RTVSPropertyOp11
 70
     1
102
RTVSPropertyOp12
 70
     1
102
RTVSPropertyOp13
 70
     1
102
RTVSPropertyOp14
 70
     1
102
RTVSPropertyOp15
 70
     1
102
RTVSPropertyOp16
 70
     1
102
RTVSPropertyOp17
 70
     1
102
RTVSPropertyOp18
 70
     1
102
RTVSPropertyOp19
 70
     1
102
RTVSPropertyOp20
 70
     1
102
RTVSPropertyOp21
 70
     1
102
RTVSPropertyOp22
 70
     1
102
RTVSPropertyOp23
 70
     1
102
RTVSPropertyOp24
 70
     1
102
RTVSPropertyOp25
 70
     1
102
RTVSPropertyOp26
 70
     1
102
RTVSPropertyOp27
 70
     1
102
RTVSPropertyOp28
 70
     1
102
RTVSPropertyOp29
 70
     1
102
RTVSPropertyOp30
 70
     1
102
RTVSPropertyOp31
 70
     1
102
RTVSPropertyOp32
 70
     1
  0
XRECORD
  5
304
102
{ACAD_REACTORS
330
303
102
}
330
303
100
AcDbXrecord
280
     1
102
RTVSPropertyOp0
 70
     1
102
RTVSPropertyOp1
 70
     1
102
RTVSPropertyOp2
 70
     1
102
RTVSPropertyOp3
 70
     1
102
RTVSPropertyOp4
 70
     1
102
RTVSPropertyOp5
 70
     1
102
RTVSPropertyOp6
 70
     1
102
RTVSPropertyOp7
 70
     1
102
RTVSPropertyOp8
 70
     1
102
RTVSPropertyOp9
 70
     1
102
RTVSPropertyOp10
 70
     1
102
RTVSPropertyOp11
 70
     1
102
RTVSPropertyOp12
 70
     1
102
RTVSPropertyOp13
 70
     1
102
RTVSPropertyOp14
 70
     1
102
RTVSPropertyOp15
 70
     1
102
RTVSPropertyOp16
 70
     1
102
RTVSPropertyOp17
 70
     1
102
RTVSPropertyOp18
 70
     1
102
RTVSPropertyOp19
 70
     1
102
RTVSPropertyOp20
 70
     1
102
RTVSPropertyOp21
 70
     1
102
RTVSPropertyOp22
 70
     1
102
RTVSPropertyOp23
 70
     1
102
RTVSPropertyOp24
 70
     1
102
RTVSPropertyOp25
 70
     1
102
RTVSPropertyOp26
 70
     1
102
RTVSPropertyOp27
 70
     1
102
RTVSPropertyOp28
 70
     1
102
RTVSPropertyOp29
 70
     1
102
RTVSPropertyOp30
 70
     1
102
RTVSPropertyOp31
 70
     1
102
RTVSPropertyOp32
 70
     1
  0
XRECORD
  5
2F8
102
{ACAD_REACTORS
330
2F7
102
}
330
2F7
100
AcDbXrecord
280
     1
102
RTVSPropertyOp0
 70
     1
102
RTVSPropertyOp1
 70
     1
102
RTVSPropertyOp2
 70
     1
102
RTVSPropertyOp3
 70
     1
102
RTVSPropertyOp4
 70
     1
102
RTVSPropertyOp5
 70
     1
102
RTVSPropertyOp6
 70
     1
102
RTVSPropertyOp7
 70
     1
102
RTVSPropertyOp8
 70
     1
102
RTVSPropertyOp9
 70
     1
102
RTVSPropertyOp10
 70
     1
102
RTVSPropertyOp11
 70
     1
102
RTVSPropertyOp12
 70
     1
102
RTVSPropertyOp13
 70
     1
102
RTVSPropertyOp14
 70
     1
102
RTVSPropertyOp15
 70
     1
102
RTVSPropertyOp16
 70
     1
102
RTVSPropertyOp17
 70
     1
102
RTVSPropertyOp18
 70
     1
102
RTVSPropertyOp19
 70
     1
102
RTVSPropertyOp20
 70
     1
102
RTVSPropertyOp21
 70
     1
102
RTVSPropertyOp22
 70
     1
102
RTVSPropertyOp23
 70
     1
102
RTVSPropertyOp24
 70
     1
102
RTVSPropertyOp25
 70
     1
102
RTVSPropertyOp26
 70
     1
102
RTVSPropertyOp27
 70
     1
102
RTVSPropertyOp28
 70
     1
102
RTVSPropertyOp29
 70
     1
102
RTVSPropertyOp30
 70
     1
102
RTVSPropertyOp31
 70
     1
102
RTVSPropertyOp32
 70
     1
  0
XRECORD
  5
2FA
102
{ACAD_REACTORS
330
2F9
102
}
330
2F9
100
AcDbXrecord
280
     1
102
RTVSPropertyOp0
 70
     1
102
RTVSPropertyOp1
 70
     1
102
RTVSPropertyOp2
 70
     1
102
RTVSPropertyOp3
 70
     1
102
RTVSPropertyOp4
 70
     1
102
RTVSPropertyOp5
 70
     1
102
RTVSPropertyOp6
 70
     1
102
RTVSPropertyOp7
 70
     1
102
RTVSPropertyOp8
 70
     1
102
RTVSPropertyOp9
 70
     1
102
RTVSPropertyOp10
 70
     1
102
RTVSPropertyOp11
 70
     1
102
RTVSPropertyOp12
 70
     1
102
RTVSPropertyOp13
 70
     1
102
RTVSPropertyOp14
 70
     1
102
RTVSPropertyOp15
 70
     1
102
RTVSPropertyOp16
 70
     1
102
RTVSPropertyOp17
 70
     1
102
RTVSPropertyOp18
 70
     1
102
RTVSPropertyOp19
 70
     1
102
RTVSPropertyOp20
 70
     1
102
RTVSPropertyOp21
 70
     1
102
RTVSPropertyOp22
 70
     1
102
RTVSPropertyOp23
 70
     1
102
RTVSPropertyOp24
 70
     1
102
RTVSPropertyOp25
 70
     1
102
RTVSPropertyOp26
 70
     1
102
RTVSPropertyOp27
 70
     1
102
RTVSPropertyOp28
 70
     1
102
RTVSPropertyOp29
 70
     1
102
RTVSPropertyOp30
 70
     1
102
RTVSPropertyOp31
 70
     1
102
RTVSPropertyOp32
 70
     1
  0
XRECORD
  5
302
102
{ACAD_REACTORS
330
301
102
}
330
301
100
AcDbXrecord
280
     1
102
RTVSPropertyOp0
 70
     1
102
RTVSPropertyOp1
 70
     1
102
RTVSPropertyOp2
 70
     1
102
RTVSPropertyOp3
 70
     1
102
RTVSPropertyOp4
 70
     1
102
RTVSPropertyOp5
 70
     1
102
RTVSPropertyOp6
 70
     1
102
RTVSPropertyOp7
 70
     1
102
RTVSPropertyOp8
 70
     1
102
RTVSPropertyOp9
 70
     1
102
RTVSPropertyOp10
 70
     1
102
RTVSPropertyOp11
 70
     1
102
RTVSPropertyOp12
 70
     1
102
RTVSPropertyOp13
 70
     1
102
RTVSPropertyOp14
 70
     1
102
RTVSPropertyOp15
 70
     1
102
RTVSPropertyOp16
 70
     1
102
RTVSPropertyOp17
 70
     1
102
RTVSPropertyOp18
 70
     1
102
RTVSPropertyOp19
 70
     1
102
RTVSPropertyOp20
 70
     1
102
RTVSPropertyOp21
 70
     1
102
RTVSPropertyOp22
 70
     1
102
RTVSPropertyOp23
 70
     1
102
RTVSPropertyOp24
 70
     1
102
RTVSPropertyOp25
 70
     1
102
RTVSPropertyOp26
 70
     1
102
RTVSPropertyOp27
 70
     1
102
RTVSPropertyOp28
 70
     1
102
RTVSPropertyOp29
 70
     1
102
RTVSPropertyOp30
 70
     1
102
RTVSPropertyOp31
 70
     1
102
RTVSPropertyOp32
 70
     1
  0
XRECORD
  5
2E6
102
{ACAD_REACTORS
330
2E5
102
}
330
2E5
100
AcDbXrecord
280
     1
102
RTVSPropertyOp0
 70
     1
102
RTVSPropertyOp1
 70
     1
102
RTVSPropertyOp2
 70
     1
102
RTVSPropertyOp3
 70
     1
102
RTVSPropertyOp4
 70
     1
102
RTVSPropertyOp5
 70
     1
102
RTVSPropertyOp6
 70
     1
102
RTVSPropertyOp7
 70
     1
102
RTVSPropertyOp8
 70
     1
102
RTVSPropertyOp9
 70
     1
102
RTVSPropertyOp10
 70
     1
102
RTVSPropertyOp11
 70
     1
102
RTVSPropertyOp12
 70
     1
102
RTVSPropertyOp13
 70
     1
102
RTVSPropertyOp14
 70
     1
102
RTVSPropertyOp15
 70
     1
102
RTVSPropertyOp16
 70
     1
102
RTVSPropertyOp17
 70
     1
102
RTVSPropertyOp18
 70
     1
102
RTVSPropertyOp19
 70
     1
102
RTVSPropertyOp20
 70
     1
102
RTVSPropertyOp21
 70
     1
102
RTVSPropertyOp22
 70
     1
102
RTVSPropertyOp23
 70
     1
102
RTVSPropertyOp24
 70
     1
102
RTVSPropertyOp25
 70
     1
102
RTVSPropertyOp26
 70
     1
102
RTVSPropertyOp27
 70
     1
102
RTVSPropertyOp28
 70
     1
102
RTVSPropertyOp29
 70
     1
102
RTVSPropertyOp30
 70
     1
102
RTVSPropertyOp31
 70
     1
102
RTVSPropertyOp32
 70
     1
  0
XRECORD
  5
2E8
102
{ACAD_REACTORS
330
2E7
102
}
330
2E7
100
AcDbXrecord
280
     1
102
RTVSPropertyOp0
 70
     1
102
RTVSPropertyOp1
 70
     1
102
RTVSPropertyOp2
 70
     1
102
RTVSPropertyOp3
 70
     1
102
RTVSPropertyOp4
 70
     1
102
RTVSPropertyOp5
 70
     1
102
RTVSPropertyOp6
 70
     1
102
RTVSPropertyOp7
 70
     1
102
RTVSPropertyOp8
 70
     1
102
RTVSPropertyOp9
 70
     1
102
RTVSPropertyOp10
 70
     1
102
RTVSPropertyOp11
 70
     1
102
RTVSPropertyOp12
 70
     1
102
RTVSPropertyOp13
 70
     1
102
RTVSPropertyOp14
 70
     1
102
RTVSPropertyOp15
 70
     1
102
RTVSPropertyOp16
 70
     1
102
RTVSPropertyOp17
 70
     1
102
RTVSPropertyOp18
 70
     1
102
RTVSPropertyOp19
 70
     1
102
RTVSPropertyOp20
 70
     1
102
RTVSPropertyOp21
 70
     1
102
RTVSPropertyOp22
 70
     1
102
RTVSPropertyOp23
 70
     1
102
RTVSPropertyOp24
 70
     1
102
RTVSPropertyOp25
 70
     1
102
RTVSPropertyOp26
 70
     1
102
RTVSPropertyOp27
 70
     1
102
RTVSPropertyOp28
 70
     1
102
RTVSPropertyOp29
 70
     1
102
RTVSPropertyOp30
 70
     1
102
RTVSPropertyOp31
 70
     1
102
RTVSPropertyOp32
 70
     1
  0
XRECORD
  5
2EA
102
{ACAD_REACTORS
330
2E9
102
}
330
2E9
100
AcDbXrecord
280
     1
102
RTVSPropertyOp0
 70
     1
102
RTVSPropertyOp1
 70
     1
102
RTVSPropertyOp2
 70
     1
102
RTVSPropertyOp3
 70
     1
102
RTVSPropertyOp4
 70
     1
102
RTVSPropertyOp5
 70
     1
102
RTVSPropertyOp6
 70
     1
102
RTVSPropertyOp7
 70
     1
102
RTVSPropertyOp8
 70
     1
102
RTVSPropertyOp9
 70
     1
102
RTVSPropertyOp10
 70
     1
102
RTVSPropertyOp11
 70
     1
102
RTVSPropertyOp12
 70
     1
102
RTVSPropertyOp13
 70
     1
102
RTVSPropertyOp14
 70
     1
102
RTVSPropertyOp15
 70
     1
102
RTVSPropertyOp16
 70
     1
102
RTVSPropertyOp17
 70
     1
102
RTVSPropertyOp18
 70
     1
102
RTVSPropertyOp19
 70
     1
102
RTVSPropertyOp20
 70
     1
102
RTVSPropertyOp21
 70
     1
102
RTVSPropertyOp22
 70
     1
102
RTVSPropertyOp23
 70
     1
102
RTVSPropertyOp24
 70
     1
102
RTVSPropertyOp25
 70
     1
102
RTVSPropertyOp26
 70
     1
102
RTVSPropertyOp27
 70
     1
102
RTVSPropertyOp28
 70
     1
102
RTVSPropertyOp29
 70
     1
102
RTVSPropertyOp30
 70
     1
102
RTVSPropertyOp31
 70
     1
102
RTVSPropertyOp32
 70
     1
  0
XRECORD
  5
2EC
102
{ACAD_REACTORS
330
2EB
102
}
330
2EB
100
AcDbXrecord
280
     1
102
RTVSPropertyOp0
 70
     1
102
RTVSPropertyOp1
 70
     1
102
RTVSPropertyOp2
 70
     1
102
RTVSPropertyOp3
 70
     1
102
RTVSPropertyOp4
 70
     1
102
RTVSPropertyOp5
 70
     1
102
RTVSPropertyOp6
 70
     1
102
RTVSPropertyOp7
 70
     1
102
RTVSPropertyOp8
 70
     1
102
RTVSPropertyOp9
 70
     1
102
RTVSPropertyOp10
 70
     1
102
RTVSPropertyOp11
 70
     1
102
RTVSPropertyOp12
 70
     1
102
RTVSPropertyOp13
 70
     1
102
RTVSPropertyOp14
 70
     1
102
RTVSPropertyOp15
 70
     1
102
RTVSPropertyOp16
 70
     1
102
RTVSPropertyOp17
 70
     1
102
RTVSPropertyOp18
 70
     1
102
RTVSPropertyOp19
 70
     1
102
RTVSPropertyOp20
 70
     1
102
RTVSPropertyOp21
 70
     1
102
RTVSPropertyOp22
 70
     1
102
RTVSPropertyOp23
 70
     1
102
RTVSPropertyOp24
 70
     1
102
RTVSPropertyOp25
 70
     1
102
RTVSPropertyOp26
 70
     1
102
RTVSPropertyOp27
 70
     1
102
RTVSPropertyOp28
 70
     1
102
RTVSPropertyOp29
 70
     1
102
RTVSPropertyOp30
 70
     1
102
RTVSPropertyOp31
 70
     1
102
RTVSPropertyOp32
 70
     1
  0
XRECORD
  5
300
102
{ACAD_REACTORS
330
2FF
102
}
330
2FF
100
AcDbXrecord
280
     1
102
RTVSPropertyOp0
 70
     1
102
RTVSPropertyOp1
 70
     1
102
RTVSPropertyOp2
 70
     1
102
RTVSPropertyOp3
 70
     1
102
RTVSPropertyOp4
 70
     1
102
RTVSPropertyOp5
 70
     1
102
RTVSPropertyOp6
 70
     1
102
RTVSPropertyOp7
 70
     1
102
RTVSPropertyOp8
 70
     1
102
RTVSPropertyOp9
 70
     1
102
RTVSPropertyOp10
 70
     1
102
RTVSPropertyOp11
 70
     1
102
RTVSPropertyOp12
 70
     1
102
RTVSPropertyOp13
 70
     1
102
RTVSPropertyOp14
 70
     1
102
RTVSPropertyOp15
 70
     1
102
RTVSPropertyOp16
 70
     1
102
RTVSPropertyOp17
 70
     1
102
RTVSPropertyOp18
 70
     1
102
RTVSPropertyOp19
 70
     1
102
RTVSPropertyOp20
 70
     1
102
RTVSPropertyOp21
 70
     1
102
RTVSPropertyOp22
 70
     1
102
RTVSPropertyOp23
 70
     1
102
RTVSPropertyOp24
 70
     1
102
RTVSPropertyOp25
 70
     1
102
RTVSPropertyOp26
 70
     1
102
RTVSPropertyOp27
 70
     1
102
RTVSPropertyOp28
 70
     1
102
RTVSPropertyOp29
 70
     1
102
RTVSPropertyOp30
 70
     1
102
RTVSPropertyOp31
 70
     1
102
RTVSPropertyOp32
 70
     1
  0
XRECORD
  5
2F6
102
{ACAD_REACTORS
330
2F5
102
}
330
2F5
100
AcDbXrecord
280
     1
102
RTVSPropertyOp0
 70
     1
102
RTVSPropertyOp1
 70
     1
102
RTVSPropertyOp2
 70
     1
102
RTVSPropertyOp3
 70
     1
102
RTVSPropertyOp4
 70
     1
102
RTVSPropertyOp5
 70
     1
102
RTVSPropertyOp6
 70
     1
102
RTVSPropertyOp7
 70
     1
102
RTVSPropertyOp8
 70
     1
102
RTVSPropertyOp9
 70
     1
102
RTVSPropertyOp10
 70
     1
102
RTVSPropertyOp11
 70
     1
102
RTVSPropertyOp12
 70
     1
102
RTVSPropertyOp13
 70
     1
102
RTVSPropertyOp14
 70
     1
102
RTVSPropertyOp15
 70
     1
102
RTVSPropertyOp16
 70
     1
102
RTVSPropertyOp17
 70
     1
102
RTVSPropertyOp18
 70
     1
102
RTVSPropertyOp19
 70
     1
102
RTVSPropertyOp20
 70
     1
102
RTVSPropertyOp21
 70
     1
102
RTVSPropertyOp22
 70
     1
102
RTVSPropertyOp23
 70
     1
102
RTVSPropertyOp24
 70
     1
102
RTVSPropertyOp25
 70
     1
102
RTVSPropertyOp26
 70
     1
102
RTVSPropertyOp27
 70
     1
102
RTVSPropertyOp28
 70
     1
102
RTVSPropertyOp29
 70
     1
102
RTVSPropertyOp30
 70
     1
102
RTVSPropertyOp31
 70
     1
102
RTVSPropertyOp32
 70
     1
  0
XRECORD
  5
2FE
102
{ACAD_REACTORS
330
2FD
102
}
330
2FD
100
AcDbXrecord
280
     1
102
RTVSPropertyOp0
 70
     1
102
RTVSPropertyOp1
 70
     1
102
RTVSPropertyOp2
 70
     1
102
RTVSPropertyOp3
 70
     1
102
RTVSPropertyOp4
 70
     1
102
RTVSPropertyOp5
 70
     1
102
RTVSPropertyOp6
 70
     1
102
RTVSPropertyOp7
 70
     1
102
RTVSPropertyOp8
 70
     1
102
RTVSPropertyOp9
 70
     1
102
RTVSPropertyOp10
 70
     1
102
RTVSPropertyOp11
 70
     1
102
RTVSPropertyOp12
 70
     1
102
RTVSPropertyOp13
 70
     1
102
RTVSPropertyOp14
 70
     1
102
RTVSPropertyOp15
 70
     1
102
RTVSPropertyOp16
 70
     1
102
RTVSPropertyOp17
 70
     1
102
RTVSPropertyOp18
 70
     1
102
RTVSPropertyOp19
 70
     1
102
RTVSPropertyOp20
 70
     1
102
RTVSPropertyOp21
 70
     1
102
RTVSPropertyOp22
 70
     1
102
RTVSPropertyOp23
 70
     1
102
RTVSPropertyOp24
 70
     1
102
RTVSPropertyOp25
 70
     1
102
RTVSPropertyOp26
 70
     1
102
RTVSPropertyOp27
 70
     1
102
RTVSPropertyOp28
 70
     1
102
RTVSPropertyOp29
 70
     1
102
RTVSPropertyOp30
 70
     1
102
RTVSPropertyOp31
 70
     1
102
RTVSPropertyOp32
 70
     1
  0
ENDSEC
  0
EOF
