  0
SECTION
  2
HEADER
  9
$ACADVER
  1
AC1018
  9
$ACADMAINTVER
 70
     0
  9
$DWGCODEPAGE
  3
ANSI_1252
  9
$INSBASE
 10
0.0
 20
0.0
 30
0.0
  9
$EXTMIN
 10
-397.0000016349773
 20
-283.9301500076673
 30
0.0
  9
$EXTMAX
 10
-100.0000016349792
 20
-73.93015000766715
 30
0.0
  9
$LIMMIN
 10
0.0
 20
0.0
  9
$LIMMAX
 10
12.0
 20
9.0
  9
$ORTHOMODE
 70
     0
  9
$REGENMODE
 70
     1
  9
$FILLMODE
 70
     1
  9
$QTEXTMODE
 70
     0
  9
$MIRRTEXT
 70
     1
  9
$LTSCALE
 40
1.0
  9
$ATTMODE
 70
     1
  9
$TEXTSIZE
 40
0.2
  9
$TRACEWID
 40
0.05
  9
$TEXTSTYLE
  7
Standard
  9
$CLAYER
  8
0
  9
$CELTYPE
  6
ByLayer
  9
$CECOLOR
 62
   256
  9
$CELTSCALE
 40
1.0
  9
$DISPSILH
 70
     0
  9
$DIMSCALE
 40
1.0
  9
$DIMASZ
 40
0.18
  9
$DIMEXO
 40
0.0625
  9
$DIMDLI
 40
0.38
  9
$DIMRND
 40
0.0
  9
$DIMDLE
 40
0.0
  9
$DIMEXE
 40
0.18
  9
$DIMTP
 40
0.0
  9
$DIMTM
 40
0.0
  9
$DIMTXT
 40
0.18
  9
$DIMCEN
 40
0.09
  9
$DIMTSZ
 40
0.0
  9
$DIMTOL
 70
     0
  9
$DIMLIM
 70
     0
  9
$DIMTIH
 70
     1
  9
$DIMTOH
 70
     1
  9
$DIMSE1
 70
     0
  9
$DIMSE2
 70
     0
  9
$DIMTAD
 70
     0
  9
$DIMZIN
 70
     0
  9
$DIMBLK
  1

  9
$DIMASO
 70
     1
  9
$DIMSHO
 70
     1
  9
$DIMPOST
  1

  9
$DIMAPOST
  1

  9
$DIMALT
 70
     0
  9
$DIMALTD
 70
     2
  9
$DIMALTF
 40
25.4
  9
$DIMLFAC
 40
1.0
  9
$DIMTOFL
 70
     0
  9
$DIMTVP
 40
0.0
  9
$DIMTIX
 70
     0
  9
$DIMSOXD
 70
     0
  9
$DIMSAH
 70
     0
  9
$DIMBLK1
  1

  9
$DIMBLK2
  1

  9
$DIMSTYLE
  2
Standard
  9
$DIMCLRD
 70
     0
  9
$DIMCLRE
 70
     0
  9
$DIMCLRT
 70
     0
  9
$DIMTFAC
 40
1.0
  9
$DIMGAP
 40
0.09
  9
$DIMJUST
 70
     0
  9
$DIMSD1
 70
     0
  9
$DIMSD2
 70
     0
  9
$DIMTOLJ
 70
     1
  9
$DIMTZIN
 70
     0
  9
$DIMALTZ
 70
     0
  9
$DIMALTTZ
 70
     0
  9
$DIMUPT
 70
     0
  9
$DIMDEC
 70
     4
  9
$DIMTDEC
 70
     4
  9
$DIMALTU
 70
     2
  9
$DIMALTTD
 70
     2
  9
$DIMTXSTY
  7
Standard
  9
$DIMAUNIT
 70
     0
  9
$DIMADEC
 70
     0
  9
$DIMALTRND
 40
0.0
  9
$DIMAZIN
 70
     0
  9
$DIMDSEP
 70
    46
  9
$DIMATFIT
 70
     3
  9
$DIMFRAC
 70
     0
  9
$DIMLDRBLK
  1

  9
$DIMLUNIT
 70
     2
  9
$DIMLWD
 70
    -2
  9
$DIMLWE
 70
    -2
  9
$DIMTMOVE
 70
     0
  9
$LUNITS
 70
     2
  9
$LUPREC
 70
     4
  9
$SKETCHINC
 40
0.1
  9
$FILLETRAD
 40
0.5
  9
$AUNITS
 70
     0
  9
$AUPREC
 70
     0
  9
$MENU
  1
.
  9
$ELEVATION
 40
0.0
  9
$PELEVATION
 40
0.0
  9
$THICKNESS
 40
0.0
  9
$LIMCHECK
 70
     0
  9
$CHAMFERA
 40
0.5
  9
$CHAMFERB
 40
0.5
  9
$CHAMFERC
 40
1.0
  9
$CHAMFERD
 40
0.0
  9
$SKPOLY
 70
     0
  9
$TDCREATE
 40
2458198.649519398
  9
$TDUCREATE
 40
2458198.607852731
  9
$TDUPDATE
 40
2458198.649519942
  9
$TDUUPDATE
 40
2458198.607853275
  9
$TDINDWG
 40
0.0000000116
  9
$TDUSRTIMER
 40
0.0000000116
  9
$USRTIMER
 70
     1
  9
$ANGBASE
 50
0.0
  9
$ANGDIR
 70
     0
  9
$PDMODE
 70
     0
  9
$PDSIZE
 40
0.0
  9
$PLINEWID
 40
0.0
  9
$SPLFRAME
 70
     0
  9
$SPLINETYPE
 70
     6
  9
$SPLINESEGS
 70
     8
  9
$HANDSEED
  5
3E5
  9
$SURFTAB1
 70
     6
  9
$SURFTAB2
 70
     6
  9
$SURFTYPE
 70
     6
  9
$SURFU
 70
     6
  9
$SURFV
 70
     6
  9
$UCSBASE
  2

  9
$UCSNAME
  2

  9
$UCSORG
 10
0.0
 20
0.0
 30
0.0
  9
$UCSXDIR
 10
1.0
 20
0.0
 30
0.0
  9
$UCSYDIR
 10
0.0
 20
1.0
 30
0.0
  9
$UCSORTHOREF
  2

  9
$UCSORTHOVIEW
 70
     0
  9
$UCSORGTOP
 10
0.0
 20
0.0
 30
0.0
  9
$UCSORGBOTTOM
 10
0.0
 20
0.0
 30
0.0
  9
$UCSORGLEFT
 10
0.0
 20
0.0
 30
0.0
  9
$UCSORGRIGHT
 10
0.0
 20
0.0
 30
0.0
  9
$UCSORGFRONT
 10
0.0
 20
0.0
 30
0.0
  9
$UCSORGBACK
 10
0.0
 20
0.0
 30
0.0
  9
$PUCSBASE
  2

  9
$PUCSNAME
  2

  9
$PUCSORG
 10
0.0
 20
0.0
 30
0.0
  9
$PUCSXDIR
 10
1.0
 20
0.0
 30
0.0
  9
$PUCSYDIR
 10
0.0
 20
1.0
 30
0.0
  9
$PUCSORTHOREF
  2

  9
$PUCSORTHOVIEW
 70
     0
  9
$PUCSORGTOP
 10
0.0
 20
0.0
 30
0.0
  9
$PUCSORGBOTTOM
 10
0.0
 20
0.0
 30
0.0
  9
$PUCSORGLEFT
 10
0.0
 20
0.0
 30
0.0
  9
$PUCSORGRIGHT
 10
0.0
 20
0.0
 30
0.0
  9
$PUCSORGFRONT
 10
0.0
 20
0.0
 30
0.0
  9
$PUCSORGBACK
 10
0.0
 20
0.0
 30
0.0
  9
$USERI1
 70
     0
  9
$USERI2
 70
     0
  9
$USERI3
 70
     0
  9
$USERI4
 70
     0
  9
$USERI5
 70
     0
  9
$USERR1
 40
18.1
  9
$USERR2
 40
0.0
  9
$USERR3
 40
0.0
  9
$USERR4
 40
0.0
  9
$USERR5
 40
0.0
  9
$WORLDVIEW
 70
     1
  9
$SHADEDGE
 70
     3
  9
$SHADEDIF
 70
    70
  9
$TILEMODE
 70
     1
  9
$MAXACTVP
 70
    64
  9
$PINSBASE
 10
0.0
 20
0.0
 30
0.0
  9
$PLIMCHECK
 70
     0
  9
$PEXTMIN
 10
1.00000000000000E+20
 20
1.00000000000000E+20
 30
1.00000000000000E+20
  9
$PEXTMAX
 10
-1.00000000000000E+20
 20
-1.00000000000000E+20
 30
-1.00000000000000E+20
  9
$PLIMMIN
 10
0.0
 20
0.0
  9
$PLIMMAX
 10
12.0
 20
9.0
  9
$UNITMODE
 70
     0
  9
$VISRETAIN
 70
     1
  9
$PLINEGEN
 70
     0
  9
$PSLTSCALE
 70
     1
  9
$TREEDEPTH
 70
  3020
  9
$CMLSTYLE
  2
Standard
  9
$CMLJUST
 70
     0
  9
$CMLSCALE
 40
1.0
  9
$PROXYGRAPHICS
 70
     1
  9
$MEASUREMENT
 70
     1
  9
$CELWEIGHT
370
    -1
  9
$ENDCAPS
280
     0
  9
$JOINSTYLE
280
     0
  9
$LWDISPLAY
290
     0
  9
$INSUNITS
 70
     4
  9
$HYPERLINKBASE
  1

  9
$STYLESHEET
  1

  9
$XEDIT
290
     1
  9
$CEPSNTYPE
380
     0
  9
$PSTYLEMODE
290
     1
  9
$FINGERPRINTGUID
  2
{F936B02D-7D40-40A0-A3DC-19C8BE37D1F4}
  9
$VERSIONGUID
  2
{FAEB1C32-E019-11D5-929B-00C0DF256EC4}
  9
$EXTNAMES
290
     1
  9
$PSVPSCALE
 40
0.0
  9
$OLESTARTUP
290
     0
  9
$SORTENTS
280
   127
  9
$INDEXCTL
280
     0
  9
$HIDETEXT
280
     1
  9
$XCLIPFRAME
290
     0
  9
$HALOGAP
280
     0
  9
$OBSCOLOR
 70
   257
  9
$OBSLTYPE
280
     0
  9
$INTERSECTIONDISPLAY
280
     0
  9
$INTERSECTIONCOLOR
 70
   257
  9
$DIMASSOC
280
     2
  9
$PROJECTNAME
  1

  0
ENDSEC
  0
SECTION
  2
CLASSES
  0
CLASS
  1
ACDBDICTIONARYWDFLT
  2
AcDbDictionaryWithDefault
  3
ObjectDBX Classes
 90
        0
 91
        4
280
     0
281
     0
  0
CLASS
  1
VISUALSTYLE
  2
AcDbVisualStyle
  3
ObjectDBX Classes
 90
     4095
 91
        4
280
     0
281
     0
  0
CLASS
  1
MATERIAL
  2
AcDbMaterial
  3
ObjectDBX Classes
 90
     1153
 91
        4
280
     0
281
     0
  0
ENDSEC
  0
SECTION
  2
TABLES
  0
TABLE
  2
VPORT
  5
8
330
0
100
AcDbSymbolTable
 70
     1
  0
VPORT
  5
29
330
8
100
AcDbSymbolTableRecord
100
AcDbViewportTableRecord
  2
*Active
 70
     0
 10
0.0
 20
0.0
 11
1.0
 21
1.0
 12
-248.5000016349782
 22
-178.9301500076672
 13
0.0
 23
0.0
 14
0.5
 24
0.5
 15
0.5
 25
0.5
 16
0.0
 26
0.0
 36
1.0
 17
0.0
 27
0.0
 37
0.0
 40
231.0000000000002
 41
1.60267857142857
 42
50.0
 43
0.0
 44
0.0
 50
0.0
 51
0.0
 71
     0
 72
   100
 73
     1
 74
     3
 75
     0
 76
     0
 77
     0
 78
     0
281
     0
 65
     1
110
0.0
120
0.0
130
0.0
111
1.0
121
0.0
131
0.0
112
0.0
122
1.0
132
0.0
 79
     0
146
0.0
  0
ENDTAB
  0
TABLE
  2
LTYPE
  5
5
330
0
100
AcDbSymbolTable
 70
     8
  0
LTYPE
  5
14
330
5
100
AcDbSymbolTableRecord
100
AcDbLinetypeTableRecord
  2
ByBlock
 70
     0
  3

 72
    65
 73
     0
 40
0.0
  0
LTYPE
  5
15
330
5
100
AcDbSymbolTableRecord
100
AcDbLinetypeTableRecord
  2
ByLayer
 70
     0
  3

 72
    65
 73
     0
 40
0.0
  0
LTYPE
  5
16
330
5
100
AcDbSymbolTableRecord
100
AcDbLinetypeTableRecord
  2
Continuous
 70
     0
  3
Solid line
 72
    65
 73
     0
 40
0.0
  0
LTYPE
  5
3F
330
5
100
AcDbSymbolTableRecord
100
AcDbLinetypeTableRecord
  2
DASHED
 70
     0
  3
Dashed
 72
    65
 73
     2
 40
15.0
 49
7.0
 74
     0
 49
-8.0
 74
     0
  0
LTYPE
  5
40
330
5
100
AcDbSymbolTableRecord
100
AcDbLinetypeTableRecord
  2
DOTTED
 70
     0
  3
Dotted
 72
    65
 73
     2
 40
1.0
 49
0.0
 74
     0
 49
-1.0
 74
     0
  0
LTYPE
  5
41
330
5
100
AcDbSymbolTableRecord
100
AcDbLinetypeTableRecord
  2
DOT_CENTER
 70
     0
  3
Dot_Center
 72
    65
 73
     4
 40
14.0
 49
12.0
 74
     0
 49
-1.0
 74
     0
 49
0.0
 74
     0
 49
-1.0
 74
     0
  0
LTYPE
  5
42
330
5
100
AcDbSymbolTableRecord
100
AcDbLinetypeTableRecord
  2
LONG_DASHED
 70
     0
  3
Long_Dashed
 72
    65
 73
     2
 40
15.0
 49
10.0
 74
     0
 49
-5.0
 74
     0
  0
LTYPE
  5
43
330
5
100
AcDbSymbolTableRecord
100
AcDbLinetypeTableRecord
  2
DASH_CENTER
 70
     0
  3
Dash_Center
 72
    65
 73
     4
 40
14.0
 49
11.0
 74
     0
 49
-1.0
 74
     0
 49
1.0
 74
     0
 49
-1.0
 74
     0
  0
LTYPE
  5
44
330
5
100
AcDbSymbolTableRecord
100
AcDbLinetypeTableRecord
  2
PHANTOM
 70
     0
  3
Phantom
 72
    65
 73
     6
 40
13.0
 49
10.0
 74
     0
 49
-1.0
 74
     0
 49
0.0
 74
     0
 49
-1.0
 74
     0
 49
0.0
 74
     0
 49
-1.0
 74
     0
  0
LTYPE
  5
45
330
5
100
AcDbSymbolTableRecord
100
AcDbLinetypeTableRecord
  2
CENTER_DASH_DASH
 70
     0
  3
Center_Dash_Dash
 72
    65
 73
     6
 40
14.0
 49
9.0
 74
     0
 49
-1.0
 74
     0
 49
1.0
 74
     0
 49
-1.0
 74
     0
 49
1.0
 74
     0
 49
-1.0
 74
     0
  0
ENDTAB
  0
TABLE
  2
LAYER
  5
2
330
0
100
AcDbSymbolTable
 70
     2
  0
LAYER
  5
10
330
2
100
AcDbSymbolTableRecord
100
AcDbLayerTableRecord
  2
0
 70
     0
 62
     7
  6
Continuous
370
    -3
390
F
  0
LAYER
  5
46
330
2
100
AcDbSymbolTableRecord
100
AcDbLayerTableRecord
  2
1
 70
     0
 62
     7
  6
Continuous
370
    -3
390
F
  0
ENDTAB
  0
TABLE
  2
STYLE
  5
3
330
0
100
AcDbSymbolTable
 70
     5
  0
STYLE
  5
11
330
3
100
AcDbSymbolTableRecord
100
AcDbTextStyleTableRecord
  2
Standard
 70
     0
 40
0.0
 41
1.0
 50
0.0
 71
     0
 42
0.2
  3
txt
  4

  0
STYLE
  5
17D
330
3
100
AcDbSymbolTableRecord
100
AcDbTextStyleTableRecord
  2
CONVERTER_11
 70
     0
 40
0.0
 41
0.9
 50
0.0
 71
     0
 42
0.2
  3
txt.shx
  4

  0
STYLE
  5
184
330
3
100
AcDbSymbolTableRecord
100
AcDbTextStyleTableRecord
  2
CONVERTER_12
 70
     0
 40
0.0
 41
0.81
 50
0.0
 71
     0
 42
0.2
  3
txt.shx
  4

  0
STYLE
  5
19A
330
3
100
AcDbSymbolTableRecord
100
AcDbTextStyleTableRecord
  2
CONVERTER_13
 70
     0
 40
0.0
 41
0.72
 50
0.0
 71
     0
 42
0.2
  3
txt.shx
  4

  0
STYLE
  5
19D
330
3
100
AcDbSymbolTableRecord
100
AcDbTextStyleTableRecord
  2
CONVERTER_14
 70
     0
 40
0.0
 41
0.855
 50
0.0
 71
     0
 42
0.2
  3
txt.shx
  4

  0
ENDTAB
  0
TABLE
  2
VIEW
  5
6
330
0
100
AcDbSymbolTable
 70
     0
  0
ENDTAB
  0
TABLE
  2
UCS
  5
7
330
0
100
AcDbSymbolTable
 70
     0
  0
ENDTAB
  0
TABLE
  2
APPID
  5
9
330
0
100
AcDbSymbolTable
 70
     1
  0
APPID
  5
12
330
9
100
AcDbSymbolTableRecord
100
AcDbRegAppTableRecord
  2
ACAD
 70
     0
  0
ENDTAB
  0
TABLE
  2
DIMSTYLE
  5
A
330
0
100
AcDbSymbolTable
 70
     6
100
AcDbDimStyleTable
  0
DIMSTYLE
105
27
330
A
100
AcDbSymbolTableRecord
100
AcDbDimStyleTableRecord
  2
Standard
 70
     0
178
     0
340
11
  0
DIMSTYLE
105
27F
102
{ACAD_REACTORS
330
280
102
}
330
A
100
AcDbSymbolTableRecord
100
AcDbDimStyleTableRecord
  2
ME10_DIM_10
 70
     0
 41
7.0
 42
0.0
 44
3.0
 73
     0
 74
     0
 77
     1
 78
     8
140
7.0
147
3.0
172
     1
173
     1
174
     1
175
     1
176
     2
177
     2
178
     3
340
17D
  0
DIMSTYLE
105
390
102
{ACAD_REACTORS
330
391
102
}
330
A
100
AcDbSymbolTableRecord
100
AcDbDimStyleTableRecord
  2
ME10_DIM_11
 70
     0
 41
7.0
 42
0.0
 44
3.0
 73
     0
 74
     0
 77
     1
 78
     8
140
7.0
147
3.0
172
     1
173
     1
174
     1
175
     1
176
     2
177
     2
178
     3
340
17D
  0
DIMSTYLE
105
39B
102
{ACAD_REACTORS
330
39C
102
}
330
A
100
AcDbSymbolTableRecord
100
AcDbDimStyleTableRecord
  2
ME10_DIM_12
 70
     0
 41
7.0
 42
0.0
 44
3.0
 73
     0
 74
     0
 77
     1
 78
     8
140
7.0
147
3.0
172
     1
173
     1
174
     1
175
     1
176
     2
177
     2
178
     3
340
17D
  0
DIMSTYLE
105
3A6
102
{ACAD_REACTORS
330
3A7
102
}
330
A
100
AcDbSymbolTableRecord
100
AcDbDimStyleTableRecord
  2
ME10_DIM_13
 70
     0
 41
7.0
 42
0.0
 44
3.0
 73
     0
 74
     0
 77
     1
 78
     8
140
7.0
147
3.0
172
     1
173
     1
174
     1
175
     1
176
     2
177
     2
271
     2
178
     3
271
     2
340
17D
  0
DIMSTYLE
105
3B1
102
{ACAD_REACTORS
330
3B2
102
}
330
A
100
AcDbSymbolTableRecord
100
AcDbDimStyleTableRecord
  2
ME10_DIM_14
 70
     0
 41
7.0
 42
0.0
 44
3.0
 73
     0
 74
     0
 77
     1
 78
     8
140
7.0
147
3.0
172
     1
173
     1
174
     1
175
     1
176
     2
177
     2
178
     3
340
17D
  0
ENDTAB
  0
TABLE
  2
BLOCK_RECORD
  5
1
330
0
100
AcDbSymbolTable
 70
    23
  0
BLOCK_RECORD
  5
1F
330
1
100
AcDbSymbolTableRecord
100
AcDbBlockTableRecord
  2
*Model_Space
340
22
  0
BLOCK_RECORD
  5
1B
330
1
100
AcDbSymbolTableRecord
100
AcDbBlockTableRecord
  2
*Paper_Space
340
1E
  0
BLOCK_RECORD
  5
23
330
1
100
AcDbSymbolTableRecord
100
AcDbBlockTableRecord
  2
*Paper_Space0
340
26
  0
BLOCK_RECORD
  5
47
330
1
100
AcDbSymbolTableRecord
100
AcDbBlockTableRecord
  2
_rahmen
340
0
102
{BLKREFS
331
4E
102
}
  0
BLOCK_RECORD
  5
4A
330
1
100
AcDbSymbolTableRecord
100
AcDbBlockTableRecord
  2
_punkt
340
0
102
{BLKREFS
331
4F
102
}
  0
BLOCK_RECORD
  5
4D
330
1
100
AcDbSymbolTableRecord
100
AcDbBlockTableRecord
  2
A4I_CS
340
0
102
{BLKREFS
331
7D
102
}
  0
BLOCK_RECORD
  5
52
330
1
100
AcDbSymbolTableRecord
100
AcDbBlockTableRecord
  2
UKH_150_1500V-select__1
340
0
102
{BLKREFS
331
56
102
}
  0
BLOCK_RECORD
  5
55
330
1
100
AcDbSymbolTableRecord
100
AcDbBlockTableRecord
  2
Allg2
340
0
102
{BLKREFS
331
7E
102
}
  0
BLOCK_RECORD
  5
59
330
1
100
AcDbSymbolTableRecord
100
AcDbBlockTableRecord
  2
UKH_150_1500V-select__2
340
0
102
{BLKREFS
331
5D
102
}
  0
BLOCK_RECORD
  5
5C
330
1
100
AcDbSymbolTableRecord
100
AcDbBlockTableRecord
  2
Drfsicht2
340
0
102
{BLKREFS
331
7F
102
}
  0
BLOCK_RECORD
  5
60
330
1
100
AcDbSymbolTableRecord
100
AcDbBlockTableRecord
  2
UKH_150_1500V-select__3
340
0
102
{BLKREFS
331
64
102
}
  0
BLOCK_RECORD
  5
63
330
1
100
AcDbSymbolTableRecord
100
AcDbBlockTableRecord
  2
Rckans2
340
0
102
{BLKREFS
331
80
102
}
  0
BLOCK_RECORD
  5
67
330
1
100
AcDbSymbolTableRecord
100
AcDbBlockTableRecord
  2
UKH_150_1500V-select__4
340
0
102
{BLKREFS
331
6B
102
}
  0
BLOCK_RECORD
  5
6A
330
1
100
AcDbSymbolTableRecord
100
AcDbBlockTableRecord
  2
SA_Links2
340
0
102
{BLKREFS
331
81
102
}
  0
BLOCK_RECORD
  5
6E
330
1
100
AcDbSymbolTableRecord
100
AcDbBlockTableRecord
  2
UKH_150_1500V-select__5
340
0
102
{BLKREFS
331
72
102
}
  0
BLOCK_RECORD
  5
71
330
1
100
AcDbSymbolTableRecord
100
AcDbBlockTableRecord
  2
SA_Rechts2
340
0
102
{BLKREFS
331
82
102
}
  0
BLOCK_RECORD
  5
75
330
1
100
AcDbSymbolTableRecord
100
AcDbBlockTableRecord
  2
UKH_150_1500V-select__6
340
0
102
{BLKREFS
331
79
102
}
  0
BLOCK_RECORD
  5
78
330
1
100
AcDbSymbolTableRecord
100
AcDbBlockTableRecord
  2
Vordans2
340
0
102
{BLKREFS
331
83
102
}
  0
BLOCK_RECORD
  5
7C
330
1
100
AcDbSymbolTableRecord
100
AcDbBlockTableRecord
  2
1
340
0
102
{BLKREFS
331
86
102
}
  0
BLOCK_RECORD
  5
276
330
1
100
AcDbSymbolTableRecord
100
AcDbBlockTableRecord
  2
*D17
340
0
  0
BLOCK_RECORD
  5
385
330
1
100
AcDbSymbolTableRecord
100
AcDbBlockTableRecord
  2
*D18
340
0
  0
BLOCK_RECORD
  5
392
330
1
100
AcDbSymbolTableRecord
100
AcDbBlockTableRecord
  2
*D19
340
0
  0
BLOCK_RECORD
  5
39D
330
1
100
AcDbSymbolTableRecord
100
AcDbBlockTableRecord
  2
*D20
340
0
  0
BLOCK_RECORD
  5
3A8
330
1
100
AcDbSymbolTableRecord
100
AcDbBlockTableRecord
  2
*D21
340
0
  0
BLOCK_RECORD
  5
3B3
330
1
100
AcDbSymbolTableRecord
100
AcDbBlockTableRecord
  2
*D22
340
0
102
{BLKREFS
331
3BC
102
}
  0
ENDTAB
  0
ENDSEC
  0
SECTION
  2
BLOCKS
  0
BLOCK
  5
20
330
1F
100
AcDbEntity
  8
0
100
AcDbBlockBegin
  2
*Model_Space
 70
     0
 10
0.0
 20
0.0
 30
0.0
  3
*Model_Space
  1

  0
ENDBLK
  5
21
330
1F
100
AcDbEntity
  8
0
100
AcDbBlockEnd
  0
BLOCK
  5
1C
330
1B
100
AcDbEntity
 67
     1
  8
0
100
AcDbBlockBegin
  2
*Paper_Space
 70
     0
 10
0.0
 20
0.0
 30
0.0
  3
*Paper_Space
  1

  0
ENDBLK
  5
1D
330
1B
100
AcDbEntity
 67
     1
  8
0
100
AcDbBlockEnd
  0
BLOCK
  5
24
330
23
100
AcDbEntity
  8
0
100
AcDbBlockBegin
  2
*Paper_Space0
 70
     0
 10
0.0
 20
0.0
 30
0.0
  3
*Paper_Space0
  1

  0
ENDBLK
  5
25
330
23
100
AcDbEntity
  8
0
100
AcDbBlockEnd
  0
BLOCK
  5
48
330
47
100
AcDbEntity
  8
0
100
AcDbBlockBegin
  2
_rahmen
 70
     0
 10
-105.0000016349782
 20
-283.9301500076673
 30
0.0
  3
_rahmen
  1

  0
LINE
  5
87
330
47
100
AcDbEntity
  8
1
  6
Continuous
 62
     6
100
AcDbLine
 10
-234.5448061617282
 20
-253.4301500076672
 30
0.0
 11
-105.0000016349765
 21
-253.4301500076672
 31
0.0
  0
LINE
  5
88
330
47
100
AcDbEntity
  8
1
  6
Continuous
 62
     7
100
AcDbLine
 10
-216.3448061617282
 20
-274.6801500076672
 30
0.0
 11
-198.1448061617283
 21
-274.6801500076672
 31
0.0
  0
LINE
  5
89
330
47
100
AcDbEntity
  8
1
  6
Continuous
 62
     6
100
AcDbLine
 10
-216.3448061617282
 20
-278.9301500076672
 30
0.0
 11
-234.5448061617282
 21
-278.9301500076673
 31
0.0
  0
LINE
  5
8A
330
47
100
AcDbEntity
  8
1
  6
Continuous
 62
     7
100
AcDbLine
 10
-216.3448061617282
 20
-274.6801500076672
 30
0.0
 11
-216.3448061617282
 21
-278.9301500076672
 31
0.0
  0
LINE
  5
8B
330
47
100
AcDbEntity
  8
1
  6
Continuous
 62
     7
100
AcDbLine
 10
-198.1448061617283
 20
-274.6801500076672
 30
0.0
 11
-198.1448061617283
 21
-278.9301500076673
 31
0.0
  0
LINE
  5
8C
330
47
100
AcDbEntity
  8
1
  6
Continuous
 62
     7
100
AcDbLine
 10
-234.5448061617282
 20
-274.6801500076673
 30
0.0
 11
-234.5448061617282
 21
-278.9301500076673
 31
0.0
  0
LINE
  5
8D
330
47
100
AcDbEntity
  8
1
  6
Continuous
 62
     7
100
AcDbLine
 10
-234.5448061617282
 20
-274.6801500076673
 30
0.0
 11
-216.3448061617282
 21
-274.6801500076672
 31
0.0
  0
LINE
  5
8E
330
47
100
AcDbEntity
  8
1
  6
Continuous
 62
     2
100
AcDbLine
 10
-225.3081512751656
 20
-255.3051500076672
 30
0.0
 11
-225.3081512751656
 21
-260.3051500076672
 31
0.0
  0
LINE
  5
8F
330
47
100
AcDbEntity
  8
1
  6
Continuous
 62
     2
100
AcDbLine
 10
-225.3081512751656
 20
-260.3051500076672
 30
0.0
 11
-230.3081512751656
 21
-259.0551500076672
 31
0.0
  0
LINE
  5
90
330
47
100
AcDbEntity
  8
1
  6
Continuous
 62
     2
100
AcDbLine
 10
-230.3081512751656
 20
-259.0551500076672
 30
0.0
 11
-230.3081512751656
 21
-256.5551500076672
 31
0.0
  0
LINE
  5
91
330
47
100
AcDbEntity
  8
1
  6
Continuous
 62
     2
100
AcDbLine
 10
-230.3081512751656
 20
-256.5551500076672
 30
0.0
 11
-225.3081512751656
 21
-255.3051500076672
 31
0.0
  0
LINE
  5
92
330
47
100
AcDbEntity
  8
1
  6
Continuous
 62
     6
100
AcDbLine
 10
-357.0000016349764
 20
-278.9301500076672
 30
0.0
 11
-392.0000016349763
 21
-278.9301500076672
 31
0.0
  0
LINE
  5
93
330
47
100
AcDbEntity
  8
1
  6
Continuous
 62
     6
100
AcDbLine
 10
-105.0000016349765
 20
-261.9301500076672
 30
0.0
 11
-105.0000016349769
 21
-270.4301500076672
 31
0.0
  0
LINE
  5
94
330
47
100
AcDbEntity
  8
1
  6
Continuous
 62
     6
100
AcDbLine
 10
-198.1448061617283
 20
-278.9301500076673
 30
0.0
 11
-198.5000016349782
 21
-278.9301500076672
 31
0.0
  0
LINE
  5
95
330
47
100
AcDbEntity
  8
1
  6
Continuous
 62
     6
100
AcDbLine
 10
-350.8000016349784
 20
-278.9301500076673
 30
0.0
 11
-357.0000016349764
 21
-278.9301500076672
 31
0.0
  0
LINE
  5
96
330
47
100
AcDbEntity
  8
1
  6
Continuous
 62
     7
100
AcDbLine
 10
-198.1448061617283
 20
-261.9301500076672
 30
0.0
 11
-198.1448061617283
 21
-274.6801500076672
 31
0.0
  0
LINE
  5
97
330
47
100
AcDbEntity
  8
1
  6
Continuous
 62
     7
100
AcDbLine
 10
-234.5448061617282
 20
-261.9301500076672
 30
0.0
 11
-234.5448061617282
 21
-274.6801500076673
 31
0.0
  0
LINE
  5
98
330
47
100
AcDbEntity
  8
1
  6
Continuous
 62
     6
100
AcDbLine
 10
-248.5000016349782
 20
-278.9301500076672
 30
0.0
 11
-298.5000016349784
 21
-278.9301500076672
 31
0.0
  0
LINE
  5
99
330
47
100
AcDbEntity
  8
1
  6
Continuous
 62
     6
100
AcDbLine
 10
-350.8000016349784
 20
-278.9301500076673
 30
0.0
 11
-348.5000016349782
 21
-278.9301500076672
 31
0.0
  0
LINE
  5
9A
330
47
100
AcDbEntity
  8
1
  6
Continuous
 62
     6
100
AcDbLine
 10
-198.1448061617283
 20
-278.9301500076673
 30
0.0
 11
-148.5000016349782
 21
-278.9301500076672
 31
0.0
  0
LINE
  5
9B
330
47
100
AcDbEntity
  8
1
  6
Continuous
 62
     6
100
AcDbLine
 10
-105.0000016349782
 20
-278.9301500076672
 30
0.0
 11
-105.0000016349769
 21
-270.4301500076672
 31
0.0
  0
LINE
  5
9C
330
47
100
AcDbEntity
  8
1
  6
Continuous
 62
     2
100
AcDbLine
 10
-397.0000016349773
 20
-278.9301500076672
 30
0.0
 11
-397.0000016349773
 21
-283.9301500076673
 31
0.0
  0
LINE
  5
9D
330
47
100
AcDbEntity
  8
1
  6
Continuous
 62
     2
100
AcDbLine
 10
-392.0000016349763
 20
-278.9301500076672
 30
0.0
 11
-397.0000016349773
 21
-278.9301500076672
 31
0.0
  0
LINE
  5
9E
330
47
100
AcDbEntity
  8
1
  6
Continuous
 62
     2
100
AcDbLine
 10
-392.0000016349763
 20
-283.9301500076673
 30
0.0
 11
-348.5000016349782
 21
-283.9301500076673
 31
0.0
  0
LINE
  5
9F
330
47
100
AcDbEntity
  8
1
  6
Continuous
 62
     2
100
AcDbLine
 10
-392.0000016349763
 20
-278.9301500076672
 30
0.0
 11
-392.0000016349763
 21
-283.9301500076673
 31
0.0
  0
LINE
  5
A0
330
47
100
AcDbEntity
  8
1
  6
Continuous
 62
     2
100
AcDbLine
 10
-148.5000016349782
 20
-283.9301500076673
 30
0.0
 11
-198.5000016349782
 21
-283.9301500076673
 31
0.0
  0
LINE
  5
A1
330
47
100
AcDbEntity
  8
1
  6
Continuous
 62
     2
100
AcDbLine
 10
-148.5000016349782
 20
-283.9301500076673
 30
0.0
 11
-148.5000016349782
 21
-278.9301500076672
 31
0.0
  0
LINE
  5
A2
330
47
100
AcDbEntity
  8
1
  6
Continuous
 62
     2
100
AcDbLine
 10
-198.5000016349782
 20
-283.9301500076673
 30
0.0
 11
-198.5000016349782
 21
-278.9301500076672
 31
0.0
  0
LINE
  5
A3
330
47
100
AcDbEntity
  8
1
  6
Continuous
 62
     2
100
AcDbLine
 10
-248.5000016349782
 20
-283.9301500076673
 30
0.0
 11
-198.5000016349782
 21
-283.9301500076673
 31
0.0
  0
LINE
  5
A4
330
47
100
AcDbEntity
  8
1
  6
Continuous
 62
     2
100
AcDbLine
 10
-248.5000016349782
 20
-283.9301500076673
 30
0.0
 11
-248.5000016349782
 21
-278.9301500076672
 31
0.0
  0
LINE
  5
A5
330
47
100
AcDbEntity
  8
1
  6
Continuous
 62
     2
100
AcDbLine
 10
-298.5000016349784
 20
-283.9301500076673
 30
0.0
 11
-248.5000016349782
 21
-283.9301500076673
 31
0.0
  0
LINE
  5
A6
330
47
100
AcDbEntity
  8
1
  6
Continuous
 62
     2
100
AcDbLine
 10
-298.5000016349784
 20
-283.9301500076673
 30
0.0
 11
-298.5000016349784
 21
-278.9301500076672
 31
0.0
  0
LINE
  5
A7
330
47
100
AcDbEntity
  8
1
  6
Continuous
 62
     2
100
AcDbLine
 10
-348.5000016349782
 20
-283.9301500076673
 30
0.0
 11
-298.5000016349784
 21
-283.9301500076673
 31
0.0
  0
LINE
  5
A8
330
47
100
AcDbEntity
  8
1
  6
Continuous
 62
     2
100
AcDbLine
 10
-348.5000016349782
 20
-283.9301500076673
 30
0.0
 11
-348.5000016349782
 21
-278.9301500076672
 31
0.0
  0
LINE
  5
A9
330
47
100
AcDbEntity
  8
1
  6
Continuous
 62
     6
100
AcDbLine
 10
-392.0000016349765
 20
-228.930150007667
 30
0.0
 11
-392.0000016349763
 21
-278.9301500076672
 31
0.0
  0
LINE
  5
AA
330
47
100
AcDbEntity
  8
1
  6
Continuous
 62
     2
100
AcDbLine
 10
-397.0000016349773
 20
-228.930150007667
 30
0.0
 11
-397.0000016349773
 21
-278.9301500076672
 31
0.0
  0
LINE
  5
AB
330
47
100
AcDbEntity
  8
1
  6
Continuous
 62
     2
100
AcDbLine
 10
-397.0000016349773
 20
-228.930150007667
 30
0.0
 11
-392.0000016349765
 21
-228.930150007667
 31
0.0
  0
LINE
  5
AC
330
47
100
AcDbEntity
  8
1
  6
Continuous
 62
     6
100
AcDbLine
 10
-392.0000016349767
 20
-178.9301500076672
 30
0.0
 11
-392.0000016349765
 21
-228.930150007667
 31
0.0
  0
LINE
  5
AD
330
47
100
AcDbEntity
  8
1
  6
Continuous
 62
     2
100
AcDbLine
 10
-397.0000016349773
 20
-178.9301500076672
 30
0.0
 11
-397.0000016349773
 21
-228.930150007667
 31
0.0
  0
LINE
  5
AE
330
47
100
AcDbEntity
  8
1
  6
Continuous
 62
     2
100
AcDbLine
 10
-397.0000016349773
 20
-178.9301500076672
 30
0.0
 11
-392.0000016349767
 21
-178.9301500076672
 31
0.0
  0
LINE
  5
AF
330
47
100
AcDbEntity
  8
1
  6
Continuous
 62
     6
100
AcDbLine
 10
-392.0000016349772
 20
-128.9301500076672
 30
0.0
 11
-392.0000016349767
 21
-178.9301500076672
 31
0.0
  0
LINE
  5
B0
330
47
100
AcDbEntity
  8
1
  6
Continuous
 62
     2
100
AcDbLine
 10
-397.0000016349773
 20
-128.9301500076672
 30
0.0
 11
-397.0000016349773
 21
-178.9301500076672
 31
0.0
  0
LINE
  5
B1
330
47
100
AcDbEntity
  8
1
  6
Continuous
 62
     2
100
AcDbLine
 10
-397.0000016349773
 20
-128.9301500076672
 30
0.0
 11
-392.0000016349772
 21
-128.9301500076672
 31
0.0
  0
LINE
  5
B2
330
47
100
AcDbEntity
  8
1
  6
Continuous
 62
     6
100
AcDbLine
 10
-392.0000016349773
 20
-93.93015000766715
 30
0.0
 11
-392.0000016349772
 21
-128.9301500076672
 31
0.0
  0
LINE
  5
B3
330
47
100
AcDbEntity
  8
1
  6
Continuous
 62
     2
100
AcDbLine
 10
-397.0000016349773
 20
-73.93015000766715
 30
0.0
 11
-397.0000016349773
 21
-128.9301500076672
 31
0.0
  0
LINE
  5
B4
330
47
100
AcDbEntity
  8
1
  6
Continuous
 62
     2
100
AcDbLine
 10
-397.0000016349773
 20
-283.9301500076673
 30
0.0
 11
-392.0000016349763
 21
-283.9301500076673
 31
0.0
  0
LINE
  5
B5
330
47
100
AcDbEntity
  8
1
  6
Continuous
 62
     2
100
AcDbLine
 10
-248.5000016349782
 20
-73.93015000766715
 30
0.0
 11
-248.5000016349782
 21
-83.13884185236847
 31
0.0
  0
LINE
  5
B6
330
47
100
AcDbEntity
  8
1
  6
Continuous
 62
     2
100
AcDbLine
 10
-248.5000016349782
 20
-73.93015000766715
 30
0.0
 11
-397.0000016349773
 21
-73.93015000766715
 31
0.0
  0
LINE
  5
B7
330
47
100
AcDbEntity
  8
1
  6
Continuous
 62
     2
100
AcDbLine
 10
-100.0000016349792
 20
-278.9301500076672
 30
0.0
 11
-100.0000016349792
 21
-228.930150007667
 31
0.0
  0
LINE
  5
B8
330
47
100
AcDbEntity
  8
1
  6
Continuous
 62
     2
100
AcDbLine
 10
-100.0000016349792
 20
-128.9301500076672
 30
0.0
 11
-100.0000016349792
 21
-73.93015000766715
 31
0.0
  0
LINE
  5
B9
330
47
100
AcDbEntity
  8
1
  6
Continuous
 62
     6
100
AcDbLine
 10
-105.000001634979
 20
-128.9301500076672
 30
0.0
 11
-105.0000016349792
 21
-93.93015000766715
 31
0.0
  0
LINE
  5
BA
330
47
100
AcDbEntity
  8
1
  6
Continuous
 62
     2
100
AcDbLine
 10
-105.000001634979
 20
-128.9301500076672
 30
0.0
 11
-100.0000016349792
 21
-128.9301500076672
 31
0.0
  0
LINE
  5
BB
330
47
100
AcDbEntity
  8
1
  6
Continuous
 62
     2
100
AcDbLine
 10
-100.0000016349792
 20
-178.9301500076672
 30
0.0
 11
-100.0000016349792
 21
-128.9301500076672
 31
0.0
  0
LINE
  5
BC
330
47
100
AcDbEntity
  8
1
  6
Continuous
 62
     6
100
AcDbLine
 10
-105.0000016349778
 20
-178.9301500076672
 30
0.0
 11
-105.000001634979
 21
-128.9301500076672
 31
0.0
  0
LINE
  5
BD
330
47
100
AcDbEntity
  8
1
  6
Continuous
 62
     2
100
AcDbLine
 10
-105.0000016349778
 20
-178.9301500076672
 30
0.0
 11
-100.0000016349792
 21
-178.9301500076672
 31
0.0
  0
LINE
  5
BE
330
47
100
AcDbEntity
  8
1
  6
Continuous
 62
     2
100
AcDbLine
 10
-100.0000016349792
 20
-228.930150007667
 30
0.0
 11
-100.0000016349792
 21
-178.9301500076672
 31
0.0
  0
LINE
  5
BF
330
47
100
AcDbEntity
  8
1
  6
Continuous
 62
     6
100
AcDbLine
 10
-105.0000016349773
 20
-228.930150007667
 30
0.0
 11
-105.0000016349778
 21
-178.9301500076672
 31
0.0
  0
LINE
  5
C0
330
47
100
AcDbEntity
  8
1
  6
Continuous
 62
     2
100
AcDbLine
 10
-105.0000016349773
 20
-228.930150007667
 30
0.0
 11
-100.0000016349792
 21
-228.930150007667
 31
0.0
  0
LINE
  5
C1
330
47
100
AcDbEntity
  8
1
  6
Continuous
 62
     6
100
AcDbLine
 10
-105.0000016349792
 20
-93.93015000766715
 30
0.0
 11
-392.0000016349773
 21
-93.93015000766715
 31
0.0
  0
LINE
  5
C2
330
47
100
AcDbEntity
  8
1
  6
Continuous
 62
     2
100
AcDbLine
 10
-100.0000016349792
 20
-73.93015000766715
 30
0.0
 11
-248.5000016349782
 21
-73.93015000766715
 31
0.0
  0
LINE
  5
C3
330
47
100
AcDbEntity
  8
1
  6
Continuous
 62
     6
100
AcDbLine
 10
-105.0000016349765
 20
-261.9301500076672
 30
0.0
 11
-105.0000016349773
 21
-228.930150007667
 31
0.0
  0
LINE
  5
C4
330
47
100
AcDbEntity
  8
1
  6
Continuous
 62
     2
100
AcDbLine
 10
-105.0000016349782
 20
-283.9301500076673
 30
0.0
 11
-148.5000016349782
 21
-283.9301500076673
 31
0.0
  0
LINE
  5
C5
330
47
100
AcDbEntity
  8
1
  6
Continuous
 62
     2
100
AcDbLine
 10
-100.0000016349792
 20
-283.9301500076673
 30
0.0
 11
-105.0000016349782
 21
-283.9301500076673
 31
0.0
  0
LINE
  5
C6
330
47
100
AcDbEntity
  8
1
  6
Continuous
 62
     2
100
AcDbLine
 10
-100.0000016349792
 20
-283.9301500076673
 30
0.0
 11
-100.0000016349792
 21
-278.9301500076672
 31
0.0
  0
LINE
  5
C7
330
47
100
AcDbEntity
  8
1
  6
Continuous
 62
     6
100
AcDbLine
 10
-234.5448061617282
 20
-261.9301500076672
 30
0.0
 11
-198.1448061617283
 21
-261.9301500076672
 31
0.0
  0
LINE
  5
C8
330
47
100
AcDbEntity
  8
1
  6
Continuous
 62
     2
100
AcDbLine
 10
-105.0000016349782
 20
-278.9301500076672
 30
0.0
 11
-105.0000016349782
 21
-283.9301500076673
 31
0.0
  0
LINE
  5
C9
330
47
100
AcDbEntity
  8
1
  6
Continuous
 62
     2
100
AcDbLine
 10
-105.0000016349782
 20
-278.9301500076672
 30
0.0
 11
-100.0000016349792
 21
-278.9301500076672
 31
0.0
  0
LINE
  5
CA
330
47
100
AcDbEntity
  8
1
  6
Continuous
 62
     6
100
AcDbLine
 10
-198.5000016349782
 20
-278.9301500076672
 30
0.0
 11
-216.3448061617282
 21
-278.9301500076672
 31
0.0
  0
LINE
  5
CB
330
47
100
AcDbEntity
  8
1
  6
Continuous
 62
     6
100
AcDbLine
 10
-148.5000016349782
 20
-278.9301500076672
 30
0.0
 11
-105.0000016349782
 21
-278.9301500076672
 31
0.0
  0
LINE
  5
CC
330
47
100
AcDbEntity
  8
1
  6
Continuous
 62
     6
100
AcDbLine
 10
-298.5000016349784
 20
-278.9301500076672
 30
0.0
 11
-303.5448061617282
 21
-278.9301500076672
 31
0.0
  0
LINE
  5
CD
330
47
100
AcDbEntity
  8
1
  6
Continuous
 62
     6
100
AcDbLine
 10
-248.5000016349782
 20
-278.9301500076672
 30
0.0
 11
-234.5448061617282
 21
-278.9301500076673
 31
0.0
  0
LINE
  5
CE
102
{ACAD_REACTORS
330
1B9
330
1BA
102
}
330
47
100
AcDbEntity
  8
0
  6
Continuous
 62
     2
100
AcDbLine
 10
-227.0301802195814
 20
-266.857635251455
 30
0.0
 11
-227.0301802195814
 21
-266.2520999629483
 31
0.0
  0
LINE
  5
CF
102
{ACAD_REACTORS
330
1B9
330
1BA
102
}
330
47
100
AcDbEntity
  8
0
  6
Continuous
 62
     2
100
AcDbLine
 10
-227.0301802195814
 20
-269.6577698580863
 30
0.0
 11
-227.0301802195814
 21
-269.0759184513913
 31
0.0
  0
LINE
  5
D0
102
{ACAD_REACTORS
330
1BB
330
1BC
102
}
330
47
100
AcDbEntity
  8
0
  6
Continuous
 62
     2
100
AcDbLine
 10
-204.4006937841022
 20
-269.3681057899634
 30
0.0
 11
-204.4006937841022
 21
-271.6366500076508
 31
0.0
  0
LINE
  5
D1
102
{ACAD_REACTORS
330
1BB
330
1BC
102
}
330
47
100
AcDbEntity
  8
0
  6
Continuous
 62
     2
100
AcDbLine
 10
-205.7817475630898
 20
-268.5828404838402
 30
0.0
 11
-202.3968020444611
 21
-268.5828404838397
 31
0.0
  0
LINE
  5
D2
102
{ACAD_REACTORS
330
1BB
330
1BC
102
}
330
47
100
AcDbEntity
  8
0
  6
Continuous
 62
     2
100
AcDbLine
 10
-202.3968020444611
 20
-269.3681057899634
 30
0.0
 11
-202.3968020444611
 21
-268.5828404838397
 31
0.0
  0
LINE
  5
D3
102
{ACAD_REACTORS
330
1BB
330
1BC
102
}
330
47
100
AcDbEntity
  8
0
  6
Continuous
 62
     2
100
AcDbLine
 10
-203.2079010819345
 20
-269.3681057899634
 30
0.0
 11
-202.3968020444611
 21
-269.3681057899634
 31
0.0
  0
LINE
  5
D4
102
{ACAD_REACTORS
330
1BB
330
1BC
102
}
330
47
100
AcDbEntity
  8
0
  6
Continuous
 62
     2
100
AcDbLine
 10
-203.2079010819345
 20
-271.6366500076508
 30
0.0
 11
-203.2079010819345
 21
-269.3681057899634
 31
0.0
  0
LINE
  5
D5
102
{ACAD_REACTORS
330
1BB
330
1BC
102
}
330
47
100
AcDbEntity
  8
0
  6
Continuous
 62
     2
100
AcDbLine
 10
-204.4006937841022
 20
-271.6366500076508
 30
0.0
 11
-203.2079010819345
 21
-271.6366500076508
 31
0.0
  0
LINE
  5
D6
102
{ACAD_REACTORS
330
1B1
330
1B2
102
}
330
47
100
AcDbEntity
  8
0
  6
Continuous
 62
     2
100
AcDbLine
 10
-205.0972847221667
 20
-265.2236500076654
 30
0.0
 11
-206.500008939916
 21
-265.2236500076654
 31
0.0
  0
LINE
  5
D7
102
{ACAD_REACTORS
330
1B1
330
1B2
102
}
330
47
100
AcDbEntity
  8
0
  6
Continuous
 62
     2
100
AcDbLine
 10
-205.0972847221667
 20
-265.2236500076654
 30
0.0
 11
-204.4961172002749
 21
-265.9034733292208
 31
0.0
  0
LINE
  5
D8
102
{ACAD_REACTORS
330
1B1
330
1B2
102
}
330
47
100
AcDbEntity
  8
0
  6
Continuous
 62
     2
100
AcDbLine
 10
-204.4961172002749
 20
-265.9034733292208
 30
0.0
 11
-203.8949496783821
 21
-265.2236500076654
 31
0.0
  0
LINE
  5
D9
102
{ACAD_REACTORS
330
1B1
330
1B2
102
}
330
47
100
AcDbEntity
  8
0
  6
Continuous
 62
     2
100
AcDbLine
 10
-203.7947550914014
 20
-266.6966005377016
 30
0.0
 11
-202.4922254606349
 21
-265.2236500076654
 31
0.0
  0
LINE
  5
DA
102
{ACAD_REACTORS
330
1B1
330
1B2
102
}
330
47
100
AcDbEntity
  8
0
  6
Continuous
 62
     2
100
AcDbLine
 10
-203.7947550914014
 20
-266.6966005377016
 30
0.0
 11
-202.3968020444611
 21
-268.2774595314766
 31
0.0
  0
LINE
  5
DB
102
{ACAD_REACTORS
330
1B1
330
1B2
102
}
330
47
100
AcDbEntity
  8
0
  6
Continuous
 62
     2
100
AcDbLine
 10
-203.7995262622094
 20
-268.2774595314766
 30
0.0
 11
-202.3968020444611
 21
-268.2774595314766
 31
0.0
  0
LINE
  5
DC
102
{ACAD_REACTORS
330
1B1
330
1B2
102
}
330
47
100
AcDbEntity
  8
0
  6
Continuous
 62
     2
100
AcDbLine
 10
-204.4961172002749
 20
-267.4897277461828
 30
0.0
 11
-203.7995262622094
 21
-268.2774595314766
 31
0.0
  0
LINE
  5
DD
102
{ACAD_REACTORS
330
1AF
330
1B0
102
}
330
47
100
AcDbEntity
  8
0
  6
Continuous
 62
     2
100
AcDbLine
 10
-207.9552160365586
 20
-265.2236500076654
 30
0.0
 11
-206.7147116263057
 21
-265.2236500076654
 31
0.0
  0
LINE
  5
DE
102
{ACAD_REACTORS
330
1AF
330
1B0
102
}
330
47
100
AcDbEntity
  8
0
  6
Continuous
 62
     2
100
AcDbLine
 10
-206.7147116263057
 20
-265.2236500076654
 30
0.0
 11
-206.7147116263057
 21
-268.2774595314766
 31
0.0
  0
LINE
  5
DF
102
{ACAD_REACTORS
330
1AF
330
1B0
102
}
330
47
100
AcDbEntity
  8
0
  6
Continuous
 62
     2
100
AcDbLine
 10
-207.9552160365586
 20
-268.2774595314766
 30
0.0
 11
-207.9552160365586
 21
-265.2236500076654
 31
0.0
  0
LINE
  5
E0
102
{ACAD_REACTORS
330
1AD
330
1AE
102
}
330
47
100
AcDbEntity
  8
0
  6
Continuous
 62
     2
100
AcDbLine
 10
-209.4235261190962
 20
-270.4151261981264
 30
0.0
 11
-209.1233608819038
 21
-269.6473112321397
 31
0.0
  0
LINE
  5
E1
102
{ACAD_REACTORS
330
1AD
330
1AE
102
}
330
47
100
AcDbEntity
  8
0
  6
Continuous
 62
     2
100
AcDbLine
 10
-209.901061723717
 20
-271.6366500076508
 30
0.0
 11
-209.6895816702412
 21
-271.095689463433
 31
0.0
  0
LINE
  5
E2
102
{ACAD_REACTORS
330
1AD
330
1AE
102
}
330
47
100
AcDbEntity
  8
0
  6
Continuous
 62
     2
100
AcDbLine
 10
-209.7436130870307
 20
-268.5828404838397
 30
0.0
 11
-211.14156613397
 21
-271.6366500076508
 31
0.0
  0
LINE
  5
E3
102
{ACAD_REACTORS
330
1AD
330
1AE
102
}
330
47
100
AcDbEntity
  8
0
  6
Continuous
 62
     2
100
AcDbLine
 10
-207.1051556298377
 20
-271.6366500076508
 30
0.0
 11
-208.3456600400916
 21
-271.6366500076508
 31
0.0
  0
LINE
  5
E4
102
{ACAD_REACTORS
330
1AD
330
1AE
102
}
330
47
100
AcDbEntity
  8
0
  6
Continuous
 62
     2
100
AcDbLine
 10
-209.6895816702412
 20
-271.095689463433
 30
0.0
 11
-208.5571400935674
 21
-271.095689463433
 31
0.0
  0
LINE
  5
E5
102
{ACAD_REACTORS
330
1AB
330
1AC
102
}
330
47
100
AcDbEntity
  8
0
  6
Continuous
 62
     2
100
AcDbLine
 10
-213.2990782731522
 20
-269.3681057899634
 30
0.0
 11
-212.4879792356776
 21
-269.3681057899634
 31
0.0
  0
LINE
  5
E6
102
{ACAD_REACTORS
330
1AB
330
1AC
102
}
330
47
100
AcDbEntity
  8
0
  6
Continuous
 62
     2
100
AcDbLine
 10
-210.4840874960386
 20
-268.5828404838397
 30
0.0
 11
-213.2990782731522
 21
-268.5828404838397
 31
0.0
  0
LINE
  5
E7
102
{ACAD_REACTORS
330
1AB
330
1AC
102
}
330
47
100
AcDbEntity
  8
0
  6
Continuous
 62
     2
100
AcDbLine
 10
-210.4840874960386
 20
-269.3681057899634
 30
0.0
 11
-210.4840874960386
 21
-268.5828404838397
 31
0.0
  0
LINE
  5
E8
102
{ACAD_REACTORS
330
1AB
330
1AC
102
}
330
47
100
AcDbEntity
  8
0
  6
Continuous
 62
     2
100
AcDbLine
 10
-211.2951865335111
 20
-269.3681057899634
 30
0.0
 11
-210.4840874960386
 21
-269.3681057899634
 31
0.0
  0
LINE
  5
E9
102
{ACAD_REACTORS
330
1AB
330
1AC
102
}
330
47
100
AcDbEntity
  8
0
  6
Continuous
 62
     2
100
AcDbLine
 10
-211.2951865335111
 20
-271.6366500076508
 30
0.0
 11
-211.2951865335111
 21
-269.3681057899634
 31
0.0
  0
LINE
  5
EA
102
{ACAD_REACTORS
330
1A9
330
1AA
102
}
330
47
100
AcDbEntity
  8
0
  6
Continuous
 62
     2
100
AcDbLine
 10
-210.6270716894131
 20
-268.2774595314766
 30
0.0
 11
-210.6270716894131
 21
-266.9686840212719
 31
0.0
  0
LINE
  5
EB
102
{ACAD_REACTORS
330
1A9
330
1AA
102
}
330
47
100
AcDbEntity
  8
0
  6
Continuous
 62
     2
100
AcDbLine
 10
-211.8198643915796
 20
-265.2236500076654
 30
0.0
 11
-211.8198643915796
 21
-268.2774595314766
 31
0.0
  0
LINE
  5
EC
102
{ACAD_REACTORS
330
1A9
330
1AA
102
}
330
47
100
AcDbEntity
  8
0
  6
Continuous
 62
     2
100
AcDbLine
 10
-210.6270716894131
 20
-265.2236500076654
 30
0.0
 11
-211.8198643915796
 21
-265.2236500076654
 31
0.0
  0
LINE
  5
ED
102
{ACAD_REACTORS
330
1A9
330
1AA
102
}
330
47
100
AcDbEntity
  8
0
  6
Continuous
 62
     2
100
AcDbLine
 10
-209.3865672791591
 20
-265.2236500076654
 30
0.0
 11
-209.3865672791591
 21
-266.5324255178705
 31
0.0
  0
LINE
  5
EE
102
{ACAD_REACTORS
330
1A7
330
1A8
102
}
330
47
100
AcDbEntity
  8
0
  6
Continuous
 62
     2
100
AcDbLine
 10
-217.0683032119993
 20
-268.5828404838397
 30
0.0
 11
-217.0683032119993
 21
-271.6366500076508
 31
0.0
  0
LINE
  5
EF
102
{ACAD_REACTORS
330
1A7
330
1A8
102
}
330
47
100
AcDbEntity
  8
0
  6
Continuous
 62
     2
100
AcDbLine
 10
-215.8755105098317
 20
-268.5828404838397
 30
0.0
 11
-217.0683032119993
 21
-268.5828404838397
 31
0.0
  0
LINE
  5
F0
102
{ACAD_REACTORS
330
1A7
330
1A8
102
}
330
47
100
AcDbEntity
  8
0
  6
Continuous
 62
     2
100
AcDbLine
 10
-214.6350060995788
 20
-271.6366500076508
 30
0.0
 11
-213.4422133974124
 21
-271.6366500076508
 31
0.0
  0
LINE
  5
F1
102
{ACAD_REACTORS
330
1A7
330
1A8
102
}
330
47
100
AcDbEntity
  8
0
  6
Continuous
 62
     2
100
AcDbLine
 10
-217.0683032119993
 20
-271.6366500076508
 30
0.0
 11
-215.8755105098317
 21
-271.6366500076508
 31
0.0
  0
LINE
  5
F2
102
{ACAD_REACTORS
330
1B7
330
1B8
102
}
330
47
100
AcDbEntity
  8
0
  6
Continuous
 62
     2
100
AcDbLine
 10
-213.3943507584402
 20
-266.4015479668501
 30
0.0
 11
-213.3943507584402
 21
-265.9216636131083
 31
0.0
  0
LINE
  5
F3
102
{ACAD_REACTORS
330
1B7
330
1B8
102
}
330
47
100
AcDbEntity
  8
0
  6
Continuous
 62
     2
100
AcDbLine
 10
-212.0584229320125
 20
-266.4015479668501
 30
0.0
 11
-213.3943507584402
 21
-266.4015479668501
 31
0.0
  0
LINE
  5
F4
102
{ACAD_REACTORS
330
1B7
330
1B8
102
}
330
47
100
AcDbEntity
  8
0
  6
Continuous
 62
     2
100
AcDbLine
 10
-212.0584229320125
 20
-267.0995615722924
 30
0.0
 11
-212.0584229320125
 21
-266.4015479668501
 31
0.0
  0
LINE
  5
F5
102
{ACAD_REACTORS
330
1B7
330
1B8
102
}
330
47
100
AcDbEntity
  8
0
  6
Continuous
 62
     2
100
AcDbLine
 10
-213.3943507584402
 20
-267.0995615722924
 30
0.0
 11
-212.0584229320125
 21
-267.0995615722924
 31
0.0
  0
LINE
  5
F6
102
{ACAD_REACTORS
330
1A5
330
1A6
102
}
330
47
100
AcDbEntity
  8
0
  6
Continuous
 62
     2
100
AcDbLine
 10
-216.8773054487671
 20
-265.2236500076654
 30
0.0
 11
-216.8773054487671
 21
-268.2774595314766
 31
0.0
  0
LINE
  5
F7
102
{ACAD_REACTORS
330
1A5
330
1A6
102
}
330
47
100
AcDbEntity
  8
0
  6
Continuous
 62
     2
100
AcDbLine
 10
-216.8773054487671
 20
-268.2774595314766
 30
0.0
 11
-218.0700981509335
 21
-268.2774595314766
 31
0.0
  0
LINE
  5
F8
102
{ACAD_REACTORS
330
1A5
330
1A6
102
}
330
47
100
AcDbEntity
  8
0
  6
Continuous
 62
     2
100
AcDbLine
 10
-218.0700981509335
 20
-268.2774595314766
 30
0.0
 11
-218.0700981509335
 21
-267.1431874226328
 31
0.0
  0
LINE
  5
F9
102
{ACAD_REACTORS
330
1A5
330
1A6
102
}
330
47
100
AcDbEntity
  8
0
  6
Continuous
 62
     2
100
AcDbLine
 10
-219.119755728841
 20
-268.2774595314766
 30
0.0
 11
-220.3125484310076
 21
-268.2774595314766
 31
0.0
  0
LINE
  5
FA
102
{ACAD_REACTORS
330
1A5
330
1A6
102
}
330
47
100
AcDbEntity
  8
0
  6
Continuous
 62
     2
100
AcDbLine
 10
-220.3125484310076
 20
-265.2236500076654
 30
0.0
 11
-219.119755728841
 21
-265.2236500076654
 31
0.0
  0
LINE
  5
FB
102
{ACAD_REACTORS
330
1A5
330
1A6
102
}
330
47
100
AcDbEntity
  8
0
  6
Continuous
 62
     2
100
AcDbLine
 10
-219.119755728841
 20
-265.2236500076654
 30
0.0
 11
-219.119755728841
 21
-266.292483341
 31
0.0
  0
LINE
  5
FC
102
{ACAD_REACTORS
330
1A5
330
1A6
102
}
330
47
100
AcDbEntity
  8
0
  6
Continuous
 62
     2
100
AcDbLine
 10
-219.119755728841
 20
-266.292483341
 30
0.0
 11
-218.0700981509335
 21
-266.292483341
 31
0.0
  0
LINE
  5
FD
102
{ACAD_REACTORS
330
1B3
330
1B4
102
}
330
47
100
AcDbEntity
  8
0
  6
Continuous
 62
     2
100
AcDbLine
 10
-222.2687284625612
 20
-265.8867558531055
 30
0.0
 11
-221.9514334010193
 21
-265.8867558531055
 31
0.0
  0
LINE
  5
FE
102
{ACAD_REACTORS
330
1B3
330
1B4
102
}
330
47
100
AcDbEntity
  8
0
  6
Continuous
 62
     2
100
AcDbLine
 10
-222.2687284625612
 20
-266.5924835024476
 30
0.0
 11
-221.9514334010193
 21
-266.5924835024476
 31
0.0
  0
LINE
  5
FF
102
{ACAD_REACTORS
330
1B3
330
1B4
102
}
330
47
100
AcDbEntity
  8
0
  6
Continuous
 62
     2
100
AcDbLine
 10
-223.5092328728153
 20
-265.2236500076654
 30
0.0
 11
-223.5092328728153
 21
-268.2774595314766
 31
0.0
  0
LINE
  5
100
102
{ACAD_REACTORS
330
1B3
330
1B4
102
}
330
47
100
AcDbEntity
  8
0
  6
Continuous
 62
     2
100
AcDbLine
 10
-223.5092328728153
 20
-265.2236500076654
 30
0.0
 11
-221.5099608747809
 21
-265.2236500076654
 31
0.0
  0
LINE
  5
101
102
{ACAD_REACTORS
330
1B3
330
1B4
102
}
330
47
100
AcDbEntity
  8
0
  6
Continuous
 62
     2
100
AcDbLine
 10
-222.2687284625612
 20
-267.3343812903328
 30
0.0
 11
-221.5099608747809
 21
-267.3343812903328
 31
0.0
  0
LINE
  5
102
102
{ACAD_REACTORS
330
1B9
330
1BA
102
}
330
47
100
AcDbEntity
  8
0
  6
Continuous
 62
     2
100
AcDbLine
 10
-229.605728906112
 20
-266.2519224863002
 30
0.0
 11
-229.605728906112
 21
-270.6083775290173
 31
0.0
  0
LINE
  5
103
102
{ACAD_REACTORS
330
1B9
330
1BA
102
}
330
47
100
AcDbEntity
  8
0
  6
Continuous
 62
     2
100
AcDbLine
 10
-229.2900119830363
 20
-265.936205563224
 30
0.0
 11
-227.8141787220267
 21
-265.936205563224
 31
0.0
  0
LINE
  5
104
102
{ACAD_REACTORS
330
1B9
330
1BA
102
}
330
47
100
AcDbEntity
  8
0
  6
Continuous
 62
     2
100
AcDbLine
 10
-227.4984617989501
 20
-266.8559471053607
 30
0.0
 11
-227.4984617989501
 21
-266.2519224863002
 31
0.0
  0
LINE
  5
105
102
{ACAD_REACTORS
330
1B9
330
1BA
102
}
330
47
100
AcDbEntity
  8
0
  6
Continuous
 62
     2
100
AcDbLine
 10
-227.4984617989501
 20
-270.6083775290173
 30
0.0
 11
-227.4984617989501
 21
-269.0776065974857
 31
0.0
  0
LINE
  5
106
102
{ACAD_REACTORS
330
1B9
330
1BA
102
}
330
47
100
AcDbEntity
  8
0
  6
Continuous
 62
     2
100
AcDbLine
 10
-224.410594569066
 20
-271.6366500076508
 30
0.0
 11
-229.8839066597828
 21
-271.6366500076508
 31
0.0
  0
LINE
  5
107
102
{ACAD_REACTORS
330
1B9
330
1BA
102
}
330
47
100
AcDbEntity
  8
0
  6
Continuous
 62
     2
100
AcDbLine
 10
-223.9863499536821
 20
-265.6478946230674
 30
0.0
 11
-223.9863499536821
 21
-271.2124053922676
 31
0.0
  0
LINE
  5
108
102
{ACAD_REACTORS
330
1B9
330
1BA
102
}
330
47
100
AcDbEntity
  8
0
  6
Continuous
 62
     2
100
AcDbLine
 10
-229.8839066597828
 20
-265.2236500076836
 30
0.0
 11
-224.410594569066
 21
-265.2236500076836
 31
0.0
  0
LINE
  5
109
102
{ACAD_REACTORS
330
1B9
330
1BA
102
}
330
47
100
AcDbEntity
  8
0
  6
Continuous
 62
     2
100
AcDbLine
 10
-230.3081512751656
 20
-265.6478946230674
 30
0.0
 11
-230.3081512751656
 21
-271.2124053922676
 31
0.0
  0
LINE
  5
10A
102
{ACAD_REACTORS
330
1B9
330
1BA
102
}
330
47
100
AcDbEntity
  8
0
  6
Continuous
 62
     2
100
AcDbLine
 10
-227.8141787220267
 20
-270.924094452094
 30
0.0
 11
-229.2900119830363
 21
-270.924094452094
 31
0.0
  0
LINE
  5
10B
102
{ACAD_REACTORS
330
1B3
330
1B4
102
}
330
47
100
AcDbEntity
  8
0
  6
Continuous
 62
     2
100
AcDbLine
 10
-222.2687284625612
 20
-268.2774595314766
 30
0.0
 11
-222.2687284625612
 21
-267.3343812903328
 31
0.0
  0
LINE
  5
10C
102
{ACAD_REACTORS
330
1B3
330
1B4
102
}
330
47
100
AcDbEntity
  8
0
  6
Continuous
 62
     2
100
AcDbLine
 10
-223.5092328728153
 20
-268.2774595314766
 30
0.0
 11
-222.2687284625612
 21
-268.2774595314766
 31
0.0
  0
LINE
  5
10D
102
{ACAD_REACTORS
330
1B3
330
1B4
102
}
330
47
100
AcDbEntity
  8
0
  6
Continuous
 62
     2
100
AcDbLine
 10
-222.2687284625612
 20
-266.5924835024476
 30
0.0
 11
-222.2687284625612
 21
-265.8867558531055
 31
0.0
  0
LINE
  5
10E
102
{ACAD_REACTORS
330
1A5
330
1A6
102
}
330
47
100
AcDbEntity
  8
0
  6
Continuous
 62
     2
100
AcDbLine
 10
-220.3125484310076
 20
-265.2236500076654
 30
0.0
 11
-220.3125484310076
 21
-268.2774595314766
 31
0.0
  0
LINE
  5
10F
102
{ACAD_REACTORS
330
1A5
330
1A6
102
}
330
47
100
AcDbEntity
  8
0
  6
Continuous
 62
     2
100
AcDbLine
 10
-219.119755728841
 20
-267.1431874226328
 30
0.0
 11
-219.119755728841
 21
-268.2774595314766
 31
0.0
  0
LINE
  5
110
102
{ACAD_REACTORS
330
1A5
330
1A6
102
}
330
47
100
AcDbEntity
  8
0
  6
Continuous
 62
     2
100
AcDbLine
 10
-218.0700981509335
 20
-267.1431874226328
 30
0.0
 11
-219.119755728841
 21
-267.1431874226328
 31
0.0
  0
LINE
  5
111
102
{ACAD_REACTORS
330
1A5
330
1A6
102
}
330
47
100
AcDbEntity
  8
0
  6
Continuous
 62
     2
100
AcDbLine
 10
-218.0700981509335
 20
-265.2236500076654
 30
0.0
 11
-216.8773054487671
 21
-265.2236500076654
 31
0.0
  0
LINE
  5
112
102
{ACAD_REACTORS
330
1A5
330
1A6
102
}
330
47
100
AcDbEntity
  8
0
  6
Continuous
 62
     2
100
AcDbLine
 10
-218.0700981509335
 20
-266.292483341
 30
0.0
 11
-218.0700981509335
 21
-265.2236500076654
 31
0.0
  0
LINE
  5
113
102
{ACAD_REACTORS
330
1B7
330
1B8
102
}
330
47
100
AcDbEntity
  8
0
  6
Continuous
 62
     2
100
AcDbLine
 10
-212.0584229320125
 20
-265.9216636131083
 30
0.0
 11
-212.0584229320125
 21
-265.2236500076654
 31
0.0
  0
LINE
  5
114
102
{ACAD_REACTORS
330
1B7
330
1B8
102
}
330
47
100
AcDbEntity
  8
0
  6
Continuous
 62
     2
100
AcDbLine
 10
-215.2087426557935
 20
-265.2236500076654
 30
0.0
 11
-212.0584229320125
 21
-265.2236500076654
 31
0.0
  0
LINE
  5
115
102
{ACAD_REACTORS
330
1B7
330
1B8
102
}
330
47
100
AcDbEntity
  8
0
  6
Continuous
 62
     2
100
AcDbLine
 10
-215.2087426557935
 20
-268.2774595314766
 30
0.0
 11
-212.0584229320125
 21
-268.2774595314766
 31
0.0
  0
LINE
  5
116
102
{ACAD_REACTORS
330
1B7
330
1B8
102
}
330
47
100
AcDbEntity
  8
0
  6
Continuous
 62
     2
100
AcDbLine
 10
-212.0584229320125
 20
-268.2774595314766
 30
0.0
 11
-212.0584229320125
 21
-267.5794459260341
 31
0.0
  0
LINE
  5
117
102
{ACAD_REACTORS
330
1B7
330
1B8
102
}
330
47
100
AcDbEntity
  8
0
  6
Continuous
 62
     2
100
AcDbLine
 10
-212.0584229320125
 20
-267.5794459260341
 30
0.0
 11
-213.3943507584402
 21
-267.5794459260341
 31
0.0
  0
LINE
  5
118
102
{ACAD_REACTORS
330
1B7
330
1B8
102
}
330
47
100
AcDbEntity
  8
0
  6
Continuous
 62
     2
100
AcDbLine
 10
-213.3943507584402
 20
-267.5794459260341
 30
0.0
 11
-213.3943507584402
 21
-267.0995615722924
 31
0.0
  0
LINE
  5
119
102
{ACAD_REACTORS
330
1B7
330
1B8
102
}
330
47
100
AcDbEntity
  8
0
  6
Continuous
 62
     2
100
AcDbLine
 10
-213.3943507584402
 20
-265.9216636131083
 30
0.0
 11
-212.0584229320125
 21
-265.9216636131083
 31
0.0
  0
LINE
  5
11A
102
{ACAD_REACTORS
330
1A7
330
1A8
102
}
330
47
100
AcDbEntity
  8
0
  6
Continuous
 62
     2
100
AcDbLine
 10
-215.8755105098317
 20
-271.6366500076508
 30
0.0
 11
-215.8755105098317
 21
-270.3278744974463
 31
0.0
  0
LINE
  5
11B
102
{ACAD_REACTORS
330
1A7
330
1A8
102
}
330
47
100
AcDbEntity
  8
0
  6
Continuous
 62
     2
100
AcDbLine
 10
-215.8755105098317
 20
-270.3278744974463
 30
0.0
 11
-214.6350060995788
 21
-271.6366500076508
 31
0.0
  0
LINE
  5
11C
102
{ACAD_REACTORS
330
1A7
330
1A8
102
}
330
47
100
AcDbEntity
  8
0
  6
Continuous
 62
     2
100
AcDbLine
 10
-213.4422133974124
 20
-271.6366500076508
 30
0.0
 11
-213.4422133974124
 21
-268.5828404838397
 31
0.0
  0
LINE
  5
11D
102
{ACAD_REACTORS
330
1A7
330
1A8
102
}
330
47
100
AcDbEntity
  8
0
  6
Continuous
 62
     2
100
AcDbLine
 10
-213.4422133974124
 20
-268.5828404838397
 30
0.0
 11
-214.6350060995788
 21
-268.5828404838397
 31
0.0
  0
LINE
  5
11E
102
{ACAD_REACTORS
330
1A7
330
1A8
102
}
330
47
100
AcDbEntity
  8
0
  6
Continuous
 62
     2
100
AcDbLine
 10
-214.6350060995788
 20
-268.5828404838397
 30
0.0
 11
-214.6350060995788
 21
-269.8916159940449
 31
0.0
  0
LINE
  5
11F
102
{ACAD_REACTORS
330
1A7
330
1A8
102
}
330
47
100
AcDbEntity
  8
0
  6
Continuous
 62
     2
100
AcDbLine
 10
-214.6350060995788
 20
-269.8916159940449
 30
0.0
 11
-215.8755105098317
 21
-268.5828404838397
 31
0.0
  0
LINE
  5
120
102
{ACAD_REACTORS
330
1A9
330
1AA
102
}
330
47
100
AcDbEntity
  8
0
  6
Continuous
 62
     2
100
AcDbLine
 10
-210.6270716894131
 20
-266.9686840212719
 30
0.0
 11
-209.3865672791591
 21
-268.2774595314766
 31
0.0
  0
LINE
  5
121
102
{ACAD_REACTORS
330
1A9
330
1AA
102
}
330
47
100
AcDbEntity
  8
0
  6
Continuous
 62
     2
100
AcDbLine
 10
-209.3865672791591
 20
-268.2774595314766
 30
0.0
 11
-208.1937745769925
 21
-268.2774595314766
 31
0.0
  0
LINE
  5
122
102
{ACAD_REACTORS
330
1A9
330
1AA
102
}
330
47
100
AcDbEntity
  8
0
  6
Continuous
 62
     2
100
AcDbLine
 10
-208.1937745769925
 20
-268.2774595314766
 30
0.0
 11
-208.1937745769925
 21
-265.2236500076654
 31
0.0
  0
LINE
  5
123
102
{ACAD_REACTORS
330
1A9
330
1AA
102
}
330
47
100
AcDbEntity
  8
0
  6
Continuous
 62
     2
100
AcDbLine
 10
-208.1937745769925
 20
-265.2236500076654
 30
0.0
 11
-209.3865672791591
 21
-265.2236500076654
 31
0.0
  0
LINE
  5
124
102
{ACAD_REACTORS
330
1A9
330
1AA
102
}
330
47
100
AcDbEntity
  8
0
  6
Continuous
 62
     2
100
AcDbLine
 10
-209.3865672791591
 20
-266.5324255178705
 30
0.0
 11
-210.6270716894131
 21
-265.2236500076654
 31
0.0
  0
LINE
  5
125
102
{ACAD_REACTORS
330
1A9
330
1AA
102
}
330
47
100
AcDbEntity
  8
0
  6
Continuous
 62
     2
100
AcDbLine
 10
-211.8198643915796
 20
-268.2774595314766
 30
0.0
 11
-210.6270716894131
 21
-268.2774595314766
 31
0.0
  0
LINE
  5
126
102
{ACAD_REACTORS
330
1AB
330
1AC
102
}
330
47
100
AcDbEntity
  8
0
  6
Continuous
 62
     2
100
AcDbLine
 10
-213.2990782731522
 20
-268.5828404838397
 30
0.0
 11
-213.2990782731522
 21
-269.3681057899634
 31
0.0
  0
LINE
  5
127
102
{ACAD_REACTORS
330
1AB
330
1AC
102
}
330
47
100
AcDbEntity
  8
0
  6
Continuous
 62
     2
100
AcDbLine
 10
-212.4879792356776
 20
-269.3681057899634
 30
0.0
 11
-212.4879792356776
 21
-271.6366500076508
 31
0.0
  0
LINE
  5
128
102
{ACAD_REACTORS
330
1AB
330
1AC
102
}
330
47
100
AcDbEntity
  8
0
  6
Continuous
 62
     2
100
AcDbLine
 10
-212.4879792356776
 20
-271.6366500076508
 30
0.0
 11
-211.2951865335111
 21
-271.6366500076508
 31
0.0
  0
LINE
  5
129
102
{ACAD_REACTORS
330
1AD
330
1AE
102
}
330
47
100
AcDbEntity
  8
0
  6
Continuous
 62
     2
100
AcDbLine
 10
-208.3456600400916
 20
-271.6366500076508
 30
0.0
 11
-208.5571400935674
 21
-271.095689463433
 31
0.0
  0
LINE
  5
12A
102
{ACAD_REACTORS
330
1AD
330
1AE
102
}
330
47
100
AcDbEntity
  8
0
  6
Continuous
 62
     2
100
AcDbLine
 10
-208.503108676778
 20
-268.5828404838397
 30
0.0
 11
-207.1051556298377
 21
-271.6366500076508
 31
0.0
  0
LINE
  5
12B
102
{ACAD_REACTORS
330
1AD
330
1AE
102
}
330
47
100
AcDbEntity
  8
0
  6
Continuous
 62
     2
100
AcDbLine
 10
-209.7436130870307
 20
-268.5828404838397
 30
0.0
 11
-208.503108676778
 21
-268.5828404838397
 31
0.0
  0
LINE
  5
12C
102
{ACAD_REACTORS
330
1AD
330
1AE
102
}
330
47
100
AcDbEntity
  8
0
  6
Continuous
 62
     2
100
AcDbLine
 10
-211.14156613397
 20
-271.6366500076508
 30
0.0
 11
-209.901061723717
 21
-271.6366500076508
 31
0.0
  0
LINE
  5
12D
102
{ACAD_REACTORS
330
1AD
330
1AE
102
}
330
47
100
AcDbEntity
  8
0
  6
Continuous
 62
     2
100
AcDbLine
 10
-209.4235261190962
 20
-270.4151261981264
 30
0.0
 11
-208.8231956447137
 21
-270.4151261981264
 31
0.0
  0
LINE
  5
12E
102
{ACAD_REACTORS
330
1AD
330
1AE
102
}
330
47
100
AcDbEntity
  8
0
  6
Continuous
 62
     2
100
AcDbLine
 10
-208.8231956447137
 20
-270.4151261981264
 30
0.0
 11
-209.1233608819038
 21
-269.6473112321397
 31
0.0
  0
LINE
  5
12F
102
{ACAD_REACTORS
330
1AF
330
1B0
102
}
330
47
100
AcDbEntity
  8
0
  6
Continuous
 62
     2
100
AcDbLine
 10
-206.7147116263057
 20
-268.2774595314766
 30
0.0
 11
-207.9552160365586
 21
-268.2774595314766
 31
0.0
  0
LINE
  5
130
102
{ACAD_REACTORS
330
1B1
330
1B2
102
}
330
47
100
AcDbEntity
  8
0
  6
Continuous
 62
     2
100
AcDbLine
 10
-205.1927081383406
 20
-268.2774595314766
 30
0.0
 11
-206.5954323560888
 21
-268.2774595314766
 31
0.0
  0
LINE
  5
131
102
{ACAD_REACTORS
330
1B1
330
1B2
102
}
330
47
100
AcDbEntity
  8
0
  6
Continuous
 62
     2
100
AcDbLine
 10
-205.1927081383406
 20
-268.2774595314766
 30
0.0
 11
-204.4961172002749
 21
-267.4897277461828
 31
0.0
  0
LINE
  5
132
102
{ACAD_REACTORS
330
1B1
330
1B2
102
}
330
47
100
AcDbEntity
  8
0
  6
Continuous
 62
     2
100
AcDbLine
 10
-203.8949496783821
 20
-265.2236500076654
 30
0.0
 11
-202.4922254606349
 21
-265.2236500076654
 31
0.0
  0
LINE
  5
133
102
{ACAD_REACTORS
330
1B1
330
1B2
102
}
330
47
100
AcDbEntity
  8
0
  6
Continuous
 62
     2
100
AcDbLine
 10
-206.500008939916
 20
-265.2236500076654
 30
0.0
 11
-205.1974793091485
 21
-266.6966005377016
 31
0.0
  0
LINE
  5
134
102
{ACAD_REACTORS
330
1B1
330
1B2
102
}
330
47
100
AcDbEntity
  8
0
  6
Continuous
 62
     2
100
AcDbLine
 10
-206.5954323560888
 20
-268.2774595314766
 30
0.0
 11
-205.1974793091485
 21
-266.6966005377016
 31
0.0
  0
LINE
  5
135
102
{ACAD_REACTORS
330
1BB
330
1BC
102
}
330
47
100
AcDbEntity
  8
0
  6
Continuous
 62
     2
100
AcDbLine
 10
-204.7346757407089
 20
-270.5896295994872
 30
0.0
 11
-204.7346757407089
 21
-271.4621466062906
 31
0.0
  0
LINE
  5
136
102
{ACAD_REACTORS
330
1BB
330
1BC
102
}
330
47
100
AcDbEntity
  8
0
  6
Continuous
 62
     2
100
AcDbLine
 10
-205.5043330836703
 20
-269.3681057899634
 30
0.0
 11
-204.4006937841022
 21
-269.3681057899634
 31
0.0
  0
LINE
  5
137
102
{ACAD_REACTORS
330
1BD
330
1BE
102
}
330
47
100
AcDbEntity
  8
0
  6
Continuous
 62
     2
100
AcDbLine
 10
-220.8373772199608
 20
-270.5896295994868
 30
0.0
 11
-220.8373772199608
 21
-271.4621466062899
 31
0.0
  0
LINE
  5
138
102
{ACAD_REACTORS
330
1BD
330
1BE
102
}
330
47
100
AcDbEntity
  8
0
  6
Continuous
 62
     2
100
AcDbLine
 10
-220.8373772199608
 20
-269.6298608920039
 30
0.0
 11
-220.8373772199608
 21
-268.7573438852006
 31
0.0
  0
LINE
  5
139
330
47
100
AcDbEntity
  8
1
  6
Continuous
 62
     7
100
AcDbLine
 10
-105.0000016349769
 20
-270.4301500076672
 30
0.0
 11
-198.1448061617283
 21
-270.4301500076672
 31
0.0
  0
LINE
  5
13A
330
47
100
AcDbEntity
  8
1
  6
Continuous
 62
     6
100
AcDbLine
 10
-303.5448061617282
 20
-278.9301500076672
 30
0.0
 11
-348.5000016349782
 21
-278.9301500076672
 31
0.0
  0
LINE
  5
13B
330
47
100
AcDbEntity
  8
1
  6
Continuous
 62
     7
100
AcDbLine
 10
-113.9184099166557
 20
-253.4301500076672
 30
0.0
 11
-113.9184099166557
 21
-261.9301500076672
 31
0.0
  0
LINE
  5
13C
330
47
100
AcDbEntity
  8
1
  6
Continuous
 62
     7
100
AcDbLine
 10
-140.4184099166553
 20
-253.4301500076672
 30
0.0
 11
-140.4184099166553
 21
-261.9301500076672
 31
0.0
  0
LINE
  5
13D
330
47
100
AcDbEntity
  8
1
  6
Continuous
 62
     7
100
AcDbLine
 10
-198.1448061617283
 20
-261.9301500076672
 30
0.0
 11
-198.1448061617283
 21
-253.4301500076672
 31
0.0
  0
LINE
  5
13E
330
47
100
AcDbEntity
  8
1
  6
Continuous
 62
     7
100
AcDbLine
 10
-234.5448061617282
 20
-261.9301500076672
 30
0.0
 11
-234.5448061617282
 21
-253.4301500076672
 31
0.0
  0
LINE
  5
13F
330
47
100
AcDbEntity
  8
1
  6
Continuous
 62
     6
100
AcDbLine
 10
-198.1448061617283
 20
-261.9301500076672
 30
0.0
 11
-105.0000016349765
 21
-261.9301500076672
 31
0.0
  0
LINE
  5
140
330
47
100
AcDbEntity
  8
1
  6
Continuous
 62
     7
100
AcDbLine
 10
-170.2448061617282
 20
-270.4301500076672
 30
0.0
 11
-170.2448061617282
 21
-261.9301500076672
 31
0.0
  0
LINE
  5
141
330
47
100
AcDbEntity
  8
1
  6
PHANTOM
 62
     2
100
AcDbLine
 10
-219.0581512751656
 20
-257.8051500076672
 30
0.0
 11
-224.5581512751656
 21
-257.8051500076672
 31
0.0
  0
LINE
  5
142
330
47
100
AcDbEntity
  8
1
  6
PHANTOM
 62
     2
100
AcDbLine
 10
-221.8081512751656
 20
-255.0551500076672
 30
0.0
 11
-221.8081512751656
 21
-260.5551500076672
 31
0.0
  0
LINE
  5
143
330
47
100
AcDbEntity
  8
1
  6
DOT_CENTER
 62
     2
100
AcDbLine
 10
-230.5581512751656
 20
-257.8051500076672
 30
0.0
 11
-225.0581512751656
 21
-257.8051500076672
 31
0.0
  0
ARC
  5
144
102
{ACAD_REACTORS
330
1BD
330
1BE
102
}
330
47
100
AcDbEntity
  8
0
  6
Continuous
 62
     2
100
AcDbCircle
 10
-222.1733051370786
 20
-273.4224261910015
 30
0.0
 40
4.852596863498033
100
AcDbArc
 50
74.02000874164762
 51
84.84185523037502
  0
ARC
  5
145
102
{ACAD_REACTORS
330
1BD
330
1BE
102
}
330
47
100
AcDbEntity
  8
0
  6
Continuous
 62
     2
100
AcDbCircle
 10
-221.5972645283249
 20
-270.2666658351171
 30
0.0
 40
0.9059297849852779
100
AcDbArc
 50
71.55192388185064
 51
113.3722778881304
  0
ARC
  5
146
102
{ACAD_REACTORS
330
1BD
330
1BE
102
}
330
47
100
AcDbEntity
  8
0
  6
Continuous
 62
     2
100
AcDbCircle
 10
-221.7537045610269
 20
-270.3148166750841
 30
0.0
 40
0.5115800601948034
100
AcDbArc
 50
208.5214732576956
 51
246.6277221118245
  0
ARC
  5
147
102
{ACAD_REACTORS
330
1BD
330
1BE
102
}
330
47
100
AcDbEntity
  8
0
  6
Continuous
 62
     2
100
AcDbCircle
 10
-221.5972645283249
 20
-269.9528246563741
 30
0.0
 40
0.9059297849849192
100
AcDbArc
 50
246.627722111871
 51
288.4480761181596
  0
ARC
  5
148
102
{ACAD_REACTORS
330
1BD
330
1BE
102
}
330
47
100
AcDbEntity
  8
0
  6
Continuous
 62
     2
100
AcDbCircle
 10
-222.0154322619857
 20
-268.6992788803369
 30
0.0
 40
2.227384008972773
100
AcDbArc
 50
288.4480761181333
 51
301.9309089499596
  0
ARC
  5
149
102
{ACAD_REACTORS
330
1B9
330
1BA
102
}
330
47
100
AcDbEntity
  8
0
  6
Continuous
 62
     2
100
AcDbCircle
 10
-227.2405059945925
 20
-267.9667768514229
 30
0.0
 40
0.9118481501443819
100
AcDbArc
 50
295.3740086781787
 51
64.62599132180748
  0
ARC
  5
14A
102
{ACAD_REACTORS
330
1B9
330
1BA
102
}
330
47
100
AcDbEntity
  8
0
  6
Continuous
 62
     2
100
AcDbCircle
 10
-226.7144632965046
 20
-266.2520999629483
 30
0.0
 40
0.3157169230761848
100
AcDbArc
 50
90.18896704255101
 51
180.0
  0
ARC
  5
14B
102
{ACAD_REACTORS
330
1BB
330
1BC
102
}
330
47
100
AcDbEntity
  8
0
  6
Continuous
 62
     2
100
AcDbCircle
 10
-205.5043330836703
 20
-270.3226287967895
 30
0.0
 40
0.9545230068260935
100
AcDbArc
 50
90.0
 51
109.337143219432
  0
ARC
  5
14C
102
{ACAD_REACTORS
330
1BB
330
1BC
102
}
330
47
100
AcDbEntity
  8
0
  6
Continuous
 62
     2
100
AcDbCircle
 10
-205.2736458236926
 20
-270.1097452457456
 30
0.0
 40
0.9410597353349331
100
AcDbArc
 50
151.4785267423579
 51
208.5214732576695
  0
ARC
  5
14D
102
{ACAD_REACTORS
330
1BB
330
1BC
102
}
330
47
100
AcDbEntity
  8
0
  6
Continuous
 62
     2
100
AcDbCircle
 10
-205.4945630490709
 20
-269.9528246563741
 30
0.0
 40
0.9059297849852801
100
AcDbArc
 50
246.6277221118183
 51
288.448076118084
  0
ARC
  5
14E
102
{ACAD_REACTORS
330
1BB
330
1BC
102
}
330
47
100
AcDbEntity
  8
0
  6
Continuous
 62
     2
100
AcDbCircle
 10
-205.9127307827328
 20
-268.6992788803375
 30
0.0
 40
2.227384008972665
100
AcDbArc
 50
288.4480761181342
 51
301.9309089499409
  0
ARC
  5
14F
102
{ACAD_REACTORS
330
1BB
330
1BC
102
}
330
47
100
AcDbEntity
  8
0
  6
Continuous
 62
     2
100
AcDbCircle
 10
-206.0706036578256
 20
-266.7970643004892
 30
0.0
 40
4.852596863498822
100
AcDbArc
 50
275.158144769636
 51
285.9799912583383
  0
ARC
  5
150
102
{ACAD_REACTORS
330
1BB
330
1BC
102
}
330
47
100
AcDbEntity
  8
0
  6
Continuous
 62
     2
100
AcDbCircle
 10
-205.7817475630898
 20
-269.9969548837107
 30
0.0
 40
1.639695123940421
100
AcDbArc
 50
195.0618917771015
 51
275.158144769676
  0
ARC
  5
151
102
{ACAD_REACTORS
330
1B3
330
1B4
102
}
330
47
100
AcDbEntity
  8
0
  6
Continuous
 62
     2
100
AcDbCircle
 10
-221.5099608747809
 20
-266.279015648999
 30
0.0
 40
1.055365641333765
100
AcDbArc
 50
270.0
 51
90.0
  0
ARC
  5
152
102
{ACAD_REACTORS
330
1B9
330
1BA
102
}
330
47
100
AcDbEntity
  8
0
  6
Continuous
 62
     2
100
AcDbCircle
 10
-229.2900119830363
 20
-270.6083775290173
 30
0.0
 40
0.315716923075712
100
AcDbArc
 50
180.0
 51
270.0
  0
ARC
  5
153
102
{ACAD_REACTORS
330
1B9
330
1BA
102
}
330
47
100
AcDbEntity
  8
0
  6
Continuous
 62
     2
100
AcDbCircle
 10
-227.8141787220267
 20
-266.2519224863002
 30
0.0
 40
0.315716923076593
100
AcDbArc
 50
0.0
 51
90.0
  0
ARC
  5
154
102
{ACAD_REACTORS
330
1B9
330
1BA
102
}
330
47
100
AcDbEntity
  8
0
  6
Continuous
 62
     2
100
AcDbCircle
 10
-227.8141787220267
 20
-266.8559471053607
 30
0.0
 40
0.3157169230760174
100
AcDbArc
 50
295.1944106485485
 51
0.0
  0
ARC
  5
155
102
{ACAD_REACTORS
330
1B9
330
1BA
102
}
330
47
100
AcDbEntity
  8
0
  6
Continuous
 62
     2
100
AcDbCircle
 10
-227.8141787220267
 20
-270.6083775290173
 30
0.0
 40
0.3157169230767067
100
AcDbArc
 50
270.0
 51
0.0
  0
ARC
  5
156
102
{ACAD_REACTORS
330
1B9
330
1BA
102
}
330
47
100
AcDbEntity
  8
0
  6
Continuous
 62
     2
100
AcDbCircle
 10
-229.8839066597828
 20
-265.6478946230674
 30
0.0
 40
0.4242446153837705
100
AcDbArc
 50
90.0
 51
180.0
  0
ARC
  5
157
102
{ACAD_REACTORS
330
1B9
330
1BA
102
}
330
47
100
AcDbEntity
  8
0
  6
Continuous
 62
     2
100
AcDbCircle
 10
-224.410594569066
 20
-265.6478946230674
 30
0.0
 40
0.4242446153839126
100
AcDbArc
 50
0.0
 51
90.0
  0
ARC
  5
158
102
{ACAD_REACTORS
330
1B9
330
1BA
102
}
330
47
100
AcDbEntity
  8
0
  6
Continuous
 62
     2
100
AcDbCircle
 10
-224.410594569066
 20
-271.2124053922676
 30
0.0
 40
0.424244615383202
100
AcDbArc
 50
270.0
 51
0.0
  0
ARC
  5
159
102
{ACAD_REACTORS
330
1B7
330
1B8
102
}
330
47
100
AcDbEntity
  8
0
  6
Continuous
 62
     2
100
AcDbCircle
 10
-215.1922106819745
 20
-266.7505547695712
 30
0.0
 40
0.7717997786797075
100
AcDbArc
 50
321.8795802028371
 51
38.12041979715293
  0
ARC
  5
15A
102
{ACAD_REACTORS
330
1B7
330
1B8
102
}
330
47
100
AcDbEntity
  8
0
  6
Continuous
 62
     2
100
AcDbCircle
 10
-214.9924706456283
 20
-266.9072859476917
 30
0.0
 40
0.5179085730134595
100
AcDbArc
 50
218.1204197971492
 51
321.8795802028547
  0
ARC
  5
15B
102
{ACAD_REACTORS
330
1B5
330
1B6
102
}
330
47
100
AcDbEntity
  8
0
  6
Continuous
 62
     2
100
AcDbCircle
 10
-218.6724782345885
 20
-270.1097452457456
 30
0.0
 40
1.458034083651927
100
AcDbArc
 50
297.5481481757026
 51
62.45185182429947
  0
ARC
  5
15C
102
{ACAD_REACTORS
330
1B5
330
1B6
102
}
330
47
100
AcDbEntity
  8
0
  6
Continuous
 62
     2
100
AcDbCircle
 10
-219.2343580182551
 20
-270.1097452457456
 30
0.0
 40
1.458034083651515
100
AcDbArc
 50
117.5481481756619
 51
242.451851824336
  0
ARC
  5
15D
102
{ACAD_REACTORS
330
1B5
330
1B6
102
}
330
47
100
AcDbEntity
  8
0
  6
Continuous
 62
     2
100
AcDbCircle
 10
-218.9534181264218
 20
-270.6483202560484
 30
0.0
 40
2.065479772208593
100
AcDbArc
 50
62.45185182430674
 51
117.548148175666
  0
ARC
  5
15E
102
{ACAD_REACTORS
330
1B5
330
1B6
102
}
330
47
100
AcDbEntity
  8
0
  6
Continuous
 62
     2
100
AcDbCircle
 10
-218.9534181264218
 20
-269.5711702354423
 30
0.0
 40
2.065479772208433
100
AcDbArc
 50
242.4518518243391
 51
297.5481481756882
  0
ARC
  5
15F
102
{ACAD_REACTORS
330
1B7
330
1B8
102
}
330
47
100
AcDbEntity
  8
0
  6
Continuous
 62
     2
100
AcDbCircle
 10
-214.792730609282
 20
-266.7505547695712
 30
0.0
 40
0.7717997786796245
100
AcDbArc
 50
141.8795802028484
 51
218.1204197971616
  0
ARC
  5
160
102
{ACAD_REACTORS
330
1B7
330
1B8
102
}
330
47
100
AcDbEntity
  8
0
  6
Continuous
 62
     2
100
AcDbCircle
 10
-214.9924706456283
 20
-266.5938235914508
 30
0.0
 40
0.5179085730135041
100
AcDbArc
 50
38.12041979714528
 51
141.8795802028508
  0
ARC
  5
161
102
{ACAD_REACTORS
330
1B9
330
1BA
102
}
330
47
100
AcDbEntity
  8
0
  6
Continuous
 62
     2
100
AcDbCircle
 10
-229.8839066597828
 20
-271.2124053922676
 30
0.0
 40
0.4242446153828041
100
AcDbArc
 50
180.0
 51
270.0
  0
ARC
  5
162
102
{ACAD_REACTORS
330
1B9
330
1BA
102
}
330
47
100
AcDbEntity
  8
0
  6
Continuous
 62
     2
100
AcDbCircle
 10
-227.8141787220267
 20
-269.0776065974857
 30
0.0
 40
0.315716923076593
100
AcDbArc
 50
0.0
 51
64.80558935147346
  0
ARC
  5
163
102
{ACAD_REACTORS
330
1B9
330
1BA
102
}
330
47
100
AcDbEntity
  8
0
  6
Continuous
 62
     2
100
AcDbCircle
 10
-227.2915942744517
 20
-267.9667768514229
 30
0.0
 40
0.9118975235576917
100
AcDbArc
 50
115.194410648526
 51
244.8055893514847
  0
ARC
  5
164
102
{ACAD_REACTORS
330
1B9
330
1BA
102
}
330
47
100
AcDbEntity
  8
0
  6
Continuous
 62
     2
100
AcDbCircle
 10
-229.2900119830363
 20
-266.2519224863002
 30
0.0
 40
0.3157169230761951
100
AcDbArc
 50
90.0
 51
180.0
  0
ARC
  5
165
102
{ACAD_REACTORS
330
1B3
330
1B4
102
}
330
47
100
AcDbEntity
  8
0
  6
Continuous
 62
     2
100
AcDbCircle
 10
-221.9514334010193
 20
-266.2396196777766
 30
0.0
 40
0.3528638246709761
100
AcDbArc
 50
270.0
 51
90.0
  0
ARC
  5
166
102
{ACAD_REACTORS
330
1B7
330
1B8
102
}
330
47
100
AcDbEntity
  8
0
  6
Continuous
 62
     2
100
AcDbCircle
 10
-215.2087426557935
 20
-266.7505547695712
 30
0.0
 40
1.526904761905769
100
AcDbArc
 50
90.0
 51
270.0
  0
ARC
  5
167
102
{ACAD_REACTORS
330
1BB
330
1BC
102
}
330
47
100
AcDbEntity
  8
0
  6
Continuous
 62
     2
100
AcDbCircle
 10
-205.7817475630898
 20
-270.2225356077805
 30
0.0
 40
1.639695123940328
100
AcDbArc
 50
90.0
 51
164.9381082228909
  0
ARC
  5
168
102
{ACAD_REACTORS
330
1BB
330
1BC
102
}
330
47
100
AcDbEntity
  8
0
  6
Continuous
 62
     2
100
AcDbCircle
 10
-206.2008754065514
 20
-270.1097452457456
 30
0.0
 40
1.205656168393004
100
AcDbArc
 50
164.9381082228972
 51
195.0618917770924
  0
ARC
  5
169
102
{ACAD_REACTORS
330
1BB
330
1BC
102
}
330
47
100
AcDbEntity
  8
0
  6
Continuous
 62
     2
100
AcDbCircle
 10
-205.651003081774
 20
-270.3148166750841
 30
0.0
 40
0.5115800601959967
100
AcDbArc
 50
208.5214732576881
 51
246.6277221118449
  0
ARC
  5
16A
102
{ACAD_REACTORS
330
1BB
330
1BC
102
}
330
47
100
AcDbEntity
  8
0
  6
Continuous
 62
     2
100
AcDbCircle
 10
-205.651003081774
 20
-269.9046738164066
 30
0.0
 40
0.5115800601944143
100
AcDbArc
 50
109.3371432194853
 51
151.4785267424126
  0
ARC
  5
16B
102
{ACAD_REACTORS
330
1B9
330
1BA
102
}
330
47
100
AcDbEntity
  8
0
  6
Continuous
 62
     2
100
AcDbCircle
 10
-226.7144632965046
 20
-269.6577698580863
 30
0.0
 40
0.3157169230768204
100
AcDbArc
 50
180.0
 51
269.8110329574491
  0
ARC
  5
16C
102
{ACAD_REACTORS
330
1B9
330
1BA
102
}
330
47
100
AcDbEntity
  8
0
  6
Continuous
 62
     2
100
AcDbCircle
 10
-226.7088471611946
 20
-267.9549349105174
 30
0.0
 40
2.018561131933266
100
AcDbArc
 50
269.8110329575858
 51
90.18896704241413
  0
ARC
  5
16D
102
{ACAD_REACTORS
330
1B9
330
1BA
102
}
330
47
100
AcDbEntity
  8
0
  6
Continuous
 62
     2
100
AcDbCircle
 10
-226.7144632965046
 20
-266.857635251455
 30
0.0
 40
0.3157169230768204
100
AcDbArc
 50
180.0
 51
244.6259913216479
  0
ARC
  5
16E
102
{ACAD_REACTORS
330
1B9
330
1BA
102
}
330
47
100
AcDbEntity
  8
0
  6
Continuous
 62
     2
100
AcDbCircle
 10
-226.7144632965046
 20
-269.0759184513913
 30
0.0
 40
0.3157169230766477
100
AcDbArc
 50
115.3740086783477
 51
180.0
  0
ARC
  5
16F
102
{ACAD_REACTORS
330
1BD
330
1BE
102
}
330
47
100
AcDbEntity
  8
0
  6
Continuous
 62
     2
100
AcDbCircle
 10
-221.8844490423427
 20
-270.2225356077805
 30
0.0
 40
1.639695123940509
100
AcDbArc
 50
84.84185523036136
 51
164.9381082228826
  0
ARC
  5
170
102
{ACAD_REACTORS
330
1BD
330
1BE
102
}
330
47
100
AcDbEntity
  8
0
  6
Continuous
 62
     2
100
AcDbCircle
 10
-222.3035768858055
 20
-270.1097452457456
 30
0.0
 40
1.205656168390974
100
AcDbArc
 50
164.9381082228713
 51
195.0618917770948
  0
ARC
  5
171
102
{ACAD_REACTORS
330
1BD
330
1BE
102
}
330
47
100
AcDbEntity
  8
0
  6
Continuous
 62
     2
100
AcDbCircle
 10
-221.8844490423427
 20
-269.9969548837107
 30
0.0
 40
1.63969512393941
100
AcDbArc
 50
195.0618917770925
 51
275.1581447696403
  0
ARC
  5
172
102
{ACAD_REACTORS
330
1BD
330
1BE
102
}
330
47
100
AcDbEntity
  8
0
  6
Continuous
 62
     2
100
AcDbCircle
 10
-222.1733051370786
 20
-266.7970643004892
 30
0.0
 40
4.852596863498166
100
AcDbArc
 50
275.1581447696249
 51
285.979991258353
  0
ARC
  5
173
102
{ACAD_REACTORS
330
1BD
330
1BE
102
}
330
47
100
AcDbEntity
  8
0
  6
Continuous
 62
     2
100
AcDbCircle
 10
-221.3763473029466
 20
-270.1097452457456
 30
0.0
 40
0.9410597353332295
100
AcDbArc
 50
151.4785267422661
 51
208.5214732577066
  0
ARC
  5
174
102
{ACAD_REACTORS
330
1BD
330
1BE
102
}
330
47
100
AcDbEntity
  8
0
  6
Continuous
 62
     2
100
AcDbCircle
 10
-221.7537045610269
 20
-269.9046738164066
 30
0.0
 40
0.5115800601949152
100
AcDbArc
 50
113.3722778882008
 51
151.4785267423044
  0
ARC
  5
175
102
{ACAD_REACTORS
330
1BD
330
1BE
102
}
330
47
100
AcDbEntity
  8
0
  6
Continuous
 62
     2
100
AcDbCircle
 10
-222.0154322619857
 20
-271.5202116111537
 30
0.0
 40
2.227384008973405
100
AcDbArc
 50
58.06909105003957
 51
71.55192388186583
  0
ARC
  5
176
102
{ACAD_REACTORS
330
1B5
330
1B6
102
}
330
47
100
AcDbEntity
  8
0
  6
Continuous
 62
     2
100
AcDbCircle
 10
-218.9534181264218
 20
-269.9530140676251
 30
0.0
 40
0.51790857301337
100
AcDbArc
 50
38.12041979715693
 51
141.8795802028489
  0
ARC
  5
177
102
{ACAD_REACTORS
330
1B5
330
1B6
102
}
330
47
100
AcDbEntity
  8
0
  6
Continuous
 62
     2
100
AcDbCircle
 10
-218.7536780900757
 20
-270.1097452457456
 30
0.0
 40
0.771799778679551
100
AcDbArc
 50
141.879580202828
 51
218.120419797162
  0
ARC
  5
178
102
{ACAD_REACTORS
330
1B5
330
1B6
102
}
330
47
100
AcDbEntity
  8
0
  6
Continuous
 62
     2
100
AcDbCircle
 10
-218.9534181264218
 20
-270.2664764238656
 30
0.0
 40
0.5179085730136828
100
AcDbArc
 50
218.1204197971857
 51
321.8795802028085
  0
ARC
  5
179
102
{ACAD_REACTORS
330
1B5
330
1B6
102
}
330
47
100
AcDbEntity
  8
0
  6
Continuous
 62
     2
100
AcDbCircle
 10
-219.1531581627682
 20
-270.1097452457456
 30
0.0
 40
0.7717997786796023
100
AcDbArc
 50
321.8795802028471
 51
38.12041979716289
  0
CIRCLE
  5
17A
330
47
100
AcDbEntity
  8
1
  6
Continuous
 62
     2
100
AcDbCircle
 10
-221.8081512751656
 20
-257.8051500076672
 30
0.0
 40
2.5
  0
CIRCLE
  5
17B
330
47
100
AcDbEntity
  8
1
  6
Continuous
 62
     2
100
AcDbCircle
 10
-221.8081512751656
 20
-257.8051500076672
 30
0.0
 40
1.249999999999915
  0
CIRCLE
  5
17C
102
{ACAD_REACTORS
330
1B9
330
1BA
102
}
330
47
100
AcDbEntity
  8
0
  6
Continuous
 62
     2
100
AcDbCircle
 10
-227.2643210092653
 20
-267.9667768514229
 30
0.0
 40
0.4709789327785074
  0
MTEXT
  5
17E
330
47
100
AcDbEntity
  8
1
 62
     3
100
AcDbMText
 10
-391.9949338489064
 20
-92.13884185236836
 30
0.0
 40
1.8
 41
0.0
 71
     7
 72
     1
  3
Weitergabe sowie Vervielf\U+00e4ltigung dieses Dokuments, Verwertung und \PMitteilung seines Inhalts sind verboten, soweit nicht ausdr\U+00fccklich gestattet. \PZuwiderhandlungen verpflichten zu Schadenersatz. Alle Rechte f\U+00fcr den Fall\Pder Pat
  1
ent-, Gebrauchsmuster- oder Designeintragung vorbehalten.
  7
CONVERTER_11
 73
     1
 44
0.99639855942377
  0
MTEXT
  5
17F
330
47
100
AcDbEntity
  8
1
 62
     3
100
AcDbMText
 10
-209.1418240101183
 20
-92.13884185236836
 30
0.0
 40
1.8
 41
0.0
 71
     7
 72
     1
  3
Transfer or duplication of this document as well as the utilisation or\Pcommunication of its content are not permitted unless express consent\Pis granted. Violations give rise to claims for damages. All rights reserved\Pin case of patent, utility mo
  1
del or design patent registrations.
  7
CONVERTER_11
 73
     1
 44
0.99639855942377
  0
TEXT
  5
180
330
47
100
AcDbEntity
  8
1
 62
     2
100
AcDbText
 10
-215.3448061617284
 20
-277.6891672226587
 30
0.0
 40
1.8
  1
of
 41
0.9
  7
CONVERTER_11
100
AcDbText
  0
TEXT
  5
181
330
47
100
AcDbEntity
  8
1
 62
     2
100
AcDbText
 10
-233.5448061617282
 20
-277.6891672226589
 30
0.0
 40
1.8
  1
page
 41
0.9
  7
CONVERTER_11
100
AcDbText
  0
TEXT
  5
182
330
47
100
AcDbEntity
  8
1
 62
     2
100
AcDbText
 10
-224.8985411913862
 20
-277.7293986614692
 30
0.0
 40
1.8
  1
1
 41
0.9
  7
CONVERTER_11
100
AcDbText
  0
TEXT
  5
183
330
47
100
AcDbEntity
  8
1
 62
     2
100
AcDbText
 10
-210.1094973519147
 20
-277.6801500076673
 30
0.0
 40
1.8
  1
1
 41
0.9
  7
CONVERTER_11
100
AcDbText
  0
MTEXT
  5
185
330
47
100
AcDbEntity
  8
1
 62
     7
100
AcDbMText
 10
-151.5724038983527
 20
-275.680150007667
 30
0.0
 40
3.0
 41
0.0
 71
     5
 72
     1
  1
UKH 150 1500V
  7
CONVERTER_12
 73
     1
 44
1.20048019207683
  0
MTEXT
  5
186
330
47
100
AcDbEntity
  8
1
 62
     2
100
AcDbMText
 10
-197.1448061617283
 20
-271.4301500076672
 30
0.0
 40
1.8
 41
0.0
 71
     1
 72
     1
  1
description
  7
CONVERTER_11
 73
     1
 44
1.20048019207683
  0
MTEXT
  5
187
330
47
100
AcDbEntity
  8
1
 62
     3
100
AcDbMText
 10
-208.3448061617283
 20
-257.8051500076672
 30
0.0
 40
2.5
 41
0.0
 71
     5
 72
     1
  1
DIN A4
  7
CONVERTER_11
 73
     1
 44
1.20048019207683
  0
MTEXT
  5
188
330
47
100
AcDbEntity
  8
1
 62
     7
100
AcDbMText
 10
-394.5000016349773
 20
-256.4301500076672
 30
0.0
 40
3.5
 41
0.0
 71
     5
 72
     1
  1
D
  7
CONVERTER_11
 73
     1
 44
1.20048019207683
  0
MTEXT
  5
189
330
47
100
AcDbEntity
  8
1
 62
     7
100
AcDbMText
 10
-394.5000016349773
 20
-203.9301500076672
 30
0.0
 40
3.5
 41
0.0
 71
     5
 72
     1
  1
C
  7
CONVERTER_11
 73
     1
 44
1.20048019207683
  0
MTEXT
  5
18A
330
47
100
AcDbEntity
  8
1
 62
     7
100
AcDbMText
 10
-394.5000016349773
 20
-153.9301500076672
 30
0.0
 40
3.5
 41
0.0
 71
     5
 72
     1
  1
B
  7
CONVERTER_11
 73
     1
 44
1.20048019207683
  0
MTEXT
  5
18B
330
47
100
AcDbEntity
  8
1
 62
     7
100
AcDbMText
 10
-394.5000016349773
 20
-101.4301500076672
 30
0.0
 40
3.5
 41
0.0
 71
     5
 72
     1
  1
A
  7
CONVERTER_11
 73
     1
 44
1.20048019207683
  0
MTEXT
  5
18C
330
47
100
AcDbEntity
  8
1
 62
     7
100
AcDbMText
 10
-124.250001634979
 20
-281.4301500076673
 30
0.0
 40
3.5
 41
0.0
 71
     5
 72
     1
  1
6
  7
CONVERTER_11
 73
     1
 44
1.20048019207683
  0
MTEXT
  5
18D
330
47
100
AcDbEntity
  8
1
 62
     7
100
AcDbMText
 10
-173.5000016349782
 20
-281.4301500076673
 30
0.0
 40
3.5
 41
0.0
 71
     5
 72
     1
  1
5
  7
CONVERTER_11
 73
     1
 44
1.20048019207683
  0
MTEXT
  5
18E
330
47
100
AcDbEntity
  8
1
 62
     7
100
AcDbMText
 10
-223.5000016349783
 20
-281.4301500076673
 30
0.0
 40
3.5
 41
0.0
 71
     5
 72
     1
  1
4
  7
CONVERTER_11
 73
     1
 44
1.20048019207683
  0
MTEXT
  5
18F
330
47
100
AcDbEntity
  8
1
 62
     7
100
AcDbMText
 10
-273.5000016349782
 20
-281.4301500076673
 30
0.0
 40
3.5
 41
0.0
 71
     5
 72
     1
  1
3
  7
CONVERTER_11
 73
     1
 44
1.20048019207683
  0
MTEXT
  5
190
330
47
100
AcDbEntity
  8
1
 62
     7
100
AcDbMText
 10
-323.5000016349782
 20
-281.4301500076673
 30
0.0
 40
3.5
 41
0.0
 71
     5
 72
     1
  1
2
  7
CONVERTER_11
 73
     1
 44
1.20048019207683
  0
MTEXT
  5
191
330
47
100
AcDbEntity
  8
1
 62
     7
100
AcDbMText
 10
-372.7500016349778
 20
-281.4301500076673
 30
0.0
 40
3.5
 41
0.0
 71
     5
 72
     1
  1
1
  7
CONVERTER_11
 73
     1
 44
1.20048019207683
  0
MTEXT
  5
192
330
47
100
AcDbEntity
  8
1
 62
     7
100
AcDbMText
 10
-102.5000016349792
 20
-256.4301500076672
 30
0.0
 40
3.5
 41
0.0
 71
     5
 72
     1
  1
D
  7
CONVERTER_11
 73
     1
 44
1.20048019207683
  0
MTEXT
  5
193
330
47
100
AcDbEntity
  8
1
 62
     7
100
AcDbMText
 10
-102.5000016349792
 20
-153.9301500076653
 30
0.0
 40
3.5
 41
0.0
 71
     5
 72
     1
  1
B
  7
CONVERTER_11
 73
     1
 44
1.20048019207683
  0
MTEXT
  5
194
330
47
100
AcDbEntity
  8
1
 62
     7
100
AcDbMText
 10
-102.5000016349792
 20
-101.4301500076672
 30
0.0
 40
3.5
 41
0.0
 71
     5
 72
     1
  1
A
  7
CONVERTER_11
 73
     1
 44
1.20048019207683
  0
MTEXT
  5
195
330
47
100
AcDbEntity
  8
1
 62
     7
100
AcDbMText
 10
-102.5000016349792
 20
-203.9301500076653
 30
0.0
 40
3.5
 41
0.0
 71
     5
 72
     1
  1
C
  7
CONVERTER_11
 73
     1
 44
1.20048019207683
  0
MTEXT
  5
196
330
47
100
AcDbEntity
  8
1
 62
     2
100
AcDbMText
 10
-268.9828208867757
 20
-266.1801500076672
 30
0.0
 40
2.0
 41
0.0
 71
     5
 72
     1
  1
General Information\P- Simplified representation\P- Document excluded from change process\P- Linear dimensions [mm]
  7
CONVERTER_11
 73
     1
 44
1.20048019207683
  0
TEXT
  5
197
330
47
100
AcDbEntity
  8
1
 62
     7
100
AcDbText
 10
-196.6448061617285
 20
-269.1301500076672
 30
0.0
 40
2.5
  1
3247433
 41
0.81
  7
CONVERTER_12
100
AcDbText
  0
MTEXT
  5
198
330
47
100
AcDbEntity
  8
1
 62
     2
100
AcDbMText
 10
-197.0448061617282
 20
-262.9301500076672
 30
0.0
 40
1.8
 41
0.0
 71
     1
 72
     1
  1
ident.-No.
  7
CONVERTER_11
 73
     1
 44
1.20048019207683
  0
MTEXT
  5
199
330
47
100
AcDbEntity
  8
1
 62
     2
100
AcDbMText
 10
-112.8184099166555
 20
-254.4301500076672
 30
0.0
 40
1.8
 41
0.0
 71
     1
 72
     1
  1
scale
  7
CONVERTER_11
 73
     1
 44
1.20048019207683
  0
MTEXT
  5
19B
330
47
100
AcDbEntity
  8
1
 62
     3
100
AcDbMText
 10
-109.4592057758159
 20
-260.6301500076671
 30
0.0
 40
2.5
 41
0.0
 71
     8
 72
     1
  1
1:2
  7
CONVERTER_13
 73
     1
 44
1.32052821128451
  0
TEXT
  5
19C
330
47
100
AcDbEntity
  8
1
 62
     7
100
AcDbText
 10
-197.0448061617282
 20
-260.6301500076672
 30
0.0
 40
2.5
  1
01091094
 41
0.81
  7
CONVERTER_12
100
AcDbText
  0
MTEXT
  5
19E
330
47
100
AcDbEntity
  8
1
 62
     2
100
AcDbMText
 10
-197.0448061617282
 20
-254.4301500076672
 30
0.0
 40
1.8
 41
0.0
 71
     1
 72
     1
  1
document-No. / RI
  7
CONVERTER_14
 73
     1
 44
1.32052821128451
  0
TEXT
  5
19F
330
47
100
AcDbEntity
  8
1
 62
     3
100
AcDbText
 10
-169.2448061617282
 20
-269.1301500076672
 30
0.0
 40
2.5
  1
TECDOC 2D_Productdrawing
 41
0.81
  7
CONVERTER_12
100
AcDbText
  0
MTEXT
  5
1A0
330
47
100
AcDbEntity
  8
1
 62
     2
100
AcDbMText
 10
-169.2448061617282
 20
-262.9301500076672
 30
0.0
 40
1.8
 41
0.0
 71
     1
 72
     1
  1
document-type
  7
CONVERTER_11
 73
     1
 44
1.20048019207683
  0
MTEXT
  5
1A1
330
47
100
AcDbEntity
  8
1
 62
     2
100
AcDbMText
 10
-139.4184099166553
 20
-254.4301500076672
 30
0.0
 40
1.8
 41
0.0
 71
     1
 72
     1
  1
date
  7
CONVERTER_11
 73
     1
 44
1.32052821128451
  0
TEXT
  5
1A2
330
47
100
AcDbEntity
  8
1
 62
     3
100
AcDbText
 10
-139.4184099166553
 20
-260.6301500076672
 30
0.0
 40
2.5
  1
20.03.2018
 41
0.81
  7
CONVERTER_12
100
AcDbText
  0
TEXT
  5
1A3
330
47
100
AcDbEntity
  8
1
 62
     7
100
AcDbText
 10
-177.0148939426724
 20
-260.6301500076672
 30
0.0
 40
2.5
  1
00
 41
0.81
  7
CONVERTER_12
100
AcDbText
  0
TEXT
  5
1A4
330
47
100
AcDbEntity
  8
1
 62
     7
100
AcDbText
 10
-179.1712584397144
 20
-260.6301500076672
 30
0.0
 40
2.5
  1
/
 41
0.9
  7
CONVERTER_11
100
AcDbText
  0
HATCH
  5
1A5
330
47
100
AcDbEntity
  8
1
  6
Continuous
 62
     2
100
AcDbHatch
 10
0.0
 20
0.0
 30
0.0
210
0.0
220
0.0
230
1.0
  2
_USER
 70
     0
 71
     1
 91
        1
 92
        1
 93
       12
 72
     1
 10
-216.8773054487671
 20
-268.2774595314766
 11
-218.0700981509335
 21
-268.2774595314766
 72
     1
 10
-218.0700981509335
 20
-268.2774595314766
 11
-218.0700981509335
 21
-267.1431874226328
 72
     1
 10
-218.0700981509335
 20
-267.1431874226328
 11
-219.119755728841
 21
-267.1431874226328
 72
     1
 10
-219.119755728841
 20
-267.1431874226328
 11
-219.119755728841
 21
-268.2774595314766
 72
     1
 10
-219.119755728841
 20
-268.2774595314766
 11
-220.3125484310076
 21
-268.2774595314766
 72
     1
 10
-220.3125484310076
 20
-268.2774595314766
 11
-220.3125484310076
 21
-265.2236500076654
 72
     1
 10
-220.3125484310076
 20
-265.2236500076654
 11
-219.119755728841
 21
-265.2236500076654
 72
     1
 10
-219.119755728841
 20
-265.2236500076654
 11
-219.119755728841
 21
-266.292483341
 72
     1
 10
-219.119755728841
 20
-266.292483341
 11
-218.0700981509335
 21
-266.292483341
 72
     1
 10
-218.0700981509335
 20
-266.292483341
 11
-218.0700981509335
 21
-265.2236500076654
 72
     1
 10
-218.0700981509335
 20
-265.2236500076654
 11
-216.8773054487671
 21
-265.2236500076654
 72
     1
 10
-216.8773054487671
 20
-265.2236500076654
 11
-216.8773054487671
 21
-268.2774595314766
 97
       12
330
111
330
112
330
FC
330
FB
330
FA
330
10E
330
F9
330
10F
330
110
330
F8
330
F7
330
F6
 75
     1
 76
     0
 52
45.0
 41
0.1
 77
     0
 78
     1
 53
45.0
 43
0.0
 44
0.0
 45
-0.0707106781186548
 46
0.0707106781186548
 79
     0
 98
        1
 10
0.0
 20
0.0
  0
HATCH
  5
1A6
330
47
100
AcDbEntity
  8
1
  6
Continuous
 62
     2
100
AcDbHatch
 10
0.0
 20
0.0
 30
0.0
210
0.0
220
0.0
230
1.0
  2
_USER
 70
     0
 71
     1
 91
        1
 92
        1
 93
       12
 72
     1
 10
-216.8773054487671
 20
-268.2774595314766
 11
-218.0700981509335
 21
-268.2774595314766
 72
     1
 10
-218.0700981509335
 20
-268.2774595314766
 11
-218.0700981509335
 21
-267.1431874226328
 72
     1
 10
-218.0700981509335
 20
-267.1431874226328
 11
-219.119755728841
 21
-267.1431874226328
 72
     1
 10
-219.119755728841
 20
-267.1431874226328
 11
-219.119755728841
 21
-268.2774595314766
 72
     1
 10
-219.119755728841
 20
-268.2774595314766
 11
-220.3125484310076
 21
-268.2774595314766
 72
     1
 10
-220.3125484310076
 20
-268.2774595314766
 11
-220.3125484310076
 21
-265.2236500076654
 72
     1
 10
-220.3125484310076
 20
-265.2236500076654
 11
-219.119755728841
 21
-265.2236500076654
 72
     1
 10
-219.119755728841
 20
-265.2236500076654
 11
-219.119755728841
 21
-266.292483341
 72
     1
 10
-219.119755728841
 20
-266.292483341
 11
-218.0700981509335
 21
-266.292483341
 72
     1
 10
-218.0700981509335
 20
-266.292483341
 11
-218.0700981509335
 21
-265.2236500076654
 72
     1
 10
-218.0700981509335
 20
-265.2236500076654
 11
-216.8773054487671
 21
-265.2236500076654
 72
     1
 10
-216.8773054487671
 20
-265.2236500076654
 11
-216.8773054487671
 21
-268.2774595314766
 97
       12
330
111
330
112
330
FC
330
FB
330
FA
330
10E
330
F9
330
10F
330
110
330
F8
330
F7
330
F6
 75
     1
 76
     0
 52
45.0
 41
0.1
 77
     0
 78
     1
 53
45.0
 43
0.0
 44
0.0
 45
-0.0707106781186548
 46
0.0707106781186548
 79
     0
 98
        1
 10
0.0
 20
0.0
  0
HATCH
  5
1A7
330
47
100
AcDbEntity
  8
1
  6
Continuous
 62
     2
100
AcDbHatch
 10
0.0
 20
0.0
 30
0.0
210
0.0
220
0.0
230
1.0
  2
_USER
 70
     0
 71
     1
 91
        1
 92
        1
 93
       10
 72
     1
 10
-214.6350060995788
 20
-269.8916159940449
 11
-215.8755105098317
 21
-268.5828404838397
 72
     1
 10
-215.8755105098317
 20
-268.5828404838397
 11
-217.0683032119993
 21
-268.5828404838397
 72
     1
 10
-217.0683032119993
 20
-268.5828404838397
 11
-217.0683032119993
 21
-271.6366500076508
 72
     1
 10
-217.0683032119993
 20
-271.6366500076508
 11
-215.8755105098317
 21
-271.6366500076508
 72
     1
 10
-215.8755105098317
 20
-271.6366500076508
 11
-215.8755105098317
 21
-270.3278744974463
 72
     1
 10
-215.8755105098317
 20
-270.3278744974463
 11
-214.6350060995788
 21
-271.6366500076508
 72
     1
 10
-214.6350060995788
 20
-271.6366500076508
 11
-213.4422133974124
 21
-271.6366500076508
 72
     1
 10
-213.4422133974124
 20
-271.6366500076508
 11
-213.4422133974124
 21
-268.5828404838397
 72
     1
 10
-213.4422133974124
 20
-268.5828404838397
 11
-214.6350060995788
 21
-268.5828404838397
 72
     1
 10
-214.6350060995788
 20
-268.5828404838397
 11
-214.6350060995788
 21
-269.8916159940449
 97
       10
330
11F
330
EF
330
EE
330
F1
330
11A
330
11B
330
F0
330
11C
330
11D
330
11E
 75
     1
 76
     0
 52
45.0
 41
0.1
 77
     0
 78
     1
 53
45.0
 43
0.0
 44
0.0
 45
-0.0707106781186548
 46
0.0707106781186548
 79
     0
 98
        1
 10
0.0
 20
0.0
  0
HATCH
  5
1A8
330
47
100
AcDbEntity
  8
1
  6
Continuous
 62
     2
100
AcDbHatch
 10
0.0
 20
0.0
 30
0.0
210
0.0
220
0.0
230
1.0
  2
_USER
 70
     0
 71
     1
 91
        1
 92
        1
 93
       10
 72
     1
 10
-214.6350060995788
 20
-269.8916159940449
 11
-215.8755105098317
 21
-268.5828404838397
 72
     1
 10
-215.8755105098317
 20
-268.5828404838397
 11
-217.0683032119993
 21
-268.5828404838397
 72
     1
 10
-217.0683032119993
 20
-268.5828404838397
 11
-217.0683032119993
 21
-271.6366500076508
 72
     1
 10
-217.0683032119993
 20
-271.6366500076508
 11
-215.8755105098317
 21
-271.6366500076508
 72
     1
 10
-215.8755105098317
 20
-271.6366500076508
 11
-215.8755105098317
 21
-270.3278744974463
 72
     1
 10
-215.8755105098317
 20
-270.3278744974463
 11
-214.6350060995788
 21
-271.6366500076508
 72
     1
 10
-214.6350060995788
 20
-271.6366500076508
 11
-213.4422133974124
 21
-271.6366500076508
 72
     1
 10
-213.4422133974124
 20
-271.6366500076508
 11
-213.4422133974124
 21
-268.5828404838397
 72
     1
 10
-213.4422133974124
 20
-268.5828404838397
 11
-214.6350060995788
 21
-268.5828404838397
 72
     1
 10
-214.6350060995788
 20
-268.5828404838397
 11
-214.6350060995788
 21
-269.8916159940449
 97
       10
330
11F
330
EF
330
EE
330
F1
330
11A
330
11B
330
F0
330
11C
330
11D
330
11E
 75
     1
 76
     0
 52
45.0
 41
0.1
 77
     0
 78
     1
 53
45.0
 43
0.0
 44
0.0
 45
-0.0707106781186548
 46
0.0707106781186548
 79
     0
 98
        1
 10
0.0
 20
0.0
  0
HATCH
  5
1A9
330
47
100
AcDbEntity
  8
1
  6
Continuous
 62
     2
100
AcDbHatch
 10
0.0
 20
0.0
 30
0.0
210
0.0
220
0.0
230
1.0
  2
_USER
 70
     0
 71
     1
 91
        1
 92
        1
 93
       10
 72
     1
 10
-209.3865672791591
 20
-266.5324255178705
 11
-210.6270716894131
 21
-265.2236500076654
 72
     1
 10
-210.6270716894131
 20
-265.2236500076654
 11
-211.8198643915796
 21
-265.2236500076654
 72
     1
 10
-211.8198643915796
 20
-265.2236500076654
 11
-211.8198643915796
 21
-268.2774595314766
 72
     1
 10
-211.8198643915796
 20
-268.2774595314766
 11
-210.6270716894131
 21
-268.2774595314766
 72
     1
 10
-210.6270716894131
 20
-268.2774595314766
 11
-210.6270716894131
 21
-266.9686840212719
 72
     1
 10
-210.6270716894131
 20
-266.9686840212719
 11
-209.3865672791591
 21
-268.2774595314766
 72
     1
 10
-209.3865672791591
 20
-268.2774595314766
 11
-208.1937745769925
 21
-268.2774595314766
 72
     1
 10
-208.1937745769925
 20
-268.2774595314766
 11
-208.1937745769925
 21
-265.2236500076654
 72
     1
 10
-208.1937745769925
 20
-265.2236500076654
 11
-209.3865672791591
 21
-265.2236500076654
 72
     1
 10
-209.3865672791591
 20
-265.2236500076654
 11
-209.3865672791591
 21
-266.5324255178705
 97
       10
330
124
330
EC
330
EB
330
125
330
EA
330
120
330
121
330
122
330
123
330
ED
 75
     1
 76
     0
 52
45.0
 41
0.1
 77
     0
 78
     1
 53
45.0
 43
0.0
 44
0.0
 45
-0.0707106781186548
 46
0.0707106781186548
 79
     0
 98
        1
 10
0.0
 20
0.0
  0
HATCH
  5
1AA
330
47
100
AcDbEntity
  8
1
  6
Continuous
 62
     2
100
AcDbHatch
 10
0.0
 20
0.0
 30
0.0
210
0.0
220
0.0
230
1.0
  2
_USER
 70
     0
 71
     1
 91
        1
 92
        1
 93
       10
 72
     1
 10
-209.3865672791591
 20
-266.5324255178705
 11
-210.6270716894131
 21
-265.2236500076654
 72
     1
 10
-210.6270716894131
 20
-265.2236500076654
 11
-211.8198643915796
 21
-265.2236500076654
 72
     1
 10
-211.8198643915796
 20
-265.2236500076654
 11
-211.8198643915796
 21
-268.2774595314766
 72
     1
 10
-211.8198643915796
 20
-268.2774595314766
 11
-210.6270716894131
 21
-268.2774595314766
 72
     1
 10
-210.6270716894131
 20
-268.2774595314766
 11
-210.6270716894131
 21
-266.9686840212719
 72
     1
 10
-210.6270716894131
 20
-266.9686840212719
 11
-209.3865672791591
 21
-268.2774595314766
 72
     1
 10
-209.3865672791591
 20
-268.2774595314766
 11
-208.1937745769925
 21
-268.2774595314766
 72
     1
 10
-208.1937745769925
 20
-268.2774595314766
 11
-208.1937745769925
 21
-265.2236500076654
 72
     1
 10
-208.1937745769925
 20
-265.2236500076654
 11
-209.3865672791591
 21
-265.2236500076654
 72
     1
 10
-209.3865672791591
 20
-265.2236500076654
 11
-209.3865672791591
 21
-266.5324255178705
 97
       10
330
124
330
EC
330
EB
330
125
330
EA
330
120
330
121
330
122
330
123
330
ED
 75
     1
 76
     0
 52
45.0
 41
0.1
 77
     0
 78
     1
 53
45.0
 43
0.0
 44
0.0
 45
-0.0707106781186548
 46
0.0707106781186548
 79
     0
 98
        1
 10
0.0
 20
0.0
  0
HATCH
  5
1AB
330
47
100
AcDbEntity
  8
1
  6
Continuous
 62
     2
100
AcDbHatch
 10
0.0
 20
0.0
 30
0.0
210
0.0
220
0.0
230
1.0
  2
_USER
 70
     0
 71
     1
 91
        1
 92
        1
 93
        8
 72
     1
 10
-210.4840874960386
 20
-268.5828404838397
 11
-213.2990782731522
 21
-268.5828404838397
 72
     1
 10
-213.2990782731522
 20
-268.5828404838397
 11
-213.2990782731522
 21
-269.3681057899634
 72
     1
 10
-213.2990782731522
 20
-269.3681057899634
 11
-212.4879792356776
 21
-269.3681057899634
 72
     1
 10
-212.4879792356776
 20
-269.3681057899634
 11
-212.4879792356776
 21
-271.6366500076508
 72
     1
 10
-212.4879792356776
 20
-271.6366500076508
 11
-211.2951865335111
 21
-271.6366500076508
 72
     1
 10
-211.2951865335111
 20
-271.6366500076508
 11
-211.2951865335111
 21
-269.3681057899634
 72
     1
 10
-211.2951865335111
 20
-269.3681057899634
 11
-210.4840874960386
 21
-269.3681057899634
 72
     1
 10
-210.4840874960386
 20
-269.3681057899634
 11
-210.4840874960386
 21
-268.5828404838397
 97
        8
330
E6
330
126
330
E5
330
127
330
128
330
E9
330
E8
330
E7
 75
     1
 76
     0
 52
45.0
 41
0.1
 77
     0
 78
     1
 53
45.0
 43
0.0
 44
0.0
 45
-0.0707106781186548
 46
0.0707106781186548
 79
     0
 98
        1
 10
0.0
 20
0.0
  0
HATCH
  5
1AC
330
47
100
AcDbEntity
  8
1
  6
Continuous
 62
     2
100
AcDbHatch
 10
0.0
 20
0.0
 30
0.0
210
0.0
220
0.0
230
1.0
  2
_USER
 70
     0
 71
     1
 91
        1
 92
        1
 93
        8
 72
     1
 10
-210.4840874960386
 20
-268.5828404838397
 11
-213.2990782731522
 21
-268.5828404838397
 72
     1
 10
-213.2990782731522
 20
-268.5828404838397
 11
-213.2990782731522
 21
-269.3681057899634
 72
     1
 10
-213.2990782731522
 20
-269.3681057899634
 11
-212.4879792356776
 21
-269.3681057899634
 72
     1
 10
-212.4879792356776
 20
-269.3681057899634
 11
-212.4879792356776
 21
-271.6366500076508
 72
     1
 10
-212.4879792356776
 20
-271.6366500076508
 11
-211.2951865335111
 21
-271.6366500076508
 72
     1
 10
-211.2951865335111
 20
-271.6366500076508
 11
-211.2951865335111
 21
-269.3681057899634
 72
     1
 10
-211.2951865335111
 20
-269.3681057899634
 11
-210.4840874960386
 21
-269.3681057899634
 72
     1
 10
-210.4840874960386
 20
-269.3681057899634
 11
-210.4840874960386
 21
-268.5828404838397
 97
        8
330
E6
330
126
330
E5
330
127
330
128
330
E9
330
E8
330
E7
 75
     1
 76
     0
 52
45.0
 41
0.1
 77
     0
 78
     1
 53
45.0
 43
0.0
 44
0.0
 45
-0.0707106781186548
 46
0.0707106781186548
 79
     0
 98
        1
 10
0.0
 20
0.0
  0
HATCH
  5
1AD
330
47
100
AcDbEntity
  8
1
  6
Continuous
 62
     2
100
AcDbHatch
 10
0.0
 20
0.0
 30
0.0
210
0.0
220
0.0
230
1.0
  2
_USER
 70
     0
 71
     1
 91
        2
 92
        1
 93
        8
 72
     1
 10
-208.3456600400916
 20
-271.6366500076508
 11
-208.5571400935674
 21
-271.095689463433
 72
     1
 10
-208.5571400935674
 20
-271.095689463433
 11
-209.6895816702412
 21
-271.095689463433
 72
     1
 10
-209.6895816702412
 20
-271.095689463433
 11
-209.901061723717
 21
-271.6366500076508
 72
     1
 10
-209.901061723717
 20
-271.6366500076508
 11
-211.14156613397
 21
-271.6366500076508
 72
     1
 10
-211.14156613397
 20
-271.6366500076508
 11
-209.7436130870307
 21
-268.5828404838397
 72
     1
 10
-209.7436130870307
 20
-268.5828404838397
 11
-208.503108676778
 21
-268.5828404838397
 72
     1
 10
-208.503108676778
 20
-268.5828404838397
 11
-207.1051556298377
 21
-271.6366500076508
 72
     1
 10
-207.1051556298377
 20
-271.6366500076508
 11
-208.3456600400916
 21
-271.6366500076508
 97
        8
330
12A
330
12B
330
E2
330
12C
330
E1
330
E4
330
129
330
E3
 92
       16
 93
        3
 72
     1
 10
-209.4235261190962
 20
-270.4151261981264
 11
-209.1233608819038
 21
-269.6473112321397
 72
     1
 10
-209.1233608819038
 20
-269.6473112321397
 11
-208.8231956447137
 21
-270.4151261981264
 72
     1
 10
-208.8231956447137
 20
-270.4151261981264
 11
-209.4235261190962
 21
-270.4151261981264
 97
        3
330
E0
330
12E
330
12D
 75
     1
 76
     0
 52
45.0
 41
0.1
 77
     0
 78
     1
 53
45.0
 43
0.0
 44
0.0
 45
-0.0707106781186548
 46
0.0707106781186548
 79
     0
 98
        1
 10
0.0
 20
0.0
  0
HATCH
  5
1AE
330
47
100
AcDbEntity
  8
1
  6
Continuous
 62
     2
100
AcDbHatch
 10
0.0
 20
0.0
 30
0.0
210
0.0
220
0.0
230
1.0
  2
_USER
 70
     0
 71
     1
 91
        2
 92
        1
 93
        8
 72
     1
 10
-208.3456600400916
 20
-271.6366500076508
 11
-208.5571400935674
 21
-271.095689463433
 72
     1
 10
-208.5571400935674
 20
-271.095689463433
 11
-209.6895816702412
 21
-271.095689463433
 72
     1
 10
-209.6895816702412
 20
-271.095689463433
 11
-209.901061723717
 21
-271.6366500076508
 72
     1
 10
-209.901061723717
 20
-271.6366500076508
 11
-211.14156613397
 21
-271.6366500076508
 72
     1
 10
-211.14156613397
 20
-271.6366500076508
 11
-209.7436130870307
 21
-268.5828404838397
 72
     1
 10
-209.7436130870307
 20
-268.5828404838397
 11
-208.503108676778
 21
-268.5828404838397
 72
     1
 10
-208.503108676778
 20
-268.5828404838397
 11
-207.1051556298377
 21
-271.6366500076508
 72
     1
 10
-207.1051556298377
 20
-271.6366500076508
 11
-208.3456600400916
 21
-271.6366500076508
 97
        8
330
12A
330
12B
330
E2
330
12C
330
E1
330
E4
330
129
330
E3
 92
       16
 93
        3
 72
     1
 10
-209.4235261190962
 20
-270.4151261981264
 11
-209.1233608819038
 21
-269.6473112321397
 72
     1
 10
-209.1233608819038
 20
-269.6473112321397
 11
-208.8231956447137
 21
-270.4151261981264
 72
     1
 10
-208.8231956447137
 20
-270.4151261981264
 11
-209.4235261190962
 21
-270.4151261981264
 97
        3
330
E0
330
12E
330
12D
 75
     1
 76
     0
 52
45.0
 41
0.1
 77
     0
 78
     1
 53
45.0
 43
0.0
 44
0.0
 45
-0.0707106781186548
 46
0.0707106781186548
 79
     0
 98
        1
 10
0.0
 20
0.0
  0
HATCH
  5
1AF
330
47
100
AcDbEntity
  8
1
  6
Continuous
 62
     2
100
AcDbHatch
 10
0.0
 20
0.0
 30
0.0
210
0.0
220
0.0
230
1.0
  2
_USER
 70
     0
 71
     1
 91
        1
 92
        1
 93
        4
 72
     1
 10
-206.7147116263057
 20
-268.2774595314766
 11
-207.9552160365586
 21
-268.2774595314766
 72
     1
 10
-207.9552160365586
 20
-268.2774595314766
 11
-207.9552160365586
 21
-265.2236500076654
 72
     1
 10
-207.9552160365586
 20
-265.2236500076654
 11
-206.7147116263057
 21
-265.2236500076654
 72
     1
 10
-206.7147116263057
 20
-265.2236500076654
 11
-206.7147116263057
 21
-268.2774595314766
 97
        4
330
DD
330
DF
330
12F
330
DE
 75
     1
 76
     0
 52
45.0
 41
0.1
 77
     0
 78
     1
 53
45.0
 43
0.0
 44
0.0
 45
-0.0707106781186548
 46
0.0707106781186548
 79
     0
 98
        1
 10
0.0
 20
0.0
  0
HATCH
  5
1B0
330
47
100
AcDbEntity
  8
1
  6
Continuous
 62
     2
100
AcDbHatch
 10
0.0
 20
0.0
 30
0.0
210
0.0
220
0.0
230
1.0
  2
_USER
 70
     0
 71
     1
 91
        1
 92
        1
 93
        4
 72
     1
 10
-206.7147116263057
 20
-268.2774595314766
 11
-207.9552160365586
 21
-268.2774595314766
 72
     1
 10
-207.9552160365586
 20
-268.2774595314766
 11
-207.9552160365586
 21
-265.2236500076654
 72
     1
 10
-207.9552160365586
 20
-265.2236500076654
 11
-206.7147116263057
 21
-265.2236500076654
 72
     1
 10
-206.7147116263057
 20
-265.2236500076654
 11
-206.7147116263057
 21
-268.2774595314766
 97
        4
330
DD
330
DF
330
12F
330
DE
 75
     1
 76
     0
 52
45.0
 41
0.1
 77
     0
 78
     1
 53
45.0
 43
0.0
 44
0.0
 45
-0.0707106781186548
 46
0.0707106781186548
 79
     0
 98
        1
 10
0.0
 20
0.0
  0
HATCH
  5
1B1
330
47
100
AcDbEntity
  8
1
  6
Continuous
 62
     2
100
AcDbHatch
 10
0.0
 20
0.0
 30
0.0
210
0.0
220
0.0
230
1.0
  2
_USER
 70
     0
 71
     1
 91
        1
 92
        1
 93
       12
 72
     1
 10
-202.4922254606349
 20
-265.2236500076654
 11
-203.7947550914014
 21
-266.6966005377016
 72
     1
 10
-203.7947550914014
 20
-266.6966005377016
 11
-202.3968020444611
 21
-268.2774595314766
 72
     1
 10
-202.3968020444611
 20
-268.2774595314766
 11
-203.7995262622094
 21
-268.2774595314766
 72
     1
 10
-203.7995262622094
 20
-268.2774595314766
 11
-204.4961172002749
 21
-267.4897277461828
 72
     1
 10
-204.4961172002749
 20
-267.4897277461828
 11
-205.1927081383406
 21
-268.2774595314766
 72
     1
 10
-205.1927081383406
 20
-268.2774595314766
 11
-206.5954323560888
 21
-268.2774595314766
 72
     1
 10
-206.5954323560888
 20
-268.2774595314766
 11
-205.1974793091485
 21
-266.6966005377016
 72
     1
 10
-205.1974793091485
 20
-266.6966005377016
 11
-206.500008939916
 21
-265.2236500076654
 72
     1
 10
-206.500008939916
 20
-265.2236500076654
 11
-205.0972847221667
 21
-265.2236500076654
 72
     1
 10
-205.0972847221667
 20
-265.2236500076654
 11
-204.4961172002749
 21
-265.9034733292208
 72
     1
 10
-204.4961172002749
 20
-265.9034733292208
 11
-203.8949496783821
 21
-265.2236500076654
 72
     1
 10
-203.8949496783821
 20
-265.2236500076654
 11
-202.4922254606349
 21
-265.2236500076654
 97
       12
330
D8
330
D7
330
D6
330
133
330
134
330
130
330
131
330
DC
330
DB
330
DA
330
D9
330
132
 75
     1
 76
     0
 52
45.0
 41
0.1
 77
     0
 78
     1
 53
45.0
 43
0.0
 44
0.0
 45
-0.0707106781186548
 46
0.0707106781186548
 79
     0
 98
        1
 10
0.0
 20
0.0
  0
HATCH
  5
1B2
330
47
100
AcDbEntity
  8
1
  6
Continuous
 62
     2
100
AcDbHatch
 10
0.0
 20
0.0
 30
0.0
210
0.0
220
0.0
230
1.0
  2
_USER
 70
     0
 71
     1
 91
        1
 92
        1
 93
       12
 72
     1
 10
-202.4922254606349
 20
-265.2236500076654
 11
-203.7947550914014
 21
-266.6966005377016
 72
     1
 10
-203.7947550914014
 20
-266.6966005377016
 11
-202.3968020444611
 21
-268.2774595314766
 72
     1
 10
-202.3968020444611
 20
-268.2774595314766
 11
-203.7995262622094
 21
-268.2774595314766
 72
     1
 10
-203.7995262622094
 20
-268.2774595314766
 11
-204.4961172002749
 21
-267.4897277461828
 72
     1
 10
-204.4961172002749
 20
-267.4897277461828
 11
-205.1927081383406
 21
-268.2774595314766
 72
     1
 10
-205.1927081383406
 20
-268.2774595314766
 11
-206.5954323560888
 21
-268.2774595314766
 72
     1
 10
-206.5954323560888
 20
-268.2774595314766
 11
-205.1974793091485
 21
-266.6966005377016
 72
     1
 10
-205.1974793091485
 20
-266.6966005377016
 11
-206.500008939916
 21
-265.2236500076654
 72
     1
 10
-206.500008939916
 20
-265.2236500076654
 11
-205.0972847221667
 21
-265.2236500076654
 72
     1
 10
-205.0972847221667
 20
-265.2236500076654
 11
-204.4961172002749
 21
-265.9034733292208
 72
     1
 10
-204.4961172002749
 20
-265.9034733292208
 11
-203.8949496783821
 21
-265.2236500076654
 72
     1
 10
-203.8949496783821
 20
-265.2236500076654
 11
-202.4922254606349
 21
-265.2236500076654
 97
       12
330
D8
330
D7
330
D6
330
133
330
134
330
130
330
131
330
DC
330
DB
330
DA
330
D9
330
132
 75
     1
 76
     0
 52
45.0
 41
0.1
 77
     0
 78
     1
 53
45.0
 43
0.0
 44
0.0
 45
-0.0707106781186548
 46
0.0707106781186548
 79
     0
 98
        1
 10
0.0
 20
0.0
  0
HATCH
  5
1B3
330
47
100
AcDbEntity
  8
1
  6
Continuous
 62
     2
100
AcDbHatch
 10
0.0
 20
0.0
 30
0.0
210
0.0
220
0.0
230
1.0
  2
_USER
 70
     0
 71
     1
 91
        2
 92
        1
 93
        6
 72
     1
 10
-221.5099608747809
 20
-267.3343812903328
 11
-222.2687284625612
 21
-267.3343812903328
 72
     1
 10
-222.2687284625612
 20
-267.3343812903328
 11
-222.2687284625612
 21
-268.2774595314766
 72
     1
 10
-222.2687284625612
 20
-268.2774595314766
 11
-223.5092328728153
 21
-268.2774595314766
 72
     1
 10
-223.5092328728153
 20
-268.2774595314766
 11
-223.5092328728153
 21
-265.2236500076654
 72
     1
 10
-223.5092328728153
 20
-265.2236500076654
 11
-221.5099608747809
 21
-265.2236500076654
 72
     2
 10
-221.5099608747809
 20
-266.279015648999
 40
1.055365641333765
 50
270.0
 51
450.0
 73
     0
 97
        6
330
100
330
FF
330
10C
330
10B
330
101
330
151
 92
       16
 93
        4
 72
     2
 10
-221.9514334010193
 20
-266.2396196777766
 40
0.3528638246709761
 50
270.0
 51
450.0
 73
     1
 72
     1
 10
-221.9514334010193
 20
-265.8867558531055
 11
-222.2687284625612
 21
-265.8867558531055
 72
     1
 10
-222.2687284625612
 20
-265.8867558531055
 11
-222.2687284625612
 21
-266.5924835024476
 72
     1
 10
-222.2687284625612
 20
-266.5924835024476
 11
-221.9514334010193
 21
-266.5924835024476
 97
        4
330
165
330
FD
330
10D
330
FE
 75
     1
 76
     0
 52
45.0
 41
0.1
 77
     0
 78
     1
 53
45.0
 43
0.0
 44
0.0
 45
-0.0707106781186548
 46
0.0707106781186548
 79
     0
 98
        1
 10
0.0
 20
0.0
  0
HATCH
  5
1B4
330
47
100
AcDbEntity
  8
1
  6
Continuous
 62
     2
100
AcDbHatch
 10
0.0
 20
0.0
 30
0.0
210
0.0
220
0.0
230
1.0
  2
_USER
 70
     0
 71
     1
 91
        2
 92
        1
 93
        6
 72
     1
 10
-221.5099608747809
 20
-267.3343812903328
 11
-222.2687284625612
 21
-267.3343812903328
 72
     1
 10
-222.2687284625612
 20
-267.3343812903328
 11
-222.2687284625612
 21
-268.2774595314766
 72
     1
 10
-222.2687284625612
 20
-268.2774595314766
 11
-223.5092328728153
 21
-268.2774595314766
 72
     1
 10
-223.5092328728153
 20
-268.2774595314766
 11
-223.5092328728153
 21
-265.2236500076654
 72
     1
 10
-223.5092328728153
 20
-265.2236500076654
 11
-221.5099608747809
 21
-265.2236500076654
 72
     2
 10
-221.5099608747809
 20
-266.279015648999
 40
1.055365641333765
 50
270.0
 51
450.0
 73
     0
 97
        6
330
100
330
FF
330
10C
330
10B
330
101
330
151
 92
       16
 93
        4
 72
     2
 10
-221.9514334010193
 20
-266.2396196777766
 40
0.3528638246709761
 50
270.0
 51
450.0
 73
     1
 72
     1
 10
-221.9514334010193
 20
-265.8867558531055
 11
-222.2687284625612
 21
-265.8867558531055
 72
     1
 10
-222.2687284625612
 20
-265.8867558531055
 11
-222.2687284625612
 21
-266.5924835024476
 72
     1
 10
-222.2687284625612
 20
-266.5924835024476
 11
-221.9514334010193
 21
-266.5924835024476
 97
        4
330
165
330
FD
330
10D
330
FE
 75
     1
 76
     0
 52
45.0
 41
0.1
 77
     0
 78
     1
 53
45.0
 43
0.0
 44
0.0
 45
-0.0707106781186548
 46
0.0707106781186548
 79
     0
 98
        1
 10
0.0
 20
0.0
  0
HATCH
  5
1B5
330
47
100
AcDbEntity
  8
1
  6
Continuous
 62
     2
100
AcDbHatch
 10
0.0
 20
0.0
 30
0.0
210
0.0
220
0.0
230
1.0
  2
_USER
 70
     0
 71
     1
 91
        2
 92
        1
 93
        4
 72
     2
 10
-218.9534181264218
 20
-270.6483202560484
 40
2.065479772208593
 50
62.45185182430674
 51
117.548148175666
 73
     1
 72
     2
 10
-219.2343580182551
 20
-270.1097452457456
 40
1.458034083651515
 50
117.5481481756619
 51
242.451851824336
 73
     1
 72
     2
 10
-218.9534181264218
 20
-269.5711702354423
 40
2.065479772208433
 50
242.4518518243391
 51
297.5481481756882
 73
     1
 72
     2
 10
-218.6724782345885
 20
-270.1097452457456
 40
1.458034083651927
 50
297.5481481757026
 51
422.4518518242994
 73
     1
 97
        4
330
15D
330
15C
330
15E
330
15B
 92
       16
 93
        4
 72
     2
 10
-219.1531581627682
 20
-270.1097452457456
 40
0.7717997786796023
 50
321.8795802028471
 51
398.1204197971629
 73
     1
 72
     2
 10
-218.9534181264218
 20
-269.9530140676251
 40
0.51790857301337
 50
38.12041979715693
 51
141.8795802028489
 73
     1
 72
     2
 10
-218.7536780900757
 20
-270.1097452457456
 40
0.771799778679551
 50
141.879580202828
 51
218.120419797162
 73
     1
 72
     2
 10
-218.9534181264218
 20
-270.2664764238656
 40
0.5179085730136828
 50
218.1204197971857
 51
321.8795802028085
 73
     1
 97
        4
330
179
330
176
330
177
330
178
 75
     1
 76
     0
 52
45.0
 41
0.1
 77
     0
 78
     1
 53
45.0
 43
0.0
 44
0.0
 45
-0.0707106781186548
 46
0.0707106781186548
 79
     0
 98
        1
 10
0.0
 20
0.0
  0
HATCH
  5
1B6
330
47
100
AcDbEntity
  8
1
  6
Continuous
 62
     2
100
AcDbHatch
 10
0.0
 20
0.0
 30
0.0
210
0.0
220
0.0
230
1.0
  2
_USER
 70
     0
 71
     1
 91
        2
 92
        1
 93
        4
 72
     2
 10
-218.9534181264218
 20
-270.6483202560484
 40
2.065479772208593
 50
62.45185182430674
 51
117.548148175666
 73
     1
 72
     2
 10
-219.2343580182551
 20
-270.1097452457456
 40
1.458034083651515
 50
117.5481481756619
 51
242.451851824336
 73
     1
 72
     2
 10
-218.9534181264218
 20
-269.5711702354423
 40
2.065479772208433
 50
242.4518518243391
 51
297.5481481756882
 73
     1
 72
     2
 10
-218.6724782345885
 20
-270.1097452457456
 40
1.458034083651927
 50
297.5481481757026
 51
422.4518518242994
 73
     1
 97
        4
330
15D
330
15C
330
15E
330
15B
 92
       16
 93
        4
 72
     2
 10
-219.1531581627682
 20
-270.1097452457456
 40
0.7717997786796023
 50
321.8795802028471
 51
398.1204197971629
 73
     1
 72
     2
 10
-218.9534181264218
 20
-269.9530140676251
 40
0.51790857301337
 50
38.12041979715693
 51
141.8795802028489
 73
     1
 72
     2
 10
-218.7536780900757
 20
-270.1097452457456
 40
0.771799778679551
 50
141.879580202828
 51
218.120419797162
 73
     1
 72
     2
 10
-218.9534181264218
 20
-270.2664764238656
 40
0.5179085730136828
 50
218.1204197971857
 51
321.8795802028085
 73
     1
 97
        4
330
179
330
176
330
177
330
178
 75
     1
 76
     0
 52
45.0
 41
0.1
 77
     0
 78
     1
 53
45.0
 43
0.0
 44
0.0
 45
-0.0707106781186548
 46
0.0707106781186548
 79
     0
 98
        1
 10
0.0
 20
0.0
  0
HATCH
  5
1B7
330
47
100
AcDbEntity
  8
1
  6
Continuous
 62
     2
100
AcDbHatch
 10
0.0
 20
0.0
 30
0.0
210
0.0
220
0.0
230
1.0
  2
_USER
 70
     0
 71
     1
 91
        2
 92
        1
 93
       12
 72
     1
 10
-212.0584229320125
 20
-265.9216636131083
 11
-213.3943507584402
 21
-265.9216636131083
 72
     1
 10
-213.3943507584402
 20
-265.9216636131083
 11
-213.3943507584402
 21
-266.4015479668501
 72
     1
 10
-213.3943507584402
 20
-266.4015479668501
 11
-212.0584229320125
 21
-266.4015479668501
 72
     1
 10
-212.0584229320125
 20
-266.4015479668501
 11
-212.0584229320125
 21
-267.0995615722924
 72
     1
 10
-212.0584229320125
 20
-267.0995615722924
 11
-213.3943507584402
 21
-267.0995615722924
 72
     1
 10
-213.3943507584402
 20
-267.0995615722924
 11
-213.3943507584402
 21
-267.5794459260341
 72
     1
 10
-213.3943507584402
 20
-267.5794459260341
 11
-212.0584229320125
 21
-267.5794459260341
 72
     1
 10
-212.0584229320125
 20
-267.5794459260341
 11
-212.0584229320125
 21
-268.2774595314766
 72
     1
 10
-212.0584229320125
 20
-268.2774595314766
 11
-215.2087426557935
 21
-268.2774595314766
 72
     2
 10
-215.2087426557935
 20
-266.7505547695712
 40
1.526904761905769
 50
90.0
 51
270.0
 73
     0
 72
     1
 10
-215.2087426557935
 20
-265.2236500076654
 11
-212.0584229320125
 21
-265.2236500076654
 72
     1
 10
-212.0584229320125
 20
-265.2236500076654
 11
-212.0584229320125
 21
-265.9216636131083
 97
       12
330
114
330
166
330
115
330
116
330
117
330
118
330
F5
330
F4
330
F3
330
F2
330
119
330
113
 92
       16
 93
        4
 72
     2
 10
-214.9924706456283
 20
-266.5938235914508
 40
0.5179085730135041
 50
38.12041979714528
 51
141.8795802028508
 73
     1
 72
     2
 10
-214.792730609282
 20
-266.7505547695712
 40
0.7717997786796245
 50
141.8795802028484
 51
218.1204197971616
 73
     1
 72
     2
 10
-214.9924706456283
 20
-266.9072859476917
 40
0.5179085730134595
 50
218.1204197971492
 51
321.8795802028547
 73
     1
 72
     2
 10
-215.1922106819745
 20
-266.7505547695712
 40
0.7717997786797075
 50
321.8795802028371
 51
398.1204197971529
 73
     1
 97
        4
330
160
330
15F
330
15A
330
159
 75
     1
 76
     0
 52
45.0
 41
0.1
 77
     0
 78
     1
 53
45.0
 43
0.0
 44
0.0
 45
-0.0707106781186548
 46
0.0707106781186548
 79
     0
 98
        1
 10
0.0
 20
0.0
  0
HATCH
  5
1B8
330
47
100
AcDbEntity
  8
1
  6
Continuous
 62
     2
100
AcDbHatch
 10
0.0
 20
0.0
 30
0.0
210
0.0
220
0.0
230
1.0
  2
_USER
 70
     0
 71
     1
 91
        2
 92
        1
 93
       12
 72
     1
 10
-212.0584229320125
 20
-265.9216636131083
 11
-213.3943507584402
 21
-265.9216636131083
 72
     1
 10
-213.3943507584402
 20
-265.9216636131083
 11
-213.3943507584402
 21
-266.4015479668501
 72
     1
 10
-213.3943507584402
 20
-266.4015479668501
 11
-212.0584229320125
 21
-266.4015479668501
 72
     1
 10
-212.0584229320125
 20
-266.4015479668501
 11
-212.0584229320125
 21
-267.0995615722924
 72
     1
 10
-212.0584229320125
 20
-267.0995615722924
 11
-213.3943507584402
 21
-267.0995615722924
 72
     1
 10
-213.3943507584402
 20
-267.0995615722924
 11
-213.3943507584402
 21
-267.5794459260341
 72
     1
 10
-213.3943507584402
 20
-267.5794459260341
 11
-212.0584229320125
 21
-267.5794459260341
 72
     1
 10
-212.0584229320125
 20
-267.5794459260341
 11
-212.0584229320125
 21
-268.2774595314766
 72
     1
 10
-212.0584229320125
 20
-268.2774595314766
 11
-215.2087426557935
 21
-268.2774595314766
 72
     2
 10
-215.2087426557935
 20
-266.7505547695712
 40
1.526904761905769
 50
90.0
 51
270.0
 73
     0
 72
     1
 10
-215.2087426557935
 20
-265.2236500076654
 11
-212.0584229320125
 21
-265.2236500076654
 72
     1
 10
-212.0584229320125
 20
-265.2236500076654
 11
-212.0584229320125
 21
-265.9216636131083
 97
       12
330
114
330
166
330
115
330
116
330
117
330
118
330
F5
330
F4
330
F3
330
F2
330
119
330
113
 92
       16
 93
        4
 72
     2
 10
-214.9924706456283
 20
-266.5938235914508
 40
0.5179085730135041
 50
38.12041979714528
 51
141.8795802028508
 73
     1
 72
     2
 10
-214.792730609282
 20
-266.7505547695712
 40
0.7717997786796245
 50
141.8795802028484
 51
218.1204197971616
 73
     1
 72
     2
 10
-214.9924706456283
 20
-266.9072859476917
 40
0.5179085730134595
 50
218.1204197971492
 51
321.8795802028547
 73
     1
 72
     2
 10
-215.1922106819745
 20
-266.7505547695712
 40
0.7717997786797075
 50
321.8795802028371
 51
398.1204197971529
 73
     1
 97
        4
330
160
330
15F
330
15A
330
159
 75
     1
 76
     0
 52
45.0
 41
0.1
 77
     0
 78
     1
 53
45.0
 43
0.0
 44
0.0
 45
-0.0707106781186548
 46
0.0707106781186548
 79
     0
 98
        1
 10
0.0
 20
0.0
  0
HATCH
  5
1B9
330
47
100
AcDbEntity
  8
1
  6
Continuous
 62
     2
100
AcDbHatch
 10
0.0
 20
0.0
 30
0.0
210
0.0
220
0.0
230
1.0
  2
_USER
 70
     0
 71
     1
 91
        4
 92
        1
 93
        8
 72
     1
 10
-223.9863499536821
 20
-265.6478946230674
 11
-223.9863499536821
 21
-271.2124053922676
 72
     2
 10
-224.410594569066
 20
-271.2124053922676
 40
0.424244615383202
 50
0.0
 51
90.0
 73
     0
 72
     1
 10
-224.410594569066
 20
-271.6366500076508
 11
-229.8839066597828
 21
-271.6366500076508
 72
     2
 10
-229.8839066597828
 20
-271.2124053922676
 40
0.4242446153828041
 50
90.0
 51
180.0
 73
     0
 72
     1
 10
-230.3081512751656
 20
-271.2124053922676
 11
-230.3081512751656
 21
-265.6478946230674
 72
     2
 10
-229.8839066597828
 20
-265.6478946230674
 40
0.4242446153837705
 50
180.0
 51
270.0
 73
     0
 72
     1
 10
-229.8839066597828
 20
-265.2236500076836
 11
-224.410594569066
 21
-265.2236500076836
 72
     2
 10
-224.410594569066
 20
-265.6478946230674
 40
0.4242446153839126
 50
270.0
 51
360.0
 73
     0
 97
        8
330
108
330
156
330
109
330
161
330
106
330
158
330
107
330
157
 92
       16
 93
        1
 72
     2
 10
-227.2643210092653
 20
-267.9667768514229
 40
0.4709789327785074
 50
0.0
 51
360.0
 73
     1
 97
        1
330
17C
 92
       16
 93
        8
 72
     2
 10
-226.7144632965046
 20
-269.0759184513913
 40
0.3157169230766477
 50
115.3740086783477
 51
180.0
 73
     1
 72
     1
 10
-227.0301802195814
 20
-269.0759184513913
 11
-227.0301802195814
 21
-269.6577698580863
 72
     2
 10
-226.7144632965046
 20
-269.6577698580863
 40
0.3157169230768204
 50
180.0
 51
269.8110329574491
 73
     1
 72
     2
 10
-226.7088471611946
 20
-267.9549349105174
 40
2.018561131933266
 50
269.8110329575858
 51
450.1889670424142
 73
     1
 72
     2
 10
-226.7144632965046
 20
-266.2520999629483
 40
0.3157169230761848
 50
90.18896704255101
 51
180.0
 73
     1
 72
     1
 10
-227.0301802195814
 20
-266.2520999629483
 11
-227.0301802195814
 21
-266.857635251455
 72
     2
 10
-226.7144632965046
 20
-266.857635251455
 40
0.3157169230768204
 50
180.0
 51
244.6259913216479
 73
     1
 72
     2
 10
-227.2405059945925
 20
-267.9667768514229
 40
0.9118481501443819
 50
295.3740086781925
 51
424.6259913218212
 73
     0
 97
        8
330
16E
330
CF
330
16B
330
16C
330
14A
330
CE
330
16D
330
149
 92
       16
 93
       12
 72
     2
 10
-229.2900119830363
 20
-270.6083775290173
 40
0.315716923075712
 50
180.0
 51
270.0
 73
     1
 72
     1
 10
-229.2900119830363
 20
-270.924094452094
 11
-227.8141787220267
 21
-270.924094452094
 72
     2
 10
-227.8141787220267
 20
-270.6083775290173
 40
0.3157169230767067
 50
270.0
 51
360.0
 73
     1
 72
     1
 10
-227.4984617989501
 20
-270.6083775290173
 11
-227.4984617989501
 21
-269.0776065974857
 72
     2
 10
-227.8141787220267
 20
-269.0776065974857
 40
0.315716923076593
 50
0.0
 51
64.80558935147346
 73
     1
 72
     2
 10
-227.2915942744517
 20
-267.9667768514229
 40
0.9118975235576917
 50
115.1944106485153
 51
244.805589351474
 73
     0
 72
     2
 10
-227.8141787220267
 20
-266.8559471053607
 40
0.3157169230760174
 50
295.1944106485485
 51
360.0
 73
     1
 72
     1
 10
-227.4984617989501
 20
-266.8559471053607
 11
-227.4984617989501
 21
-266.2519224863002
 72
     2
 10
-227.8141787220267
 20
-266.2519224863002
 40
0.315716923076593
 50
0.0
 51
90.0
 73
     1
 72
     1
 10
-227.8141787220267
 20
-265.936205563224
 11
-229.2900119830363
 21
-265.936205563224
 72
     2
 10
-229.2900119830363
 20
-266.2519224863002
 40
0.3157169230761951
 50
90.0
 51
180.0
 73
     1
 72
     1
 10
-229.605728906112
 20
-266.2519224863002
 11
-229.605728906112
 21
-270.6083775290173
 97
       12
330
152
330
10A
330
155
330
105
330
162
330
163
330
154
330
104
330
153
330
103
330
164
330
102
 75
     1
 76
     0
 52
45.0
 41
0.1
 77
     0
 78
     1
 53
45.0
 43
0.0
 44
0.0
 45
-0.0707106781186548
 46
0.0707106781186548
 79
     0
 98
        1
 10
0.0
 20
0.0
  0
HATCH
  5
1BA
330
47
100
AcDbEntity
  8
1
  6
Continuous
 62
     2
100
AcDbHatch
 10
0.0
 20
0.0
 30
0.0
210
0.0
220
0.0
230
1.0
  2
_USER
 70
     0
 71
     1
 91
        4
 92
        1
 93
        8
 72
     1
 10
-223.9863499536821
 20
-265.6478946230674
 11
-223.9863499536821
 21
-271.2124053922676
 72
     2
 10
-224.410594569066
 20
-271.2124053922676
 40
0.424244615383202
 50
0.0
 51
90.0
 73
     0
 72
     1
 10
-224.410594569066
 20
-271.6366500076508
 11
-229.8839066597828
 21
-271.6366500076508
 72
     2
 10
-229.8839066597828
 20
-271.2124053922676
 40
0.4242446153828041
 50
90.0
 51
180.0
 73
     0
 72
     1
 10
-230.3081512751656
 20
-271.2124053922676
 11
-230.3081512751656
 21
-265.6478946230674
 72
     2
 10
-229.8839066597828
 20
-265.6478946230674
 40
0.4242446153837705
 50
180.0
 51
270.0
 73
     0
 72
     1
 10
-229.8839066597828
 20
-265.2236500076836
 11
-224.410594569066
 21
-265.2236500076836
 72
     2
 10
-224.410594569066
 20
-265.6478946230674
 40
0.4242446153839126
 50
270.0
 51
360.0
 73
     0
 97
        8
330
108
330
156
330
109
330
161
330
106
330
158
330
107
330
157
 92
       16
 93
        1
 72
     2
 10
-227.2643210092653
 20
-267.9667768514229
 40
0.4709789327785074
 50
0.0
 51
360.0
 73
     1
 97
        1
330
17C
 92
       16
 93
        8
 72
     2
 10
-226.7144632965046
 20
-269.0759184513913
 40
0.3157169230766477
 50
115.3740086783477
 51
180.0
 73
     1
 72
     1
 10
-227.0301802195814
 20
-269.0759184513913
 11
-227.0301802195814
 21
-269.6577698580863
 72
     2
 10
-226.7144632965046
 20
-269.6577698580863
 40
0.3157169230768204
 50
180.0
 51
269.8110329574491
 73
     1
 72
     2
 10
-226.7088471611946
 20
-267.9549349105174
 40
2.018561131933266
 50
269.8110329575858
 51
450.1889670424142
 73
     1
 72
     2
 10
-226.7144632965046
 20
-266.2520999629483
 40
0.3157169230761848
 50
90.18896704255101
 51
180.0
 73
     1
 72
     1
 10
-227.0301802195814
 20
-266.2520999629483
 11
-227.0301802195814
 21
-266.857635251455
 72
     2
 10
-226.7144632965046
 20
-266.857635251455
 40
0.3157169230768204
 50
180.0
 51
244.6259913216479
 73
     1
 72
     2
 10
-227.2405059945925
 20
-267.9667768514229
 40
0.9118481501443819
 50
295.3740086781925
 51
424.6259913218212
 73
     0
 97
        8
330
16E
330
CF
330
16B
330
16C
330
14A
330
CE
330
16D
330
149
 92
       16
 93
       12
 72
     2
 10
-229.2900119830363
 20
-270.6083775290173
 40
0.315716923075712
 50
180.0
 51
270.0
 73
     1
 72
     1
 10
-229.2900119830363
 20
-270.924094452094
 11
-227.8141787220267
 21
-270.924094452094
 72
     2
 10
-227.8141787220267
 20
-270.6083775290173
 40
0.3157169230767067
 50
270.0
 51
360.0
 73
     1
 72
     1
 10
-227.4984617989501
 20
-270.6083775290173
 11
-227.4984617989501
 21
-269.0776065974857
 72
     2
 10
-227.8141787220267
 20
-269.0776065974857
 40
0.315716923076593
 50
0.0
 51
64.80558935147346
 73
     1
 72
     2
 10
-227.2915942744517
 20
-267.9667768514229
 40
0.9118975235576917
 50
115.1944106485153
 51
244.805589351474
 73
     0
 72
     2
 10
-227.8141787220267
 20
-266.8559471053607
 40
0.3157169230760174
 50
295.1944106485485
 51
360.0
 73
     1
 72
     1
 10
-227.4984617989501
 20
-266.8559471053607
 11
-227.4984617989501
 21
-266.2519224863002
 72
     2
 10
-227.8141787220267
 20
-266.2519224863002
 40
0.315716923076593
 50
0.0
 51
90.0
 73
     1
 72
     1
 10
-227.8141787220267
 20
-265.936205563224
 11
-229.2900119830363
 21
-265.936205563224
 72
     2
 10
-229.2900119830363
 20
-266.2519224863002
 40
0.3157169230761951
 50
90.0
 51
180.0
 73
     1
 72
     1
 10
-229.605728906112
 20
-266.2519224863002
 11
-229.605728906112
 21
-270.6083775290173
 97
       12
330
152
330
10A
330
155
330
105
330
162
330
163
330
154
330
104
330
153
330
103
330
164
330
102
 75
     1
 76
     0
 52
45.0
 41
0.1
 77
     0
 78
     1
 53
45.0
 43
0.0
 44
0.0
 45
-0.0707106781186548
 46
0.0707106781186548
 79
     0
 98
        1
 10
0.0
 20
0.0
  0
HATCH
  5
1BB
330
47
100
AcDbEntity
  8
1
  6
Continuous
 62
     2
100
AcDbHatch
 10
0.0
 20
0.0
 30
0.0
210
0.0
220
0.0
230
1.0
  2
_USER
 70
     0
 71
     1
 91
        1
 92
        1
 93
       18
 72
     1
 10
-202.3968020444611
 20
-269.3681057899634
 11
-203.2079010819345
 21
-269.3681057899634
 72
     1
 10
-203.2079010819345
 20
-269.3681057899634
 11
-203.2079010819345
 21
-271.6366500076508
 72
     1
 10
-203.2079010819345
 20
-271.6366500076508
 11
-204.4006937841022
 21
-271.6366500076508
 72
     1
 10
-204.4006937841022
 20
-271.6366500076508
 11
-204.4006937841022
 21
-269.3681057899634
 72
     1
 10
-204.4006937841022
 20
-269.3681057899634
 11
-205.5043330836703
 21
-269.3681057899634
 72
     2
 10
-205.5043330836703
 20
-270.3226287967895
 40
0.9545230068260935
 50
90.0
 51
109.337143219432
 73
     1
 72
     2
 10
-205.651003081774
 20
-269.9046738164066
 40
0.5115800601944143
 50
109.3371432194853
 51
151.4785267424126
 73
     1
 72
     2
 10
-205.2736458236926
 20
-270.1097452457456
 40
0.9410597353349331
 50
151.4785267423579
 51
208.5214732576695
 73
     1
 72
     2
 10
-205.651003081774
 20
-270.3148166750841
 40
0.5115800601959967
 50
208.5214732576881
 51
246.6277221118449
 73
     1
 72
     2
 10
-205.4945630490709
 20
-269.9528246563741
 40
0.9059297849852801
 50
246.6277221118183
 51
288.448076118084
 73
     1
 72
     2
 10
-205.9127307827328
 20
-268.6992788803375
 40
2.227384008972665
 50
288.4480761181342
 51
301.9309089499409
 73
     1
 72
     1
 10
-204.7346757407089
 20
-270.5896295994872
 11
-204.7346757407089
 21
-271.4621466062906
 72
     2
 10
-206.0706036578256
 20
-266.7970643004892
 40
4.852596863498822
 50
74.0200087416617
 51
84.84185523036402
 73
     0
 72
     2
 10
-205.7817475630898
 20
-269.9969548837107
 40
1.639695123940421
 50
84.84185523032396
 51
164.9381082228985
 73
     0
 72
     2
 10
-206.2008754065514
 20
-270.1097452457456
 40
1.205656168393004
 50
164.9381082229076
 51
195.0618917771028
 73
     0
 72
     2
 10
-205.7817475630898
 20
-270.2225356077805
 40
1.639695123940328
 50
195.0618917771091
 51
270.0
 73
     0
 72
     1
 10
-205.7817475630898
 20
-268.5828404838402
 11
-202.3968020444611
 21
-268.5828404838397
 72
     1
 10
-202.3968020444611
 20
-268.5828404838397
 11
-202.3968020444611
 21
-269.3681057899634
 97
       18
330
D1
330
167
330
168
330
150
330
14F
330
135
330
14E
330
14D
330
169
330
14C
330
16A
330
14B
330
136
330
D0
330
D5
330
D4
330
D3
330
D2
 75
     1
 76
     0
 52
45.0
 41
0.1
 77
     0
 78
     1
 53
45.0
 43
0.0
 44
0.0
 45
-0.0707106781186548
 46
0.0707106781186548
 79
     0
 98
        1
 10
0.0
 20
0.0
  0
HATCH
  5
1BC
330
47
100
AcDbEntity
  8
1
  6
Continuous
 62
     2
100
AcDbHatch
 10
0.0
 20
0.0
 30
0.0
210
0.0
220
0.0
230
1.0
  2
_USER
 70
     0
 71
     1
 91
        1
 92
        1
 93
       18
 72
     1
 10
-202.3968020444611
 20
-269.3681057899634
 11
-203.2079010819345
 21
-269.3681057899634
 72
     1
 10
-203.2079010819345
 20
-269.3681057899634
 11
-203.2079010819345
 21
-271.6366500076508
 72
     1
 10
-203.2079010819345
 20
-271.6366500076508
 11
-204.4006937841022
 21
-271.6366500076508
 72
     1
 10
-204.4006937841022
 20
-271.6366500076508
 11
-204.4006937841022
 21
-269.3681057899634
 72
     1
 10
-204.4006937841022
 20
-269.3681057899634
 11
-205.5043330836703
 21
-269.3681057899634
 72
     2
 10
-205.5043330836703
 20
-270.3226287967895
 40
0.9545230068260935
 50
90.0
 51
109.337143219432
 73
     1
 72
     2
 10
-205.651003081774
 20
-269.9046738164066
 40
0.5115800601944143
 50
109.3371432194853
 51
151.4785267424126
 73
     1
 72
     2
 10
-205.2736458236926
 20
-270.1097452457456
 40
0.9410597353349331
 50
151.4785267423579
 51
208.5214732576695
 73
     1
 72
     2
 10
-205.651003081774
 20
-270.3148166750841
 40
0.5115800601959967
 50
208.5214732576881
 51
246.6277221118449
 73
     1
 72
     2
 10
-205.4945630490709
 20
-269.9528246563741
 40
0.9059297849852801
 50
246.6277221118183
 51
288.448076118084
 73
     1
 72
     2
 10
-205.9127307827328
 20
-268.6992788803375
 40
2.227384008972665
 50
288.4480761181342
 51
301.9309089499409
 73
     1
 72
     1
 10
-204.7346757407089
 20
-270.5896295994872
 11
-204.7346757407089
 21
-271.4621466062906
 72
     2
 10
-206.0706036578256
 20
-266.7970643004892
 40
4.852596863498822
 50
74.0200087416617
 51
84.84185523036402
 73
     0
 72
     2
 10
-205.7817475630898
 20
-269.9969548837107
 40
1.639695123940421
 50
84.84185523032396
 51
164.9381082228985
 73
     0
 72
     2
 10
-206.2008754065514
 20
-270.1097452457456
 40
1.205656168393004
 50
164.9381082229076
 51
195.0618917771028
 73
     0
 72
     2
 10
-205.7817475630898
 20
-270.2225356077805
 40
1.639695123940328
 50
195.0618917771091
 51
270.0
 73
     0
 72
     1
 10
-205.7817475630898
 20
-268.5828404838402
 11
-202.3968020444611
 21
-268.5828404838397
 72
     1
 10
-202.3968020444611
 20
-268.5828404838397
 11
-202.3968020444611
 21
-269.3681057899634
 97
       18
330
D1
330
167
330
168
330
150
330
14F
330
135
330
14E
330
14D
330
169
330
14C
330
16A
330
14B
330
136
330
D0
330
D5
330
D4
330
D3
330
D2
 75
     1
 76
     0
 52
45.0
 41
0.1
 77
     0
 78
     1
 53
45.0
 43
0.0
 44
0.0
 45
-0.0707106781186548
 46
0.0707106781186548
 79
     0
 98
        1
 10
0.0
 20
0.0
  0
HATCH
  5
1BD
330
47
100
AcDbEntity
  8
1
  6
Continuous
 62
     2
100
AcDbHatch
 10
0.0
 20
0.0
 30
0.0
210
0.0
220
0.0
230
1.0
  2
_USER
 70
     0
 71
     1
 91
        1
 92
        1
 93
       14
 72
     2
 10
-221.8844490423427
 20
-270.2225356077805
 40
1.639695123940509
 50
84.84185523036136
 51
164.9381082228826
 73
     1
 72
     2
 10
-222.3035768858055
 20
-270.1097452457456
 40
1.205656168390974
 50
164.9381082228713
 51
195.0618917770948
 73
     1
 72
     2
 10
-221.8844490423427
 20
-269.9969548837107
 40
1.63969512393941
 50
195.0618917770925
 51
275.1581447696403
 73
     1
 72
     2
 10
-222.1733051370786
 20
-266.7970643004892
 40
4.852596863498166
 50
275.1581447696249
 51
285.979991258353
 73
     1
 72
     1
 10
-220.8373772199608
 20
-271.4621466062899
 11
-220.8373772199608
 21
-270.5896295994868
 72
     2
 10
-222.0154322619857
 20
-268.6992788803369
 40
2.227384008972773
 50
58.06909105004036
 51
71.55192388186677
 73
     0
 72
     2
 10
-221.5972645283249
 20
-269.9528246563741
 40
0.9059297849849192
 50
71.55192388184041
 51
113.372277888129
 73
     0
 72
     2
 10
-221.7537045610269
 20
-270.3148166750841
 40
0.5115800601948034
 50
113.3722778881755
 51
151.4785267423044
 73
     0
 72
     2
 10
-221.3763473029466
 20
-270.1097452457456
 40
0.9410597353332295
 50
151.4785267422934
 51
208.5214732577339
 73
     0
 72
     2
 10
-221.7537045610269
 20
-269.9046738164066
 40
0.5115800601949152
 50
208.5214732576956
 51
246.6277221117992
 73
     0
 72
     2
 10
-221.5972645283249
 20
-270.2666658351171
 40
0.9059297849852779
 50
246.6277221118696
 51
288.4480761181494
 73
     0
 72
     2
 10
-222.0154322619857
 20
-271.5202116111537
 40
2.227384008973405
 50
288.4480761181342
 51
301.9309089499604
 73
     0
 72
     1
 10
-220.8373772199608
 20
-269.6298608920039
 11
-220.8373772199608
 21
-268.7573438852006
 72
     2
 10
-222.1733051370786
 20
-273.4224261910015
 40
4.852596863498033
 50
74.02000874164762
 51
84.84185523037502
 73
     1
 97
       14
330
16F
330
170
330
171
330
172
330
137
330
148
330
147
330
146
330
173
330
174
330
145
330
175
330
138
330
144
 75
     1
 76
     0
 52
45.0
 41
0.1
 77
     0
 78
     1
 53
45.0
 43
0.0
 44
0.0
 45
-0.0707106781186548
 46
0.0707106781186548
 79
     0
 98
        1
 10
0.0
 20
0.0
  0
HATCH
  5
1BE
330
47
100
AcDbEntity
  8
1
  6
Continuous
 62
     2
100
AcDbHatch
 10
0.0
 20
0.0
 30
0.0
210
0.0
220
0.0
230
1.0
  2
_USER
 70
     0
 71
     1
 91
        1
 92
        1
 93
       14
 72
     2
 10
-221.8844490423427
 20
-270.2225356077805
 40
1.639695123940509
 50
84.84185523036136
 51
164.9381082228826
 73
     1
 72
     2
 10
-222.3035768858055
 20
-270.1097452457456
 40
1.205656168390974
 50
164.9381082228713
 51
195.0618917770948
 73
     1
 72
     2
 10
-221.8844490423427
 20
-269.9969548837107
 40
1.63969512393941
 50
195.0618917770925
 51
275.1581447696403
 73
     1
 72
     2
 10
-222.1733051370786
 20
-266.7970643004892
 40
4.852596863498166
 50
275.1581447696249
 51
285.979991258353
 73
     1
 72
     1
 10
-220.8373772199608
 20
-271.4621466062899
 11
-220.8373772199608
 21
-270.5896295994868
 72
     2
 10
-222.0154322619857
 20
-268.6992788803369
 40
2.227384008972773
 50
58.06909105004036
 51
71.55192388186677
 73
     0
 72
     2
 10
-221.5972645283249
 20
-269.9528246563741
 40
0.9059297849849192
 50
71.55192388184041
 51
113.372277888129
 73
     0
 72
     2
 10
-221.7537045610269
 20
-270.3148166750841
 40
0.5115800601948034
 50
113.3722778881755
 51
151.4785267423044
 73
     0
 72
     2
 10
-221.3763473029466
 20
-270.1097452457456
 40
0.9410597353332295
 50
151.4785267422934
 51
208.5214732577339
 73
     0
 72
     2
 10
-221.7537045610269
 20
-269.9046738164066
 40
0.5115800601949152
 50
208.5214732576956
 51
246.6277221117992
 73
     0
 72
     2
 10
-221.5972645283249
 20
-270.2666658351171
 40
0.9059297849852779
 50
246.6277221118696
 51
288.4480761181494
 73
     0
 72
     2
 10
-222.0154322619857
 20
-271.5202116111537
 40
2.227384008973405
 50
288.4480761181342
 51
301.9309089499604
 73
     0
 72
     1
 10
-220.8373772199608
 20
-269.6298608920039
 11
-220.8373772199608
 21
-268.7573438852006
 72
     2
 10
-222.1733051370786
 20
-273.4224261910015
 40
4.852596863498033
 50
74.02000874164762
 51
84.84185523037502
 73
     1
 97
       14
330
16F
330
170
330
171
330
172
330
137
330
148
330
147
330
146
330
173
330
174
330
145
330
175
330
138
330
144
 75
     1
 76
     0
 52
45.0
 41
0.1
 77
     0
 78
     1
 53
45.0
 43
0.0
 44
0.0
 45
-0.0707106781186548
 46
0.0707106781186548
 79
     0
 98
        1
 10
0.0
 20
0.0
  0
ENDBLK
  5
49
330
47
100
AcDbEntity
  8
0
100
AcDbBlockEnd
  0
BLOCK
  5
4B
330
4A
100
AcDbEntity
  8
0
100
AcDbBlockBegin
  2
_punkt
 70
     0
 10
-105.0000016349782
 20
-278.9301500076672
 30
0.0
  3
_punkt
  1

  0
LINE
  5
1BF
330
4A
100
AcDbEntity
  8
1
  6
Continuous
 62
     2
100
AcDbLine
 10
-105.0000016349782
 20
-278.9301500076672
 30
0.0
 11
-100.0000016349792
 21
-278.9301500076672
 31
0.0
  0
LINE
  5
1C0
330
4A
100
AcDbEntity
  8
1
  6
Continuous
 62
     2
100
AcDbLine
 10
-105.0000016349782
 20
-278.9301500076672
 30
0.0
 11
-105.0000016349782
 21
-283.9301500076673
 31
0.0
  0
ENDBLK
  5
4C
330
4A
100
AcDbEntity
  8
0
100
AcDbBlockEnd
  0
BLOCK
  5
50
330
4D
100
AcDbEntity
  8
0
100
AcDbBlockBegin
  2
A4I_CS
 70
     0
 10
-105.0000016349782
 20
-283.9301500076673
 30
0.0
  3
A4I_CS
  1

  0
INSERT
  5
4E
330
4D
100
AcDbEntity
  8
1
100
AcDbBlockReference
  2
_rahmen
 10
-105.0000016349782
 20
-283.9301500076673
 30
0.0
  0
INSERT
  5
4F
330
4D
100
AcDbEntity
  8
1
100
AcDbBlockReference
  2
_punkt
 10
-105.0000016349782
 20
-278.9301500076672
 30
0.0
  0
ENDBLK
  5
51
330
4D
100
AcDbEntity
  8
0
100
AcDbBlockEnd
  0
BLOCK
  5
53
330
52
100
AcDbEntity
  8
0
100
AcDbBlockBegin
  2
UKH_150_1500V-select__1
 70
     0
 10
-342.8853355254922
 20
-489.2666363283923
 30
0.0
  3
UKH_150_1500V-select__1
  1

  0
LINE
  5
1C1
330
52
100
AcDbEntity
  8
0
  6
Continuous
 62
     7
100
AcDbLine
 10
-256.1961926066687
 20
-484.2311951936224
 30
0.0
 11
-285.2232111137859
 21
-486.4167874452792
 31
0.0
  0
LINE
  5
1C2
330
52
100
AcDbEntity
  8
0
  6
Continuous
 62
     7
100
AcDbLine
 10
-281.4035593478087
 20
-486.1291863848499
 30
0.0
 11
-284.890258461174
 21
-489.148756392377
 31
0.0
  0
LINE
  5
1C3
330
52
100
AcDbEntity
  8
0
  6
Continuous
 62
     7
100
AcDbLine
 10
-285.2232111137859
 20
-486.4167874452792
 30
0.0
 11
-286.0740690372326
 21
-486.1711659197071
 31
0.0
  0
LINE
  5
1C4
330
52
100
AcDbEntity
  8
0
  6
Continuous
 62
     2
100
AcDbLine
 10
-283.3025279336246
 20
-486.2721694137917
 30
0.0
 11
-285.2684609143195
 21
-487.9747173172113
 31
0.0
  0
LINE
  5
1C5
330
52
100
AcDbEntity
  8
0
  6
Continuous
 62
     7
100
AcDbLine
 10
-310.6258892345214
 20
-473.8442122268113
 30
0.0
 11
-310.6258892345214
 21
-475.6628655747585
 31
0.0
  0
LINE
  5
1C6
330
52
100
AcDbEntity
  8
0
  6
Continuous
 62
     7
100
AcDbLine
 10
-317.5991257857941
 20
-473.6498655747584
 30
0.0
 11
-317.5991257857941
 21
-475.6850252736519
 31
0.0
  0
LINE
  5
1C7
330
52
100
AcDbEntity
  8
0
  6
Continuous
 62
     7
100
AcDbLine
 10
-315.836625785794
 20
-474.1586554994818
 30
0.0
 11
-317.5991257857941
 21
-475.6850252736519
 31
0.0
  0
LINE
  5
1C8
330
52
100
AcDbEntity
  8
0
  6
Continuous
 62
     7
100
AcDbLine
 10
-284.6585991194892
 20
-486.3742749288929
 30
0.0
 11
-286.0740690372326
 21
-487.6001078359514
 31
0.0
  0
LINE
  5
1C9
330
52
100
AcDbEntity
  8
0
  6
Continuous
 62
     7
100
AcDbLine
 10
-286.9400944410169
 20
-483.4529935189214
 30
0.0
 11
-286.9400944410169
 21
-482.5003655747585
 31
0.0
  0
LINE
  5
1CA
330
52
100
AcDbEntity
  8
0
  6
Continuous
 62
     7
100
AcDbLine
 10
-286.9400944410169
 20
-482.5003655747585
 30
0.0
 11
-294.6910218048877
 21
-480.2628655747585
 31
0.0
  0
LINE
  5
1CB
330
52
100
AcDbEntity
  8
0
  6
Continuous
 62
     7
100
AcDbLine
 10
-288.8020490591536
 20
-488.1538615093291
 30
0.0
 11
-288.8020490591536
 21
-483.9904935189214
 31
0.0
  0
LINE
  5
1CC
330
52
100
AcDbEntity
  8
0
  6
Continuous
 62
     7
100
AcDbLine
 10
-286.0740690372326
 20
-486.1711659197071
 30
0.0
 11
-286.0740690372326
 21
-487.6001078359514
 31
0.0
  0
LINE
  5
1CD
330
52
100
AcDbEntity
  8
0
  6
Continuous
 62
     7
100
AcDbLine
 10
-286.0740690372326
 20
-487.6001078359514
 30
0.0
 11
-285.2684609143195
 21
-487.9747173172113
 31
0.0
  0
LINE
  5
1CE
330
52
100
AcDbEntity
  8
0
  6
Continuous
 62
     7
100
AcDbLine
 10
-310.6258892345214
 20
-475.6628655747585
 30
0.0
 11
-309.0508892345214
 21
-474.2988755637981
 31
0.0
  0
LINE
  5
1CF
330
52
100
AcDbEntity
  8
0
  6
Continuous
 62
     7
100
AcDbLine
 10
-320.0239969163906
 20
-474.9850252736519
 30
0.0
 11
-317.5991257857941
 21
-475.6850252736519
 31
0.0
  0
LINE
  5
1D0
330
52
100
AcDbEntity
  8
0
  6
Continuous
 62
     7
100
AcDbLine
 10
-317.5991257857941
 20
-473.6498655747584
 30
0.0
 11
-310.6258892345214
 21
-475.6628655747585
 31
0.0
  0
LINE
  5
1D1
330
52
100
AcDbEntity
  8
0
  6
Continuous
 62
     7
100
AcDbLine
 10
-294.6910218048877
 20
-480.2628655747585
 30
0.0
 11
-294.6910218048877
 21
-478.4442122268112
 31
0.0
  0
LINE
  5
1D2
330
52
100
AcDbEntity
  8
0
  6
Continuous
 62
     7
100
AcDbLine
 10
-298.1551234200255
 20
-479.2628655747586
 30
0.0
 11
-299.9878702979008
 21
-478.7337971231097
 31
0.0
  0
LINE
  5
1D3
330
52
100
AcDbEntity
  8
0
  6
Continuous
 62
     7
100
AcDbLine
 10
-296.5801234200254
 20
-477.898875563798
 30
0.0
 11
-298.1551234200255
 21
-479.2628655747586
 31
0.0
  0
LINE
  5
1D4
330
52
100
AcDbEntity
  8
0
  6
Continuous
 62
     7
100
AcDbLine
 10
-288.8020490591536
 20
-483.9904935189214
 30
0.0
 11
-286.9400944410169
 21
-483.4529935189214
 31
0.0
  0
LINE
  5
1D5
330
52
100
AcDbEntity
  8
0
  6
Continuous
 62
     7
100
AcDbLine
 10
-288.8020490591536
 20
-483.9904935189214
 30
0.0
 11
-287.0460717500852
 21
-482.4697725607992
 31
0.0
  0
LINE
  5
1D6
330
52
100
AcDbEntity
  8
0
  6
Continuous
 62
     7
100
AcDbLine
 10
-298.1551234200255
 20
-477.4442122268112
 30
0.0
 11
-298.1551234200255
 21
-479.2628655747586
 31
0.0
  0
LINE
  5
1D7
330
52
100
AcDbEntity
  8
0
  6
Continuous
 62
     7
100
AcDbLine
 10
-294.6910218048877
 20
-478.4442122268112
 30
0.0
 11
-298.1551234200255
 21
-477.4442122268112
 31
0.0
  0
LINE
  5
1D8
330
52
100
AcDbEntity
  8
0
  6
Continuous
 62
     7
100
AcDbLine
 10
-299.9878702979008
 20
-478.7337971231097
 30
0.0
 11
-300.1469818487298
 21
-476.8692122268113
 31
0.0
  0
LINE
  5
1D9
330
52
100
AcDbEntity
  8
0
  6
Continuous
 62
     7
100
AcDbLine
 10
-320.0239969163906
 20
-474.9850252736519
 30
0.0
 11
-320.0239969163906
 21
-476.3706659197069
 31
0.0
  0
LINE
  5
1DA
330
52
100
AcDbEntity
  8
0
  6
Continuous
 62
     7
100
AcDbLine
 10
-320.0239969163906
 20
-476.3706659197069
 30
0.0
 11
-318.8239969163905
 21
-475.3314354351656
 31
0.0
  0
LINE
  5
1DB
330
52
100
AcDbEntity
  8
0
  6
Continuous
 62
     7
100
AcDbLine
 10
-300.1469818487298
 20
-476.8692122268113
 30
0.0
 11
-310.6258892345214
 21
-473.8442122268113
 31
0.0
  0
LINE
  5
1DC
330
52
100
AcDbEntity
  8
0
  6
Continuous
 62
     7
100
AcDbLine
 10
-256.1961926066687
 20
-484.2311951936224
 30
0.0
 11
-256.1961926066687
 21
-417.8931100636498
 31
0.0
  0
LINE
  5
1DD
330
52
100
AcDbEntity
  8
0
  6
Continuous
 62
     7
100
AcDbLine
 10
-241.2125355577584
 20
-460.8235973483272
 30
0.0
 11
-255.4322084579446
 21
-453.7137608982341
 31
0.0
  0
LINE
  5
1DE
330
52
100
AcDbEntity
  8
0
  6
Continuous
 62
     7
100
AcDbLine
 10
-241.2125355577584
 20
-430.8437966015247
 30
0.0
 11
-255.6798496555783
 21
-443.3728581347654
 31
0.0
  0
LINE
  5
1DF
330
52
100
AcDbEntity
  8
0
  6
Continuous
 62
     7
100
AcDbLine
 10
-240.6961926066687
 20
-404.469716304991
 30
0.0
 11
-240.6961926066687
 21
-470.8078014349637
 31
0.0
  0
LINE
  5
1E0
330
52
100
AcDbEntity
  8
0
  6
Continuous
 62
     7
100
AcDbLine
 10
-248.4461926066687
 20
-474.321785163858
 30
0.0
 11
-241.2125355577584
 21
-460.8235973483272
 31
0.0
  0
LINE
  5
1E1
330
52
100
AcDbEntity
  8
0
  6
Continuous
 62
     7
100
AcDbLine
 10
-241.2125355577584
 20
-460.8235973483272
 30
0.0
 11
-241.2125355577584
 21
-430.8437966015247
 31
0.0
  0
LINE
  5
1E2
330
52
100
AcDbEntity
  8
0
  6
Continuous
 62
     7
100
AcDbLine
 10
-248.4461926066687
 20
-474.321785163858
 30
0.0
 11
-255.6798496555783
 21
-473.3526588815684
 31
0.0
  0
LINE
  5
1E3
330
52
100
AcDbEntity
  8
0
  6
Continuous
 62
     7
100
AcDbLine
 10
-248.4461926066687
 20
-474.321785163858
 30
0.0
 11
-255.6798496555788
 21
-468.0572543972373
 31
0.0
  0
LINE
  5
1E4
330
52
100
AcDbEntity
  8
0
  6
Continuous
 62
     7
100
AcDbLine
 10
-255.6798496555783
 20
-443.3728581347654
 30
0.0
 11
-255.6798496555783
 21
-473.3526588815684
 31
0.0
  0
LINE
  5
1E5
330
52
100
AcDbEntity
  8
0
  6
Continuous
 62
     7
100
AcDbLine
 10
-264.7411949869738
 20
-405.2653525673126
 30
0.0
 11
-269.1008634266524
 21
-399.6471562540207
 31
0.0
  0
LINE
  5
1E6
330
52
100
AcDbEntity
  8
0
  6
Continuous
 62
     7
100
AcDbLine
 10
-258.5586203527091
 20
-413.2326827662662
 30
0.0
 11
-245.7801151362576
 21
-402.1661726264271
 31
0.0
  0
LINE
  5
1E7
330
52
100
AcDbEntity
  8
0
  6
Continuous
 62
     7
100
AcDbLine
 10
-257.8995942970768
 20
-414.0819532572097
 30
0.0
 11
-262.2592627367554
 21
-408.4637569439179
 31
0.0
  0
LINE
  5
1E8
330
52
100
AcDbEntity
  8
0
  6
Continuous
 62
     7
100
AcDbLine
 10
-257.8995942970768
 20
-414.0819532572097
 30
0.0
 11
-243.9245942970767
 21
-401.9792482393222
 31
0.0
  0
LINE
  5
1E9
330
52
100
AcDbEntity
  8
0
  6
Continuous
 62
     7
100
AcDbLine
 10
-248.2842627367555
 20
-396.3610519260303
 30
0.0
 11
-243.9245942970767
 21
-401.9792482393222
 31
0.0
  0
LINE
  5
1EA
330
52
100
AcDbEntity
  8
0
  6
Continuous
 62
     7
100
AcDbLine
 10
-248.2842627367555
 20
-396.3610519260303
 30
0.0
 11
-262.2592627367554
 21
-408.4637569439179
 31
0.0
  0
LINE
  5
1EB
330
52
100
AcDbEntity
  8
0
  6
Continuous
 62
     7
100
AcDbLine
 10
-240.6961926066687
 20
-404.469716304991
 30
0.0
 11
-256.1961926066687
 21
-417.8931100636498
 31
0.0
  0
LINE
  5
1EC
330
52
100
AcDbEntity
  8
0
  6
Continuous
 62
     7
100
AcDbLine
 10
-256.1961926066687
 20
-484.2311951936224
 30
0.0
 11
-240.6961926066687
 21
-470.8078014349637
 31
0.0
  0
LINE
  5
1ED
330
52
100
AcDbEntity
  8
0
  6
Continuous
 62
     7
100
AcDbLine
 10
-311.3638655554797
 20
-368.048246334978
 30
0.0
 11
-326.8638655554797
 21
-381.4716400936368
 31
0.0
  0
LINE
  5
1EE
330
52
100
AcDbEntity
  8
0
  6
Continuous
 62
     7
100
AcDbLine
 10
-268.6269357582029
 20
-400.2578950559481
 30
0.0
 11
-255.8484305417513
 21
-389.1913849161091
 31
0.0
  0
LINE
  5
1EF
330
52
100
AcDbEntity
  8
0
  6
Continuous
 62
     7
100
AcDbLine
 10
-243.9245942970767
 20
-401.9792482393222
 30
0.0
 11
-245.7801151362576
 21
-402.1661726264271
 31
0.0
  0
LINE
  5
1F0
330
52
100
AcDbEntity
  8
0
  6
Continuous
 62
     7
100
AcDbLine
 10
-246.388309634308
 20
-402.6928845121809
 30
0.0
 11
-249.615024349905
 21
-398.5346974917599
 31
0.0
  0
LINE
  5
1F1
330
52
100
AcDbEntity
  8
0
  6
Continuous
 62
     7
100
AcDbLine
 10
-240.6961926066687
 20
-404.469716304991
 30
0.0
 11
-256.7176625766812
 21
-383.8232463349781
 31
0.0
  0
LINE
  5
1F2
330
52
100
AcDbEntity
  8
0
  6
Continuous
 62
     7
100
AcDbLine
 10
-253.2299103242053
 20
-393.8762838222839
 30
0.0
 11
-256.456625039802
 21
-389.7180968018629
 31
0.0
  0
LINE
  5
1F3
330
52
100
AcDbEntity
  8
0
  6
Continuous
 62
     7
100
AcDbLine
 10
-255.1258634266524
 20
-387.5444512361333
 30
0.0
 11
-269.1008634266524
 21
-399.6471562540207
 31
0.0
  0
LINE
  5
1F4
330
52
100
AcDbEntity
  8
0
  6
Continuous
 62
     7
100
AcDbLine
 10
-255.8484305417513
 20
-389.1913849161091
 30
0.0
 11
-255.1258634266524
 21
-387.5444512361333
 31
0.0
  0
LINE
  5
1F5
330
52
100
AcDbEntity
  8
0
  6
Continuous
 62
     7
100
AcDbLine
 10
-255.1258634266524
 20
-387.5444512361333
 30
0.0
 11
-250.7661949869737
 21
-393.1626475494251
 31
0.0
  0
LINE
  5
1F6
330
52
100
AcDbEntity
  8
0
  6
Continuous
 62
     7
100
AcDbLine
 10
-335.322265395406
 20
-387.372284817531
 30
0.0
 11
-321.3472653954057
 21
-375.2695797996433
 31
0.0
  0
LINE
  5
1F7
330
52
100
AcDbEntity
  8
0
  6
Continuous
 62
     7
100
AcDbLine
 10
-335.322265395406
 20
-387.372284817531
 30
0.0
 11
-339.6819338350841
 21
-390.4734253835963
 31
0.0
  0
LINE
  5
1F8
330
52
100
AcDbEntity
  8
0
  6
Continuous
 62
     7
100
AcDbLine
 10
-325.2701509886223
 20
-378.666898379509
 30
0.0
 11
-325.706933835084
 21
-378.3707203657088
 31
0.0
  0
LINE
  5
1F9
330
52
100
AcDbEntity
  8
0
  6
Continuous
 62
     7
100
AcDbLine
 10
-318.4285502987252
 20
-373.8002976896119
 30
0.0
 11
-318.8653331451873
 21
-373.504119675812
 31
0.0
  0
LINE
  5
1FA
330
52
100
AcDbEntity
  8
0
  6
Continuous
 62
     7
100
AcDbLine
 10
-325.706933835084
 20
-378.3707203657088
 30
0.0
 11
-321.3472653954057
 21
-375.2695797996433
 31
0.0
  0
LINE
  5
1FB
330
52
100
AcDbEntity
  8
0
  6
Continuous
 62
     7
100
AcDbLine
 10
-328.4806647055086
 20
-382.5056841276338
 30
0.0
 11
-332.8403331451873
 21
-385.6068246936995
 31
0.0
  0
LINE
  5
1FC
330
52
100
AcDbEntity
  8
0
  6
Continuous
 62
     7
100
AcDbLine
 10
-318.8653331451873
 20
-373.504119675812
 30
0.0
 11
-314.5056647055085
 21
-370.4029791097463
 31
0.0
  0
LINE
  5
1FD
330
52
100
AcDbEntity
  8
0
  6
Continuous
 62
     7
100
AcDbLine
 10
-318.8653331451873
 20
-373.504119675812
 30
0.0
 11
-332.8403331451873
 21
-385.6068246936995
 31
0.0
  0
LINE
  5
1FE
330
52
100
AcDbEntity
  8
0
  6
Continuous
 62
     7
100
AcDbLine
 10
-325.706933835084
 20
-378.3707203657088
 30
0.0
 11
-339.6819338350841
 21
-390.4734253835963
 31
0.0
  0
LINE
  5
1FF
330
52
100
AcDbEntity
  8
0
  6
Continuous
 62
     7
100
AcDbLine
 10
-328.4806647055086
 20
-382.5056841276338
 30
0.0
 11
-314.5056647055085
 21
-370.4029791097463
 31
0.0
  0
LINE
  5
200
330
52
100
AcDbEntity
  8
0
  6
Continuous
 62
     7
100
AcDbLine
 10
-311.3638655554797
 20
-368.048246334978
 30
0.0
 11
-327.3853355254922
 21
-379.4447163049902
 31
0.0
  0
LINE
  5
201
330
52
100
AcDbEntity
  8
0
  6
Continuous
 62
     7
100
AcDbLine
 10
-326.8638655554797
 20
-381.4716400936368
 30
0.0
 11
-342.8853355254921
 21
-392.8681100636489
 31
0.0
  0
LINE
  5
202
330
52
100
AcDbEntity
  8
0
  6
Continuous
 62
     7
100
AcDbLine
 10
-327.3853355254922
 20
-379.4447163049902
 30
0.0
 11
-342.8853355254921
 21
-392.8681100636489
 31
0.0
  0
LINE
  5
203
330
52
100
AcDbEntity
  8
0
  6
Continuous
 62
     7
100
AcDbLine
 10
-256.7176625766812
 20
-383.8232463349781
 30
0.0
 11
-272.2176625766812
 21
-397.2466400936369
 31
0.0
  0
LINE
  5
204
330
52
100
AcDbEntity
  8
0
  6
Continuous
 62
     7
100
AcDbLine
 10
-256.7176625766812
 20
-383.8232463349781
 30
0.0
 11
-311.3638655554797
 21
-368.048246334978
 31
0.0
  0
LINE
  5
205
330
52
100
AcDbEntity
  8
0
  6
Continuous
 62
     7
100
AcDbLine
 10
-342.8853355254922
 20
-469.771165919707
 30
0.0
 11
-342.8853355254921
 21
-392.8681100636489
 31
0.0
  0
LINE
  5
206
330
52
100
AcDbEntity
  8
0
  6
Continuous
 62
     7
100
AcDbLine
 10
-320.0239969163906
 20
-476.3706659197069
 30
0.0
 11
-342.8853355254922
 21
-469.771165919707
 31
0.0
  0
LINE
  5
207
330
52
100
AcDbEntity
  8
0
  6
Continuous
 62
     7
100
AcDbLine
 10
-249.0068298518543
 20
-398.0079856060061
 30
0.0
 11
-248.2842627367555
 21
-396.3610519260303
 31
0.0
  0
LINE
  5
208
330
52
100
AcDbEntity
  8
0
  6
Continuous
 62
     7
100
AcDbLine
 10
-250.7661949869737
 20
-393.1626475494251
 30
0.0
 11
-252.6217158261545
 21
-393.34957193653
 31
0.0
  0
LINE
  5
209
330
52
100
AcDbEntity
  8
0
  6
Continuous
 62
     7
100
AcDbLine
 10
-264.7411949869738
 20
-405.2653525673126
 30
0.0
 11
-250.7661949869737
 21
-393.1626475494251
 31
0.0
  0
LINE
  5
20A
330
52
100
AcDbEntity
  8
0
  6
Continuous
 62
     7
100
AcDbLine
 10
-261.7853350683059
 20
-409.0744957458452
 30
0.0
 11
-249.0068298518543
 21
-398.0079856060061
 31
0.0
  0
LINE
  5
20B
330
52
100
AcDbEntity
  8
0
  6
Continuous
 62
     7
100
AcDbLine
 10
-265.4002210426061
 20
-404.4160820763691
 30
0.0
 11
-252.6217158261545
 21
-393.34957193653
 31
0.0
  0
LINE
  5
20C
330
52
100
AcDbEntity
  8
0
  6
Continuous
 62
     7
100
AcDbLine
 10
-247.1461926066687
 20
-431.1919847694696
 30
0.0
 11
-249.7461926066686
 21
-430.4414294195232
 31
0.0
  0
LINE
  5
20D
330
52
100
AcDbEntity
  8
0
  6
Continuous
 62
     7
100
AcDbLine
 10
-249.7461926066686
 20
-427.9769212600086
 30
0.0
 11
-247.1461926066687
 21
-425.7252552101691
 31
0.0
  0
LINE
  5
20E
330
52
100
AcDbEntity
  8
0
  6
Continuous
 62
     7
100
AcDbLine
 10
-247.1461926066687
 20
-425.7252552101691
 30
0.0
 11
-247.1461926066687
 21
-431.1919847694696
 31
0.0
  0
LINE
  5
20F
330
52
100
AcDbEntity
  8
0
  6
Continuous
 62
     7
100
AcDbLine
 10
-249.7461926066686
 20
-433.4436508193092
 30
0.0
 11
-249.7461926066686
 21
-427.9769212600086
 31
0.0
  0
LINE
  5
210
330
52
100
AcDbEntity
  8
0
  6
Continuous
 62
     7
100
AcDbLine
 10
-255.6798496555788
 20
-454.1758656640398
 30
0.0
 11
-255.4322084579446
 21
-453.7137608982341
 31
0.0
  0
LINE
  5
211
330
52
100
AcDbEntity
  8
0
  6
Continuous
 62
     7
100
AcDbLine
 10
-247.1461926066687
 20
-431.1919847694696
 30
0.0
 11
-249.7461926066686
 21
-433.4436508193092
 31
0.0
  0
LINE
  5
212
330
52
100
AcDbEntity
  8
0
  6
Continuous
 62
     7
100
AcDbLine
 10
-255.4322084579446
 20
-453.7137608982341
 30
0.0
 11
-255.6798496555788
 21
-453.713760898234
 31
0.0
  0
LINE
  5
213
330
52
100
AcDbEntity
  8
0
  6
Continuous
 62
     7
100
AcDbLine
 10
-256.1961926066687
 20
-417.8931100636498
 30
0.0
 11
-272.2176625766812
 21
-397.2466400936369
 31
0.0
  0
LINE
  5
214
330
52
100
AcDbEntity
  8
0
  6
Continuous
 62
     7
100
AcDbLine
 10
-272.2176625766812
 20
-397.2466400936369
 30
0.0
 11
-326.8638655554797
 21
-381.4716400936368
 31
0.0
  0
SPLINE
  5
215
330
52
100
AcDbEntity
  8
0
  6
Continuous
 62
     7
100
AcDbSpline
210
0.0
220
0.0
230
1.0
 70
     8
 71
     3
 72
     9
 73
     5
 74
     3
 42
0.000000001
 43
0.0000000001
 44
0.00000001
 40
0.0
 40
0.0
 40
0.0
 40
0.0
 40
0.1960792491445165
 40
0.3792194390038274
 40
0.3792194390038274
 40
0.3792194390038274
 40
0.3792194390038274
 10
-285.2461279890873
 20
-489.2561245694665
 30
0.0
 10
-285.1791202917034
 20
-489.2559619636211
 30
0.0
 10
-285.0495266669493
 20
-489.2556474632086
 30
0.0
 10
-284.9421263523649
 20
-489.1835669535488
 30
0.0
 10
-284.890258461174
 20
-489.148756392377
 30
0.0
 11
-285.2461279890873
 21
-489.2561245694665
 31
0.0
 11
-285.0510383054889
 21
-489.2364500154596
 31
0.0
 11
-284.890258461174
 21
-489.148756392377
 31
0.0
  0
SPLINE
  5
216
330
52
100
AcDbEntity
  8
0
  6
Continuous
 62
     7
100
AcDbSpline
210
0.0
220
0.0
230
1.0
 70
     8
 71
     3
 72
    11
 73
     7
 74
     5
 42
0.000000001
 43
0.0000000001
 44
0.00000001
 40
0.0
 40
0.0
 40
0.0
 40
0.0
 40
0.9914500132588439
 40
1.951816067053478
 40
2.87661340750704
 40
3.7639604010186
 40
3.7639604010186
 40
3.7639604010186
 40
3.7639604010186
 10
-288.8020490591536
 20
-488.1538615093291
 30
0.0
 10
-288.5140011635835
 20
-488.3168408409962
 30
0.0
 10
-287.9469362486549
 20
-488.6376897600722
 30
0.0
 10
-287.0464737698551
 20
-488.9756374284943
 30
0.0
 10
-286.1460981058061
 20
-489.2022023980731
 30
0.0
 10
-285.5419562329137
 20
-489.2383998733799
 30
0.0
 10
-285.2461279890873
 20
-489.2561245694665
 30
0.0
 11
-288.8020490591536
 21
-488.1538615093291
 31
0.0
 11
-287.9265755722821
 21
-488.6191778566591
 31
0.0
 11
-287.0296046547284
 21
-488.9623194204374
 31
0.0
 11
-286.1298612002177
 21
-489.1761226939942
 31
0.0
 11
-285.2461279890873
 21
-489.2561245694665
 31
0.0
  0
SPLINE
  5
217
330
52
100
AcDbEntity
  8
0
  6
Continuous
 62
     7
100
AcDbSpline
210
0.0
220
0.0
230
1.0
 70
     8
 71
     3
 72
    15
 73
    11
 74
     9
 42
0.000000001
 43
0.0000000001
 44
0.00000001
 40
0.0
 40
0.0
 40
0.0
 40
0.0
 40
0.1489202157400461
 40
0.3051596219915207
 40
0.473298403633442
 40
0.6541504574554983
 40
0.8452397642225619
 40
1.041857081171749
 40
1.238210328298993
 40
1.42855743931821
 40
1.42855743931821
 40
1.42855743931821
 40
1.42855743931821
 10
-284.890258461174
 20
-489.148756392377
 30
0.0
 10
-284.8560078102007
 20
-489.1121386486324
 30
0.0
 10
-284.7858231543387
 20
-489.0371034491599
 30
0.0
 10
-284.7347867086086
 20
-488.8832546657674
 30
0.0
 10
-284.7265654886089
 20
-488.7136918907628
 30
0.0
 10
-284.7638344833006
 20
-488.5356792728392
 30
0.0
 10
-284.8422434088358
 20
-488.3615972927923
 30
0.0
 10
-284.9571684699869
 20
-488.2032690150534
 30
0.0
 10
-285.0991587101713
 20
-488.0674651467937
 30
0.0
 10
-285.2126142316794
 20
-488.0053114710798
 30
0.0
 10
-285.2684609143195
 20
-487.9747173172113
 30
0.0
 11
-284.890258461174
 21
-489.148756392377
 31
0.0
 11
-284.7963845214587
 21
-489.0331496639919
 31
0.0
 11
-284.7429600224272
 21
-488.8863280826181
 31
0.0
 11
-284.7336805107901
 21
-488.7184455595549
 31
0.0
 11
-284.7691870742071
 21
-488.5411132447997
 31
0.0
 11
-284.8470247234329
 21
-488.3665955557279
 31
0.0
 11
-284.9618095167901
 21
-488.2069621614684
 31
0.0
 11
-285.1056033437102
 21
-488.0732537746856
 31
0.0
 11
-285.2684609143195
 21
-487.9747173172113
 31
0.0
  0
SPLINE
  5
218
330
52
100
AcDbEntity
  8
0
  6
Continuous
 62
     7
100
AcDbSpline
210
0.0
220
0.0
230
1.0
 70
     8
 71
     3
 72
    13
 73
     9
 74
     7
 42
0.000000001
 43
0.0000000001
 44
0.00000001
 40
0.0
 40
0.0
 40
0.0
 40
0.0
 40
0.1846462410890988
 40
0.3801096761196654
 40
0.58961585102158
 40
0.8129091306578147
 40
1.046893203977183
 40
1.286571293187579
 40
1.286571293187579
 40
1.286571293187579
 40
1.286571293187579
 10
-313.3351495507367
 20
-474.8807694883231
 30
0.0
 10
-313.3912504741372
 20
-474.9072148395393
 30
0.0
 10
-313.5067389057573
 20
-474.9616547856751
 30
0.0
 10
-313.7069639453698
 20
-474.9742126600211
 30
0.0
 10
-313.9146735544573
 20
-474.9385790275712
 30
0.0
 10
-314.1210228676129
 20
-474.851813270573
 30
0.0
 10
-314.3167680423375
 20
-474.7231211611211
 30
0.0
 10
-314.4256819064785
 20
-474.6082012673999
 30
0.0
 10
-314.4807934744746
 20
-474.5500505744403
 30
0.0
 11
-313.3351495507367
 21
-474.8807694883231
 31
0.0
 11
-313.5066595189962
 21
-474.9491695352195
 31
0.0
 11
-313.7013483990293
 21
-474.9665533252816
 31
0.0
 11
-313.9079715126057
 21
-474.9319162421526
 31
0.0
 11
-314.1145946261821
 21
-474.8472594150375
 31
0.0
 11
-314.3092835062152
 21
-474.7174719476801
 31
0.0
 11
-314.4807934744746
 21
-474.5500505744403
 31
0.0
  0
SPLINE
  5
219
330
52
100
AcDbEntity
  8
0
  6
Continuous
 62
     7
100
AcDbSpline
210
0.0
220
0.0
230
1.0
 70
     8
 71
     3
 72
     9
 73
     5
 74
     3
 42
0.000000001
 43
0.0000000001
 44
0.00000001
 40
0.0
 40
0.0
 40
0.0
 40
0.0
 40
0.2348930750231941
 40
0.4356235776193466
 40
0.4356235776193466
 40
0.4356235776193466
 40
0.4356235776193466
 10
-293.0898021717568
 20
-382.2724432143076
 30
0.0
 10
-293.1478440013677
 20
-382.3285807022852
 30
0.0
 10
-293.2554861089484
 20
-382.4326911183853
 30
0.0
 10
-293.2796360500386
 20
-382.5797021581639
 30
0.0
 10
-293.2907640660802
 20
-382.6474432143076
 30
0.0
 11
-293.0898021717568
 21
-382.2724432143076
 31
0.0
 11
-293.2396524192317
 21
-382.4533289822327
 31
0.0
 11
-293.2907640660802
 21
-382.6474432143076
 31
0.0
  0
SPLINE
  5
21A
330
52
100
AcDbEntity
  8
0
  6
Continuous
 62
     7
100
AcDbSpline
210
0.0
220
0.0
230
1.0
 70
     8
 71
     3
 72
    21
 73
    17
 74
    15
 42
0.000000001
 43
0.0000000001
 44
0.00000001
 40
0.0
 40
0.0
 40
0.0
 40
0.0
 40
0.5566731616205337
 40
1.1833583826442
 40
1.920082337710688
 40
2.775410786327718
 40
3.736395732298251
 40
4.77667174330009
 40
5.86185306519603
 40
6.953534899414045
 40
8.012756197186823
 40
9.00339653729748
 40
9.895929828486109
 40
10.67223051380609
 40
11.33263896987419
 40
11.90587881592965
 40
11.90587881592965
 40
11.90587881592965
 40
11.90587881592965
 10
-307.3155661357718
 20
-376.7224432143075
 30
0.0
 10
-307.3412980955916
 20
-376.5359937501137
 30
0.0
 10
-307.3959983065214
 20
-376.1396453210387
 30
0.0
 10
-307.7961020722882
 20
-375.6115691656016
 30
0.0
 10
-308.3762926895346
 20
-375.1500954540224
 30
0.0
 10
-309.142195623246
 20
-374.7654053892265
 30
0.0
 10
-310.0504973671347
 20
-374.4716872927775
 30
0.0
 10
-311.0642897045522
 20
-374.2817420713824
 30
0.0
 10
-312.1359982993431
 20
-374.2044150196211
 30
0.0
 10
-313.2160712615552
 20
-374.2433882352043
 30
0.0
 10
-314.2544815933184
 20
-374.3967554768486
 30
0.0
 10
-315.2022478775694
 20
-374.6574957809802
 30
0.0
 10
-316.0202516624739
 20
-375.0132814423829
 30
0.0
 10
-316.6620451675219
 20
-375.4519018383745
 30
0.0
 10
-317.1337272842615
 20
-375.955392019951
 30
0.0
 10
-317.248891701828
 20
-376.3553321673974
 30
0.0
 10
-317.3024051886866
 20
-376.5411725187147
 30
0.0
 11
-307.3155661357718
 21
-376.7224432143075
 31
0.0
 11
-307.4352251199459
 21
-376.1787827099886
 31
0.0
 11
-307.7884730129921
 21
-375.6611435561428
 31
0.0
 11
-308.3584038517718
 21
-375.1943020178971
 31
0.0
 11
-309.1177372788443
 21
-374.8006022608332
 31
0.0
 11
-310.0301302869499
 21
-374.4988887182642
 31
0.0
 11
-311.0519116481424
 21
-374.3036016870525
 31
0.0
 11
-312.1341760542696
 21
-374.2240891038525
 31
0.0
 11
-313.2251223764927
 21
-374.2641558305296
 31
0.0
 11
-314.27253406839
 21
-374.4218850256672
 31
0.0
 11
-315.2262789442606
 21
-374.6897263779958
 31
0.0
 11
-316.0407066449765
 21
-375.0548608630232
 31
0.0
 11
-316.6768370701294
 21
-375.4998112339954
 31
0.0
 11
-317.1042213953969
 21
-376.0032811652807
 31
0.0
 11
-317.3024051886866
 21
-376.5411725187147
 31
0.0
  0
SPLINE
  5
21B
330
52
100
AcDbEntity
  8
0
  6
Continuous
 62
     7
100
AcDbSpline
210
0.0
220
0.0
230
1.0
 70
     8
 71
     3
 72
    21
 73
    17
 74
    15
 42
0.000000001
 43
0.0000000001
 44
0.00000001
 40
0.0
 40
0.0
 40
0.0
 40
0.0
 40
0.5702522115160971
 40
1.215203492802573
 40
1.976474550837782
 40
2.86163116068561
 40
3.855347670529331
 40
4.928214214449758
 40
6.042583065244064
 40
7.15695191603837
 40
8.229818459958908
 40
9.22353496980252
 40
10.10869157965032
 40
10.86996263768557
 40
11.51491391897209
 40
12.08516613048805
 40
12.08516613048805
 40
12.08516613048805
 40
12.08516613048805
 10
-317.3155661357718
 20
-376.7224432143074
 30
0.0
 10
-317.2884813958865
 20
-376.9134470633427
 30
0.0
 10
-317.2307639862768
 20
-377.3204749295804
 30
0.0
 10
-316.8111191781052
 20
-377.8590738633166
 30
0.0
 10
-316.2052760340355
 20
-378.326826745793
 30
0.0
 10
-315.4073992299772
 20
-378.7129917975769
 30
0.0
 10
-314.4644480107609
 20
-379.0025194304245
 30
0.0
 10
-313.4166632244762
 20
-379.182115637779
 30
0.0
 10
-312.3155661357717
 20
-379.2429892221932
 30
0.0
 10
-311.2144690470673
 20
-379.1821156377789
 30
0.0
 10
-310.1666842607825
 20
-379.0025194304249
 30
0.0
 10
-309.2237330415663
 20
-378.7129917975767
 30
0.0
 10
-308.4258562375079
 20
-378.3268267457933
 30
0.0
 10
-307.8200130934384
 20
-377.8590738633165
 30
0.0
 10
-307.4003682852667
 20
-377.3204749295804
 30
0.0
 10
-307.3426508756571
 20
-376.9134470633427
 30
0.0
 10
-307.3155661357718
 20
-376.7224432143075
 30
0.0
 11
-317.3155661357718
 21
-376.7224432143074
 31
0.0
 11
-317.190205181425
 21
-377.2787454903964
 31
0.0
 11
-316.8204104752839
 21
-377.8071525621014
 31
0.0
 11
-316.2247231349089
 21
-378.2811675541951
 31
0.0
 11
-315.4330151450655
 21
-378.6770219204776
 31
0.0
 11
-314.4849846020491
 21
-378.9748651459795
 31
0.0
 11
-313.4281708055533
 21
-379.159762994762
 31
0.0
 11
-312.3155661357717
 21
-379.2224429500542
 31
0.0
 11
-311.2029614659901
 21
-379.159762994762
 31
0.0
 11
-310.1461476694943
 21
-378.9748651459795
 31
0.0
 11
-309.198117126478
 21
-378.6770219204776
 31
0.0
 11
-308.4064091366346
 21
-378.2811675541951
 31
0.0
 11
-307.8107217962596
 21
-377.8071525621014
 31
0.0
 11
-307.4409270901185
 21
-377.2787454903964
 31
0.0
 11
-307.3155661357718
 21
-376.7224432143075
 31
0.0
  0
SPLINE
  5
21C
330
52
100
AcDbEntity
  8
0
  6
Continuous
 62
     7
100
AcDbSpline
210
0.0
220
0.0
230
1.0
 70
     8
 71
     3
 72
    13
 73
     9
 74
     7
 42
0.000000001
 43
0.0000000001
 44
0.00000001
 40
0.0
 40
0.0
 40
0.0
 40
0.0
 40
0.4407160921076309
 40
0.9182789904897928
 40
1.458331524223191
 40
2.072604765605079
 40
2.761631458776126
 40
3.518059688715029
 40
3.518059688715029
 40
3.518059688715029
 40
3.518059688715029
 10
-266.2659619963894
 20
-388.5724432143074
 30
0.0
 10
-266.2816835035425
 20
-388.4249574931151
 30
0.0
 10
-266.3144409548255
 20
-388.1176552629844
 30
0.0
 10
-266.5650079291105
 20
-387.6871033264906
 30
0.0
 10
-266.9417114335657
 20
-387.2915250401241
 30
0.0
 10
-267.4493539159087
 20
-386.9389958807766
 30
0.0
 10
-268.0661870528518
 20
-386.6317539313673
 30
0.0
 10
-268.5255634432153
 20
-386.4844605400786
 30
0.0
 10
-268.7659619963894
 20
-386.4073797048464
 30
0.0
 11
-266.2659619963894
 21
-388.5724432143074
 31
0.0
 11
-266.3419233465191
 21
-388.1383227802957
 31
0.0
 11
-266.5674988924598
 21
-387.7173928559933
 31
0.0
 11
-266.9358350787642
 21
-387.3224432435495
 31
0.0
 11
-267.4357397807944
 21
-386.9654741900912
 31
0.0
 11
-268.0520240231421
 21
-386.6573321513113
 31
0.0
 11
-268.7659619963894
 21
-386.4073797048464
 31
0.0
  0
SPLINE
  5
21D
330
52
100
AcDbEntity
  8
0
  6
Continuous
 62
     7
100
AcDbSpline
210
0.0
220
0.0
230
1.0
 70
     8
 71
     3
 72
    17
 73
    13
 74
    11
 42
0.000000001
 43
0.0000000001
 44
0.00000001
 40
0.0
 40
0.0
 40
0.0
 40
0.0
 40
0.9782904363894521
 40
2.006491070825351
 40
3.051775666892883
 40
4.079976408816521
 40
5.058266629089102
 40
5.957989909627106
 40
6.758026443392663
 40
7.449417388011789
 40
8.042213091880113
 40
8.57335210959633
 40
8.57335210959633
 40
8.57335210959633
 40
8.57335210959633
 10
-268.7659619963894
 20
-386.4073797048464
 30
0.0
 10
-269.0828484741676
 20
-386.3288929800146
 30
0.0
 10
-269.7327882728745
 20
-386.1679153184183
 30
0.0
 10
-270.7485438731128
 20
-386.0694820502639
 30
0.0
 10
-271.7837225183702
 20
-386.0674137358346
 30
0.0
 10
-272.7974952207206
 20
-386.1738883578267
 30
0.0
 10
-273.7462114781841
 20
-386.3810346609876
 30
0.0
 10
-274.5894536383174
 20
-386.6809363206219
 30
0.0
 10
-275.2960313431478
 20
-387.0615851121614
 30
0.0
 10
-275.8289191121424
 20
-387.5104150735848
 30
0.0
 10
-276.1933821800216
 20
-388.0181598717797
 30
0.0
 10
-276.242670002981
 20
-388.3945650296772
 30
0.0
 10
-276.2659619963894
 20
-388.5724432143074
 30
0.0
 11
-268.7659619963894
 21
-386.4073797048464
 31
0.0
 11
-269.7208771324628
 21
-386.1948020896847
 31
0.0
 11
-270.7433196800511
 21
-386.0861384758868
 31
0.0
 11
-271.7886042762129
 21
-386.0861386495936
 31
0.0
 11
-272.8110469682641
 21
-386.1948019235696
 31
0.0
 11
-273.7659618217257
 21
-386.4073798561096
 31
0.0
 11
-274.6116150281836
 21
-386.714581150614
 31
0.0
 11
-275.3110466856522
 21
-387.1029801862411
 31
0.0
 11
-275.8336892846023
 21
-387.555601606618
 31
0.0
 11
-276.1566996583647
 21
-388.0526640235777
 31
0.0
 11
-276.2659619963894
 21
-388.5724432143074
 31
0.0
  0
SPLINE
  5
21E
330
52
100
AcDbEntity
  8
0
  6
Continuous
 62
     7
100
AcDbSpline
210
0.0
220
0.0
230
1.0
 70
     8
 71
     3
 72
    21
 73
    17
 74
    15
 42
0.000000001
 43
0.0000000001
 44
0.00000001
 40
0.0
 40
0.0
 40
0.0
 40
0.0
 40
0.5702522115160541
 40
1.215203492802655
 40
1.97647455083791
 40
2.861631160685661
 40
3.855347670529382
 40
4.928214214449809
 40
6.042583065244115
 40
7.156951916038421
 40
8.229818459958846
 40
9.223534969802458
 40
10.10869157965016
 40
10.86996263768546
 40
11.51491391897198
 40
12.08516613048805
 40
12.08516613048805
 40
12.08516613048805
 40
12.08516613048805
 10
-276.2659619963894
 20
-388.5724432143074
 30
0.0
 10
-276.2388772565041
 20
-388.7634470633427
 30
0.0
 10
-276.1811598468943
 20
-389.1704749295805
 30
0.0
 10
-275.7615150387226
 20
-389.7090738633165
 30
0.0
 10
-275.155671894653
 20
-390.1768267457931
 30
0.0
 10
-274.3577950905947
 20
-390.562991797577
 30
0.0
 10
-273.4148438713784
 20
-390.8525194304245
 30
0.0
 10
-272.3670590850937
 20
-391.0321156377789
 30
0.0
 10
-271.2659619963893
 20
-391.0929892221932
 30
0.0
 10
-270.1648649076848
 20
-391.0321156377788
 30
0.0
 10
-269.1170801214001
 20
-390.8525194304246
 30
0.0
 10
-268.1741289021841
 20
-390.5629917975771
 30
0.0
 10
-267.3762520981255
 20
-390.1768267457931
 30
0.0
 10
-266.7704089540561
 20
-389.7090738633165
 30
0.0
 10
-266.3507641458842
 20
-389.1704749295806
 30
0.0
 10
-266.2930467362747
 20
-388.7634470633427
 30
0.0
 10
-266.2659619963894
 20
-388.5724432143074
 30
0.0
 11
-276.2659619963894
 21
-388.5724432143074
 31
0.0
 11
-276.1406010420426
 21
-389.1287454903963
 31
0.0
 11
-275.7708063359014
 21
-389.6571525621014
 31
0.0
 11
-275.1751189955264
 21
-390.1311675541951
 31
0.0
 11
-274.383411005683
 21
-390.5270219204775
 31
0.0
 11
-273.4353804626666
 21
-390.8248651459795
 31
0.0
 11
-272.3785666661709
 21
-391.009762994762
 31
0.0
 11
-271.2659619963893
 21
-391.0724429500542
 31
0.0
 11
-270.1533573266076
 21
-391.009762994762
 31
0.0
 11
-269.0965435301119
 21
-390.8248651459795
 31
0.0
 11
-268.1485129870956
 21
-390.5270219204775
 31
0.0
 11
-267.3568049972523
 21
-390.1311675541951
 31
0.0
 11
-266.7611176568772
 21
-389.6571525621014
 31
0.0
 11
-266.3913229507361
 21
-389.1287454903964
 31
0.0
 11
-266.2659619963894
 21
-388.5724432143074
 31
0.0
  0
SPLINE
  5
21F
330
52
100
AcDbEntity
  8
0
  6
Continuous
 62
     7
100
AcDbSpline
210
0.0
220
0.0
230
1.0
 70
     8
 71
     3
 72
    19
 73
    15
 74
    13
 42
0.000000001
 43
0.0000000001
 44
0.00000001
 40
0.0
 40
0.0
 40
0.0
 40
0.0
 40
0.2007305004267703
 40
0.435623573969078
 40
0.7201434630657204
 40
1.052883018584579
 40
1.42233182499267
 40
1.811400512172234
 40
2.200469199351797
 40
2.569918005759888
 40
2.902657561278799
 40
3.187177450375537
 40
3.422070523917881
 40
3.622801024344623
 40
3.622801024344623
 40
3.622801024344623
 40
3.622801024344623
 10
-293.2907640660802
 20
-382.6474432143076
 30
0.0
 10
-293.2793344063304
 20
-382.7146539109897
 30
0.0
 10
-293.2545298405879
 20
-382.8605139688231
 30
0.0
 10
-293.0825466282985
 20
-383.0431073706231
 30
0.0
 10
-292.8421657792425
 20
-383.1943433919876
 30
0.0
 10
-292.5311460694031
 20
-383.3091766600498
 30
0.0
 10
-292.1736541147628
 20
-383.3812092920905
 30
0.0
 10
-291.7907640660803
 20
-383.4057701445816
 30
0.0
 10
-291.4078740173977
 20
-383.3812092920905
 30
0.0
 10
-291.0503820627575
 20
-383.30917666005
 30
0.0
 10
-290.739362352918
 20
-383.1943433919874
 30
0.0
 10
-290.498981503862
 20
-383.0431073706234
 30
0.0
 10
-290.3269982915725
 20
-382.8605139688229
 30
0.0
 10
-290.30219372583
 20
-382.7146539109897
 30
0.0
 10
-290.2907640660802
 20
-382.6474432143076
 30
0.0
 11
-293.2907640660802
 21
-382.6474432143076
 31
0.0
 11
-293.2396524192317
 21
-382.8415574463825
 31
0.0
 11
-293.0898021717568
 21
-383.0224432143076
 31
0.0
 11
-292.8514239550819
 21
-383.1777731588085
 31
0.0
 11
-292.5407640660803
 21
-383.2969622671459
 31
0.0
 11
-292.1789925302301
 21
-383.3718873908833
 31
0.0
 11
-291.7907640660803
 21
-383.3974432143076
 31
0.0
 11
-291.4025356019304
 21
-383.3718873908833
 31
0.0
 11
-291.0407640660803
 21
-383.2969622671459
 31
0.0
 11
-290.7301041770785
 21
-383.1777731588085
 31
0.0
 11
-290.4917259604035
 21
-383.0224432143076
 31
0.0
 11
-290.3418757129286
 21
-382.8415574463825
 31
0.0
 11
-290.2907640660802
 21
-382.6474432143076
 31
0.0
  0
SPLINE
  5
220
330
52
100
AcDbEntity
  8
0
  6
Continuous
 62
     7
100
AcDbSpline
210
0.0
220
0.0
230
1.0
 70
     8
 71
     3
 72
    17
 73
    13
 74
    11
 42
0.000000001
 43
0.0000000001
 44
0.00000001
 40
0.0
 40
0.0
 40
0.0
 40
0.0
 40
0.2007304958056934
 40
0.4356235728856535
 40
0.7201434609372037
 40
1.052883014838679
 40
1.422331818806187
 40
1.811400502754556
 40
2.2004691864799
 40
2.569917989538329
 40
2.902657544046923
 40
3.187177437772005
 40
3.187177437772005
 40
3.187177437772005
 40
3.187177437772005
 10
-290.2907640660802
 20
-382.6474432143076
 30
0.0
 10
-290.3021937343079
 20
-382.5802325038039
 30
0.0
 10
-290.3269983116553
 20
-382.4343724106127
 30
0.0
 10
-290.4989813594148
 20
-382.2517793184528
 30
0.0
 10
-290.7393630692904
 20
-382.1005417754646
 30
0.0
 10
-291.0503787383278
 20
-381.9857156129565
 30
0.0
 10
-291.4078881699062
 20
-381.9136522482659
 30
0.0
 10
-291.7907083101418
 20
-381.8892143055093
 30
0.0
 10
-292.1738573117665
 20
-381.9133198529173
 30
0.0
 10
-292.5304601244161
 20
-381.9869157928057
 30
0.0
 10
-292.844309589493
 20
-382.0967737113717
 30
0.0
 10
-293.0123469470718
 20
-382.2170178246718
 30
0.0
 10
-293.0898021717568
 20
-382.2724432143076
 30
0.0
 11
-290.2907640660802
 21
-382.6474432143076
 31
0.0
 11
-290.3418757129287
 21
-382.4533289822327
 31
0.0
 11
-290.4917259604035
 21
-382.2724432143076
 31
0.0
 11
-290.7301041770785
 21
-382.1171132698067
 31
0.0
 11
-291.0407640660803
 21
-381.9979241614693
 31
0.0
 11
-291.4025356019305
 21
-381.9229990377319
 31
0.0
 11
-291.7907640660803
 21
-381.8974432143076
 31
0.0
 11
-292.1789925302301
 21
-381.9229990377319
 31
0.0
 11
-292.5407640660803
 21
-381.9979241614693
 31
0.0
 11
-292.8514239550819
 21
-382.1171132698068
 31
0.0
 11
-293.0898021717568
 21
-382.2724432143076
 31
0.0
  0
SPLINE
  5
221
330
52
100
AcDbEntity
  8
0
  6
Continuous
 62
     7
100
AcDbSpline
210
0.0
220
0.0
230
1.0
 70
     8
 71
     3
 72
     9
 73
     5
 74
     3
 42
0.000000001
 43
0.0000000001
 44
0.00000001
 40
0.0
 40
0.0
 40
0.0
 40
0.0
 40
0.0911117841581266
 40
0.1818665341732829
 40
0.1818665341732829
 40
0.1818665341732829
 40
0.1818665341732829
 10
-317.3024051886866
 20
-376.5411725187147
 30
0.0
 10
-317.3062432516483
 20
-376.5713246393724
 30
0.0
 10
-317.3139043176949
 20
-376.6315107272316
 30
0.0
 10
-317.3150129285114
 20
-376.6921720810182
 30
0.0
 10
-317.3155661357718
 20
-376.7224432143074
 30
0.0
 11
-317.3024051886866
 21
-376.5411725187147
 31
0.0
 11
-317.3122748157123
 21
-376.6317481652245
 31
0.0
 11
-317.3155661357718
 21
-376.7224432143074
 31
0.0
  0
ENDBLK
  5
54
330
52
100
AcDbEntity
  8
0
100
AcDbBlockEnd
  0
BLOCK
  5
57
330
55
100
AcDbEntity
  8
0
100
AcDbBlockBegin
  2
Allg2
 70
     0
 10
-293.9999976989412
 20
-430.0000041524631
 30
0.0
  3
Allg2
  1

  0
INSERT
  5
56
330
55
100
AcDbEntity
  8
0
100
AcDbBlockReference
  2
UKH_150_1500V-select__1
 10
-342.8853355254922
 20
-489.2666363283923
 30
0.0
  0
MTEXT
  5
222
330
55
100
AcDbEntity
  8
1
 62
     6
100
AcDbMText
 10
-291.7907640660804
 20
-499.2747387834643
 30
0.0
 40
10.0
 41
0.0
 71
     2
 72
     1
  1
 
  7
CONVERTER_11
 73
     1
 44
1.32052821128451
  0
ENDBLK
  5
58
330
55
100
AcDbEntity
  8
0
100
AcDbBlockEnd
  0
BLOCK
  5
5A
330
59
100
AcDbEntity
  8
0
100
AcDbBlockBegin
  2
UKH_150_1500V-select__2
 70
     0
 10
-646.8030004976688
 20
-457.3288900766074
 30
0.0
  3
UKH_150_1500V-select__2
  1

  0
LINE
  5
223
330
59
100
AcDbEntity
  8
0
  6
Continuous
 62
     7
100
AcDbLine
 10
-646.8030004976684
 20
-436.8288900766048
 30
0.0
 11
-646.2010004976687
 21
-436.8288900766048
 31
0.0
  0
LINE
  5
224
330
59
100
AcDbEntity
  8
0
  6
Continuous
 62
     7
100
AcDbLine
 10
-646.8030004976688
 20
-446.8288900766048
 30
0.0
 11
-646.2010004976689
 21
-446.8288900766048
 31
0.0
  0
LINE
  5
225
330
59
100
AcDbEntity
  8
0
  6
Continuous
 62
     7
100
AcDbLine
 10
-646.2010004976687
 20
-436.8288900766048
 30
0.0
 11
-645.2010004976687
 21
-436.8288900766048
 31
0.0
  0
LINE
  5
226
330
59
100
AcDbEntity
  8
0
  6
Continuous
 62
     7
100
AcDbLine
 10
-646.2010004976689
 20
-446.8288900766048
 30
0.0
 11
-645.2010004976689
 21
-446.8288900766048
 31
0.0
  0
LINE
  5
227
330
59
100
AcDbEntity
  8
0
  6
Continuous
 62
     7
100
AcDbLine
 10
-641.7010004976689
 20
-436.8288900766049
 30
0.0
 11
-645.2010004976687
 21
-436.8288900766048
 31
0.0
  0
LINE
  5
228
330
59
100
AcDbEntity
  8
0
  6
Continuous
 62
     7
100
AcDbLine
 10
-641.7010004976689
 20
-436.8288900766049
 30
0.0
 11
-641.7010004976692
 21
-446.8288900766049
 31
0.0
  0
LINE
  5
229
330
59
100
AcDbEntity
  8
0
  6
Continuous
 62
     7
100
AcDbLine
 10
-641.7010004976692
 20
-446.8288900766049
 30
0.0
 11
-641.7010004976717
 21
-457.3288900766049
 31
0.0
  0
LINE
  5
22A
330
59
100
AcDbEntity
  8
0
  6
Continuous
 62
     2
100
AcDbLine
 10
-645.2010004976687
 20
-436.8288900766048
 30
0.0
 11
-645.2010004976689
 21
-446.8288900766048
 31
0.0
  0
LINE
  5
22B
330
59
100
AcDbEntity
  8
0
  6
Continuous
 62
     7
100
AcDbLine
 10
-641.7010004976707
 20
-426.3288900766049
 30
0.0
 11
-641.7010004976689
 21
-436.8288900766049
 31
0.0
  0
LINE
  5
22C
330
59
100
AcDbEntity
  8
0
  6
Continuous
 62
     7
100
AcDbLine
 10
-646.2010004976687
 20
-436.8288900766048
 30
0.0
 11
-646.2010004976689
 21
-446.8288900766048
 31
0.0
  0
LINE
  5
22D
330
59
100
AcDbEntity
  8
0
  6
Continuous
 62
     7
100
AcDbLine
 10
-646.8030004976684
 20
-436.8288900766048
 30
0.0
 11
-646.8030004976688
 21
-446.8288900766048
 31
0.0
  0
LINE
  5
22E
330
59
100
AcDbEntity
  8
0
  6
Continuous
 62
     7
100
AcDbLine
 10
-541.6010004976695
 20
-426.3288900766074
 30
0.0
 11
-560.1010004976705
 21
-426.328890076607
 31
0.0
  0
LINE
  5
22F
330
59
100
AcDbEntity
  8
0
  6
Continuous
 62
     7
100
AcDbLine
 10
-546.5765156624203
 20
-427.8788900766073
 30
0.0
 11
-544.4339447504444
 21
-427.8788900766074
 31
0.0
  0
LINE
  5
230
330
59
100
AcDbEntity
  8
0
  6
Continuous
 62
     7
100
AcDbLine
 10
-554.4765156624204
 20
-427.8788900766072
 30
0.0
 11
-552.3339447504445
 21
-427.8788900766072
 31
0.0
  0
LINE
  5
231
330
59
100
AcDbEntity
  8
0
  6
Continuous
 62
     7
100
AcDbLine
 10
-636.7254853329206
 20
-427.8788900766051
 30
0.0
 11
-636.3421616629055
 21
-427.8788900766051
 31
0.0
  0
LINE
  5
232
330
59
100
AcDbEntity
  8
0
  6
Continuous
 62
     7
100
AcDbLine
 10
-636.3421616629055
 20
-427.8788900766051
 30
0.0
 11
-633.8339447504446
 21
-427.8788900766051
 31
0.0
  0
LINE
  5
233
330
59
100
AcDbEntity
  8
0
  6
Continuous
 62
     7
100
AcDbLine
 10
-628.4421616629057
 20
-427.8788900766052
 30
0.0
 11
-625.9339447504449
 21
-427.8788900766053
 31
0.0
  0
LINE
  5
234
330
59
100
AcDbEntity
  8
0
  6
Continuous
 62
     7
100
AcDbLine
 10
-623.2010004976711
 20
-426.3288900766054
 30
0.0
 11
-641.7010004976707
 21
-426.3288900766049
 31
0.0
  0
LINE
  5
235
330
59
100
AcDbEntity
  8
0
  6
Continuous
 62
     7
100
AcDbLine
 10
-630.9680562448968
 20
-427.8788900766052
 30
0.0
 11
-628.8254853329208
 21
-427.8788900766052
 31
0.0
  0
LINE
  5
236
330
59
100
AcDbEntity
  8
0
  6
Continuous
 62
     7
100
AcDbLine
 10
-628.8254853329208
 20
-427.8788900766052
 30
0.0
 11
-628.4421616629057
 21
-427.8788900766052
 31
0.0
  0
LINE
  5
237
330
59
100
AcDbEntity
  8
0
  6
Continuous
 62
     7
100
AcDbLine
 10
-638.8680562448961
 20
-427.878890076605
 30
0.0
 11
-636.7254853329206
 21
-427.8788900766051
 31
0.0
  0
LINE
  5
238
330
59
100
AcDbEntity
  8
0
  6
Continuous
 62
     7
100
AcDbLine
 10
-560.1010004976705
 20
-426.328890076607
 30
0.0
 11
-623.2010004976711
 21
-426.3288900766054
 31
0.0
  0
LINE
  5
239
330
59
100
AcDbEntity
  8
0
  6
Continuous
 62
     7
100
AcDbLine
 10
-633.8339447504457
 20
-455.8288900766052
 30
0.0
 11
-633.8339447504446
 21
-427.8788900766051
 31
0.0
  0
LINE
  5
23A
330
59
100
AcDbEntity
  8
0
  6
Continuous
 62
     7
100
AcDbLine
 10
-636.3421616629062
 20
-455.828890076605
 30
0.0
 11
-636.3421616629055
 21
-427.8788900766051
 31
0.0
  0
LINE
  5
23B
330
59
100
AcDbEntity
  8
0
  6
Continuous
 62
     7
100
AcDbLine
 10
-611.3510004976708
 20
-443.9974149208258
 30
0.0
 11
-611.3510004976708
 21
-439.6603652323855
 31
0.0
  0
LINE
  5
23C
330
59
100
AcDbEntity
  8
0
  6
Continuous
 62
     7
100
AcDbLine
 10
-557.3680562448967
 20
-427.878890076607
 30
0.0
 11
-557.3680562448974
 21
-455.8288900766071
 31
0.0
  0
LINE
  5
23D
330
59
100
AcDbEntity
  8
0
  6
Continuous
 62
     7
100
AcDbLine
 10
-554.8598393324364
 20
-455.8288900766071
 30
0.0
 11
-557.3680562448974
 21
-455.8288900766071
 31
0.0
  0
LINE
  5
23E
330
59
100
AcDbEntity
  8
0
  6
Continuous
 62
     7
100
AcDbLine
 10
-552.3339447504452
 20
-455.8288900766072
 30
0.0
 11
-552.3339447504445
 21
-427.8788900766072
 31
0.0
  0
LINE
  5
23F
330
59
100
AcDbEntity
  8
0
  6
Continuous
 62
     7
100
AcDbLine
 10
-549.4680562448966
 20
-427.8788900766073
 30
0.0
 11
-549.4680562448973
 21
-455.8288900766073
 31
0.0
  0
LINE
  5
240
330
59
100
AcDbEntity
  8
0
  6
Continuous
 62
     7
100
AcDbLine
 10
-544.4339447504451
 20
-455.8288900766074
 30
0.0
 11
-544.4339447504444
 21
-427.8788900766074
 31
0.0
  0
LINE
  5
241
330
59
100
AcDbEntity
  8
0
  6
Continuous
 62
     7
100
AcDbLine
 10
-625.9339447504457
 20
-455.8288900766053
 30
0.0
 11
-625.9339447504449
 21
-427.8788900766053
 31
0.0
  0
LINE
  5
242
330
59
100
AcDbEntity
  8
0
  6
Continuous
 62
     7
100
AcDbLine
 10
-623.2010004976711
 20
-426.3288900766054
 30
0.0
 11
-623.2010004976719
 21
-457.3288900766054
 31
0.0
  0
LINE
  5
243
330
59
100
AcDbEntity
  8
0
  6
Continuous
 62
     7
100
AcDbLine
 10
-619.3510004976708
 20
-439.6603652323854
 30
0.0
 11
-619.3510004976708
 21
-443.9974149208256
 31
0.0
  0
LINE
  5
244
330
59
100
AcDbEntity
  8
0
  6
Continuous
 62
     7
100
AcDbLine
 10
-615.3510004976708
 20
-437.2788900766055
 30
0.0
 11
-619.3510004976708
 21
-439.6603652323854
 31
0.0
  0
LINE
  5
245
330
59
100
AcDbEntity
  8
0
  6
Continuous
 62
     7
100
AcDbLine
 10
-628.8254853329215
 20
-455.8288900766053
 30
0.0
 11
-628.8254853329208
 21
-427.8788900766052
 31
0.0
  0
LINE
  5
246
330
59
100
AcDbEntity
  8
0
  6
Continuous
 62
     7
100
AcDbLine
 10
-630.9680562448968
 20
-427.8788900766052
 30
0.0
 11
-630.9680562448975
 21
-455.8288900766052
 31
0.0
  0
LINE
  5
247
330
59
100
AcDbEntity
  8
0
  6
Continuous
 62
     7
100
AcDbLine
 10
-628.4421616629064
 20
-455.8288900766053
 30
0.0
 11
-628.4421616629057
 21
-427.8788900766052
 31
0.0
  0
LINE
  5
248
330
59
100
AcDbEntity
  8
0
  6
Continuous
 62
     7
100
AcDbLine
 10
-546.9598393324361
 20
-455.8288900766073
 30
0.0
 11
-546.9598393324354
 21
-427.8788900766073
 31
0.0
  0
LINE
  5
249
330
59
100
AcDbEntity
  8
0
  6
Continuous
 62
     7
100
AcDbLine
 10
-554.4765156624212
 20
-455.8288900766071
 30
0.0
 11
-554.4765156624204
 21
-427.8788900766072
 31
0.0
  0
LINE
  5
24A
330
59
100
AcDbEntity
  8
0
  6
Continuous
 62
     7
100
AcDbLine
 10
-546.9598393324354
 20
-427.8788900766073
 30
0.0
 11
-546.5765156624203
 21
-427.8788900766073
 31
0.0
  0
LINE
  5
24B
330
59
100
AcDbEntity
  8
0
  6
Continuous
 62
     7
100
AcDbLine
 10
-557.3680562448967
 20
-427.878890076607
 30
0.0
 11
-554.8598393324357
 21
-427.8788900766071
 31
0.0
  0
LINE
  5
24C
330
59
100
AcDbEntity
  8
0
  6
Continuous
 62
     7
100
AcDbLine
 10
-554.8598393324357
 20
-427.8788900766071
 30
0.0
 11
-554.4765156624204
 21
-427.8788900766072
 31
0.0
  0
LINE
  5
24D
330
59
100
AcDbEntity
  8
0
  6
Continuous
 62
     7
100
AcDbLine
 10
-546.576515662421
 20
-455.8288900766073
 30
0.0
 11
-546.5765156624203
 21
-427.8788900766073
 31
0.0
  0
LINE
  5
24E
330
59
100
AcDbEntity
  8
0
  6
Continuous
 62
     7
100
AcDbLine
 10
-549.4680562448966
 20
-427.8788900766073
 30
0.0
 11
-546.9598393324354
 21
-427.8788900766073
 31
0.0
  0
LINE
  5
24F
330
59
100
AcDbEntity
  8
0
  6
Continuous
 62
     7
100
AcDbLine
 10
-554.8598393324364
 20
-455.8288900766071
 30
0.0
 11
-554.8598393324357
 21
-427.8788900766071
 31
0.0
  0
LINE
  5
250
330
59
100
AcDbEntity
  8
0
  6
Continuous
 62
     7
100
AcDbLine
 10
-541.6010004976695
 20
-426.3288900766074
 30
0.0
 11
-541.6010004976704
 21
-457.3288900766074
 31
0.0
  0
LINE
  5
251
330
59
100
AcDbEntity
  8
0
  6
Continuous
 62
     7
100
AcDbLine
 10
-563.951000497671
 20
-443.9974149208271
 30
0.0
 11
-563.9510004976707
 21
-439.6603652323868
 31
0.0
  0
LINE
  5
252
330
59
100
AcDbEntity
  8
0
  6
Continuous
 62
     7
100
AcDbLine
 10
-571.9510004976707
 20
-439.6603652323865
 30
0.0
 11
-571.951000497671
 21
-443.9974149208268
 31
0.0
  0
LINE
  5
253
330
59
100
AcDbEntity
  8
0
  6
Continuous
 62
     7
100
AcDbLine
 10
-571.951000497671
 20
-443.9974149208268
 30
0.0
 11
-567.951000497671
 21
-446.3788900766068
 31
0.0
  0
LINE
  5
254
330
59
100
AcDbEntity
  8
0
  6
Continuous
 62
     7
100
AcDbLine
 10
-563.9510004976707
 20
-439.6603652323868
 30
0.0
 11
-567.9510004976707
 21
-437.2788900766068
 31
0.0
  0
LINE
  5
255
330
59
100
AcDbEntity
  8
0
  6
Continuous
 62
     7
100
AcDbLine
 10
-567.9510004976707
 20
-437.2788900766068
 30
0.0
 11
-571.9510004976707
 21
-439.6603652323865
 31
0.0
  0
LINE
  5
256
330
59
100
AcDbEntity
  8
0
  6
Continuous
 62
     7
100
AcDbLine
 10
-560.1010004976705
 20
-426.328890076607
 30
0.0
 11
-560.1010004976713
 21
-457.328890076607
 31
0.0
  0
LINE
  5
257
330
59
100
AcDbEntity
  8
0
  6
Continuous
 62
     7
100
AcDbLine
 10
-567.951000497671
 20
-446.3788900766068
 30
0.0
 11
-563.951000497671
 21
-443.9974149208271
 31
0.0
  0
LINE
  5
258
330
59
100
AcDbEntity
  8
0
  6
Continuous
 62
     7
100
AcDbLine
 10
-619.3510004976708
 20
-443.9974149208256
 30
0.0
 11
-615.351000497671
 21
-446.3788900766056
 31
0.0
  0
LINE
  5
259
330
59
100
AcDbEntity
  8
0
  6
Continuous
 62
     7
100
AcDbLine
 10
-645.2010004976689
 20
-446.8288900766048
 30
0.0
 11
-641.7010004976692
 21
-446.8288900766049
 31
0.0
  0
LINE
  5
25A
330
59
100
AcDbEntity
  8
0
  6
Continuous
 62
     7
100
AcDbLine
 10
-615.351000497671
 20
-446.3788900766056
 30
0.0
 11
-611.3510004976708
 21
-443.9974149208258
 31
0.0
  0
LINE
  5
25B
330
59
100
AcDbEntity
  8
0
  6
Continuous
 62
     7
100
AcDbLine
 10
-611.3510004976708
 20
-439.6603652323855
 30
0.0
 11
-615.3510004976708
 21
-437.2788900766055
 31
0.0
  0
LINE
  5
25C
330
59
100
AcDbEntity
  8
0
  6
Continuous
 62
     7
100
AcDbLine
 10
-541.6010004976704
 20
-457.3288900766074
 30
0.0
 11
-560.1010004976713
 21
-457.328890076607
 31
0.0
  0
LINE
  5
25D
330
59
100
AcDbEntity
  8
0
  6
Continuous
 62
     7
100
AcDbLine
 10
-554.4765156624212
 20
-455.8288900766071
 30
0.0
 11
-554.8598393324364
 21
-455.8288900766071
 31
0.0
  0
LINE
  5
25E
330
59
100
AcDbEntity
  8
0
  6
Continuous
 62
     7
100
AcDbLine
 10
-552.3339447504452
 20
-455.8288900766072
 30
0.0
 11
-554.4765156624212
 21
-455.8288900766071
 31
0.0
  0
LINE
  5
25F
330
59
100
AcDbEntity
  8
0
  6
Continuous
 62
     7
100
AcDbLine
 10
-546.576515662421
 20
-455.8288900766073
 30
0.0
 11
-546.9598393324361
 21
-455.8288900766073
 31
0.0
  0
LINE
  5
260
330
59
100
AcDbEntity
  8
0
  6
Continuous
 62
     7
100
AcDbLine
 10
-546.9598393324361
 20
-455.8288900766073
 30
0.0
 11
-549.4680562448973
 21
-455.8288900766073
 31
0.0
  0
LINE
  5
261
330
59
100
AcDbEntity
  8
0
  6
Continuous
 62
     7
100
AcDbLine
 10
-544.4339447504451
 20
-455.8288900766074
 30
0.0
 11
-546.576515662421
 21
-455.8288900766073
 31
0.0
  0
LINE
  5
262
330
59
100
AcDbEntity
  8
0
  6
Continuous
 62
     7
100
AcDbLine
 10
-560.1010004976713
 20
-457.328890076607
 30
0.0
 11
-623.2010004976719
 21
-457.3288900766054
 31
0.0
  0
LINE
  5
263
330
59
100
AcDbEntity
  8
0
  6
Continuous
 62
     7
100
AcDbLine
 10
-636.3421616629062
 20
-455.828890076605
 30
0.0
 11
-636.7254853329214
 21
-455.828890076605
 31
0.0
  0
LINE
  5
264
330
59
100
AcDbEntity
  8
0
  6
Continuous
 62
     7
100
AcDbLine
 10
-636.7254853329214
 20
-455.828890076605
 30
0.0
 11
-638.8680562448969
 21
-455.828890076605
 31
0.0
  0
LINE
  5
265
330
59
100
AcDbEntity
  8
0
  6
Continuous
 62
     7
100
AcDbLine
 10
-628.4421616629064
 20
-455.8288900766053
 30
0.0
 11
-628.8254853329215
 21
-455.8288900766053
 31
0.0
  0
LINE
  5
266
330
59
100
AcDbEntity
  8
0
  6
Continuous
 62
     7
100
AcDbLine
 10
-628.8254853329215
 20
-455.8288900766053
 30
0.0
 11
-630.9680562448975
 21
-455.8288900766052
 31
0.0
  0
LINE
  5
267
330
59
100
AcDbEntity
  8
0
  6
Continuous
 62
     7
100
AcDbLine
 10
-623.2010004976719
 20
-457.3288900766054
 30
0.0
 11
-641.7010004976717
 21
-457.3288900766049
 31
0.0
  0
LINE
  5
268
330
59
100
AcDbEntity
  8
0
  6
Continuous
 62
     7
100
AcDbLine
 10
-633.8339447504457
 20
-455.8288900766052
 30
0.0
 11
-636.3421616629062
 21
-455.828890076605
 31
0.0
  0
LINE
  5
269
330
59
100
AcDbEntity
  8
0
  6
Continuous
 62
     7
100
AcDbLine
 10
-625.9339447504457
 20
-455.8288900766053
 30
0.0
 11
-628.4421616629064
 21
-455.8288900766053
 31
0.0
  0
LINE
  5
26A
330
59
100
AcDbEntity
  8
0
  6
Continuous
 62
     7
100
AcDbLine
 10
-638.8680562448961
 20
-427.878890076605
 30
0.0
 11
-638.8680562448969
 21
-455.828890076605
 31
0.0
  0
LINE
  5
26B
330
59
100
AcDbEntity
  8
0
  6
Continuous
 62
     7
100
AcDbLine
 10
-636.7254853329214
 20
-455.828890076605
 30
0.0
 11
-636.7254853329206
 21
-427.8788900766051
 31
0.0
  0
LINE
  5
26C
330
59
100
AcDbEntity
  8
1
  6
DOT_CENTER
 62
     2
100
AcDbLine
 10
-609.8510004976713
 20
-441.8288900766056
 30
0.0
 11
-620.8510004976713
 21
-441.8288900766056
 31
0.0
  0
LINE
  5
26D
330
59
100
AcDbEntity
  8
1
  6
DOT_CENTER
 62
     2
100
AcDbLine
 10
-615.3510004976713
 20
-436.3288900766056
 30
0.0
 11
-615.3510004976713
 21
-447.3288900766056
 31
0.0
  0
LINE
  5
26E
330
59
100
AcDbEntity
  8
1
  6
DOT_CENTER
 62
     2
100
AcDbLine
 10
-590.0010004976708
 20
-441.8288900766062
 30
0.0
 11
-593.3010004976708
 21
-441.8288900766062
 31
0.0
  0
LINE
  5
26F
330
59
100
AcDbEntity
  8
1
  6
DOT_CENTER
 62
     2
100
AcDbLine
 10
-591.6510004976708
 20
-440.1788900766062
 30
0.0
 11
-591.6510004976708
 21
-443.4788900766062
 31
0.0
  0
LINE
  5
270
330
59
100
AcDbEntity
  8
1
  6
DOT_CENTER
 62
     2
100
AcDbLine
 10
-562.4510004976712
 20
-441.8288900766067
 30
0.0
 11
-573.4510004976712
 21
-441.8288900766067
 31
0.0
  0
LINE
  5
271
330
59
100
AcDbEntity
  8
1
  6
DOT_CENTER
 62
     2
100
AcDbLine
 10
-567.9510004976712
 20
-436.3288900766067
 30
0.0
 11
-567.9510004976712
 21
-447.3288900766067
 31
0.0
  0
CIRCLE
  5
272
330
59
100
AcDbEntity
  8
0
  6
Continuous
 62
     7
100
AcDbCircle
 10
-591.6510004976708
 20
-441.8288900766062
 30
0.0
 40
1.5
  0
CIRCLE
  5
273
330
59
100
AcDbEntity
  8
0
  6
Continuous
 62
     7
100
AcDbCircle
 10
-567.9510004976712
 20
-441.8288900766067
 30
0.0
 40
5.0
  0
CIRCLE
  5
274
330
59
100
AcDbEntity
  8
0
  6
Continuous
 62
     7
100
AcDbCircle
 10
-615.3510004976713
 20
-441.8288900766056
 30
0.0
 40
4.999999999999892
  0
ENDBLK
  5
5B
330
59
100
AcDbEntity
  8
0
100
AcDbBlockEnd
  0
BLOCK
  5
5E
330
5C
100
AcDbEntity
  8
0
100
AcDbBlockBegin
  2
Drfsicht2
 70
     0
 10
-594.2020037629453
 20
-441.8288900765962
 30
0.0
  3
Drfsicht2
  1

  0
INSERT
  5
5D
330
5C
100
AcDbEntity
  8
0
100
AcDbBlockReference
  2
UKH_150_1500V-select__2
 10
-646.8030004976688
 20
-457.3288900766074
 30
0.0
  0
MTEXT
  5
275
330
5C
100
AcDbEntity
  8
1
 62
     6
100
AcDbMText
 10
-603.7495463753071
 20
-467.3288900766074
 30
0.0
 40
10.0
 41
0.0
 71
     2
 72
     1
  1
 
  7
CONVERTER_11
 73
     1
 44
1.32052821128451
  0
DIMENSION
  5
280
330
5C
100
AcDbEntity
  8
1
100
AcDbDimension
  2
*D17
 10
-655.8980922529446
 20
-426.328890076605
 30
0.0
 11
-662.3980922529446
 21
-440.9039738245521
 31
0.0
 70
    32
  1
<>
 71
     5
 42
-1.0
 53
90.0
  3
ME10_DIM_10
100
AcDbAlignedDimension
 13
-641.7010004976717
 23
-457.3288900766049
 33
0.0
 14
-641.7010004976707
 24
-426.3288900766049
 34
0.0
 50
90.0
100
AcDbRotatedDimension
  0
ENDBLK
  5
5F
330
5C
100
AcDbEntity
  8
0
100
AcDbBlockEnd
  0
BLOCK
  5
61
330
60
100
AcDbEntity
  8
0
100
AcDbBlockBegin
  2
UKH_150_1500V-select__3
 70
     0
 10
-414.3990015305358
 20
-319.4286569702218
 30
0.0
  3
UKH_150_1500V-select__3
  1

  0
LINE
  5
281
330
60
100
AcDbEntity
  8
0
  6
Continuous
 62
     7
100
AcDbLine
 10
-369.9490015305352
 20
-309.8355652318707
 30
0.0
 11
-369.9490015305352
 21
-311.9355652318707
 31
0.0
  0
LINE
  5
282
330
60
100
AcDbEntity
  8
0
  6
Continuous
 62
     7
100
AcDbLine
 10
-367.0990015305353
 20
-315.7855652318707
 30
0.0
 11
-367.0990015305352
 21
-309.8355652318708
 31
0.0
  0
LINE
  5
283
330
60
100
AcDbEntity
  8
0
  6
Continuous
 62
     7
100
AcDbLine
 10
-363.2990015305352
 20
-309.835565231871
 30
0.0
 11
-351.5490015305352
 21
-309.8355652318712
 31
0.0
  0
LINE
  5
284
330
60
100
AcDbEntity
  8
0
  6
Continuous
 62
     7
100
AcDbLine
 10
-365.9490015305352
 20
-309.8355652318708
 30
0.0
 11
-367.0990015305352
 21
-309.8355652318708
 31
0.0
  0
LINE
  5
285
330
60
100
AcDbEntity
  8
0
  6
Continuous
 62
     7
100
AcDbLine
 10
-367.0990015305352
 20
-309.8355652318708
 30
0.0
 11
-369.9490015305352
 21
-309.8355652318707
 31
0.0
  0
LINE
  5
286
330
60
100
AcDbEntity
  8
0
  6
Continuous
 62
     7
100
AcDbLine
 10
-395.899001530533
 20
-208.5855652318701
 30
0.0
 11
-332.7990015305324
 21
-208.5855652318716
 31
0.0
  0
LINE
  5
287
330
60
100
AcDbEntity
  8
0
  6
Continuous
 62
     7
100
AcDbLine
 10
-379.8990015305354
 20
-317.5355652318704
 30
0.0
 11
-379.8990015305353
 21
-315.8855652318704
 31
0.0
  0
LINE
  5
288
330
60
100
AcDbEntity
  8
0
  6
Continuous
 62
     7
100
AcDbLine
 10
-379.8990015305353
 20
-315.8855652318704
 30
0.0
 11
-380.8814876328236
 21
-315.8855652318704
 31
0.0
  0
LINE
  5
289
330
60
100
AcDbEntity
  8
0
  6
Continuous
 62
     7
100
AcDbLine
 10
-376.7490015305353
 20
-314.2768683106282
 30
0.0
 11
-376.7490015305354
 21
-319.0843115706229
 31
0.0
  0
LINE
  5
28A
330
60
100
AcDbEntity
  8
0
  6
Continuous
 62
     7
100
AcDbLine
 10
-380.8292376637857
 20
-317.6995909605923
 30
0.0
 11
-379.8990015305354
 21
-317.5355652318704
 31
0.0
  0
LINE
  5
28B
330
60
100
AcDbEntity
  8
0
  6
Continuous
 62
     7
100
AcDbLine
 10
-314.2990015305348
 20
-312.2855652318721
 30
0.0
 11
-310.1970015305352
 21
-312.2855652318722
 31
0.0
  0
LINE
  5
28C
330
60
100
AcDbEntity
  8
0
  6
Continuous
 62
     7
100
AcDbLine
 10
-369.9490015305352
 20
-311.9355652318707
 30
0.0
 11
-378.8990015305352
 21
-311.9355652318704
 31
0.0
  0
LINE
  5
28D
330
60
100
AcDbEntity
  8
0
  6
Continuous
 62
     7
100
AcDbLine
 10
-310.1970015305353
 20
-314.2855652318722
 30
0.0
 11
-314.2990015305349
 21
-314.2855652318721
 31
0.0
  0
LINE
  5
28E
330
60
100
AcDbEntity
  8
0
  6
Continuous
 62
     7
100
AcDbLine
 10
-314.2990015305346
 20
-304.1855652318722
 30
0.0
 11
-310.799001530535
 21
-304.1855652318722
 31
0.0
  0
LINE
  5
28F
330
60
100
AcDbEntity
  8
0
  6
Continuous
 62
     7
100
AcDbLine
 10
-363.8327277239397
 20
-311.9355652318709
 30
0.0
 11
-365.9490015305352
 21
-311.9355652318708
 31
0.0
  0
LINE
  5
290
330
60
100
AcDbEntity
  8
0
  6
Continuous
 62
     7
100
AcDbLine
 10
-351.5490015305353
 20
-311.9355652318711
 30
0.0
 11
-343.4970015305348
 21
-311.9355652318713
 31
0.0
  0
LINE
  5
291
330
60
100
AcDbEntity
  8
0
  6
Continuous
 62
     7
100
AcDbLine
 10
-314.2990015305349
 20
-315.8855652318721
 30
0.0
 11
-340.6970015305349
 21
-315.8855652318714
 31
0.0
  0
LINE
  5
292
330
60
100
AcDbEntity
  8
0
  6
Continuous
 62
     7
100
AcDbLine
 10
-310.7990015305351
 20
-306.1855652318722
 30
0.0
 11
-314.2990015305347
 21
-306.1855652318722
 31
0.0
  0
LINE
  5
293
330
60
100
AcDbEntity
  8
0
  6
Continuous
 62
     7
100
AcDbLine
 10
-414.3990015305339
 20
-227.0855652318703
 30
0.0
 11
-414.3990015305358
 21
-303.6861878464984
 31
0.0
  0
LINE
  5
294
330
60
100
AcDbEntity
  8
0
  6
Continuous
 62
     7
100
AcDbLine
 10
-378.8990015305352
 20
-311.9355652318704
 30
0.0
 11
-378.8990015305353
 21
-313.0355652318704
 31
0.0
  0
LINE
  5
295
330
60
100
AcDbEntity
  8
0
  6
Continuous
 62
     7
100
AcDbLine
 10
-378.8990015305353
 20
-313.0355652318704
 30
0.0
 11
-376.7490015305353
 21
-314.2768683106282
 31
0.0
  0
LINE
  5
296
330
60
100
AcDbEntity
  8
0
  6
Continuous
 62
     7
100
AcDbLine
 10
-340.6970015305349
 20
-315.8855652318714
 30
0.0
 11
-340.6970015305354
 21
-318.1855652318714
 31
0.0
  0
LINE
  5
297
330
60
100
AcDbEntity
  8
0
  6
Continuous
 62
     7
100
AcDbLine
 10
-363.6490015305352
 20
-309.8355652318709
 30
0.0
 11
-363.2990015305352
 21
-309.835565231871
 31
0.0
  0
LINE
  5
298
330
60
100
AcDbEntity
  8
0
  6
Continuous
 62
     7
100
AcDbLine
 10
-363.2990015305352
 20
-309.835565231871
 30
0.0
 11
-363.2990015305352
 21
-311.4855652318708
 31
0.0
  0
LINE
  5
299
330
60
100
AcDbEntity
  8
0
  6
Continuous
 62
     7
100
AcDbLine
 10
-361.2990015305352
 20
-312.0214636167331
 30
0.0
 11
-361.2990015305353
 21
-313.1214636167329
 31
0.0
  0
LINE
  5
29A
330
60
100
AcDbEntity
  8
0
  6
Continuous
 62
     7
100
AcDbLine
 10
-363.6490015305352
 20
-309.8355652318709
 30
0.0
 11
-363.8327277239397
 21
-311.9355652318709
 31
0.0
  0
LINE
  5
29B
330
60
100
AcDbEntity
  8
0
  6
Continuous
 62
     7
100
AcDbLine
 10
-342.5630269343196
 20
-318.6855652318716
 30
0.0
 11
-345.7970015305351
 21
-314.9018483744631
 31
0.0
  0
LINE
  5
29C
330
60
100
AcDbEntity
  8
0
  6
Continuous
 62
     7
100
AcDbLine
 10
-363.2990015305352
 20
-311.4855652318708
 30
0.0
 11
-361.2990015305352
 21
-312.0214636167331
 31
0.0
  0
LINE
  5
29D
330
60
100
AcDbEntity
  8
0
  6
Continuous
 62
     7
100
AcDbLine
 10
-365.9490015305352
 20
-311.9355652318708
 30
0.0
 11
-365.9490015305352
 21
-309.8355652318708
 31
0.0
  0
LINE
  5
29E
330
60
100
AcDbEntity
  8
0
  6
Continuous
 62
     7
100
AcDbLine
 10
-361.2990015305353
 20
-313.1214636167329
 30
0.0
 11
-364.0349082236424
 21
-316.8000845515932
 31
0.0
  0
LINE
  5
29F
330
60
100
AcDbEntity
  8
0
  6
Continuous
 62
     7
100
AcDbLine
 10
-314.2990015305346
 20
-304.1855652318722
 30
0.0
 11
-314.2990015305347
 21
-306.1855652318722
 31
0.0
  0
LINE
  5
2A0
330
60
100
AcDbEntity
  8
0
  6
Continuous
 62
     7
100
AcDbLine
 10
-314.2990015305326
 20
-227.0855652318722
 30
0.0
 11
-314.2990015305346
 21
-304.1855652318722
 31
0.0
  0
LINE
  5
2A1
330
60
100
AcDbEntity
  8
0
  6
Continuous
 62
     7
100
AcDbLine
 10
-314.2990015305347
 20
-306.1855652318722
 30
0.0
 11
-314.2990015305348
 21
-312.2855652318721
 31
0.0
  0
LINE
  5
2A2
330
60
100
AcDbEntity
  8
0
  6
Continuous
 62
     7
100
AcDbLine
 10
-314.2990015305348
 20
-312.2855652318721
 30
0.0
 11
-314.2990015305349
 21
-314.2855652318721
 31
0.0
  0
LINE
  5
2A3
330
60
100
AcDbEntity
  8
0
  6
Continuous
 62
     7
100
AcDbLine
 10
-314.2990015305349
 20
-314.2855652318721
 30
0.0
 11
-314.2990015305349
 21
-315.8855652318721
 31
0.0
  0
LINE
  5
2A4
330
60
100
AcDbEntity
  8
0
  6
Continuous
 62
     7
100
AcDbLine
 10
-340.6970015305349
 20
-315.8855652318714
 30
0.0
 11
-340.6970015305349
 21
-314.2855652318714
 31
0.0
  0
LINE
  5
2A5
330
60
100
AcDbEntity
  8
0
  6
Continuous
 62
     7
100
AcDbLine
 10
-345.7970015305351
 20
-314.9018483744631
 30
0.0
 11
-345.7970015305352
 21
-313.8018483744629
 31
0.0
  0
LINE
  5
2A6
330
60
100
AcDbEntity
  8
0
  6
Continuous
 62
     7
100
AcDbLine
 10
-343.4970015305349
 20
-314.2855652318714
 30
0.0
 11
-343.4970015305348
 21
-313.1855652318712
 31
0.0
  0
LINE
  5
2A7
330
60
100
AcDbEntity
  8
0
  6
Continuous
 62
     7
100
AcDbLine
 10
-351.5490015305353
 20
-311.9355652318711
 30
0.0
 11
-351.5490015305352
 21
-309.8355652318712
 31
0.0
  0
LINE
  5
2A8
330
60
100
AcDbEntity
  8
0
  6
Continuous
 62
     7
100
AcDbLine
 10
-343.4970015305348
 20
-313.1855652318712
 30
0.0
 11
-343.4970015305348
 21
-311.9355652318713
 31
0.0
  0
LINE
  5
2A9
330
60
100
AcDbEntity
  8
0
  6
Continuous
 62
     7
100
AcDbLine
 10
-340.6970015305349
 20
-314.2855652318714
 30
0.0
 11
-343.4970015305349
 21
-314.2855652318714
 31
0.0
  0
LINE
  5
2AA
330
60
100
AcDbEntity
  8
0
  6
Continuous
 62
     7
100
AcDbLine
 10
-345.7970015305352
 20
-313.8018483744629
 30
0.0
 11
-343.4970015305348
 21
-313.1855652318712
 31
0.0
  0
LINE
  5
2AB
330
60
100
AcDbEntity
  8
0
  6
Continuous
 62
     7
100
AcDbLine
 10
-332.7990015305324
 20
-208.5855652318716
 30
0.0
 11
-314.2990015305326
 21
-227.0855652318722
 31
0.0
  0
LINE
  5
2AC
330
60
100
AcDbEntity
  8
0
  6
Continuous
 62
     7
100
AcDbLine
 10
-414.3990015305339
 20
-227.0855652318703
 30
0.0
 11
-395.899001530533
 21
-208.5855652318701
 31
0.0
  0
LINE
  5
2AD
330
60
100
AcDbEntity
  8
0
  6
Continuous
 62
     7
100
AcDbLine
 10
-380.8814876328236
 20
-315.8855652318704
 30
0.0
 11
-414.3990015305358
 21
-303.6861878464984
 31
0.0
  0
ARC
  5
2AE
330
60
100
AcDbEntity
  8
0
  6
Continuous
 62
     7
100
AcDbCircle
 10
-341.6970015305354
 20
-318.1855652318714
 30
0.0
 40
0.9999999999999212
100
AcDbArc
 50
210.0000000000139
 51
0.0
  0
ARC
  5
2AF
330
60
100
AcDbEntity
  8
0
  6
Continuous
 62
     7
100
AcDbCircle
 10
-380.6990015305354
 20
-318.4381967753515
 30
0.0
 40
0.7500000000001034
100
AcDbArc
 50
100.0000000000082
 51
257.9929547286821
  0
ARC
  5
2B0
330
60
100
AcDbEntity
  8
0
  6
Continuous
 62
     7
100
AcDbCircle
 10
-378.9490015305352
 20
-312.2286569702218
 30
0.0
 40
7.200000000000045
100
AcDbArc
 50
254.6493543073399
 51
287.7915905730061
  0
ARC
  5
2B1
330
60
100
AcDbEntity
  8
0
  6
Continuous
 62
     7
100
AcDbCircle
 10
-365.3990015305353
 20
-315.7855652318708
 30
0.0
 40
1.699999999999989
100
AcDbArc
 50
179.9999999999962
 51
323.3606520378042
  0
ARC
  5
2B2
330
60
100
AcDbEntity
  8
0
  6
Continuous
 62
     7
100
AcDbCircle
 10
-310.1970015305353
 20
-313.2855652318722
 30
0.0
 40
1.0
100
AcDbArc
 50
270.0
 51
89.99999999999349
  0
ARC
  5
2B3
330
60
100
AcDbEntity
  8
0
  6
Continuous
 62
     7
100
AcDbCircle
 10
-310.7990015305351
 20
-305.1855652318722
 30
0.0
 40
1.0
100
AcDbArc
 50
270.0
 51
89.99999999999349
  0
ENDBLK
  5
62
330
60
100
AcDbEntity
  8
0
100
AcDbBlockEnd
  0
BLOCK
  5
65
330
63
100
AcDbEntity
  8
0
100
AcDbBlockBegin
  2
Rckans2
 70
     0
 10
-361.7979982652606
 20
-264.0000040517558
 30
0.0
  3
Rckans2
  1

  0
INSERT
  5
64
330
63
100
AcDbEntity
  8
0
100
AcDbBlockReference
  2
UKH_150_1500V-select__3
 10
-414.3990015305358
 20
-319.4286569702218
 30
0.0
  0
MTEXT
  5
2B4
330
63
100
AcDbEntity
  8
1
 62
     6
100
AcDbMText
 10
-361.7980015305355
 20
-329.4286569702218
 30
0.0
 40
10.0
 41
0.0
 71
     2
 72
     1
  1
 
  7
CONVERTER_11
 73
     1
 44
1.32052821128451
  0
ENDBLK
  5
66
330
63
100
AcDbEntity
  8
0
100
AcDbBlockEnd
  0
BLOCK
  5
68
330
67
100
AcDbEntity
  8
0
100
AcDbBlockBegin
  2
UKH_150_1500V-select__4
 70
     0
 10
-497.4999999999845
 20
-319.4286569702241
 30
0.0
  3
UKH_150_1500V-select__4
  1

  0
LINE
  5
2B5
330
67
100
AcDbEntity
  8
0
  6
Continuous
 62
     7
100
AcDbLine
 10
-497.4999999999845
 20
-227.0855652318745
 30
0.0
 11
-497.4999999999845
 21
-315.8855652318744
 31
0.0
  0
LINE
  5
2B6
330
67
100
AcDbEntity
  8
0
  6
Continuous
 62
     7
100
AcDbLine
 10
-497.499999999984
 20
-208.5855652318739
 30
0.0
 11
-497.4999999999845
 21
-227.0855652318745
 31
0.0
  0
LINE
  5
2B7
330
67
100
AcDbEntity
  8
0
  6
Continuous
 62
     7
100
AcDbLine
 10
-497.499999999983
 20
-319.0843115706252
 30
0.0
 11
-497.4999999999828
 21
-319.4286569702241
 31
0.0
  0
LINE
  5
2B8
330
67
100
AcDbEntity
  8
0
  6
Continuous
 62
     7
100
AcDbLine
 10
-466.499999999984
 20
-208.5855652318739
 30
0.0
 11
-466.4999999999845
 21
-227.0855652318745
 31
0.0
  0
LINE
  5
2B9
330
67
100
AcDbEntity
  8
0
  6
Continuous
 62
     7
100
AcDbLine
 10
-467.9999999999841
 20
-211.3185094846479
 30
0.0
 11
-495.9499999999841
 21
-211.3185094846478
 31
0.0
  0
LINE
  5
2BA
330
67
100
AcDbEntity
  8
0
  6
Continuous
 62
     7
100
AcDbLine
 10
-487.8999999999843
 20
-263.6855652318741
 30
0.0
 11
-476.0999999999843
 21
-263.6855652318741
 31
0.0
  0
LINE
  5
2BB
330
67
100
AcDbEntity
  8
0
  6
Continuous
 62
     7
100
AcDbLine
 10
-481.9999999999845
 20
-299.993786750113
 30
0.0
 11
-481.9999999999842
 21
-291.7840547733841
 31
0.0
  0
LINE
  5
2BC
330
67
100
AcDbEntity
  8
0
  6
Continuous
 62
     7
100
AcDbLine
 10
-476.9999999999838
 20
-319.1855652318736
 30
0.0
 11
-476.9999999999838
 21
-318.1855652318737
 31
0.0
  0
LINE
  5
2BD
330
67
100
AcDbEntity
  8
0
  6
Continuous
 62
     7
100
AcDbLine
 10
-486.9999999999847
 20
-306.1855652318744
 30
0.0
 11
-476.9999999999847
 21
-306.1855652318744
 31
0.0
  0
LINE
  5
2BE
330
67
100
AcDbEntity
  8
0
  6
Continuous
 62
     7
100
AcDbLine
 10
-476.9999999999838
 20
-319.1855652318736
 30
0.0
 11
-486.9999999999838
 21
-319.1855652318736
 31
0.0
  0
LINE
  5
2BF
330
67
100
AcDbEntity
  8
0
  6
Continuous
 62
     7
100
AcDbLine
 10
-476.0999999999845
 20
-261.6855652318743
 30
0.0
 11
-487.8999999999844
 21
-261.6855652318742
 31
0.0
  0
LINE
  5
2C0
330
67
100
AcDbEntity
  8
0
  6
Continuous
 62
     7
100
AcDbLine
 10
-481.9999999999842
 20
-291.7840547733841
 30
0.0
 11
-482.0152229999841
 21
-291.7752657702362
 31
0.0
  0
LINE
  5
2C1
330
67
100
AcDbEntity
  8
0
  6
Continuous
 62
     7
100
AcDbLine
 10
-466.499999999983
 20
-319.0843115706252
 30
0.0
 11
-466.4999999999828
 21
-319.4286569702241
 31
0.0
  0
LINE
  5
2C2
330
67
100
AcDbEntity
  8
0
  6
Continuous
 62
     7
100
AcDbLine
 10
-486.9999999999838
 20
-315.8855652318737
 30
0.0
 11
-486.9999999999838
 21
-318.1855652318737
 31
0.0
  0
LINE
  5
2C3
330
67
100
AcDbEntity
  8
0
  6
Continuous
 62
     7
100
AcDbLine
 10
-466.499999999983
 20
-319.0843115706252
 30
0.0
 11
-476.9999999999847
 21
-319.0843115706252
 31
0.0
  0
LINE
  5
2C4
330
67
100
AcDbEntity
  8
0
  6
Continuous
 62
     7
100
AcDbLine
 10
-486.9999999999838
 20
-315.8855652318737
 30
0.0
 11
-476.9999999999838
 21
-315.8855652318737
 31
0.0
  0
LINE
  5
2C5
330
67
100
AcDbEntity
  8
0
  6
Continuous
 62
     7
100
AcDbLine
 10
-476.9999999999838
 20
-318.1855652318737
 30
0.0
 11
-476.9999999999838
 21
-315.8855652318737
 31
0.0
  0
LINE
  5
2C6
330
67
100
AcDbEntity
  8
0
  6
Continuous
 62
     7
100
AcDbLine
 10
-476.9999999999838
 20
-315.8855652318737
 30
0.0
 11
-466.4999999999845
 21
-315.8855652318744
 31
0.0
  0
LINE
  5
2C7
330
67
100
AcDbEntity
  8
0
  6
Continuous
 62
     2
100
AcDbLine
 10
-476.9999999999838
 20
-318.1855652318737
 30
0.0
 11
-486.9999999999838
 21
-318.1855652318737
 31
0.0
  0
LINE
  5
2C8
330
67
100
AcDbEntity
  8
0
  6
Continuous
 62
     7
100
AcDbLine
 10
-497.4999999999845
 20
-315.8855652318744
 30
0.0
 11
-497.499999999983
 21
-319.0843115706252
 31
0.0
  0
LINE
  5
2C9
330
67
100
AcDbEntity
  8
0
  6
Continuous
 62
     7
100
AcDbLine
 10
-466.4999999999845
 20
-315.8855652318744
 30
0.0
 11
-466.4999999999845
 21
-227.0855652318745
 31
0.0
  0
LINE
  5
2CA
330
67
100
AcDbEntity
  8
0
  6
Continuous
 62
     7
100
AcDbLine
 10
-466.499999999983
 20
-319.0843115706252
 30
0.0
 11
-466.4999999999845
 21
-315.8855652318744
 31
0.0
  0
LINE
  5
2CB
330
67
100
AcDbEntity
  8
0
  6
Continuous
 62
     7
100
AcDbLine
 10
-486.9999999999847
 20
-314.2855652318744
 30
0.0
 11
-476.9999999999847
 21
-314.2855652318744
 31
0.0
  0
LINE
  5
2CC
330
67
100
AcDbEntity
  8
0
  6
Continuous
 62
     7
100
AcDbLine
 10
-486.9999999999847
 20
-314.2855652318744
 30
0.0
 11
-486.9999999999847
 21
-312.2855652318744
 31
0.0
  0
LINE
  5
2CD
330
67
100
AcDbEntity
  8
0
  6
Continuous
 62
     7
100
AcDbLine
 10
-476.9999999999847
 20
-314.2855652318744
 30
0.0
 11
-476.9999999999847
 21
-312.2855652318744
 31
0.0
  0
LINE
  5
2CE
330
67
100
AcDbEntity
  8
0
  6
Continuous
 62
     7
100
AcDbLine
 10
-486.9999999999847
 20
-312.2855652318744
 30
0.0
 11
-476.9999999999847
 21
-312.2855652318744
 31
0.0
  0
LINE
  5
2CF
330
67
100
AcDbEntity
  8
0
  6
Continuous
 62
     7
100
AcDbLine
 10
-486.9999999999847
 20
-319.0843115706252
 30
0.0
 11
-497.499999999983
 21
-319.0843115706252
 31
0.0
  0
LINE
  5
2D0
330
67
100
AcDbEntity
  8
0
  6
Continuous
 62
     7
100
AcDbLine
 10
-497.4999999999845
 20
-315.8855652318744
 30
0.0
 11
-486.9999999999838
 21
-315.8855652318737
 31
0.0
  0
LINE
  5
2D1
330
67
100
AcDbEntity
  8
0
  6
Continuous
 62
     7
100
AcDbLine
 10
-497.4999999999828
 20
-319.4286569702241
 30
0.0
 11
-466.4999999999828
 21
-319.4286569702241
 31
0.0
  0
LINE
  5
2D2
330
67
100
AcDbEntity
  8
0
  6
Continuous
 62
     7
100
AcDbLine
 10
-479.3999999999845
 20
-245.1793474492253
 30
0.0
 11
-479.3999999999845
 21
-251.4917830145235
 31
0.0
  0
LINE
  5
2D3
330
67
100
AcDbEntity
  8
0
  6
Continuous
 62
     7
100
AcDbLine
 10
-484.5999999999845
 20
-245.1793474492253
 30
0.0
 11
-479.3999999999845
 21
-245.1793474492253
 31
0.0
  0
LINE
  5
2D4
330
67
100
AcDbEntity
  8
0
  6
Continuous
 62
     7
100
AcDbLine
 10
-484.5999999999845
 20
-251.4917830145235
 30
0.0
 11
-484.5999999999845
 21
-245.1793474492253
 31
0.0
  0
LINE
  5
2D5
330
67
100
AcDbEntity
  8
0
  6
Continuous
 62
     7
100
AcDbLine
 10
-479.3999999999845
 20
-251.4917830145235
 30
0.0
 11
-484.5999999999845
 21
-251.4917830145235
 31
0.0
  0
LINE
  5
2D6
330
67
100
AcDbEntity
  8
0
  6
Continuous
 62
     7
100
AcDbLine
 10
-467.9999999999842
 20
-221.744404066639
 30
0.0
 11
-495.9499999999843
 21
-221.744404066639
 31
0.0
  0
LINE
  5
2D7
330
67
100
AcDbEntity
  8
0
  6
Continuous
 62
     7
100
AcDbLine
 10
-467.9999999999822
 20
-221.3610803966217
 30
0.0
 11
-495.9499999999822
 21
-221.3610803966217
 31
0.0
  0
LINE
  5
2D8
330
67
100
AcDbEntity
  8
0
  6
Continuous
 62
     7
100
AcDbLine
 10
-467.9999999999822
 20
-221.3610803966217
 30
0.0
 11
-467.9999999999842
 21
-221.744404066639
 31
0.0
  0
LINE
  5
2D9
330
67
100
AcDbEntity
  8
0
  6
Continuous
 62
     7
100
AcDbLine
 10
-467.9999999999843
 20
-219.2185094846482
 30
0.0
 11
-467.9999999999822
 21
-221.3610803966217
 31
0.0
  0
LINE
  5
2DA
330
67
100
AcDbEntity
  8
0
  6
Continuous
 62
     7
100
AcDbLine
 10
-467.9999999999842
 20
-221.744404066639
 30
0.0
 11
-467.9999999999844
 21
-224.2526209790997
 31
0.0
  0
LINE
  5
2DB
330
67
100
AcDbEntity
  8
0
  6
Continuous
 62
     7
100
AcDbLine
 10
-495.9499999999844
 20
-224.2526209790997
 30
0.0
 11
-467.9999999999844
 21
-224.2526209790997
 31
0.0
  0
LINE
  5
2DC
330
67
100
AcDbEntity
  8
0
  6
Continuous
 62
     7
100
AcDbLine
 10
-467.9999999999843
 20
-219.2185094846482
 30
0.0
 11
-495.9499999999843
 21
-219.218509484648
 31
0.0
  0
LINE
  5
2DD
330
67
100
AcDbEntity
  8
0
  6
Continuous
 62
     7
100
AcDbLine
 10
-497.4999999999845
 20
-227.0855652318745
 30
0.0
 11
-466.4999999999845
 21
-227.0855652318745
 31
0.0
  0
LINE
  5
2DE
330
67
100
AcDbEntity
  8
0
  6
Continuous
 62
     7
100
AcDbLine
 10
-467.5326859021642
 20
-257.0233869984503
 30
0.0
 11
-496.4673140978047
 21
-257.0233869984503
 31
0.0
  0
LINE
  5
2DF
330
67
100
AcDbEntity
  8
0
  6
Continuous
 62
     7
100
AcDbLine
 10
-487.8999999999844
 20
-261.6855652318742
 30
0.0
 11
-487.8999999999843
 21
-263.6855652318741
 31
0.0
  0
LINE
  5
2E0
330
67
100
AcDbEntity
  8
0
  6
Continuous
 62
     7
100
AcDbLine
 10
-486.9999999999847
 20
-306.1855652318744
 30
0.0
 11
-486.9999999999847
 21
-304.1855652318744
 31
0.0
  0
LINE
  5
2E1
330
67
100
AcDbEntity
  8
0
  6
Continuous
 62
     7
100
AcDbLine
 10
-486.9999999999838
 20
-319.1855652318736
 30
0.0
 11
-486.9999999999838
 21
-318.1855652318737
 31
0.0
  0
LINE
  5
2E2
330
67
100
AcDbEntity
  8
0
  6
Continuous
 62
     7
100
AcDbLine
 10
-492.5152229999842
 20
-285.7130879437629
 30
0.0
 11
-492.5152229999842
 21
-271.8539503497838
 31
0.0
  0
LINE
  5
2E3
330
67
100
AcDbEntity
  8
0
  6
Continuous
 62
     7
100
AcDbLine
 10
-492.5152229999842
 20
-271.8539503497838
 30
0.0
 11
-492.5152229999843
 21
-268.3105652318741
 31
0.0
  0
LINE
  5
2E4
330
67
100
AcDbEntity
  8
0
  6
Continuous
 62
     7
100
AcDbLine
 10
-495.9499999999843
 20
-221.744404066639
 30
0.0
 11
-495.9499999999822
 21
-221.3610803966217
 31
0.0
  0
LINE
  5
2E5
330
67
100
AcDbEntity
  8
0
  6
Continuous
 62
     7
100
AcDbLine
 10
-495.9499999999822
 20
-221.3610803966217
 30
0.0
 11
-495.9499999999843
 21
-219.218509484648
 31
0.0
  0
LINE
  5
2E6
330
67
100
AcDbEntity
  8
0
  6
Continuous
 62
     7
100
AcDbLine
 10
-495.9499999999824
 20
-213.461080396622
 30
0.0
 11
-495.9499999999841
 21
-211.3185094846478
 31
0.0
  0
LINE
  5
2E7
330
67
100
AcDbEntity
  8
0
  6
Continuous
 62
     7
100
AcDbLine
 10
-495.9499999999844
 20
-224.2526209790997
 30
0.0
 11
-495.9499999999843
 21
-221.744404066639
 31
0.0
  0
LINE
  5
2E8
330
67
100
AcDbEntity
  8
0
  6
Continuous
 62
     7
100
AcDbLine
 10
-496.4673140978047
 20
-257.0233869984503
 30
0.0
 11
-496.4673140978048
 21
-291.6410790612857
 31
0.0
  0
LINE
  5
2E9
330
67
100
AcDbEntity
  8
0
  6
Continuous
 62
     7
100
AcDbLine
 10
-492.5152229999842
 20
-271.8539503497838
 30
0.0
 11
-496.4673140978047
 21
-257.0233869984503
 31
0.0
  0
LINE
  5
2EA
330
67
100
AcDbEntity
  8
0
  6
Continuous
 62
     7
100
AcDbLine
 10
-492.6571642275649
 20
-285.6311381378104
 30
0.0
 11
-496.4673140978048
 21
-291.6410790612857
 31
0.0
  0
LINE
  5
2EB
330
67
100
AcDbEntity
  8
0
  6
Continuous
 62
     7
100
AcDbLine
 10
-467.999999999984
 20
-213.8444040666388
 30
0.0
 11
-495.9499999999841
 21
-213.8444040666387
 31
0.0
  0
LINE
  5
2EC
330
67
100
AcDbEntity
  8
0
  6
Continuous
 62
     7
100
AcDbLine
 10
-495.9499999999841
 20
-213.8444040666387
 30
0.0
 11
-495.9499999999824
 21
-213.461080396622
 31
0.0
  0
LINE
  5
2ED
330
67
100
AcDbEntity
  8
0
  6
Continuous
 62
     7
100
AcDbLine
 10
-495.9499999999842
 20
-216.3526209791
 30
0.0
 11
-495.9499999999841
 21
-213.8444040666387
 31
0.0
  0
LINE
  5
2EE
330
67
100
AcDbEntity
  8
0
  6
Continuous
 62
     7
100
AcDbLine
 10
-467.9999999999824
 20
-213.461080396622
 30
0.0
 11
-495.9499999999824
 21
-213.461080396622
 31
0.0
  0
LINE
  5
2EF
330
67
100
AcDbEntity
  8
0
  6
Continuous
 62
     7
100
AcDbLine
 10
-467.9999999999824
 20
-213.461080396622
 30
0.0
 11
-467.999999999984
 21
-213.8444040666388
 31
0.0
  0
LINE
  5
2F0
330
67
100
AcDbEntity
  8
0
  6
Continuous
 62
     7
100
AcDbLine
 10
-467.9999999999841
 20
-211.3185094846479
 30
0.0
 11
-467.9999999999824
 21
-213.461080396622
 31
0.0
  0
LINE
  5
2F1
330
67
100
AcDbEntity
  8
0
  6
Continuous
 62
     7
100
AcDbLine
 10
-467.999999999984
 20
-213.8444040666388
 30
0.0
 11
-467.9999999999842
 21
-216.3526209791
 31
0.0
  0
LINE
  5
2F2
330
67
100
AcDbEntity
  8
0
  6
Continuous
 62
     7
100
AcDbLine
 10
-495.9499999999842
 20
-216.3526209791
 30
0.0
 11
-467.9999999999842
 21
-216.3526209791
 31
0.0
  0
LINE
  5
2F3
330
67
100
AcDbEntity
  8
0
  6
Continuous
 62
     7
100
AcDbLine
 10
-497.499999999984
 20
-208.5855652318739
 30
0.0
 11
-466.499999999984
 21
-208.5855652318739
 31
0.0
  0
LINE
  5
2F4
330
67
100
AcDbEntity
  8
0
  6
Continuous
 62
     7
100
AcDbLine
 10
-492.5152229999842
 20
-285.7130879437629
 30
0.0
 11
-492.6571642275649
 21
-285.6311381378104
 31
0.0
  0
LINE
  5
2F5
330
67
100
AcDbEntity
  8
0
  6
Continuous
 62
     7
100
AcDbLine
 10
-471.5152229999843
 20
-268.3105652318741
 30
0.0
 11
-492.5152229999843
 21
-268.3105652318741
 31
0.0
  0
LINE
  5
2F6
330
67
100
AcDbEntity
  8
0
  6
Continuous
 62
     7
100
AcDbLine
 10
-486.9999999999847
 20
-304.1855652318744
 30
0.0
 11
-476.9999999999847
 21
-304.1855652318744
 31
0.0
  0
LINE
  5
2F7
330
67
100
AcDbEntity
  8
0
  6
Continuous
 62
     7
100
AcDbLine
 10
-481.9999999999845
 20
-299.993786750113
 30
0.0
 11
-496.4673140978048
 21
-291.6410790612857
 31
0.0
  0
LINE
  5
2F8
330
67
100
AcDbEntity
  8
0
  6
Continuous
 62
     7
100
AcDbLine
 10
-482.0152229999841
 20
-291.7752657702362
 30
0.0
 11
-492.5152229999842
 21
-285.7130879437629
 31
0.0
  0
LINE
  5
2F9
330
67
100
AcDbEntity
  8
0
  6
Continuous
 62
     7
100
AcDbLine
 10
-482.0152229999841
 20
-291.7752657702362
 30
0.0
 11
-471.5152229999842
 21
-285.713087943763
 31
0.0
  0
LINE
  5
2FA
330
67
100
AcDbEntity
  8
0
  6
Continuous
 62
     7
100
AcDbLine
 10
-471.5152229999842
 20
-285.713087943763
 30
0.0
 11
-471.3509937535162
 21
-285.6182701441061
 31
0.0
  0
LINE
  5
2FB
330
67
100
AcDbEntity
  8
0
  6
Continuous
 62
     7
100
AcDbLine
 10
-471.5152229999843
 20
-268.3105652318741
 30
0.0
 11
-471.5152229999842
 21
-271.9682015956738
 31
0.0
  0
LINE
  5
2FC
330
67
100
AcDbEntity
  8
0
  6
Continuous
 62
     7
100
AcDbLine
 10
-471.5152229999842
 20
-285.713087943763
 30
0.0
 11
-471.5152229999842
 21
-271.9682015956738
 31
0.0
  0
LINE
  5
2FD
330
67
100
AcDbEntity
  8
0
  6
Continuous
 62
     7
100
AcDbLine
 10
-467.5326859021642
 20
-291.6410790612856
 30
0.0
 11
-467.5326859021642
 21
-257.0233869984503
 31
0.0
  0
LINE
  5
2FE
330
67
100
AcDbEntity
  8
0
  6
Continuous
 62
     7
100
AcDbLine
 10
-476.0999999999843
 20
-263.6855652318741
 30
0.0
 11
-476.0999999999845
 21
-261.6855652318743
 31
0.0
  0
LINE
  5
2FF
330
67
100
AcDbEntity
  8
0
  6
Continuous
 62
     7
100
AcDbLine
 10
-476.9999999999847
 20
-306.1855652318744
 30
0.0
 11
-476.9999999999847
 21
-304.1855652318744
 31
0.0
  0
LINE
  5
300
330
67
100
AcDbEntity
  8
0
  6
Continuous
 62
     7
100
AcDbLine
 10
-467.5326859021642
 20
-291.6410790612856
 30
0.0
 11
-471.3509937535162
 21
-285.6182701441061
 31
0.0
  0
LINE
  5
301
330
67
100
AcDbEntity
  8
0
  6
Continuous
 62
     7
100
AcDbLine
 10
-471.5152229999842
 20
-271.9682015956738
 30
0.0
 11
-467.5326859021642
 21
-257.0233869984503
 31
0.0
  0
LINE
  5
302
330
67
100
AcDbEntity
  8
0
  6
Continuous
 62
     7
100
AcDbLine
 10
-481.9999999999845
 20
-299.993786750113
 30
0.0
 11
-467.5326859021642
 21
-291.6410790612856
 31
0.0
  0
ENDBLK
  5
69
330
67
100
AcDbEntity
  8
0
100
AcDbBlockEnd
  0
BLOCK
  5
6C
330
6A
100
AcDbEntity
  8
0
100
AcDbBlockBegin
  2
SA_Links2
 70
     0
 10
-481.9999999999932
 20
-264.000004051758
 30
0.0
  3
SA_Links2
  1

  0
INSERT
  5
6B
330
6A
100
AcDbEntity
  8
0
100
AcDbBlockReference
  2
UKH_150_1500V-select__4
 10
-497.4999999999845
 20
-319.4286569702241
 30
0.0
  0
MTEXT
  5
303
330
6A
100
AcDbEntity
  8
1
 62
     6
100
AcDbMText
 10
-481.9999999999836
 20
-329.4286569702241
 30
0.0
 40
10.0
 41
0.0
 71
     2
 72
     1
  1
 
  7
CONVERTER_11
 73
     1
 44
1.32052821128451
  0
ENDBLK
  5
6D
330
6A
100
AcDbEntity
  8
0
100
AcDbBlockEnd
  0
BLOCK
  5
6F
330
6E
100
AcDbEntity
  8
0
100
AcDbBlockBegin
  2
UKH_150_1500V-select__5
 70
     0
 10
-763.9040017394211
 20
-319.4286569702239
 30
0.0
  3
UKH_150_1500V-select__5
  1

  0
LINE
  5
304
330
6E
100
AcDbEntity
  8
0
  6
Continuous
 62
     7
100
AcDbLine
 10
-763.9040017394211
 20
-303.6861878465004
 30
0.0
 11
-763.9040017394203
 21
-315.8855652318724
 31
0.0
  0
LINE
  5
305
330
6E
100
AcDbEntity
  8
0
  6
Continuous
 62
     7
100
AcDbLine
 10
-763.9040017394203
 20
-317.5355652318725
 30
0.0
 11
-763.9040017394203
 21
-317.6995909605944
 31
0.0
  0
LINE
  5
306
330
6E
100
AcDbEntity
  8
0
  6
Continuous
 62
     7
100
AcDbLine
 10
-763.9040017394203
 20
-319.1717882962457
 30
0.0
 11
-763.9040017394203
 21
-317.6995909605944
 31
0.0
  0
LINE
  5
307
330
6E
100
AcDbEntity
  8
0
  6
Continuous
 62
     7
100
AcDbLine
 10
-763.9040017394203
 20
-319.4286569702239
 30
0.0
 11
-763.9040017394203
 21
-319.1717882962457
 31
0.0
  0
LINE
  5
308
330
6E
100
AcDbEntity
  8
0
  6
Continuous
 62
     7
100
AcDbLine
 10
-762.3540017394206
 20
-312.4032749571767
 30
0.0
 11
-762.3540017394209
 21
-308.2358157748284
 31
0.0
  0
LINE
  5
309
330
6E
100
AcDbEntity
  8
0
  6
Continuous
 62
     7
100
AcDbLine
 10
-762.4040017394209
 20
-221.3610803966215
 30
0.0
 11
-762.404001739421
 21
-219.2185094846456
 31
0.0
  0
LINE
  5
30A
330
6E
100
AcDbEntity
  8
0
  6
Continuous
 62
     7
100
AcDbLine
 10
-762.4040017394208
 20
-213.4610803966218
 30
0.0
 11
-762.4040017394208
 21
-211.3185094846457
 31
0.0
  0
LINE
  5
30B
330
6E
100
AcDbEntity
  8
0
  6
Continuous
 62
     7
100
AcDbLine
 10
-763.9040017394211
 20
-227.0855652318724
 30
0.0
 11
-763.9040017394207
 21
-208.5855652318721
 31
0.0
  0
LINE
  5
30C
330
6E
100
AcDbEntity
  8
0
  6
Continuous
 62
     7
100
AcDbLine
 10
-734.4540017394206
 20
-312.4032749571768
 30
0.0
 11
-762.3540017394206
 21
-312.4032749571767
 31
0.0
  0
LINE
  5
30D
330
6E
100
AcDbEntity
  8
0
  6
Continuous
 62
     7
100
AcDbLine
 10
-732.9040017394203
 20
-319.1717882962457
 30
0.0
 11
-763.9040017394203
 21
-319.1717882962457
 31
0.0
  0
LINE
  5
30E
330
6E
100
AcDbEntity
  8
0
  6
Continuous
 62
     7
100
AcDbLine
 10
-763.9040017394203
 20
-315.8855652318724
 30
0.0
 11
-732.9040017394193
 21
-315.8855652318734
 31
0.0
  0
LINE
  5
30F
330
6E
100
AcDbEntity
  8
0
  6
Continuous
 62
     7
100
AcDbLine
 10
-763.9040017394203
 20
-315.8855652318724
 30
0.0
 11
-763.9040017394203
 21
-317.5355652318725
 31
0.0
  0
LINE
  5
310
330
6E
100
AcDbEntity
  8
0
  6
Continuous
 62
     7
100
AcDbLine
 10
-732.9040017394203
 20
-317.5355652318725
 30
0.0
 11
-763.9040017394203
 21
-317.5355652318725
 31
0.0
  0
LINE
  5
311
330
6E
100
AcDbEntity
  8
0
  6
Continuous
 62
     7
100
AcDbLine
 10
-732.9040017394193
 20
-315.8855652318734
 30
0.0
 11
-732.9040017394211
 21
-303.6861878465004
 31
0.0
  0
LINE
  5
312
330
6E
100
AcDbEntity
  8
0
  6
Continuous
 62
     2
100
AcDbLine
 10
-732.9040017394203
 20
-317.6995909605944
 30
0.0
 11
-763.9040017394203
 21
-317.6995909605944
 31
0.0
  0
LINE
  5
313
330
6E
100
AcDbEntity
  8
0
  6
Continuous
 62
     7
100
AcDbLine
 10
-732.9040017394203
 20
-317.5355652318725
 30
0.0
 11
-732.9040017394193
 21
-315.8855652318734
 31
0.0
  0
LINE
  5
314
330
6E
100
AcDbEntity
  8
0
  6
Continuous
 62
     7
100
AcDbLine
 10
-732.9040017394203
 20
-317.6995909605944
 30
0.0
 11
-732.9040017394203
 21
-317.5355652318725
 31
0.0
  0
LINE
  5
315
330
6E
100
AcDbEntity
  8
0
  6
Continuous
 62
     7
100
AcDbLine
 10
-732.9040017394203
 20
-319.4286569702239
 30
0.0
 11
-763.9040017394203
 21
-319.4286569702239
 31
0.0
  0
LINE
  5
316
330
6E
100
AcDbEntity
  8
0
  6
Continuous
 62
     7
100
AcDbLine
 10
-732.9040017394203
 20
-319.1717882962457
 30
0.0
 11
-732.9040017394203
 21
-317.6995909605944
 31
0.0
  0
LINE
  5
317
330
6E
100
AcDbEntity
  8
0
  6
Continuous
 62
     7
100
AcDbLine
 10
-732.9040017394203
 20
-319.4286569702239
 30
0.0
 11
-732.9040017394203
 21
-319.1717882962457
 31
0.0
  0
LINE
  5
318
330
6E
100
AcDbEntity
  8
0
  6
Continuous
 62
     7
100
AcDbLine
 10
-734.4540017394208
 20
-308.2358157748284
 30
0.0
 11
-734.4540017394206
 21
-312.4032749571768
 31
0.0
  0
LINE
  5
319
330
6E
100
AcDbEntity
  8
0
  6
Continuous
 62
     7
100
AcDbLine
 10
-734.4540017394211
 20
-221.7444040666368
 30
0.0
 11
-734.4540017394211
 21
-224.2526209790976
 31
0.0
  0
LINE
  5
31A
330
6E
100
AcDbEntity
  8
0
  6
Continuous
 62
     7
100
AcDbLine
 10
-734.4540017394206
 20
-213.844404066637
 30
0.0
 11
-734.4540017394208
 21
-216.3526209790978
 31
0.0
  0
LINE
  5
31B
330
6E
100
AcDbEntity
  8
0
  6
Continuous
 62
     7
100
AcDbLine
 10
-732.9040017394211
 20
-227.0855652318724
 30
0.0
 11
-732.9040017394207
 21
-208.5855652318721
 31
0.0
  0
LINE
  5
31C
330
6E
100
AcDbEntity
  8
0
  6
Continuous
 62
     7
100
AcDbLine
 10
-762.8713158372404
 20
-291.6410790612837
 30
0.0
 11
-759.0530079858888
 21
-285.618270144104
 31
0.0
  0
LINE
  5
31D
330
6E
100
AcDbEntity
  8
0
  6
Continuous
 62
     7
100
AcDbLine
 10
-762.8713158372404
 20
-257.0233869984476
 30
0.0
 11
-762.8713158372404
 21
-291.6410790612837
 31
0.0
  0
LINE
  5
31E
330
6E
100
AcDbEntity
  8
0
  6
Continuous
 62
     7
100
AcDbLine
 10
-762.8713158372404
 20
-257.0233869984476
 30
0.0
 11
-758.8887787394208
 21
-271.9682015956726
 31
0.0
  0
LINE
  5
31F
330
6E
100
AcDbEntity
  8
0
  6
Continuous
 62
     7
100
AcDbLine
 10
-762.4040017394207
 20
-213.844404066637
 30
0.0
 11
-762.4040017394208
 21
-213.4610803966218
 31
0.0
  0
LINE
  5
320
330
6E
100
AcDbEntity
  8
0
  6
Continuous
 62
     7
100
AcDbLine
 10
-762.4040017394209
 20
-221.7444040666368
 30
0.0
 11
-762.4040017394209
 21
-221.3610803966215
 31
0.0
  0
LINE
  5
321
330
6E
100
AcDbEntity
  8
0
  6
Continuous
 62
     7
100
AcDbLine
 10
-762.4040017394211
 20
-224.2526209790976
 30
0.0
 11
-762.4040017394209
 21
-221.7444040666368
 31
0.0
  0
LINE
  5
322
330
6E
100
AcDbEntity
  8
0
  6
Continuous
 62
     7
100
AcDbLine
 10
-762.4040017394209
 20
-216.3526209790978
 30
0.0
 11
-762.4040017394207
 21
-213.844404066637
 31
0.0
  0
LINE
  5
323
330
6E
100
AcDbEntity
  8
0
  6
Continuous
 62
     7
100
AcDbLine
 10
-763.9040017394211
 20
-303.6861878465004
 30
0.0
 11
-763.9040017394211
 21
-227.0855652318724
 31
0.0
  0
LINE
  5
324
330
6E
100
AcDbEntity
  8
0
  6
Continuous
 62
     7
100
AcDbLine
 10
-732.9040017394211
 20
-227.0855652318724
 30
0.0
 11
-732.9040017394211
 21
-303.6861878465004
 31
0.0
  0
LINE
  5
325
330
6E
100
AcDbEntity
  8
0
  6
Continuous
 62
     7
100
AcDbLine
 10
-733.9366876416007
 20
-291.6410790612831
 30
0.0
 11
-733.9366876416007
 21
-257.0233869984476
 31
0.0
  0
LINE
  5
326
330
6E
100
AcDbEntity
  8
0
  6
Continuous
 62
     7
100
AcDbLine
 10
-733.9366876416007
 20
-291.6410790612831
 30
0.0
 11
-737.74683751184
 21
-285.6311381378082
 31
0.0
  0
LINE
  5
327
330
6E
100
AcDbEntity
  8
0
  6
Continuous
 62
     7
100
AcDbLine
 10
-737.8887787394208
 20
-271.8539503497827
 30
0.0
 11
-733.9366876416007
 21
-257.0233869984476
 31
0.0
  0
LINE
  5
328
330
6E
100
AcDbEntity
  8
0
  6
Continuous
 62
     7
100
AcDbLine
 10
-732.9040017394211
 20
-227.0855652318724
 30
0.0
 11
-763.9040017394211
 21
-227.0855652318724
 31
0.0
  0
LINE
  5
329
330
6E
100
AcDbEntity
  8
0
  6
Continuous
 62
     7
100
AcDbLine
 10
-733.9366876416007
 20
-257.0233869984476
 30
0.0
 11
-762.8713158372404
 21
-257.0233869984476
 31
0.0
  0
LINE
  5
32A
330
6E
100
AcDbEntity
  8
0
  6
Continuous
 62
     7
100
AcDbLine
 10
-732.9040017394207
 20
-208.5855652318721
 30
0.0
 11
-763.9040017394207
 21
-208.5855652318721
 31
0.0
  0
LINE
  5
32B
330
6E
100
AcDbEntity
  8
0
  6
Continuous
 62
     7
100
AcDbLine
 10
-762.4040017394208
 20
-213.4610803966218
 30
0.0
 11
-734.4540017394208
 21
-213.4610803966218
 31
0.0
  0
LINE
  5
32C
330
6E
100
AcDbEntity
  8
0
  6
Continuous
 62
     7
100
AcDbLine
 10
-762.4040017394207
 20
-213.844404066637
 30
0.0
 11
-734.4540017394206
 21
-213.844404066637
 31
0.0
  0
LINE
  5
32D
330
6E
100
AcDbEntity
  8
0
  6
Continuous
 62
     7
100
AcDbLine
 10
-762.3540017394209
 20
-308.2358157748284
 30
0.0
 11
-734.4540017394208
 21
-308.2358157748284
 31
0.0
  0
LINE
  5
32E
330
6E
100
AcDbEntity
  8
0
  6
Continuous
 62
     7
100
AcDbLine
 10
-763.9040017394211
 20
-303.6861878465004
 30
0.0
 11
-732.9040017394211
 21
-303.6861878465004
 31
0.0
  0
LINE
  5
32F
330
6E
100
AcDbEntity
  8
0
  6
Continuous
 62
     7
100
AcDbLine
 10
-748.4040017394211
 20
-299.9937867501106
 30
0.0
 11
-762.8713158372404
 21
-291.6410790612837
 31
0.0
  0
LINE
  5
330
330
6E
100
AcDbEntity
  8
0
  6
Continuous
 62
     7
100
AcDbLine
 10
-734.4540017394208
 20
-211.3185094846459
 30
0.0
 11
-762.4040017394208
 21
-211.3185094846457
 31
0.0
  0
LINE
  5
331
330
6E
100
AcDbEntity
  8
0
  6
Continuous
 62
     7
100
AcDbLine
 10
-734.4540017394208
 20
-213.4610803966218
 30
0.0
 11
-734.4540017394206
 21
-213.844404066637
 31
0.0
  0
LINE
  5
332
330
6E
100
AcDbEntity
  8
0
  6
Continuous
 62
     7
100
AcDbLine
 10
-734.4540017394208
 20
-211.3185094846459
 30
0.0
 11
-734.4540017394208
 21
-213.4610803966218
 31
0.0
  0
LINE
  5
333
330
6E
100
AcDbEntity
  8
0
  6
Continuous
 62
     7
100
AcDbLine
 10
-762.4040017394209
 20
-216.3526209790978
 30
0.0
 11
-734.4540017394208
 21
-216.3526209790978
 31
0.0
  0
LINE
  5
334
330
6E
100
AcDbEntity
  8
0
  6
Continuous
 62
     7
100
AcDbLine
 10
-762.4040017394209
 20
-221.7444040666368
 30
0.0
 11
-734.4540017394211
 21
-221.7444040666368
 31
0.0
  0
LINE
  5
335
330
6E
100
AcDbEntity
  8
0
  6
Continuous
 62
     7
100
AcDbLine
 10
-734.4540017394211
 20
-219.2185094846456
 30
0.0
 11
-734.4540017394211
 21
-221.3610803966215
 31
0.0
  0
LINE
  5
336
330
6E
100
AcDbEntity
  8
0
  6
Continuous
 62
     7
100
AcDbLine
 10
-762.4040017394209
 20
-221.3610803966215
 30
0.0
 11
-734.4540017394211
 21
-221.3610803966215
 31
0.0
  0
LINE
  5
337
330
6E
100
AcDbEntity
  8
0
  6
Continuous
 62
     7
100
AcDbLine
 10
-734.4540017394211
 20
-219.2185094846456
 30
0.0
 11
-762.404001739421
 21
-219.2185094846456
 31
0.0
  0
LINE
  5
338
330
6E
100
AcDbEntity
  8
0
  6
Continuous
 62
     7
100
AcDbLine
 10
-734.4540017394211
 20
-221.3610803966215
 30
0.0
 11
-734.4540017394211
 21
-221.7444040666368
 31
0.0
  0
LINE
  5
339
330
6E
100
AcDbEntity
  8
0
  6
Continuous
 62
     7
100
AcDbLine
 10
-748.4040017394211
 20
-299.9937867501106
 30
0.0
 11
-748.4040017394208
 21
-291.784054773382
 31
0.0
  0
LINE
  5
33A
330
6E
100
AcDbEntity
  8
0
  6
Continuous
 62
     7
100
AcDbLine
 10
-748.4040017394208
 20
-291.784054773382
 30
0.0
 11
-748.3887787394208
 21
-291.7752657702342
 31
0.0
  0
LINE
  5
33B
330
6E
100
AcDbEntity
  8
0
  6
Continuous
 62
     7
100
AcDbLine
 10
-737.8887787394208
 20
-271.8539503497827
 30
0.0
 11
-737.8887787394208
 21
-285.7130879437609
 31
0.0
  0
LINE
  5
33C
330
6E
100
AcDbEntity
  8
0
  6
Continuous
 62
     7
100
AcDbLine
 10
-737.8887787394208
 20
-271.8539503497827
 30
0.0
 11
-737.8887787394208
 21
-268.310565231872
 31
0.0
  0
LINE
  5
33D
330
6E
100
AcDbEntity
  8
0
  6
Continuous
 62
     7
100
AcDbLine
 10
-762.4040017394211
 20
-224.2526209790976
 30
0.0
 11
-734.4540017394211
 21
-224.2526209790976
 31
0.0
  0
LINE
  5
33E
330
6E
100
AcDbEntity
  8
0
  6
Continuous
 62
     7
100
AcDbLine
 10
-754.304001739421
 20
-261.6855652318716
 30
0.0
 11
-754.304001739421
 21
-263.6855652318717
 31
0.0
  0
LINE
  5
33F
330
6E
100
AcDbEntity
  8
0
  6
Continuous
 62
     7
100
AcDbLine
 10
-742.504001739421
 20
-261.6855652318716
 30
0.0
 11
-754.304001739421
 21
-261.6855652318716
 31
0.0
  0
LINE
  5
340
330
6E
100
AcDbEntity
  8
0
  6
Continuous
 62
     7
100
AcDbLine
 10
-742.504001739421
 20
-263.6855652318717
 30
0.0
 11
-742.504001739421
 21
-261.6855652318716
 31
0.0
  0
LINE
  5
341
330
6E
100
AcDbEntity
  8
0
  6
Continuous
 62
     7
100
AcDbLine
 10
-754.304001739421
 20
-263.6855652318717
 30
0.0
 11
-742.504001739421
 21
-263.6855652318717
 31
0.0
  0
LINE
  5
342
330
6E
100
AcDbEntity
  8
0
  6
Continuous
 62
     7
100
AcDbLine
 10
-758.8887787394208
 20
-271.9682015956726
 30
0.0
 11
-758.8887787394208
 21
-268.310565231872
 31
0.0
  0
LINE
  5
343
330
6E
100
AcDbEntity
  8
0
  6
Continuous
 62
     7
100
AcDbLine
 10
-737.8887787394208
 20
-268.310565231872
 30
0.0
 11
-758.8887787394208
 21
-268.310565231872
 31
0.0
  0
LINE
  5
344
330
6E
100
AcDbEntity
  8
0
  6
Continuous
 62
     7
100
AcDbLine
 10
-758.8887787394208
 20
-271.9682015956726
 30
0.0
 11
-758.8887787394207
 21
-285.7130879437609
 31
0.0
  0
LINE
  5
345
330
6E
100
AcDbEntity
  8
0
  6
Continuous
 62
     7
100
AcDbLine
 10
-751.0040017394213
 20
-251.4917830145208
 30
0.0
 11
-751.0040017394213
 21
-245.1793474492225
 31
0.0
  0
LINE
  5
346
330
6E
100
AcDbEntity
  8
0
  6
Continuous
 62
     7
100
AcDbLine
 10
-745.8040017394212
 20
-251.4917830145208
 30
0.0
 11
-751.0040017394213
 21
-251.4917830145208
 31
0.0
  0
LINE
  5
347
330
6E
100
AcDbEntity
  8
0
  6
Continuous
 62
     7
100
AcDbLine
 10
-751.0040017394213
 20
-245.1793474492225
 30
0.0
 11
-745.8040017394212
 21
-245.1793474492225
 31
0.0
  0
LINE
  5
348
330
6E
100
AcDbEntity
  8
0
  6
Continuous
 62
     7
100
AcDbLine
 10
-745.8040017394212
 20
-245.1793474492225
 30
0.0
 11
-745.8040017394212
 21
-251.4917830145208
 31
0.0
  0
LINE
  5
349
330
6E
100
AcDbEntity
  8
0
  6
Continuous
 62
     7
100
AcDbLine
 10
-737.8887787394208
 20
-285.7130879437609
 30
0.0
 11
-737.74683751184
 21
-285.6311381378082
 31
0.0
  0
LINE
  5
34A
330
6E
100
AcDbEntity
  8
0
  6
Continuous
 62
     7
100
AcDbLine
 10
-758.8887787394207
 20
-285.7130879437609
 30
0.0
 11
-759.0530079858888
 21
-285.618270144104
 31
0.0
  0
LINE
  5
34B
330
6E
100
AcDbEntity
  8
0
  6
Continuous
 62
     7
100
AcDbLine
 10
-748.3887787394208
 20
-291.7752657702342
 30
0.0
 11
-758.8887787394207
 21
-285.7130879437609
 31
0.0
  0
LINE
  5
34C
330
6E
100
AcDbEntity
  8
0
  6
Continuous
 62
     7
100
AcDbLine
 10
-748.3887787394208
 20
-291.7752657702342
 30
0.0
 11
-737.8887787394208
 21
-285.7130879437609
 31
0.0
  0
LINE
  5
34D
330
6E
100
AcDbEntity
  8
0
  6
Continuous
 62
     7
100
AcDbLine
 10
-748.4040017394211
 20
-299.9937867501106
 30
0.0
 11
-733.9366876416007
 21
-291.6410790612831
 31
0.0
  0
ENDBLK
  5
70
330
6E
100
AcDbEntity
  8
0
100
AcDbBlockEnd
  0
BLOCK
  5
73
330
71
100
AcDbEntity
  8
0
100
AcDbBlockBegin
  2
SA_Rechts2
 70
     0
 10
-748.40400173941
 20
-264.0000040517578
 30
0.0
  3
SA_Rechts2
  1

  0
INSERT
  5
72
330
71
100
AcDbEntity
  8
0
100
AcDbBlockReference
  2
UKH_150_1500V-select__5
 10
-763.9040017394211
 20
-319.4286569702239
 30
0.0
  0
MTEXT
  5
34E
330
71
100
AcDbEntity
  8
1
 62
     6
100
AcDbMText
 10
-748.4040017394202
 20
-329.4286569702239
 30
0.0
 40
10.0
 41
0.0
 71
     2
 72
     1
  1
 
  7
CONVERTER_11
 73
     1
 44
1.32052821128451
  0
ENDBLK
  5
74
330
71
100
AcDbEntity
  8
0
100
AcDbBlockEnd
  0
BLOCK
  5
76
330
75
100
AcDbEntity
  8
0
100
AcDbBlockBegin
  2
UKH_150_1500V-select__6
 70
     0
 10
-646.8029987347147
 20
-319.428656970224
 30
0.0
  3
UKH_150_1500V-select__6
  1

  0
LINE
  5
34F
330
75
100
AcDbEntity
  8
0
  6
Continuous
 62
     7
100
AcDbLine
 10
-576.1009987347146
 20
-317.5355652318726
 30
0.0
 11
-575.1707626014643
 21
-317.6995909605946
 31
0.0
  0
LINE
  5
350
330
75
100
AcDbEntity
  8
0
  6
Continuous
 62
     7
100
AcDbLine
 10
-579.2509987347145
 20
-319.0843115706251
 30
0.0
 11
-579.2509987347147
 21
-314.2768683106304
 31
0.0
  0
LINE
  5
351
330
75
100
AcDbEntity
  8
0
  6
Continuous
 62
     7
100
AcDbLine
 10
-641.7009987347151
 20
-314.2855652318743
 30
0.0
 11
-645.8029987347147
 21
-314.2855652318744
 31
0.0
  0
LINE
  5
352
330
75
100
AcDbEntity
  8
0
  6
Continuous
 62
     7
100
AcDbLine
 10
-641.7009987347151
 20
-314.2855652318743
 30
0.0
 11
-641.7009987347151
 21
-312.2855652318743
 31
0.0
  0
LINE
  5
353
330
75
100
AcDbEntity
  8
0
  6
Continuous
 62
     7
100
AcDbLine
 10
-641.7009987347151
 20
-315.8855652318743
 30
0.0
 11
-641.7009987347151
 21
-314.2855652318743
 31
0.0
  0
LINE
  5
354
330
75
100
AcDbEntity
  8
0
  6
Continuous
 62
     7
100
AcDbLine
 10
-615.3029987347151
 20
-315.8855652318736
 30
0.0
 11
-641.7009987347151
 21
-315.8855652318743
 31
0.0
  0
LINE
  5
355
330
75
100
AcDbEntity
  8
0
  6
Continuous
 62
     7
100
AcDbLine
 10
-641.7009987347153
 20
-306.1855652318743
 30
0.0
 11
-641.7009987347153
 21
-304.1855652318743
 31
0.0
  0
LINE
  5
356
330
75
100
AcDbEntity
  8
0
  6
Continuous
 62
     7
100
AcDbLine
 10
-615.3029987347146
 20
-318.1855652318737
 30
0.0
 11
-615.3029987347151
 21
-315.8855652318736
 31
0.0
  0
LINE
  5
357
330
75
100
AcDbEntity
  8
0
  6
Continuous
 62
     7
100
AcDbLine
 10
-610.2029987347147
 20
-314.9018483744651
 30
0.0
 11
-613.4369733309301
 21
-318.6855652318735
 31
0.0
  0
LINE
  5
358
330
75
100
AcDbEntity
  8
0
  6
Continuous
 62
     7
100
AcDbLine
 10
-641.7009987347153
 20
-306.1855652318743
 30
0.0
 11
-645.2009987347149
 21
-306.1855652318744
 31
0.0
  0
LINE
  5
359
330
75
100
AcDbEntity
  8
0
  6
Continuous
 62
     7
100
AcDbLine
 10
-641.7009987347151
 20
-312.2855652318743
 30
0.0
 11
-641.7009987347153
 21
-306.1855652318743
 31
0.0
  0
LINE
  5
35A
330
75
100
AcDbEntity
  8
0
  6
Continuous
 62
     7
100
AcDbLine
 10
-612.5029987347151
 20
-313.1855652318735
 30
0.0
 11
-612.5029987347151
 21
-314.2855652318737
 31
0.0
  0
LINE
  5
35B
330
75
100
AcDbEntity
  8
0
  6
Continuous
 62
     7
100
AcDbLine
 10
-612.5029987347152
 20
-311.9355652318735
 30
0.0
 11
-612.5029987347151
 21
-313.1855652318735
 31
0.0
  0
LINE
  5
35C
330
75
100
AcDbEntity
  8
0
  6
Continuous
 62
     7
100
AcDbLine
 10
-612.5029987347151
 20
-313.1855652318735
 30
0.0
 11
-610.2029987347147
 21
-313.8018483744651
 31
0.0
  0
LINE
  5
35D
330
75
100
AcDbEntity
  8
0
  6
Continuous
 62
     7
100
AcDbLine
 10
-615.3029987347151
 20
-314.2855652318737
 30
0.0
 11
-615.3029987347151
 21
-315.8855652318736
 31
0.0
  0
LINE
  5
35E
330
75
100
AcDbEntity
  8
0
  6
Continuous
 62
     7
100
AcDbLine
 10
-560.100998734717
 20
-208.5855652318722
 30
0.0
 11
-623.2009987347176
 21
-208.5855652318739
 31
0.0
  0
LINE
  5
35F
330
75
100
AcDbEntity
  8
0
  6
Continuous
 62
     7
100
AcDbLine
 10
-588.9009987347148
 20
-309.8355652318729
 30
0.0
 11
-590.0509987347148
 21
-309.835565231873
 31
0.0
  0
LINE
  5
360
330
75
100
AcDbEntity
  8
0
  6
Continuous
 62
     7
100
AcDbLine
 10
-592.3509987347147
 20
-309.8355652318732
 30
0.0
 11
-592.7009987347147
 21
-309.8355652318732
 31
0.0
  0
LINE
  5
361
330
75
100
AcDbEntity
  8
0
  6
Continuous
 62
     7
100
AcDbLine
 10
-592.7009987347147
 20
-309.8355652318732
 30
0.0
 11
-604.4509987347147
 21
-309.8355652318735
 31
0.0
  0
LINE
  5
362
330
75
100
AcDbEntity
  8
0
  6
Continuous
 62
     7
100
AcDbLine
 10
-586.0509987347148
 20
-309.8355652318729
 30
0.0
 11
-588.9009987347148
 21
-309.8355652318729
 31
0.0
  0
LINE
  5
363
330
75
100
AcDbEntity
  8
0
  6
Continuous
 62
     7
100
AcDbLine
 10
-588.9009987347148
 20
-309.8355652318729
 30
0.0
 11
-588.9009987347146
 21
-315.785565231873
 31
0.0
  0
LINE
  5
364
330
75
100
AcDbEntity
  8
0
  6
Continuous
 62
     7
100
AcDbLine
 10
-590.0509987347148
 20
-309.835565231873
 30
0.0
 11
-590.0509987347147
 21
-311.9355652318731
 31
0.0
  0
LINE
  5
365
330
75
100
AcDbEntity
  8
0
  6
Continuous
 62
     7
100
AcDbLine
 10
-586.0509987347147
 20
-311.9355652318729
 30
0.0
 11
-586.0509987347148
 21
-309.8355652318729
 31
0.0
  0
LINE
  5
366
330
75
100
AcDbEntity
  8
0
  6
Continuous
 62
     7
100
AcDbLine
 10
-592.1672725413102
 20
-311.9355652318731
 30
0.0
 11
-592.3509987347147
 21
-309.8355652318732
 31
0.0
  0
LINE
  5
367
330
75
100
AcDbEntity
  8
0
  6
Continuous
 62
     7
100
AcDbLine
 10
-590.0509987347147
 20
-311.9355652318731
 30
0.0
 11
-592.1672725413102
 21
-311.9355652318731
 31
0.0
  0
LINE
  5
368
330
75
100
AcDbEntity
  8
0
  6
Continuous
 62
     7
100
AcDbLine
 10
-577.1009987347147
 20
-311.9355652318727
 30
0.0
 11
-586.0509987347147
 21
-311.9355652318729
 31
0.0
  0
LINE
  5
369
330
75
100
AcDbEntity
  8
0
  6
Continuous
 62
     7
100
AcDbLine
 10
-594.7009987347152
 20
-312.0214636167355
 30
0.0
 11
-592.7009987347146
 21
-311.4855652318731
 31
0.0
  0
LINE
  5
36A
330
75
100
AcDbEntity
  8
0
  6
Continuous
 62
     7
100
AcDbLine
 10
-615.3029987347151
 20
-314.2855652318737
 30
0.0
 11
-612.5029987347151
 21
-314.2855652318737
 31
0.0
  0
LINE
  5
36B
330
75
100
AcDbEntity
  8
0
  6
Continuous
 62
     7
100
AcDbLine
 10
-610.2029987347147
 20
-313.8018483744651
 30
0.0
 11
-610.2029987347147
 21
-314.9018483744651
 31
0.0
  0
LINE
  5
36C
330
75
100
AcDbEntity
  8
0
  6
Continuous
 62
     7
100
AcDbLine
 10
-612.5029987347152
 20
-311.9355652318735
 30
0.0
 11
-604.4509987347146
 21
-311.9355652318733
 31
0.0
  0
LINE
  5
36D
330
75
100
AcDbEntity
  8
0
  6
Continuous
 62
     7
100
AcDbLine
 10
-594.7009987347146
 20
-313.1214636167353
 30
0.0
 11
-594.7009987347152
 21
-312.0214636167355
 31
0.0
  0
LINE
  5
36E
330
75
100
AcDbEntity
  8
0
  6
Continuous
 62
     7
100
AcDbLine
 10
-576.1009987347146
 20
-315.8855652318727
 30
0.0
 11
-576.1009987347146
 21
-317.5355652318726
 31
0.0
  0
LINE
  5
36F
330
75
100
AcDbEntity
  8
0
  6
Continuous
 62
     7
100
AcDbLine
 10
-575.1185126324264
 20
-315.8855652318727
 30
0.0
 11
-576.1009987347146
 21
-315.8855652318727
 31
0.0
  0
LINE
  5
370
330
75
100
AcDbEntity
  8
0
  6
Continuous
 62
     7
100
AcDbLine
 10
-577.1009987347147
 20
-313.0355652318726
 30
0.0
 11
-577.1009987347147
 21
-311.9355652318727
 31
0.0
  0
LINE
  5
371
330
75
100
AcDbEntity
  8
0
  6
Continuous
 62
     7
100
AcDbLine
 10
-579.2509987347147
 20
-314.2768683106304
 30
0.0
 11
-577.1009987347147
 21
-313.0355652318726
 31
0.0
  0
LINE
  5
372
330
75
100
AcDbEntity
  8
0
  6
Continuous
 62
     7
100
AcDbLine
 10
-604.4509987347147
 20
-309.8355652318735
 30
0.0
 11
-604.4509987347146
 21
-311.9355652318733
 31
0.0
  0
LINE
  5
373
330
75
100
AcDbEntity
  8
0
  6
Continuous
 62
     7
100
AcDbLine
 10
-592.7009987347146
 20
-311.4855652318731
 30
0.0
 11
-592.7009987347147
 21
-309.8355652318732
 31
0.0
  0
LINE
  5
374
330
75
100
AcDbEntity
  8
0
  6
Continuous
 62
     7
100
AcDbLine
 10
-591.9650920416076
 20
-316.8000845515954
 30
0.0
 11
-594.7009987347146
 21
-313.1214636167353
 31
0.0
  0
LINE
  5
375
330
75
100
AcDbEntity
  8
0
  6
Continuous
 62
     7
100
AcDbLine
 10
-641.7009987347153
 20
-304.1855652318743
 30
0.0
 11
-641.7009987347172
 21
-227.0855652318745
 31
0.0
  0
LINE
  5
376
330
75
100
AcDbEntity
  8
0
  6
Continuous
 62
     7
100
AcDbLine
 10
-645.2009987347149
 20
-304.1855652318744
 30
0.0
 11
-641.7009987347153
 21
-304.1855652318743
 31
0.0
  0
LINE
  5
377
330
75
100
AcDbEntity
  8
0
  6
Continuous
 62
     7
100
AcDbLine
 10
-623.2009987347176
 20
-208.5855652318739
 30
0.0
 11
-641.7009987347172
 21
-227.0855652318745
 31
0.0
  0
LINE
  5
378
330
75
100
AcDbEntity
  8
0
  6
Continuous
 62
     7
100
AcDbLine
 10
-645.8029987347147
 20
-312.2855652318744
 30
0.0
 11
-641.7009987347151
 21
-312.2855652318743
 31
0.0
  0
LINE
  5
379
330
75
100
AcDbEntity
  8
0
  6
Continuous
 62
     7
100
AcDbLine
 10
-541.600998734714
 20
-303.6861878465006
 30
0.0
 11
-541.600998734716
 21
-227.0855652318726
 31
0.0
  0
LINE
  5
37A
330
75
100
AcDbEntity
  8
0
  6
Continuous
 62
     7
100
AcDbLine
 10
-541.600998734716
 20
-227.0855652318726
 30
0.0
 11
-560.100998734717
 21
-208.5855652318722
 31
0.0
  0
LINE
  5
37B
330
75
100
AcDbEntity
  8
0
  6
Continuous
 62
     7
100
AcDbLine
 10
-541.600998734714
 20
-303.6861878465006
 30
0.0
 11
-575.1185126324264
 21
-315.8855652318727
 31
0.0
  0
ARC
  5
37C
330
75
100
AcDbEntity
  8
0
  6
Continuous
 62
     7
100
AcDbCircle
 10
-645.2009987347149
 20
-305.1855652318744
 30
0.0
 40
1.0
100
AcDbArc
 50
90.0
 51
270.0
  0
ARC
  5
37D
330
75
100
AcDbEntity
  8
0
  6
Continuous
 62
     7
100
AcDbCircle
 10
-577.0509987347148
 20
-312.2286569702241
 30
0.0
 40
7.199999999999877
100
AcDbArc
 50
252.2084094269945
 51
285.3506456926608
  0
ARC
  5
37E
330
75
100
AcDbEntity
  8
0
  6
Continuous
 62
     7
100
AcDbCircle
 10
-614.3029987347146
 20
-318.1855652318736
 30
0.0
 40
1.0
100
AcDbArc
 50
180.0000000000032
 51
330.0000000000084
  0
ARC
  5
37F
330
75
100
AcDbEntity
  8
0
  6
Continuous
 62
     7
100
AcDbCircle
 10
-575.3009987347145
 20
-318.4381967753537
 30
0.0
 40
0.7499999999999608
100
AcDbArc
 50
282.0070452713179
 51
79.99999999999385
  0
ARC
  5
380
330
75
100
AcDbEntity
  8
0
  6
Continuous
 62
     7
100
AcDbCircle
 10
-590.6009987347146
 20
-315.785565231873
 30
0.0
 40
1.700000000000041
100
AcDbArc
 50
216.6393479621931
 51
0.0
  0
ARC
  5
381
330
75
100
AcDbEntity
  8
0
  6
Continuous
 62
     7
100
AcDbCircle
 10
-645.8029987347147
 20
-313.2855652318744
 30
0.0
 40
1.0
100
AcDbArc
 50
180.0
 51
270.0
  0
ARC
  5
382
330
75
100
AcDbEntity
  8
0
  6
Continuous
 62
     7
100
AcDbCircle
 10
-645.8029987347147
 20
-313.2855652318744
 30
0.0
 40
1.0
100
AcDbArc
 50
90.0
 51
180.0
  0
ENDBLK
  5
77
330
75
100
AcDbEntity
  8
0
100
AcDbBlockEnd
  0
BLOCK
  5
7A
330
78
100
AcDbEntity
  8
0
100
AcDbBlockBegin
  2
Vordans2
 70
     0
 10
-594.2020019999935
 20
-264.000004051758
 30
0.0
  3
Vordans2
  1

  0
INSERT
  5
79
330
78
100
AcDbEntity
  8
0
100
AcDbBlockReference
  2
UKH_150_1500V-select__6
 10
-646.8029987347147
 20
-319.428656970224
 30
0.0
  0
LINE
  5
383
330
78
100
AcDbEntity
  8
1
  6
DOT_CENTER
 62
     2
100
AcDbLine
 10
-594.6009987347168
 20
-307.734883442378
 30
0.0
 11
-594.6009987347168
 21
-315.891863001416
 31
0.0
  0
MTEXT
  5
384
330
78
100
AcDbEntity
  8
1
 62
     6
100
AcDbMText
 10
-608.0995449938293
 20
-357.522298839232
 30
0.0
 40
10.0
 41
0.0
 71
     2
 72
     1
  1
 
  7
CONVERTER_11
 73
     1
 44
1.32052821128451
  0
DIMENSION
  5
391
330
78
100
AcDbEntity
  8
1
100
AcDbDimension
  2
*D18
 10
-577.1009987347147
 20
-340.3918630014161
 30
0.0
 11
-586.0282909422451
 21
-333.5418630014161
 31
0.0
 70
    32
  1
<>
 71
     5
 42
-1.0
 53
0.00013888888889
  3
ME10_DIM_11
100
AcDbAlignedDimension
 13
-594.6009987347168
 23
-315.891863001416
 33
0.0
 14
-577.1009987347147
 24
-313.0355652318726
 34
0.0
100
AcDbRotatedDimension
  0
DIMENSION
  5
39C
330
78
100
AcDbEntity
  8
1
100
AcDbDimension
  2
*D19
 10
-594.6009987347168
 20
-359.121675477813
 30
0.0
 11
-571.525426825249
 21
-352.621675477813
 31
0.0
 70
    32
  1
<>
 71
     5
 42
-1.0
 53
0.00013888888889
  3
ME10_DIM_12
100
AcDbAlignedDimension
 13
-541.600998734714
 23
-303.6861878465006
 33
0.0
 14
-594.6009987347168
 24
-315.891863001416
 34
0.0
100
AcDbRotatedDimension
  0
DIMENSION
  5
3A7
330
78
100
AcDbEntity
  8
1
100
AcDbDimension
  2
*D20
 10
-646.8029987347147
 20
-376.522298839232
 30
0.0
 11
-590.6009987347145
 21
-369.672298839232
 31
0.0
 70
    32
  1
<>
 71
     5
 42
-1.0
 53
0.00013888888889
  3
ME10_DIM_13
100
AcDbAlignedDimension
 13
-541.600998734714
 23
-303.6861878465006
 33
0.0
 14
-646.8029987347147
 24
-313.2855652318744
 34
0.0
100
AcDbRotatedDimension
  0
DIMENSION
  5
3B2
330
78
100
AcDbEntity
  8
1
100
AcDbDimension
  2
*D21
 10
-663.8980912529431
 20
-311.9355652318736
 30
0.0
 11
-670.7480912529431
 21
-258.6299729173575
 31
0.0
 70
    32
  1
<>
 71
     5
 42
-1.0
 53
90.0
  3
ME10_DIM_14
100
AcDbAlignedDimension
 13
-623.2009987347176
 23
-208.5855652318739
 33
0.0
 14
-612.5029987347152
 24
-311.9355652318735
 34
0.0
 50
90.0
100
AcDbRotatedDimension
  0
INSERT
  5
3BC
330
78
100
AcDbEntity
  8
1
100
AcDbBlockReference
  2
*D22
 10
0.0
 20
0.0
 30
0.0
  0
ENDBLK
  5
7B
330
78
100
AcDbEntity
  8
0
100
AcDbBlockEnd
  0
BLOCK
  5
84
330
7C
100
AcDbEntity
  8
0
100
AcDbBlockBegin
  2
1
 70
     0
 10
0.0
 20
0.0
 30
0.0
  3
1
  1

  0
INSERT
  5
7D
330
7C
100
AcDbEntity
  8
0
100
AcDbBlockReference
  2
A4I_CS
 10
-105.0000016349782
 20
-283.9301500076673
 30
0.0
  0
INSERT
  5
7E
330
7C
100
AcDbEntity
  8
0
100
AcDbBlockReference
  2
Allg2
 10
-146.9999988494706
 20
-215.0000020762315
 30
0.0
 41
0.5
 42
0.5
 43
0.5
  0
INSERT
  5
7F
330
7C
100
AcDbEntity
  8
0
100
AcDbBlockReference
  2
Drfsicht2
 10
-297.1010018814727
 20
-220.9144450382981
 30
0.0
 41
0.5
 42
0.5
 43
0.5
  0
INSERT
  5
80
330
7C
100
AcDbEntity
  8
0
100
AcDbBlockReference
  2
Rckans2
 10
-180.8989991326303
 20
-132.0000020258779
 30
0.0
 41
0.5
 42
0.5
 43
0.5
  0
INSERT
  5
81
330
7C
100
AcDbEntity
  8
0
100
AcDbBlockReference
  2
SA_Links2
 10
-240.9999999999966
 20
-132.000002025879
 30
0.0
 41
0.5
 42
0.5
 43
0.5
  0
INSERT
  5
82
330
7C
100
AcDbEntity
  8
0
100
AcDbBlockReference
  2
SA_Rechts2
 10
-374.202000869705
 20
-132.0000020258789
 30
0.0
 41
0.5
 42
0.5
 43
0.5
  0
INSERT
  5
83
330
7C
100
AcDbEntity
  8
0
100
AcDbBlockReference
  2
Vordans2
 10
-297.1010009999968
 20
-132.000002025879
 30
0.0
 41
0.5
 42
0.5
 43
0.5
  0
ENDBLK
  5
85
330
7C
100
AcDbEntity
  8
0
100
AcDbBlockEnd
  0
BLOCK
  5
27D
330
276
100
AcDbEntity
  8
0
100
AcDbBlockBegin
  2
*D17
 70
     1
 10
0.0
 20
0.0
 30
0.0
  3
*D17
  1

  0
LINE
  5
277
330
276
100
AcDbEntity
  8
1
  6
Continuous
 62
     2
100
AcDbLine
 10
-655.8980922529446
 20
-426.328890076605
 30
0.0
 11
-655.8980922529446
 21
-457.328890076605
 31
0.0
  0
LINE
  5
278
330
276
100
AcDbEntity
  8
1
  6
Continuous
 62
     2
100
AcDbLine
 10
-641.701000497671
 20
-426.328890076605
 30
0.0
 11
-658.8980922529446
 21
-426.328890076605
 31
0.0
  0
LINE
  5
279
330
276
100
AcDbEntity
  8
1
  6
Continuous
 62
     2
100
AcDbLine
 10
-641.7010004976718
 20
-457.328890076605
 30
0.0
 11
-658.8980922529446
 21
-457.328890076605
 31
0.0
  0
SOLID
  5
27A
330
276
100
AcDbEntity
  8
1
 62
     2
100
AcDbTrace
 10
-654.9765247698328
 20
-433.328890076605
 30
0.0
 11
-656.8196597360563
 21
-433.328890076605
 31
0.0
 12
-655.8980922529446
 22
-426.328890076605
 32
0.0
 13
-655.8980922529446
 23
-426.328890076605
 33
0.0
  0
SOLID
  5
27B
330
276
100
AcDbEntity
  8
1
 62
     2
100
AcDbTrace
 10
-656.8196597360563
 20
-450.328890076605
 30
0.0
 11
-654.9765247698328
 21
-450.328890076605
 31
0.0
 12
-655.8980922529446
 22
-457.328890076605
 32
0.0
 13
-655.8980922529446
 23
-457.328890076605
 33
0.0
  0
MTEXT
  5
27C
330
276
100
AcDbEntity
  8
1
 62
     3
100
AcDbMText
 10
-658.8980922529446
 20
-445.1039738245521
 30
0.0
 40
7.0
 41
0.0
 71
     7
 72
     1
  1
31
  7
CONVERTER_11
 11
0.0
 21
1.0
 31
0.0
 73
     1
 44
0.60024009603842
  0
ENDBLK
  5
27E
330
276
100
AcDbEntity
  8
0
100
AcDbBlockEnd
  0
BLOCK
  5
38E
330
385
100
AcDbEntity
  8
0
100
AcDbBlockBegin
  2
*D18
 70
     1
 10
0.0
 20
0.0
 30
0.0
  3
*D18
  1

  0
LINE
  5
386
330
385
100
AcDbEntity
  8
1
  6
Continuous
 62
     2
100
AcDbLine
 10
-563.1009987347147
 20
-340.3918630014161
 30
0.0
 11
-577.1009987347147
 21
-340.3918630014161
 31
0.0
  0
LINE
  5
387
330
385
100
AcDbEntity
  8
1
  6
Continuous
 62
     2
100
AcDbLine
 10
-577.1009987347147
 20
-340.3918630014161
 30
0.0
 11
-594.6009987347168
 21
-340.3918630014161
 31
0.0
  0
LINE
  5
388
330
385
100
AcDbEntity
  8
1
  6
Continuous
 62
     2
100
AcDbLine
 10
-594.6009987347168
 20
-340.3918630014161
 30
0.0
 11
-608.6009987347168
 21
-340.3918630014161
 31
0.0
  0
LINE
  5
389
330
385
100
AcDbEntity
  8
1
  6
Continuous
 62
     2
100
AcDbLine
 10
-577.1009987347147
 20
-313.0355652318727
 30
0.0
 11
-577.1009987347147
 21
-343.3918630014161
 31
0.0
  0
LINE
  5
38A
330
385
100
AcDbEntity
  8
1
  6
Continuous
 62
     2
100
AcDbLine
 10
-594.6009987347168
 20
-315.8918630014161
 30
0.0
 11
-594.6009987347168
 21
-343.3918630014161
 31
0.0
  0
SOLID
  5
38B
330
385
100
AcDbEntity
  8
1
 62
     2
100
AcDbTrace
 10
-570.1009987347147
 20
-339.4702955183044
 30
0.0
 11
-570.1009987347147
 21
-341.3134304845279
 31
0.0
 12
-577.1009987347147
 22
-340.3918630014161
 32
0.0
 13
-577.1009987347147
 23
-340.3918630014161
 33
0.0
  0
SOLID
  5
38C
330
385
100
AcDbEntity
  8
1
 62
     2
100
AcDbTrace
 10
-601.6009987347168
 20
-341.3134304845279
 30
0.0
 11
-601.6009987347168
 21
-339.4702955183044
 31
0.0
 12
-594.6009987347168
 22
-340.3918630014161
 32
0.0
 13
-594.6009987347168
 23
-340.3918630014161
 33
0.0
  0
MTEXT
  5
38D
330
385
100
AcDbEntity
  8
1
 62
     3
100
AcDbMText
 10
-594.6032909422452
 20
-336.6918630014161
 30
0.0
 40
7.0
 41
0.0
 71
     7
 72
     1
  1
17,5
  7
CONVERTER_11
 11
0.9999999999970619
 21
2.424068405545306E-6
 31
0.0
 73
     1
 44
0.60024009603842
  0
ENDBLK
  5
38F
330
385
100
AcDbEntity
  8
0
100
AcDbBlockEnd
  0
BLOCK
  5
399
330
392
100
AcDbEntity
  8
0
100
AcDbBlockBegin
  2
*D19
 70
     1
 10
0.0
 20
0.0
 30
0.0
  3
*D19
  1

  0
LINE
  5
393
330
392
100
AcDbEntity
  8
1
  6
Continuous
 62
     2
100
AcDbLine
 10
-594.6009987347168
 20
-359.121675477813
 30
0.0
 11
-541.600998734714
 21
-359.121675477813
 31
0.0
  0
LINE
  5
394
330
392
100
AcDbEntity
  8
1
  6
Continuous
 62
     2
100
AcDbLine
 10
-594.6009987347168
 20
-315.891863001416
 30
0.0
 11
-594.6009987347168
 21
-362.121675477813
 31
0.0
  0
LINE
  5
395
330
392
100
AcDbEntity
  8
1
  6
Continuous
 62
     2
100
AcDbLine
 10
-541.600998734714
 20
-303.6861878465006
 30
0.0
 11
-541.600998734714
 21
-362.121675477813
 31
0.0
  0
SOLID
  5
396
330
392
100
AcDbEntity
  8
1
 62
     2
100
AcDbTrace
 10
-587.6009987347168
 20
-358.2001079947013
 30
0.0
 11
-587.6009987347168
 21
-360.0432429609248
 31
0.0
 12
-594.6009987347168
 22
-359.121675477813
 32
0.0
 13
-594.6009987347168
 23
-359.121675477813
 33
0.0
  0
SOLID
  5
397
330
392
100
AcDbEntity
  8
1
 62
     2
100
AcDbTrace
 10
-548.600998734714
 20
-360.0432429609248
 30
0.0
 11
-548.600998734714
 21
-358.2001079947013
 31
0.0
 12
-541.600998734714
 22
-359.121675477813
 32
0.0
 13
-541.600998734714
 23
-359.121675477813
 33
0.0
  0
MTEXT
  5
398
330
392
100
AcDbEntity
  8
1
 62
     3
100
AcDbMText
 10
-576.775426825249
 20
-356.121675477813
 30
0.0
 40
7.0
 41
0.0
 71
     7
 72
     1
  1
53
  7
CONVERTER_11
 11
0.9999999999970619
 21
2.424068405545306E-6
 31
0.0
 73
     1
 44
0.60024009603842
  0
ENDBLK
  5
39A
330
392
100
AcDbEntity
  8
0
100
AcDbBlockEnd
  0
BLOCK
  5
3A4
330
39D
100
AcDbEntity
  8
0
100
AcDbBlockBegin
  2
*D20
 70
     1
 10
0.0
 20
0.0
 30
0.0
  3
*D20
  1

  0
LINE
  5
39E
330
39D
100
AcDbEntity
  8
1
  6
Continuous
 62
     2
100
AcDbLine
 10
-646.8029987347147
 20
-376.522298839232
 30
0.0
 11
-541.600998734714
 21
-376.522298839232
 31
0.0
  0
LINE
  5
39F
330
39D
100
AcDbEntity
  8
1
  6
Continuous
 62
     2
100
AcDbLine
 10
-646.8029987347147
 20
-313.2855652318744
 30
0.0
 11
-646.8029987347147
 21
-379.522298839232
 31
0.0
  0
LINE
  5
3A0
330
39D
100
AcDbEntity
  8
1
  6
Continuous
 62
     2
100
AcDbLine
 10
-541.600998734714
 20
-303.6861878465006
 30
0.0
 11
-541.600998734714
 21
-379.522298839232
 31
0.0
  0
SOLID
  5
3A1
330
39D
100
AcDbEntity
  8
1
 62
     2
100
AcDbTrace
 10
-639.8029987347147
 20
-375.6007313561203
 30
0.0
 11
-639.8029987347147
 21
-377.4438663223438
 31
0.0
 12
-646.8029987347147
 22
-376.522298839232
 32
0.0
 13
-646.8029987347147
 23
-376.522298839232
 33
0.0
  0
SOLID
  5
3A2
330
39D
100
AcDbEntity
  8
1
 62
     2
100
AcDbTrace
 10
-548.600998734714
 20
-377.4438663223438
 30
0.0
 11
-548.600998734714
 21
-375.6007313561203
 31
0.0
 12
-541.600998734714
 22
-376.522298839232
 32
0.0
 13
-541.600998734714
 23
-376.522298839232
 33
0.0
  0
MTEXT
  5
3A3
330
39D
100
AcDbEntity
  8
1
 62
     3
100
AcDbMText
 10
-602.3259987347145
 20
-372.822298839232
 30
0.0
 40
7.0
 41
0.0
 71
     7
 72
     1
  1
105,2
  7
CONVERTER_11
 11
0.9999999999970619
 21
2.424068405545306E-6
 31
0.0
 73
     1
 44
0.60024009603842
  0
ENDBLK
  5
3A5
330
39D
100
AcDbEntity
  8
0
100
AcDbBlockEnd
  0
BLOCK
  5
3AF
330
3A8
100
AcDbEntity
  8
0
100
AcDbBlockBegin
  2
*D21
 70
     1
 10
0.0
 20
0.0
 30
0.0
  3
*D21
  1

  0
LINE
  5
3A9
330
3A8
100
AcDbEntity
  8
1
  6
Continuous
 62
     2
100
AcDbLine
 10
-663.8980912529431
 20
-311.9355652318736
 30
0.0
 11
-663.8980912529431
 21
-208.5855652318739
 31
0.0
  0
LINE
  5
3AA
330
3A8
100
AcDbEntity
  8
1
  6
Continuous
 62
     2
100
AcDbLine
 10
-612.5029987347152
 20
-311.9355652318736
 30
0.0
 11
-666.8980912529431
 21
-311.9355652318736
 31
0.0
  0
LINE
  5
3AB
330
3A8
100
AcDbEntity
  8
1
  6
Continuous
 62
     2
100
AcDbLine
 10
-623.2009987347176
 20
-208.5855652318739
 30
0.0
 11
-666.8980912529431
 21
-208.5855652318739
 31
0.0
  0
SOLID
  5
3AC
330
3A8
100
AcDbEntity
  8
1
 62
     2
100
AcDbTrace
 10
-664.8196587360549
 20
-304.9355652318736
 30
0.0
 11
-662.9765237698314
 21
-304.9355652318736
 31
0.0
 12
-663.8980912529431
 22
-311.9355652318736
 32
0.0
 13
-663.8980912529431
 23
-311.9355652318736
 33
0.0
  0
SOLID
  5
3AD
330
3A8
100
AcDbEntity
  8
1
 62
     2
100
AcDbTrace
 10
-662.9765237698314
 20
-215.5855652318739
 30
0.0
 11
-664.8196587360549
 21
-215.5855652318739
 31
0.0
 12
-663.8980912529431
 22
-208.5855652318739
 32
0.0
 13
-663.8980912529431
 23
-208.5855652318739
 33
0.0
  0
MTEXT
  5
3AE
330
3A8
100
AcDbEntity
  8
1
 62
     3
100
AcDbMText
 10
-667.5980912529432
 20
-273.5049729173575
 30
0.0
 40
7.0
 41
0.0
 71
     7
 72
     1
  1
103,35
  7
CONVERTER_11
 11
0.0
 21
1.0
 31
0.0
 73
     1
 44
0.60024009603842
  0
ENDBLK
  5
3B0
330
3A8
100
AcDbEntity
  8
0
100
AcDbBlockEnd
  0
BLOCK
  5
3BA
330
3B3
100
AcDbEntity
  8
0
100
AcDbBlockBegin
  2
*D22
 70
     1
 10
0.0
 20
0.0
 30
0.0
  3
*D22
  1

  0
LINE
  5
3B4
330
3B3
100
AcDbEntity
  8
1
  6
Continuous
 62
     2
100
AcDbLine
 10
-681.8980912529447
 20
-319.428656970224
 30
0.0
 11
-681.8980912529447
 21
-208.5855652318739
 31
0.0
  0
LINE
  5
3B5
330
3B3
100
AcDbEntity
  8
1
  6
Continuous
 62
     2
100
AcDbLine
 10
-577.0509987347148
 20
-319.428656970224
 30
0.0
 11
-684.8980912529447
 21
-319.428656970224
 31
0.0
  0
LINE
  5
3B6
330
3B3
100
AcDbEntity
  8
1
  6
Continuous
 62
     2
100
AcDbLine
 10
-623.2009987347176
 20
-208.5855652318739
 30
0.0
 11
-684.8980912529447
 21
-208.5855652318739
 31
0.0
  0
SOLID
  5
3B7
330
3B3
100
AcDbEntity
  8
1
 62
     2
100
AcDbTrace
 10
-682.8196587360565
 20
-312.428656970224
 30
0.0
 11
-680.976523769833
 21
-312.428656970224
 31
0.0
 12
-681.8980912529447
 22
-319.428656970224
 32
0.0
 13
-681.8980912529447
 23
-319.428656970224
 33
0.0
  0
SOLID
  5
3B8
330
3B3
100
AcDbEntity
  8
1
 62
     2
100
AcDbTrace
 10
-680.976523769833
 20
-215.5855652318739
 30
0.0
 11
-682.8196587360565
 21
-215.5855652318739
 31
0.0
 12
-681.8980912529447
 22
-208.5855652318739
 32
0.0
 13
-681.8980912529447
 23
-208.5855652318739
 33
0.0
  0
MTEXT
  5
3B9
330
3B3
100
AcDbEntity
  8
1
 62
     3
100
AcDbMText
 10
-685.5980912529448
 20
-281.12094002661
 30
0.0
 40
7.0
 41
0.0
 71
     7
 72
     1
  1
110,84
  7
CONVERTER_11
 11
0.0
 21
1.0
 31
0.0
 73
     1
 44
0.60024009603842
  0
ENDBLK
  5
3BB
330
3B3
100
AcDbEntity
  8
0
100
AcDbBlockEnd
  0
ENDSEC
  0
SECTION
  2
ENTITIES
  0
INSERT
  5
86
330
1F
100
AcDbEntity
  8
1
100
AcDbBlockReference
  2
1
 10
0.0
 20
0.0
 30
0.0
  0
ENDSEC
  0
SECTION
  2
OBJECTS
  0
DICTIONARY
  5
C
330
0
100
AcDbDictionary
281
     1
  3
ACAD_GROUP
350
D
  3
ACAD_LAYOUT
350
1A
  3
ACAD_MATERIAL
350
3B
  3
ACAD_MLEADERSTYLE
350
3E4
  3
ACAD_MLINESTYLE
350
17
  3
ACAD_PLOTSETTINGS
350
19
  3
ACAD_PLOTSTYLENAME
350
E
  3
ACAD_TABLESTYLE
350
3E3
  3
ACAD_VISUALSTYLE
350
2A
  0
DICTIONARY
  5
D
102
{ACAD_REACTORS
330
C
102
}
330
C
100
AcDbDictionary
281
     1
  0
DICTIONARY
  5
1A
102
{ACAD_REACTORS
330
C
102
}
330
C
100
AcDbDictionary
281
     1
  3
Layout1
350
1E
  3
Layout2
350
26
  3
Model
350
22
  0
DICTIONARY
  5
3B
102
{ACAD_REACTORS
330
C
102
}
330
C
100
AcDbDictionary
281
     1
  3
ByBlock
350
3D
  3
ByLayer
350
3C
  3
Global
350
3E
  0
DICTIONARY
  5
3E4
102
{ACAD_REACTORS
330
C
102
}
330
C
100
AcDbDictionary
281
     1
  0
DICTIONARY
  5
17
102
{ACAD_REACTORS
330
C
102
}
330
C
100
AcDbDictionary
281
     1
  3
Standard
350
18
  0
DICTIONARY
  5
19
102
{ACAD_REACTORS
330
C
102
}
330
C
100
AcDbDictionary
281
     1
  0
ACDBDICTIONARYWDFLT
  5
E
102
{ACAD_REACTORS
330
C
102
}
330
C
100
AcDbDictionary
281
     1
  3
Normal
350
F
100
AcDbDictionaryWithDefault
340
F
  0
DICTIONARY
  5
3E3
102
{ACAD_REACTORS
330
C
102
}
330
C
100
AcDbDictionary
281
     1
  0
DICTIONARY
  5
2A
102
{ACAD_REACTORS
330
C
102
}
330
C
100
AcDbDictionary
281
     1
  3
2dWireframe
350
2F
  3
3D Hidden
350
31
  3
3dWireframe
350
30
  3
Basic
350
32
  3
Brighten
350
36
  3
ColorChange
350
3A
  3
Conceptual
350
34
  3
Dim
350
35
  3
Facepattern
350
39
  3
Flat
350
2B
  3
FlatWithEdges
350
2C
  3
Gouraud
350
2D
  3
GouraudWithEdges
350
2E
  3
Linepattern
350
38
  3
Realistic
350
33
  3
Thicken
350
37
  0
LAYOUT
  5
1E
102
{ACAD_REACTORS
330
1A
102
}
330
1A
100
AcDbPlotSettings
  1

  2
none_device
  4

  6

 40
0.0
 41
0.0
 42
0.0
 43
0.0
 44
0.0
 45
0.0
 46
0.0
 47
0.0
 48
0.0
 49
0.0
140
0.0
141
0.0
142
1.0
143
1.0
 70
   688
 72
     0
 73
     0
 74
     5
  7

 75
    16
 76
     0
 77
     2
 78
   300
147
1.0
148
0.0
149
0.0
100
AcDbLayout
  1
Layout1
 70
     1
 71
     1
 10
0.0
 20
0.0
 11
12.0
 21
9.0
 12
0.0
 22
0.0
 32
0.0
 14
1.00000000000000E+20
 24
1.00000000000000E+20
 34
1.00000000000000E+20
 15
-1.00000000000000E+20
 25
-1.00000000000000E+20
 35
-1.00000000000000E+20
146
0.0
 13
0.0
 23
0.0
 33
0.0
 16
1.0
 26
0.0
 36
0.0
 17
0.0
 27
1.0
 37
0.0
 76
     0
330
1B
  0
LAYOUT
  5
26
102
{ACAD_REACTORS
330
1A
102
}
330
1A
100
AcDbPlotSettings
  1

  2
none_device
  4

  6

 40
0.0
 41
0.0
 42
0.0
 43
0.0
 44
0.0
 45
0.0
 46
0.0
 47
0.0
 48
0.0
 49
0.0
140
0.0
141
0.0
142
1.0
143
1.0
 70
   688
 72
     0
 73
     0
 74
     5
  7

 75
    16
 76
     0
 77
     2
 78
   300
147
1.0
148
0.0
149
0.0
100
AcDbLayout
  1
Layout2
 70
     1
 71
     2
 10
0.0
 20
0.0
 11
0.0
 21
0.0
 12
0.0
 22
0.0
 32
0.0
 14
0.0
 24
0.0
 34
0.0
 15
0.0
 25
0.0
 35
0.0
146
0.0
 13
0.0
 23
0.0
 33
0.0
 16
1.0
 26
0.0
 36
0.0
 17
0.0
 27
1.0
 37
0.0
 76
     0
330
23
  0
LAYOUT
  5
22
102
{ACAD_REACTORS
330
1A
102
}
330
1A
100
AcDbPlotSettings
  1

  2
none_device
  4

  6

 40
0.0
 41
0.0
 42
0.0
 43
0.0
 44
0.0
 45
0.0
 46
0.0
 47
0.0
 48
0.0
 49
0.0
140
0.0
141
0.0
142
1.0
143
1.0
 70
  1712
 72
     0
 73
     0
 74
     0
  7

 75
     0
 76
     0
 77
     2
 78
   300
147
1.0
148
0.0
149
0.0
100
AcDbLayout
  1
Model
 70
     1
 71
     0
 10
0.0
 20
0.0
 11
12.0
 21
9.0
 12
0.0
 22
0.0
 32
0.0
 14
-397.0000016349773
 24
-283.9301500076673
 34
0.0
 15
-100.0000016349792
 25
-73.93015000766715
 35
0.0
146
0.0
 13
0.0
 23
0.0
 33
0.0
 16
1.0
 26
0.0
 36
0.0
 17
0.0
 27
1.0
 37
0.0
 76
     0
330
1F
331
29
  0
MATERIAL
  5
3D
102
{ACAD_REACTORS
330
3B
102
}
102
{ACAD_XDICTIONARY
360
3DF
102
}
330
3B
100
AcDbMaterial
  1
ByBlock
  0
MATERIAL
  5
3C
102
{ACAD_REACTORS
330
3B
102
}
102
{ACAD_XDICTIONARY
360
3DD
102
}
330
3B
100
AcDbMaterial
  1
ByLayer
  0
MATERIAL
  5
3E
102
{ACAD_REACTORS
330
3B
102
}
102
{ACAD_XDICTIONARY
360
3E1
102
}
330
3B
100
AcDbMaterial
  1
Global
  0
MLINESTYLE
  5
18
102
{ACAD_REACTORS
330
17
102
}
330
17
100
AcDbMlineStyle
  2
Standard
 70
     0
  3

 62
   256
 51
90.0
 52
90.0
 71
     2
 49
0.5
 62
   256
  6
BYLAYER
 49
-0.5
 62
   256
  6
BYLAYER
  0
ACDBPLACEHOLDER
  5
F
102
{ACAD_REACTORS
330
E
102
}
330
E
  0
VISUALSTYLE
  5
2F
102
{ACAD_REACTORS
330
2A
102
}
102
{ACAD_XDICTIONARY
360
3C5
102
}
330
2A
100
AcDbVisualStyle
  2
2dWireframe
 70
     4
 71
     0
 72
     2
 73
     0
 90
        0
 40
-0.6
 41
-30.0
 62
     5
 63
     7
421
 16777215
 74
     1
 91
        4
 64
     7
 65
   257
 75
     1
175
     1
 42
1.0
 92
        0
 66
   257
 43
1.0
 76
     1
 77
     6
 78
     2
 67
     7
 79
     5
170
     0
171
     0
290
     0
174
     0
 93
        1
 44
0.0
173
     0
291
     0
 45
0.0
1001
ACAD
1000
AcDbSavedByObjectVersion
1070
     0
  0
VISUALSTYLE
  5
31
102
{ACAD_REACTORS
330
2A
102
}
102
{ACAD_XDICTIONARY
360
3C9
102
}
330
2A
100
AcDbVisualStyle
  2
3D Hidden
 70
     6
 71
     1
 72
     2
 73
     2
 90
        0
 40
-0.6
 41
-30.0
 62
     5
 63
     7
421
 16777215
 74
     2
 91
        2
 64
     7
 65
   257
 75
     2
175
     1
 42
40.0
 92
        0
 66
   257
 43
1.0
 76
     1
 77
     6
 78
     2
 67
     7
 79
     3
170
     0
171
     0
290
     0
174
     0
 93
        1
 44
0.0
173
     0
291
     0
 45
0.0
1001
ACAD
1000
AcDbSavedByObjectVersion
1070
     0
  0
VISUALSTYLE
  5
30
102
{ACAD_REACTORS
330
2A
102
}
102
{ACAD_XDICTIONARY
360
3C7
102
}
330
2A
100
AcDbVisualStyle
  2
3dWireframe
 70
     5
 71
     0
 72
     2
 73
     0
 90
        0
 40
-0.6
 41
-30.0
 62
     5
 63
     7
421
 16777215
 74
     1
 91
        4
 64
     7
 65
   257
 75
     1
175
     1
 42
1.0
 92
        0
 66
   257
 43
1.0
 76
     1
 77
     6
 78
     2
 67
     7
 79
     5
170
     0
171
     0
290
     0
174
     0
 93
        1
 44
0.0
173
     0
291
     0
 45
0.0
1001
ACAD
1000
AcDbSavedByObjectVersion
1070
     0
  0
VISUALSTYLE
  5
32
102
{ACAD_REACTORS
330
2A
102
}
102
{ACAD_XDICTIONARY
360
3CB
102
}
330
2A
100
AcDbVisualStyle
  2
Basic
 70
     7
 71
     1
 72
     0
 73
     1
 90
        0
 40
-0.6
 41
-30.0
 62
     5
 63
     7
421
 16777215
 74
     0
 91
        4
 64
     7
 65
   257
 75
     1
175
     1
 42
1.0
 92
        8
 66
     7
 43
1.0
 76
     1
 77
     6
 78
     2
 67
     7
 79
     5
170
     0
171
     0
290
     0
174
     0
 93
        1
 44
0.0
173
     0
291
     1
 45
0.0
1001
ACAD
1000
AcDbSavedByObjectVersion
1070
     0
  0
VISUALSTYLE
  5
36
102
{ACAD_REACTORS
330
2A
102
}
102
{ACAD_XDICTIONARY
360
3D3
102
}
330
2A
100
AcDbVisualStyle
  2
Brighten
 70
    12
 71
     2
 72
     2
 73
     0
 90
        0
 40
-0.6
 41
-30.0
 62
     5
 63
     7
421
 16777215
 74
     1
 91
        4
 64
     7
 65
   257
 75
     1
175
     1
 42
1.0
 92
        8
 66
     7
 43
1.0
 76
     1
 77
     6
 78
     2
 67
     7
 79
     5
170
     0
171
     0
290
     0
174
     0
 93
        1
 44
50.0
173
     0
291
     1
 45
0.0
1001
ACAD
1000
AcDbSavedByObjectVersion
1070
     0
  0
VISUALSTYLE
  5
3A
102
{ACAD_REACTORS
330
2A
102
}
102
{ACAD_XDICTIONARY
360
3DB
102
}
330
2A
100
AcDbVisualStyle
  2
ColorChange
 70
    16
 71
     2
 72
     2
 73
     3
 90
        0
 40
-0.6
 41
-30.0
 62
     5
 63
     8
421
  8421504
 74
     1
 91
        4
 64
     7
 65
   257
 75
     1
175
     1
 42
1.0
 92
        8
 66
     8
424
  8421504
 43
1.0
 76
     1
 77
     6
 78
     2
 67
     7
 79
     5
170
     0
171
     0
290
     0
174
     0
 93
        1
 44
0.0
173
     0
291
     1
 45
0.0
1001
ACAD
1000
AcDbSavedByObjectVersion
1070
     0
  0
VISUALSTYLE
  5
34
102
{ACAD_REACTORS
330
2A
102
}
102
{ACAD_XDICTIONARY
360
3CF
102
}
330
2A
100
AcDbVisualStyle
  2
Conceptual
 70
     9
 71
     3
 72
     2
 73
     0
 90
        0
 40
-0.6
 41
-30.0
 62
     5
 63
     7
421
 16777215
 74
     2
 91
        2
 64
     7
 65
   257
 75
     1
175
     1
 42
40.0
 92
        8
 66
     7
 43
1.0
 76
     1
 77
     6
 78
     2
 67
     7
 79
     3
170
     0
171
     0
290
     0
174
     0
 93
        1
 44
0.0
173
     0
291
     0
 45
0.0
1001
ACAD
1000
AcDbSavedByObjectVersion
1070
     0
  0
VISUALSTYLE
  5
35
102
{ACAD_REACTORS
330
2A
102
}
102
{ACAD_XDICTIONARY
360
3D1
102
}
330
2A
100
AcDbVisualStyle
  2
Dim
 70
    11
 71
     2
 72
     2
 73
     0
 90
        0
 40
-0.6
 41
-30.0
 62
     5
 63
     7
421
 16777215
 74
     1
 91
        4
 64
     7
 65
   257
 75
     1
175
     1
 42
1.0
 92
        8
 66
     7
 43
1.0
 76
     1
 77
     6
 78
     2
 67
     7
 79
     5
170
     0
171
     0
290
     0
174
     0
 93
        1
 44
-50.0
173
     0
291
     1
 45
0.0
1001
ACAD
1000
AcDbSavedByObjectVersion
1070
     0
  0
VISUALSTYLE
  5
39
102
{ACAD_REACTORS
330
2A
102
}
102
{ACAD_XDICTIONARY
360
3D9
102
}
330
2A
100
AcDbVisualStyle
  2
Facepattern
 70
    15
 71
     2
 72
     2
 73
     0
 90
        0
 40
-0.6
 41
-30.0
 62
     5
 63
     7
421
 16777215
 74
     1
 91
        4
 64
     7
 65
   257
 75
     1
175
     1
 42
1.0
 92
        8
 66
     7
 43
1.0
 76
     1
 77
     6
 78
     2
 67
     7
 79
     5
170
     0
171
     0
290
     0
174
     0
 93
        1
 44
0.0
173
     0
291
     1
 45
0.0
1001
ACAD
1000
AcDbSavedByObjectVersion
1070
     0
  0
VISUALSTYLE
  5
2B
102
{ACAD_REACTORS
330
2A
102
}
102
{ACAD_XDICTIONARY
360
3BD
102
}
330
2A
100
AcDbVisualStyle
  2
Flat
 70
     0
 71
     2
 72
     1
 73
     1
 90
        2
 40
-0.6
 41
30.0
 62
     5
 63
     7
421
 16777215
 74
     0
 91
        4
 64
     7
 65
   257
 75
     1
175
     1
 42
1.0
 92
        8
 66
     7
 43
1.0
 76
     1
 77
     6
 78
     2
 67
     7
 79
     5
170
     0
171
     0
290
     0
174
     0
 93
       13
 44
0.0
173
     0
291
     1
 45
0.0
1001
ACAD
1000
AcDbSavedByObjectVersion
1070
     0
  0
VISUALSTYLE
  5
2C
102
{ACAD_REACTORS
330
2A
102
}
102
{ACAD_XDICTIONARY
360
3BF
102
}
330
2A
100
AcDbVisualStyle
  2
FlatWithEdges
 70
     1
 71
     2
 72
     1
 73
     1
 90
        2
 40
-0.6
 41
30.0
 62
     5
 63
     7
421
 16777215
 74
     1
 91
        4
 64
     7
 65
   257
 75
     1
175
     1
 42
1.0
 92
        0
 66
   257
 43
1.0
 76
     1
 77
     6
 78
     2
 67
     7
 79
     5
170
     0
171
     0
290
     0
174
     0
 93
       13
 44
0.0
173
     0
291
     1
 45
0.0
1001
ACAD
1000
AcDbSavedByObjectVersion
1070
     0
  0
VISUALSTYLE
  5
2D
102
{ACAD_REACTORS
330
2A
102
}
102
{ACAD_XDICTIONARY
360
3C1
102
}
330
2A
100
AcDbVisualStyle
  2
Gouraud
 70
     2
 71
     2
 72
     2
 73
     1
 90
        2
 40
-0.6
 41
30.0
 62
     5
 63
     7
421
 16777215
 74
     0
 91
        4
 64
     7
 65
   257
 75
     1
175
     1
 42
1.0
 92
        0
 66
     7
 43
1.0
 76
     1
 77
     6
 78
     2
 67
     7
 79
     5
170
     0
171
     0
290
     0
174
     0
 93
       13
 44
0.0
173
     0
291
     1
 45
0.0
1001
ACAD
1000
AcDbSavedByObjectVersion
1070
     0
  0
VISUALSTYLE
  5
2E
102
{ACAD_REACTORS
330
2A
102
}
102
{ACAD_XDICTIONARY
360
3C3
102
}
330
2A
100
AcDbVisualStyle
  2
GouraudWithEdges
 70
     3
 71
     2
 72
     2
 73
     1
 90
        2
 40
-0.6
 41
30.0
 62
     5
 63
     7
421
 16777215
 74
     1
 91
        4
 64
     7
 65
   257
 75
     1
175
     1
 42
1.0
 92
        0
 66
   257
 43
1.0
 76
     1
 77
     6
 78
     2
 67
     7
 79
     5
170
     0
171
     0
290
     0
174
     0
 93
       13
 44
0.0
173
     0
291
     1
 45
0.0
1001
ACAD
1000
AcDbSavedByObjectVersion
1070
     0
  0
VISUALSTYLE
  5
38
102
{ACAD_REACTORS
330
2A
102
}
102
{ACAD_XDICTIONARY
360
3D7
102
}
330
2A
100
AcDbVisualStyle
  2
Linepattern
 70
    14
 71
     2
 72
     2
 73
     0
 90
        0
 40
-0.6
 41
-30.0
 62
     5
 63
     7
421
 16777215
 74
     1
 91
        4
 64
     7
 65
   257
 75
     7
175
     7
 42
1.0
 92
        8
 66
     7
 43
1.0
 76
     1
 77
     6
 78
     2
 67
     7
 79
     5
170
     0
171
     0
290
     0
174
     0
 93
        1
 44
0.0
173
     0
291
     1
 45
0.0
1001
ACAD
1000
AcDbSavedByObjectVersion
1070
     0
  0
VISUALSTYLE
  5
33
102
{ACAD_REACTORS
330
2A
102
}
102
{ACAD_XDICTIONARY
360
3CD
102
}
330
2A
100
AcDbVisualStyle
  2
Realistic
 70
     8
 71
     2
 72
     2
 73
     0
 90
        0
 40
-0.6
 41
-30.0
 62
     5
 63
     7
421
 16777215
 74
     1
 91
        0
 64
     7
 65
   257
 75
     1
175
     1
 42
1.0
 92
        8
 66
     8
424
  7895160
 43
1.0
 76
     1
 77
     6
 78
     2
 67
     7
 79
     5
170
     0
171
     0
290
     0
174
     0
 93
       13
 44
0.0
173
     0
291
     0
 45
0.0
1001
ACAD
1000
AcDbSavedByObjectVersion
1070
     0
  0
VISUALSTYLE
  5
37
102
{ACAD_REACTORS
330
2A
102
}
102
{ACAD_XDICTIONARY
360
3D5
102
}
330
2A
100
AcDbVisualStyle
  2
Thicken
 70
    13
 71
     2
 72
     2
 73
     0
 90
        0
 40
-0.6
 41
-30.0
 62
     5
 63
     7
421
 16777215
 74
     1
 91
        4
 64
     7
 65
   257
 75
     1
175
     1
 42
1.0
 92
       12
 66
     7
 43
1.0
 76
     1
 77
     6
 78
     2
 67
     7
 79
     5
170
     0
171
     0
290
     0
174
     0
 93
        1
 44
0.0
173
     0
291
     1
 45
0.0
1001
ACAD
1000
AcDbSavedByObjectVersion
1070
     0
  0
DICTIONARY
  5
3DF
330
3D
100
AcDbDictionary
280
     1
281
     1
  3
ACAD_XREC_ROUNDTRIP
360
3E0
  0
DICTIONARY
  5
3DD
330
3C
100
AcDbDictionary
280
     1
281
     1
  3
ACAD_XREC_ROUNDTRIP
360
3DE
  0
DICTIONARY
  5
3E1
330
3E
100
AcDbDictionary
280
     1
281
     1
  3
ACAD_XREC_ROUNDTRIP
360
3E2
  0
DICTIONARY
  5
3C5
330
2F
100
AcDbDictionary
280
     1
281
     1
  3
ACAD_XREC_ROUNDTRIP
360
3C6
  0
DICTIONARY
  5
3C9
330
31
100
AcDbDictionary
280
     1
281
     1
  3
ACAD_XREC_ROUNDTRIP
360
3CA
  0
DICTIONARY
  5
3C7
330
30
100
AcDbDictionary
280
     1
281
     1
  3
ACAD_XREC_ROUNDTRIP
360
3C8
  0
DICTIONARY
  5
3CB
330
32
100
AcDbDictionary
280
     1
281
     1
  3
ACAD_XREC_ROUNDTRIP
360
3CC
  0
DICTIONARY
  5
3D3
330
36
100
AcDbDictionary
280
     1
281
     1
  3
ACAD_XREC_ROUNDTRIP
360
3D4
  0
DICTIONARY
  5
3DB
330
3A
100
AcDbDictionary
280
     1
281
     1
  3
ACAD_XREC_ROUNDTRIP
360
3DC
  0
DICTIONARY
  5
3CF
330
34
100
AcDbDictionary
280
     1
281
     1
  3
ACAD_XREC_ROUNDTRIP
360
3D0
  0
DICTIONARY
  5
3D1
330
35
100
AcDbDictionary
280
     1
281
     1
  3
ACAD_XREC_ROUNDTRIP
360
3D2
  0
DICTIONARY
  5
3D9
330
39
100
AcDbDictionary
280
     1
281
     1
  3
ACAD_XREC_ROUNDTRIP
360
3DA
  0
DICTIONARY
  5
3BD
330
2B
100
AcDbDictionary
280
     1
281
     1
  3
ACAD_XREC_ROUNDTRIP
360
3BE
  0
DICTIONARY
  5
3BF
330
2C
100
AcDbDictionary
280
     1
281
     1
  3
ACAD_XREC_ROUNDTRIP
360
3C0
  0
DICTIONARY
  5
3C1
330
2D
100
AcDbDictionary
280
     1
281
     1
  3
ACAD_XREC_ROUNDTRIP
360
3C2
  0
DICTIONARY
  5
3C3
330
2E
100
AcDbDictionary
280
     1
281
     1
  3
ACAD_XREC_ROUNDTRIP
360
3C4
  0
DICTIONARY
  5
3D7
330
38
100
AcDbDictionary
280
     1
281
     1
  3
ACAD_XREC_ROUNDTRIP
360
3D8
  0
DICTIONARY
  5
3CD
330
33
100
AcDbDictionary
280
     1
281
     1
  3
ACAD_XREC_ROUNDTRIP
360
3CE
  0
DICTIONARY
  5
3D5
330
37
100
AcDbDictionary
280
     1
281
     1
  3
ACAD_XREC_ROUNDTRIP
360
3D6
  0
XRECORD
  5
3E0
102
{ACAD_REACTORS
330
3DF
102
}
330
3DF
100
AcDbXrecord
280
     1
102
MATERIAL
148
0.0
149
0.0
149
0.0
 93
        0
 94
      127
282
     0
 72
     1
 77
     1
171
     1
175
     1
179
     1
273
     0
  0
XRECORD
  5
3DE
102
{ACAD_REACTORS
330
3DD
102
}
330
3DD
100
AcDbXrecord
280
     1
102
MATERIAL
148
0.0
149
0.0
149
0.0
 93
        0
 94
      127
282
     0
 72
     1
 77
     1
171
     1
175
     1
179
     1
273
     0
  0
XRECORD
  5
3E2
102
{ACAD_REACTORS
330
3E1
102
}
330
3E1
100
AcDbXrecord
280
     1
102
MATERIAL
148
0.0
149
0.0
149
0.0
 93
        0
 94
      127
282
     0
 72
     1
 77
     1
171
     1
175
     1
179
     1
273
     0
  0
XRECORD
  5
3C6
102
{ACAD_REACTORS
330
3C5
102
}
330
3C5
100
AcDbXrecord
280
     1
102
RTVSPropertyOp0
 70
     1
102
RTVSPropertyOp1
 70
     1
102
RTVSPropertyOp2
 70
     1
102
RTVSPropertyOp3
 70
     1
102
RTVSPropertyOp4
 70
     1
102
RTVSPropertyOp5
 70
     1
102
RTVSPropertyOp6
 70
     1
102
RTVSPropertyOp7
 70
     1
102
RTVSPropertyOp8
 70
     1
102
RTVSPropertyOp9
 70
     1
102
RTVSPropertyOp10
 70
     1
102
RTVSPropertyOp11
 70
     1
102
RTVSPropertyOp12
 70
     1
102
RTVSPropertyOp13
 70
     1
102
RTVSPropertyOp14
 70
     1
102
RTVSPropertyOp15
 70
     1
102
RTVSPropertyOp16
 70
     1
102
RTVSPropertyOp17
 70
     1
102
RTVSPropertyOp18
 70
     1
102
RTVSPropertyOp19
 70
     1
102
RTVSPropertyOp20
 70
     1
102
RTVSPropertyOp21
 70
     1
102
RTVSPropertyOp22
 70
     1
102
RTVSPropertyOp23
 70
     1
102
RTVSPropertyOp24
 70
     1
102
RTVSPropertyOp25
 70
     1
102
RTVSPropertyOp26
 70
     1
102
RTVSPropertyOp27
 70
     1
102
RTVSPropertyOp28
 70
     1
102
RTVSPropertyOp29
 70
     1
102
RTVSPropertyOp30
 70
     1
102
RTVSPropertyOp31
 70
     1
102
RTVSPropertyOp32
 70
     1
  0
XRECORD
  5
3CA
102
{ACAD_REACTORS
330
3C9
102
}
330
3C9
100
AcDbXrecord
280
     1
102
RTVSPropertyOp0
 70
     1
102
RTVSPropertyOp1
 70
     1
102
RTVSPropertyOp2
 70
     1
102
RTVSPropertyOp3
 70
     1
102
RTVSPropertyOp4
 70
     1
102
RTVSPropertyOp5
 70
     1
102
RTVSPropertyOp6
 70
     1
102
RTVSPropertyOp7
 70
     1
102
RTVSPropertyOp8
 70
     1
102
RTVSPropertyOp9
 70
     1
102
RTVSPropertyOp10
 70
     1
102
RTVSPropertyOp11
 70
     1
102
RTVSPropertyOp12
 70
     1
102
RTVSPropertyOp13
 70
     1
102
RTVSPropertyOp14
 70
     1
102
RTVSPropertyOp15
 70
     1
102
RTVSPropertyOp16
 70
     1
102
RTVSPropertyOp17
 70
     1
102
RTVSPropertyOp18
 70
     1
102
RTVSPropertyOp19
 70
     1
102
RTVSPropertyOp20
 70
     1
102
RTVSPropertyOp21
 70
     1
102
RTVSPropertyOp22
 70
     1
102
RTVSPropertyOp23
 70
     1
102
RTVSPropertyOp24
 70
     1
102
RTVSPropertyOp25
 70
     1
102
RTVSPropertyOp26
 70
     1
102
RTVSPropertyOp27
 70
     1
102
RTVSPropertyOp28
 70
     1
102
RTVSPropertyOp29
 70
     1
102
RTVSPropertyOp30
 70
     1
102
RTVSPropertyOp31
 70
     1
102
RTVSPropertyOp32
 70
     1
  0
XRECORD
  5
3C8
102
{ACAD_REACTORS
330
3C7
102
}
330
3C7
100
AcDbXrecord
280
     1
102
RTVSPropertyOp0
 70
     1
102
RTVSPropertyOp1
 70
     1
102
RTVSPropertyOp2
 70
     1
102
RTVSPropertyOp3
 70
     1
102
RTVSPropertyOp4
 70
     1
102
RTVSPropertyOp5
 70
     1
102
RTVSPropertyOp6
 70
     1
102
RTVSPropertyOp7
 70
     1
102
RTVSPropertyOp8
 70
     1
102
RTVSPropertyOp9
 70
     1
102
RTVSPropertyOp10
 70
     1
102
RTVSPropertyOp11
 70
     1
102
RTVSPropertyOp12
 70
     1
102
RTVSPropertyOp13
 70
     1
102
RTVSPropertyOp14
 70
     1
102
RTVSPropertyOp15
 70
     1
102
RTVSPropertyOp16
 70
     1
102
RTVSPropertyOp17
 70
     1
102
RTVSPropertyOp18
 70
     1
102
RTVSPropertyOp19
 70
     1
102
RTVSPropertyOp20
 70
     1
102
RTVSPropertyOp21
 70
     1
102
RTVSPropertyOp22
 70
     1
102
RTVSPropertyOp23
 70
     1
102
RTVSPropertyOp24
 70
     1
102
RTVSPropertyOp25
 70
     1
102
RTVSPropertyOp26
 70
     1
102
RTVSPropertyOp27
 70
     1
102
RTVSPropertyOp28
 70
     1
102
RTVSPropertyOp29
 70
     1
102
RTVSPropertyOp30
 70
     1
102
RTVSPropertyOp31
 70
     1
102
RTVSPropertyOp32
 70
     1
  0
XRECORD
  5
3CC
102
{ACAD_REACTORS
330
3CB
102
}
330
3CB
100
AcDbXrecord
280
     1
102
RTVSPropertyOp0
 70
     1
102
RTVSPropertyOp1
 70
     1
102
RTVSPropertyOp2
 70
     1
102
RTVSPropertyOp3
 70
     1
102
RTVSPropertyOp4
 70
     1
102
RTVSPropertyOp5
 70
     1
102
RTVSPropertyOp6
 70
     1
102
RTVSPropertyOp7
 70
     1
102
RTVSPropertyOp8
 70
     1
102
RTVSPropertyOp9
 70
     1
102
RTVSPropertyOp10
 70
     1
102
RTVSPropertyOp11
 70
     1
102
RTVSPropertyOp12
 70
     1
102
RTVSPropertyOp13
 70
     1
102
RTVSPropertyOp14
 70
     1
102
RTVSPropertyOp15
 70
     1
102
RTVSPropertyOp16
 70
     1
102
RTVSPropertyOp17
 70
     1
102
RTVSPropertyOp18
 70
     1
102
RTVSPropertyOp19
 70
     1
102
RTVSPropertyOp20
 70
     1
102
RTVSPropertyOp21
 70
     1
102
RTVSPropertyOp22
 70
     1
102
RTVSPropertyOp23
 70
     1
102
RTVSPropertyOp24
 70
     1
102
RTVSPropertyOp25
 70
     1
102
RTVSPropertyOp26
 70
     1
102
RTVSPropertyOp27
 70
     1
102
RTVSPropertyOp28
 70
     1
102
RTVSPropertyOp29
 70
     1
102
RTVSPropertyOp30
 70
     1
102
RTVSPropertyOp31
 70
     1
102
RTVSPropertyOp32
 70
     1
  0
XRECORD
  5
3D4
102
{ACAD_REACTORS
330
3D3
102
}
330
3D3
100
AcDbXrecord
280
     1
102
RTVSPropertyOp0
 70
     1
102
RTVSPropertyOp1
 70
     1
102
RTVSPropertyOp2
 70
     1
102
RTVSPropertyOp3
 70
     1
102
RTVSPropertyOp4
 70
     1
102
RTVSPropertyOp5
 70
     1
102
RTVSPropertyOp6
 70
     1
102
RTVSPropertyOp7
 70
     1
102
RTVSPropertyOp8
 70
     1
102
RTVSPropertyOp9
 70
     1
102
RTVSPropertyOp10
 70
     1
102
RTVSPropertyOp11
 70
     1
102
RTVSPropertyOp12
 70
     1
102
RTVSPropertyOp13
 70
     1
102
RTVSPropertyOp14
 70
     1
102
RTVSPropertyOp15
 70
     1
102
RTVSPropertyOp16
 70
     1
102
RTVSPropertyOp17
 70
     1
102
RTVSPropertyOp18
 70
     1
102
RTVSPropertyOp19
 70
     1
102
RTVSPropertyOp20
 70
     1
102
RTVSPropertyOp21
 70
     1
102
RTVSPropertyOp22
 70
     1
102
RTVSPropertyOp23
 70
     1
102
RTVSPropertyOp24
 70
     1
102
RTVSPropertyOp25
 70
     1
102
RTVSPropertyOp26
 70
     1
102
RTVSPropertyOp27
 70
     1
102
RTVSPropertyOp28
 70
     1
102
RTVSPropertyOp29
 70
     1
102
RTVSPropertyOp30
 70
     1
102
RTVSPropertyOp31
 70
     1
102
RTVSPropertyOp32
 70
     1
  0
XRECORD
  5
3DC
102
{ACAD_REACTORS
330
3DB
102
}
330
3DB
100
AcDbXrecord
280
     1
102
RTVSPropertyOp0
 70
     1
102
RTVSPropertyOp1
 70
     1
102
RTVSPropertyOp2
 70
     1
102
RTVSPropertyOp3
 70
     1
102
RTVSPropertyOp4
 70
     1
102
RTVSPropertyOp5
 70
     1
102
RTVSPropertyOp6
 70
     1
102
RTVSPropertyOp7
 70
     1
102
RTVSPropertyOp8
 70
     1
102
RTVSPropertyOp9
 70
     1
102
RTVSPropertyOp10
 70
     1
102
RTVSPropertyOp11
 70
     1
102
RTVSPropertyOp12
 70
     1
102
RTVSPropertyOp13
 70
     1
102
RTVSPropertyOp14
 70
     1
102
RTVSPropertyOp15
 70
     1
102
RTVSPropertyOp16
 70
     1
102
RTVSPropertyOp17
 70
     1
102
RTVSPropertyOp18
 70
     1
102
RTVSPropertyOp19
 70
     1
102
RTVSPropertyOp20
 70
     1
102
RTVSPropertyOp21
 70
     1
102
RTVSPropertyOp22
 70
     1
102
RTVSPropertyOp23
 70
     1
102
RTVSPropertyOp24
 70
     1
102
RTVSPropertyOp25
 70
     1
102
RTVSPropertyOp26
 70
     1
102
RTVSPropertyOp27
 70
     1
102
RTVSPropertyOp28
 70
     1
102
RTVSPropertyOp29
 70
     1
102
RTVSPropertyOp30
 70
     1
102
RTVSPropertyOp31
 70
     1
102
RTVSPropertyOp32
 70
     1
  0
XRECORD
  5
3D0
102
{ACAD_REACTORS
330
3CF
102
}
330
3CF
100
AcDbXrecord
280
     1
102
RTVSPropertyOp0
 70
     1
102
RTVSPropertyOp1
 70
     1
102
RTVSPropertyOp2
 70
     1
102
RTVSPropertyOp3
 70
     1
102
RTVSPropertyOp4
 70
     1
102
RTVSPropertyOp5
 70
     1
102
RTVSPropertyOp6
 70
     1
102
RTVSPropertyOp7
 70
     1
102
RTVSPropertyOp8
 70
     1
102
RTVSPropertyOp9
 70
     1
102
RTVSPropertyOp10
 70
     1
102
RTVSPropertyOp11
 70
     1
102
RTVSPropertyOp12
 70
     1
102
RTVSPropertyOp13
 70
     1
102
RTVSPropertyOp14
 70
     1
102
RTVSPropertyOp15
 70
     1
102
RTVSPropertyOp16
 70
     1
102
RTVSPropertyOp17
 70
     1
102
RTVSPropertyOp18
 70
     1
102
RTVSPropertyOp19
 70
     1
102
RTVSPropertyOp20
 70
     1
102
RTVSPropertyOp21
 70
     1
102
RTVSPropertyOp22
 70
     1
102
RTVSPropertyOp23
 70
     1
102
RTVSPropertyOp24
 70
     1
102
RTVSPropertyOp25
 70
     1
102
RTVSPropertyOp26
 70
     1
102
RTVSPropertyOp27
 70
     1
102
RTVSPropertyOp28
 70
     1
102
RTVSPropertyOp29
 70
     1
102
RTVSPropertyOp30
 70
     1
102
RTVSPropertyOp31
 70
     1
102
RTVSPropertyOp32
 70
     1
  0
XRECORD
  5
3D2
102
{ACAD_REACTORS
330
3D1
102
}
330
3D1
100
AcDbXrecord
280
     1
102
RTVSPropertyOp0
 70
     1
102
RTVSPropertyOp1
 70
     1
102
RTVSPropertyOp2
 70
     1
102
RTVSPropertyOp3
 70
     1
102
RTVSPropertyOp4
 70
     1
102
RTVSPropertyOp5
 70
     1
102
RTVSPropertyOp6
 70
     1
102
RTVSPropertyOp7
 70
     1
102
RTVSPropertyOp8
 70
     1
102
RTVSPropertyOp9
 70
     1
102
RTVSPropertyOp10
 70
     1
102
RTVSPropertyOp11
 70
     1
102
RTVSPropertyOp12
 70
     1
102
RTVSPropertyOp13
 70
     1
102
RTVSPropertyOp14
 70
     1
102
RTVSPropertyOp15
 70
     1
102
RTVSPropertyOp16
 70
     1
102
RTVSPropertyOp17
 70
     1
102
RTVSPropertyOp18
 70
     1
102
RTVSPropertyOp19
 70
     1
102
RTVSPropertyOp20
 70
     1
102
RTVSPropertyOp21
 70
     1
102
RTVSPropertyOp22
 70
     1
102
RTVSPropertyOp23
 70
     1
102
RTVSPropertyOp24
 70
     1
102
RTVSPropertyOp25
 70
     1
102
RTVSPropertyOp26
 70
     1
102
RTVSPropertyOp27
 70
     1
102
RTVSPropertyOp28
 70
     1
102
RTVSPropertyOp29
 70
     1
102
RTVSPropertyOp30
 70
     1
102
RTVSPropertyOp31
 70
     1
102
RTVSPropertyOp32
 70
     1
  0
XRECORD
  5
3DA
102
{ACAD_REACTORS
330
3D9
102
}
330
3D9
100
AcDbXrecord
280
     1
102
RTVSPropertyOp0
 70
     1
102
RTVSPropertyOp1
 70
     1
102
RTVSPropertyOp2
 70
     1
102
RTVSPropertyOp3
 70
     1
102
RTVSPropertyOp4
 70
     1
102
RTVSPropertyOp5
 70
     1
102
RTVSPropertyOp6
 70
     1
102
RTVSPropertyOp7
 70
     1
102
RTVSPropertyOp8
 70
     1
102
RTVSPropertyOp9
 70
     1
102
RTVSPropertyOp10
 70
     1
102
RTVSPropertyOp11
 70
     1
102
RTVSPropertyOp12
 70
     1
102
RTVSPropertyOp13
 70
     1
102
RTVSPropertyOp14
 70
     1
102
RTVSPropertyOp15
 70
     1
102
RTVSPropertyOp16
 70
     1
102
RTVSPropertyOp17
 70
     1
102
RTVSPropertyOp18
 70
     1
102
RTVSPropertyOp19
 70
     1
102
RTVSPropertyOp20
 70
     1
102
RTVSPropertyOp21
 70
     1
102
RTVSPropertyOp22
 70
     1
102
RTVSPropertyOp23
 70
     1
102
RTVSPropertyOp24
 70
     1
102
RTVSPropertyOp25
 70
     1
102
RTVSPropertyOp26
 70
     1
102
RTVSPropertyOp27
 70
     1
102
RTVSPropertyOp28
 70
     1
102
RTVSPropertyOp29
 70
     1
102
RTVSPropertyOp30
 70
     1
102
RTVSPropertyOp31
 70
     1
102
RTVSPropertyOp32
 70
     1
  0
XRECORD
  5
3BE
102
{ACAD_REACTORS
330
3BD
102
}
330
3BD
100
AcDbXrecord
280
     1
102
RTVSPropertyOp0
 70
     1
102
RTVSPropertyOp1
 70
     1
102
RTVSPropertyOp2
 70
     1
102
RTVSPropertyOp3
 70
     1
102
RTVSPropertyOp4
 70
     1
102
RTVSPropertyOp5
 70
     1
102
RTVSPropertyOp6
 70
     1
102
RTVSPropertyOp7
 70
     1
102
RTVSPropertyOp8
 70
     1
102
RTVSPropertyOp9
 70
     1
102
RTVSPropertyOp10
 70
     1
102
RTVSPropertyOp11
 70
     1
102
RTVSPropertyOp12
 70
     1
102
RTVSPropertyOp13
 70
     1
102
RTVSPropertyOp14
 70
     1
102
RTVSPropertyOp15
 70
     1
102
RTVSPropertyOp16
 70
     1
102
RTVSPropertyOp17
 70
     1
102
RTVSPropertyOp18
 70
     1
102
RTVSPropertyOp19
 70
     1
102
RTVSPropertyOp20
 70
     1
102
RTVSPropertyOp21
 70
     1
102
RTVSPropertyOp22
 70
     1
102
RTVSPropertyOp23
 70
     1
102
RTVSPropertyOp24
 70
     1
102
RTVSPropertyOp25
 70
     1
102
RTVSPropertyOp26
 70
     1
102
RTVSPropertyOp27
 70
     1
102
RTVSPropertyOp28
 70
     1
102
RTVSPropertyOp29
 70
     1
102
RTVSPropertyOp30
 70
     1
102
RTVSPropertyOp31
 70
     1
102
RTVSPropertyOp32
 70
     1
  0
XRECORD
  5
3C0
102
{ACAD_REACTORS
330
3BF
102
}
330
3BF
100
AcDbXrecord
280
     1
102
RTVSPropertyOp0
 70
     1
102
RTVSPropertyOp1
 70
     1
102
RTVSPropertyOp2
 70
     1
102
RTVSPropertyOp3
 70
     1
102
RTVSPropertyOp4
 70
     1
102
RTVSPropertyOp5
 70
     1
102
RTVSPropertyOp6
 70
     1
102
RTVSPropertyOp7
 70
     1
102
RTVSPropertyOp8
 70
     1
102
RTVSPropertyOp9
 70
     1
102
RTVSPropertyOp10
 70
     1
102
RTVSPropertyOp11
 70
     1
102
RTVSPropertyOp12
 70
     1
102
RTVSPropertyOp13
 70
     1
102
RTVSPropertyOp14
 70
     1
102
RTVSPropertyOp15
 70
     1
102
RTVSPropertyOp16
 70
     1
102
RTVSPropertyOp17
 70
     1
102
RTVSPropertyOp18
 70
     1
102
RTVSPropertyOp19
 70
     1
102
RTVSPropertyOp20
 70
     1
102
RTVSPropertyOp21
 70
     1
102
RTVSPropertyOp22
 70
     1
102
RTVSPropertyOp23
 70
     1
102
RTVSPropertyOp24
 70
     1
102
RTVSPropertyOp25
 70
     1
102
RTVSPropertyOp26
 70
     1
102
RTVSPropertyOp27
 70
     1
102
RTVSPropertyOp28
 70
     1
102
RTVSPropertyOp29
 70
     1
102
RTVSPropertyOp30
 70
     1
102
RTVSPropertyOp31
 70
     1
102
RTVSPropertyOp32
 70
     1
  0
XRECORD
  5
3C2
102
{ACAD_REACTORS
330
3C1
102
}
330
3C1
100
AcDbXrecord
280
     1
102
RTVSPropertyOp0
 70
     1
102
RTVSPropertyOp1
 70
     1
102
RTVSPropertyOp2
 70
     1
102
RTVSPropertyOp3
 70
     1
102
RTVSPropertyOp4
 70
     1
102
RTVSPropertyOp5
 70
     1
102
RTVSPropertyOp6
 70
     1
102
RTVSPropertyOp7
 70
     1
102
RTVSPropertyOp8
 70
     1
102
RTVSPropertyOp9
 70
     1
102
RTVSPropertyOp10
 70
     1
102
RTVSPropertyOp11
 70
     1
102
RTVSPropertyOp12
 70
     1
102
RTVSPropertyOp13
 70
     1
102
RTVSPropertyOp14
 70
     1
102
RTVSPropertyOp15
 70
     1
102
RTVSPropertyOp16
 70
     1
102
RTVSPropertyOp17
 70
     1
102
RTVSPropertyOp18
 70
     1
102
RTVSPropertyOp19
 70
     1
102
RTVSPropertyOp20
 70
     1
102
RTVSPropertyOp21
 70
     1
102
RTVSPropertyOp22
 70
     1
102
RTVSPropertyOp23
 70
     1
102
RTVSPropertyOp24
 70
     1
102
RTVSPropertyOp25
 70
     1
102
RTVSPropertyOp26
 70
     1
102
RTVSPropertyOp27
 70
     1
102
RTVSPropertyOp28
 70
     1
102
RTVSPropertyOp29
 70
     1
102
RTVSPropertyOp30
 70
     1
102
RTVSPropertyOp31
 70
     1
102
RTVSPropertyOp32
 70
     1
  0
XRECORD
  5
3C4
102
{ACAD_REACTORS
330
3C3
102
}
330
3C3
100
AcDbXrecord
280
     1
102
RTVSPropertyOp0
 70
     1
102
RTVSPropertyOp1
 70
     1
102
RTVSPropertyOp2
 70
     1
102
RTVSPropertyOp3
 70
     1
102
RTVSPropertyOp4
 70
     1
102
RTVSPropertyOp5
 70
     1
102
RTVSPropertyOp6
 70
     1
102
RTVSPropertyOp7
 70
     1
102
RTVSPropertyOp8
 70
     1
102
RTVSPropertyOp9
 70
     1
102
RTVSPropertyOp10
 70
     1
102
RTVSPropertyOp11
 70
     1
102
RTVSPropertyOp12
 70
     1
102
RTVSPropertyOp13
 70
     1
102
RTVSPropertyOp14
 70
     1
102
RTVSPropertyOp15
 70
     1
102
RTVSPropertyOp16
 70
     1
102
RTVSPropertyOp17
 70
     1
102
RTVSPropertyOp18
 70
     1
102
RTVSPropertyOp19
 70
     1
102
RTVSPropertyOp20
 70
     1
102
RTVSPropertyOp21
 70
     1
102
RTVSPropertyOp22
 70
     1
102
RTVSPropertyOp23
 70
     1
102
RTVSPropertyOp24
 70
     1
102
RTVSPropertyOp25
 70
     1
102
RTVSPropertyOp26
 70
     1
102
RTVSPropertyOp27
 70
     1
102
RTVSPropertyOp28
 70
     1
102
RTVSPropertyOp29
 70
     1
102
RTVSPropertyOp30
 70
     1
102
RTVSPropertyOp31
 70
     1
102
RTVSPropertyOp32
 70
     1
  0
XRECORD
  5
3D8
102
{ACAD_REACTORS
330
3D7
102
}
330
3D7
100
AcDbXrecord
280
     1
102
RTVSPropertyOp0
 70
     1
102
RTVSPropertyOp1
 70
     1
102
RTVSPropertyOp2
 70
     1
102
RTVSPropertyOp3
 70
     1
102
RTVSPropertyOp4
 70
     1
102
RTVSPropertyOp5
 70
     1
102
RTVSPropertyOp6
 70
     1
102
RTVSPropertyOp7
 70
     1
102
RTVSPropertyOp8
 70
     1
102
RTVSPropertyOp9
 70
     1
102
RTVSPropertyOp10
 70
     1
102
RTVSPropertyOp11
 70
     1
102
RTVSPropertyOp12
 70
     1
102
RTVSPropertyOp13
 70
     1
102
RTVSPropertyOp14
 70
     1
102
RTVSPropertyOp15
 70
     1
102
RTVSPropertyOp16
 70
     1
102
RTVSPropertyOp17
 70
     1
102
RTVSPropertyOp18
 70
     1
102
RTVSPropertyOp19
 70
     1
102
RTVSPropertyOp20
 70
     1
102
RTVSPropertyOp21
 70
     1
102
RTVSPropertyOp22
 70
     1
102
RTVSPropertyOp23
 70
     1
102
RTVSPropertyOp24
 70
     1
102
RTVSPropertyOp25
 70
     1
102
RTVSPropertyOp26
 70
     1
102
RTVSPropertyOp27
 70
     1
102
RTVSPropertyOp28
 70
     1
102
RTVSPropertyOp29
 70
     1
102
RTVSPropertyOp30
 70
     1
102
RTVSPropertyOp31
 70
     1
102
RTVSPropertyOp32
 70
     1
  0
XRECORD
  5
3CE
102
{ACAD_REACTORS
330
3CD
102
}
330
3CD
100
AcDbXrecord
280
     1
102
RTVSPropertyOp0
 70
     1
102
RTVSPropertyOp1
 70
     1
102
RTVSPropertyOp2
 70
     1
102
RTVSPropertyOp3
 70
     1
102
RTVSPropertyOp4
 70
     1
102
RTVSPropertyOp5
 70
     1
102
RTVSPropertyOp6
 70
     1
102
RTVSPropertyOp7
 70
     1
102
RTVSPropertyOp8
 70
     1
102
RTVSPropertyOp9
 70
     1
102
RTVSPropertyOp10
 70
     1
102
RTVSPropertyOp11
 70
     1
102
RTVSPropertyOp12
 70
     1
102
RTVSPropertyOp13
 70
     1
102
RTVSPropertyOp14
 70
     1
102
RTVSPropertyOp15
 70
     1
102
RTVSPropertyOp16
 70
     1
102
RTVSPropertyOp17
 70
     1
102
RTVSPropertyOp18
 70
     1
102
RTVSPropertyOp19
 70
     1
102
RTVSPropertyOp20
 70
     1
102
RTVSPropertyOp21
 70
     1
102
RTVSPropertyOp22
 70
     1
102
RTVSPropertyOp23
 70
     1
102
RTVSPropertyOp24
 70
     1
102
RTVSPropertyOp25
 70
     1
102
RTVSPropertyOp26
 70
     1
102
RTVSPropertyOp27
 70
     1
102
RTVSPropertyOp28
 70
     1
102
RTVSPropertyOp29
 70
     1
102
RTVSPropertyOp30
 70
     1
102
RTVSPropertyOp31
 70
     1
102
RTVSPropertyOp32
 70
     1
  0
XRECORD
  5
3D6
102
{ACAD_REACTORS
330
3D5
102
}
330
3D5
100
AcDbXrecord
280
     1
102
RTVSPropertyOp0
 70
     1
102
RTVSPropertyOp1
 70
     1
102
RTVSPropertyOp2
 70
     1
102
RTVSPropertyOp3
 70
     1
102
RTVSPropertyOp4
 70
     1
102
RTVSPropertyOp5
 70
     1
102
RTVSPropertyOp6
 70
     1
102
RTVSPropertyOp7
 70
     1
102
RTVSPropertyOp8
 70
     1
102
RTVSPropertyOp9
 70
     1
102
RTVSPropertyOp10
 70
     1
102
RTVSPropertyOp11
 70
     1
102
RTVSPropertyOp12
 70
     1
102
RTVSPropertyOp13
 70
     1
102
RTVSPropertyOp14
 70
     1
102
RTVSPropertyOp15
 70
     1
102
RTVSPropertyOp16
 70
     1
102
RTVSPropertyOp17
 70
     1
102
RTVSPropertyOp18
 70
     1
102
RTVSPropertyOp19
 70
     1
102
RTVSPropertyOp20
 70
     1
102
RTVSPropertyOp21
 70
     1
102
RTVSPropertyOp22
 70
     1
102
RTVSPropertyOp23
 70
     1
102
RTVSPropertyOp24
 70
     1
102
RTVSPropertyOp25
 70
     1
102
RTVSPropertyOp26
 70
     1
102
RTVSPropertyOp27
 70
     1
102
RTVSPropertyOp28
 70
     1
102
RTVSPropertyOp29
 70
     1
102
RTVSPropertyOp30
 70
     1
102
RTVSPropertyOp31
 70
     1
102
RTVSPropertyOp32
 70
     1
  0
ENDSEC
  0
EOF
