  0
SECTION
  2
HEADER
  9
$ACADVER
  1
AC1018
  9
$ACADMAINTVER
 70
     0
  9
$DWGCODEPAGE
  3
ANSI_1252
  9
$INSBASE
 10
0.0
 20
0.0
 30
0.0
  9
$EXTMIN
 10
-401.088762109702
 20
-275.1429740860601
 30
0.0
  9
$EXTMAX
 10
-104.088762109704
 20
-65.14297408605995
 30
0.0
  9
$LIMMIN
 10
0.0
 20
0.0
  9
$LIMMAX
 10
12.0
 20
9.0
  9
$ORTHOMODE
 70
     0
  9
$REGENMODE
 70
     1
  9
$FILLMODE
 70
     1
  9
$QTEXTMODE
 70
     0
  9
$MIRRTEXT
 70
     1
  9
$LTSCALE
 40
1.0
  9
$ATTMODE
 70
     1
  9
$TEXTSIZE
 40
0.2
  9
$TRACEWID
 40
0.05
  9
$TEXTSTYLE
  7
Standard
  9
$CLAYER
  8
0
  9
$CELTYPE
  6
ByLayer
  9
$CECOLOR
 62
   256
  9
$CELTSCALE
 40
1.0
  9
$DISPSILH
 70
     0
  9
$DIMSCALE
 40
1.0
  9
$DIMASZ
 40
0.18
  9
$DIMEXO
 40
0.0625
  9
$DIMDLI
 40
0.38
  9
$DIMRND
 40
0.0
  9
$DIMDLE
 40
0.0
  9
$DIMEXE
 40
0.18
  9
$DIMTP
 40
0.0
  9
$DIMTM
 40
0.0
  9
$DIMTXT
 40
0.18
  9
$DIMCEN
 40
0.09
  9
$DIMTSZ
 40
0.0
  9
$DIMTOL
 70
     0
  9
$DIMLIM
 70
     0
  9
$DIMTIH
 70
     1
  9
$DIMTOH
 70
     1
  9
$DIMSE1
 70
     0
  9
$DIMSE2
 70
     0
  9
$DIMTAD
 70
     0
  9
$DIMZIN
 70
     0
  9
$DIMBLK
  1

  9
$DIMASO
 70
     1
  9
$DIMSHO
 70
     1
  9
$DIMPOST
  1

  9
$DIMAPOST
  1

  9
$DIMALT
 70
     0
  9
$DIMALTD
 70
     2
  9
$DIMALTF
 40
25.4
  9
$DIMLFAC
 40
1.0
  9
$DIMTOFL
 70
     0
  9
$DIMTVP
 40
0.0
  9
$DIMTIX
 70
     0
  9
$DIMSOXD
 70
     0
  9
$DIMSAH
 70
     0
  9
$DIMBLK1
  1

  9
$DIMBLK2
  1

  9
$DIMSTYLE
  2
Standard
  9
$DIMCLRD
 70
     0
  9
$DIMCLRE
 70
     0
  9
$DIMCLRT
 70
     0
  9
$DIMTFAC
 40
1.0
  9
$DIMGAP
 40
0.09
  9
$DIMJUST
 70
     0
  9
$DIMSD1
 70
     0
  9
$DIMSD2
 70
     0
  9
$DIMTOLJ
 70
     1
  9
$DIMTZIN
 70
     0
  9
$DIMALTZ
 70
     0
  9
$DIMALTTZ
 70
     0
  9
$DIMUPT
 70
     0
  9
$DIMDEC
 70
     4
  9
$DIMTDEC
 70
     4
  9
$DIMALTU
 70
     2
  9
$DIMALTTD
 70
     2
  9
$DIMTXSTY
  7
Standard
  9
$DIMAUNIT
 70
     0
  9
$DIMADEC
 70
     0
  9
$DIMALTRND
 40
0.0
  9
$DIMAZIN
 70
     0
  9
$DIMDSEP
 70
    46
  9
$DIMATFIT
 70
     3
  9
$DIMFRAC
 70
     0
  9
$DIMLDRBLK
  1

  9
$DIMLUNIT
 70
     2
  9
$DIMLWD
 70
    -2
  9
$DIMLWE
 70
    -2
  9
$DIMTMOVE
 70
     0
  9
$LUNITS
 70
     2
  9
$LUPREC
 70
     4
  9
$SKETCHINC
 40
0.1
  9
$FILLETRAD
 40
0.5
  9
$AUNITS
 70
     0
  9
$AUPREC
 70
     0
  9
$MENU
  1
.
  9
$ELEVATION
 40
0.0
  9
$PELEVATION
 40
0.0
  9
$THICKNESS
 40
0.0
  9
$LIMCHECK
 70
     0
  9
$CHAMFERA
 40
0.5
  9
$CHAMFERB
 40
0.5
  9
$CHAMFERC
 40
1.0
  9
$CHAMFERD
 40
0.0
  9
$SKPOLY
 70
     0
  9
$TDCREATE
 40
2458205.954394178
  9
$TDUCREATE
 40
2458205.871060845
  9
$TDUPDATE
 40
2458205.954394711
  9
$TDUUPDATE
 40
2458205.871061377
  9
$TDINDWG
 40
0.0000000116
  9
$TDUSRTIMER
 40
0.0000000116
  9
$USRTIMER
 70
     1
  9
$ANGBASE
 50
0.0
  9
$ANGDIR
 70
     0
  9
$PDMODE
 70
     0
  9
$PDSIZE
 40
0.0
  9
$PLINEWID
 40
0.0
  9
$SPLFRAME
 70
     0
  9
$SPLINETYPE
 70
     6
  9
$SPLINESEGS
 70
     8
  9
$HANDSEED
  5
295
  9
$SURFTAB1
 70
     6
  9
$SURFTAB2
 70
     6
  9
$SURFTYPE
 70
     6
  9
$SURFU
 70
     6
  9
$SURFV
 70
     6
  9
$UCSBASE
  2

  9
$UCSNAME
  2

  9
$UCSORG
 10
0.0
 20
0.0
 30
0.0
  9
$UCSXDIR
 10
1.0
 20
0.0
 30
0.0
  9
$UCSYDIR
 10
0.0
 20
1.0
 30
0.0
  9
$UCSORTHOREF
  2

  9
$UCSORTHOVIEW
 70
     0
  9
$UCSORGTOP
 10
0.0
 20
0.0
 30
0.0
  9
$UCSORGBOTTOM
 10
0.0
 20
0.0
 30
0.0
  9
$UCSORGLEFT
 10
0.0
 20
0.0
 30
0.0
  9
$UCSORGRIGHT
 10
0.0
 20
0.0
 30
0.0
  9
$UCSORGFRONT
 10
0.0
 20
0.0
 30
0.0
  9
$UCSORGBACK
 10
0.0
 20
0.0
 30
0.0
  9
$PUCSBASE
  2

  9
$PUCSNAME
  2

  9
$PUCSORG
 10
0.0
 20
0.0
 30
0.0
  9
$PUCSXDIR
 10
1.0
 20
0.0
 30
0.0
  9
$PUCSYDIR
 10
0.0
 20
1.0
 30
0.0
  9
$PUCSORTHOREF
  2

  9
$PUCSORTHOVIEW
 70
     0
  9
$PUCSORGTOP
 10
0.0
 20
0.0
 30
0.0
  9
$PUCSORGBOTTOM
 10
0.0
 20
0.0
 30
0.0
  9
$PUCSORGLEFT
 10
0.0
 20
0.0
 30
0.0
  9
$PUCSORGRIGHT
 10
0.0
 20
0.0
 30
0.0
  9
$PUCSORGFRONT
 10
0.0
 20
0.0
 30
0.0
  9
$PUCSORGBACK
 10
0.0
 20
0.0
 30
0.0
  9
$USERI1
 70
     0
  9
$USERI2
 70
     0
  9
$USERI3
 70
     0
  9
$USERI4
 70
     0
  9
$USERI5
 70
     0
  9
$USERR1
 40
18.1
  9
$USERR2
 40
0.0
  9
$USERR3
 40
0.0
  9
$USERR4
 40
0.0
  9
$USERR5
 40
0.0
  9
$WORLDVIEW
 70
     1
  9
$SHADEDGE
 70
     3
  9
$SHADEDIF
 70
    70
  9
$TILEMODE
 70
     1
  9
$MAXACTVP
 70
    64
  9
$PINSBASE
 10
0.0
 20
0.0
 30
0.0
  9
$PLIMCHECK
 70
     0
  9
$PEXTMIN
 10
1.00000000000000E+20
 20
1.00000000000000E+20
 30
1.00000000000000E+20
  9
$PEXTMAX
 10
-1.00000000000000E+20
 20
-1.00000000000000E+20
 30
-1.00000000000000E+20
  9
$PLIMMIN
 10
0.0
 20
0.0
  9
$PLIMMAX
 10
12.0
 20
9.0
  9
$UNITMODE
 70
     0
  9
$VISRETAIN
 70
     1
  9
$PLINEGEN
 70
     0
  9
$PSLTSCALE
 70
     1
  9
$TREEDEPTH
 70
  3020
  9
$CMLSTYLE
  2
Standard
  9
$CMLJUST
 70
     0
  9
$CMLSCALE
 40
1.0
  9
$PROXYGRAPHICS
 70
     1
  9
$MEASUREMENT
 70
     1
  9
$CELWEIGHT
370
    -1
  9
$ENDCAPS
280
     0
  9
$JOINSTYLE
280
     0
  9
$LWDISPLAY
290
     0
  9
$INSUNITS
 70
     4
  9
$HYPERLINKBASE
  1

  9
$STYLESHEET
  1

  9
$XEDIT
290
     1
  9
$CEPSNTYPE
380
     0
  9
$PSTYLEMODE
290
     1
  9
$FINGERPRINTGUID
  2
{32480F98-778F-40F2-B671-477C99492188}
  9
$VERSIONGUID
  2
{FAEB1C32-E019-11D5-929B-00C0DF256EC4}
  9
$EXTNAMES
290
     1
  9
$PSVPSCALE
 40
0.0
  9
$OLESTARTUP
290
     0
  9
$SORTENTS
280
   127
  9
$INDEXCTL
280
     0
  9
$HIDETEXT
280
     1
  9
$XCLIPFRAME
290
     0
  9
$HALOGAP
280
     0
  9
$OBSCOLOR
 70
   257
  9
$OBSLTYPE
280
     0
  9
$INTERSECTIONDISPLAY
280
     0
  9
$INTERSECTIONCOLOR
 70
   257
  9
$DIMASSOC
280
     2
  9
$PROJECTNAME
  1

  0
ENDSEC
  0
SECTION
  2
CLASSES
  0
CLASS
  1
ACDBDICTIONARYWDFLT
  2
AcDbDictionaryWithDefault
  3
ObjectDBX Classes
 90
        0
 91
        4
280
     0
281
     0
  0
CLASS
  1
VISUALSTYLE
  2
AcDbVisualStyle
  3
ObjectDBX Classes
 90
     4095
 91
        4
280
     0
281
     0
  0
CLASS
  1
MATERIAL
  2
AcDbMaterial
  3
ObjectDBX Classes
 90
     1153
 91
        4
280
     0
281
     0
  0
ENDSEC
  0
SECTION
  2
TABLES
  0
TABLE
  2
VPORT
  5
8
330
0
100
AcDbSymbolTable
 70
     1
  0
VPORT
  5
29
330
8
100
AcDbSymbolTableRecord
100
AcDbViewportTableRecord
  2
*Active
 70
     0
 10
0.0
 20
0.0
 11
1.0
 21
1.0
 12
-252.588762109703
 22
-170.14297408606
 13
0.0
 23
0.0
 14
0.5
 24
0.5
 15
0.5
 25
0.5
 16
0.0
 26
0.0
 36
1.0
 17
0.0
 27
0.0
 37
0.0
 40
231.0000000000002
 41
1.60267857142857
 42
50.0
 43
0.0
 44
0.0
 50
0.0
 51
0.0
 71
     0
 72
   100
 73
     1
 74
     3
 75
     0
 76
     0
 77
     0
 78
     0
281
     0
 65
     1
110
0.0
120
0.0
130
0.0
111
1.0
121
0.0
131
0.0
112
0.0
122
1.0
132
0.0
 79
     0
146
0.0
  0
ENDTAB
  0
TABLE
  2
LTYPE
  5
5
330
0
100
AcDbSymbolTable
 70
     8
  0
LTYPE
  5
14
330
5
100
AcDbSymbolTableRecord
100
AcDbLinetypeTableRecord
  2
ByBlock
 70
     0
  3

 72
    65
 73
     0
 40
0.0
  0
LTYPE
  5
15
330
5
100
AcDbSymbolTableRecord
100
AcDbLinetypeTableRecord
  2
ByLayer
 70
     0
  3

 72
    65
 73
     0
 40
0.0
  0
LTYPE
  5
16
330
5
100
AcDbSymbolTableRecord
100
AcDbLinetypeTableRecord
  2
Continuous
 70
     0
  3
Solid line
 72
    65
 73
     0
 40
0.0
  0
LTYPE
  5
3F
330
5
100
AcDbSymbolTableRecord
100
AcDbLinetypeTableRecord
  2
DASHED
 70
     0
  3
Dashed
 72
    65
 73
     2
 40
15.0
 49
7.0
 74
     0
 49
-8.0
 74
     0
  0
LTYPE
  5
40
330
5
100
AcDbSymbolTableRecord
100
AcDbLinetypeTableRecord
  2
DOTTED
 70
     0
  3
Dotted
 72
    65
 73
     2
 40
1.0
 49
0.0
 74
     0
 49
-1.0
 74
     0
  0
LTYPE
  5
41
330
5
100
AcDbSymbolTableRecord
100
AcDbLinetypeTableRecord
  2
DOT_CENTER
 70
     0
  3
Dot_Center
 72
    65
 73
     4
 40
14.0
 49
12.0
 74
     0
 49
-1.0
 74
     0
 49
0.0
 74
     0
 49
-1.0
 74
     0
  0
LTYPE
  5
42
330
5
100
AcDbSymbolTableRecord
100
AcDbLinetypeTableRecord
  2
LONG_DASHED
 70
     0
  3
Long_Dashed
 72
    65
 73
     2
 40
15.0
 49
10.0
 74
     0
 49
-5.0
 74
     0
  0
LTYPE
  5
43
330
5
100
AcDbSymbolTableRecord
100
AcDbLinetypeTableRecord
  2
DASH_CENTER
 70
     0
  3
Dash_Center
 72
    65
 73
     4
 40
14.0
 49
11.0
 74
     0
 49
-1.0
 74
     0
 49
1.0
 74
     0
 49
-1.0
 74
     0
  0
LTYPE
  5
44
330
5
100
AcDbSymbolTableRecord
100
AcDbLinetypeTableRecord
  2
PHANTOM
 70
     0
  3
Phantom
 72
    65
 73
     6
 40
13.0
 49
10.0
 74
     0
 49
-1.0
 74
     0
 49
0.0
 74
     0
 49
-1.0
 74
     0
 49
0.0
 74
     0
 49
-1.0
 74
     0
  0
LTYPE
  5
45
330
5
100
AcDbSymbolTableRecord
100
AcDbLinetypeTableRecord
  2
CENTER_DASH_DASH
 70
     0
  3
Center_Dash_Dash
 72
    65
 73
     6
 40
14.0
 49
9.0
 74
     0
 49
-1.0
 74
     0
 49
1.0
 74
     0
 49
-1.0
 74
     0
 49
1.0
 74
     0
 49
-1.0
 74
     0
  0
ENDTAB
  0
TABLE
  2
LAYER
  5
2
330
0
100
AcDbSymbolTable
 70
     2
  0
LAYER
  5
10
330
2
100
AcDbSymbolTableRecord
100
AcDbLayerTableRecord
  2
0
 70
     0
 62
     7
  6
Continuous
370
    -3
390
F
  0
LAYER
  5
46
330
2
100
AcDbSymbolTableRecord
100
AcDbLayerTableRecord
  2
1
 70
     0
 62
     7
  6
Continuous
370
    -3
390
F
  0
ENDTAB
  0
TABLE
  2
STYLE
  5
3
330
0
100
AcDbSymbolTable
 70
     5
  0
STYLE
  5
11
330
3
100
AcDbSymbolTableRecord
100
AcDbTextStyleTableRecord
  2
Standard
 70
     0
 40
0.0
 41
1.0
 50
0.0
 71
     0
 42
0.2
  3
txt
  4

  0
STYLE
  5
A6
330
3
100
AcDbSymbolTableRecord
100
AcDbTextStyleTableRecord
  2
CONVERTER_11
 70
     0
 40
0.0
 41
0.9
 50
0.0
 71
     0
 42
0.2
  3
txt.shx
  4

  0
STYLE
  5
22B
330
3
100
AcDbSymbolTableRecord
100
AcDbTextStyleTableRecord
  2
CONVERTER_12
 70
     0
 40
0.0
 41
0.81
 50
0.0
 71
     0
 42
0.2
  3
txt.shx
  4

  0
STYLE
  5
231
330
3
100
AcDbSymbolTableRecord
100
AcDbTextStyleTableRecord
  2
CONVERTER_13
 70
     0
 40
0.0
 41
0.855
 50
0.0
 71
     0
 42
0.2
  3
txt.shx
  4

  0
STYLE
  5
234
330
3
100
AcDbSymbolTableRecord
100
AcDbTextStyleTableRecord
  2
CONVERTER_14
 70
     0
 40
0.0
 41
0.72
 50
0.0
 71
     0
 42
0.2
  3
txt.shx
  4

  0
ENDTAB
  0
TABLE
  2
VIEW
  5
6
330
0
100
AcDbSymbolTable
 70
     0
  0
ENDTAB
  0
TABLE
  2
UCS
  5
7
330
0
100
AcDbSymbolTable
 70
     0
  0
ENDTAB
  0
TABLE
  2
APPID
  5
9
330
0
100
AcDbSymbolTable
 70
     1
  0
APPID
  5
12
330
9
100
AcDbSymbolTableRecord
100
AcDbRegAppTableRecord
  2
ACAD
 70
     0
  0
ENDTAB
  0
TABLE
  2
DIMSTYLE
  5
A
330
0
100
AcDbSymbolTable
 70
     4
100
AcDbDimStyleTable
  0
DIMSTYLE
105
27
330
A
100
AcDbSymbolTableRecord
100
AcDbDimStyleTableRecord
  2
Standard
 70
     0
178
     0
340
11
  0
DIMSTYLE
105
F4
102
{ACAD_REACTORS
330
F5
102
}
330
A
100
AcDbSymbolTableRecord
100
AcDbDimStyleTableRecord
  2
ME10_DIM_10
 70
     0
 41
1.75
 42
0.0
 44
0.75
 73
     0
 74
     0
 77
     1
 78
     8
140
1.75
147
0.75
172
     1
173
     1
174
     1
175
     1
176
     2
177
     2
271
     2
178
     3
271
     2
340
A6
  0
DIMSTYLE
105
FF
102
{ACAD_REACTORS
330
100
102
}
330
A
100
AcDbSymbolTableRecord
100
AcDbDimStyleTableRecord
  2
ME10_DIM_11
 70
     0
 41
1.75
 42
0.0
 44
0.75
 73
     0
 74
     0
 77
     1
 78
     8
140
1.75
147
0.75
172
     1
173
     1
174
     1
175
     1
176
     2
177
     2
271
     2
178
     3
271
     2
340
A6
  0
DIMSTYLE
105
132
102
{ACAD_REACTORS
330
133
102
}
330
A
100
AcDbSymbolTableRecord
100
AcDbDimStyleTableRecord
  2
ME10_DIM_12
 70
     0
 41
1.75
 42
0.0
 44
0.75
 73
     0
 74
     0
 77
     1
 78
     8
140
1.75
147
0.75
172
     1
173
     1
174
     1
175
     1
176
     2
177
     2
271
     2
178
     3
271
     2
340
A6
  0
ENDTAB
  0
TABLE
  2
BLOCK_RECORD
  5
1
330
0
100
AcDbSymbolTable
 70
    20
  0
BLOCK_RECORD
  5
1F
330
1
100
AcDbSymbolTableRecord
100
AcDbBlockTableRecord
  2
*Model_Space
340
22
  0
BLOCK_RECORD
  5
1B
330
1
100
AcDbSymbolTableRecord
100
AcDbBlockTableRecord
  2
*Paper_Space
340
1E
  0
BLOCK_RECORD
  5
23
330
1
100
AcDbSymbolTableRecord
100
AcDbBlockTableRecord
  2
*Paper_Space0
340
26
  0
BLOCK_RECORD
  5
47
330
1
100
AcDbSymbolTableRecord
100
AcDbBlockTableRecord
  2
WP_CN_PA_M16-select__1
340
0
102
{BLKREFS
331
4B
102
}
  0
BLOCK_RECORD
  5
4A
330
1
100
AcDbSymbolTableRecord
100
AcDbBlockTableRecord
  2
Allg1
340
0
102
{BLKREFS
331
7D
102
}
  0
BLOCK_RECORD
  5
4E
330
1
100
AcDbSymbolTableRecord
100
AcDbBlockTableRecord
  2
WP_CN_PA_M16-select__2
340
0
102
{BLKREFS
331
52
102
}
  0
BLOCK_RECORD
  5
51
330
1
100
AcDbSymbolTableRecord
100
AcDbBlockTableRecord
  2
Drfsicht1
340
0
102
{BLKREFS
331
7E
102
}
  0
BLOCK_RECORD
  5
55
330
1
100
AcDbSymbolTableRecord
100
AcDbBlockTableRecord
  2
WP_CN_PA_M16-select__3
340
0
102
{BLKREFS
331
59
102
}
  0
BLOCK_RECORD
  5
58
330
1
100
AcDbSymbolTableRecord
100
AcDbBlockTableRecord
  2
Rckans1
340
0
102
{BLKREFS
331
7F
102
}
  0
BLOCK_RECORD
  5
5C
330
1
100
AcDbSymbolTableRecord
100
AcDbBlockTableRecord
  2
WP_CN_PA_M16-select__4
340
0
102
{BLKREFS
331
60
102
}
  0
BLOCK_RECORD
  5
5F
330
1
100
AcDbSymbolTableRecord
100
AcDbBlockTableRecord
  2
SA_Links1
340
0
102
{BLKREFS
331
80
102
}
  0
BLOCK_RECORD
  5
63
330
1
100
AcDbSymbolTableRecord
100
AcDbBlockTableRecord
  2
WP_CN_PA_M16-select__5
340
0
102
{BLKREFS
331
67
102
}
  0
BLOCK_RECORD
  5
66
330
1
100
AcDbSymbolTableRecord
100
AcDbBlockTableRecord
  2
SA_Rechts1
340
0
102
{BLKREFS
331
81
102
}
  0
BLOCK_RECORD
  5
6A
330
1
100
AcDbSymbolTableRecord
100
AcDbBlockTableRecord
  2
WP_CN_PA_M16-select__6
340
0
102
{BLKREFS
331
6E
102
}
  0
BLOCK_RECORD
  5
6D
330
1
100
AcDbSymbolTableRecord
100
AcDbBlockTableRecord
  2
Vordans1
340
0
102
{BLKREFS
331
82
102
}
  0
BLOCK_RECORD
  5
71
330
1
100
AcDbSymbolTableRecord
100
AcDbBlockTableRecord
  2
_rahmen
340
0
102
{BLKREFS
331
78
102
}
  0
BLOCK_RECORD
  5
74
330
1
100
AcDbSymbolTableRecord
100
AcDbBlockTableRecord
  2
_punkt
340
0
102
{BLKREFS
331
79
102
}
  0
BLOCK_RECORD
  5
77
330
1
100
AcDbSymbolTableRecord
100
AcDbBlockTableRecord
  2
A4I_CS
340
0
102
{BLKREFS
331
83
102
}
  0
BLOCK_RECORD
  5
7C
330
1
100
AcDbSymbolTableRecord
100
AcDbBlockTableRecord
  2
1
340
0
102
{BLKREFS
331
86
102
}
  0
BLOCK_RECORD
  5
EB
330
1
100
AcDbSymbolTableRecord
100
AcDbBlockTableRecord
  2
*D17
340
0
  0
BLOCK_RECORD
  5
F6
330
1
100
AcDbSymbolTableRecord
100
AcDbBlockTableRecord
  2
*D18
340
0
  0
BLOCK_RECORD
  5
129
330
1
100
AcDbSymbolTableRecord
100
AcDbBlockTableRecord
  2
*D19
340
0
  0
ENDTAB
  0
ENDSEC
  0
SECTION
  2
BLOCKS
  0
BLOCK
  5
20
330
1F
100
AcDbEntity
  8
0
100
AcDbBlockBegin
  2
*Model_Space
 70
     0
 10
0.0
 20
0.0
 30
0.0
  3
*Model_Space
  1

  0
ENDBLK
  5
21
330
1F
100
AcDbEntity
  8
0
100
AcDbBlockEnd
  0
BLOCK
  5
1C
330
1B
100
AcDbEntity
 67
     1
  8
0
100
AcDbBlockBegin
  2
*Paper_Space
 70
     0
 10
0.0
 20
0.0
 30
0.0
  3
*Paper_Space
  1

  0
ENDBLK
  5
1D
330
1B
100
AcDbEntity
 67
     1
  8
0
100
AcDbBlockEnd
  0
BLOCK
  5
24
330
23
100
AcDbEntity
  8
0
100
AcDbBlockBegin
  2
*Paper_Space0
 70
     0
 10
0.0
 20
0.0
 30
0.0
  3
*Paper_Space0
  1

  0
ENDBLK
  5
25
330
23
100
AcDbEntity
  8
0
100
AcDbBlockEnd
  0
BLOCK
  5
48
330
47
100
AcDbEntity
  8
0
100
AcDbBlockBegin
  2
WP_CN_PA_M16-select__1
 70
     0
 10
-92.19591045065366
 20
-114.6082715100208
 30
0.0
  3
WP_CN_PA_M16-select__1
  1

  0
LINE
  5
87
330
47
100
AcDbEntity
  8
0
  6
Continuous
 62
     7
100
AcDbLine
 10
-88.91364013298167
 20
-94.41959103354597
 30
0.0
 11
-82.97646908946271
 21
-89.27785008324517
 31
0.0
  0
LINE
  5
88
330
47
100
AcDbEntity
  8
0
  6
Continuous
 62
     7
100
AcDbLine
 10
-79.04082844340716
 20
-90.41397167646144
 30
0.0
 11
-82.97646908946271
 21
-89.27785008324517
 31
0.0
  0
LINE
  5
89
330
47
100
AcDbEntity
  8
0
  6
Continuous
 62
     7
100
AcDbLine
 10
-92.19248709291634
 20
-106.475173799424
 30
0.0
 11
-89.22390157115689
 21
-94.9985467589956
 31
0.0
  0
LINE
  5
8A
330
47
100
AcDbEntity
  8
0
  6
Continuous
 62
     7
100
AcDbLine
 10
-88.25684644686123
 20
-107.6112953926408
 30
0.0
 11
-92.19248709291634
 21
-106.475173799424
 31
0.0
  0
LINE
  5
8B
330
47
100
AcDbEntity
  8
0
  6
Continuous
 62
     7
100
AcDbLine
 10
-89.22390157115689
 20
-113.4305827659028
 30
0.0
 11
-92.19248709291634
 21
-107.0956966757751
 31
0.0
  0
LINE
  5
8C
330
47
100
AcDbEntity
  8
0
  6
Continuous
 62
     7
100
AcDbLine
 10
-85.28826092510178
 20
-114.5667043591196
 30
0.0
 11
-89.22390157115689
 21
-113.4305827659028
 31
0.0
  0
LINE
  5
8D
330
47
100
AcDbEntity
  8
0
  6
Continuous
 62
     7
100
AcDbLine
 10
-88.25684644686163
 20
-108.2318182689913
 30
0.0
 11
-92.19248709291634
 21
-107.0956966757751
 31
0.0
  0
LINE
  5
8E
330
47
100
AcDbEntity
  8
0
  6
Continuous
 62
     7
100
AcDbLine
 10
-85.28826092510178
 20
-96.13466835221239
 30
0.0
 11
-89.22390157115689
 21
-94.9985467589956
 31
0.0
  0
LINE
  5
8F
330
47
100
AcDbEntity
  8
0
  6
Continuous
 62
     7
100
AcDbLine
 10
-84.97799948692656
 20
-95.55571262676274
 30
0.0
 11
-88.91364013298167
 21
-94.41959103354597
 31
0.0
  0
LINE
  5
90
330
47
100
AcDbEntity
  8
0
  6
Continuous
 62
     7
100
AcDbLine
 10
-78.73056700523239
 20
-90.45553882736274
 30
0.0
 11
-82.6662076512875
 21
-89.31941723414596
 31
0.0
  0
SPLINE
  5
91
330
47
100
AcDbEntity
  8
0
  6
Continuous
 62
     7
100
AcDbSpline
210
0.0
220
0.0
230
1.0
 70
    11
 71
     3
 72
    37
 73
    33
 74
    31
 42
0.000000001
 43
0.0000000001
 44
0.00000001
 40
0.0
 40
0.0
 40
0.0
 40
0.0
 40
2.050206001054034
 40
4.239911777105943
 40
6.493924034159386
 40
8.732497364062688
 40
10.87696036991015
 40
12.85545276291281
 40
14.60949218390125
 40
16.10289667821806
 40
17.3364202248764
 40
18.37235897219211
 40
19.35345656293208
 40
20.45293753292274
 40
21.78316350395493
 40
23.37926313938338
 40
25.22545843576482
 40
27.27566389378509
 40
29.46536999670215
 40
31.71938217488094
 40
33.95795532843569
 40
36.10241875164782
 40
38.08091051528929
 40
39.83495071993192
 40
41.3283543622152
 40
42.56187867424191
 40
43.59781697988028
 40
44.57891445761388
 40
45.67839602787777
 40
47.0086211773264
 40
48.60472165270063
 40
50.45091620690438
 40
50.45091620690438
 40
50.45091620690438
 40
50.45091620690438
 10
-76.2149275923
 20
-97.94846281958843
 30
0.0
 10
-76.23962650147233
 20
-98.63205447009074
 30
0.0
 10
-76.29070487738579
 20
-100.0457506002785
 30
0.0
 10
-76.65654399284334
 20
-102.1850024583208
 30
0.0
 10
-77.21172996790156
 20
-104.3441350168837
 30
0.0
 10
-77.95814302816602
 20
-106.4304143965678
 30
0.0
 10
-78.85660404891813
 20
-108.354848365004
 30
0.0
 10
-79.87043120444213
 20
-110.036149448114
 30
0.0
 10
-80.95674235710557
 20
-111.4056779292518
 30
0.0
 10
-82.075274584966
 20
-112.4098231857186
 30
0.0
 10
-83.19507263703721
 20
-113.0120021601763
 30
0.0
 10
-84.30663369789286
 20
-113.1531050790436
 30
0.0
 10
-85.31109015247836
 20
-112.7482242877053
 30
0.0
 10
-86.08082536824668
 20
-111.8723309596319
 30
0.0
 10
-86.62415988676766
 20
-110.6314510709696
 30
0.0
 10
-86.95095862758687
 20
-109.0662132593126
 30
0.0
 10
-87.05313617193686
 20
-107.2330823538986
 30
0.0
 10
-86.92692594814012
 20
-105.2043791494025
 30
0.0
 10
-86.576787761399
 20
-103.0649608014962
 30
0.0
 10
-86.01718862512892
 20
-100.9058746361906
 30
0.0
 10
-85.27195066737877
 20
-98.81958342157907
 30
0.0
 10
-84.37319434735103
 20
-96.89515173081452
 30
0.0
 10
-83.35943583791327
 20
-95.21385111381969
 30
0.0
 10
-82.27311179878802
 20
-93.84432106071924
 30
0.0
 10
-81.15457806058924
 20
-92.84017824586508
 30
0.0
 10
-80.03478913809492
 20
-92.2379959676945
 30
0.0
 10
-78.92320278316552
 20
-92.09689704209111
 30
0.0
 10
-77.91883458074298
 20
-92.50177333705919
 30
0.0
 10
-77.14870451071351
 20
-93.37767358373176
 30
0.0
 10
-76.6073243394943
 20
-94.61853104929241
 30
0.0
 10
-76.27099977159403
 20
-96.18387086090641
 30
0.0
 10
-76.23450220900189
 20
-97.33244949237874
 30
0.0
 10
-76.2149275923
 20
-97.94846281958843
 30
0.0
 11
-76.2149275923
 21
-97.94846281958843
 31
0.0
 11
-76.33293091736671
 21
-99.99527006567901
 31
0.0
 11
-76.68178212102995
 21
-102.1570087693198
 31
0.0
 11
-77.24623612789604
 21
-104.3392009993773
 31
0.0
 11
-78.00162231796216
 21
-106.4464746544068
 31
0.0
 11
-78.91492778093681
 21
-108.3867310072603
 31
0.0
 11
-79.94623582267528
 21
-110.0751728547438
 31
0.0
 11
-81.0504739300905
 21
-111.4380053803092
 31
0.0
 11
-82.17938129394534
 21
-112.4156684858042
 31
0.0
 11
-83.28361924534077
 21
-112.9654310594666
 31
0.0
 11
-84.3149275923
 21
-113.0632685902424
 31
0.0
 11
-85.22823261419252
 21
-112.7049022685792
 31
0.0
 11
-85.98361936192472
 21
-111.9059972267387
 31
0.0
 11
-86.54807271891346
 21
-110.7014668024215
 31
0.0
 11
-86.89692463626255
 21
-109.1439571275234
 31
0.0
 11
-87.0149272150264
 21
-107.3015368537319
 31
0.0
 11
-86.89692463626255
 21
-105.2547301180971
 31
0.0
 11
-86.54807271891346
 21
-103.0929911980326
 31
0.0
 11
-85.98361936192471
 21
-100.910798880908
 31
0.0
 11
-85.2282326141925
 21
-98.80352561263116
 31
0.0
 11
-84.3149275923
 21
-96.86326859024238
 31
0.0
 11
-83.28361924534077
 21
-95.17482766581496
 31
0.0
 11
-82.17938129394534
 21
-93.81199400401465
 31
0.0
 11
-81.0504739300905
 21
-92.83433219827441
 31
0.0
 11
-79.94623582267528
 21
-92.284568218143
 31
0.0
 11
-78.91492778093681
 21
-92.18673213908109
 31
0.0
 11
-78.00162231796216
 21
-92.54509702723226
 31
0.0
 11
-77.24623612789604
 21
-93.34400342173137
 31
0.0
 11
-76.68178212102994
 21
-94.54853263336099
 31
0.0
 11
-76.33293091736672
 21
-96.10604332797547
 31
0.0
 11
-76.2149275923
 21
-97.94846281958843
 31
0.0
  0
SPLINE
  5
92
330
47
100
AcDbEntity
  8
0
  6
Continuous
 62
     7
100
AcDbSpline
210
0.0
220
0.0
230
1.0
 70
     8
 71
     3
 72
    15
 73
    11
 74
     9
 42
0.000000001
 43
0.0000000001
 44
0.00000001
 40
0.0
 40
0.0
 40
0.0
 40
0.0
 40
1.525325462715547
 40
2.977024614083266
 40
4.478673599580852
 40
5.951128960916741
 40
7.422877530300461
 40
8.921170189695818
 40
10.36634402766476
 40
11.88265431996992
 40
11.88265431996992
 40
11.88265431996992
 40
11.88265431996992
 10
-75.76198148347294
 20
-97.41094779384154
 30
0.0
 10
-75.83570606101468
 20
-97.91404256537662
 30
0.0
 10
-75.97959660050051
 20
-98.89594810054487
 30
0.0
 10
-76.24271272920392
 20
-100.3657206650967
 30
0.0
 10
-76.54247820313014
 20
-101.8104244236775
 30
0.0
 10
-76.89038429240395
 20
-103.251233164904
 30
0.0
 10
-77.2844129452389
 20
-104.678958202895
 30
0.0
 10
-77.72187517031279
 20
-106.0843964985565
 30
0.0
 10
-78.20282715618173
 20
-107.4913033963003
 30
0.0
 10
-78.55185907232337
 20
-108.4147570706954
 30
0.0
 10
-78.73056700523279
 20
-108.887574834271
 30
0.0
 11
-75.76198148347294
 21
-97.41094779384154
 31
0.0
 11
-75.99129479708691
 21
-98.91893757234438
 31
0.0
 11
-76.24618800419967
 21
-100.3480841288011
 31
0.0
 11
-76.55243381478516
 21
-101.8181736430624
 31
0.0
 11
-76.89812857343851
 21
-103.2494737254076
 31
0.0
 11
-77.2896325702726
 21
-104.668194442358
 31
0.0
 11
-77.73382033990546
 21
-106.09913054132
 31
0.0
 11
-78.20221846612611
 21
-107.4662920599805
 31
0.0
 11
-78.73056700523279
 21
-108.887574834271
 31
0.0
  0
SPLINE
  5
93
330
47
100
AcDbEntity
  8
0
  6
Continuous
 62
     7
100
AcDbSpline
210
0.0
220
0.0
230
1.0
 70
     8
 71
     3
 72
     9
 73
     5
 74
     3
 42
0.000000001
 43
0.0000000001
 44
0.00000001
 40
0.0
 40
0.0
 40
0.0
 40
0.0
 40
0.3302421529932367
 40
0.6568678902096744
 40
0.6568678902096744
 40
0.6568678902096744
 40
0.6568678902096744
 10
-78.73056700523279
 20
-108.887574834271
 30
0.0
 10
-78.78148907377236
 20
-108.9851737019765
 30
0.0
 10
-78.88277559112413
 20
-109.1793026423218
 30
0.0
 10
-78.98833787946016
 20
-109.3711399801106
 30
0.0
 10
-79.0408284434076
 20
-109.4665305597196
 30
0.0
 11
-78.73056700523279
 21
-108.887574834271
 31
0.0
 11
-78.88441396516856
 21
-109.1797922064119
 31
0.0
 11
-79.0408284434076
 21
-109.4665305597196
 31
0.0
  0
SPLINE
  5
94
330
47
100
AcDbEntity
  8
0
  6
Continuous
 62
     7
100
AcDbSpline
210
0.0
220
0.0
230
1.0
 70
     8
 71
     3
 72
    15
 73
    11
 74
     9
 42
0.000000001
 43
0.0000000001
 44
0.00000001
 40
0.0
 40
0.0
 40
0.0
 40
0.0
 40
1.095078394971183
 40
2.116834089617923
 40
3.150103407282225
 40
4.138250432157071
 40
5.100948255566688
 40
6.056653753371376
 40
6.95767745663575
 40
7.884338750546076
 40
7.884338750546076
 40
7.884338750546076
 40
7.884338750546076
 10
-84.97799948692656
 20
-95.55571262676274
 30
0.0
 10
-84.67431768249139
 20
-95.35313550150036
 30
0.0
 10
-84.08728757560426
 20
-94.9615451099011
 30
0.0
 10
-83.23414717264158
 20
-94.34903764242634
 30
0.0
 10
-82.42902457235914
 20
-93.73164439350919
 30
0.0
 10
-81.66354051713479
 20
-93.09603321547661
 30
0.0
 10
-80.94387813285523
 20
-92.44692518151734
 30
0.0
 10
-80.27379741866352
 20
-91.78761660197641
 30
0.0
 10
-79.63779521130675
 20
-91.1116543459924
 30
0.0
 10
-79.24166956103615
 20
-90.64869725769411
 30
0.0
 10
-79.04082844340716
 20
-90.41397167646144
 30
0.0
 11
-84.97799948692656
 21
-95.55571262676274
 31
0.0
 11
-84.07062830827135
 21
-94.942626796858
 31
0.0
 11
-83.24044680569952
 21
-94.34698984978482
 31
0.0
 11
-82.42133697122456
 21
-93.71714497800116
 31
0.0
 11
-81.66147667537824
 21
-93.08544340743777
 31
0.0
 11
-80.94694627098102
 21
-92.44028187639553
 31
0.0
 11
-80.26531065532743
 21
-91.770396896074
 31
0.0
 11
-79.64887832198377
 21
-91.11324022282831
 31
0.0
 11
-79.04082844340716
 21
-90.41397167646144
 31
0.0
  0
SPLINE
  5
95
330
47
100
AcDbEntity
  8
0
  6
Continuous
 62
     7
100
AcDbSpline
210
0.0
220
0.0
230
1.0
 70
     8
 71
     3
 72
     9
 73
     5
 74
     3
 42
0.000000001
 43
0.0000000001
 44
0.00000001
 40
0.0
 40
0.0
 40
0.0
 40
0.0
 40
0.1572125251650885
 40
0.3131989844176215
 40
0.3131989844176215
 40
0.3131989844176215
 40
0.3131989844176215
 10
-82.97646908946271
 20
-89.27785008324517
 30
0.0
 10
-82.92421729797594
 20
-89.28227625064784
 30
0.0
 10
-82.82012121757003
 20
-89.29109408659164
 30
0.0
 10
-82.71737810445138
 20
-89.31000084955106
 30
0.0
 10
-82.6662076512875
 20
-89.31941723414596
 30
0.0
 11
-82.97646908946271
 21
-89.27785008324517
 31
0.0
 11
-82.82005461122361
 21
-89.29367061320356
 31
0.0
 11
-82.6662076512875
 21
-89.31941723414596
 31
0.0
  0
SPLINE
  5
96
330
47
100
AcDbEntity
  8
0
  6
Continuous
 62
     7
100
AcDbSpline
210
0.0
220
0.0
230
1.0
 70
     8
 71
     3
 72
    15
 73
    11
 74
     9
 42
0.000000001
 43
0.0000000001
 44
0.00000001
 40
0.0
 40
0.0
 40
0.0
 40
0.0
 40
1.002367259509242
 40
1.931753359472876
 40
2.864572259903214
 40
3.748872242640104
 40
4.602260653361768
 40
5.441132108621842
 40
6.224575422792473
 40
7.023353567013736
 40
7.023353567013736
 40
7.023353567013736
 40
7.023353567013736
 10
-78.73056700523239
 20
-90.45553882736274
 30
0.0
 10
-78.5527869850664
 20
-90.73845986993771
 30
0.0
 10
-78.21017090718888
 20
-91.28370282038043
 30
0.0
 10
-77.72889424678115
 20
-92.10860375219187
 30
0.0
 10
-77.2919074166674
 20
-92.91328214638497
 30
0.0
 10
-76.89724594482595
 20
-93.71144358748127
 30
0.0
 10
-76.54847305535273
 20
-94.49659640521273
 30
0.0
 10
-76.2473357812379
 20
-95.26516610807711
 30
0.0
 10
-75.98331877873383
 20
-96.02813645586912
 30
0.0
 10
-75.83623575157837
 20
-96.53469225571537
 30
0.0
 10
-75.76198148347277
 20
-96.790424917491
 30
0.0
 11
-78.73056700523239
 21
-90.45553882736274
 31
0.0
 11
-78.2020901584781
 21
-91.30727373003076
 31
0.0
 11
-77.73360072465661
 21
-92.10994188899977
 31
0.0
 11
-77.28960908771492
 21
-92.9303213913622
 31
0.0
 11
-76.89826749418873
 21
-93.72331459267727
 31
0.0
 11
-76.55241533163047
 21
-94.50347999947941
 31
0.0
 11
-76.24605406964386
 21
-95.28440771475067
 31
0.0
 11
-75.99123228649114
 21
-96.02525134623136
 31
0.0
 11
-75.76198148347277
 21
-96.790424917491
 31
0.0
  0
SPLINE
  5
97
330
47
100
AcDbEntity
  8
0
  6
Continuous
 62
     7
100
AcDbSpline
210
0.0
220
0.0
230
1.0
 70
     8
 71
     3
 72
     9
 73
     5
 74
     3
 42
0.000000001
 43
0.0000000001
 44
0.00000001
 40
0.0
 40
0.0
 40
0.0
 40
0.0
 40
0.3080486020572265
 40
0.6205441239945655
 40
0.6205441239945655
 40
0.6205441239945655
 40
0.6205441239945655
 10
-75.76198148347277
 20
-96.790424917491
 30
0.0
 10
-75.76070381376796
 20
-96.89310419314656
 30
0.0
 10
-75.75813005020743
 20
-97.09994499932063
 30
0.0
 10
-75.76069154696961
 20
-97.30678611004126
 30
0.0
 10
-75.76198148347294
 20
-97.41094779384154
 30
0.0
 11
-75.76198148347277
 21
-96.790424917491
 31
0.0
 11
-75.75941396516993
 21
-97.09846281959098
 31
0.0
 11
-75.76198148347294
 21
-97.41094779384154
 31
0.0
  0
SPLINE
  5
98
330
47
100
AcDbEntity
  8
0
  6
Continuous
 62
     7
100
AcDbSpline
210
0.0
220
0.0
230
1.0
 70
     8
 71
     3
 72
     9
 73
     5
 74
     3
 42
0.000000001
 43
0.0000000001
 44
0.00000001
 40
0.0
 40
0.0
 40
0.0
 40
0.0
 40
0.3080486020576966
 40
0.6205441239951206
 40
0.6205441239951206
 40
0.6205441239951206
 40
0.6205441239951206
 10
-92.19248709291634
 20
-107.0956966757751
 30
0.0
 10
-92.19376476262119
 20
-106.9930174001194
 30
0.0
 10
-92.19633852618188
 20
-106.7861765939452
 30
0.0
 10
-92.19377702941962
 20
-106.5793354832243
 30
0.0
 10
-92.19248709291634
 20
-106.475173799424
 30
0.0
 11
-92.19248709291634
 21
-107.0956966757751
 31
0.0
 11
-92.19505461121932
 21
-106.7876587736747
 31
0.0
 11
-92.19248709291634
 21
-106.475173799424
 31
0.0
  0
SPLINE
  5
99
330
47
100
AcDbEntity
  8
0
  6
Continuous
 62
     7
100
AcDbSpline
210
0.0
220
0.0
230
1.0
 70
     8
 71
     3
 72
    15
 73
    11
 74
     9
 42
0.000000001
 43
0.0000000001
 44
0.00000001
 40
0.0
 40
0.0
 40
0.0
 40
0.0
 40
0.7989746747011042
 40
1.58261005000362
 40
2.42112930545394
 40
3.27415402117486
 40
4.158820360037417
 40
5.092047394336814
 40
6.021226269634936
 40
7.023353566092548
 40
7.023353566092548
 40
7.023353566092548
 40
7.023353566092548
 10
-85.28826092510178
 20
-114.5667043591196
 30
0.0
 10
-85.36253414366435
 20
-114.3109089576273
 30
0.0
 10
-85.5096546431893
 20
-113.8042291057665
 30
0.0
 10
-85.77368789403891
 20
-113.0412513217374
 30
0.0
 10
-86.0747699834049
 20
-112.2728478615699
 30
0.0
 10
-86.42348938223503
 20
-111.4877990774787
 30
0.0
 10
-86.8182069107097
 20
-110.689512281951
 30
0.0
 10
-87.25529214704851
 20
-109.8846719415205
 30
0.0
 10
-87.73657102048057
 20
-109.0597875291605
 30
0.0
 10
-88.07910857611864
 20
-108.514671313962
 30
0.0
 10
-88.25684644686163
 20
-108.2318182689913
 30
0.0
 11
-85.28826092510178
 21
-114.5667043591196
 31
0.0
 11
-85.5175718806577
 21
-113.8013436483242
 31
0.0
 11
-85.77246744582851
 21
-113.0603222901718
 31
0.0
 11
-86.07870880020809
 21
-112.2797258672345
 31
0.0
 11
-86.42440801506734
 21
-111.4998904876583
 31
0.0
 11
-86.8159064798634
 21
-110.7065661631437
 31
0.0
 11
-87.26009978153428
 21
-109.8858317305353
 31
0.0
 11
-87.72849346588998
 21
-109.0833476254121
 31
0.0
 11
-88.25684644686163
 21
-108.2318182689913
 31
0.0
  0
SPLINE
  5
9A
330
47
100
AcDbEntity
  8
0
  6
Continuous
 62
     7
100
AcDbSpline
210
0.0
220
0.0
230
1.0
 70
     8
 71
     3
 72
     9
 73
     5
 74
     3
 42
0.000000001
 43
0.0000000001
 44
0.00000001
 40
0.0
 40
0.0
 40
0.0
 40
0.0
 40
0.3080486020571963
 40
0.6205441239945213
 40
0.6205441239945213
 40
0.6205441239945213
 40
0.6205441239945213
 10
-88.25684644686163
 20
-108.2318182689913
 30
0.0
 10
-88.25812411656635
 20
-108.1291389933358
 30
0.0
 10
-88.26069788012674
 20
-107.9222981871617
 30
0.0
 10
-88.25813638336452
 20
-107.7154570764411
 30
0.0
 10
-88.25684644686123
 20
-107.6112953926408
 30
0.0
 11
-88.25684644686163
 21
-108.2318182689913
 31
0.0
 11
-88.25941396516426
 21
-107.9237803668914
 31
0.0
 11
-88.25684644686123
 21
-107.6112953926408
 31
0.0
  0
SPLINE
  5
9B
330
47
100
AcDbEntity
  8
0
  6
Continuous
 62
     7
100
AcDbSpline
210
0.0
220
0.0
230
1.0
 70
     8
 71
     3
 72
     9
 73
     5
 74
     3
 42
0.000000001
 43
0.0000000001
 44
0.00000001
 40
0.0
 40
0.0
 40
0.0
 40
0.0
 40
0.3302421529941944
 40
0.6568678902107772
 40
0.6568678902107772
 40
0.6568678902107772
 40
0.6568678902107772
 10
-89.22390157115689
 20
-94.9985467589956
 30
0.0
 10
-89.17297950261718
 20
-94.90094789128975
 30
0.0
 10
-89.07169298526534
 20
-94.70681895094407
 30
0.0
 10
-88.9661306969291
 20
-94.51498161315499
 30
0.0
 10
-88.91364013298167
 20
-94.41959103354597
 30
0.0
 11
-89.22390157115689
 21
-94.9985467589956
 31
0.0
 11
-89.07005461122075
 21
-94.70632938685385
 31
0.0
 11
-88.91364013298167
 21
-94.41959103354597
 31
0.0
  0
SPLINE
  5
9C
330
47
100
AcDbEntity
  8
0
  6
Continuous
 62
     7
100
AcDbSpline
210
0.0
220
0.0
230
1.0
 70
     8
 71
     3
 72
     9
 73
     5
 74
     3
 42
0.000000001
 43
0.0000000001
 44
0.00000001
 40
0.0
 40
0.0
 40
0.0
 40
0.0
 40
0.5010930835267542
 40
1.028010319980012
 40
1.028010319980012
 40
1.028010319980012
 40
1.028010319980012
 10
-82.40482647758341
 20
-97.23629000433019
 30
0.0
 10
-82.3891581871751
 20
-97.4026612845192
 30
0.0
 10
-82.35701415093358
 20
-97.74397789670314
 30
0.0
 10
-82.35307410959224
 20
-98.0867918761318
 30
0.0
 10
-82.3510546112222
 20
-98.26250469882312
 30
0.0
 11
-82.40482647758341
 21
-97.23629000433019
 31
0.0
 11
-82.36452281451923
 21
-97.73575961639612
 31
0.0
 11
-82.3510546112222
 21
-98.26250469882312
 31
0.0
  0
SPLINE
  5
9D
330
47
100
AcDbEntity
  8
0
  6
Continuous
 62
     7
100
AcDbSpline
210
0.0
220
0.0
230
1.0
 70
     8
 71
     3
 72
    15
 73
    11
 74
     9
 42
0.000000001
 43
0.0000000001
 44
0.00000001
 40
0.0
 40
0.0
 40
0.0
 40
0.0
 40
0.9268883278409427
 40
1.828129903054909
 40
2.783431744974809
 40
3.745720864546521
 40
4.734278793530246
 40
5.767998014318388
 40
6.78952330205334
 40
7.884338750019699
 40
7.884338750019699
 40
7.884338750019699
 40
7.884338750019699
 10
-79.0408284434076
 20
-109.4665305597196
 30
0.0
 10
-79.2417193440294
 20
-109.7013131778501
 30
0.0
 10
-79.63794255860033
 20
-110.1643820322338
 30
0.0
 10
-80.27396449256119
 20
-110.8403449074659
 30
0.0
 10
-80.9439109815601
 20
-111.4995069082744
 30
0.0
 10
-81.66346893336114
 20
-112.1485304667527
 30
0.0
 10
-82.42906526404695
 20
-112.7842428227379
 30
0.0
 10
-83.23436104698271
 20
-113.4017559187299
 30
0.0
 10
-84.08749640538298
 20
-114.0142453066152
 30
0.0
 10
-84.67439029349462
 20
-114.4057435064594
 30
0.0
 10
-84.97799948692725
 20
-114.6082715100208
 30
0.0
 11
-79.0408284434076
 21
-109.4665305597196
 31
0.0
 11
-79.64903048057849
 21
-110.1659676586875
 31
0.0
 11
-80.26562136478559
 21
-110.8232743293868
 31
0.0
 11
-80.94697629260509
 21
-111.492869036926
 31
0.0
 11
-81.66119883387779
 21
-112.1377616728978
 31
0.0
 11
-82.42137090711292
 21
-112.7697309749351
 31
0.0
 11
-83.24084319585067
 21
-113.399842549212
 31
0.0
 11
-84.07084418374329
 21
-113.9953358522534
 31
0.0
 11
-84.97799948692725
 21
-114.6082715100208
 31
0.0
  0
SPLINE
  5
9E
330
47
100
AcDbEntity
  8
0
  6
Continuous
 62
     7
100
AcDbSpline
210
0.0
220
0.0
230
1.0
 70
     8
 71
     3
 72
     9
 73
     5
 74
     3
 42
0.000000001
 43
0.0000000001
 44
0.00000001
 40
0.0
 40
0.0
 40
0.0
 40
0.0
 40
0.1572125251645333
 40
0.3131989844169869
 40
0.3131989844169869
 40
0.3131989844169869
 40
0.3131989844169869
 10
-84.97799948692725
 20
-114.6082715100208
 30
0.0
 10
-85.03025127841381
 20
-114.603845342618
 30
0.0
 10
-85.13434735881948
 20
-114.5950275066738
 30
0.0
 10
-85.23709047193795
 20
-114.5761207437145
 30
0.0
 10
-85.28826092510178
 20
-114.5667043591196
 30
0.0
 11
-84.97799948692725
 21
-114.6082715100208
 31
0.0
 11
-85.13441396516575
 21
-114.592450980062
 31
0.0
 11
-85.28826092510178
 21
-114.5667043591196
 31
0.0
  0
SPLINE
  5
9F
330
47
100
AcDbEntity
  8
0
  6
Continuous
 62
     7
100
AcDbSpline
210
0.0
220
0.0
230
1.0
 70
     8
 71
     3
 72
    21
 73
    17
 74
    15
 42
0.000000001
 43
0.0000000001
 44
0.00000001
 40
0.0
 40
0.0
 40
0.0
 40
0.0
 40
0.7156584920007489
 40
1.561474029742467
 40
2.601487036988813
 40
3.841767680784204
 40
5.254201343053367
 40
6.790817421231178
 40
8.392200410202543
 40
9.993583399173932
 40
11.53019947735173
 40
12.94263313962085
 40
14.18291378341628
 40
15.22292679066267
 40
16.06874232840438
 40
16.78440082040509
 40
16.78440082040509
 40
16.78440082040509
 40
16.78440082040509
 10
-83.60852009753347
 20
-109.5310070173302
 30
0.0
 10
-83.82739794176246
 20
-109.425671507753
 30
0.0
 10
-84.30496100548879
 20
-109.1958430722139
 30
0.0
 10
-84.77388666737986
 20
-108.4224519225318
 30
0.0
 10
-85.08761841471971
 20
-107.4301581138658
 30
0.0
 10
-85.22884989757526
 20
-106.1986680683036
 30
0.0
 10
-85.19854467460036
 20
-104.8003283625232
 30
0.0
 10
-84.99556935499095
 20
-103.2939897668443
 30
0.0
 10
-84.62984268927383
 20
-101.7546689786136
 30
0.0
 10
-84.1189400789229
 20
-100.2572568757399
 30
0.0
 10
-83.48790227824841
 20
-98.87448927439746
 30
0.0
 10
-82.76831580025726
 20
-97.67512792768262
 30
0.0
 10
-81.99250352155504
 20
-96.70836561341733
 30
0.0
 10
-81.19820641453043
 20
-96.03593218341997
 30
0.0
 10
-80.38925308050769
 20
-95.63143292487922
 30
0.0
 10
-79.86267678739223
 20
-95.6914745533283
 30
0.0
 10
-79.62133508706653
 20
-95.7189929827186
 30
0.0
 11
-83.60852009753347
 21
-109.5310070173302
 31
0.0
 11
-84.22396039467966
 21
-109.1657669201266
 31
0.0
 11
-84.70857343047011
 21
-108.4725468057524
 31
0.0
 11
-85.03805750838707
 21
-107.4861050721171
 31
0.0
 11
-85.19589226408084
 21
-106.2559082338451
 31
0.0
 11
-85.17416176028007
 21
-104.8436417470382
 31
0.0
 11
-84.97395712679577
 21
-103.3201237560623
 31
0.0
 11
-84.60531603406218
 21
-101.7617492141079
 31
0.0
 11
-84.08672499441005
 21
-100.2466614932628
 31
0.0
 11
-83.4441872022458
 21
-98.8508340864045
 31
0.0
 11
-82.70992307193069
 21
-97.64425834013502
 31
0.0
 11
-81.92075107028282
 21
-96.68743880500082
 31
0.0
 11
-81.1162438654722
 21
-96.02835215753615
 31
0.0
 11
-80.3367428478265
 21
-95.70005033768086
 31
0.0
 11
-79.62133508706653
 21
-95.7189929827186
 31
0.0
  0
SPLINE
  5
A0
330
47
100
AcDbEntity
  8
0
  6
Continuous
 62
     7
100
AcDbSpline
210
0.0
220
0.0
230
1.0
 70
     8
 71
     3
 72
    13
 73
     9
 74
     7
 42
0.000000001
 43
0.0000000001
 44
0.00000001
 40
0.0
 40
0.0
 40
0.0
 40
0.0
 40
1.469181013239042
 40
3.0412792878359
 40
4.653785791913391
 40
6.240906311339351
 40
7.73889446428808
 40
9.091639647654233
 40
9.091639647654233
 40
9.091639647654233
 40
9.091639647654233
 10
-82.3510546112222
 20
-98.26250469882312
 30
0.0
 10
-82.37005829553198
 20
-98.75238908200559
 30
0.0
 10
-82.40939690183731
 20
-99.76647462572105
 30
0.0
 10
-82.68907928168159
 20
-101.2968513306818
 30
0.0
 10
-83.10978041409064
 20
-102.8328759055838
 30
0.0
 10
-83.67587739530956
 20
-104.2946322402072
 30
0.0
 10
-84.33501709928044
 20
-105.6251846433391
 30
0.0
 10
-84.89122227448344
 20
-106.3973147190807
 30
0.0
 10
-85.15515572593878
 20
-106.7637099957186
 30
0.0
 11
-82.3510546112222
 21
-98.26250469882312
 31
0.0
 11
-82.44153870474939
 21
-99.72889669195433
 31
0.0
 11
-82.70843339005248
 21
-101.2781740112702
 31
0.0
 11
-83.13830121797572
 21
-102.8323267962633
 31
0.0
 11
-83.70949594159163
 21
-104.3130996139898
 31
0.0
 11
-84.39325744303076
 21
-105.645930706473
 31
0.0
 11
-85.15515572593878
 21
-106.7637099957186
 31
0.0
  0
SPLINE
  5
A1
330
47
100
AcDbEntity
  8
0
  6
Continuous
 62
     7
100
AcDbSpline
210
0.0
220
0.0
230
1.0
 70
     8
 71
     3
 72
    15
 73
    11
 74
     9
 42
0.000000001
 43
0.0000000001
 44
0.00000001
 40
0.0
 40
0.0
 40
0.0
 40
0.0
 40
1.516678244983871
 40
2.962190138424294
 40
4.459840628496772
 40
5.93097070300789
 40
7.40404467185295
 40
8.906338199397354
 40
10.35769865472485
 40
11.88265431995463
 40
11.88265431995463
 40
11.88265431995463
 40
11.88265431995463
 10
-88.25684644686123
 20
-107.6112953926408
 30
0.0
 10
-88.07809587382852
 20
-107.1383626063059
 30
0.0
 10
-87.72898216698619
 20
-106.2146882224574
 30
0.0
 10
-87.2480377189421
 20
-104.80775607327
 30
0.0
 10
-86.81067872228428
 20
-103.4026080017034
 30
0.0
 10
-86.41669940498011
 20
-101.9750916721986
 30
0.0
 10
-86.06873510701192
 20
-100.5340756237952
 30
0.0
 10
-85.76891902944176
 20
-99.08906739455632
 30
0.0
 10
-85.50582166127269
 20
-97.61931330455837
 30
0.0
 10
-85.36196686227521
 20
-96.63764125453429
 30
0.0
 10
-85.28826092510178
 20
-96.13466835221239
 30
0.0
 11
-88.25684644686123
 21
-107.6112953926408
 31
0.0
 11
-87.72837404700576
 21
-106.1896661082917
 31
0.0
 11
-87.25988016628546
 21
-104.8221800503705
 31
0.0
 11
-86.8158940501231
 21
-103.3918537519775
 31
0.0
 11
-86.42454693581757
 21
-101.973731354928
 31
0.0
 11
-86.07869923853843
 21
-100.5418318162971
 31
0.0
 11
-85.77233351127268
 21
-99.071108903966
 31
0.0
 11
-85.51751408337779
 21
-97.64229322962656
 31
0.0
 11
-85.28826092510178
 21
-96.13466835221239
 31
0.0
  0
SPLINE
  5
A2
330
47
100
AcDbEntity
  8
0
  6
Continuous
 62
     7
100
AcDbSpline
210
0.0
220
0.0
230
1.0
 70
     8
 71
     3
 72
     9
 73
     5
 74
     3
 42
0.000000001
 43
0.0000000001
 44
0.00000001
 40
0.0
 40
0.0
 40
0.0
 40
0.0
 40
0.3302421529941878
 40
0.6568678902107898
 40
0.6568678902107898
 40
0.6568678902107898
 40
0.6568678902107898
 10
-85.28826092510178
 20
-96.13466835221239
 30
0.0
 10
-85.23733885656206
 20
-96.03706948450653
 30
0.0
 10
-85.13605233921024
 20
-95.84294054416088
 30
0.0
 10
-85.03049005087404
 20
-95.65110320637176
 30
0.0
 10
-84.97799948692656
 20
-95.55571262676274
 30
0.0
 11
-85.28826092510178
 21
-96.13466835221239
 31
0.0
 11
-85.13441396516566
 21
-95.84245098007064
 31
0.0
 11
-84.97799948692656
 21
-95.55571262676274
 31
0.0
  0
SPLINE
  5
A3
330
47
100
AcDbEntity
  8
0
  6
Continuous
 62
     7
100
AcDbSpline
210
0.0
220
0.0
230
1.0
 70
     8
 71
     3
 72
    17
 73
    13
 74
    11
 42
0.000000001
 43
0.0000000001
 44
0.00000001
 40
0.0
 40
0.0
 40
0.0
 40
0.0
 40
1.408156205679936
 40
2.91337854244269
 40
4.460644169630079
 40
5.99177362985742
 40
7.449782599452353
 40
8.783367028285449
 40
9.952159381732665
 40
10.9341807514198
 40
11.73857038572856
 40
12.42584820191556
 40
12.42584820191556
 40
12.42584820191556
 40
12.42584820191556
 10
-78.0209275923
 20
-99.51250469882314
 30
0.0
 10
-78.03841967109489
 20
-99.9820250798857
 30
0.0
 10
-78.07460958410519
 20
-100.9534305231051
 30
0.0
 10
-78.33283942651784
 20
-102.4218762126401
 30
0.0
 10
-78.7237997009472
 20
-103.9003650203472
 30
0.0
 10
-79.24781762765815
 20
-105.3213702656131
 30
0.0
 10
-79.87614633980306
 20
-106.6212014580811
 30
0.0
 10
-80.58098636205281
 20
-107.740019859174
 30
0.0
 10
-81.33292413184752
 20
-108.6356411211757
 30
0.0
 10
-82.09856409235711
 20
-109.2545624091626
 30
0.0
 10
-82.87507544952828
 20
-109.6201736345579
 30
0.0
 10
-83.37717870282005
 20
-109.5591317447273
 30
0.0
 10
-83.60852009753347
 20
-109.5310070173302
 30
0.0
 11
-78.0209275923
 21
-99.51250469882314
 31
0.0
 11
-78.10435076097713
 21
-100.9181876099276
 31
0.0
 11
-78.3507463157608
 21
-102.4031062994284
 31
0.0
 11
-78.74867684284581
 21
-103.8983260883244
 31
0.0
 11
-79.27966804521654
 21
-105.3344339418113
 31
0.0
 11
-79.91907035003646
 21
-106.6447601788569
 31
0.0
 11
-80.63719985968547
 21
-107.7684760839263
 31
0.0
 11
-81.40071898845423
 21
-108.6534134286541
 31
0.0
 11
-82.17418237680502
 21
-109.2584922293002
 31
0.0
 11
-82.92168315735321
 21
-109.5556205896785
 31
0.0
 11
-83.60852009753347
 21
-109.5310070173302
 31
0.0
  0
SPLINE
  5
A4
330
47
100
AcDbEntity
  8
0
  6
Continuous
 62
     7
100
AcDbSpline
210
0.0
220
0.0
230
1.0
 70
     8
 71
     3
 72
    13
 73
     9
 74
     7
 42
0.000000001
 43
0.0000000001
 44
0.00000001
 40
0.0
 40
0.0
 40
0.0
 40
0.0
 40
0.516585390924406
 40
1.087397585180181
 40
1.748825703813825
 40
2.516917541754059
 40
3.392727354308511
 40
4.367347769375689
 40
4.367347769375689
 40
4.367347769375689
 40
4.367347769375689
 10
-79.62133508706653
 20
-95.7189929827186
 30
0.0
 10
-79.46082101455076
 20
-95.78640617411232
 30
0.0
 10
-79.12294345500192
 20
-95.92830904143511
 30
0.0
 10
-78.72628278012378
 20
-96.3771938938715
 30
0.0
 10
-78.41106389074577
 20
-96.96705227817179
 30
0.0
 10
-78.18575999218642
 20
-97.7062193576077
 30
0.0
 10
-78.04495644376075
 20
-98.57017116314023
 30
0.0
 10
-78.02921735668679
 20
-99.18740698618225
 30
0.0
 10
-78.0209275923
 20
-99.51250469882314
 30
0.0
 11
-79.62133508706653
 21
-95.7189929827186
 31
0.0
 11
-79.16038436896528
 21
-95.95219870055067
 31
0.0
 11
-78.76514209580148
 21
-96.36403618685057
 31
0.0
 11
-78.4461891349762
 21
-96.94348089287641
 31
0.0
 11
-78.21206371944116
 21
-97.67502061269707
 31
0.0
 11
-78.0690336320145
 21
-98.53907224403287
 31
0.0
 11
-78.0209275923
 21
-99.51250469882314
 31
0.0
  0
SPLINE
  5
A5
330
47
100
AcDbEntity
  8
0
  6
Continuous
 62
     7
100
AcDbSpline
210
0.0
220
0.0
230
1.0
 70
     8
 71
     3
 72
     9
 73
     5
 74
     3
 42
0.000000001
 43
0.0000000001
 44
0.00000001
 40
0.0
 40
0.0
 40
0.0
 40
0.0
 40
0.1572125251647511
 40
0.3131989844172398
 40
0.3131989844172398
 40
0.3131989844172398
 40
0.3131989844172398
 10
-79.04082844340716
 20
-90.41397167646144
 30
0.0
 10
-78.98857665192052
 20
-90.4183978438643
 30
0.0
 10
-78.88448057151477
 20
-90.42721567980844
 30
0.0
 10
-78.78173745839626
 20
-90.44612244276786
 30
0.0
 10
-78.73056700523239
 20
-90.45553882736274
 30
0.0
 11
-79.04082844340716
 21
-90.41397167646144
 31
0.0
 11
-78.88441396516845
 21
-90.42979220642027
 31
0.0
 11
-78.73056700523239
 21
-90.45553882736274
 31
0.0
  0
ENDBLK
  5
49
330
47
100
AcDbEntity
  8
0
100
AcDbBlockEnd
  0
BLOCK
  5
4C
330
4A
100
AcDbEntity
  8
0
100
AcDbBlockBegin
  2
Allg1
 70
     0
 10
-83.77999110176908
 20
-102.000000000012
 30
0.0
  3
Allg1
  1

  0
INSERT
  5
4B
330
4A
100
AcDbEntity
  8
0
100
AcDbBlockReference
  2
WP_CN_PA_M16-select__1
 10
-92.19591045065366
 20
-114.6082715100208
 30
0.0
  0
MTEXT
  5
A7
330
4A
100
AcDbEntity
  8
1
 62
     6
100
AcDbMText
 10
-83.77999110176904
 20
-120.0639382152937
 30
0.0
 40
2.5
 41
0.0
 71
     2
 72
     1
  1
 
  7
CONVERTER_11
 73
     1
 44
1.32052821128451
  0
ENDBLK
  5
4D
330
4A
100
AcDbEntity
  8
0
100
AcDbBlockEnd
  0
BLOCK
  5
4F
330
4E
100
AcDbEntity
  8
0
100
AcDbBlockBegin
  2
WP_CN_PA_M16-select__2
 70
     0
 10
-141.4999999999775
 20
-112.5000000000175
 30
0.0
  3
WP_CN_PA_M16-select__2
  1

  0
LINE
  5
A8
330
4E
100
AcDbEntity
  8
1
  6
DOT_CENTER
 62
     2
100
AcDbLine
 10
-136.4999999999775
 20
-100.0000000000175
 30
0.0
 11
-136.9555136271104
 21
-100.0000000000175
 31
0.0
  0
LINE
  5
A9
330
4E
100
AcDbEntity
  8
0
  6
Continuous
 62
     7
100
AcDbLine
 10
-141.4999999999775
 20
-106.5576939198869
 30
0.0
 11
-141.4999999999775
 21
-105.9371710435365
 31
0.0
  0
LINE
  5
AA
330
4E
100
AcDbEntity
  8
0
  6
Continuous
 62
     7
100
AcDbLine
 10
-141.4999999999775
 20
-112.4948649634058
 30
0.0
 11
-141.4999999999775
 21
-106.5576939198869
 31
0.0
  0
LINE
  5
AB
330
4E
100
AcDbEntity
  8
0
  6
Continuous
 62
     7
100
AcDbLine
 10
-136.9555136271104
 20
-105.9371710435365
 30
0.0
 11
-141.4999999999775
 21
-105.9371710435365
 31
0.0
  0
LINE
  5
AC
330
4E
100
AcDbEntity
  8
0
  6
Continuous
 62
     7
100
AcDbLine
 10
-136.9555136271104
 20
-112.5000000000175
 30
0.0
 11
-141.4999999999775
 21
-112.5000000000175
 31
0.0
  0
LINE
  5
AD
330
4E
100
AcDbEntity
  8
0
  6
Continuous
 62
     7
100
AcDbLine
 10
-136.9555136271104
 20
-112.4948649634058
 30
0.0
 11
-141.4999999999775
 21
-112.4948649634058
 31
0.0
  0
LINE
  5
AE
330
4E
100
AcDbEntity
  8
0
  6
Continuous
 62
     7
100
AcDbLine
 10
-141.4999999999775
 20
-112.5000000000175
 30
0.0
 11
-141.4999999999775
 21
-112.4948649634058
 31
0.0
  0
LINE
  5
AF
330
4E
100
AcDbEntity
  8
0
  6
Continuous
 62
     7
100
AcDbLine
 10
-136.4999999999775
 20
-110.8000000000175
 30
0.0
 11
-136.4999999999775
 21
-89.20000000001751
 31
0.0
  0
LINE
  5
B0
330
4E
100
AcDbEntity
  8
0
  6
Continuous
 62
     7
100
AcDbLine
 10
-136.4999999999775
 20
-89.20000000001751
 30
0.0
 11
-136.9555136271104
 21
-87.50000000001751
 31
0.0
  0
LINE
  5
B1
330
4E
100
AcDbEntity
  8
0
  6
Continuous
 62
     7
100
AcDbLine
 10
-136.9555136271105
 20
-87.50513503662867
 30
0.0
 11
-136.9555136271104
 21
-87.50000000001751
 31
0.0
  0
LINE
  5
B2
330
4E
100
AcDbEntity
  8
0
  6
Continuous
 62
     7
100
AcDbLine
 10
-136.9555136271104
 20
-106.5576939198869
 30
0.0
 11
-141.4999999999775
 21
-106.5576939198869
 31
0.0
  0
LINE
  5
B3
330
4E
100
AcDbEntity
  8
0
  6
Continuous
 62
     7
100
AcDbLine
 10
-136.4999999999775
 20
-110.8000000000175
 30
0.0
 11
-136.9555136271104
 21
-112.5000000000175
 31
0.0
  0
LINE
  5
B4
330
4E
100
AcDbEntity
  8
0
  6
Continuous
 62
     7
100
AcDbLine
 10
-136.9555136271104
 20
-106.5576939198869
 30
0.0
 11
-136.9555136271104
 21
-105.9371710435365
 31
0.0
  0
LINE
  5
B5
330
4E
100
AcDbEntity
  8
0
  6
Continuous
 62
     7
100
AcDbLine
 10
-136.9555136271104
 20
-112.5000000000175
 30
0.0
 11
-136.9555136271104
 21
-112.4948649634058
 31
0.0
  0
LINE
  5
B6
330
4E
100
AcDbEntity
  8
0
  6
Continuous
 62
     7
100
AcDbLine
 10
-141.4999999999775
 20
-93.44230608014811
 30
0.0
 11
-141.4999999999775
 21
-87.50513503662921
 31
0.0
  0
LINE
  5
B7
330
4E
100
AcDbEntity
  8
0
  6
Continuous
 62
     7
100
AcDbLine
 10
-141.4999999999775
 20
-105.9371710435365
 30
0.0
 11
-141.4999999999775
 21
-94.06282895649855
 31
0.0
  0
LINE
  5
B8
330
4E
100
AcDbEntity
  8
0
  6
Continuous
 62
     7
100
AcDbLine
 10
-136.9555136271104
 20
-93.44230608014813
 30
0.0
 11
-141.4999999999775
 21
-93.44230608014811
 31
0.0
  0
LINE
  5
B9
330
4E
100
AcDbEntity
  8
0
  6
Continuous
 62
     7
100
AcDbLine
 10
-136.9555136271105
 20
-94.06282895649744
 30
0.0
 11
-141.4999999999775
 21
-94.06282895649855
 31
0.0
  0
LINE
  5
BA
330
4E
100
AcDbEntity
  8
0
  6
Continuous
 62
     7
100
AcDbLine
 10
-136.9555136271105
 20
-94.06282895649744
 30
0.0
 11
-136.9555136271104
 21
-93.44230608014813
 31
0.0
  0
LINE
  5
BB
330
4E
100
AcDbEntity
  8
0
  6
Continuous
 62
     7
100
AcDbLine
 10
-141.4999999999775
 20
-94.06282895649855
 30
0.0
 11
-141.4999999999775
 21
-93.44230608014811
 31
0.0
  0
LINE
  5
BC
330
4E
100
AcDbEntity
  8
0
  6
Continuous
 62
     7
100
AcDbLine
 10
-136.9555136271104
 20
-87.50000000001751
 30
0.0
 11
-141.4999999999775
 21
-87.50000000001751
 31
0.0
  0
LINE
  5
BD
330
4E
100
AcDbEntity
  8
0
  6
Continuous
 62
     7
100
AcDbLine
 10
-136.9555136271105
 20
-87.50513503662867
 30
0.0
 11
-141.4999999999775
 21
-87.50513503662921
 31
0.0
  0
LINE
  5
BE
330
4E
100
AcDbEntity
  8
0
  6
Continuous
 62
     7
100
AcDbLine
 10
-141.4999999999775
 20
-87.50513503662921
 30
0.0
 11
-141.4999999999775
 21
-87.50000000001751
 31
0.0
  0
SPLINE
  5
BF
330
4E
100
AcDbEntity
  8
0
  6
Continuous
 62
     7
100
AcDbSpline
210
0.0
220
0.0
230
1.0
 70
     8
 71
     3
 72
    15
 73
    11
 74
     9
 42
0.000000001
 43
0.0000000001
 44
0.00000001
 40
0.0
 40
0.0
 40
0.0
 40
0.0
 40
1.525381903980356
 40
2.97740216630491
 40
4.479972127223338
 40
5.954291307341544
 40
7.429230071081783
 40
8.932444768972285
 40
10.38412611192522
 40
11.90913818557506
 40
11.90913818557506
 40
11.90913818557506
 40
11.90913818557506
 10
-136.9555136271104
 20
-105.9371710435365
 30
0.0
 10
-136.8949037550341
 20
-105.4323032342101
 30
0.0
 10
-136.7765989933724
 20
-104.4468487013156
 30
0.0
 10
-136.6508147310252
 20
-102.9585253156138
 30
0.0
 10
-136.5713847452345
 20
-101.4841038501958
 30
0.0
 10
-136.5447780842985
 20
-100.0000713791716
 30
0.0
 10
-136.5713797872797
 20
-98.51582351140507
 30
0.0
 10
-136.6508400334641
 20
-97.04109445183492
 30
0.0
 10
-136.7766393353686
 20
-95.55279396670218
 30
0.0
 10
-136.8949175981203
 20
-94.56757424299207
 30
0.0
 10
-136.9555136271105
 20
-94.06282895649744
 30
0.0
 11
-136.9555136271104
 21
-105.9371710435365
 31
0.0
 11
-136.782793925412
 21
-104.421599250975
 31
0.0
 11
-136.6594716417319
 21
-102.9748254409314
 31
0.0
 11
-136.579947093748
 21
-101.4743614011728
 31
0.0
 11
-136.5535898394039
 21
-100.000277841518
 31
0.0
 11
-136.5799493704571
 21
-98.52557463994022
 31
0.0
 11
-136.6595211095031
 21
-97.02446745949428
 31
0.0
 11
-136.7828307058931
 21
-95.57803271648143
 31
0.0
 11
-136.9555136271105
 21
-94.06282895649744
 31
0.0
  0
SPLINE
  5
C0
330
4E
100
AcDbEntity
  8
0
  6
Continuous
 62
     7
100
AcDbSpline
210
0.0
220
0.0
230
1.0
 70
     8
 71
     3
 72
    15
 73
    11
 74
     9
 42
0.000000001
 43
0.0000000001
 44
0.00000001
 40
0.0
 40
0.0
 40
0.0
 40
0.0
 40
0.7772223803165805
 40
1.51104395352589
 40
2.26548000850525
 40
3.002991906026986
 40
3.740813505943457
 40
4.49557431633134
 40
5.229226637289359
 40
6.00626142696339
 40
6.00626142696339
 40
6.00626142696339
 40
6.00626142696339
 10
-136.9555136271104
 20
-93.44230608014813
 30
0.0
 10
-136.8949852565517
 20
-93.19033884744366
 30
0.0
 10
-136.777308488886
 20
-92.70047445909728
 30
0.0
 10
-136.6511152159911
 20
-91.95534136149543
 30
0.0
 10
-136.5714745081964
 20
-91.21718961896595
 30
0.0
 10
-136.5447501910287
 20
-90.47375637692252
 30
0.0
 10
-136.5714696112422
 20
-89.73021391091947
 30
0.0
 10
-136.6511407160399
 20
-88.99190886817212
 30
0.0
 10
-136.7773485462007
 20
-88.24678951085647
 30
0.0
 10
-136.8949990702376
 20
-87.75704123459691
 30
0.0
 10
-136.9555136271105
 20
-87.50513503662867
 30
0.0
 11
-136.9555136271104
 21
-93.44230608014813
 31
0.0
 11
-136.7827935382552
 21
-92.6845182469007
 31
0.0
 11
-136.659471641732
 21
-91.96113327884562
 31
0.0
 11
-136.5799470219522
 21
-91.21090025054453
 31
0.0
 11
-136.5535898394039
 21
-90.4738594791389
 31
0.0
 11
-136.5799492985112
 21
-89.73650888883631
 31
0.0
 11
-136.6595211095031
 21
-88.98595428812708
 31
0.0
 11
-136.78283031912
 21
-88.26273885152942
 31
0.0
 11
-136.9555136271105
 21
-87.50513503662867
 31
0.0
  0
SPLINE
  5
C1
330
4E
100
AcDbEntity
  8
0
  6
Continuous
 62
     7
100
AcDbSpline
210
0.0
220
0.0
230
1.0
 70
     8
 71
     3
 72
    15
 73
    11
 74
     9
 42
0.000000001
 43
0.0000000001
 44
0.00000001
 40
0.0
 40
0.0
 40
0.0
 40
0.0
 40
0.7772223803160275
 40
1.511043953525892
 40
2.265480008504851
 40
3.002991906026958
 40
3.740813505922327
 40
4.495574316331401
 40
5.229226637300737
 40
6.006261426962833
 40
6.006261426962833
 40
6.006261426962833
 40
6.006261426962833
 10
-136.9555136271104
 20
-112.4948649634058
 30
0.0
 10
-136.8949852565517
 20
-112.2428977307015
 30
0.0
 10
-136.7773084888859
 20
-111.7530333423551
 30
0.0
 10
-136.6511152159911
 20
-111.0079002447534
 30
0.0
 10
-136.5714745081965
 20
-110.2697485022237
 30
0.0
 10
-136.5447501910289
 20
-109.5263152601874
 30
0.0
 10
-136.5714696112416
 20
-108.7827727941842
 30
0.0
 10
-136.6511407160391
 20
-108.044467751433
 30
0.0
 10
-136.7773485462014
 20
-107.2993483941106
 30
0.0
 10
-136.8949990702384
 20
-106.8096001178513
 30
0.0
 10
-136.9555136271104
 20
-106.5576939198869
 30
0.0
 11
-136.9555136271104
 21
-112.4948649634058
 31
0.0
 11
-136.7827935382552
 21
-111.7370771301589
 31
0.0
 11
-136.659471641732
 21
-111.0136921621033
 31
0.0
 11
-136.5799470219523
 21
-110.2634591338026
 31
0.0
 11
-136.5535898394039
 21
-109.5264183623966
 31
0.0
 11
-136.5799492985097
 21
-108.7890677721151
 31
0.0
 11
-136.6595211095031
 21
-108.0385131713847
 31
0.0
 11
-136.7828303191222
 21
-107.3152977347759
 31
0.0
 11
-136.9555136271104
 21
-106.5576939198869
 31
0.0
  0
ENDBLK
  5
50
330
4E
100
AcDbEntity
  8
0
100
AcDbBlockEnd
  0
BLOCK
  5
53
330
51
100
AcDbEntity
  8
0
100
AcDbBlockBegin
  2
Drfsicht1
 70
     0
 10
-138.9999999999925
 20
-100.0000000000075
 30
0.0
  3
Drfsicht1
  1

  0
INSERT
  5
52
330
51
100
AcDbEntity
  8
0
100
AcDbBlockReference
  2
WP_CN_PA_M16-select__2
 10
-141.4999999999775
 20
-112.5000000000175
 30
0.0
  0
MTEXT
  5
C2
330
51
100
AcDbEntity
  8
1
 62
     6
100
AcDbMText
 10
-138.9999999999925
 20
-115.0000000000075
 30
0.0
 40
2.5
 41
0.0
 71
     2
 72
     1
  1
 
  7
CONVERTER_11
 73
     1
 44
1.32052821128451
  0
ENDBLK
  5
54
330
51
100
AcDbEntity
  8
0
100
AcDbBlockEnd
  0
BLOCK
  5
56
330
55
100
AcDbEntity
  8
0
100
AcDbBlockBegin
  2
WP_CN_PA_M16-select__3
 70
     0
 10
-86.00000000003
 20
-72.50000000000998
 30
0.0
  3
WP_CN_PA_M16-select__3
  1

  0
LINE
  5
C3
330
55
100
AcDbEntity
  8
1
  6
DOT_CENTER
 62
     2
100
AcDbLine
 10
-86.00000000003
 20
-61.50000000000999
 30
0.0
 11
-85.94641016154368
 21
-61.50000000001035
 31
0.0
  0
LINE
  5
C4
330
55
100
AcDbEntity
  8
0
  6
Continuous
 62
     7
100
AcDbLine
 10
-86.00000000003
 20
-72.30000000000999
 30
0.0
 11
-85.94641016154378
 21
-72.50000000000998
 31
0.0
  0
LINE
  5
C5
330
55
100
AcDbEntity
  8
0
  6
Continuous
 62
     7
100
AcDbLine
 10
-85.5444863728971
 20
-72.50000000000998
 30
0.0
 11
-81.00000000003
 21
-72.50000000000998
 31
0.0
  0
LINE
  5
C6
330
55
100
AcDbEntity
  8
0
  6
Continuous
 62
     7
100
AcDbLine
 10
-85.5444863728971
 20
-72.50000000000998
 30
0.0
 11
-85.94641016154378
 21
-72.50000000000998
 31
0.0
  0
LINE
  5
C7
330
55
100
AcDbEntity
  8
0
  6
Continuous
 62
     7
100
AcDbLine
 10
-85.5444863728971
 20
-61.14174095031036
 30
0.0
 11
-81.00000000003
 21
-61.14174095031036
 31
0.0
  0
LINE
  5
C8
330
55
100
AcDbEntity
  8
0
  6
Continuous
 62
     7
100
AcDbLine
 10
-85.5444863728971
 20
-61.85825904970962
 30
0.0
 11
-81.00000000003
 21
-61.85825904970962
 31
0.0
  0
LINE
  5
C9
330
55
100
AcDbEntity
  8
0
  6
Continuous
 62
     7
100
AcDbLine
 10
-86.00000000003
 20
-50.70000000000999
 30
0.0
 11
-86.00000000003
 21
-61.50000000000999
 31
0.0
  0
LINE
  5
CA
330
55
100
AcDbEntity
  8
0
  6
Continuous
 62
     7
100
AcDbLine
 10
-86.00000000003
 20
-61.50000000000999
 30
0.0
 11
-86.00000000003
 21
-72.30000000000999
 31
0.0
  0
LINE
  5
CB
330
55
100
AcDbEntity
  8
0
  6
Continuous
 62
     7
100
AcDbLine
 10
-85.54448637289696
 20
-72.1417409503117
 30
0.0
 11
-81.00000000003
 21
-72.14174095031075
 31
0.0
  0
LINE
  5
CC
330
55
100
AcDbEntity
  8
0
  6
Continuous
 62
     7
100
AcDbLine
 10
-85.54448637289696
 20
-72.1417409503117
 30
0.0
 11
-85.5444863728971
 21
-72.50000000000998
 31
0.0
  0
LINE
  5
CD
330
55
100
AcDbEntity
  8
0
  6
Continuous
 62
     7
100
AcDbLine
 10
-81.00000000003
 20
-72.14174095031075
 30
0.0
 11
-81.00000000003
 21
-72.50000000000998
 31
0.0
  0
LINE
  5
CE
330
55
100
AcDbEntity
  8
0
  6
Continuous
 62
     7
100
AcDbLine
 10
-85.5444863728971
 20
-50.50000000000999
 30
0.0
 11
-81.00000000003
 21
-50.50000000000999
 31
0.0
  0
LINE
  5
CF
330
55
100
AcDbEntity
  8
0
  6
Continuous
 62
     7
100
AcDbLine
 10
-86.00000000003
 20
-50.70000000000999
 30
0.0
 11
-85.94641016154378
 21
-50.50000000000999
 31
0.0
  0
LINE
  5
D0
330
55
100
AcDbEntity
  8
0
  6
Continuous
 62
     7
100
AcDbLine
 10
-85.94641016154378
 20
-50.50000000000999
 30
0.0
 11
-85.5444863728971
 21
-50.50000000000999
 31
0.0
  0
LINE
  5
D1
330
55
100
AcDbEntity
  8
0
  6
Continuous
 62
     7
100
AcDbLine
 10
-85.5444863728971
 20
-50.50000000000999
 30
0.0
 11
-85.5444863728971
 21
-50.85825904970923
 31
0.0
  0
LINE
  5
D2
330
55
100
AcDbEntity
  8
0
  6
Continuous
 62
     7
100
AcDbLine
 10
-85.5444863728971
 20
-50.85825904970923
 30
0.0
 11
-81.00000000003
 21
-50.85825904970923
 31
0.0
  0
LINE
  5
D3
330
55
100
AcDbEntity
  8
0
  6
Continuous
 62
     7
100
AcDbLine
 10
-81.00000000003
 20
-50.50000000000999
 30
0.0
 11
-81.00000000003
 21
-50.85825904970923
 31
0.0
  0
LINE
  5
D4
330
55
100
AcDbEntity
  8
0
  6
Continuous
 62
     7
100
AcDbLine
 10
-85.5444863728971
 20
-61.14174095031036
 30
0.0
 11
-85.5444863728971
 21
-61.85825904970962
 31
0.0
  0
LINE
  5
D5
330
55
100
AcDbEntity
  8
0
  6
Continuous
 62
     7
100
AcDbLine
 10
-81.00000000003
 20
-61.85825904970962
 30
0.0
 11
-81.00000000003
 21
-72.14174095031075
 31
0.0
  0
LINE
  5
D6
330
55
100
AcDbEntity
  8
0
  6
Continuous
 62
     7
100
AcDbLine
 10
-81.00000000003
 20
-50.85825904970923
 30
0.0
 11
-81.00000000003
 21
-61.14174095031036
 31
0.0
  0
LINE
  5
D7
330
55
100
AcDbEntity
  8
0
  6
Continuous
 62
     7
100
AcDbLine
 10
-81.00000000003
 20
-61.14174095031036
 30
0.0
 11
-81.00000000003
 21
-61.85825904970962
 31
0.0
  0
SPLINE
  5
D8
330
55
100
AcDbEntity
  8
0
  6
Continuous
 62
     7
100
AcDbSpline
210
0.0
220
0.0
230
1.0
 70
     8
 71
     3
 72
    15
 73
    11
 74
     9
 42
0.000000001
 43
0.0000000001
 44
0.00000001
 40
0.0
 40
0.0
 40
0.0
 40
0.0
 40
1.323839684125589
 40
2.582836609052858
 40
3.884707920943148
 40
5.161573599282054
 40
6.438975835555089
 40
7.741405966631371
 40
9.000109420751503
 40
10.32362830454614
 40
10.32362830454614
 40
10.32362830454614
 40
10.32362830454614
 10
-85.5444863728971
 20
-61.85825904970962
 30
0.0
 10
-85.60508699433889
 20
-62.29539544969021
 30
0.0
 10
-85.72331995454792
 20
-63.14825695025097
 30
0.0
 10
-85.8491517145585
 20
-64.4373835022703
 30
0.0
 10
-85.92860523061084
 20
-65.71445487839165
 30
0.0
 10
-85.9552250405251
 20
-66.99993815913453
 30
0.0
 10
-85.92861018182296
 20
-68.28560827252103
 30
0.0
 10
-85.84912638977005
 20
-69.56294594131454
 30
0.0
 10
-85.72327964478404
 20
-70.852052209883
 30
0.0
 10
-85.60507315453339
 20
-71.70471061399502
 30
0.0
 10
-85.54448637289696
 20
-72.1417409503117
 30
0.0
 11
-85.5444863728971
 21
-61.85825904970962
 31
0.0
 11
-85.71720611880312
 21
-63.17078310641132
 31
0.0
 11
-85.84052835827555
 21
-64.42372559635459
 31
0.0
 11
-85.92005291428848
 21
-65.7231657675807
 31
0.0
 11
-85.94641016060353
 21
-66.99975938221257
 31
0.0
 11
-85.92005063759613
 21
-68.2768896220923
 31
0.0
 11
-85.84047889050437
 21
-69.57688676989042
 31
0.0
 11
-85.71716933827841
 21
-70.8295356195769
 31
0.0
 11
-85.54448637289696
 21
-72.1417409503117
 31
0.0
  0
SPLINE
  5
D9
330
55
100
AcDbEntity
  8
0
  6
Continuous
 62
     7
100
AcDbSpline
210
0.0
220
0.0
230
1.0
 70
     8
 71
     3
 72
    15
 73
    11
 74
     9
 42
0.000000001
 43
0.0000000001
 44
0.00000001
 40
0.0
 40
0.0
 40
0.0
 40
0.0
 40
1.323839684124754
 40
2.582836609052865
 40
3.884707920943676
 40
5.161573599282056
 40
6.438975835545215
 40
7.741405966631401
 40
9.000109420754486
 40
10.32362830454518
 40
10.32362830454518
 40
10.32362830454518
 40
10.32362830454518
 10
-85.5444863728971
 20
-50.85825904970923
 30
0.0
 10
-85.60508699433886
 20
-51.29539544968955
 30
0.0
 10
-85.7233199545479
 20
-52.14825695025029
 30
0.0
 10
-85.84915171455846
 20
-53.4373835022698
 30
0.0
 10
-85.92860523061088
 20
-54.71445487839145
 30
0.0
 10
-85.955225040525
 20
-55.99993815913102
 30
0.0
 10
-85.92861018182307
 20
-57.28560827251735
 30
0.0
 10
-85.8491263897703
 20
-58.56294594131189
 30
0.0
 10
-85.72327964478399
 20
-59.85205220988328
 30
0.0
 10
-85.60507315453337
 20
-60.704710613995
 30
0.0
 10
-85.5444863728971
 20
-61.14174095031036
 30
0.0
 11
-85.5444863728971
 21
-50.85825904970923
 31
0.0
 11
-85.71720611880303
 21
-52.1707831064101
 31
0.0
 11
-85.84052835827555
 21
-53.4237255963542
 31
0.0
 11
-85.92005291428852
 21
-54.72316576758084
 31
0.0
 11
-85.94641016060353
 21
-55.99975938221218
 31
0.0
 11
-85.92005063759653
 21
-57.27688962208204
 31
0.0
 11
-85.84047889050437
 21
-58.57688676989006
 31
0.0
 11
-85.71716933827808
 21
-59.82953561957948
 31
0.0
 11
-85.5444863728971
 21
-61.14174095031036
 31
0.0
  0
ENDBLK
  5
57
330
55
100
AcDbEntity
  8
0
100
AcDbBlockEnd
  0
BLOCK
  5
5A
330
58
100
AcDbEntity
  8
0
100
AcDbBlockBegin
  2
Rckans1
 70
     0
 10
-83.500000000015
 20
-61.50000000000499
 30
0.0
  3
Rckans1
  1

  0
INSERT
  5
59
330
58
100
AcDbEntity
  8
0
100
AcDbBlockReference
  2
WP_CN_PA_M16-select__3
 10
-86.00000000003
 20
-72.50000000000998
 30
0.0
  0
MTEXT
  5
DA
330
58
100
AcDbEntity
  8
1
 62
     6
100
AcDbMText
 10
-83.500000000015
 20
-75.000000000005
 30
0.0
 40
2.5
 41
0.0
 71
     2
 72
     1
  1
 
  7
CONVERTER_11
 73
     1
 44
1.32052821128451
  0
ENDBLK
  5
5B
330
58
100
AcDbEntity
  8
0
100
AcDbBlockEnd
  0
BLOCK
  5
5D
330
5C
100
AcDbEntity
  8
0
100
AcDbBlockBegin
  2
WP_CN_PA_M16-select__4
 70
     0
 10
-121.499999999985
 20
-72.50000000001
 30
0.0
  3
WP_CN_PA_M16-select__4
  1

  0
LINE
  5
DB
330
5C
100
AcDbEntity
  8
1
  6
DOT_CENTER
 62
     2
100
AcDbLine
 10
-108.999999999985
 20
-53.59320000001
 30
0.0
 11
-108.999999999985
 21
-69.40680000001001
 31
0.0
  0
LINE
  5
DC
330
5C
100
AcDbEntity
  8
1
  6
DOT_CENTER
 62
     2
100
AcDbLine
 10
-101.093199999985
 20
-61.50000000001
 30
0.0
 11
-116.906799999985
 21
-61.50000000001
 31
0.0
  0
LINE
  5
DD
330
5C
100
AcDbEntity
  8
0
  6
Continuous
 62
     7
100
AcDbLine
 10
-103.062828956466
 20
-50.50000000001
 30
0.0
 11
-114.9371710435039
 21
-50.50000000001
 31
0.0
  0
LINE
  5
DE
330
5C
100
AcDbEntity
  8
0
  6
Continuous
 62
     7
100
AcDbLine
 10
-121.4948649633733
 20
-61.85825904970963
 30
0.0
 11
-115.5576939198544
 21
-72.14174095031076
 31
0.0
  0
LINE
  5
DF
330
5C
100
AcDbEntity
  8
0
  6
Continuous
 62
     7
100
AcDbLine
 10
-114.9371710435039
 20
-72.50000000001
 30
0.0
 11
-103.062828956466
 21
-72.50000000001
 31
0.0
  0
LINE
  5
E0
330
5C
100
AcDbEntity
  8
0
  6
Continuous
 62
     7
100
AcDbLine
 10
-102.4423060801156
 20
-72.14174095031076
 30
0.0
 11
-96.50513503659667
 21
-61.85825904970963
 31
0.0
  0
LINE
  5
E1
330
5C
100
AcDbEntity
  8
0
  6
Continuous
 62
     7
100
AcDbLine
 10
-96.50513503659667
 20
-61.14174095031039
 30
0.0
 11
-102.4423060801156
 21
-50.85825904970925
 31
0.0
  0
LINE
  5
E2
330
5C
100
AcDbEntity
  8
0
  6
Continuous
 62
     7
100
AcDbLine
 10
-115.5576939198544
 20
-50.85825904970925
 30
0.0
 11
-121.4948649633733
 21
-61.14174095031037
 31
0.0
  0
ARC
  5
E3
330
5C
100
AcDbEntity
  8
0
  6
Continuous
 62
     7
100
AcDbCircle
 10
-108.999999999985
 20
-61.50000000001
 30
0.0
 40
12.50000000000002
100
AcDbArc
 50
238.3576365763277
 51
241.6423634236723
  0
ARC
  5
E4
330
5C
100
AcDbEntity
  8
0
  6
Continuous
 62
     7
100
AcDbCircle
 10
-108.999999999985
 20
-61.50000000001
 30
0.0
 40
12.50000000000002
100
AcDbArc
 50
298.3576365763281
 51
301.6423634236722
  0
ARC
  5
E5
330
5C
100
AcDbEntity
  8
0
  6
Continuous
 62
     7
100
AcDbCircle
 10
-108.999999999985
 20
-61.50000000001
 30
0.0
 40
12.50000000000003
100
AcDbArc
 50
358.3576365763261
 51
1.6423634236738
  0
ARC
  5
E6
330
5C
100
AcDbEntity
  8
0
  6
Continuous
 62
     7
100
AcDbCircle
 10
-108.999999999985
 20
-61.50000000001
 30
0.0
 40
12.5
100
AcDbArc
 50
58.35763657632771
 51
61.64236342367191
  0
ARC
  5
E7
330
5C
100
AcDbEntity
  8
0
  6
Continuous
 62
     7
100
AcDbCircle
 10
-108.999999999985
 20
-61.50000000001
 30
0.0
 40
12.50000000000002
100
AcDbArc
 50
178.3576365763261
 51
181.6423634236739
  0
ARC
  5
E8
330
5C
100
AcDbEntity
  8
0
  6
Continuous
 62
     7
100
AcDbCircle
 10
-108.999999999985
 20
-61.50000000001
 30
0.0
 40
12.49999999999997
100
AcDbArc
 50
118.3576365763278
 51
121.6423634236724
  0
CIRCLE
  5
E9
330
5C
100
AcDbEntity
  8
0
  6
Continuous
 62
     7
100
AcDbCircle
 10
-108.999999999985
 20
-61.50000000001
 30
0.0
 40
7.188000000000002
  0
ENDBLK
  5
5E
330
5C
100
AcDbEntity
  8
0
100
AcDbBlockEnd
  0
BLOCK
  5
61
330
5F
100
AcDbEntity
  8
0
100
AcDbBlockBegin
  2
SA_Links1
 70
     0
 10
-108.999999999995
 20
-61.500000000005
 30
0.0
  3
SA_Links1
  1

  0
INSERT
  5
60
330
5F
100
AcDbEntity
  8
0
100
AcDbBlockReference
  2
WP_CN_PA_M16-select__4
 10
-121.499999999985
 20
-72.50000000001
 30
0.0
  0
MTEXT
  5
EA
330
5F
100
AcDbEntity
  8
1
 62
     6
100
AcDbMText
 10
-108.999999999995
 20
-75.000000000005
 30
0.0
 40
2.5
 41
0.0
 71
     2
 72
     1
  1
 
  7
CONVERTER_11
 73
     1
 44
1.32052821128451
  0
DIMENSION
  5
F5
330
5F
100
AcDbEntity
  8
1
100
AcDbDimension
  2
*D17
 10
-121.4948649633733
 20
-77.30000000001
 30
0.0
 11
-108.26518945738
 21
-75.58750000001
 31
0.0
 70
    32
  1
<>
 71
     5
 42
-1.0
 53
0.00013888888889
  3
ME10_DIM_10
100
AcDbAlignedDimension
 13
-96.50513503659667
 23
-61.14174095031039
 33
0.0
 14
-121.4948649633733
 24
-61.14174095031037
 34
0.0
100
AcDbRotatedDimension
  0
DIMENSION
  5
100
330
5F
100
AcDbEntity
  8
1
100
AcDbDimension
  2
*D18
 10
-125.924773863509
 20
-72.50000000001
 30
0.0
 11
-127.549773863509
 21
-61.50000000001
 31
0.0
 70
    32
  1
<>
 71
     5
 42
-1.0
 53
90.0
  3
ME10_DIM_11
100
AcDbAlignedDimension
 13
-114.9371710435039
 23
-50.50000000001
 33
0.0
 14
-114.9371710435039
 24
-72.50000000001
 34
0.0
 50
90.0
100
AcDbRotatedDimension
  0
ENDBLK
  5
62
330
5F
100
AcDbEntity
  8
0
100
AcDbBlockEnd
  0
BLOCK
  5
64
330
63
100
AcDbEntity
  8
0
100
AcDbBlockBegin
  2
WP_CN_PA_M16-select__5
 70
     0
 10
-176.500000000015
 20
-72.50000000000998
 30
0.0
  3
WP_CN_PA_M16-select__5
  1

  0
LINE
  5
101
330
63
100
AcDbEntity
  8
1
  6
DOT_CENTER
 62
     2
100
AcDbLine
 10
-164.000000000015
 20
-49.62000000001001
 30
0.0
 11
-164.000000000015
 21
-73.38000000000997
 31
0.0
  0
LINE
  5
102
330
63
100
AcDbEntity
  8
1
  6
DOT_CENTER
 62
     2
100
AcDbLine
 10
-152.120000000015
 20
-61.50000000000999
 30
0.0
 11
-175.880000000015
 21
-61.50000000000999
 31
0.0
  0
LINE
  5
103
330
63
100
AcDbEntity
  8
0
  6
Continuous
 62
     7
100
AcDbLine
 10
-158.062828956496
 20
-72.50000000000998
 30
0.0
 11
-169.9371710435339
 21
-72.50000000000998
 31
0.0
  0
LINE
  5
104
330
63
100
AcDbEntity
  8
0
  6
Continuous
 62
     7
100
AcDbLine
 10
-157.4423060801456
 20
-50.85825904970923
 30
0.0
 11
-151.5051350366267
 21
-61.14174095031036
 31
0.0
  0
LINE
  5
105
330
63
100
AcDbEntity
  8
0
  6
Continuous
 62
     7
100
AcDbLine
 10
-169.9371710435339
 20
-50.50000000000999
 30
0.0
 11
-158.062828956496
 21
-50.50000000000999
 31
0.0
  0
LINE
  5
106
330
63
100
AcDbEntity
  8
0
  6
Continuous
 62
     7
100
AcDbLine
 10
-176.4948649634032
 20
-61.14174095031036
 30
0.0
 11
-170.5576939198843
 21
-50.85825904970923
 31
0.0
  0
LINE
  5
107
330
63
100
AcDbEntity
  8
0
  6
Continuous
 62
     7
100
AcDbLine
 10
-170.5576939198843
 20
-72.14174095031075
 30
0.0
 11
-176.4948649634032
 21
-61.85825904970962
 31
0.0
  0
LINE
  5
108
330
63
100
AcDbEntity
  8
0
  6
Continuous
 62
     7
100
AcDbLine
 10
-151.5051350366267
 20
-61.85825904970962
 30
0.0
 11
-157.4423060801456
 21
-72.14174095031075
 31
0.0
  0
ARC
  5
109
330
63
100
AcDbEntity
  8
0
  6
Continuous
 62
     7
100
AcDbCircle
 10
-164.000000000015
 20
-61.50000000000999
 30
0.0
 40
12.5
100
AcDbArc
 50
58.35763657632773
 51
61.64236342367179
  0
ARC
  5
10A
330
63
100
AcDbEntity
  8
0
  6
Continuous
 62
     7
100
AcDbCircle
 10
-164.000000000015
 20
-61.50000000000999
 30
0.0
 40
12.49999999999997
100
AcDbArc
 50
118.3576365763278
 51
121.6423634236718
  0
ARC
  5
10B
330
63
100
AcDbEntity
  8
0
  6
Continuous
 62
     7
100
AcDbCircle
 10
-164.000000000015
 20
-61.50000000000999
 30
0.0
 40
12.49999999999989
100
AcDbArc
 50
178.3576365763261
 51
181.6423634236739
  0
ARC
  5
10C
330
63
100
AcDbEntity
  8
0
  6
Continuous
 62
     7
100
AcDbCircle
 10
-164.000000000015
 20
-61.50000000000999
 30
0.0
 40
12.49999999999994
100
AcDbArc
 50
238.3576365763281
 51
241.6423634236722
  0
ARC
  5
10D
330
63
100
AcDbEntity
  8
0
  6
Continuous
 62
     7
100
AcDbCircle
 10
-164.000000000015
 20
-61.50000000000999
 30
0.0
 40
12.5
100
AcDbArc
 50
358.3576365763261
 51
1.64236342367393
  0
ARC
  5
10E
330
63
100
AcDbEntity
  8
0
  6
Continuous
 62
     7
100
AcDbCircle
 10
-164.000000000015
 20
-61.50000000000999
 30
0.0
 40
12.50000000000001
100
AcDbArc
 50
298.3576365763283
 51
301.6423634236722
  0
CIRCLE
  5
10F
330
63
100
AcDbEntity
  8
0
  6
Continuous
 62
     7
100
AcDbCircle
 10
-164.000000000015
 20
-61.50000000000999
 30
0.0
 40
10.80000000000001
  0
CIRCLE
  5
110
330
63
100
AcDbEntity
  8
0
  6
Continuous
 62
     7
100
AcDbCircle
 10
-164.000000000015
 20
-61.50000000000999
 30
0.0
 40
7.188000000000017
  0
ENDBLK
  5
65
330
63
100
AcDbEntity
  8
0
100
AcDbBlockEnd
  0
BLOCK
  5
68
330
66
100
AcDbEntity
  8
0
100
AcDbBlockBegin
  2
SA_Rechts1
 70
     0
 10
-164.000000000005
 20
-61.50000000000499
 30
0.0
  3
SA_Rechts1
  1

  0
INSERT
  5
67
330
66
100
AcDbEntity
  8
0
100
AcDbBlockReference
  2
WP_CN_PA_M16-select__5
 10
-176.500000000015
 20
-72.50000000000998
 30
0.0
  0
MTEXT
  5
111
330
66
100
AcDbEntity
  8
1
 62
     6
100
AcDbMText
 10
-164.000000000005
 20
-75.000000000005
 30
0.0
 40
2.5
 41
0.0
 71
     2
 72
     1
  1
 
  7
CONVERTER_11
 73
     1
 44
1.32052821128451
  0
ENDBLK
  5
69
330
66
100
AcDbEntity
  8
0
100
AcDbBlockEnd
  0
BLOCK
  5
6B
330
6A
100
AcDbEntity
  8
0
100
AcDbBlockBegin
  2
WP_CN_PA_M16-select__6
 70
     0
 10
-141.4999999999776
 20
-72.50000000000998
 30
0.0
  3
WP_CN_PA_M16-select__6
  1

  0
LINE
  5
112
330
6A
100
AcDbEntity
  8
1
  6
DOT_CENTER
 62
     2
100
AcDbLine
 10
-136.4999999999775
 20
-61.50000000001035
 30
0.0
 11
-136.5535898384638
 21
-61.50000000001035
 31
0.0
  0
LINE
  5
113
330
6A
100
AcDbEntity
  8
0
  6
Continuous
 62
     7
100
AcDbLine
 10
-136.9555136271104
 20
-61.14174095031036
 30
0.0
 11
-141.4999999999776
 21
-61.14174095031037
 31
0.0
  0
LINE
  5
114
330
6A
100
AcDbEntity
  8
0
  6
Continuous
 62
     7
100
AcDbLine
 10
-136.9555136271104
 20
-50.85825904970923
 30
0.0
 11
-141.4999999999776
 21
-50.85825904970923
 31
0.0
  0
LINE
  5
115
330
6A
100
AcDbEntity
  8
0
  6
Continuous
 62
     7
100
AcDbLine
 10
-136.9555136271104
 20
-72.50000000000998
 30
0.0
 11
-136.9555136271104
 21
-72.14174095031075
 31
0.0
  0
LINE
  5
116
330
6A
100
AcDbEntity
  8
0
  6
Continuous
 62
     7
100
AcDbLine
 10
-136.9555136271106
 20
-61.85825904970866
 30
0.0
 11
-136.9555136271104
 21
-61.14174095031036
 31
0.0
  0
LINE
  5
117
330
6A
100
AcDbEntity
  8
0
  6
Continuous
 62
     7
100
AcDbLine
 10
-136.9555136271104
 20
-50.85825904970923
 30
0.0
 11
-136.9555136271104
 21
-50.50000000000999
 31
0.0
  0
LINE
  5
118
330
6A
100
AcDbEntity
  8
0
  6
Continuous
 62
     7
100
AcDbLine
 10
-141.4999999999776
 20
-72.50000000000998
 30
0.0
 11
-141.4999999999776
 21
-72.14174095031075
 31
0.0
  0
LINE
  5
119
330
6A
100
AcDbEntity
  8
0
  6
Continuous
 62
     7
100
AcDbLine
 10
-141.4999999999776
 20
-72.14174095031075
 30
0.0
 11
-141.4999999999776
 21
-61.85825904970962
 31
0.0
  0
LINE
  5
11A
330
6A
100
AcDbEntity
  8
0
  6
Continuous
 62
     7
100
AcDbLine
 10
-136.4999999999776
 20
-72.30000000000999
 30
0.0
 11
-136.5535898384638
 21
-72.50000000000998
 31
0.0
  0
LINE
  5
11B
330
6A
100
AcDbEntity
  8
0
  6
Continuous
 62
     7
100
AcDbLine
 10
-136.9555136271104
 20
-72.50000000000998
 30
0.0
 11
-141.4999999999776
 21
-72.50000000000998
 31
0.0
  0
LINE
  5
11C
330
6A
100
AcDbEntity
  8
0
  6
Continuous
 62
     7
100
AcDbLine
 10
-136.9555136271104
 20
-72.14174095031075
 30
0.0
 11
-141.4999999999776
 21
-72.14174095031075
 31
0.0
  0
LINE
  5
11D
330
6A
100
AcDbEntity
  8
0
  6
Continuous
 62
     7
100
AcDbLine
 10
-136.5535898384638
 20
-72.50000000000998
 30
0.0
 11
-136.9555136271104
 21
-72.50000000000998
 31
0.0
  0
LINE
  5
11E
330
6A
100
AcDbEntity
  8
0
  6
Continuous
 62
     7
100
AcDbLine
 10
-136.9555136271106
 20
-61.85825904970866
 30
0.0
 11
-141.4999999999776
 21
-61.85825904970962
 31
0.0
  0
LINE
  5
11F
330
6A
100
AcDbEntity
  8
0
  6
Continuous
 62
     7
100
AcDbLine
 10
-141.4999999999776
 20
-61.85825904970962
 30
0.0
 11
-141.4999999999776
 21
-61.14174095031037
 31
0.0
  0
LINE
  5
120
330
6A
100
AcDbEntity
  8
0
  6
Continuous
 62
     7
100
AcDbLine
 10
-141.4999999999776
 20
-61.14174095031037
 30
0.0
 11
-141.4999999999776
 21
-50.85825904970923
 31
0.0
  0
LINE
  5
121
330
6A
100
AcDbEntity
  8
0
  6
Continuous
 62
     7
100
AcDbLine
 10
-141.4999999999776
 20
-50.85825904970923
 30
0.0
 11
-141.4999999999776
 21
-50.50000000000999
 31
0.0
  0
LINE
  5
122
330
6A
100
AcDbEntity
  8
0
  6
Continuous
 62
     7
100
AcDbLine
 10
-136.4999999999776
 20
-72.30000000000999
 30
0.0
 11
-136.4999999999776
 21
-50.70000000000999
 31
0.0
  0
LINE
  5
123
330
6A
100
AcDbEntity
  8
0
  6
Continuous
 62
     7
100
AcDbLine
 10
-136.4999999999776
 20
-50.70000000000999
 30
0.0
 11
-136.5535898384638
 21
-50.50000000000999
 31
0.0
  0
LINE
  5
124
330
6A
100
AcDbEntity
  8
0
  6
Continuous
 62
     7
100
AcDbLine
 10
-136.9555136271104
 20
-50.50000000000999
 30
0.0
 11
-141.4999999999776
 21
-50.50000000000999
 31
0.0
  0
LINE
  5
125
330
6A
100
AcDbEntity
  8
0
  6
Continuous
 62
     7
100
AcDbLine
 10
-136.9555136271104
 20
-50.50000000000999
 30
0.0
 11
-136.5535898384638
 21
-50.50000000000999
 31
0.0
  0
SPLINE
  5
126
330
6A
100
AcDbEntity
  8
0
  6
Continuous
 62
     7
100
AcDbSpline
210
0.0
220
0.0
230
1.0
 70
     8
 71
     3
 72
    15
 73
    11
 74
     9
 42
0.000000001
 43
0.0000000001
 44
0.00000001
 40
0.0
 40
0.0
 40
0.0
 40
0.0
 40
1.323839684122757
 40
2.58283660905286
 40
3.884707920943122
 40
5.161573599282043
 40
6.438975835547101
 40
7.741405966631404
 40
9.00010942075492
 40
10.32362830454615
 40
10.32362830454615
 40
10.32362830454615
 40
10.32362830454615
 10
-136.9555136271104
 20
-72.14174095031075
 30
0.0
 10
-136.8949130056687
 20
-71.70460455033108
 30
0.0
 10
-136.7766800454598
 20
-70.85174304977036
 30
0.0
 10
-136.6508482854491
 20
-69.56261649775101
 30
0.0
 10
-136.5713947693967
 20
-68.28554512162872
 30
0.0
 10
-136.5447749594825
 20
-67.00006184088852
 30
0.0
 10
-136.5713898181845
 20
-65.714391727502
 30
0.0
 10
-136.6508736102373
 20
-64.43705405870733
 30
0.0
 10
-136.7767203552236
 20
-63.14794779013623
 30
0.0
 10
-136.8949268454743
 20
-62.29528938602419
 30
0.0
 10
-136.9555136271106
 20
-61.85825904970866
 30
0.0
 11
-136.9555136271104
 21
-72.14174095031075
 31
0.0
 11
-136.7827938812047
 21
-70.82921689361186
 31
0.0
 11
-136.659471641732
 21
-69.57627440366578
 31
0.0
 11
-136.5799470857191
 21
-68.2768342324397
 31
0.0
 11
-136.553589839404
 21
-67.0002406178078
 31
0.0
 11
-136.5799493624111
 21
-65.72311037793605
 31
0.0
 11
-136.6595211095032
 21
-64.42311323012991
 31
0.0
 11
-136.7828306617295
 21
-63.17046438044006
 31
0.0
 11
-136.9555136271106
 21
-61.85825904970866
 31
0.0
  0
SPLINE
  5
127
330
6A
100
AcDbEntity
  8
0
  6
Continuous
 62
     7
100
AcDbSpline
210
0.0
220
0.0
230
1.0
 70
     8
 71
     3
 72
    15
 73
    11
 74
     9
 42
0.000000001
 43
0.0000000001
 44
0.00000001
 40
0.0
 40
0.0
 40
0.0
 40
0.0
 40
1.323839684126846
 40
2.582836609052859
 40
3.88470792094126
 40
5.16157359928205
 40
6.438975835556428
 40
7.741405966631376
 40
9.000109420751889
 40
10.32362830454517
 40
10.32362830454517
 40
10.32362830454517
 40
10.32362830454517
 10
-136.9555136271104
 20
-61.14174095031036
 30
0.0
 10
-136.8949130056686
 20
-60.70460455032935
 30
0.0
 10
-136.7766800454595
 20
-59.85174304976859
 30
0.0
 10
-136.6508482854491
 20
-58.5626164977499
 30
0.0
 10
-136.5713947693967
 20
-57.28554512162893
 30
0.0
 10
-136.5447749594825
 20
-56.00006184088565
 30
0.0
 10
-136.5713898181845
 20
-54.71439172749849
 30
0.0
 10
-136.6508736102376
 20
-53.43705405870487
 30
0.0
 10
-136.7767203552234
 20
-52.14794779013718
 30
0.0
 10
-136.894926845474
 20
-51.29528938602543
 30
0.0
 10
-136.9555136271104
 20
-50.85825904970923
 30
0.0
 11
-136.9555136271104
 21
-61.14174095031036
 31
0.0
 11
-136.7827938812043
 21
-59.82921689360741
 31
0.0
 11
-136.659471641732
 21
-58.57627440366539
 31
0.0
 11
-136.5799470857191
 21
-57.27683423244116
 31
0.0
 11
-136.553589839404
 21
-56.00024061780741
 31
0.0
 11
-136.5799493624114
 21
-54.72311037792634
 31
0.0
 11
-136.6595211095032
 21
-53.42311323012955
 31
0.0
 11
-136.7828306617292
 21
-52.17046438044268
 31
0.0
 11
-136.9555136271104
 21
-50.85825904970923
 31
0.0
  0
ENDBLK
  5
6C
330
6A
100
AcDbEntity
  8
0
100
AcDbBlockEnd
  0
BLOCK
  5
6F
330
6D
100
AcDbEntity
  8
0
100
AcDbBlockBegin
  2
Vordans1
 70
     0
 10
-138.9999999999925
 20
-61.50000000000499
 30
0.0
  3
Vordans1
  1

  0
INSERT
  5
6E
330
6D
100
AcDbEntity
  8
0
100
AcDbBlockReference
  2
WP_CN_PA_M16-select__6
 10
-141.4999999999776
 20
-72.50000000000998
 30
0.0
  0
MTEXT
  5
128
330
6D
100
AcDbEntity
  8
1
 62
     6
100
AcDbMText
 10
-138.9999999999925
 20
-75.000000000005
 30
0.0
 40
2.5
 41
0.0
 71
     2
 72
     1
  1
 
  7
CONVERTER_11
 73
     1
 44
1.32052821128451
  0
DIMENSION
  5
133
330
6D
100
AcDbEntity
  8
1
100
AcDbDimension
  2
*D19
 10
-136.4999999999776
 20
-77.30000000000999
 30
0.0
 11
-138.9999999999926
 21
-75.67500000000999
 31
0.0
 70
    32
  1
<>
 71
     5
 42
-1.0
 53
0.00013888888889
  3
ME10_DIM_12
100
AcDbAlignedDimension
 13
-141.4999999999776
 23
-72.14174095031075
 33
0.0
 14
-136.4999999999776
 24
-72.30000000000999
 34
0.0
100
AcDbRotatedDimension
  0
ENDBLK
  5
70
330
6D
100
AcDbEntity
  8
0
100
AcDbBlockEnd
  0
BLOCK
  5
72
330
71
100
AcDbEntity
  8
0
100
AcDbBlockBegin
  2
_rahmen
 70
     0
 10
-109.088762109703
 20
-275.1429740860601
 30
0.0
  3
_rahmen
  1

  0
LINE
  5
134
330
71
100
AcDbEntity
  8
1
  6
DOT_CENTER
 62
     2
100
AcDbLine
 10
-234.6469117498904
 20
-249.01797408606
 30
0.0
 11
-229.1469117498904
 21
-249.01797408606
 31
0.0
  0
LINE
  5
135
330
71
100
AcDbEntity
  8
1
  6
PHANTOM
 62
     2
100
AcDbLine
 10
-225.8969117498904
 20
-246.26797408606
 30
0.0
 11
-225.8969117498904
 21
-251.76797408606
 31
0.0
  0
LINE
  5
136
330
71
100
AcDbEntity
  8
1
  6
PHANTOM
 62
     2
100
AcDbLine
 10
-223.1469117498904
 20
-249.01797408606
 30
0.0
 11
-228.6469117498904
 21
-249.01797408606
 31
0.0
  0
LINE
  5
137
330
71
100
AcDbEntity
  8
1
  6
Continuous
 62
     7
100
AcDbLine
 10
-174.333566636453
 20
-261.64297408606
 30
0.0
 11
-174.333566636453
 21
-253.14297408606
 31
0.0
  0
LINE
  5
138
330
71
100
AcDbEntity
  8
1
  6
Continuous
 62
     6
100
AcDbLine
 10
-202.2335666364531
 20
-253.14297408606
 30
0.0
 11
-109.0887621097013
 21
-253.14297408606
 31
0.0
  0
LINE
  5
139
330
71
100
AcDbEntity
  8
1
  6
Continuous
 62
     7
100
AcDbLine
 10
-238.633566636453
 20
-253.14297408606
 30
0.0
 11
-238.633566636453
 21
-244.64297408606
 31
0.0
  0
LINE
  5
13A
330
71
100
AcDbEntity
  8
1
  6
Continuous
 62
     7
100
AcDbLine
 10
-202.2335666364531
 20
-253.14297408606
 30
0.0
 11
-202.2335666364531
 21
-244.64297408606
 31
0.0
  0
LINE
  5
13B
330
71
100
AcDbEntity
  8
1
  6
Continuous
 62
     7
100
AcDbLine
 10
-144.5071703913801
 20
-244.64297408606
 30
0.0
 11
-144.5071703913801
 21
-253.14297408606
 31
0.0
  0
LINE
  5
13C
330
71
100
AcDbEntity
  8
1
  6
Continuous
 62
     7
100
AcDbLine
 10
-118.0071703913805
 20
-244.64297408606
 30
0.0
 11
-118.0071703913805
 21
-253.14297408606
 31
0.0
  0
LINE
  5
13D
330
71
100
AcDbEntity
  8
1
  6
Continuous
 62
     6
100
AcDbLine
 10
-307.6335666364529
 20
-270.14297408606
 30
0.0
 11
-352.5887621097029
 21
-270.14297408606
 31
0.0
  0
LINE
  5
13E
330
71
100
AcDbEntity
  8
1
  6
Continuous
 62
     7
100
AcDbLine
 10
-109.0887621097017
 20
-261.64297408606
 30
0.0
 11
-202.2335666364531
 21
-261.64297408606
 31
0.0
  0
LINE
  5
13F
102
{ACAD_REACTORS
330
251
330
252
102
}
330
71
100
AcDbEntity
  8
0
  6
Continuous
 62
     2
100
AcDbLine
 10
-224.9261376946856
 20
-260.8426849703967
 30
0.0
 11
-224.9261376946856
 21
-259.9701679635933
 31
0.0
  0
LINE
  5
140
102
{ACAD_REACTORS
330
251
330
252
102
}
330
71
100
AcDbEntity
  8
0
  6
Continuous
 62
     2
100
AcDbLine
 10
-224.9261376946856
 20
-261.8024536778796
 30
0.0
 11
-224.9261376946856
 21
-262.6749706846828
 31
0.0
  0
LINE
  5
141
102
{ACAD_REACTORS
330
253
330
254
102
}
330
71
100
AcDbEntity
  8
0
  6
Continuous
 62
     2
100
AcDbLine
 10
-209.5930935583951
 20
-260.5809298683562
 30
0.0
 11
-208.489454258827
 21
-260.5809298683562
 31
0.0
  0
LINE
  5
142
102
{ACAD_REACTORS
330
253
330
254
102
}
330
71
100
AcDbEntity
  8
0
  6
Continuous
 62
     2
100
AcDbLine
 10
-208.8234362154337
 20
-261.8024536778801
 30
0.0
 11
-208.8234362154337
 21
-262.6749706846833
 31
0.0
  0
LINE
  5
143
102
{ACAD_REACTORS
330
25D
330
25E
102
}
330
71
100
AcDbEntity
  8
0
  6
Continuous
 62
     2
100
AcDbLine
 10
-210.6841928308136
 20
-259.4902836098694
 30
0.0
 11
-209.2862397838733
 21
-257.9094246160944
 31
0.0
  0
LINE
  5
144
102
{ACAD_REACTORS
330
25D
330
25E
102
}
330
71
100
AcDbEntity
  8
0
  6
Continuous
 62
     2
100
AcDbLine
 10
-210.5887694146408
 20
-256.4364740860582
 30
0.0
 11
-209.2862397838733
 21
-257.9094246160944
 31
0.0
  0
LINE
  5
145
102
{ACAD_REACTORS
330
25D
330
25E
102
}
330
71
100
AcDbEntity
  8
0
  6
Continuous
 62
     2
100
AcDbLine
 10
-207.9837101531069
 20
-256.4364740860582
 30
0.0
 11
-206.5809859353597
 21
-256.4364740860582
 31
0.0
  0
LINE
  5
146
102
{ACAD_REACTORS
330
25D
330
25E
102
}
330
71
100
AcDbEntity
  8
0
  6
Continuous
 62
     2
100
AcDbLine
 10
-209.2814686130654
 20
-259.4902836098694
 30
0.0
 11
-208.5848776749997
 21
-258.7025518245756
 31
0.0
  0
LINE
  5
147
102
{ACAD_REACTORS
330
25D
330
25E
102
}
330
71
100
AcDbEntity
  8
0
  6
Continuous
 62
     2
100
AcDbLine
 10
-209.2814686130654
 20
-259.4902836098694
 30
0.0
 11
-210.6841928308136
 21
-259.4902836098694
 31
0.0
  0
LINE
  5
148
102
{ACAD_REACTORS
330
25F
330
260
102
}
330
71
100
AcDbEntity
  8
0
  6
Continuous
 62
     2
100
AcDbLine
 10
-210.8034721010305
 20
-259.4902836098694
 30
0.0
 11
-212.0439765112834
 21
-259.4902836098694
 31
0.0
  0
LINE
  5
149
102
{ACAD_REACTORS
330
261
330
262
102
}
330
71
100
AcDbEntity
  8
0
  6
Continuous
 62
     2
100
AcDbLine
 10
-212.9119561194385
 20
-261.6279502765192
 30
0.0
 11
-213.2121213566286
 21
-260.8601353105324
 31
0.0
  0
LINE
  5
14A
102
{ACAD_REACTORS
330
261
330
262
102
}
330
71
100
AcDbEntity
  8
0
  6
Continuous
 62
     2
100
AcDbLine
 10
-213.512286593821
 20
-261.6279502765192
 30
0.0
 11
-212.9119561194385
 21
-261.6279502765192
 31
0.0
  0
LINE
  5
14B
102
{ACAD_REACTORS
330
261
330
262
102
}
330
71
100
AcDbEntity
  8
0
  6
Continuous
 62
     2
100
AcDbLine
 10
-215.2303266086948
 20
-262.8494740860436
 30
0.0
 11
-213.9898221984418
 21
-262.8494740860436
 31
0.0
  0
LINE
  5
14C
102
{ACAD_REACTORS
330
261
330
262
102
}
330
71
100
AcDbEntity
  8
0
  6
Continuous
 62
     2
100
AcDbLine
 10
-213.8323735617555
 20
-259.7956645622326
 30
0.0
 11
-212.5918691515028
 21
-259.7956645622326
 31
0.0
  0
LINE
  5
14D
102
{ACAD_REACTORS
330
261
330
262
102
}
330
71
100
AcDbEntity
  8
0
  6
Continuous
 62
     2
100
AcDbLine
 10
-212.5918691515028
 20
-259.7956645622326
 30
0.0
 11
-211.1939161045625
 21
-262.8494740860436
 31
0.0
  0
LINE
  5
14E
102
{ACAD_REACTORS
330
261
330
262
102
}
330
71
100
AcDbEntity
  8
0
  6
Continuous
 62
     2
100
AcDbLine
 10
-212.4344205148164
 20
-262.8494740860436
 30
0.0
 11
-212.6459005682922
 21
-262.3085135418257
 31
0.0
  0
LINE
  5
14F
102
{ACAD_REACTORS
330
263
330
264
102
}
330
71
100
AcDbEntity
  8
0
  6
Continuous
 62
     2
100
AcDbLine
 10
-216.5767397104024
 20
-262.8494740860436
 30
0.0
 11
-215.3839470082359
 21
-262.8494740860436
 31
0.0
  0
LINE
  5
150
102
{ACAD_REACTORS
330
263
330
264
102
}
330
71
100
AcDbEntity
  8
0
  6
Continuous
 62
     2
100
AcDbLine
 10
-216.5767397104024
 20
-260.5809298683562
 30
0.0
 11
-216.5767397104024
 21
-262.8494740860436
 31
0.0
  0
LINE
  5
151
102
{ACAD_REACTORS
330
263
330
264
102
}
330
71
100
AcDbEntity
  8
0
  6
Continuous
 62
     2
100
AcDbLine
 10
-217.387838747877
 20
-259.7956645622326
 30
0.0
 11
-217.387838747877
 21
-260.5809298683562
 31
0.0
  0
LINE
  5
152
102
{ACAD_REACTORS
330
265
330
266
102
}
330
71
100
AcDbEntity
  8
0
  6
Continuous
 62
     2
100
AcDbLine
 10
-215.9086248663044
 20
-259.4902836098694
 30
0.0
 11
-214.7158321641379
 21
-259.4902836098694
 31
0.0
  0
LINE
  5
153
102
{ACAD_REACTORS
330
265
330
266
102
}
330
71
100
AcDbEntity
  8
0
  6
Continuous
 62
     2
100
AcDbLine
 10
-213.4753277538839
 20
-257.7452495962633
 30
0.0
 11
-214.7158321641379
 21
-256.4364740860582
 31
0.0
  0
LINE
  5
154
102
{ACAD_REACTORS
330
265
330
266
102
}
330
71
100
AcDbEntity
  8
0
  6
Continuous
 62
     2
100
AcDbLine
 10
-212.2825350517173
 20
-256.4364740860582
 30
0.0
 11
-213.4753277538839
 21
-256.4364740860582
 31
0.0
  0
LINE
  5
155
102
{ACAD_REACTORS
330
265
330
266
102
}
330
71
100
AcDbEntity
  8
0
  6
Continuous
 62
     2
100
AcDbLine
 10
-212.2825350517173
 20
-259.4902836098694
 30
0.0
 11
-212.2825350517173
 21
-256.4364740860582
 31
0.0
  0
LINE
  5
156
102
{ACAD_REACTORS
330
265
330
266
102
}
330
71
100
AcDbEntity
  8
0
  6
Continuous
 62
     2
100
AcDbLine
 10
-213.4753277538839
 20
-259.4902836098694
 30
0.0
 11
-212.2825350517173
 21
-259.4902836098694
 31
0.0
  0
LINE
  5
157
102
{ACAD_REACTORS
330
265
330
266
102
}
330
71
100
AcDbEntity
  8
0
  6
Continuous
 62
     2
100
AcDbLine
 10
-214.7158321641379
 20
-258.1815080996647
 30
0.0
 11
-213.4753277538839
 21
-259.4902836098694
 31
0.0
  0
LINE
  5
158
102
{ACAD_REACTORS
330
267
330
268
102
}
330
71
100
AcDbEntity
  8
0
  6
Continuous
 62
     2
100
AcDbLine
 10
-218.7237665743036
 20
-261.1044400724377
 30
0.0
 11
-219.9642709845565
 21
-259.7956645622326
 31
0.0
  0
LINE
  5
159
102
{ACAD_REACTORS
330
267
330
268
102
}
330
71
100
AcDbEntity
  8
0
  6
Continuous
 62
     2
100
AcDbLine
 10
-218.7237665743036
 20
-259.7956645622326
 30
0.0
 11
-218.7237665743036
 21
-261.1044400724377
 31
0.0
  0
LINE
  5
15A
102
{ACAD_REACTORS
330
267
330
268
102
}
330
71
100
AcDbEntity
  8
0
  6
Continuous
 62
     2
100
AcDbLine
 10
-217.5309738721372
 20
-259.7956645622326
 30
0.0
 11
-218.7237665743036
 21
-259.7956645622326
 31
0.0
  0
LINE
  5
15B
102
{ACAD_REACTORS
330
267
330
268
102
}
330
71
100
AcDbEntity
  8
0
  6
Continuous
 62
     2
100
AcDbLine
 10
-217.5309738721372
 20
-262.8494740860436
 30
0.0
 11
-217.5309738721372
 21
-259.7956645622326
 31
0.0
  0
LINE
  5
15C
102
{ACAD_REACTORS
330
267
330
268
102
}
330
71
100
AcDbEntity
  8
0
  6
Continuous
 62
     2
100
AcDbLine
 10
-219.9642709845565
 20
-261.5406985758391
 30
0.0
 11
-218.7237665743036
 21
-262.8494740860436
 31
0.0
  0
LINE
  5
15D
102
{ACAD_REACTORS
330
267
330
268
102
}
330
71
100
AcDbEntity
  8
0
  6
Continuous
 62
     2
100
AcDbLine
 10
-219.9642709845565
 20
-262.8494740860436
 30
0.0
 11
-219.9642709845565
 21
-261.5406985758391
 31
0.0
  0
LINE
  5
15E
102
{ACAD_REACTORS
330
257
330
258
102
}
330
71
100
AcDbEntity
  8
0
  6
Continuous
 62
     2
100
AcDbLine
 10
-217.483111233165
 20
-257.1344876915011
 30
0.0
 11
-216.1471834067373
 21
-257.1344876915011
 31
0.0
  0
LINE
  5
15F
102
{ACAD_REACTORS
330
257
330
258
102
}
330
71
100
AcDbEntity
  8
0
  6
Continuous
 62
     2
100
AcDbLine
 10
-217.483111233165
 20
-258.7922700044269
 30
0.0
 11
-217.483111233165
 21
-258.3123856506851
 31
0.0
  0
LINE
  5
160
102
{ACAD_REACTORS
330
257
330
258
102
}
330
71
100
AcDbEntity
  8
0
  6
Continuous
 62
     2
100
AcDbLine
 10
-216.1471834067373
 20
-258.7922700044269
 30
0.0
 11
-217.483111233165
 21
-258.7922700044269
 31
0.0
  0
LINE
  5
161
102
{ACAD_REACTORS
330
257
330
258
102
}
330
71
100
AcDbEntity
  8
0
  6
Continuous
 62
     2
100
AcDbLine
 10
-216.1471834067373
 20
-259.4902836098694
 30
0.0
 11
-216.1471834067373
 21
-258.7922700044269
 31
0.0
  0
LINE
  5
162
102
{ACAD_REACTORS
330
257
330
258
102
}
330
71
100
AcDbEntity
  8
0
  6
Continuous
 62
     2
100
AcDbLine
 10
-219.2975031305183
 20
-259.4902836098694
 30
0.0
 11
-216.1471834067373
 21
-259.4902836098694
 31
0.0
  0
LINE
  5
163
102
{ACAD_REACTORS
330
257
330
258
102
}
330
71
100
AcDbEntity
  8
0
  6
Continuous
 62
     2
100
AcDbLine
 10
-219.2975031305183
 20
-256.4364740860582
 30
0.0
 11
-216.1471834067373
 21
-256.4364740860582
 31
0.0
  0
LINE
  5
164
102
{ACAD_REACTORS
330
257
330
258
102
}
330
71
100
AcDbEntity
  8
0
  6
Continuous
 62
     2
100
AcDbLine
 10
-216.1471834067373
 20
-257.1344876915011
 30
0.0
 11
-216.1471834067373
 21
-256.4364740860582
 31
0.0
  0
LINE
  5
165
102
{ACAD_REACTORS
330
269
330
26A
102
}
330
71
100
AcDbEntity
  8
0
  6
Continuous
 62
     2
100
AcDbLine
 10
-222.1588586256583
 20
-257.5053074193928
 30
0.0
 11
-222.1588586256583
 21
-256.4364740860582
 31
0.0
  0
LINE
  5
166
102
{ACAD_REACTORS
330
269
330
26A
102
}
330
71
100
AcDbEntity
  8
0
  6
Continuous
 62
     2
100
AcDbLine
 10
-222.1588586256583
 20
-256.4364740860582
 30
0.0
 11
-220.9660659234919
 21
-256.4364740860582
 31
0.0
  0
LINE
  5
167
102
{ACAD_REACTORS
330
269
330
26A
102
}
330
71
100
AcDbEntity
  8
0
  6
Continuous
 62
     2
100
AcDbLine
 10
-222.1588586256583
 20
-258.3560115010255
 30
0.0
 11
-223.2085162035658
 21
-258.3560115010255
 31
0.0
  0
LINE
  5
168
102
{ACAD_REACTORS
330
269
330
26A
102
}
330
71
100
AcDbEntity
  8
0
  6
Continuous
 62
     2
100
AcDbLine
 10
-223.2085162035658
 20
-258.3560115010255
 30
0.0
 11
-223.2085162035658
 21
-259.4902836098694
 31
0.0
  0
LINE
  5
169
102
{ACAD_REACTORS
330
269
330
26A
102
}
330
71
100
AcDbEntity
  8
0
  6
Continuous
 62
     2
100
AcDbLine
 10
-224.4013089057324
 20
-256.4364740860582
 30
0.0
 11
-224.4013089057324
 21
-259.4902836098694
 31
0.0
  0
LINE
  5
16A
102
{ACAD_REACTORS
330
25B
330
25C
102
}
330
71
100
AcDbEntity
  8
0
  6
Continuous
 62
     2
100
AcDbLine
 10
-226.357488937286
 20
-257.8053075808405
 30
0.0
 11
-226.357488937286
 21
-257.0995799314983
 31
0.0
  0
LINE
  5
16B
102
{ACAD_REACTORS
330
25B
330
25C
102
}
330
71
100
AcDbEntity
  8
0
  6
Continuous
 62
     2
100
AcDbLine
 10
-227.5979933475401
 20
-259.4902836098694
 30
0.0
 11
-226.357488937286
 21
-259.4902836098694
 31
0.0
  0
LINE
  5
16C
102
{ACAD_REACTORS
330
25B
330
25C
102
}
330
71
100
AcDbEntity
  8
0
  6
Continuous
 62
     2
100
AcDbLine
 10
-226.357488937286
 20
-259.4902836098694
 30
0.0
 11
-226.357488937286
 21
-258.5472053687255
 31
0.0
  0
LINE
  5
16D
102
{ACAD_REACTORS
330
255
330
256
102
}
330
71
100
AcDbEntity
  8
0
  6
Continuous
 62
     2
100
AcDbLine
 10
-231.9029391967515
 20
-262.1369185304868
 30
0.0
 11
-233.3787724577611
 21
-262.1369185304868
 31
0.0
  0
LINE
  5
16E
102
{ACAD_REACTORS
330
255
330
256
102
}
330
71
100
AcDbEntity
  8
0
  6
Continuous
 62
     2
100
AcDbLine
 10
-234.3969117498904
 20
-256.8607187014601
 30
0.0
 11
-234.3969117498904
 21
-262.4252294706604
 31
0.0
  0
LINE
  5
16F
102
{ACAD_REACTORS
330
255
330
256
102
}
330
71
100
AcDbEntity
  8
0
  6
Continuous
 62
     2
100
AcDbLine
 10
-233.9726671345076
 20
-256.4364740860764
 30
0.0
 11
-228.4993550437908
 21
-256.4364740860764
 31
0.0
  0
LINE
  5
170
102
{ACAD_REACTORS
330
255
330
256
102
}
330
71
100
AcDbEntity
  8
0
  6
Continuous
 62
     2
100
AcDbLine
 10
-228.0751104284069
 20
-256.8607187014601
 30
0.0
 11
-228.0751104284069
 21
-262.4252294706604
 31
0.0
  0
LINE
  5
171
102
{ACAD_REACTORS
330
255
330
256
102
}
330
71
100
AcDbEntity
  8
0
  6
Continuous
 62
     2
100
AcDbLine
 10
-228.4993550437908
 20
-262.8494740860436
 30
0.0
 11
-233.9726671345076
 21
-262.8494740860436
 31
0.0
  0
LINE
  5
172
102
{ACAD_REACTORS
330
255
330
256
102
}
330
71
100
AcDbEntity
  8
0
  6
Continuous
 62
     2
100
AcDbLine
 10
-231.5872222736749
 20
-261.8212016074101
 30
0.0
 11
-231.5872222736749
 21
-260.2904306758784
 31
0.0
  0
LINE
  5
173
102
{ACAD_REACTORS
330
255
330
256
102
}
330
71
100
AcDbEntity
  8
0
  6
Continuous
 62
     2
100
AcDbLine
 10
-231.5872222736749
 20
-258.0687711837535
 30
0.0
 11
-231.5872222736749
 21
-257.464746564693
 31
0.0
  0
LINE
  5
174
102
{ACAD_REACTORS
330
255
330
256
102
}
330
71
100
AcDbEntity
  8
0
  6
Continuous
 62
     2
100
AcDbLine
 10
-233.3787724577611
 20
-257.1490296416167
 30
0.0
 11
-231.9029391967515
 21
-257.1490296416167
 31
0.0
  0
LINE
  5
175
102
{ACAD_REACTORS
330
255
330
256
102
}
330
71
100
AcDbEntity
  8
0
  6
Continuous
 62
     2
100
AcDbLine
 10
-233.6944893808368
 20
-257.464746564693
 30
0.0
 11
-233.6944893808368
 21
-261.8212016074101
 31
0.0
  0
LINE
  5
176
102
{ACAD_REACTORS
330
25B
330
25C
102
}
330
71
100
AcDbEntity
  8
0
  6
Continuous
 62
     2
100
AcDbLine
 10
-226.357488937286
 20
-258.5472053687255
 30
0.0
 11
-225.5987213495057
 21
-258.5472053687255
 31
0.0
  0
LINE
  5
177
102
{ACAD_REACTORS
330
25B
330
25C
102
}
330
71
100
AcDbEntity
  8
0
  6
Continuous
 62
     2
100
AcDbLine
 10
-227.5979933475401
 20
-256.4364740860582
 30
0.0
 11
-225.5987213495057
 21
-256.4364740860582
 31
0.0
  0
LINE
  5
178
102
{ACAD_REACTORS
330
25B
330
25C
102
}
330
71
100
AcDbEntity
  8
0
  6
Continuous
 62
     2
100
AcDbLine
 10
-227.5979933475401
 20
-256.4364740860582
 30
0.0
 11
-227.5979933475401
 21
-259.4902836098694
 31
0.0
  0
LINE
  5
179
102
{ACAD_REACTORS
330
25B
330
25C
102
}
330
71
100
AcDbEntity
  8
0
  6
Continuous
 62
     2
100
AcDbLine
 10
-226.357488937286
 20
-257.8053075808405
 30
0.0
 11
-226.0401938757441
 21
-257.8053075808405
 31
0.0
  0
LINE
  5
17A
102
{ACAD_REACTORS
330
25B
330
25C
102
}
330
71
100
AcDbEntity
  8
0
  6
Continuous
 62
     2
100
AcDbLine
 10
-226.357488937286
 20
-257.0995799314983
 30
0.0
 11
-226.0401938757441
 21
-257.0995799314983
 31
0.0
  0
LINE
  5
17B
102
{ACAD_REACTORS
330
269
330
26A
102
}
330
71
100
AcDbEntity
  8
0
  6
Continuous
 62
     2
100
AcDbLine
 10
-223.2085162035658
 20
-257.5053074193928
 30
0.0
 11
-222.1588586256583
 21
-257.5053074193928
 31
0.0
  0
LINE
  5
17C
102
{ACAD_REACTORS
330
269
330
26A
102
}
330
71
100
AcDbEntity
  8
0
  6
Continuous
 62
     2
100
AcDbLine
 10
-223.2085162035658
 20
-256.4364740860582
 30
0.0
 11
-223.2085162035658
 21
-257.5053074193928
 31
0.0
  0
LINE
  5
17D
102
{ACAD_REACTORS
330
269
330
26A
102
}
330
71
100
AcDbEntity
  8
0
  6
Continuous
 62
     2
100
AcDbLine
 10
-224.4013089057324
 20
-256.4364740860582
 30
0.0
 11
-223.2085162035658
 21
-256.4364740860582
 31
0.0
  0
LINE
  5
17E
102
{ACAD_REACTORS
330
269
330
26A
102
}
330
71
100
AcDbEntity
  8
0
  6
Continuous
 62
     2
100
AcDbLine
 10
-223.2085162035658
 20
-259.4902836098694
 30
0.0
 11
-224.4013089057324
 21
-259.4902836098694
 31
0.0
  0
LINE
  5
17F
102
{ACAD_REACTORS
330
269
330
26A
102
}
330
71
100
AcDbEntity
  8
0
  6
Continuous
 62
     2
100
AcDbLine
 10
-222.1588586256583
 20
-259.4902836098694
 30
0.0
 11
-222.1588586256583
 21
-258.3560115010255
 31
0.0
  0
LINE
  5
180
102
{ACAD_REACTORS
330
269
330
26A
102
}
330
71
100
AcDbEntity
  8
0
  6
Continuous
 62
     2
100
AcDbLine
 10
-220.9660659234919
 20
-259.4902836098694
 30
0.0
 11
-222.1588586256583
 21
-259.4902836098694
 31
0.0
  0
LINE
  5
181
102
{ACAD_REACTORS
330
269
330
26A
102
}
330
71
100
AcDbEntity
  8
0
  6
Continuous
 62
     2
100
AcDbLine
 10
-220.9660659234919
 20
-256.4364740860582
 30
0.0
 11
-220.9660659234919
 21
-259.4902836098694
 31
0.0
  0
LINE
  5
182
102
{ACAD_REACTORS
330
257
330
258
102
}
330
71
100
AcDbEntity
  8
0
  6
Continuous
 62
     2
100
AcDbLine
 10
-217.483111233165
 20
-258.3123856506851
 30
0.0
 11
-216.1471834067373
 21
-258.3123856506851
 31
0.0
  0
LINE
  5
183
102
{ACAD_REACTORS
330
257
330
258
102
}
330
71
100
AcDbEntity
  8
0
  6
Continuous
 62
     2
100
AcDbLine
 10
-216.1471834067373
 20
-258.3123856506851
 30
0.0
 11
-216.1471834067373
 21
-257.6143720452428
 31
0.0
  0
LINE
  5
184
102
{ACAD_REACTORS
330
257
330
258
102
}
330
71
100
AcDbEntity
  8
0
  6
Continuous
 62
     2
100
AcDbLine
 10
-216.1471834067373
 20
-257.6143720452428
 30
0.0
 11
-217.483111233165
 21
-257.6143720452428
 31
0.0
  0
LINE
  5
185
102
{ACAD_REACTORS
330
257
330
258
102
}
330
71
100
AcDbEntity
  8
0
  6
Continuous
 62
     2
100
AcDbLine
 10
-217.483111233165
 20
-257.6143720452428
 30
0.0
 11
-217.483111233165
 21
-257.1344876915011
 31
0.0
  0
LINE
  5
186
102
{ACAD_REACTORS
330
267
330
268
102
}
330
71
100
AcDbEntity
  8
0
  6
Continuous
 62
     2
100
AcDbLine
 10
-221.1570636867241
 20
-262.8494740860436
 30
0.0
 11
-219.9642709845565
 21
-262.8494740860436
 31
0.0
  0
LINE
  5
187
102
{ACAD_REACTORS
330
267
330
268
102
}
330
71
100
AcDbEntity
  8
0
  6
Continuous
 62
     2
100
AcDbLine
 10
-218.7237665743036
 20
-262.8494740860436
 30
0.0
 11
-217.5309738721372
 21
-262.8494740860436
 31
0.0
  0
LINE
  5
188
102
{ACAD_REACTORS
330
267
330
268
102
}
330
71
100
AcDbEntity
  8
0
  6
Continuous
 62
     2
100
AcDbLine
 10
-219.9642709845565
 20
-259.7956645622326
 30
0.0
 11
-221.1570636867241
 21
-259.7956645622326
 31
0.0
  0
LINE
  5
189
102
{ACAD_REACTORS
330
267
330
268
102
}
330
71
100
AcDbEntity
  8
0
  6
Continuous
 62
     2
100
AcDbLine
 10
-221.1570636867241
 20
-259.7956645622326
 30
0.0
 11
-221.1570636867241
 21
-262.8494740860436
 31
0.0
  0
LINE
  5
18A
102
{ACAD_REACTORS
330
265
330
266
102
}
330
71
100
AcDbEntity
  8
0
  6
Continuous
 62
     2
100
AcDbLine
 10
-213.4753277538839
 20
-256.4364740860582
 30
0.0
 11
-213.4753277538839
 21
-257.7452495962633
 31
0.0
  0
LINE
  5
18B
102
{ACAD_REACTORS
330
265
330
266
102
}
330
71
100
AcDbEntity
  8
0
  6
Continuous
 62
     2
100
AcDbLine
 10
-214.7158321641379
 20
-256.4364740860582
 30
0.0
 11
-215.9086248663044
 21
-256.4364740860582
 31
0.0
  0
LINE
  5
18C
102
{ACAD_REACTORS
330
265
330
266
102
}
330
71
100
AcDbEntity
  8
0
  6
Continuous
 62
     2
100
AcDbLine
 10
-215.9086248663044
 20
-256.4364740860582
 30
0.0
 11
-215.9086248663044
 21
-259.4902836098694
 31
0.0
  0
LINE
  5
18D
102
{ACAD_REACTORS
330
265
330
266
102
}
330
71
100
AcDbEntity
  8
0
  6
Continuous
 62
     2
100
AcDbLine
 10
-214.7158321641379
 20
-259.4902836098694
 30
0.0
 11
-214.7158321641379
 21
-258.1815080996647
 31
0.0
  0
LINE
  5
18E
102
{ACAD_REACTORS
330
263
330
264
102
}
330
71
100
AcDbEntity
  8
0
  6
Continuous
 62
     2
100
AcDbLine
 10
-215.3839470082359
 20
-262.8494740860436
 30
0.0
 11
-215.3839470082359
 21
-260.5809298683562
 31
0.0
  0
LINE
  5
18F
102
{ACAD_REACTORS
330
263
330
264
102
}
330
71
100
AcDbEntity
  8
0
  6
Continuous
 62
     2
100
AcDbLine
 10
-215.3839470082359
 20
-260.5809298683562
 30
0.0
 11
-214.5728479707634
 21
-260.5809298683562
 31
0.0
  0
LINE
  5
190
102
{ACAD_REACTORS
330
263
330
264
102
}
330
71
100
AcDbEntity
  8
0
  6
Continuous
 62
     2
100
AcDbLine
 10
-214.5728479707634
 20
-260.5809298683562
 30
0.0
 11
-214.5728479707634
 21
-259.7956645622326
 31
0.0
  0
LINE
  5
191
102
{ACAD_REACTORS
330
263
330
264
102
}
330
71
100
AcDbEntity
  8
0
  6
Continuous
 62
     2
100
AcDbLine
 10
-214.5728479707634
 20
-259.7956645622326
 30
0.0
 11
-217.387838747877
 21
-259.7956645622326
 31
0.0
  0
LINE
  5
192
102
{ACAD_REACTORS
330
263
330
264
102
}
330
71
100
AcDbEntity
  8
0
  6
Continuous
 62
     2
100
AcDbLine
 10
-217.387838747877
 20
-260.5809298683562
 30
0.0
 11
-216.5767397104024
 21
-260.5809298683562
 31
0.0
  0
LINE
  5
193
102
{ACAD_REACTORS
330
261
330
262
102
}
330
71
100
AcDbEntity
  8
0
  6
Continuous
 62
     2
100
AcDbLine
 10
-213.778342144966
 20
-262.3085135418257
 30
0.0
 11
-212.6459005682922
 21
-262.3085135418257
 31
0.0
  0
LINE
  5
194
102
{ACAD_REACTORS
330
261
330
262
102
}
330
71
100
AcDbEntity
  8
0
  6
Continuous
 62
     2
100
AcDbLine
 10
-211.1939161045625
 20
-262.8494740860436
 30
0.0
 11
-212.4344205148164
 21
-262.8494740860436
 31
0.0
  0
LINE
  5
195
102
{ACAD_REACTORS
330
261
330
262
102
}
330
71
100
AcDbEntity
  8
0
  6
Continuous
 62
     2
100
AcDbLine
 10
-213.8323735617555
 20
-259.7956645622326
 30
0.0
 11
-215.2303266086948
 21
-262.8494740860436
 31
0.0
  0
LINE
  5
196
102
{ACAD_REACTORS
330
261
330
262
102
}
330
71
100
AcDbEntity
  8
0
  6
Continuous
 62
     2
100
AcDbLine
 10
-213.9898221984418
 20
-262.8494740860436
 30
0.0
 11
-213.778342144966
 21
-262.3085135418257
 31
0.0
  0
LINE
  5
197
102
{ACAD_REACTORS
330
261
330
262
102
}
330
71
100
AcDbEntity
  8
0
  6
Continuous
 62
     2
100
AcDbLine
 10
-213.512286593821
 20
-261.6279502765192
 30
0.0
 11
-213.2121213566286
 21
-260.8601353105324
 31
0.0
  0
LINE
  5
198
102
{ACAD_REACTORS
330
25F
330
260
102
}
330
71
100
AcDbEntity
  8
0
  6
Continuous
 62
     2
100
AcDbLine
 10
-212.0439765112834
 20
-259.4902836098694
 30
0.0
 11
-212.0439765112834
 21
-256.4364740860582
 31
0.0
  0
LINE
  5
199
102
{ACAD_REACTORS
330
25F
330
260
102
}
330
71
100
AcDbEntity
  8
0
  6
Continuous
 62
     2
100
AcDbLine
 10
-210.8034721010305
 20
-256.4364740860582
 30
0.0
 11
-210.8034721010305
 21
-259.4902836098694
 31
0.0
  0
LINE
  5
19A
102
{ACAD_REACTORS
330
25F
330
260
102
}
330
71
100
AcDbEntity
  8
0
  6
Continuous
 62
     2
100
AcDbLine
 10
-212.0439765112834
 20
-256.4364740860582
 30
0.0
 11
-210.8034721010305
 21
-256.4364740860582
 31
0.0
  0
LINE
  5
19B
102
{ACAD_REACTORS
330
25D
330
25E
102
}
330
71
100
AcDbEntity
  8
0
  6
Continuous
 62
     2
100
AcDbLine
 10
-208.5848776749997
 20
-258.7025518245756
 30
0.0
 11
-207.8882867369342
 21
-259.4902836098694
 31
0.0
  0
LINE
  5
19C
102
{ACAD_REACTORS
330
25D
330
25E
102
}
330
71
100
AcDbEntity
  8
0
  6
Continuous
 62
     2
100
AcDbLine
 10
-207.8882867369342
 20
-259.4902836098694
 30
0.0
 11
-206.4855625191859
 21
-259.4902836098694
 31
0.0
  0
LINE
  5
19D
102
{ACAD_REACTORS
330
25D
330
25E
102
}
330
71
100
AcDbEntity
  8
0
  6
Continuous
 62
     2
100
AcDbLine
 10
-207.8835155661262
 20
-257.9094246160944
 30
0.0
 11
-206.4855625191859
 21
-259.4902836098694
 31
0.0
  0
LINE
  5
19E
102
{ACAD_REACTORS
330
25D
330
25E
102
}
330
71
100
AcDbEntity
  8
0
  6
Continuous
 62
     2
100
AcDbLine
 10
-207.8835155661262
 20
-257.9094246160944
 30
0.0
 11
-206.5809859353597
 21
-256.4364740860582
 31
0.0
  0
LINE
  5
19F
102
{ACAD_REACTORS
330
25D
330
25E
102
}
330
71
100
AcDbEntity
  8
0
  6
Continuous
 62
     2
100
AcDbLine
 10
-208.5848776749997
 20
-257.1162974076136
 30
0.0
 11
-207.9837101531069
 21
-256.4364740860582
 31
0.0
  0
LINE
  5
1A0
102
{ACAD_REACTORS
330
25D
330
25E
102
}
330
71
100
AcDbEntity
  8
0
  6
Continuous
 62
     2
100
AcDbLine
 10
-209.1860451968915
 20
-256.4364740860582
 30
0.0
 11
-208.5848776749997
 21
-257.1162974076136
 31
0.0
  0
LINE
  5
1A1
102
{ACAD_REACTORS
330
25D
330
25E
102
}
330
71
100
AcDbEntity
  8
0
  6
Continuous
 62
     2
100
AcDbLine
 10
-209.1860451968915
 20
-256.4364740860582
 30
0.0
 11
-210.5887694146408
 21
-256.4364740860582
 31
0.0
  0
LINE
  5
1A2
102
{ACAD_REACTORS
330
253
330
254
102
}
330
71
100
AcDbEntity
  8
0
  6
Continuous
 62
     2
100
AcDbLine
 10
-208.489454258827
 20
-262.8494740860436
 30
0.0
 11
-207.2966615566593
 21
-262.8494740860436
 31
0.0
  0
LINE
  5
1A3
102
{ACAD_REACTORS
330
253
330
254
102
}
330
71
100
AcDbEntity
  8
0
  6
Continuous
 62
     2
100
AcDbLine
 10
-207.2966615566593
 20
-262.8494740860436
 30
0.0
 11
-207.2966615566593
 21
-260.5809298683562
 31
0.0
  0
LINE
  5
1A4
102
{ACAD_REACTORS
330
253
330
254
102
}
330
71
100
AcDbEntity
  8
0
  6
Continuous
 62
     2
100
AcDbLine
 10
-207.2966615566593
 20
-260.5809298683562
 30
0.0
 11
-206.4855625191859
 21
-260.5809298683562
 31
0.0
  0
LINE
  5
1A5
102
{ACAD_REACTORS
330
253
330
254
102
}
330
71
100
AcDbEntity
  8
0
  6
Continuous
 62
     2
100
AcDbLine
 10
-206.4855625191859
 20
-260.5809298683562
 30
0.0
 11
-206.4855625191859
 21
-259.7956645622326
 31
0.0
  0
LINE
  5
1A6
102
{ACAD_REACTORS
330
253
330
254
102
}
330
71
100
AcDbEntity
  8
0
  6
Continuous
 62
     2
100
AcDbLine
 10
-209.8705080378146
 20
-259.795664562233
 30
0.0
 11
-206.4855625191859
 21
-259.7956645622326
 31
0.0
  0
LINE
  5
1A7
102
{ACAD_REACTORS
330
253
330
254
102
}
330
71
100
AcDbEntity
  8
0
  6
Continuous
 62
     2
100
AcDbLine
 10
-208.489454258827
 20
-260.5809298683562
 30
0.0
 11
-208.489454258827
 21
-262.8494740860436
 31
0.0
  0
LINE
  5
1A8
102
{ACAD_REACTORS
330
255
330
256
102
}
330
71
100
AcDbEntity
  8
0
  6
Continuous
 62
     2
100
AcDbLine
 10
-231.1189406943062
 20
-260.8705939364792
 30
0.0
 11
-231.1189406943062
 21
-260.288742529784
 31
0.0
  0
LINE
  5
1A9
102
{ACAD_REACTORS
330
255
330
256
102
}
330
71
100
AcDbEntity
  8
0
  6
Continuous
 62
     2
100
AcDbLine
 10
-231.1189406943062
 20
-258.0704593298478
 30
0.0
 11
-231.1189406943062
 21
-257.4649240413411
 31
0.0
  0
LINE
  5
1AA
330
71
100
AcDbEntity
  8
1
  6
Continuous
 62
     6
100
AcDbLine
 10
-252.5887621097029
 20
-270.14297408606
 30
0.0
 11
-238.633566636453
 21
-270.1429740860601
 31
0.0
  0
LINE
  5
1AB
330
71
100
AcDbEntity
  8
1
  6
Continuous
 62
     6
100
AcDbLine
 10
-302.5887621097032
 20
-270.14297408606
 30
0.0
 11
-307.6335666364529
 21
-270.14297408606
 31
0.0
  0
LINE
  5
1AC
330
71
100
AcDbEntity
  8
1
  6
Continuous
 62
     6
100
AcDbLine
 10
-152.588762109703
 20
-270.14297408606
 30
0.0
 11
-109.088762109703
 21
-270.14297408606
 31
0.0
  0
LINE
  5
1AD
330
71
100
AcDbEntity
  8
1
  6
Continuous
 62
     6
100
AcDbLine
 10
-202.588762109703
 20
-270.14297408606
 30
0.0
 11
-220.433566636453
 21
-270.14297408606
 31
0.0
  0
LINE
  5
1AE
330
71
100
AcDbEntity
  8
1
  6
Continuous
 62
     2
100
AcDbLine
 10
-109.088762109703
 20
-270.14297408606
 30
0.0
 11
-104.088762109704
 21
-270.14297408606
 31
0.0
  0
LINE
  5
1AF
330
71
100
AcDbEntity
  8
1
  6
Continuous
 62
     2
100
AcDbLine
 10
-109.088762109703
 20
-270.14297408606
 30
0.0
 11
-109.088762109703
 21
-275.1429740860601
 31
0.0
  0
LINE
  5
1B0
330
71
100
AcDbEntity
  8
1
  6
Continuous
 62
     6
100
AcDbLine
 10
-238.633566636453
 20
-253.14297408606
 30
0.0
 11
-202.2335666364531
 21
-253.14297408606
 31
0.0
  0
LINE
  5
1B1
330
71
100
AcDbEntity
  8
1
  6
Continuous
 62
     2
100
AcDbLine
 10
-104.088762109704
 20
-275.1429740860601
 30
0.0
 11
-104.088762109704
 21
-270.14297408606
 31
0.0
  0
LINE
  5
1B2
330
71
100
AcDbEntity
  8
1
  6
Continuous
 62
     2
100
AcDbLine
 10
-104.088762109704
 20
-275.1429740860601
 30
0.0
 11
-109.088762109703
 21
-275.1429740860601
 31
0.0
  0
LINE
  5
1B3
330
71
100
AcDbEntity
  8
1
  6
Continuous
 62
     2
100
AcDbLine
 10
-109.088762109703
 20
-275.1429740860601
 30
0.0
 11
-152.588762109703
 21
-275.1429740860601
 31
0.0
  0
LINE
  5
1B4
330
71
100
AcDbEntity
  8
1
  6
Continuous
 62
     6
100
AcDbLine
 10
-109.0887621097013
 20
-253.14297408606
 30
0.0
 11
-109.0887621097021
 21
-220.1429740860598
 31
0.0
  0
LINE
  5
1B5
330
71
100
AcDbEntity
  8
1
  6
Continuous
 62
     2
100
AcDbLine
 10
-104.088762109704
 20
-65.14297408605995
 30
0.0
 11
-252.5887621097029
 21
-65.14297408605995
 31
0.0
  0
LINE
  5
1B6
330
71
100
AcDbEntity
  8
1
  6
Continuous
 62
     6
100
AcDbLine
 10
-109.088762109704
 20
-85.14297408605995
 30
0.0
 11
-396.088762109702
 21
-85.14297408605995
 31
0.0
  0
LINE
  5
1B7
330
71
100
AcDbEntity
  8
1
  6
Continuous
 62
     2
100
AcDbLine
 10
-109.0887621097021
 20
-220.1429740860598
 30
0.0
 11
-104.088762109704
 21
-220.1429740860598
 31
0.0
  0
LINE
  5
1B8
330
71
100
AcDbEntity
  8
1
  6
Continuous
 62
     6
100
AcDbLine
 10
-109.0887621097021
 20
-220.1429740860598
 30
0.0
 11
-109.0887621097026
 21
-170.14297408606
 31
0.0
  0
LINE
  5
1B9
330
71
100
AcDbEntity
  8
1
  6
Continuous
 62
     2
100
AcDbLine
 10
-104.088762109704
 20
-220.1429740860598
 30
0.0
 11
-104.088762109704
 21
-170.14297408606
 31
0.0
  0
LINE
  5
1BA
330
71
100
AcDbEntity
  8
1
  6
Continuous
 62
     2
100
AcDbLine
 10
-109.0887621097026
 20
-170.14297408606
 30
0.0
 11
-104.088762109704
 21
-170.14297408606
 31
0.0
  0
LINE
  5
1BB
330
71
100
AcDbEntity
  8
1
  6
Continuous
 62
     6
100
AcDbLine
 10
-109.0887621097026
 20
-170.14297408606
 30
0.0
 11
-109.0887621097038
 21
-120.14297408606
 31
0.0
  0
LINE
  5
1BC
330
71
100
AcDbEntity
  8
1
  6
Continuous
 62
     2
100
AcDbLine
 10
-104.088762109704
 20
-170.14297408606
 30
0.0
 11
-104.088762109704
 21
-120.14297408606
 31
0.0
  0
LINE
  5
1BD
330
71
100
AcDbEntity
  8
1
  6
Continuous
 62
     2
100
AcDbLine
 10
-109.0887621097038
 20
-120.14297408606
 30
0.0
 11
-104.088762109704
 21
-120.14297408606
 31
0.0
  0
LINE
  5
1BE
330
71
100
AcDbEntity
  8
1
  6
Continuous
 62
     6
100
AcDbLine
 10
-109.0887621097038
 20
-120.14297408606
 30
0.0
 11
-109.088762109704
 21
-85.14297408605995
 31
0.0
  0
LINE
  5
1BF
330
71
100
AcDbEntity
  8
1
  6
Continuous
 62
     2
100
AcDbLine
 10
-104.088762109704
 20
-120.14297408606
 30
0.0
 11
-104.088762109704
 21
-65.14297408605995
 31
0.0
  0
LINE
  5
1C0
330
71
100
AcDbEntity
  8
1
  6
Continuous
 62
     2
100
AcDbLine
 10
-104.088762109704
 20
-270.14297408606
 30
0.0
 11
-104.088762109704
 21
-220.1429740860598
 31
0.0
  0
LINE
  5
1C1
330
71
100
AcDbEntity
  8
1
  6
Continuous
 62
     2
100
AcDbLine
 10
-252.5887621097029
 20
-65.14297408605995
 30
0.0
 11
-401.088762109702
 21
-65.14297408605995
 31
0.0
  0
LINE
  5
1C2
330
71
100
AcDbEntity
  8
1
  6
Continuous
 62
     2
100
AcDbLine
 10
-252.5887621097029
 20
-65.14297408605995
 30
0.0
 11
-252.5887621097029
 21
-74.35166593076127
 31
0.0
  0
LINE
  5
1C3
330
71
100
AcDbEntity
  8
1
  6
Continuous
 62
     2
100
AcDbLine
 10
-401.088762109702
 20
-275.1429740860601
 30
0.0
 11
-396.0887621097011
 21
-275.1429740860601
 31
0.0
  0
LINE
  5
1C4
330
71
100
AcDbEntity
  8
1
  6
Continuous
 62
     2
100
AcDbLine
 10
-401.088762109702
 20
-65.14297408605995
 30
0.0
 11
-401.088762109702
 21
-120.14297408606
 31
0.0
  0
LINE
  5
1C5
330
71
100
AcDbEntity
  8
1
  6
Continuous
 62
     6
100
AcDbLine
 10
-396.088762109702
 20
-85.14297408605995
 30
0.0
 11
-396.088762109702
 21
-120.14297408606
 31
0.0
  0
LINE
  5
1C6
330
71
100
AcDbEntity
  8
1
  6
Continuous
 62
     2
100
AcDbLine
 10
-401.088762109702
 20
-120.14297408606
 30
0.0
 11
-396.088762109702
 21
-120.14297408606
 31
0.0
  0
LINE
  5
1C7
330
71
100
AcDbEntity
  8
1
  6
Continuous
 62
     2
100
AcDbLine
 10
-401.088762109702
 20
-120.14297408606
 30
0.0
 11
-401.088762109702
 21
-170.14297408606
 31
0.0
  0
LINE
  5
1C8
330
71
100
AcDbEntity
  8
1
  6
Continuous
 62
     6
100
AcDbLine
 10
-396.088762109702
 20
-120.14297408606
 30
0.0
 11
-396.0887621097015
 21
-170.14297408606
 31
0.0
  0
LINE
  5
1C9
330
71
100
AcDbEntity
  8
1
  6
Continuous
 62
     2
100
AcDbLine
 10
-401.088762109702
 20
-170.14297408606
 30
0.0
 11
-396.0887621097015
 21
-170.14297408606
 31
0.0
  0
LINE
  5
1CA
330
71
100
AcDbEntity
  8
1
  6
Continuous
 62
     2
100
AcDbLine
 10
-401.088762109702
 20
-170.14297408606
 30
0.0
 11
-401.088762109702
 21
-220.1429740860598
 31
0.0
  0
LINE
  5
1CB
330
71
100
AcDbEntity
  8
1
  6
Continuous
 62
     6
100
AcDbLine
 10
-396.0887621097015
 20
-170.14297408606
 30
0.0
 11
-396.0887621097012
 21
-220.1429740860598
 31
0.0
  0
LINE
  5
1CC
330
71
100
AcDbEntity
  8
1
  6
Continuous
 62
     2
100
AcDbLine
 10
-401.088762109702
 20
-220.1429740860598
 30
0.0
 11
-396.0887621097012
 21
-220.1429740860598
 31
0.0
  0
LINE
  5
1CD
330
71
100
AcDbEntity
  8
1
  6
Continuous
 62
     2
100
AcDbLine
 10
-401.088762109702
 20
-220.1429740860598
 30
0.0
 11
-401.088762109702
 21
-270.14297408606
 31
0.0
  0
LINE
  5
1CE
330
71
100
AcDbEntity
  8
1
  6
Continuous
 62
     6
100
AcDbLine
 10
-396.0887621097012
 20
-220.1429740860598
 30
0.0
 11
-396.0887621097011
 21
-270.14297408606
 31
0.0
  0
LINE
  5
1CF
330
71
100
AcDbEntity
  8
1
  6
Continuous
 62
     2
100
AcDbLine
 10
-352.5887621097029
 20
-275.1429740860601
 30
0.0
 11
-352.5887621097029
 21
-270.14297408606
 31
0.0
  0
LINE
  5
1D0
330
71
100
AcDbEntity
  8
1
  6
Continuous
 62
     2
100
AcDbLine
 10
-352.5887621097029
 20
-275.1429740860601
 30
0.0
 11
-302.5887621097032
 21
-275.1429740860601
 31
0.0
  0
LINE
  5
1D1
330
71
100
AcDbEntity
  8
1
  6
Continuous
 62
     2
100
AcDbLine
 10
-302.5887621097032
 20
-275.1429740860601
 30
0.0
 11
-302.5887621097032
 21
-270.14297408606
 31
0.0
  0
LINE
  5
1D2
330
71
100
AcDbEntity
  8
1
  6
Continuous
 62
     2
100
AcDbLine
 10
-302.5887621097032
 20
-275.1429740860601
 30
0.0
 11
-252.5887621097029
 21
-275.1429740860601
 31
0.0
  0
LINE
  5
1D3
330
71
100
AcDbEntity
  8
1
  6
Continuous
 62
     2
100
AcDbLine
 10
-252.5887621097029
 20
-275.1429740860601
 30
0.0
 11
-252.5887621097029
 21
-270.14297408606
 31
0.0
  0
LINE
  5
1D4
330
71
100
AcDbEntity
  8
1
  6
Continuous
 62
     2
100
AcDbLine
 10
-252.5887621097029
 20
-275.1429740860601
 30
0.0
 11
-202.588762109703
 21
-275.1429740860601
 31
0.0
  0
LINE
  5
1D5
330
71
100
AcDbEntity
  8
1
  6
Continuous
 62
     2
100
AcDbLine
 10
-202.588762109703
 20
-275.1429740860601
 30
0.0
 11
-202.588762109703
 21
-270.14297408606
 31
0.0
  0
LINE
  5
1D6
330
71
100
AcDbEntity
  8
1
  6
Continuous
 62
     2
100
AcDbLine
 10
-152.588762109703
 20
-275.1429740860601
 30
0.0
 11
-152.588762109703
 21
-270.14297408606
 31
0.0
  0
LINE
  5
1D7
330
71
100
AcDbEntity
  8
1
  6
Continuous
 62
     2
100
AcDbLine
 10
-152.588762109703
 20
-275.1429740860601
 30
0.0
 11
-202.588762109703
 21
-275.1429740860601
 31
0.0
  0
LINE
  5
1D8
330
71
100
AcDbEntity
  8
1
  6
Continuous
 62
     2
100
AcDbLine
 10
-396.0887621097011
 20
-270.14297408606
 30
0.0
 11
-396.0887621097011
 21
-275.1429740860601
 31
0.0
  0
LINE
  5
1D9
330
71
100
AcDbEntity
  8
1
  6
Continuous
 62
     2
100
AcDbLine
 10
-396.0887621097011
 20
-275.1429740860601
 30
0.0
 11
-352.5887621097029
 21
-275.1429740860601
 31
0.0
  0
LINE
  5
1DA
330
71
100
AcDbEntity
  8
1
  6
Continuous
 62
     2
100
AcDbLine
 10
-396.0887621097011
 20
-270.14297408606
 30
0.0
 11
-401.088762109702
 21
-270.14297408606
 31
0.0
  0
LINE
  5
1DB
330
71
100
AcDbEntity
  8
1
  6
Continuous
 62
     2
100
AcDbLine
 10
-401.088762109702
 20
-270.14297408606
 30
0.0
 11
-401.088762109702
 21
-275.1429740860601
 31
0.0
  0
LINE
  5
1DC
330
71
100
AcDbEntity
  8
1
  6
Continuous
 62
     6
100
AcDbLine
 10
-109.088762109703
 20
-270.14297408606
 30
0.0
 11
-109.0887621097017
 21
-261.64297408606
 31
0.0
  0
LINE
  5
1DD
330
71
100
AcDbEntity
  8
1
  6
Continuous
 62
     6
100
AcDbLine
 10
-202.2335666364531
 20
-270.1429740860601
 30
0.0
 11
-152.588762109703
 21
-270.14297408606
 31
0.0
  0
LINE
  5
1DE
330
71
100
AcDbEntity
  8
1
  6
Continuous
 62
     6
100
AcDbLine
 10
-354.8887621097032
 20
-270.1429740860601
 30
0.0
 11
-352.5887621097029
 21
-270.14297408606
 31
0.0
  0
LINE
  5
1DF
330
71
100
AcDbEntity
  8
1
  6
Continuous
 62
     6
100
AcDbLine
 10
-252.5887621097029
 20
-270.14297408606
 30
0.0
 11
-302.5887621097032
 21
-270.14297408606
 31
0.0
  0
LINE
  5
1E0
330
71
100
AcDbEntity
  8
1
  6
Continuous
 62
     7
100
AcDbLine
 10
-238.633566636453
 20
-253.14297408606
 30
0.0
 11
-238.633566636453
 21
-265.8929740860601
 31
0.0
  0
LINE
  5
1E1
330
71
100
AcDbEntity
  8
1
  6
Continuous
 62
     7
100
AcDbLine
 10
-202.2335666364531
 20
-253.14297408606
 30
0.0
 11
-202.2335666364531
 21
-265.89297408606
 31
0.0
  0
LINE
  5
1E2
330
71
100
AcDbEntity
  8
1
  6
Continuous
 62
     6
100
AcDbLine
 10
-354.8887621097032
 20
-270.1429740860601
 30
0.0
 11
-361.0887621097012
 21
-270.14297408606
 31
0.0
  0
LINE
  5
1E3
330
71
100
AcDbEntity
  8
1
  6
Continuous
 62
     6
100
AcDbLine
 10
-202.2335666364531
 20
-270.1429740860601
 30
0.0
 11
-202.588762109703
 21
-270.14297408606
 31
0.0
  0
LINE
  5
1E4
330
71
100
AcDbEntity
  8
1
  6
Continuous
 62
     6
100
AcDbLine
 10
-109.0887621097013
 20
-253.14297408606
 30
0.0
 11
-109.0887621097017
 21
-261.64297408606
 31
0.0
  0
LINE
  5
1E5
330
71
100
AcDbEntity
  8
1
  6
Continuous
 62
     6
100
AcDbLine
 10
-361.0887621097012
 20
-270.14297408606
 30
0.0
 11
-396.0887621097011
 21
-270.14297408606
 31
0.0
  0
LINE
  5
1E6
330
71
100
AcDbEntity
  8
1
  6
Continuous
 62
     2
100
AcDbLine
 10
-234.3969117498904
 20
-247.76797408606
 30
0.0
 11
-229.3969117498904
 21
-246.51797408606
 31
0.0
  0
LINE
  5
1E7
330
71
100
AcDbEntity
  8
1
  6
Continuous
 62
     2
100
AcDbLine
 10
-234.3969117498904
 20
-250.26797408606
 30
0.0
 11
-234.3969117498904
 21
-247.76797408606
 31
0.0
  0
LINE
  5
1E8
330
71
100
AcDbEntity
  8
1
  6
Continuous
 62
     2
100
AcDbLine
 10
-229.3969117498904
 20
-251.51797408606
 30
0.0
 11
-234.3969117498904
 21
-250.26797408606
 31
0.0
  0
LINE
  5
1E9
330
71
100
AcDbEntity
  8
1
  6
Continuous
 62
     2
100
AcDbLine
 10
-229.3969117498904
 20
-246.51797408606
 30
0.0
 11
-229.3969117498904
 21
-251.51797408606
 31
0.0
  0
LINE
  5
1EA
330
71
100
AcDbEntity
  8
1
  6
Continuous
 62
     7
100
AcDbLine
 10
-238.633566636453
 20
-265.8929740860601
 30
0.0
 11
-220.433566636453
 21
-265.89297408606
 31
0.0
  0
LINE
  5
1EB
330
71
100
AcDbEntity
  8
1
  6
Continuous
 62
     7
100
AcDbLine
 10
-238.633566636453
 20
-265.8929740860601
 30
0.0
 11
-238.633566636453
 21
-270.1429740860601
 31
0.0
  0
LINE
  5
1EC
330
71
100
AcDbEntity
  8
1
  6
Continuous
 62
     7
100
AcDbLine
 10
-202.2335666364531
 20
-265.89297408606
 30
0.0
 11
-202.2335666364531
 21
-270.1429740860601
 31
0.0
  0
LINE
  5
1ED
330
71
100
AcDbEntity
  8
1
  6
Continuous
 62
     7
100
AcDbLine
 10
-220.433566636453
 20
-265.89297408606
 30
0.0
 11
-220.433566636453
 21
-270.14297408606
 31
0.0
  0
LINE
  5
1EE
330
71
100
AcDbEntity
  8
1
  6
Continuous
 62
     6
100
AcDbLine
 10
-220.433566636453
 20
-270.14297408606
 30
0.0
 11
-238.633566636453
 21
-270.1429740860601
 31
0.0
  0
LINE
  5
1EF
330
71
100
AcDbEntity
  8
1
  6
Continuous
 62
     7
100
AcDbLine
 10
-220.433566636453
 20
-265.89297408606
 30
0.0
 11
-202.2335666364531
 21
-265.89297408606
 31
0.0
  0
LINE
  5
1F0
330
71
100
AcDbEntity
  8
1
  6
Continuous
 62
     6
100
AcDbLine
 10
-238.633566636453
 20
-244.64297408606
 30
0.0
 11
-109.0887621097013
 21
-244.64297408606
 31
0.0
  0
ARC
  5
1F1
102
{ACAD_REACTORS
330
259
330
25A
102
}
330
71
100
AcDbEntity
  8
0
  6
Continuous
 62
     2
100
AcDbCircle
 10
-223.241918637493
 20
-261.3225693241384
 30
0.0
 40
0.7717997786796373
100
AcDbArc
 50
321.8795802028437
 51
38.12041979715293
  0
ARC
  5
1F2
102
{ACAD_REACTORS
330
259
330
25A
102
}
330
71
100
AcDbEntity
  8
0
  6
Continuous
 62
     2
100
AcDbCircle
 10
-223.0421786011466
 20
-261.4793005022584
 30
0.0
 40
0.5179085730137051
100
AcDbArc
 50
218.1204197971838
 51
321.8795802028065
  0
ARC
  5
1F3
102
{ACAD_REACTORS
330
259
330
25A
102
}
330
71
100
AcDbEntity
  8
0
  6
Continuous
 62
     2
100
AcDbCircle
 10
-222.8424385648005
 20
-261.3225693241384
 30
0.0
 40
0.771799778679468
100
AcDbArc
 50
141.8795802028393
 51
218.120419797164
  0
ARC
  5
1F4
102
{ACAD_REACTORS
330
259
330
25A
102
}
330
71
100
AcDbEntity
  8
0
  6
Continuous
 62
     2
100
AcDbCircle
 10
-223.0421786011466
 20
-261.1658381460179
 30
0.0
 40
0.5179085730132775
100
AcDbArc
 50
38.12041979714898
 51
141.8795802028608
  0
ARC
  5
1F5
102
{ACAD_REACTORS
330
251
330
252
102
}
330
71
100
AcDbEntity
  8
0
  6
Continuous
 62
     2
100
AcDbCircle
 10
-226.1041927367104
 20
-262.7330356895466
 30
0.0
 40
2.227384008973456
100
AcDbArc
 50
58.06909105004297
 51
71.55192388186953
  0
ARC
  5
1F6
102
{ACAD_REACTORS
330
251
330
252
102
}
330
71
100
AcDbEntity
  8
0
  6
Continuous
 62
     2
100
AcDbCircle
 10
-225.8424650357517
 20
-261.1174978947994
 30
0.0
 40
0.511580060194863
100
AcDbArc
 50
113.3722778882033
 51
151.4785267423044
  0
ARC
  5
1F7
102
{ACAD_REACTORS
330
251
330
252
102
}
330
71
100
AcDbEntity
  8
0
  6
Continuous
 62
     2
100
AcDbCircle
 10
-225.4651077776714
 20
-261.3225693241384
 30
0.0
 40
0.9410597353332545
100
AcDbArc
 50
151.4785267422669
 51
208.5214732577027
  0
ARC
  5
1F8
102
{ACAD_REACTORS
330
251
330
252
102
}
330
71
100
AcDbEntity
  8
0
  6
Continuous
 62
     2
100
AcDbCircle
 10
-226.2620656118034
 20
-258.009888378882
 30
0.0
 40
4.852596863498053
100
AcDbArc
 50
275.158144769625
 51
285.9799912583529
  0
ARC
  5
1F9
102
{ACAD_REACTORS
330
251
330
252
102
}
330
71
100
AcDbEntity
  8
0
  6
Continuous
 62
     2
100
AcDbCircle
 10
-225.9732095170675
 20
-261.2097789621035
 30
0.0
 40
1.639695123939437
100
AcDbArc
 50
195.0618917770922
 51
275.1581447696395
  0
ARC
  5
1FA
102
{ACAD_REACTORS
330
251
330
252
102
}
330
71
100
AcDbEntity
  8
0
  6
Continuous
 62
     2
100
AcDbCircle
 10
-226.3923373605303
 20
-261.3225693241384
 30
0.0
 40
1.205656168390986
100
AcDbArc
 50
164.9381082228742
 51
195.0618917770945
  0
ARC
  5
1FB
102
{ACAD_REACTORS
330
251
330
252
102
}
330
71
100
AcDbEntity
  8
0
  6
Continuous
 62
     2
100
AcDbCircle
 10
-225.9732095170675
 20
-261.4353596861732
 30
0.0
 40
1.639695123940393
100
AcDbArc
 50
84.841855230362
 51
164.9381082228886
  0
ARC
  5
1FC
102
{ACAD_REACTORS
330
255
330
256
102
}
330
71
100
AcDbEntity
  8
0
  6
Continuous
 62
     2
100
AcDbCircle
 10
-230.8032237712294
 20
-260.288742529784
 30
0.0
 40
0.3157169230763909
100
AcDbArc
 50
115.3740086783698
 51
180.0
  0
ARC
  5
1FD
102
{ACAD_REACTORS
330
255
330
256
102
}
330
71
100
AcDbEntity
  8
0
  6
Continuous
 62
     2
100
AcDbCircle
 10
-230.8032237712294
 20
-258.0704593298478
 30
0.0
 40
0.315716923076792
100
AcDbArc
 50
180.0
 51
244.6259913216524
  0
ARC
  5
1FE
102
{ACAD_REACTORS
330
255
330
256
102
}
330
71
100
AcDbEntity
  8
0
  6
Continuous
 62
     2
100
AcDbCircle
 10
-230.7976076359194
 20
-259.1677589889101
 30
0.0
 40
2.018561131933209
100
AcDbArc
 50
269.8110329575866
 51
90.18896704241334
  0
ARC
  5
1FF
102
{ACAD_REACTORS
330
255
330
256
102
}
330
71
100
AcDbEntity
  8
0
  6
Continuous
 62
     2
100
AcDbCircle
 10
-230.8032237712294
 20
-260.8705939364792
 30
0.0
 40
0.315716923076792
100
AcDbArc
 50
180.0
 51
269.8110329574541
  0
ARC
  5
200
102
{ACAD_REACTORS
330
253
330
254
102
}
330
71
100
AcDbEntity
  8
0
  6
Continuous
 62
     2
100
AcDbCircle
 10
-209.7397635564988
 20
-261.1174978947994
 30
0.0
 40
0.5115800601944143
100
AcDbArc
 50
109.3371432194853
 51
151.4785267424253
  0
ARC
  5
201
102
{ACAD_REACTORS
330
253
330
254
102
}
330
71
100
AcDbEntity
  8
0
  6
Continuous
 62
     2
100
AcDbCircle
 10
-209.7397635564988
 20
-261.5276407534768
 30
0.0
 40
0.5115800601960487
100
AcDbArc
 50
208.5214732576922
 51
246.6277221118474
  0
ARC
  5
202
102
{ACAD_REACTORS
330
253
330
254
102
}
330
71
100
AcDbEntity
  8
0
  6
Continuous
 62
     2
100
AcDbCircle
 10
-210.2896358812762
 20
-261.3225693241384
 30
0.0
 40
1.20565616839299
100
AcDbArc
 50
164.9381082228998
 51
195.0618917770975
  0
ARC
  5
203
102
{ACAD_REACTORS
330
253
330
254
102
}
330
71
100
AcDbEntity
  8
0
  6
Continuous
 62
     2
100
AcDbCircle
 10
-209.8705080378146
 20
-261.4353596861732
 30
0.0
 40
1.639695123940157
100
AcDbArc
 50
90.0
 51
164.9381082228966
  0
ARC
  5
204
102
{ACAD_REACTORS
330
257
330
258
102
}
330
71
100
AcDbEntity
  8
0
  6
Continuous
 62
     2
100
AcDbCircle
 10
-219.2975031305183
 20
-257.963378847964
 30
0.0
 40
1.526904761905826
100
AcDbArc
 50
90.0
 51
270.0
  0
ARC
  5
205
102
{ACAD_REACTORS
330
25B
330
25C
102
}
330
71
100
AcDbEntity
  8
0
  6
Continuous
 62
     2
100
AcDbCircle
 10
-226.0401938757441
 20
-257.4524437561694
 30
0.0
 40
0.3528638246711466
100
AcDbArc
 50
270.0
 51
90.0
  0
ARC
  5
206
102
{ACAD_REACTORS
330
255
330
256
102
}
330
71
100
AcDbEntity
  8
0
  6
Continuous
 62
     2
100
AcDbCircle
 10
-233.3787724577611
 20
-257.464746564693
 30
0.0
 40
0.315716923076252
100
AcDbArc
 50
90.0
 51
180.0
  0
ARC
  5
207
102
{ACAD_REACTORS
330
255
330
256
102
}
330
71
100
AcDbEntity
  8
0
  6
Continuous
 62
     2
100
AcDbCircle
 10
-231.3803547491765
 20
-259.1796009298157
 30
0.0
 40
0.9118975235577038
100
AcDbArc
 50
115.1944106485276
 51
244.8055893514861
  0
ARC
  5
208
102
{ACAD_REACTORS
330
255
330
256
102
}
330
71
100
AcDbEntity
  8
0
  6
Continuous
 62
     2
100
AcDbCircle
 10
-231.9029391967515
 20
-260.2904306758784
 30
0.0
 40
0.315716923076593
100
AcDbArc
 50
0.0
 51
64.8055893514515
  0
ARC
  5
209
102
{ACAD_REACTORS
330
255
330
256
102
}
330
71
100
AcDbEntity
  8
0
  6
Continuous
 62
     2
100
AcDbCircle
 10
-233.9726671345076
 20
-262.4252294706604
 30
0.0
 40
0.4242446153828041
100
AcDbArc
 50
180.0
 51
270.0
  0
ARC
  5
20A
102
{ACAD_REACTORS
330
257
330
258
102
}
330
71
100
AcDbEntity
  8
0
  6
Continuous
 62
     2
100
AcDbCircle
 10
-219.0812311203531
 20
-257.8066476698435
 30
0.0
 40
0.5179085730134915
100
AcDbArc
 50
38.1204197971384
 51
141.8795802028538
  0
ARC
  5
20B
102
{ACAD_REACTORS
330
257
330
258
102
}
330
71
100
AcDbEntity
  8
0
  6
Continuous
 62
     2
100
AcDbCircle
 10
-218.8814910840068
 20
-257.963378847964
 30
0.0
 40
0.7717997786796373
100
AcDbArc
 50
141.8795802028438
 51
218.1204197971529
  0
ARC
  5
20C
102
{ACAD_REACTORS
330
259
330
25A
102
}
330
71
100
AcDbEntity
  8
0
  6
Continuous
 62
     2
100
AcDbCircle
 10
-223.0421786011466
 20
-260.783994313835
 30
0.0
 40
2.065479772208597
100
AcDbArc
 50
242.4518518243406
 51
297.548148175686
  0
ARC
  5
20D
102
{ACAD_REACTORS
330
259
330
25A
102
}
330
71
100
AcDbEntity
  8
0
  6
Continuous
 62
     2
100
AcDbCircle
 10
-223.0421786011466
 20
-261.8611443344412
 30
0.0
 40
2.065479772208543
100
AcDbArc
 50
62.451851824306
 51
117.5481481756674
  0
ARC
  5
20E
102
{ACAD_REACTORS
330
259
330
25A
102
}
330
71
100
AcDbEntity
  8
0
  6
Continuous
 62
     2
100
AcDbCircle
 10
-223.3231184929799
 20
-261.3225693241384
 30
0.0
 40
1.458034083651478
100
AcDbArc
 50
117.5481481756639
 51
242.4518518243371
  0
ARC
  5
20F
102
{ACAD_REACTORS
330
259
330
25A
102
}
330
71
100
AcDbEntity
  8
0
  6
Continuous
 62
     2
100
AcDbCircle
 10
-222.7612387093133
 20
-261.3225693241384
 30
0.0
 40
1.458034083652028
100
AcDbArc
 50
297.5481481757005
 51
62.45185182429842
  0
ARC
  5
210
102
{ACAD_REACTORS
330
257
330
258
102
}
330
71
100
AcDbEntity
  8
0
  6
Continuous
 62
     2
100
AcDbCircle
 10
-219.0812311203531
 20
-258.1201100260845
 30
0.0
 40
0.5179085730133669
100
AcDbArc
 50
218.1204197971412
 51
321.8795802028666
  0
ARC
  5
211
102
{ACAD_REACTORS
330
257
330
258
102
}
330
71
100
AcDbEntity
  8
0
  6
Continuous
 62
     2
100
AcDbCircle
 10
-219.2809711566993
 20
-257.963378847964
 30
0.0
 40
0.7717997786796245
100
AcDbArc
 50
321.8795802028483
 51
38.12041979715494
  0
ARC
  5
212
102
{ACAD_REACTORS
330
255
330
256
102
}
330
71
100
AcDbEntity
  8
0
  6
Continuous
 62
     2
100
AcDbCircle
 10
-228.4993550437908
 20
-262.4252294706604
 30
0.0
 40
0.424244615383202
100
AcDbArc
 50
270.0
 51
0.0
  0
ARC
  5
213
102
{ACAD_REACTORS
330
255
330
256
102
}
330
71
100
AcDbEntity
  8
0
  6
Continuous
 62
     2
100
AcDbCircle
 10
-228.4993550437908
 20
-256.8607187014601
 30
0.0
 40
0.4242446153839126
100
AcDbArc
 50
0.0
 51
90.0
  0
ARC
  5
214
102
{ACAD_REACTORS
330
255
330
256
102
}
330
71
100
AcDbEntity
  8
0
  6
Continuous
 62
     2
100
AcDbCircle
 10
-233.9726671345076
 20
-256.8607187014601
 30
0.0
 40
0.4242446153837136
100
AcDbArc
 50
90.0
 51
180.0
  0
ARC
  5
215
102
{ACAD_REACTORS
330
255
330
256
102
}
330
71
100
AcDbEntity
  8
0
  6
Continuous
 62
     2
100
AcDbCircle
 10
-231.9029391967515
 20
-261.8212016074101
 30
0.0
 40
0.3157169230767067
100
AcDbArc
 50
270.0
 51
0.0
  0
ARC
  5
216
102
{ACAD_REACTORS
330
255
330
256
102
}
330
71
100
AcDbEntity
  8
0
  6
Continuous
 62
     2
100
AcDbCircle
 10
-231.9029391967515
 20
-258.0687711837535
 30
0.0
 40
0.3157169230760688
100
AcDbArc
 50
295.1944106485441
 51
0.0
  0
ARC
  5
217
102
{ACAD_REACTORS
330
255
330
256
102
}
330
71
100
AcDbEntity
  8
0
  6
Continuous
 62
     2
100
AcDbCircle
 10
-231.9029391967515
 20
-257.464746564693
 30
0.0
 40
0.315716923076593
100
AcDbArc
 50
0.0
 51
90.0
  0
ARC
  5
218
102
{ACAD_REACTORS
330
255
330
256
102
}
330
71
100
AcDbEntity
  8
0
  6
Continuous
 62
     2
100
AcDbCircle
 10
-233.3787724577611
 20
-261.8212016074101
 30
0.0
 40
0.315716923075712
100
AcDbArc
 50
180.0
 51
270.0
  0
ARC
  5
219
102
{ACAD_REACTORS
330
25B
330
25C
102
}
330
71
100
AcDbEntity
  8
0
  6
Continuous
 62
     2
100
AcDbCircle
 10
-225.5987213495057
 20
-257.4918397273918
 30
0.0
 40
1.055365641333708
100
AcDbArc
 50
270.0
 51
90.0
  0
ARC
  5
21A
102
{ACAD_REACTORS
330
253
330
254
102
}
330
71
100
AcDbEntity
  8
0
  6
Continuous
 62
     2
100
AcDbCircle
 10
-209.8705080378146
 20
-261.2097789621035
 30
0.0
 40
1.63969512394045
100
AcDbArc
 50
195.0618917771053
 51
275.1581447696762
  0
ARC
  5
21B
102
{ACAD_REACTORS
330
253
330
254
102
}
330
71
100
AcDbEntity
  8
0
  6
Continuous
 62
     2
100
AcDbCircle
 10
-210.1593641325504
 20
-258.009888378882
 30
0.0
 40
4.852596863498709
100
AcDbArc
 50
275.1581447696361
 51
285.9799912583388
  0
ARC
  5
21C
102
{ACAD_REACTORS
330
253
330
254
102
}
330
71
100
AcDbEntity
  8
0
  6
Continuous
 62
     2
100
AcDbCircle
 10
-210.0014912574576
 20
-259.9121029587303
 30
0.0
 40
2.227384008972764
100
AcDbArc
 50
288.4480761181326
 51
301.9309089499387
  0
ARC
  5
21D
102
{ACAD_REACTORS
330
253
330
254
102
}
330
71
100
AcDbEntity
  8
0
  6
Continuous
 62
     2
100
AcDbCircle
 10
-209.5833235237957
 20
-261.1656487347668
 30
0.0
 40
0.905929784985321
100
AcDbArc
 50
246.6277221118213
 51
288.4480761180794
  0
ARC
  5
21E
102
{ACAD_REACTORS
330
253
330
254
102
}
330
71
100
AcDbEntity
  8
0
  6
Continuous
 62
     2
100
AcDbCircle
 10
-209.3624062984174
 20
-261.3225693241384
 30
0.0
 40
0.9410597353348789
100
AcDbArc
 50
151.478526742364
 51
208.5214732576695
  0
ARC
  5
21F
102
{ACAD_REACTORS
330
253
330
254
102
}
330
71
100
AcDbEntity
  8
0
  6
Continuous
 62
     2
100
AcDbCircle
 10
-209.5930935583951
 20
-261.5354528751823
 30
0.0
 40
0.9545230068260935
100
AcDbArc
 50
90.0
 51
109.3371432194304
  0
ARC
  5
220
102
{ACAD_REACTORS
330
255
330
256
102
}
330
71
100
AcDbEntity
  8
0
  6
Continuous
 62
     2
100
AcDbCircle
 10
-230.8032237712294
 20
-257.4649240413411
 30
0.0
 40
0.3157169230761279
100
AcDbArc
 50
90.1889670425459
 51
180.0
  0
ARC
  5
221
102
{ACAD_REACTORS
330
255
330
256
102
}
330
71
100
AcDbEntity
  8
0
  6
Continuous
 62
     2
100
AcDbCircle
 10
-231.3292664693173
 20
-259.1796009298157
 30
0.0
 40
0.9118481501444847
100
AcDbArc
 50
295.3740086781757
 51
64.62599132180748
  0
ARC
  5
222
102
{ACAD_REACTORS
330
251
330
252
102
}
330
71
100
AcDbEntity
  8
0
  6
Continuous
 62
     2
100
AcDbCircle
 10
-226.1041927367104
 20
-259.9121029587296
 30
0.0
 40
2.227384008972737
100
AcDbArc
 50
288.4480761181305
 51
301.9309089499555
  0
ARC
  5
223
102
{ACAD_REACTORS
330
251
330
252
102
}
330
71
100
AcDbEntity
  8
0
  6
Continuous
 62
     2
100
AcDbCircle
 10
-225.6860250030497
 20
-261.1656487347668
 30
0.0
 40
0.9059297849849715
100
AcDbArc
 50
246.6277221118725
 51
288.4480761181608
  0
ARC
  5
224
102
{ACAD_REACTORS
330
251
330
252
102
}
330
71
100
AcDbEntity
  8
0
  6
Continuous
 62
     2
100
AcDbCircle
 10
-225.8424650357517
 20
-261.5276407534768
 30
0.0
 40
0.5115800601948034
100
AcDbArc
 50
208.5214732576956
 51
246.627722111827
  0
ARC
  5
225
102
{ACAD_REACTORS
330
251
330
252
102
}
330
71
100
AcDbEntity
  8
0
  6
Continuous
 62
     2
100
AcDbCircle
 10
-225.6860250030497
 20
-261.47948991351
 30
0.0
 40
0.9059297849853318
100
AcDbArc
 50
71.55192388185178
 51
113.372277888129
  0
ARC
  5
226
102
{ACAD_REACTORS
330
251
330
252
102
}
330
71
100
AcDbEntity
  8
0
  6
Continuous
 62
     2
100
AcDbCircle
 10
-226.2620656118034
 20
-264.6352502693943
 30
0.0
 40
4.85259686349815
100
AcDbArc
 50
74.02000874164766
 51
84.84185523037509
  0
CIRCLE
  5
227
102
{ACAD_REACTORS
330
255
330
256
102
}
330
71
100
AcDbEntity
  8
0
  6
Continuous
 62
     2
100
AcDbCircle
 10
-231.3530814839901
 20
-259.1796009298157
 30
0.0
 40
0.4709789327785074
  0
CIRCLE
  5
228
330
71
100
AcDbEntity
  8
1
  6
Continuous
 62
     2
100
AcDbCircle
 10
-225.8969117498904
 20
-249.01797408606
 30
0.0
 40
1.249999999999886
  0
CIRCLE
  5
229
330
71
100
AcDbEntity
  8
1
  6
Continuous
 62
     2
100
AcDbCircle
 10
-225.8969117498904
 20
-249.01797408606
 30
0.0
 40
2.5
  0
TEXT
  5
22A
330
71
100
AcDbEntity
  8
1
 62
     7
100
AcDbText
 10
-183.2600189144392
 20
-251.8429740860601
 30
0.0
 40
2.5
  1
/
 41
0.9
  7
CONVERTER_11
100
AcDbText
  0
TEXT
  5
22C
330
71
100
AcDbEntity
  8
1
 62
     7
100
AcDbText
 10
-181.1036544173972
 20
-251.8429740860601
 30
0.0
 40
2.5
  1
00
 41
0.81
  7
CONVERTER_12
100
AcDbText
  0
TEXT
  5
22D
330
71
100
AcDbEntity
  8
1
 62
     3
100
AcDbText
 10
-143.5071703913801
 20
-251.8429740860601
 30
0.0
 40
2.5
  1
27.03.2018
 41
0.81
  7
CONVERTER_12
100
AcDbText
  0
MTEXT
  5
22E
330
71
100
AcDbEntity
  8
1
 62
     2
100
AcDbMText
 10
-143.5071703913801
 20
-245.64297408606
 30
0.0
 40
1.8
 41
0.0
 71
     1
 72
     1
  1
date
  7
CONVERTER_11
 73
     1
 44
1.32052821128451
  0
MTEXT
  5
22F
330
71
100
AcDbEntity
  8
1
 62
     2
100
AcDbMText
 10
-173.333566636453
 20
-254.14297408606
 30
0.0
 40
1.8
 41
0.0
 71
     1
 72
     1
  1
document-type
  7
CONVERTER_11
 73
     1
 44
1.20048019207683
  0
TEXT
  5
230
330
71
100
AcDbEntity
  8
1
 62
     3
100
AcDbText
 10
-173.333566636453
 20
-260.3429740860601
 30
0.0
 40
2.5
  1
TECDOC 2D_Productdrawing
 41
0.81
  7
CONVERTER_12
100
AcDbText
  0
MTEXT
  5
232
330
71
100
AcDbEntity
  8
1
 62
     2
100
AcDbMText
 10
-201.133566636453
 20
-245.64297408606
 30
0.0
 40
1.8
 41
0.0
 71
     1
 72
     1
  1
document-No. / RI
  7
CONVERTER_13
 73
     1
 44
1.32052821128451
  0
TEXT
  5
233
330
71
100
AcDbEntity
  8
1
 62
     7
100
AcDbText
 10
-201.133566636453
 20
-251.8429740860601
 30
0.0
 40
2.5
  1
01132450
 41
0.81
  7
CONVERTER_12
100
AcDbText
  0
MTEXT
  5
235
330
71
100
AcDbEntity
  8
1
 62
     3
100
AcDbMText
 10
-113.5479662505407
 20
-251.8429740860599
 30
0.0
 40
2.5
 41
0.0
 71
     8
 72
     1
  1
2:1
  7
CONVERTER_14
 73
     1
 44
1.32052821128451
  0
MTEXT
  5
236
330
71
100
AcDbEntity
  8
1
 62
     2
100
AcDbMText
 10
-116.9071703913803
 20
-245.64297408606
 30
0.0
 40
1.8
 41
0.0
 71
     1
 72
     1
  1
scale
  7
CONVERTER_11
 73
     1
 44
1.20048019207683
  0
MTEXT
  5
237
330
71
100
AcDbEntity
  8
1
 62
     2
100
AcDbMText
 10
-201.133566636453
 20
-254.14297408606
 30
0.0
 40
1.8
 41
0.0
 71
     1
 72
     1
  1
ident.-No.
  7
CONVERTER_11
 73
     1
 44
1.20048019207683
  0
TEXT
  5
238
330
71
100
AcDbEntity
  8
1
 62
     7
100
AcDbText
 10
-200.7335666364533
 20
-260.3429740860601
 30
0.0
 40
2.5
  1
3241233
 41
0.81
  7
CONVERTER_12
100
AcDbText
  0
MTEXT
  5
239
330
71
100
AcDbEntity
  8
1
 62
     2
100
AcDbMText
 10
-273.0715813615005
 20
-257.39297408606
 30
0.0
 40
2.0
 41
0.0
 71
     5
 72
     1
  1
General Information\P- Simplified representation\P- Document excluded from change process\P- Linear dimensions [mm]
  7
CONVERTER_11
 73
     1
 44
1.20048019207683
  0
MTEXT
  5
23A
330
71
100
AcDbEntity
  8
1
 62
     7
100
AcDbMText
 10
-106.588762109704
 20
-195.1429740860581
 30
0.0
 40
3.5
 41
0.0
 71
     5
 72
     1
  1
C
  7
CONVERTER_11
 73
     1
 44
1.20048019207683
  0
MTEXT
  5
23B
330
71
100
AcDbEntity
  8
1
 62
     7
100
AcDbMText
 10
-106.588762109704
 20
-92.64297408605995
 30
0.0
 40
3.5
 41
0.0
 71
     5
 72
     1
  1
A
  7
CONVERTER_11
 73
     1
 44
1.20048019207683
  0
MTEXT
  5
23C
330
71
100
AcDbEntity
  8
1
 62
     7
100
AcDbMText
 10
-106.588762109704
 20
-145.1429740860581
 30
0.0
 40
3.5
 41
0.0
 71
     5
 72
     1
  1
B
  7
CONVERTER_11
 73
     1
 44
1.20048019207683
  0
MTEXT
  5
23D
330
71
100
AcDbEntity
  8
1
 62
     7
100
AcDbMText
 10
-106.588762109704
 20
-247.64297408606
 30
0.0
 40
3.5
 41
0.0
 71
     5
 72
     1
  1
D
  7
CONVERTER_11
 73
     1
 44
1.20048019207683
  0
MTEXT
  5
23E
330
71
100
AcDbEntity
  8
1
 62
     7
100
AcDbMText
 10
-376.8387621097025
 20
-272.6429740860601
 30
0.0
 40
3.5
 41
0.0
 71
     5
 72
     1
  1
1
  7
CONVERTER_11
 73
     1
 44
1.20048019207683
  0
MTEXT
  5
23F
330
71
100
AcDbEntity
  8
1
 62
     7
100
AcDbMText
 10
-327.5887621097029
 20
-272.6429740860601
 30
0.0
 40
3.5
 41
0.0
 71
     5
 72
     1
  1
2
  7
CONVERTER_11
 73
     1
 44
1.20048019207683
  0
MTEXT
  5
240
330
71
100
AcDbEntity
  8
1
 62
     7
100
AcDbMText
 10
-277.5887621097029
 20
-272.6429740860601
 30
0.0
 40
3.5
 41
0.0
 71
     5
 72
     1
  1
3
  7
CONVERTER_11
 73
     1
 44
1.20048019207683
  0
MTEXT
  5
241
330
71
100
AcDbEntity
  8
1
 62
     7
100
AcDbMText
 10
-227.5887621097031
 20
-272.6429740860601
 30
0.0
 40
3.5
 41
0.0
 71
     5
 72
     1
  1
4
  7
CONVERTER_11
 73
     1
 44
1.20048019207683
  0
MTEXT
  5
242
330
71
100
AcDbEntity
  8
1
 62
     7
100
AcDbMText
 10
-177.588762109703
 20
-272.6429740860601
 30
0.0
 40
3.5
 41
0.0
 71
     5
 72
     1
  1
5
  7
CONVERTER_11
 73
     1
 44
1.20048019207683
  0
MTEXT
  5
243
330
71
100
AcDbEntity
  8
1
 62
     7
100
AcDbMText
 10
-128.3387621097038
 20
-272.6429740860601
 30
0.0
 40
3.5
 41
0.0
 71
     5
 72
     1
  1
6
  7
CONVERTER_11
 73
     1
 44
1.20048019207683
  0
MTEXT
  5
244
330
71
100
AcDbEntity
  8
1
 62
     7
100
AcDbMText
 10
-398.588762109702
 20
-92.64297408605995
 30
0.0
 40
3.5
 41
0.0
 71
     5
 72
     1
  1
A
  7
CONVERTER_11
 73
     1
 44
1.20048019207683
  0
MTEXT
  5
245
330
71
100
AcDbEntity
  8
1
 62
     7
100
AcDbMText
 10
-398.588762109702
 20
-145.14297408606
 30
0.0
 40
3.5
 41
0.0
 71
     5
 72
     1
  1
B
  7
CONVERTER_11
 73
     1
 44
1.20048019207683
  0
MTEXT
  5
246
330
71
100
AcDbEntity
  8
1
 62
     7
100
AcDbMText
 10
-398.588762109702
 20
-195.14297408606
 30
0.0
 40
3.5
 41
0.0
 71
     5
 72
     1
  1
C
  7
CONVERTER_11
 73
     1
 44
1.20048019207683
  0
MTEXT
  5
247
330
71
100
AcDbEntity
  8
1
 62
     7
100
AcDbMText
 10
-398.588762109702
 20
-247.64297408606
 30
0.0
 40
3.5
 41
0.0
 71
     5
 72
     1
  1
D
  7
CONVERTER_11
 73
     1
 44
1.20048019207683
  0
MTEXT
  5
248
330
71
100
AcDbEntity
  8
1
 62
     3
100
AcDbMText
 10
-212.4335666364531
 20
-249.01797408606
 30
0.0
 40
2.5
 41
0.0
 71
     5
 72
     1
  1
DIN A4
  7
CONVERTER_11
 73
     1
 44
1.20048019207683
  0
MTEXT
  5
249
330
71
100
AcDbEntity
  8
1
 62
     2
100
AcDbMText
 10
-201.2335666364531
 20
-262.64297408606
 30
0.0
 40
1.8
 41
0.0
 71
     1
 72
     1
  1
description
  7
CONVERTER_11
 73
     1
 44
1.20048019207683
  0
MTEXT
  5
24A
330
71
100
AcDbEntity
  8
1
 62
     7
100
AcDbMText
 10
-155.6611643730775
 20
-266.8929740860597
 30
0.0
 40
3.0
 41
0.0
 71
     5
 72
     1
  1
WP-CN PA M16 BK
  7
CONVERTER_12
 73
     1
 44
1.20048019207683
  0
TEXT
  5
24B
330
71
100
AcDbEntity
  8
1
 62
     2
100
AcDbText
 10
-214.1982578266395
 20
-268.8929740860601
 30
0.0
 40
1.8
  1
1
 41
0.9
  7
CONVERTER_11
100
AcDbText
  0
TEXT
  5
24C
330
71
100
AcDbEntity
  8
1
 62
     2
100
AcDbText
 10
-228.987301666111
 20
-268.942222739862
 30
0.0
 40
1.8
  1
1
 41
0.9
  7
CONVERTER_11
100
AcDbText
  0
TEXT
  5
24D
330
71
100
AcDbEntity
  8
1
 62
     2
100
AcDbText
 10
-237.633566636453
 20
-268.9019913010516
 30
0.0
 40
1.8
  1
page
 41
0.9
  7
CONVERTER_11
100
AcDbText
  0
TEXT
  5
24E
330
71
100
AcDbEntity
  8
1
 62
     2
100
AcDbText
 10
-219.4335666364532
 20
-268.9019913010516
 30
0.0
 40
1.8
  1
of
 41
0.9
  7
CONVERTER_11
100
AcDbText
  0
MTEXT
  5
24F
330
71
100
AcDbEntity
  8
1
 62
     3
100
AcDbMText
 10
-213.2305844848431
 20
-83.35166593076116
 30
0.0
 40
1.8
 41
0.0
 71
     7
 72
     1
  3
Transfer or duplication of this document as well as the utilisation or\Pcommunication of its content are not permitted unless express consent\Pis granted. Violations give rise to claims for damages. All rights reserved\Pin case of patent, utility mo
  1
del or design patent registrations.
  7
CONVERTER_11
 73
     1
 44
0.99639855942377
  0
MTEXT
  5
250
330
71
100
AcDbEntity
  8
1
 62
     3
100
AcDbMText
 10
-396.0836943236312
 20
-83.35166593076116
 30
0.0
 40
1.8
 41
0.0
 71
     7
 72
     1
  3
Weitergabe sowie Vervielf\U+00e4ltigung dieses Dokuments, Verwertung und \PMitteilung seines Inhalts sind verboten, soweit nicht ausdr\U+00fccklich gestattet. \PZuwiderhandlungen verpflichten zu Schadenersatz. Alle Rechte f\U+00fcr den Fall\Pder Pat
  1
ent-, Gebrauchsmuster- oder Designeintragung vorbehalten.
  7
CONVERTER_11
 73
     1
 44
0.99639855942377
  0
HATCH
  5
251
330
71
100
AcDbEntity
  8
1
  6
Continuous
 62
     2
100
AcDbHatch
 10
0.0
 20
0.0
 30
0.0
210
0.0
220
0.0
230
1.0
  2
_USER
 70
     0
 71
     1
 91
        1
 92
        1
 93
       14
 72
     2
 10
-226.3923373605303
 20
-261.3225693241384
 40
1.205656168390986
 50
164.9381082228742
 51
195.0618917770945
 73
     1
 72
     2
 10
-225.9732095170675
 20
-261.2097789621035
 40
1.639695123939437
 50
195.0618917770922
 51
275.1581447696395
 73
     1
 72
     2
 10
-226.2620656118034
 20
-258.009888378882
 40
4.852596863498053
 50
275.158144769625
 51
285.9799912583529
 73
     1
 72
     1
 10
-224.9261376946856
 20
-262.6749706846828
 11
-224.9261376946856
 21
-261.8024536778796
 72
     2
 10
-226.1041927367104
 20
-259.9121029587296
 40
2.227384008972737
 50
58.06909105004452
 51
71.55192388186951
 73
     0
 72
     2
 10
-225.6860250030497
 20
-261.1656487347668
 40
0.9059297849849715
 50
71.55192388183924
 51
113.3722778881275
 73
     0
 72
     2
 10
-225.8424650357517
 20
-261.5276407534768
 40
0.5115800601948034
 50
113.372277888173
 51
151.4785267423044
 73
     0
 72
     2
 10
-225.4651077776714
 20
-261.3225693241384
 40
0.9410597353332545
 50
151.4785267422973
 51
208.5214732577331
 73
     0
 72
     2
 10
-225.8424650357517
 20
-261.1174978947994
 40
0.511580060194863
 50
208.5214732576956
 51
246.6277221117967
 73
     0
 72
     2
 10
-225.6860250030497
 20
-261.47948991351
 40
0.9059297849853318
 50
246.627722111871
 51
288.4480761181483
 73
     0
 72
     2
 10
-226.1041927367104
 20
-262.7330356895466
 40
2.227384008973456
 50
288.4480761181305
 51
301.930908949957
 73
     0
 72
     1
 10
-224.9261376946856
 20
-260.8426849703967
 11
-224.9261376946856
 21
-259.9701679635933
 72
     2
 10
-226.2620656118034
 20
-264.6352502693943
 40
4.85259686349815
 50
74.02000874164766
 51
84.84185523037509
 73
     1
 72
     2
 10
-225.9732095170675
 20
-261.4353596861732
 40
1.639695123940393
 50
84.841855230362
 51
164.9381082228886
 73
     1
 97
       14
330
226
330
13F
330
1F5
330
225
330
1F6
330
1F7
330
224
330
223
330
222
330
140
330
1F8
330
1F9
330
1FA
330
1FB
 75
     1
 76
     0
 52
45.0
 41
0.1
 77
     0
 78
     1
 53
45.0
 43
0.0
 44
0.0
 45
-0.0707106781186548
 46
0.0707106781186548
 79
     0
 98
        1
 10
0.0
 20
0.0
  0
HATCH
  5
252
330
71
100
AcDbEntity
  8
1
  6
Continuous
 62
     2
100
AcDbHatch
 10
0.0
 20
0.0
 30
0.0
210
0.0
220
0.0
230
1.0
  2
_USER
 70
     0
 71
     1
 91
        1
 92
        1
 93
       14
 72
     2
 10
-226.3923373605303
 20
-261.3225693241384
 40
1.205656168390986
 50
164.9381082228742
 51
195.0618917770945
 73
     1
 72
     2
 10
-225.9732095170675
 20
-261.2097789621035
 40
1.639695123939437
 50
195.0618917770922
 51
275.1581447696395
 73
     1
 72
     2
 10
-226.2620656118034
 20
-258.009888378882
 40
4.852596863498053
 50
275.158144769625
 51
285.9799912583529
 73
     1
 72
     1
 10
-224.9261376946856
 20
-262.6749706846828
 11
-224.9261376946856
 21
-261.8024536778796
 72
     2
 10
-226.1041927367104
 20
-259.9121029587296
 40
2.227384008972737
 50
58.06909105004452
 51
71.55192388186951
 73
     0
 72
     2
 10
-225.6860250030497
 20
-261.1656487347668
 40
0.9059297849849715
 50
71.55192388183924
 51
113.3722778881275
 73
     0
 72
     2
 10
-225.8424650357517
 20
-261.5276407534768
 40
0.5115800601948034
 50
113.372277888173
 51
151.4785267423044
 73
     0
 72
     2
 10
-225.4651077776714
 20
-261.3225693241384
 40
0.9410597353332545
 50
151.4785267422973
 51
208.5214732577331
 73
     0
 72
     2
 10
-225.8424650357517
 20
-261.1174978947994
 40
0.511580060194863
 50
208.5214732576956
 51
246.6277221117967
 73
     0
 72
     2
 10
-225.6860250030497
 20
-261.47948991351
 40
0.9059297849853318
 50
246.627722111871
 51
288.4480761181483
 73
     0
 72
     2
 10
-226.1041927367104
 20
-262.7330356895466
 40
2.227384008973456
 50
288.4480761181305
 51
301.930908949957
 73
     0
 72
     1
 10
-224.9261376946856
 20
-260.8426849703967
 11
-224.9261376946856
 21
-259.9701679635933
 72
     2
 10
-226.2620656118034
 20
-264.6352502693943
 40
4.85259686349815
 50
74.02000874164766
 51
84.84185523037509
 73
     1
 72
     2
 10
-225.9732095170675
 20
-261.4353596861732
 40
1.639695123940393
 50
84.841855230362
 51
164.9381082228886
 73
     1
 97
       14
330
226
330
13F
330
1F5
330
225
330
1F6
330
1F7
330
224
330
223
330
222
330
140
330
1F8
330
1F9
330
1FA
330
1FB
 75
     1
 76
     0
 52
45.0
 41
0.1
 77
     0
 78
     1
 53
45.0
 43
0.0
 44
0.0
 45
-0.0707106781186548
 46
0.0707106781186548
 79
     0
 98
        1
 10
0.0
 20
0.0
  0
HATCH
  5
253
330
71
100
AcDbEntity
  8
1
  6
Continuous
 62
     2
100
AcDbHatch
 10
0.0
 20
0.0
 30
0.0
210
0.0
220
0.0
230
1.0
  2
_USER
 70
     0
 71
     1
 91
        1
 92
        1
 93
       18
 72
     2
 10
-209.8705080378146
 20
-261.4353596861732
 40
1.639695123940157
 50
90.0
 51
164.9381082228966
 73
     1
 72
     2
 10
-210.2896358812762
 20
-261.3225693241384
 40
1.20565616839299
 50
164.9381082228998
 51
195.0618917770975
 73
     1
 72
     2
 10
-209.8705080378146
 20
-261.2097789621035
 40
1.63969512394045
 50
195.0618917771053
 51
275.1581447696762
 73
     1
 72
     2
 10
-210.1593641325504
 20
-258.009888378882
 40
4.852596863498709
 50
275.1581447696361
 51
285.9799912583388
 73
     1
 72
     1
 10
-208.8234362154337
 20
-262.6749706846833
 11
-208.8234362154337
 21
-261.8024536778801
 72
     2
 10
-210.0014912574576
 20
-259.9121029587303
 40
2.227384008972764
 50
58.06909105006127
 51
71.55192388186742
 73
     0
 72
     2
 10
-209.5833235237957
 20
-261.1656487347668
 40
0.905929784985321
 50
71.55192388192056
 51
113.3722778881787
 73
     0
 72
     2
 10
-209.7397635564988
 20
-261.5276407534768
 40
0.5115800601960487
 50
113.3722778881526
 51
151.4785267423078
 73
     0
 72
     2
 10
-209.3624062984174
 20
-261.3225693241384
 40
0.9410597353348789
 50
151.4785267423305
 51
208.521473257636
 73
     0
 72
     2
 10
-209.7397635564988
 20
-261.1174978947994
 40
0.5115800601944143
 50
208.5214732575747
 51
250.6628567805147
 73
     0
 72
     2
 10
-209.5930935583951
 20
-261.5354528751823
 40
0.9545230068260935
 50
250.6628567805696
 51
270.0
 73
     0
 72
     1
 10
-209.5930935583951
 20
-260.5809298683562
 11
-208.489454258827
 21
-260.5809298683562
 72
     1
 10
-208.489454258827
 20
-260.5809298683562
 11
-208.489454258827
 21
-262.8494740860436
 72
     1
 10
-208.489454258827
 20
-262.8494740860436
 11
-207.2966615566593
 21
-262.8494740860436
 72
     1
 10
-207.2966615566593
 20
-262.8494740860436
 11
-207.2966615566593
 21
-260.5809298683562
 72
     1
 10
-207.2966615566593
 20
-260.5809298683562
 11
-206.4855625191859
 21
-260.5809298683562
 72
     1
 10
-206.4855625191859
 20
-260.5809298683562
 11
-206.4855625191859
 21
-259.7956645622326
 72
     1
 10
-206.4855625191859
 20
-259.7956645622326
 11
-209.8705080378146
 21
-259.795664562233
 97
       18
330
1A5
330
1A4
330
1A3
330
1A2
330
1A7
330
141
330
21F
330
200
330
21E
330
201
330
21D
330
21C
330
142
330
21B
330
21A
330
202
330
203
330
1A6
 75
     1
 76
     0
 52
45.0
 41
0.1
 77
     0
 78
     1
 53
45.0
 43
0.0
 44
0.0
 45
-0.0707106781186548
 46
0.0707106781186548
 79
     0
 98
        1
 10
0.0
 20
0.0
  0
HATCH
  5
254
330
71
100
AcDbEntity
  8
1
  6
Continuous
 62
     2
100
AcDbHatch
 10
0.0
 20
0.0
 30
0.0
210
0.0
220
0.0
230
1.0
  2
_USER
 70
     0
 71
     1
 91
        1
 92
        1
 93
       18
 72
     2
 10
-209.8705080378146
 20
-261.4353596861732
 40
1.639695123940157
 50
90.0
 51
164.9381082228966
 73
     1
 72
     2
 10
-210.2896358812762
 20
-261.3225693241384
 40
1.20565616839299
 50
164.9381082228998
 51
195.0618917770975
 73
     1
 72
     2
 10
-209.8705080378146
 20
-261.2097789621035
 40
1.63969512394045
 50
195.0618917771053
 51
275.1581447696762
 73
     1
 72
     2
 10
-210.1593641325504
 20
-258.009888378882
 40
4.852596863498709
 50
275.1581447696361
 51
285.9799912583388
 73
     1
 72
     1
 10
-208.8234362154337
 20
-262.6749706846833
 11
-208.8234362154337
 21
-261.8024536778801
 72
     2
 10
-210.0014912574576
 20
-259.9121029587303
 40
2.227384008972764
 50
58.06909105006127
 51
71.55192388186742
 73
     0
 72
     2
 10
-209.5833235237957
 20
-261.1656487347668
 40
0.905929784985321
 50
71.55192388192056
 51
113.3722778881787
 73
     0
 72
     2
 10
-209.7397635564988
 20
-261.5276407534768
 40
0.5115800601960487
 50
113.3722778881526
 51
151.4785267423078
 73
     0
 72
     2
 10
-209.3624062984174
 20
-261.3225693241384
 40
0.9410597353348789
 50
151.4785267423305
 51
208.521473257636
 73
     0
 72
     2
 10
-209.7397635564988
 20
-261.1174978947994
 40
0.5115800601944143
 50
208.5214732575747
 51
250.6628567805147
 73
     0
 72
     2
 10
-209.5930935583951
 20
-261.5354528751823
 40
0.9545230068260935
 50
250.6628567805696
 51
270.0
 73
     0
 72
     1
 10
-209.5930935583951
 20
-260.5809298683562
 11
-208.489454258827
 21
-260.5809298683562
 72
     1
 10
-208.489454258827
 20
-260.5809298683562
 11
-208.489454258827
 21
-262.8494740860436
 72
     1
 10
-208.489454258827
 20
-262.8494740860436
 11
-207.2966615566593
 21
-262.8494740860436
 72
     1
 10
-207.2966615566593
 20
-262.8494740860436
 11
-207.2966615566593
 21
-260.5809298683562
 72
     1
 10
-207.2966615566593
 20
-260.5809298683562
 11
-206.4855625191859
 21
-260.5809298683562
 72
     1
 10
-206.4855625191859
 20
-260.5809298683562
 11
-206.4855625191859
 21
-259.7956645622326
 72
     1
 10
-206.4855625191859
 20
-259.7956645622326
 11
-209.8705080378146
 21
-259.795664562233
 97
       18
330
1A5
330
1A4
330
1A3
330
1A2
330
1A7
330
141
330
21F
330
200
330
21E
330
201
330
21D
330
21C
330
142
330
21B
330
21A
330
202
330
203
330
1A6
 75
     1
 76
     0
 52
45.0
 41
0.1
 77
     0
 78
     1
 53
45.0
 43
0.0
 44
0.0
 45
-0.0707106781186548
 46
0.0707106781186548
 79
     0
 98
        1
 10
0.0
 20
0.0
  0
HATCH
  5
255
330
71
100
AcDbEntity
  8
1
  6
Continuous
 62
     2
100
AcDbHatch
 10
0.0
 20
0.0
 30
0.0
210
0.0
220
0.0
230
1.0
  2
_USER
 70
     0
 71
     1
 91
        4
 92
        1
 93
        8
 72
     2
 10
-233.9726671345076
 20
-256.8607187014601
 40
0.4242446153837136
 50
90.0
 51
180.0
 73
     1
 72
     1
 10
-234.3969117498904
 20
-256.8607187014601
 11
-234.3969117498904
 21
-262.4252294706604
 72
     2
 10
-233.9726671345076
 20
-262.4252294706604
 40
0.4242446153828041
 50
180.0
 51
270.0
 73
     1
 72
     1
 10
-233.9726671345076
 20
-262.8494740860436
 11
-228.4993550437908
 21
-262.8494740860436
 72
     2
 10
-228.4993550437908
 20
-262.4252294706604
 40
0.424244615383202
 50
270.0
 51
360.0
 73
     1
 72
     1
 10
-228.0751104284069
 20
-262.4252294706604
 11
-228.0751104284069
 21
-256.8607187014601
 72
     2
 10
-228.4993550437908
 20
-256.8607187014601
 40
0.4242446153839126
 50
0.0
 51
90.0
 73
     1
 72
     1
 10
-228.4993550437908
 20
-256.4364740860764
 11
-233.9726671345076
 21
-256.4364740860764
 97
        8
330
213
330
170
330
212
330
171
330
209
330
16E
330
214
330
16F
 92
       16
 93
        1
 72
     2
 10
-231.3530814839901
 20
-259.1796009298157
 40
0.4709789327785074
 50
0.0
 51
360.0
 73
     1
 97
        1
330
227
 92
       16
 93
        8
 72
     2
 10
-231.3292664693173
 20
-259.1796009298157
 40
0.9118481501444847
 50
295.3740086781757
 51
424.6259913218075
 73
     1
 72
     2
 10
-230.8032237712294
 20
-258.0704593298478
 40
0.315716923076792
 50
115.3740086783477
 51
180.0
 73
     0
 72
     1
 10
-231.1189406943062
 20
-258.0704593298478
 11
-231.1189406943062
 21
-257.4649240413411
 72
     2
 10
-230.8032237712294
 20
-257.4649240413411
 40
0.3157169230761279
 50
180.0
 51
269.8110329574541
 73
     0
 72
     2
 10
-230.7976076359194
 20
-259.1677589889101
 40
2.018561131933209
 50
269.8110329575866
 51
450.1889670424134
 73
     0
 72
     2
 10
-230.8032237712294
 20
-260.8705939364792
 40
0.315716923076792
 50
90.18896704254595
 51
180.0
 73
     0
 72
     1
 10
-231.1189406943062
 20
-260.8705939364792
 11
-231.1189406943062
 21
-260.288742529784
 72
     2
 10
-230.8032237712294
 20
-260.288742529784
 40
0.3157169230763909
 50
180.0
 51
244.6259913216303
 73
     0
 97
        8
330
221
330
1FD
330
1A9
330
220
330
1FE
330
1FF
330
1A8
330
1FC
 92
       16
 93
       12
 72
     1
 10
-233.3787724577611
 20
-262.1369185304868
 11
-231.9029391967515
 21
-262.1369185304868
 72
     2
 10
-231.9029391967515
 20
-261.8212016074101
 40
0.3157169230767067
 50
270.0
 51
360.0
 73
     1
 72
     1
 10
-231.5872222736749
 20
-261.8212016074101
 11
-231.5872222736749
 21
-260.2904306758784
 72
     2
 10
-231.9029391967515
 20
-260.2904306758784
 40
0.315716923076593
 50
0.0
 51
64.8055893514515
 73
     1
 72
     2
 10
-231.3803547491765
 20
-259.1796009298157
 40
0.9118975235577038
 50
115.1944106485139
 51
244.8055893514724
 73
     0
 72
     2
 10
-231.9029391967515
 20
-258.0687711837535
 40
0.3157169230760688
 50
295.1944106485441
 51
360.0
 73
     1
 72
     1
 10
-231.5872222736749
 20
-258.0687711837535
 11
-231.5872222736749
 21
-257.464746564693
 72
     2
 10
-231.9029391967515
 20
-257.464746564693
 40
0.315716923076593
 50
0.0
 51
90.0
 73
     1
 72
     1
 10
-231.9029391967515
 20
-257.1490296416167
 11
-233.3787724577611
 21
-257.1490296416167
 72
     2
 10
-233.3787724577611
 20
-257.464746564693
 40
0.315716923076252
 50
90.0
 51
180.0
 73
     1
 72
     1
 10
-233.6944893808368
 20
-257.464746564693
 11
-233.6944893808368
 21
-261.8212016074101
 72
     2
 10
-233.3787724577611
 20
-261.8212016074101
 40
0.315716923075712
 50
180.0
 51
270.0
 73
     1
 97
       12
330
175
330
206
330
174
330
217
330
173
330
216
330
207
330
208
330
172
330
215
330
16D
330
218
 75
     1
 76
     0
 52
45.0
 41
0.1
 77
     0
 78
     1
 53
45.0
 43
0.0
 44
0.0
 45
-0.0707106781186548
 46
0.0707106781186548
 79
     0
 98
        1
 10
0.0
 20
0.0
  0
HATCH
  5
256
330
71
100
AcDbEntity
  8
1
  6
Continuous
 62
     2
100
AcDbHatch
 10
0.0
 20
0.0
 30
0.0
210
0.0
220
0.0
230
1.0
  2
_USER
 70
     0
 71
     1
 91
        4
 92
        1
 93
        8
 72
     2
 10
-233.9726671345076
 20
-256.8607187014601
 40
0.4242446153837136
 50
90.0
 51
180.0
 73
     1
 72
     1
 10
-234.3969117498904
 20
-256.8607187014601
 11
-234.3969117498904
 21
-262.4252294706604
 72
     2
 10
-233.9726671345076
 20
-262.4252294706604
 40
0.4242446153828041
 50
180.0
 51
270.0
 73
     1
 72
     1
 10
-233.9726671345076
 20
-262.8494740860436
 11
-228.4993550437908
 21
-262.8494740860436
 72
     2
 10
-228.4993550437908
 20
-262.4252294706604
 40
0.424244615383202
 50
270.0
 51
360.0
 73
     1
 72
     1
 10
-228.0751104284069
 20
-262.4252294706604
 11
-228.0751104284069
 21
-256.8607187014601
 72
     2
 10
-228.4993550437908
 20
-256.8607187014601
 40
0.4242446153839126
 50
0.0
 51
90.0
 73
     1
 72
     1
 10
-228.4993550437908
 20
-256.4364740860764
 11
-233.9726671345076
 21
-256.4364740860764
 97
        8
330
213
330
170
330
212
330
171
330
209
330
16E
330
214
330
16F
 92
       16
 93
        1
 72
     2
 10
-231.3530814839901
 20
-259.1796009298157
 40
0.4709789327785074
 50
0.0
 51
360.0
 73
     1
 97
        1
330
227
 92
       16
 93
        8
 72
     2
 10
-231.3292664693173
 20
-259.1796009298157
 40
0.9118481501444847
 50
295.3740086781757
 51
424.6259913218075
 73
     1
 72
     2
 10
-230.8032237712294
 20
-258.0704593298478
 40
0.315716923076792
 50
115.3740086783477
 51
180.0
 73
     0
 72
     1
 10
-231.1189406943062
 20
-258.0704593298478
 11
-231.1189406943062
 21
-257.4649240413411
 72
     2
 10
-230.8032237712294
 20
-257.4649240413411
 40
0.3157169230761279
 50
180.0
 51
269.8110329574541
 73
     0
 72
     2
 10
-230.7976076359194
 20
-259.1677589889101
 40
2.018561131933209
 50
269.8110329575866
 51
450.1889670424134
 73
     0
 72
     2
 10
-230.8032237712294
 20
-260.8705939364792
 40
0.315716923076792
 50
90.18896704254595
 51
180.0
 73
     0
 72
     1
 10
-231.1189406943062
 20
-260.8705939364792
 11
-231.1189406943062
 21
-260.288742529784
 72
     2
 10
-230.8032237712294
 20
-260.288742529784
 40
0.3157169230763909
 50
180.0
 51
244.6259913216303
 73
     0
 97
        8
330
221
330
1FD
330
1A9
330
220
330
1FE
330
1FF
330
1A8
330
1FC
 92
       16
 93
       12
 72
     1
 10
-233.3787724577611
 20
-262.1369185304868
 11
-231.9029391967515
 21
-262.1369185304868
 72
     2
 10
-231.9029391967515
 20
-261.8212016074101
 40
0.3157169230767067
 50
270.0
 51
360.0
 73
     1
 72
     1
 10
-231.5872222736749
 20
-261.8212016074101
 11
-231.5872222736749
 21
-260.2904306758784
 72
     2
 10
-231.9029391967515
 20
-260.2904306758784
 40
0.315716923076593
 50
0.0
 51
64.8055893514515
 73
     1
 72
     2
 10
-231.3803547491765
 20
-259.1796009298157
 40
0.9118975235577038
 50
115.1944106485139
 51
244.8055893514724
 73
     0
 72
     2
 10
-231.9029391967515
 20
-258.0687711837535
 40
0.3157169230760688
 50
295.1944106485441
 51
360.0
 73
     1
 72
     1
 10
-231.5872222736749
 20
-258.0687711837535
 11
-231.5872222736749
 21
-257.464746564693
 72
     2
 10
-231.9029391967515
 20
-257.464746564693
 40
0.315716923076593
 50
0.0
 51
90.0
 73
     1
 72
     1
 10
-231.9029391967515
 20
-257.1490296416167
 11
-233.3787724577611
 21
-257.1490296416167
 72
     2
 10
-233.3787724577611
 20
-257.464746564693
 40
0.315716923076252
 50
90.0
 51
180.0
 73
     1
 72
     1
 10
-233.6944893808368
 20
-257.464746564693
 11
-233.6944893808368
 21
-261.8212016074101
 72
     2
 10
-233.3787724577611
 20
-261.8212016074101
 40
0.315716923075712
 50
180.0
 51
270.0
 73
     1
 97
       12
330
175
330
206
330
174
330
217
330
173
330
216
330
207
330
208
330
172
330
215
330
16D
330
218
 75
     1
 76
     0
 52
45.0
 41
0.1
 77
     0
 78
     1
 53
45.0
 43
0.0
 44
0.0
 45
-0.0707106781186548
 46
0.0707106781186548
 79
     0
 98
        1
 10
0.0
 20
0.0
  0
HATCH
  5
257
330
71
100
AcDbEntity
  8
1
  6
Continuous
 62
     2
100
AcDbHatch
 10
0.0
 20
0.0
 30
0.0
210
0.0
220
0.0
230
1.0
  2
_USER
 70
     0
 71
     1
 91
        2
 92
        1
 93
       12
 72
     2
 10
-219.2975031305183
 20
-257.963378847964
 40
1.526904761905826
 50
90.0
 51
270.0
 73
     1
 72
     1
 10
-219.2975031305183
 20
-259.4902836098694
 11
-216.1471834067373
 21
-259.4902836098694
 72
     1
 10
-216.1471834067373
 20
-259.4902836098694
 11
-216.1471834067373
 21
-258.7922700044269
 72
     1
 10
-216.1471834067373
 20
-258.7922700044269
 11
-217.483111233165
 21
-258.7922700044269
 72
     1
 10
-217.483111233165
 20
-258.7922700044269
 11
-217.483111233165
 21
-258.3123856506851
 72
     1
 10
-217.483111233165
 20
-258.3123856506851
 11
-216.1471834067373
 21
-258.3123856506851
 72
     1
 10
-216.1471834067373
 20
-258.3123856506851
 11
-216.1471834067373
 21
-257.6143720452428
 72
     1
 10
-216.1471834067373
 20
-257.6143720452428
 11
-217.483111233165
 21
-257.6143720452428
 72
     1
 10
-217.483111233165
 20
-257.6143720452428
 11
-217.483111233165
 21
-257.1344876915011
 72
     1
 10
-217.483111233165
 20
-257.1344876915011
 11
-216.1471834067373
 21
-257.1344876915011
 72
     1
 10
-216.1471834067373
 20
-257.1344876915011
 11
-216.1471834067373
 21
-256.4364740860582
 72
     1
 10
-216.1471834067373
 20
-256.4364740860582
 11
-219.2975031305183
 21
-256.4364740860582
 97
       12
330
164
330
15E
330
185
330
184
330
183
330
182
330
15F
330
160
330
161
330
162
330
204
330
163
 92
       16
 93
        4
 72
     2
 10
-218.8814910840068
 20
-257.963378847964
 40
0.7717997786796373
 50
141.8795802028438
 51
218.1204197971529
 73
     1
 72
     2
 10
-219.0812311203531
 20
-258.1201100260845
 40
0.5179085730133669
 50
218.1204197971412
 51
321.8795802028666
 73
     1
 72
     2
 10
-219.2809711566993
 20
-257.963378847964
 40
0.7717997786796245
 50
321.8795802028483
 51
398.120419797155
 73
     1
 72
     2
 10
-219.0812311203531
 20
-257.8066476698435
 40
0.5179085730134915
 50
38.1204197971384
 51
141.8795802028538
 73
     1
 97
        4
330
211
330
210
330
20B
330
20A
 75
     1
 76
     0
 52
45.0
 41
0.1
 77
     0
 78
     1
 53
45.0
 43
0.0
 44
0.0
 45
-0.0707106781186548
 46
0.0707106781186548
 79
     0
 98
        1
 10
0.0
 20
0.0
  0
HATCH
  5
258
330
71
100
AcDbEntity
  8
1
  6
Continuous
 62
     2
100
AcDbHatch
 10
0.0
 20
0.0
 30
0.0
210
0.0
220
0.0
230
1.0
  2
_USER
 70
     0
 71
     1
 91
        2
 92
        1
 93
       12
 72
     2
 10
-219.2975031305183
 20
-257.963378847964
 40
1.526904761905826
 50
90.0
 51
270.0
 73
     1
 72
     1
 10
-219.2975031305183
 20
-259.4902836098694
 11
-216.1471834067373
 21
-259.4902836098694
 72
     1
 10
-216.1471834067373
 20
-259.4902836098694
 11
-216.1471834067373
 21
-258.7922700044269
 72
     1
 10
-216.1471834067373
 20
-258.7922700044269
 11
-217.483111233165
 21
-258.7922700044269
 72
     1
 10
-217.483111233165
 20
-258.7922700044269
 11
-217.483111233165
 21
-258.3123856506851
 72
     1
 10
-217.483111233165
 20
-258.3123856506851
 11
-216.1471834067373
 21
-258.3123856506851
 72
     1
 10
-216.1471834067373
 20
-258.3123856506851
 11
-216.1471834067373
 21
-257.6143720452428
 72
     1
 10
-216.1471834067373
 20
-257.6143720452428
 11
-217.483111233165
 21
-257.6143720452428
 72
     1
 10
-217.483111233165
 20
-257.6143720452428
 11
-217.483111233165
 21
-257.1344876915011
 72
     1
 10
-217.483111233165
 20
-257.1344876915011
 11
-216.1471834067373
 21
-257.1344876915011
 72
     1
 10
-216.1471834067373
 20
-257.1344876915011
 11
-216.1471834067373
 21
-256.4364740860582
 72
     1
 10
-216.1471834067373
 20
-256.4364740860582
 11
-219.2975031305183
 21
-256.4364740860582
 97
       12
330
164
330
15E
330
185
330
184
330
183
330
182
330
15F
330
160
330
161
330
162
330
204
330
163
 92
       16
 93
        4
 72
     2
 10
-218.8814910840068
 20
-257.963378847964
 40
0.7717997786796373
 50
141.8795802028438
 51
218.1204197971529
 73
     1
 72
     2
 10
-219.0812311203531
 20
-258.1201100260845
 40
0.5179085730133669
 50
218.1204197971412
 51
321.8795802028666
 73
     1
 72
     2
 10
-219.2809711566993
 20
-257.963378847964
 40
0.7717997786796245
 50
321.8795802028483
 51
398.120419797155
 73
     1
 72
     2
 10
-219.0812311203531
 20
-257.8066476698435
 40
0.5179085730134915
 50
38.1204197971384
 51
141.8795802028538
 73
     1
 97
        4
330
211
330
210
330
20B
330
20A
 75
     1
 76
     0
 52
45.0
 41
0.1
 77
     0
 78
     1
 53
45.0
 43
0.0
 44
0.0
 45
-0.0707106781186548
 46
0.0707106781186548
 79
     0
 98
        1
 10
0.0
 20
0.0
  0
HATCH
  5
259
330
71
100
AcDbEntity
  8
1
  6
Continuous
 62
     2
100
AcDbHatch
 10
0.0
 20
0.0
 30
0.0
210
0.0
220
0.0
230
1.0
  2
_USER
 70
     0
 71
     1
 91
        2
 92
        1
 93
        4
 72
     2
 10
-223.3231184929799
 20
-261.3225693241384
 40
1.458034083651478
 50
117.5481481756639
 51
242.4518518243371
 73
     1
 72
     2
 10
-223.0421786011466
 20
-260.783994313835
 40
2.065479772208597
 50
242.4518518243406
 51
297.548148175686
 73
     1
 72
     2
 10
-222.7612387093133
 20
-261.3225693241384
 40
1.458034083652028
 50
297.5481481757005
 51
422.4518518242985
 73
     1
 72
     2
 10
-223.0421786011466
 20
-261.8611443344412
 40
2.065479772208543
 50
62.451851824306
 51
117.5481481756674
 73
     1
 97
        4
330
20F
330
20C
330
20E
330
20D
 92
       16
 93
        4
 72
     2
 10
-223.0421786011466
 20
-261.1658381460179
 40
0.5179085730132775
 50
38.12041979714898
 51
141.8795802028608
 73
     1
 72
     2
 10
-222.8424385648005
 20
-261.3225693241384
 40
0.771799778679468
 50
141.8795802028393
 51
218.120419797164
 73
     1
 72
     2
 10
-223.0421786011466
 20
-261.4793005022584
 40
0.5179085730137051
 50
218.1204197971838
 51
321.8795802028065
 73
     1
 72
     2
 10
-223.241918637493
 20
-261.3225693241384
 40
0.7717997786796373
 50
321.8795802028437
 51
398.1204197971529
 73
     1
 97
        4
330
1F2
330
1F3
330
1F4
330
1F1
 75
     1
 76
     0
 52
45.0
 41
0.1
 77
     0
 78
     1
 53
45.0
 43
0.0
 44
0.0
 45
-0.0707106781186548
 46
0.0707106781186548
 79
     0
 98
        1
 10
0.0
 20
0.0
  0
HATCH
  5
25A
330
71
100
AcDbEntity
  8
1
  6
Continuous
 62
     2
100
AcDbHatch
 10
0.0
 20
0.0
 30
0.0
210
0.0
220
0.0
230
1.0
  2
_USER
 70
     0
 71
     1
 91
        2
 92
        1
 93
        4
 72
     2
 10
-223.3231184929799
 20
-261.3225693241384
 40
1.458034083651478
 50
117.5481481756639
 51
242.4518518243371
 73
     1
 72
     2
 10
-223.0421786011466
 20
-260.783994313835
 40
2.065479772208597
 50
242.4518518243406
 51
297.548148175686
 73
     1
 72
     2
 10
-222.7612387093133
 20
-261.3225693241384
 40
1.458034083652028
 50
297.5481481757005
 51
422.4518518242985
 73
     1
 72
     2
 10
-223.0421786011466
 20
-261.8611443344412
 40
2.065479772208543
 50
62.451851824306
 51
117.5481481756674
 73
     1
 97
        4
330
20F
330
20C
330
20E
330
20D
 92
       16
 93
        4
 72
     2
 10
-223.0421786011466
 20
-261.1658381460179
 40
0.5179085730132775
 50
38.12041979714898
 51
141.8795802028608
 73
     1
 72
     2
 10
-222.8424385648005
 20
-261.3225693241384
 40
0.771799778679468
 50
141.8795802028393
 51
218.120419797164
 73
     1
 72
     2
 10
-223.0421786011466
 20
-261.4793005022584
 40
0.5179085730137051
 50
218.1204197971838
 51
321.8795802028065
 73
     1
 72
     2
 10
-223.241918637493
 20
-261.3225693241384
 40
0.7717997786796373
 50
321.8795802028437
 51
398.1204197971529
 73
     1
 97
        4
330
1F2
330
1F3
330
1F4
330
1F1
 75
     1
 76
     0
 52
45.0
 41
0.1
 77
     0
 78
     1
 53
45.0
 43
0.0
 44
0.0
 45
-0.0707106781186548
 46
0.0707106781186548
 79
     0
 98
        1
 10
0.0
 20
0.0
  0
HATCH
  5
25B
330
71
100
AcDbEntity
  8
1
  6
Continuous
 62
     2
100
AcDbHatch
 10
0.0
 20
0.0
 30
0.0
210
0.0
220
0.0
230
1.0
  2
_USER
 70
     0
 71
     1
 91
        2
 92
        1
 93
        6
 72
     1
 10
-227.5979933475401
 20
-256.4364740860582
 11
-227.5979933475401
 21
-259.4902836098694
 72
     1
 10
-227.5979933475401
 20
-259.4902836098694
 11
-226.357488937286
 21
-259.4902836098694
 72
     1
 10
-226.357488937286
 20
-259.4902836098694
 11
-226.357488937286
 21
-258.5472053687255
 72
     1
 10
-226.357488937286
 20
-258.5472053687255
 11
-225.5987213495057
 21
-258.5472053687255
 72
     2
 10
-225.5987213495057
 20
-257.4918397273918
 40
1.055365641333708
 50
270.0
 51
450.0
 73
     1
 72
     1
 10
-225.5987213495057
 20
-256.4364740860582
 11
-227.5979933475401
 21
-256.4364740860582
 97
        6
330
219
330
176
330
16C
330
16B
330
178
330
177
 92
       16
 93
        4
 72
     1
 10
-226.0401938757441
 20
-257.0995799314983
 11
-226.357488937286
 21
-257.0995799314983
 72
     1
 10
-226.357488937286
 20
-257.0995799314983
 11
-226.357488937286
 21
-257.8053075808405
 72
     1
 10
-226.357488937286
 20
-257.8053075808405
 11
-226.0401938757441
 21
-257.8053075808405
 72
     2
 10
-226.0401938757441
 20
-257.4524437561694
 40
0.3528638246711466
 50
270.0
 51
450.0
 73
     1
 97
        4
330
179
330
16A
330
17A
330
205
 75
     1
 76
     0
 52
45.0
 41
0.1
 77
     0
 78
     1
 53
45.0
 43
0.0
 44
0.0
 45
-0.0707106781186548
 46
0.0707106781186548
 79
     0
 98
        1
 10
0.0
 20
0.0
  0
HATCH
  5
25C
330
71
100
AcDbEntity
  8
1
  6
Continuous
 62
     2
100
AcDbHatch
 10
0.0
 20
0.0
 30
0.0
210
0.0
220
0.0
230
1.0
  2
_USER
 70
     0
 71
     1
 91
        2
 92
        1
 93
        6
 72
     1
 10
-227.5979933475401
 20
-256.4364740860582
 11
-227.5979933475401
 21
-259.4902836098694
 72
     1
 10
-227.5979933475401
 20
-259.4902836098694
 11
-226.357488937286
 21
-259.4902836098694
 72
     1
 10
-226.357488937286
 20
-259.4902836098694
 11
-226.357488937286
 21
-258.5472053687255
 72
     1
 10
-226.357488937286
 20
-258.5472053687255
 11
-225.5987213495057
 21
-258.5472053687255
 72
     2
 10
-225.5987213495057
 20
-257.4918397273918
 40
1.055365641333708
 50
270.0
 51
450.0
 73
     1
 72
     1
 10
-225.5987213495057
 20
-256.4364740860582
 11
-227.5979933475401
 21
-256.4364740860582
 97
        6
330
219
330
176
330
16C
330
16B
330
178
330
177
 92
       16
 93
        4
 72
     1
 10
-226.0401938757441
 20
-257.0995799314983
 11
-226.357488937286
 21
-257.0995799314983
 72
     1
 10
-226.357488937286
 20
-257.0995799314983
 11
-226.357488937286
 21
-257.8053075808405
 72
     1
 10
-226.357488937286
 20
-257.8053075808405
 11
-226.0401938757441
 21
-257.8053075808405
 72
     2
 10
-226.0401938757441
 20
-257.4524437561694
 40
0.3528638246711466
 50
270.0
 51
450.0
 73
     1
 97
        4
330
179
330
16A
330
17A
330
205
 75
     1
 76
     0
 52
45.0
 41
0.1
 77
     0
 78
     1
 53
45.0
 43
0.0
 44
0.0
 45
-0.0707106781186548
 46
0.0707106781186548
 79
     0
 98
        1
 10
0.0
 20
0.0
  0
HATCH
  5
25D
330
71
100
AcDbEntity
  8
1
  6
Continuous
 62
     2
100
AcDbHatch
 10
0.0
 20
0.0
 30
0.0
210
0.0
220
0.0
230
1.0
  2
_USER
 70
     0
 71
     1
 91
        1
 92
        1
 93
       12
 72
     1
 10
-207.9837101531069
 20
-256.4364740860582
 11
-206.5809859353597
 21
-256.4364740860582
 72
     1
 10
-206.5809859353597
 20
-256.4364740860582
 11
-207.8835155661262
 21
-257.9094246160944
 72
     1
 10
-207.8835155661262
 20
-257.9094246160944
 11
-206.4855625191859
 21
-259.4902836098694
 72
     1
 10
-206.4855625191859
 20
-259.4902836098694
 11
-207.8882867369342
 21
-259.4902836098694
 72
     1
 10
-207.8882867369342
 20
-259.4902836098694
 11
-208.5848776749997
 21
-258.7025518245756
 72
     1
 10
-208.5848776749997
 20
-258.7025518245756
 11
-209.2814686130654
 21
-259.4902836098694
 72
     1
 10
-209.2814686130654
 20
-259.4902836098694
 11
-210.6841928308136
 21
-259.4902836098694
 72
     1
 10
-210.6841928308136
 20
-259.4902836098694
 11
-209.2862397838733
 21
-257.9094246160944
 72
     1
 10
-209.2862397838733
 20
-257.9094246160944
 11
-210.5887694146408
 21
-256.4364740860582
 72
     1
 10
-210.5887694146408
 20
-256.4364740860582
 11
-209.1860451968915
 21
-256.4364740860582
 72
     1
 10
-209.1860451968915
 20
-256.4364740860582
 11
-208.5848776749997
 21
-257.1162974076136
 72
     1
 10
-208.5848776749997
 20
-257.1162974076136
 11
-207.9837101531069
 21
-256.4364740860582
 97
       12
330
145
330
19E
330
19D
330
19C
330
19B
330
146
330
147
330
143
330
144
330
1A1
330
1A0
330
19F
 75
     1
 76
     0
 52
45.0
 41
0.1
 77
     0
 78
     1
 53
45.0
 43
0.0
 44
0.0
 45
-0.0707106781186548
 46
0.0707106781186548
 79
     0
 98
        1
 10
0.0
 20
0.0
  0
HATCH
  5
25E
330
71
100
AcDbEntity
  8
1
  6
Continuous
 62
     2
100
AcDbHatch
 10
0.0
 20
0.0
 30
0.0
210
0.0
220
0.0
230
1.0
  2
_USER
 70
     0
 71
     1
 91
        1
 92
        1
 93
       12
 72
     1
 10
-207.9837101531069
 20
-256.4364740860582
 11
-206.5809859353597
 21
-256.4364740860582
 72
     1
 10
-206.5809859353597
 20
-256.4364740860582
 11
-207.8835155661262
 21
-257.9094246160944
 72
     1
 10
-207.8835155661262
 20
-257.9094246160944
 11
-206.4855625191859
 21
-259.4902836098694
 72
     1
 10
-206.4855625191859
 20
-259.4902836098694
 11
-207.8882867369342
 21
-259.4902836098694
 72
     1
 10
-207.8882867369342
 20
-259.4902836098694
 11
-208.5848776749997
 21
-258.7025518245756
 72
     1
 10
-208.5848776749997
 20
-258.7025518245756
 11
-209.2814686130654
 21
-259.4902836098694
 72
     1
 10
-209.2814686130654
 20
-259.4902836098694
 11
-210.6841928308136
 21
-259.4902836098694
 72
     1
 10
-210.6841928308136
 20
-259.4902836098694
 11
-209.2862397838733
 21
-257.9094246160944
 72
     1
 10
-209.2862397838733
 20
-257.9094246160944
 11
-210.5887694146408
 21
-256.4364740860582
 72
     1
 10
-210.5887694146408
 20
-256.4364740860582
 11
-209.1860451968915
 21
-256.4364740860582
 72
     1
 10
-209.1860451968915
 20
-256.4364740860582
 11
-208.5848776749997
 21
-257.1162974076136
 72
     1
 10
-208.5848776749997
 20
-257.1162974076136
 11
-207.9837101531069
 21
-256.4364740860582
 97
       12
330
145
330
19E
330
19D
330
19C
330
19B
330
146
330
147
330
143
330
144
330
1A1
330
1A0
330
19F
 75
     1
 76
     0
 52
45.0
 41
0.1
 77
     0
 78
     1
 53
45.0
 43
0.0
 44
0.0
 45
-0.0707106781186548
 46
0.0707106781186548
 79
     0
 98
        1
 10
0.0
 20
0.0
  0
HATCH
  5
25F
330
71
100
AcDbEntity
  8
1
  6
Continuous
 62
     2
100
AcDbHatch
 10
0.0
 20
0.0
 30
0.0
210
0.0
220
0.0
230
1.0
  2
_USER
 70
     0
 71
     1
 91
        1
 92
        1
 93
        4
 72
     1
 10
-210.8034721010305
 20
-256.4364740860582
 11
-210.8034721010305
 21
-259.4902836098694
 72
     1
 10
-210.8034721010305
 20
-259.4902836098694
 11
-212.0439765112834
 21
-259.4902836098694
 72
     1
 10
-212.0439765112834
 20
-259.4902836098694
 11
-212.0439765112834
 21
-256.4364740860582
 72
     1
 10
-212.0439765112834
 20
-256.4364740860582
 11
-210.8034721010305
 21
-256.4364740860582
 97
        4
330
199
330
148
330
198
330
19A
 75
     1
 76
     0
 52
45.0
 41
0.1
 77
     0
 78
     1
 53
45.0
 43
0.0
 44
0.0
 45
-0.0707106781186548
 46
0.0707106781186548
 79
     0
 98
        1
 10
0.0
 20
0.0
  0
HATCH
  5
260
330
71
100
AcDbEntity
  8
1
  6
Continuous
 62
     2
100
AcDbHatch
 10
0.0
 20
0.0
 30
0.0
210
0.0
220
0.0
230
1.0
  2
_USER
 70
     0
 71
     1
 91
        1
 92
        1
 93
        4
 72
     1
 10
-210.8034721010305
 20
-256.4364740860582
 11
-210.8034721010305
 21
-259.4902836098694
 72
     1
 10
-210.8034721010305
 20
-259.4902836098694
 11
-212.0439765112834
 21
-259.4902836098694
 72
     1
 10
-212.0439765112834
 20
-259.4902836098694
 11
-212.0439765112834
 21
-256.4364740860582
 72
     1
 10
-212.0439765112834
 20
-256.4364740860582
 11
-210.8034721010305
 21
-256.4364740860582
 97
        4
330
199
330
148
330
198
330
19A
 75
     1
 76
     0
 52
45.0
 41
0.1
 77
     0
 78
     1
 53
45.0
 43
0.0
 44
0.0
 45
-0.0707106781186548
 46
0.0707106781186548
 79
     0
 98
        1
 10
0.0
 20
0.0
  0
HATCH
  5
261
330
71
100
AcDbEntity
  8
1
  6
Continuous
 62
     2
100
AcDbHatch
 10
0.0
 20
0.0
 30
0.0
210
0.0
220
0.0
230
1.0
  2
_USER
 70
     0
 71
     1
 91
        2
 92
        1
 93
        8
 72
     1
 10
-211.1939161045625
 20
-262.8494740860436
 11
-212.4344205148164
 21
-262.8494740860436
 72
     1
 10
-212.4344205148164
 20
-262.8494740860436
 11
-212.6459005682922
 21
-262.3085135418257
 72
     1
 10
-212.6459005682922
 20
-262.3085135418257
 11
-213.778342144966
 21
-262.3085135418257
 72
     1
 10
-213.778342144966
 20
-262.3085135418257
 11
-213.9898221984418
 21
-262.8494740860436
 72
     1
 10
-213.9898221984418
 20
-262.8494740860436
 11
-215.2303266086948
 21
-262.8494740860436
 72
     1
 10
-215.2303266086948
 20
-262.8494740860436
 11
-213.8323735617555
 21
-259.7956645622326
 72
     1
 10
-213.8323735617555
 20
-259.7956645622326
 11
-212.5918691515028
 21
-259.7956645622326
 72
     1
 10
-212.5918691515028
 20
-259.7956645622326
 11
-211.1939161045625
 21
-262.8494740860436
 97
        8
330
194
330
14E
330
193
330
196
330
14B
330
195
330
14C
330
14D
 92
       16
 93
        3
 72
     1
 10
-213.512286593821
 20
-261.6279502765192
 11
-212.9119561194385
 21
-261.6279502765192
 72
     1
 10
-212.9119561194385
 20
-261.6279502765192
 11
-213.2121213566286
 21
-260.8601353105324
 72
     1
 10
-213.2121213566286
 20
-260.8601353105324
 11
-213.512286593821
 21
-261.6279502765192
 97
        3
330
14A
330
149
330
197
 75
     1
 76
     0
 52
45.0
 41
0.1
 77
     0
 78
     1
 53
45.0
 43
0.0
 44
0.0
 45
-0.0707106781186548
 46
0.0707106781186548
 79
     0
 98
        1
 10
0.0
 20
0.0
  0
HATCH
  5
262
330
71
100
AcDbEntity
  8
1
  6
Continuous
 62
     2
100
AcDbHatch
 10
0.0
 20
0.0
 30
0.0
210
0.0
220
0.0
230
1.0
  2
_USER
 70
     0
 71
     1
 91
        2
 92
        1
 93
        8
 72
     1
 10
-211.1939161045625
 20
-262.8494740860436
 11
-212.4344205148164
 21
-262.8494740860436
 72
     1
 10
-212.4344205148164
 20
-262.8494740860436
 11
-212.6459005682922
 21
-262.3085135418257
 72
     1
 10
-212.6459005682922
 20
-262.3085135418257
 11
-213.778342144966
 21
-262.3085135418257
 72
     1
 10
-213.778342144966
 20
-262.3085135418257
 11
-213.9898221984418
 21
-262.8494740860436
 72
     1
 10
-213.9898221984418
 20
-262.8494740860436
 11
-215.2303266086948
 21
-262.8494740860436
 72
     1
 10
-215.2303266086948
 20
-262.8494740860436
 11
-213.8323735617555
 21
-259.7956645622326
 72
     1
 10
-213.8323735617555
 20
-259.7956645622326
 11
-212.5918691515028
 21
-259.7956645622326
 72
     1
 10
-212.5918691515028
 20
-259.7956645622326
 11
-211.1939161045625
 21
-262.8494740860436
 97
        8
330
194
330
14E
330
193
330
196
330
14B
330
195
330
14C
330
14D
 92
       16
 93
        3
 72
     1
 10
-213.512286593821
 20
-261.6279502765192
 11
-212.9119561194385
 21
-261.6279502765192
 72
     1
 10
-212.9119561194385
 20
-261.6279502765192
 11
-213.2121213566286
 21
-260.8601353105324
 72
     1
 10
-213.2121213566286
 20
-260.8601353105324
 11
-213.512286593821
 21
-261.6279502765192
 97
        3
330
14A
330
149
330
197
 75
     1
 76
     0
 52
45.0
 41
0.1
 77
     0
 78
     1
 53
45.0
 43
0.0
 44
0.0
 45
-0.0707106781186548
 46
0.0707106781186548
 79
     0
 98
        1
 10
0.0
 20
0.0
  0
HATCH
  5
263
330
71
100
AcDbEntity
  8
1
  6
Continuous
 62
     2
100
AcDbHatch
 10
0.0
 20
0.0
 30
0.0
210
0.0
220
0.0
230
1.0
  2
_USER
 70
     0
 71
     1
 91
        1
 92
        1
 93
        8
 72
     1
 10
-217.387838747877
 20
-259.7956645622326
 11
-217.387838747877
 21
-260.5809298683562
 72
     1
 10
-217.387838747877
 20
-260.5809298683562
 11
-216.5767397104024
 21
-260.5809298683562
 72
     1
 10
-216.5767397104024
 20
-260.5809298683562
 11
-216.5767397104024
 21
-262.8494740860436
 72
     1
 10
-216.5767397104024
 20
-262.8494740860436
 11
-215.3839470082359
 21
-262.8494740860436
 72
     1
 10
-215.3839470082359
 20
-262.8494740860436
 11
-215.3839470082359
 21
-260.5809298683562
 72
     1
 10
-215.3839470082359
 20
-260.5809298683562
 11
-214.5728479707634
 21
-260.5809298683562
 72
     1
 10
-214.5728479707634
 20
-260.5809298683562
 11
-214.5728479707634
 21
-259.7956645622326
 72
     1
 10
-214.5728479707634
 20
-259.7956645622326
 11
-217.387838747877
 21
-259.7956645622326
 97
        8
330
190
330
18F
330
18E
330
14F
330
150
330
192
330
151
330
191
 75
     1
 76
     0
 52
45.0
 41
0.1
 77
     0
 78
     1
 53
45.0
 43
0.0
 44
0.0
 45
-0.0707106781186548
 46
0.0707106781186548
 79
     0
 98
        1
 10
0.0
 20
0.0
  0
HATCH
  5
264
330
71
100
AcDbEntity
  8
1
  6
Continuous
 62
     2
100
AcDbHatch
 10
0.0
 20
0.0
 30
0.0
210
0.0
220
0.0
230
1.0
  2
_USER
 70
     0
 71
     1
 91
        1
 92
        1
 93
        8
 72
     1
 10
-217.387838747877
 20
-259.7956645622326
 11
-217.387838747877
 21
-260.5809298683562
 72
     1
 10
-217.387838747877
 20
-260.5809298683562
 11
-216.5767397104024
 21
-260.5809298683562
 72
     1
 10
-216.5767397104024
 20
-260.5809298683562
 11
-216.5767397104024
 21
-262.8494740860436
 72
     1
 10
-216.5767397104024
 20
-262.8494740860436
 11
-215.3839470082359
 21
-262.8494740860436
 72
     1
 10
-215.3839470082359
 20
-262.8494740860436
 11
-215.3839470082359
 21
-260.5809298683562
 72
     1
 10
-215.3839470082359
 20
-260.5809298683562
 11
-214.5728479707634
 21
-260.5809298683562
 72
     1
 10
-214.5728479707634
 20
-260.5809298683562
 11
-214.5728479707634
 21
-259.7956645622326
 72
     1
 10
-214.5728479707634
 20
-259.7956645622326
 11
-217.387838747877
 21
-259.7956645622326
 97
        8
330
190
330
18F
330
18E
330
14F
330
150
330
192
330
151
330
191
 75
     1
 76
     0
 52
45.0
 41
0.1
 77
     0
 78
     1
 53
45.0
 43
0.0
 44
0.0
 45
-0.0707106781186548
 46
0.0707106781186548
 79
     0
 98
        1
 10
0.0
 20
0.0
  0
HATCH
  5
265
330
71
100
AcDbEntity
  8
1
  6
Continuous
 62
     2
100
AcDbHatch
 10
0.0
 20
0.0
 30
0.0
210
0.0
220
0.0
230
1.0
  2
_USER
 70
     0
 71
     1
 91
        1
 92
        1
 93
       10
 72
     1
 10
-214.7158321641379
 20
-256.4364740860582
 11
-215.9086248663044
 21
-256.4364740860582
 72
     1
 10
-215.9086248663044
 20
-256.4364740860582
 11
-215.9086248663044
 21
-259.4902836098694
 72
     1
 10
-215.9086248663044
 20
-259.4902836098694
 11
-214.7158321641379
 21
-259.4902836098694
 72
     1
 10
-214.7158321641379
 20
-259.4902836098694
 11
-214.7158321641379
 21
-258.1815080996647
 72
     1
 10
-214.7158321641379
 20
-258.1815080996647
 11
-213.4753277538839
 21
-259.4902836098694
 72
     1
 10
-213.4753277538839
 20
-259.4902836098694
 11
-212.2825350517173
 21
-259.4902836098694
 72
     1
 10
-212.2825350517173
 20
-259.4902836098694
 11
-212.2825350517173
 21
-256.4364740860582
 72
     1
 10
-212.2825350517173
 20
-256.4364740860582
 11
-213.4753277538839
 21
-256.4364740860582
 72
     1
 10
-213.4753277538839
 20
-256.4364740860582
 11
-213.4753277538839
 21
-257.7452495962633
 72
     1
 10
-213.4753277538839
 20
-257.7452495962633
 11
-214.7158321641379
 21
-256.4364740860582
 97
       10
330
18A
330
154
330
155
330
156
330
157
330
18D
330
152
330
18C
330
18B
330
153
 75
     1
 76
     0
 52
45.0
 41
0.1
 77
     0
 78
     1
 53
45.0
 43
0.0
 44
0.0
 45
-0.0707106781186548
 46
0.0707106781186548
 79
     0
 98
        1
 10
0.0
 20
0.0
  0
HATCH
  5
266
330
71
100
AcDbEntity
  8
1
  6
Continuous
 62
     2
100
AcDbHatch
 10
0.0
 20
0.0
 30
0.0
210
0.0
220
0.0
230
1.0
  2
_USER
 70
     0
 71
     1
 91
        1
 92
        1
 93
       10
 72
     1
 10
-214.7158321641379
 20
-256.4364740860582
 11
-215.9086248663044
 21
-256.4364740860582
 72
     1
 10
-215.9086248663044
 20
-256.4364740860582
 11
-215.9086248663044
 21
-259.4902836098694
 72
     1
 10
-215.9086248663044
 20
-259.4902836098694
 11
-214.7158321641379
 21
-259.4902836098694
 72
     1
 10
-214.7158321641379
 20
-259.4902836098694
 11
-214.7158321641379
 21
-258.1815080996647
 72
     1
 10
-214.7158321641379
 20
-258.1815080996647
 11
-213.4753277538839
 21
-259.4902836098694
 72
     1
 10
-213.4753277538839
 20
-259.4902836098694
 11
-212.2825350517173
 21
-259.4902836098694
 72
     1
 10
-212.2825350517173
 20
-259.4902836098694
 11
-212.2825350517173
 21
-256.4364740860582
 72
     1
 10
-212.2825350517173
 20
-256.4364740860582
 11
-213.4753277538839
 21
-256.4364740860582
 72
     1
 10
-213.4753277538839
 20
-256.4364740860582
 11
-213.4753277538839
 21
-257.7452495962633
 72
     1
 10
-213.4753277538839
 20
-257.7452495962633
 11
-214.7158321641379
 21
-256.4364740860582
 97
       10
330
18A
330
154
330
155
330
156
330
157
330
18D
330
152
330
18C
330
18B
330
153
 75
     1
 76
     0
 52
45.0
 41
0.1
 77
     0
 78
     1
 53
45.0
 43
0.0
 44
0.0
 45
-0.0707106781186548
 46
0.0707106781186548
 79
     0
 98
        1
 10
0.0
 20
0.0
  0
HATCH
  5
267
330
71
100
AcDbEntity
  8
1
  6
Continuous
 62
     2
100
AcDbHatch
 10
0.0
 20
0.0
 30
0.0
210
0.0
220
0.0
230
1.0
  2
_USER
 70
     0
 71
     1
 91
        1
 92
        1
 93
       10
 72
     1
 10
-219.9642709845565
 20
-259.7956645622326
 11
-221.1570636867241
 21
-259.7956645622326
 72
     1
 10
-221.1570636867241
 20
-259.7956645622326
 11
-221.1570636867241
 21
-262.8494740860436
 72
     1
 10
-221.1570636867241
 20
-262.8494740860436
 11
-219.9642709845565
 21
-262.8494740860436
 72
     1
 10
-219.9642709845565
 20
-262.8494740860436
 11
-219.9642709845565
 21
-261.5406985758391
 72
     1
 10
-219.9642709845565
 20
-261.5406985758391
 11
-218.7237665743036
 21
-262.8494740860436
 72
     1
 10
-218.7237665743036
 20
-262.8494740860436
 11
-217.5309738721372
 21
-262.8494740860436
 72
     1
 10
-217.5309738721372
 20
-262.8494740860436
 11
-217.5309738721372
 21
-259.7956645622326
 72
     1
 10
-217.5309738721372
 20
-259.7956645622326
 11
-218.7237665743036
 21
-259.7956645622326
 72
     1
 10
-218.7237665743036
 20
-259.7956645622326
 11
-218.7237665743036
 21
-261.1044400724377
 72
     1
 10
-218.7237665743036
 20
-261.1044400724377
 11
-219.9642709845565
 21
-259.7956645622326
 97
       10
330
159
330
15A
330
15B
330
187
330
15C
330
15D
330
186
330
189
330
188
330
158
 75
     1
 76
     0
 52
45.0
 41
0.1
 77
     0
 78
     1
 53
45.0
 43
0.0
 44
0.0
 45
-0.0707106781186548
 46
0.0707106781186548
 79
     0
 98
        1
 10
0.0
 20
0.0
  0
HATCH
  5
268
330
71
100
AcDbEntity
  8
1
  6
Continuous
 62
     2
100
AcDbHatch
 10
0.0
 20
0.0
 30
0.0
210
0.0
220
0.0
230
1.0
  2
_USER
 70
     0
 71
     1
 91
        1
 92
        1
 93
       10
 72
     1
 10
-219.9642709845565
 20
-259.7956645622326
 11
-221.1570636867241
 21
-259.7956645622326
 72
     1
 10
-221.1570636867241
 20
-259.7956645622326
 11
-221.1570636867241
 21
-262.8494740860436
 72
     1
 10
-221.1570636867241
 20
-262.8494740860436
 11
-219.9642709845565
 21
-262.8494740860436
 72
     1
 10
-219.9642709845565
 20
-262.8494740860436
 11
-219.9642709845565
 21
-261.5406985758391
 72
     1
 10
-219.9642709845565
 20
-261.5406985758391
 11
-218.7237665743036
 21
-262.8494740860436
 72
     1
 10
-218.7237665743036
 20
-262.8494740860436
 11
-217.5309738721372
 21
-262.8494740860436
 72
     1
 10
-217.5309738721372
 20
-262.8494740860436
 11
-217.5309738721372
 21
-259.7956645622326
 72
     1
 10
-217.5309738721372
 20
-259.7956645622326
 11
-218.7237665743036
 21
-259.7956645622326
 72
     1
 10
-218.7237665743036
 20
-259.7956645622326
 11
-218.7237665743036
 21
-261.1044400724377
 72
     1
 10
-218.7237665743036
 20
-261.1044400724377
 11
-219.9642709845565
 21
-259.7956645622326
 97
       10
330
159
330
15A
330
15B
330
187
330
15C
330
15D
330
186
330
189
330
188
330
158
 75
     1
 76
     0
 52
45.0
 41
0.1
 77
     0
 78
     1
 53
45.0
 43
0.0
 44
0.0
 45
-0.0707106781186548
 46
0.0707106781186548
 79
     0
 98
        1
 10
0.0
 20
0.0
  0
HATCH
  5
269
330
71
100
AcDbEntity
  8
1
  6
Continuous
 62
     2
100
AcDbHatch
 10
0.0
 20
0.0
 30
0.0
210
0.0
220
0.0
230
1.0
  2
_USER
 70
     0
 71
     1
 91
        1
 92
        1
 93
       12
 72
     1
 10
-220.9660659234919
 20
-256.4364740860582
 11
-220.9660659234919
 21
-259.4902836098694
 72
     1
 10
-220.9660659234919
 20
-259.4902836098694
 11
-222.1588586256583
 21
-259.4902836098694
 72
     1
 10
-222.1588586256583
 20
-259.4902836098694
 11
-222.1588586256583
 21
-258.3560115010255
 72
     1
 10
-222.1588586256583
 20
-258.3560115010255
 11
-223.2085162035658
 21
-258.3560115010255
 72
     1
 10
-223.2085162035658
 20
-258.3560115010255
 11
-223.2085162035658
 21
-259.4902836098694
 72
     1
 10
-223.2085162035658
 20
-259.4902836098694
 11
-224.4013089057324
 21
-259.4902836098694
 72
     1
 10
-224.4013089057324
 20
-259.4902836098694
 11
-224.4013089057324
 21
-256.4364740860582
 72
     1
 10
-224.4013089057324
 20
-256.4364740860582
 11
-223.2085162035658
 21
-256.4364740860582
 72
     1
 10
-223.2085162035658
 20
-256.4364740860582
 11
-223.2085162035658
 21
-257.5053074193928
 72
     1
 10
-223.2085162035658
 20
-257.5053074193928
 11
-222.1588586256583
 21
-257.5053074193928
 72
     1
 10
-222.1588586256583
 20
-257.5053074193928
 11
-222.1588586256583
 21
-256.4364740860582
 72
     1
 10
-222.1588586256583
 20
-256.4364740860582
 11
-220.9660659234919
 21
-256.4364740860582
 97
       12
330
181
330
180
330
17F
330
167
330
168
330
17E
330
169
330
17D
330
17C
330
17B
330
165
330
166
 75
     1
 76
     0
 52
45.0
 41
0.1
 77
     0
 78
     1
 53
45.0
 43
0.0
 44
0.0
 45
-0.0707106781186548
 46
0.0707106781186548
 79
     0
 98
        1
 10
0.0
 20
0.0
  0
HATCH
  5
26A
330
71
100
AcDbEntity
  8
1
  6
Continuous
 62
     2
100
AcDbHatch
 10
0.0
 20
0.0
 30
0.0
210
0.0
220
0.0
230
1.0
  2
_USER
 70
     0
 71
     1
 91
        1
 92
        1
 93
       12
 72
     1
 10
-220.9660659234919
 20
-256.4364740860582
 11
-220.9660659234919
 21
-259.4902836098694
 72
     1
 10
-220.9660659234919
 20
-259.4902836098694
 11
-222.1588586256583
 21
-259.4902836098694
 72
     1
 10
-222.1588586256583
 20
-259.4902836098694
 11
-222.1588586256583
 21
-258.3560115010255
 72
     1
 10
-222.1588586256583
 20
-258.3560115010255
 11
-223.2085162035658
 21
-258.3560115010255
 72
     1
 10
-223.2085162035658
 20
-258.3560115010255
 11
-223.2085162035658
 21
-259.4902836098694
 72
     1
 10
-223.2085162035658
 20
-259.4902836098694
 11
-224.4013089057324
 21
-259.4902836098694
 72
     1
 10
-224.4013089057324
 20
-259.4902836098694
 11
-224.4013089057324
 21
-256.4364740860582
 72
     1
 10
-224.4013089057324
 20
-256.4364740860582
 11
-223.2085162035658
 21
-256.4364740860582
 72
     1
 10
-223.2085162035658
 20
-256.4364740860582
 11
-223.2085162035658
 21
-257.5053074193928
 72
     1
 10
-223.2085162035658
 20
-257.5053074193928
 11
-222.1588586256583
 21
-257.5053074193928
 72
     1
 10
-222.1588586256583
 20
-257.5053074193928
 11
-222.1588586256583
 21
-256.4364740860582
 72
     1
 10
-222.1588586256583
 20
-256.4364740860582
 11
-220.9660659234919
 21
-256.4364740860582
 97
       12
330
181
330
180
330
17F
330
167
330
168
330
17E
330
169
330
17D
330
17C
330
17B
330
165
330
166
 75
     1
 76
     0
 52
45.0
 41
0.1
 77
     0
 78
     1
 53
45.0
 43
0.0
 44
0.0
 45
-0.0707106781186548
 46
0.0707106781186548
 79
     0
 98
        1
 10
0.0
 20
0.0
  0
ENDBLK
  5
73
330
71
100
AcDbEntity
  8
0
100
AcDbBlockEnd
  0
BLOCK
  5
75
330
74
100
AcDbEntity
  8
0
100
AcDbBlockBegin
  2
_punkt
 70
     0
 10
-109.088762109703
 20
-270.14297408606
 30
0.0
  3
_punkt
  1

  0
LINE
  5
26B
330
74
100
AcDbEntity
  8
1
  6
Continuous
 62
     2
100
AcDbLine
 10
-109.088762109703
 20
-270.14297408606
 30
0.0
 11
-109.088762109703
 21
-275.1429740860601
 31
0.0
  0
LINE
  5
26C
330
74
100
AcDbEntity
  8
1
  6
Continuous
 62
     2
100
AcDbLine
 10
-109.088762109703
 20
-270.14297408606
 30
0.0
 11
-104.088762109704
 21
-270.14297408606
 31
0.0
  0
ENDBLK
  5
76
330
74
100
AcDbEntity
  8
0
100
AcDbBlockEnd
  0
BLOCK
  5
7A
330
77
100
AcDbEntity
  8
0
100
AcDbBlockBegin
  2
A4I_CS
 70
     0
 10
-109.088762109703
 20
-275.1429740860601
 30
0.0
  3
A4I_CS
  1

  0
INSERT
  5
78
330
77
100
AcDbEntity
  8
1
100
AcDbBlockReference
  2
_rahmen
 10
-109.088762109703
 20
-275.1429740860601
 30
0.0
  0
INSERT
  5
79
330
77
100
AcDbEntity
  8
1
100
AcDbBlockReference
  2
_punkt
 10
-109.088762109703
 20
-270.14297408606
 30
0.0
  0
ENDBLK
  5
7B
330
77
100
AcDbEntity
  8
0
100
AcDbBlockEnd
  0
BLOCK
  5
84
330
7C
100
AcDbEntity
  8
0
100
AcDbBlockBegin
  2
1
 70
     0
 10
0.0
 20
0.0
 30
0.0
  3
1
  1

  0
INSERT
  5
7D
330
7C
100
AcDbEntity
  8
0
100
AcDbBlockReference
  2
Allg1
 10
-167.5599822035382
 20
-204.000000000024
 30
0.0
 41
2.0
 42
2.0
 43
2.0
  0
INSERT
  5
7E
330
7C
100
AcDbEntity
  8
0
100
AcDbBlockReference
  2
Drfsicht1
 10
-277.999999999985
 20
-200.000000000015
 30
0.0
 41
2.0
 42
2.0
 43
2.0
  0
INSERT
  5
7F
330
7C
100
AcDbEntity
  8
0
100
AcDbBlockReference
  2
Rckans1
 10
-167.00000000003
 20
-123.00000000001
 30
0.0
 41
2.0
 42
2.0
 43
2.0
  0
INSERT
  5
80
330
7C
100
AcDbEntity
  8
0
100
AcDbBlockReference
  2
SA_Links1
 10
-217.99999999999
 20
-123.00000000001
 30
0.0
 41
2.0
 42
2.0
 43
2.0
  0
INSERT
  5
81
330
7C
100
AcDbEntity
  8
0
100
AcDbBlockReference
  2
SA_Rechts1
 10
-328.00000000001
 20
-123.00000000001
 30
0.0
 41
2.0
 42
2.0
 43
2.0
  0
INSERT
  5
82
330
7C
100
AcDbEntity
  8
0
100
AcDbBlockReference
  2
Vordans1
 10
-277.999999999985
 20
-123.00000000001
 30
0.0
 41
2.0
 42
2.0
 43
2.0
  0
INSERT
  5
83
330
7C
100
AcDbEntity
  8
0
100
AcDbBlockReference
  2
A4I_CS
 10
-109.088762109703
 20
-275.1429740860601
 30
0.0
  0
ENDBLK
  5
85
330
7C
100
AcDbEntity
  8
0
100
AcDbBlockEnd
  0
BLOCK
  5
F2
330
EB
100
AcDbEntity
  8
0
100
AcDbBlockBegin
  2
*D17
 70
     1
 10
0.0
 20
0.0
 30
0.0
  3
*D17
  1

  0
LINE
  5
EC
330
EB
100
AcDbEntity
  8
1
  6
Continuous
 62
     2
100
AcDbLine
 10
-121.4948649633733
 20
-77.30000000001
 30
0.0
 11
-96.50513503659668
 21
-77.30000000001
 31
0.0
  0
LINE
  5
ED
330
EB
100
AcDbEntity
  8
1
  6
Continuous
 62
     2
100
AcDbLine
 10
-121.4948649633733
 20
-61.14174095031036
 30
0.0
 11
-121.4948649633733
 21
-78.05000000001
 31
0.0
  0
LINE
  5
EE
330
EB
100
AcDbEntity
  8
1
  6
Continuous
 62
     2
100
AcDbLine
 10
-96.50513503659668
 20
-61.14174095031038
 30
0.0
 11
-96.50513503659668
 21
-78.05000000001
 31
0.0
  0
SOLID
  5
EF
330
EB
100
AcDbEntity
  8
1
 62
     2
100
AcDbTrace
 10
-119.7448649633733
 20
-77.06960812923207
 30
0.0
 11
-119.7448649633733
 21
-77.53039187078794
 31
0.0
 12
-121.4948649633733
 22
-77.30000000001
 32
0.0
 13
-121.4948649633733
 23
-77.30000000001
 33
0.0
  0
SOLID
  5
F0
330
EB
100
AcDbEntity
  8
1
 62
     2
100
AcDbTrace
 10
-98.25513503659668
 20
-77.53039187078794
 30
0.0
 11
-98.25513503659668
 21
-77.06960812923207
 31
0.0
 12
-96.50513503659668
 22
-77.30000000001
 32
0.0
 13
-96.50513503659668
 23
-77.30000000001
 33
0.0
  0
MTEXT
  5
F1
330
EB
100
AcDbEntity
  8
1
 62
     3
100
AcDbMText
 10
-111.45893945738
 20
-76.37500000000999
 30
0.0
 40
1.75
 41
0.0
 71
     7
 72
     1
  1
24,99
  7
CONVERTER_11
 11
0.9999999999970619
 21
2.424068405545306E-6
 31
0.0
 73
     1
 44
0.60024009603842
  0
ENDBLK
  5
F3
330
EB
100
AcDbEntity
  8
0
100
AcDbBlockEnd
  0
BLOCK
  5
FD
330
F6
100
AcDbEntity
  8
0
100
AcDbBlockBegin
  2
*D18
 70
     1
 10
0.0
 20
0.0
 30
0.0
  3
*D18
  1

  0
LINE
  5
F7
330
F6
100
AcDbEntity
  8
1
  6
Continuous
 62
     2
100
AcDbLine
 10
-125.924773863509
 20
-72.50000000001
 30
0.0
 11
-125.924773863509
 21
-50.50000000001
 31
0.0
  0
LINE
  5
F8
330
F6
100
AcDbEntity
  8
1
  6
Continuous
 62
     2
100
AcDbLine
 10
-114.937171043504
 20
-72.50000000001
 30
0.0
 11
-126.674773863509
 21
-72.50000000001
 31
0.0
  0
LINE
  5
F9
330
F6
100
AcDbEntity
  8
1
  6
Continuous
 62
     2
100
AcDbLine
 10
-114.937171043504
 20
-50.50000000001
 30
0.0
 11
-126.674773863509
 21
-50.50000000001
 31
0.0
  0
SOLID
  5
FA
330
F6
100
AcDbEntity
  8
1
 62
     2
100
AcDbTrace
 10
-126.1551657342869
 20
-70.75000000001
 30
0.0
 11
-125.6943819927311
 21
-70.75000000001
 31
0.0
 12
-125.924773863509
 22
-72.50000000001
 32
0.0
 13
-125.924773863509
 23
-72.50000000001
 33
0.0
  0
SOLID
  5
FB
330
F6
100
AcDbEntity
  8
1
 62
     2
100
AcDbTrace
 10
-125.6943819927311
 20
-52.25000000001
 30
0.0
 11
-126.1551657342869
 21
-52.25000000001
 31
0.0
 12
-125.924773863509
 22
-50.50000000001
 32
0.0
 13
-125.924773863509
 23
-50.50000000001
 33
0.0
  0
MTEXT
  5
FC
330
F6
100
AcDbEntity
  8
1
 62
     3
100
AcDbMText
 10
-126.674773863509
 20
-62.81250000001
 30
0.0
 40
1.75
 41
0.0
 71
     7
 72
     1
  1
22
  7
CONVERTER_11
 11
0.0
 21
1.0
 31
0.0
 73
     1
 44
0.60024009603842
  0
ENDBLK
  5
FE
330
F6
100
AcDbEntity
  8
0
100
AcDbBlockEnd
  0
BLOCK
  5
130
330
129
100
AcDbEntity
  8
0
100
AcDbBlockBegin
  2
*D19
 70
     1
 10
0.0
 20
0.0
 30
0.0
  3
*D19
  1

  0
LINE
  5
12A
330
129
100
AcDbEntity
  8
1
  6
Continuous
 62
     2
100
AcDbLine
 10
-136.4999999999776
 20
-77.30000000000999
 30
0.0
 11
-141.4999999999776
 21
-77.30000000000999
 31
0.0
  0
LINE
  5
12B
330
129
100
AcDbEntity
  8
1
  6
Continuous
 62
     2
100
AcDbLine
 10
-136.4999999999776
 20
-72.30000000000999
 30
0.0
 11
-136.4999999999776
 21
-78.05000000000999
 31
0.0
  0
LINE
  5
12C
330
129
100
AcDbEntity
  8
1
  6
Continuous
 62
     2
100
AcDbLine
 10
-141.4999999999776
 20
-72.14174095031075
 30
0.0
 11
-141.4999999999776
 21
-78.05000000000999
 31
0.0
  0
SOLID
  5
12D
330
129
100
AcDbEntity
  8
1
 62
     2
100
AcDbTrace
 10
-138.2499999999776
 20
-77.53039187078792
 30
0.0
 11
-138.2499999999776
 21
-77.06960812923205
 31
0.0
 12
-136.4999999999776
 22
-77.30000000000999
 32
0.0
 13
-136.4999999999776
 23
-77.30000000000999
 33
0.0
  0
SOLID
  5
12E
330
129
100
AcDbEntity
  8
1
 62
     2
100
AcDbTrace
 10
-139.7499999999776
 20
-77.06960812923205
 30
0.0
 11
-139.7499999999776
 21
-77.53039187078792
 31
0.0
 12
-141.4999999999776
 22
-77.30000000000999
 32
0.0
 13
-141.4999999999776
 23
-77.30000000000999
 33
0.0
  0
MTEXT
  5
12F
330
129
100
AcDbEntity
  8
1
 62
     3
100
AcDbMText
 10
-139.5249999999926
 20
-76.55000000000999
 30
0.0
 40
1.75
 41
0.0
 71
     7
 72
     1
  1
5
  7
CONVERTER_11
 11
0.9999999999970619
 21
2.424068405545306E-6
 31
0.0
 73
     1
 44
0.60024009603842
  0
ENDBLK
  5
131
330
129
100
AcDbEntity
  8
0
100
AcDbBlockEnd
  0
ENDSEC
  0
SECTION
  2
ENTITIES
  0
INSERT
  5
86
330
1F
100
AcDbEntity
  8
1
100
AcDbBlockReference
  2
1
 10
0.0
 20
0.0
 30
0.0
  0
ENDSEC
  0
SECTION
  2
OBJECTS
  0
DICTIONARY
  5
C
330
0
100
AcDbDictionary
281
     1
  3
ACAD_GROUP
350
D
  3
ACAD_LAYOUT
350
1A
  3
ACAD_MATERIAL
350
3B
  3
ACAD_MLEADERSTYLE
350
294
  3
ACAD_MLINESTYLE
350
17
  3
ACAD_PLOTSETTINGS
350
19
  3
ACAD_PLOTSTYLENAME
350
E
  3
ACAD_TABLESTYLE
350
293
  3
ACAD_VISUALSTYLE
350
2A
  0
DICTIONARY
  5
D
102
{ACAD_REACTORS
330
C
102
}
330
C
100
AcDbDictionary
281
     1
  0
DICTIONARY
  5
1A
102
{ACAD_REACTORS
330
C
102
}
330
C
100
AcDbDictionary
281
     1
  3
Layout1
350
1E
  3
Layout2
350
26
  3
Model
350
22
  0
DICTIONARY
  5
3B
102
{ACAD_REACTORS
330
C
102
}
330
C
100
AcDbDictionary
281
     1
  3
ByBlock
350
3D
  3
ByLayer
350
3C
  3
Global
350
3E
  0
DICTIONARY
  5
294
102
{ACAD_REACTORS
330
C
102
}
330
C
100
AcDbDictionary
281
     1
  0
DICTIONARY
  5
17
102
{ACAD_REACTORS
330
C
102
}
330
C
100
AcDbDictionary
281
     1
  3
Standard
350
18
  0
DICTIONARY
  5
19
102
{ACAD_REACTORS
330
C
102
}
330
C
100
AcDbDictionary
281
     1
  0
ACDBDICTIONARYWDFLT
  5
E
102
{ACAD_REACTORS
330
C
102
}
330
C
100
AcDbDictionary
281
     1
  3
Normal
350
F
100
AcDbDictionaryWithDefault
340
F
  0
DICTIONARY
  5
293
102
{ACAD_REACTORS
330
C
102
}
330
C
100
AcDbDictionary
281
     1
  0
DICTIONARY
  5
2A
102
{ACAD_REACTORS
330
C
102
}
330
C
100
AcDbDictionary
281
     1
  3
2dWireframe
350
2F
  3
3D Hidden
350
31
  3
3dWireframe
350
30
  3
Basic
350
32
  3
Brighten
350
36
  3
ColorChange
350
3A
  3
Conceptual
350
34
  3
Dim
350
35
  3
Facepattern
350
39
  3
Flat
350
2B
  3
FlatWithEdges
350
2C
  3
Gouraud
350
2D
  3
GouraudWithEdges
350
2E
  3
Linepattern
350
38
  3
Realistic
350
33
  3
Thicken
350
37
  0
LAYOUT
  5
1E
102
{ACAD_REACTORS
330
1A
102
}
330
1A
100
AcDbPlotSettings
  1

  2
none_device
  4

  6

 40
0.0
 41
0.0
 42
0.0
 43
0.0
 44
0.0
 45
0.0
 46
0.0
 47
0.0
 48
0.0
 49
0.0
140
0.0
141
0.0
142
1.0
143
1.0
 70
   688
 72
     0
 73
     0
 74
     5
  7

 75
    16
 76
     0
 77
     2
 78
   300
147
1.0
148
0.0
149
0.0
100
AcDbLayout
  1
Layout1
 70
     1
 71
     1
 10
0.0
 20
0.0
 11
12.0
 21
9.0
 12
0.0
 22
0.0
 32
0.0
 14
1.00000000000000E+20
 24
1.00000000000000E+20
 34
1.00000000000000E+20
 15
-1.00000000000000E+20
 25
-1.00000000000000E+20
 35
-1.00000000000000E+20
146
0.0
 13
0.0
 23
0.0
 33
0.0
 16
1.0
 26
0.0
 36
0.0
 17
0.0
 27
1.0
 37
0.0
 76
     0
330
1B
  0
LAYOUT
  5
26
102
{ACAD_REACTORS
330
1A
102
}
330
1A
100
AcDbPlotSettings
  1

  2
none_device
  4

  6

 40
0.0
 41
0.0
 42
0.0
 43
0.0
 44
0.0
 45
0.0
 46
0.0
 47
0.0
 48
0.0
 49
0.0
140
0.0
141
0.0
142
1.0
143
1.0
 70
   688
 72
     0
 73
     0
 74
     5
  7

 75
    16
 76
     0
 77
     2
 78
   300
147
1.0
148
0.0
149
0.0
100
AcDbLayout
  1
Layout2
 70
     1
 71
     2
 10
0.0
 20
0.0
 11
0.0
 21
0.0
 12
0.0
 22
0.0
 32
0.0
 14
0.0
 24
0.0
 34
0.0
 15
0.0
 25
0.0
 35
0.0
146
0.0
 13
0.0
 23
0.0
 33
0.0
 16
1.0
 26
0.0
 36
0.0
 17
0.0
 27
1.0
 37
0.0
 76
     0
330
23
  0
LAYOUT
  5
22
102
{ACAD_REACTORS
330
1A
102
}
330
1A
100
AcDbPlotSettings
  1

  2
none_device
  4

  6

 40
0.0
 41
0.0
 42
0.0
 43
0.0
 44
0.0
 45
0.0
 46
0.0
 47
0.0
 48
0.0
 49
0.0
140
0.0
141
0.0
142
1.0
143
1.0
 70
  1712
 72
     0
 73
     0
 74
     0
  7

 75
     0
 76
     0
 77
     2
 78
   300
147
1.0
148
0.0
149
0.0
100
AcDbLayout
  1
Model
 70
     1
 71
     0
 10
0.0
 20
0.0
 11
12.0
 21
9.0
 12
0.0
 22
0.0
 32
0.0
 14
-401.088762109702
 24
-275.1429740860601
 34
0.0
 15
-104.088762109704
 25
-65.14297408605995
 35
0.0
146
0.0
 13
0.0
 23
0.0
 33
0.0
 16
1.0
 26
0.0
 36
0.0
 17
0.0
 27
1.0
 37
0.0
 76
     0
330
1F
331
29
  0
MATERIAL
  5
3D
102
{ACAD_REACTORS
330
3B
102
}
102
{ACAD_XDICTIONARY
360
28F
102
}
330
3B
100
AcDbMaterial
  1
ByBlock
  0
MATERIAL
  5
3C
102
{ACAD_REACTORS
330
3B
102
}
102
{ACAD_XDICTIONARY
360
28D
102
}
330
3B
100
AcDbMaterial
  1
ByLayer
  0
MATERIAL
  5
3E
102
{ACAD_REACTORS
330
3B
102
}
102
{ACAD_XDICTIONARY
360
291
102
}
330
3B
100
AcDbMaterial
  1
Global
  0
MLINESTYLE
  5
18
102
{ACAD_REACTORS
330
17
102
}
330
17
100
AcDbMlineStyle
  2
Standard
 70
     0
  3

 62
   256
 51
90.0
 52
90.0
 71
     2
 49
0.5
 62
   256
  6
BYLAYER
 49
-0.5
 62
   256
  6
BYLAYER
  0
ACDBPLACEHOLDER
  5
F
102
{ACAD_REACTORS
330
E
102
}
330
E
  0
VISUALSTYLE
  5
2F
102
{ACAD_REACTORS
330
2A
102
}
102
{ACAD_XDICTIONARY
360
275
102
}
330
2A
100
AcDbVisualStyle
  2
2dWireframe
 70
     4
 71
     0
 72
     2
 73
     0
 90
        0
 40
-0.6
 41
-30.0
 62
     5
 63
     7
421
 16777215
 74
     1
 91
        4
 64
     7
 65
   257
 75
     1
175
     1
 42
1.0
 92
        0
 66
   257
 43
1.0
 76
     1
 77
     6
 78
     2
 67
     7
 79
     5
170
     0
171
     0
290
     0
174
     0
 93
        1
 44
0.0
173
     0
291
     0
 45
0.0
1001
ACAD
1000
AcDbSavedByObjectVersion
1070
     0
  0
VISUALSTYLE
  5
31
102
{ACAD_REACTORS
330
2A
102
}
102
{ACAD_XDICTIONARY
360
279
102
}
330
2A
100
AcDbVisualStyle
  2
3D Hidden
 70
     6
 71
     1
 72
     2
 73
     2
 90
        0
 40
-0.6
 41
-30.0
 62
     5
 63
     7
421
 16777215
 74
     2
 91
        2
 64
     7
 65
   257
 75
     2
175
     1
 42
40.0
 92
        0
 66
   257
 43
1.0
 76
     1
 77
     6
 78
     2
 67
     7
 79
     3
170
     0
171
     0
290
     0
174
     0
 93
        1
 44
0.0
173
     0
291
     0
 45
0.0
1001
ACAD
1000
AcDbSavedByObjectVersion
1070
     0
  0
VISUALSTYLE
  5
30
102
{ACAD_REACTORS
330
2A
102
}
102
{ACAD_XDICTIONARY
360
277
102
}
330
2A
100
AcDbVisualStyle
  2
3dWireframe
 70
     5
 71
     0
 72
     2
 73
     0
 90
        0
 40
-0.6
 41
-30.0
 62
     5
 63
     7
421
 16777215
 74
     1
 91
        4
 64
     7
 65
   257
 75
     1
175
     1
 42
1.0
 92
        0
 66
   257
 43
1.0
 76
     1
 77
     6
 78
     2
 67
     7
 79
     5
170
     0
171
     0
290
     0
174
     0
 93
        1
 44
0.0
173
     0
291
     0
 45
0.0
1001
ACAD
1000
AcDbSavedByObjectVersion
1070
     0
  0
VISUALSTYLE
  5
32
102
{ACAD_REACTORS
330
2A
102
}
102
{ACAD_XDICTIONARY
360
27B
102
}
330
2A
100
AcDbVisualStyle
  2
Basic
 70
     7
 71
     1
 72
     0
 73
     1
 90
        0
 40
-0.6
 41
-30.0
 62
     5
 63
     7
421
 16777215
 74
     0
 91
        4
 64
     7
 65
   257
 75
     1
175
     1
 42
1.0
 92
        8
 66
     7
 43
1.0
 76
     1
 77
     6
 78
     2
 67
     7
 79
     5
170
     0
171
     0
290
     0
174
     0
 93
        1
 44
0.0
173
     0
291
     1
 45
0.0
1001
ACAD
1000
AcDbSavedByObjectVersion
1070
     0
  0
VISUALSTYLE
  5
36
102
{ACAD_REACTORS
330
2A
102
}
102
{ACAD_XDICTIONARY
360
283
102
}
330
2A
100
AcDbVisualStyle
  2
Brighten
 70
    12
 71
     2
 72
     2
 73
     0
 90
        0
 40
-0.6
 41
-30.0
 62
     5
 63
     7
421
 16777215
 74
     1
 91
        4
 64
     7
 65
   257
 75
     1
175
     1
 42
1.0
 92
        8
 66
     7
 43
1.0
 76
     1
 77
     6
 78
     2
 67
     7
 79
     5
170
     0
171
     0
290
     0
174
     0
 93
        1
 44
50.0
173
     0
291
     1
 45
0.0
1001
ACAD
1000
AcDbSavedByObjectVersion
1070
     0
  0
VISUALSTYLE
  5
3A
102
{ACAD_REACTORS
330
2A
102
}
102
{ACAD_XDICTIONARY
360
28B
102
}
330
2A
100
AcDbVisualStyle
  2
ColorChange
 70
    16
 71
     2
 72
     2
 73
     3
 90
        0
 40
-0.6
 41
-30.0
 62
     5
 63
     8
421
  8421504
 74
     1
 91
        4
 64
     7
 65
   257
 75
     1
175
     1
 42
1.0
 92
        8
 66
     8
424
  8421504
 43
1.0
 76
     1
 77
     6
 78
     2
 67
     7
 79
     5
170
     0
171
     0
290
     0
174
     0
 93
        1
 44
0.0
173
     0
291
     1
 45
0.0
1001
ACAD
1000
AcDbSavedByObjectVersion
1070
     0
  0
VISUALSTYLE
  5
34
102
{ACAD_REACTORS
330
2A
102
}
102
{ACAD_XDICTIONARY
360
27F
102
}
330
2A
100
AcDbVisualStyle
  2
Conceptual
 70
     9
 71
     3
 72
     2
 73
     0
 90
        0
 40
-0.6
 41
-30.0
 62
     5
 63
     7
421
 16777215
 74
     2
 91
        2
 64
     7
 65
   257
 75
     1
175
     1
 42
40.0
 92
        8
 66
     7
 43
1.0
 76
     1
 77
     6
 78
     2
 67
     7
 79
     3
170
     0
171
     0
290
     0
174
     0
 93
        1
 44
0.0
173
     0
291
     0
 45
0.0
1001
ACAD
1000
AcDbSavedByObjectVersion
1070
     0
  0
VISUALSTYLE
  5
35
102
{ACAD_REACTORS
330
2A
102
}
102
{ACAD_XDICTIONARY
360
281
102
}
330
2A
100
AcDbVisualStyle
  2
Dim
 70
    11
 71
     2
 72
     2
 73
     0
 90
        0
 40
-0.6
 41
-30.0
 62
     5
 63
     7
421
 16777215
 74
     1
 91
        4
 64
     7
 65
   257
 75
     1
175
     1
 42
1.0
 92
        8
 66
     7
 43
1.0
 76
     1
 77
     6
 78
     2
 67
     7
 79
     5
170
     0
171
     0
290
     0
174
     0
 93
        1
 44
-50.0
173
     0
291
     1
 45
0.0
1001
ACAD
1000
AcDbSavedByObjectVersion
1070
     0
  0
VISUALSTYLE
  5
39
102
{ACAD_REACTORS
330
2A
102
}
102
{ACAD_XDICTIONARY
360
289
102
}
330
2A
100
AcDbVisualStyle
  2
Facepattern
 70
    15
 71
     2
 72
     2
 73
     0
 90
        0
 40
-0.6
 41
-30.0
 62
     5
 63
     7
421
 16777215
 74
     1
 91
        4
 64
     7
 65
   257
 75
     1
175
     1
 42
1.0
 92
        8
 66
     7
 43
1.0
 76
     1
 77
     6
 78
     2
 67
     7
 79
     5
170
     0
171
     0
290
     0
174
     0
 93
        1
 44
0.0
173
     0
291
     1
 45
0.0
1001
ACAD
1000
AcDbSavedByObjectVersion
1070
     0
  0
VISUALSTYLE
  5
2B
102
{ACAD_REACTORS
330
2A
102
}
102
{ACAD_XDICTIONARY
360
26D
102
}
330
2A
100
AcDbVisualStyle
  2
Flat
 70
     0
 71
     2
 72
     1
 73
     1
 90
        2
 40
-0.6
 41
30.0
 62
     5
 63
     7
421
 16777215
 74
     0
 91
        4
 64
     7
 65
   257
 75
     1
175
     1
 42
1.0
 92
        8
 66
     7
 43
1.0
 76
     1
 77
     6
 78
     2
 67
     7
 79
     5
170
     0
171
     0
290
     0
174
     0
 93
       13
 44
0.0
173
     0
291
     1
 45
0.0
1001
ACAD
1000
AcDbSavedByObjectVersion
1070
     0
  0
VISUALSTYLE
  5
2C
102
{ACAD_REACTORS
330
2A
102
}
102
{ACAD_XDICTIONARY
360
26F
102
}
330
2A
100
AcDbVisualStyle
  2
FlatWithEdges
 70
     1
 71
     2
 72
     1
 73
     1
 90
        2
 40
-0.6
 41
30.0
 62
     5
 63
     7
421
 16777215
 74
     1
 91
        4
 64
     7
 65
   257
 75
     1
175
     1
 42
1.0
 92
        0
 66
   257
 43
1.0
 76
     1
 77
     6
 78
     2
 67
     7
 79
     5
170
     0
171
     0
290
     0
174
     0
 93
       13
 44
0.0
173
     0
291
     1
 45
0.0
1001
ACAD
1000
AcDbSavedByObjectVersion
1070
     0
  0
VISUALSTYLE
  5
2D
102
{ACAD_REACTORS
330
2A
102
}
102
{ACAD_XDICTIONARY
360
271
102
}
330
2A
100
AcDbVisualStyle
  2
Gouraud
 70
     2
 71
     2
 72
     2
 73
     1
 90
        2
 40
-0.6
 41
30.0
 62
     5
 63
     7
421
 16777215
 74
     0
 91
        4
 64
     7
 65
   257
 75
     1
175
     1
 42
1.0
 92
        0
 66
     7
 43
1.0
 76
     1
 77
     6
 78
     2
 67
     7
 79
     5
170
     0
171
     0
290
     0
174
     0
 93
       13
 44
0.0
173
     0
291
     1
 45
0.0
1001
ACAD
1000
AcDbSavedByObjectVersion
1070
     0
  0
VISUALSTYLE
  5
2E
102
{ACAD_REACTORS
330
2A
102
}
102
{ACAD_XDICTIONARY
360
273
102
}
330
2A
100
AcDbVisualStyle
  2
GouraudWithEdges
 70
     3
 71
     2
 72
     2
 73
     1
 90
        2
 40
-0.6
 41
30.0
 62
     5
 63
     7
421
 16777215
 74
     1
 91
        4
 64
     7
 65
   257
 75
     1
175
     1
 42
1.0
 92
        0
 66
   257
 43
1.0
 76
     1
 77
     6
 78
     2
 67
     7
 79
     5
170
     0
171
     0
290
     0
174
     0
 93
       13
 44
0.0
173
     0
291
     1
 45
0.0
1001
ACAD
1000
AcDbSavedByObjectVersion
1070
     0
  0
VISUALSTYLE
  5
38
102
{ACAD_REACTORS
330
2A
102
}
102
{ACAD_XDICTIONARY
360
287
102
}
330
2A
100
AcDbVisualStyle
  2
Linepattern
 70
    14
 71
     2
 72
     2
 73
     0
 90
        0
 40
-0.6
 41
-30.0
 62
     5
 63
     7
421
 16777215
 74
     1
 91
        4
 64
     7
 65
   257
 75
     7
175
     7
 42
1.0
 92
        8
 66
     7
 43
1.0
 76
     1
 77
     6
 78
     2
 67
     7
 79
     5
170
     0
171
     0
290
     0
174
     0
 93
        1
 44
0.0
173
     0
291
     1
 45
0.0
1001
ACAD
1000
AcDbSavedByObjectVersion
1070
     0
  0
VISUALSTYLE
  5
33
102
{ACAD_REACTORS
330
2A
102
}
102
{ACAD_XDICTIONARY
360
27D
102
}
330
2A
100
AcDbVisualStyle
  2
Realistic
 70
     8
 71
     2
 72
     2
 73
     0
 90
        0
 40
-0.6
 41
-30.0
 62
     5
 63
     7
421
 16777215
 74
     1
 91
        0
 64
     7
 65
   257
 75
     1
175
     1
 42
1.0
 92
        8
 66
     8
424
  7895160
 43
1.0
 76
     1
 77
     6
 78
     2
 67
     7
 79
     5
170
     0
171
     0
290
     0
174
     0
 93
       13
 44
0.0
173
     0
291
     0
 45
0.0
1001
ACAD
1000
AcDbSavedByObjectVersion
1070
     0
  0
VISUALSTYLE
  5
37
102
{ACAD_REACTORS
330
2A
102
}
102
{ACAD_XDICTIONARY
360
285
102
}
330
2A
100
AcDbVisualStyle
  2
Thicken
 70
    13
 71
     2
 72
     2
 73
     0
 90
        0
 40
-0.6
 41
-30.0
 62
     5
 63
     7
421
 16777215
 74
     1
 91
        4
 64
     7
 65
   257
 75
     1
175
     1
 42
1.0
 92
       12
 66
     7
 43
1.0
 76
     1
 77
     6
 78
     2
 67
     7
 79
     5
170
     0
171
     0
290
     0
174
     0
 93
        1
 44
0.0
173
     0
291
     1
 45
0.0
1001
ACAD
1000
AcDbSavedByObjectVersion
1070
     0
  0
DICTIONARY
  5
28F
330
3D
100
AcDbDictionary
280
     1
281
     1
  3
ACAD_XREC_ROUNDTRIP
360
290
  0
DICTIONARY
  5
28D
330
3C
100
AcDbDictionary
280
     1
281
     1
  3
ACAD_XREC_ROUNDTRIP
360
28E
  0
DICTIONARY
  5
291
330
3E
100
AcDbDictionary
280
     1
281
     1
  3
ACAD_XREC_ROUNDTRIP
360
292
  0
DICTIONARY
  5
275
330
2F
100
AcDbDictionary
280
     1
281
     1
  3
ACAD_XREC_ROUNDTRIP
360
276
  0
DICTIONARY
  5
279
330
31
100
AcDbDictionary
280
     1
281
     1
  3
ACAD_XREC_ROUNDTRIP
360
27A
  0
DICTIONARY
  5
277
330
30
100
AcDbDictionary
280
     1
281
     1
  3
ACAD_XREC_ROUNDTRIP
360
278
  0
DICTIONARY
  5
27B
330
32
100
AcDbDictionary
280
     1
281
     1
  3
ACAD_XREC_ROUNDTRIP
360
27C
  0
DICTIONARY
  5
283
330
36
100
AcDbDictionary
280
     1
281
     1
  3
ACAD_XREC_ROUNDTRIP
360
284
  0
DICTIONARY
  5
28B
330
3A
100
AcDbDictionary
280
     1
281
     1
  3
ACAD_XREC_ROUNDTRIP
360
28C
  0
DICTIONARY
  5
27F
330
34
100
AcDbDictionary
280
     1
281
     1
  3
ACAD_XREC_ROUNDTRIP
360
280
  0
DICTIONARY
  5
281
330
35
100
AcDbDictionary
280
     1
281
     1
  3
ACAD_XREC_ROUNDTRIP
360
282
  0
DICTIONARY
  5
289
330
39
100
AcDbDictionary
280
     1
281
     1
  3
ACAD_XREC_ROUNDTRIP
360
28A
  0
DICTIONARY
  5
26D
330
2B
100
AcDbDictionary
280
     1
281
     1
  3
ACAD_XREC_ROUNDTRIP
360
26E
  0
DICTIONARY
  5
26F
330
2C
100
AcDbDictionary
280
     1
281
     1
  3
ACAD_XREC_ROUNDTRIP
360
270
  0
DICTIONARY
  5
271
330
2D
100
AcDbDictionary
280
     1
281
     1
  3
ACAD_XREC_ROUNDTRIP
360
272
  0
DICTIONARY
  5
273
330
2E
100
AcDbDictionary
280
     1
281
     1
  3
ACAD_XREC_ROUNDTRIP
360
274
  0
DICTIONARY
  5
287
330
38
100
AcDbDictionary
280
     1
281
     1
  3
ACAD_XREC_ROUNDTRIP
360
288
  0
DICTIONARY
  5
27D
330
33
100
AcDbDictionary
280
     1
281
     1
  3
ACAD_XREC_ROUNDTRIP
360
27E
  0
DICTIONARY
  5
285
330
37
100
AcDbDictionary
280
     1
281
     1
  3
ACAD_XREC_ROUNDTRIP
360
286
  0
XRECORD
  5
290
102
{ACAD_REACTORS
330
28F
102
}
330
28F
100
AcDbXrecord
280
     1
102
MATERIAL
148
0.0
149
0.0
149
0.0
 93
        0
 94
      127
282
     0
 72
     1
 77
     1
171
     1
175
     1
179
     1
273
     0
  0
XRECORD
  5
28E
102
{ACAD_REACTORS
330
28D
102
}
330
28D
100
AcDbXrecord
280
     1
102
MATERIAL
148
0.0
149
0.0
149
0.0
 93
        0
 94
      127
282
     0
 72
     1
 77
     1
171
     1
175
     1
179
     1
273
     0
  0
XRECORD
  5
292
102
{ACAD_REACTORS
330
291
102
}
330
291
100
AcDbXrecord
280
     1
102
MATERIAL
148
0.0
149
0.0
149
0.0
 93
        0
 94
      127
282
     0
 72
     1
 77
     1
171
     1
175
     1
179
     1
273
     0
  0
XRECORD
  5
276
102
{ACAD_REACTORS
330
275
102
}
330
275
100
AcDbXrecord
280
     1
102
RTVSPropertyOp0
 70
     1
102
RTVSPropertyOp1
 70
     1
102
RTVSPropertyOp2
 70
     1
102
RTVSPropertyOp3
 70
     1
102
RTVSPropertyOp4
 70
     1
102
RTVSPropertyOp5
 70
     1
102
RTVSPropertyOp6
 70
     1
102
RTVSPropertyOp7
 70
     1
102
RTVSPropertyOp8
 70
     1
102
RTVSPropertyOp9
 70
     1
102
RTVSPropertyOp10
 70
     1
102
RTVSPropertyOp11
 70
     1
102
RTVSPropertyOp12
 70
     1
102
RTVSPropertyOp13
 70
     1
102
RTVSPropertyOp14
 70
     1
102
RTVSPropertyOp15
 70
     1
102
RTVSPropertyOp16
 70
     1
102
RTVSPropertyOp17
 70
     1
102
RTVSPropertyOp18
 70
     1
102
RTVSPropertyOp19
 70
     1
102
RTVSPropertyOp20
 70
     1
102
RTVSPropertyOp21
 70
     1
102
RTVSPropertyOp22
 70
     1
102
RTVSPropertyOp23
 70
     1
102
RTVSPropertyOp24
 70
     1
102
RTVSPropertyOp25
 70
     1
102
RTVSPropertyOp26
 70
     1
102
RTVSPropertyOp27
 70
     1
102
RTVSPropertyOp28
 70
     1
102
RTVSPropertyOp29
 70
     1
102
RTVSPropertyOp30
 70
     1
102
RTVSPropertyOp31
 70
     1
102
RTVSPropertyOp32
 70
     1
  0
XRECORD
  5
27A
102
{ACAD_REACTORS
330
279
102
}
330
279
100
AcDbXrecord
280
     1
102
RTVSPropertyOp0
 70
     1
102
RTVSPropertyOp1
 70
     1
102
RTVSPropertyOp2
 70
     1
102
RTVSPropertyOp3
 70
     1
102
RTVSPropertyOp4
 70
     1
102
RTVSPropertyOp5
 70
     1
102
RTVSPropertyOp6
 70
     1
102
RTVSPropertyOp7
 70
     1
102
RTVSPropertyOp8
 70
     1
102
RTVSPropertyOp9
 70
     1
102
RTVSPropertyOp10
 70
     1
102
RTVSPropertyOp11
 70
     1
102
RTVSPropertyOp12
 70
     1
102
RTVSPropertyOp13
 70
     1
102
RTVSPropertyOp14
 70
     1
102
RTVSPropertyOp15
 70
     1
102
RTVSPropertyOp16
 70
     1
102
RTVSPropertyOp17
 70
     1
102
RTVSPropertyOp18
 70
     1
102
RTVSPropertyOp19
 70
     1
102
RTVSPropertyOp20
 70
     1
102
RTVSPropertyOp21
 70
     1
102
RTVSPropertyOp22
 70
     1
102
RTVSPropertyOp23
 70
     1
102
RTVSPropertyOp24
 70
     1
102
RTVSPropertyOp25
 70
     1
102
RTVSPropertyOp26
 70
     1
102
RTVSPropertyOp27
 70
     1
102
RTVSPropertyOp28
 70
     1
102
RTVSPropertyOp29
 70
     1
102
RTVSPropertyOp30
 70
     1
102
RTVSPropertyOp31
 70
     1
102
RTVSPropertyOp32
 70
     1
  0
XRECORD
  5
278
102
{ACAD_REACTORS
330
277
102
}
330
277
100
AcDbXrecord
280
     1
102
RTVSPropertyOp0
 70
     1
102
RTVSPropertyOp1
 70
     1
102
RTVSPropertyOp2
 70
     1
102
RTVSPropertyOp3
 70
     1
102
RTVSPropertyOp4
 70
     1
102
RTVSPropertyOp5
 70
     1
102
RTVSPropertyOp6
 70
     1
102
RTVSPropertyOp7
 70
     1
102
RTVSPropertyOp8
 70
     1
102
RTVSPropertyOp9
 70
     1
102
RTVSPropertyOp10
 70
     1
102
RTVSPropertyOp11
 70
     1
102
RTVSPropertyOp12
 70
     1
102
RTVSPropertyOp13
 70
     1
102
RTVSPropertyOp14
 70
     1
102
RTVSPropertyOp15
 70
     1
102
RTVSPropertyOp16
 70
     1
102
RTVSPropertyOp17
 70
     1
102
RTVSPropertyOp18
 70
     1
102
RTVSPropertyOp19
 70
     1
102
RTVSPropertyOp20
 70
     1
102
RTVSPropertyOp21
 70
     1
102
RTVSPropertyOp22
 70
     1
102
RTVSPropertyOp23
 70
     1
102
RTVSPropertyOp24
 70
     1
102
RTVSPropertyOp25
 70
     1
102
RTVSPropertyOp26
 70
     1
102
RTVSPropertyOp27
 70
     1
102
RTVSPropertyOp28
 70
     1
102
RTVSPropertyOp29
 70
     1
102
RTVSPropertyOp30
 70
     1
102
RTVSPropertyOp31
 70
     1
102
RTVSPropertyOp32
 70
     1
  0
XRECORD
  5
27C
102
{ACAD_REACTORS
330
27B
102
}
330
27B
100
AcDbXrecord
280
     1
102
RTVSPropertyOp0
 70
     1
102
RTVSPropertyOp1
 70
     1
102
RTVSPropertyOp2
 70
     1
102
RTVSPropertyOp3
 70
     1
102
RTVSPropertyOp4
 70
     1
102
RTVSPropertyOp5
 70
     1
102
RTVSPropertyOp6
 70
     1
102
RTVSPropertyOp7
 70
     1
102
RTVSPropertyOp8
 70
     1
102
RTVSPropertyOp9
 70
     1
102
RTVSPropertyOp10
 70
     1
102
RTVSPropertyOp11
 70
     1
102
RTVSPropertyOp12
 70
     1
102
RTVSPropertyOp13
 70
     1
102
RTVSPropertyOp14
 70
     1
102
RTVSPropertyOp15
 70
     1
102
RTVSPropertyOp16
 70
     1
102
RTVSPropertyOp17
 70
     1
102
RTVSPropertyOp18
 70
     1
102
RTVSPropertyOp19
 70
     1
102
RTVSPropertyOp20
 70
     1
102
RTVSPropertyOp21
 70
     1
102
RTVSPropertyOp22
 70
     1
102
RTVSPropertyOp23
 70
     1
102
RTVSPropertyOp24
 70
     1
102
RTVSPropertyOp25
 70
     1
102
RTVSPropertyOp26
 70
     1
102
RTVSPropertyOp27
 70
     1
102
RTVSPropertyOp28
 70
     1
102
RTVSPropertyOp29
 70
     1
102
RTVSPropertyOp30
 70
     1
102
RTVSPropertyOp31
 70
     1
102
RTVSPropertyOp32
 70
     1
  0
XRECORD
  5
284
102
{ACAD_REACTORS
330
283
102
}
330
283
100
AcDbXrecord
280
     1
102
RTVSPropertyOp0
 70
     1
102
RTVSPropertyOp1
 70
     1
102
RTVSPropertyOp2
 70
     1
102
RTVSPropertyOp3
 70
     1
102
RTVSPropertyOp4
 70
     1
102
RTVSPropertyOp5
 70
     1
102
RTVSPropertyOp6
 70
     1
102
RTVSPropertyOp7
 70
     1
102
RTVSPropertyOp8
 70
     1
102
RTVSPropertyOp9
 70
     1
102
RTVSPropertyOp10
 70
     1
102
RTVSPropertyOp11
 70
     1
102
RTVSPropertyOp12
 70
     1
102
RTVSPropertyOp13
 70
     1
102
RTVSPropertyOp14
 70
     1
102
RTVSPropertyOp15
 70
     1
102
RTVSPropertyOp16
 70
     1
102
RTVSPropertyOp17
 70
     1
102
RTVSPropertyOp18
 70
     1
102
RTVSPropertyOp19
 70
     1
102
RTVSPropertyOp20
 70
     1
102
RTVSPropertyOp21
 70
     1
102
RTVSPropertyOp22
 70
     1
102
RTVSPropertyOp23
 70
     1
102
RTVSPropertyOp24
 70
     1
102
RTVSPropertyOp25
 70
     1
102
RTVSPropertyOp26
 70
     1
102
RTVSPropertyOp27
 70
     1
102
RTVSPropertyOp28
 70
     1
102
RTVSPropertyOp29
 70
     1
102
RTVSPropertyOp30
 70
     1
102
RTVSPropertyOp31
 70
     1
102
RTVSPropertyOp32
 70
     1
  0
XRECORD
  5
28C
102
{ACAD_REACTORS
330
28B
102
}
330
28B
100
AcDbXrecord
280
     1
102
RTVSPropertyOp0
 70
     1
102
RTVSPropertyOp1
 70
     1
102
RTVSPropertyOp2
 70
     1
102
RTVSPropertyOp3
 70
     1
102
RTVSPropertyOp4
 70
     1
102
RTVSPropertyOp5
 70
     1
102
RTVSPropertyOp6
 70
     1
102
RTVSPropertyOp7
 70
     1
102
RTVSPropertyOp8
 70
     1
102
RTVSPropertyOp9
 70
     1
102
RTVSPropertyOp10
 70
     1
102
RTVSPropertyOp11
 70
     1
102
RTVSPropertyOp12
 70
     1
102
RTVSPropertyOp13
 70
     1
102
RTVSPropertyOp14
 70
     1
102
RTVSPropertyOp15
 70
     1
102
RTVSPropertyOp16
 70
     1
102
RTVSPropertyOp17
 70
     1
102
RTVSPropertyOp18
 70
     1
102
RTVSPropertyOp19
 70
     1
102
RTVSPropertyOp20
 70
     1
102
RTVSPropertyOp21
 70
     1
102
RTVSPropertyOp22
 70
     1
102
RTVSPropertyOp23
 70
     1
102
RTVSPropertyOp24
 70
     1
102
RTVSPropertyOp25
 70
     1
102
RTVSPropertyOp26
 70
     1
102
RTVSPropertyOp27
 70
     1
102
RTVSPropertyOp28
 70
     1
102
RTVSPropertyOp29
 70
     1
102
RTVSPropertyOp30
 70
     1
102
RTVSPropertyOp31
 70
     1
102
RTVSPropertyOp32
 70
     1
  0
XRECORD
  5
280
102
{ACAD_REACTORS
330
27F
102
}
330
27F
100
AcDbXrecord
280
     1
102
RTVSPropertyOp0
 70
     1
102
RTVSPropertyOp1
 70
     1
102
RTVSPropertyOp2
 70
     1
102
RTVSPropertyOp3
 70
     1
102
RTVSPropertyOp4
 70
     1
102
RTVSPropertyOp5
 70
     1
102
RTVSPropertyOp6
 70
     1
102
RTVSPropertyOp7
 70
     1
102
RTVSPropertyOp8
 70
     1
102
RTVSPropertyOp9
 70
     1
102
RTVSPropertyOp10
 70
     1
102
RTVSPropertyOp11
 70
     1
102
RTVSPropertyOp12
 70
     1
102
RTVSPropertyOp13
 70
     1
102
RTVSPropertyOp14
 70
     1
102
RTVSPropertyOp15
 70
     1
102
RTVSPropertyOp16
 70
     1
102
RTVSPropertyOp17
 70
     1
102
RTVSPropertyOp18
 70
     1
102
RTVSPropertyOp19
 70
     1
102
RTVSPropertyOp20
 70
     1
102
RTVSPropertyOp21
 70
     1
102
RTVSPropertyOp22
 70
     1
102
RTVSPropertyOp23
 70
     1
102
RTVSPropertyOp24
 70
     1
102
RTVSPropertyOp25
 70
     1
102
RTVSPropertyOp26
 70
     1
102
RTVSPropertyOp27
 70
     1
102
RTVSPropertyOp28
 70
     1
102
RTVSPropertyOp29
 70
     1
102
RTVSPropertyOp30
 70
     1
102
RTVSPropertyOp31
 70
     1
102
RTVSPropertyOp32
 70
     1
  0
XRECORD
  5
282
102
{ACAD_REACTORS
330
281
102
}
330
281
100
AcDbXrecord
280
     1
102
RTVSPropertyOp0
 70
     1
102
RTVSPropertyOp1
 70
     1
102
RTVSPropertyOp2
 70
     1
102
RTVSPropertyOp3
 70
     1
102
RTVSPropertyOp4
 70
     1
102
RTVSPropertyOp5
 70
     1
102
RTVSPropertyOp6
 70
     1
102
RTVSPropertyOp7
 70
     1
102
RTVSPropertyOp8
 70
     1
102
RTVSPropertyOp9
 70
     1
102
RTVSPropertyOp10
 70
     1
102
RTVSPropertyOp11
 70
     1
102
RTVSPropertyOp12
 70
     1
102
RTVSPropertyOp13
 70
     1
102
RTVSPropertyOp14
 70
     1
102
RTVSPropertyOp15
 70
     1
102
RTVSPropertyOp16
 70
     1
102
RTVSPropertyOp17
 70
     1
102
RTVSPropertyOp18
 70
     1
102
RTVSPropertyOp19
 70
     1
102
RTVSPropertyOp20
 70
     1
102
RTVSPropertyOp21
 70
     1
102
RTVSPropertyOp22
 70
     1
102
RTVSPropertyOp23
 70
     1
102
RTVSPropertyOp24
 70
     1
102
RTVSPropertyOp25
 70
     1
102
RTVSPropertyOp26
 70
     1
102
RTVSPropertyOp27
 70
     1
102
RTVSPropertyOp28
 70
     1
102
RTVSPropertyOp29
 70
     1
102
RTVSPropertyOp30
 70
     1
102
RTVSPropertyOp31
 70
     1
102
RTVSPropertyOp32
 70
     1
  0
XRECORD
  5
28A
102
{ACAD_REACTORS
330
289
102
}
330
289
100
AcDbXrecord
280
     1
102
RTVSPropertyOp0
 70
     1
102
RTVSPropertyOp1
 70
     1
102
RTVSPropertyOp2
 70
     1
102
RTVSPropertyOp3
 70
     1
102
RTVSPropertyOp4
 70
     1
102
RTVSPropertyOp5
 70
     1
102
RTVSPropertyOp6
 70
     1
102
RTVSPropertyOp7
 70
     1
102
RTVSPropertyOp8
 70
     1
102
RTVSPropertyOp9
 70
     1
102
RTVSPropertyOp10
 70
     1
102
RTVSPropertyOp11
 70
     1
102
RTVSPropertyOp12
 70
     1
102
RTVSPropertyOp13
 70
     1
102
RTVSPropertyOp14
 70
     1
102
RTVSPropertyOp15
 70
     1
102
RTVSPropertyOp16
 70
     1
102
RTVSPropertyOp17
 70
     1
102
RTVSPropertyOp18
 70
     1
102
RTVSPropertyOp19
 70
     1
102
RTVSPropertyOp20
 70
     1
102
RTVSPropertyOp21
 70
     1
102
RTVSPropertyOp22
 70
     1
102
RTVSPropertyOp23
 70
     1
102
RTVSPropertyOp24
 70
     1
102
RTVSPropertyOp25
 70
     1
102
RTVSPropertyOp26
 70
     1
102
RTVSPropertyOp27
 70
     1
102
RTVSPropertyOp28
 70
     1
102
RTVSPropertyOp29
 70
     1
102
RTVSPropertyOp30
 70
     1
102
RTVSPropertyOp31
 70
     1
102
RTVSPropertyOp32
 70
     1
  0
XRECORD
  5
26E
102
{ACAD_REACTORS
330
26D
102
}
330
26D
100
AcDbXrecord
280
     1
102
RTVSPropertyOp0
 70
     1
102
RTVSPropertyOp1
 70
     1
102
RTVSPropertyOp2
 70
     1
102
RTVSPropertyOp3
 70
     1
102
RTVSPropertyOp4
 70
     1
102
RTVSPropertyOp5
 70
     1
102
RTVSPropertyOp6
 70
     1
102
RTVSPropertyOp7
 70
     1
102
RTVSPropertyOp8
 70
     1
102
RTVSPropertyOp9
 70
     1
102
RTVSPropertyOp10
 70
     1
102
RTVSPropertyOp11
 70
     1
102
RTVSPropertyOp12
 70
     1
102
RTVSPropertyOp13
 70
     1
102
RTVSPropertyOp14
 70
     1
102
RTVSPropertyOp15
 70
     1
102
RTVSPropertyOp16
 70
     1
102
RTVSPropertyOp17
 70
     1
102
RTVSPropertyOp18
 70
     1
102
RTVSPropertyOp19
 70
     1
102
RTVSPropertyOp20
 70
     1
102
RTVSPropertyOp21
 70
     1
102
RTVSPropertyOp22
 70
     1
102
RTVSPropertyOp23
 70
     1
102
RTVSPropertyOp24
 70
     1
102
RTVSPropertyOp25
 70
     1
102
RTVSPropertyOp26
 70
     1
102
RTVSPropertyOp27
 70
     1
102
RTVSPropertyOp28
 70
     1
102
RTVSPropertyOp29
 70
     1
102
RTVSPropertyOp30
 70
     1
102
RTVSPropertyOp31
 70
     1
102
RTVSPropertyOp32
 70
     1
  0
XRECORD
  5
270
102
{ACAD_REACTORS
330
26F
102
}
330
26F
100
AcDbXrecord
280
     1
102
RTVSPropertyOp0
 70
     1
102
RTVSPropertyOp1
 70
     1
102
RTVSPropertyOp2
 70
     1
102
RTVSPropertyOp3
 70
     1
102
RTVSPropertyOp4
 70
     1
102
RTVSPropertyOp5
 70
     1
102
RTVSPropertyOp6
 70
     1
102
RTVSPropertyOp7
 70
     1
102
RTVSPropertyOp8
 70
     1
102
RTVSPropertyOp9
 70
     1
102
RTVSPropertyOp10
 70
     1
102
RTVSPropertyOp11
 70
     1
102
RTVSPropertyOp12
 70
     1
102
RTVSPropertyOp13
 70
     1
102
RTVSPropertyOp14
 70
     1
102
RTVSPropertyOp15
 70
     1
102
RTVSPropertyOp16
 70
     1
102
RTVSPropertyOp17
 70
     1
102
RTVSPropertyOp18
 70
     1
102
RTVSPropertyOp19
 70
     1
102
RTVSPropertyOp20
 70
     1
102
RTVSPropertyOp21
 70
     1
102
RTVSPropertyOp22
 70
     1
102
RTVSPropertyOp23
 70
     1
102
RTVSPropertyOp24
 70
     1
102
RTVSPropertyOp25
 70
     1
102
RTVSPropertyOp26
 70
     1
102
RTVSPropertyOp27
 70
     1
102
RTVSPropertyOp28
 70
     1
102
RTVSPropertyOp29
 70
     1
102
RTVSPropertyOp30
 70
     1
102
RTVSPropertyOp31
 70
     1
102
RTVSPropertyOp32
 70
     1
  0
XRECORD
  5
272
102
{ACAD_REACTORS
330
271
102
}
330
271
100
AcDbXrecord
280
     1
102
RTVSPropertyOp0
 70
     1
102
RTVSPropertyOp1
 70
     1
102
RTVSPropertyOp2
 70
     1
102
RTVSPropertyOp3
 70
     1
102
RTVSPropertyOp4
 70
     1
102
RTVSPropertyOp5
 70
     1
102
RTVSPropertyOp6
 70
     1
102
RTVSPropertyOp7
 70
     1
102
RTVSPropertyOp8
 70
     1
102
RTVSPropertyOp9
 70
     1
102
RTVSPropertyOp10
 70
     1
102
RTVSPropertyOp11
 70
     1
102
RTVSPropertyOp12
 70
     1
102
RTVSPropertyOp13
 70
     1
102
RTVSPropertyOp14
 70
     1
102
RTVSPropertyOp15
 70
     1
102
RTVSPropertyOp16
 70
     1
102
RTVSPropertyOp17
 70
     1
102
RTVSPropertyOp18
 70
     1
102
RTVSPropertyOp19
 70
     1
102
RTVSPropertyOp20
 70
     1
102
RTVSPropertyOp21
 70
     1
102
RTVSPropertyOp22
 70
     1
102
RTVSPropertyOp23
 70
     1
102
RTVSPropertyOp24
 70
     1
102
RTVSPropertyOp25
 70
     1
102
RTVSPropertyOp26
 70
     1
102
RTVSPropertyOp27
 70
     1
102
RTVSPropertyOp28
 70
     1
102
RTVSPropertyOp29
 70
     1
102
RTVSPropertyOp30
 70
     1
102
RTVSPropertyOp31
 70
     1
102
RTVSPropertyOp32
 70
     1
  0
XRECORD
  5
274
102
{ACAD_REACTORS
330
273
102
}
330
273
100
AcDbXrecord
280
     1
102
RTVSPropertyOp0
 70
     1
102
RTVSPropertyOp1
 70
     1
102
RTVSPropertyOp2
 70
     1
102
RTVSPropertyOp3
 70
     1
102
RTVSPropertyOp4
 70
     1
102
RTVSPropertyOp5
 70
     1
102
RTVSPropertyOp6
 70
     1
102
RTVSPropertyOp7
 70
     1
102
RTVSPropertyOp8
 70
     1
102
RTVSPropertyOp9
 70
     1
102
RTVSPropertyOp10
 70
     1
102
RTVSPropertyOp11
 70
     1
102
RTVSPropertyOp12
 70
     1
102
RTVSPropertyOp13
 70
     1
102
RTVSPropertyOp14
 70
     1
102
RTVSPropertyOp15
 70
     1
102
RTVSPropertyOp16
 70
     1
102
RTVSPropertyOp17
 70
     1
102
RTVSPropertyOp18
 70
     1
102
RTVSPropertyOp19
 70
     1
102
RTVSPropertyOp20
 70
     1
102
RTVSPropertyOp21
 70
     1
102
RTVSPropertyOp22
 70
     1
102
RTVSPropertyOp23
 70
     1
102
RTVSPropertyOp24
 70
     1
102
RTVSPropertyOp25
 70
     1
102
RTVSPropertyOp26
 70
     1
102
RTVSPropertyOp27
 70
     1
102
RTVSPropertyOp28
 70
     1
102
RTVSPropertyOp29
 70
     1
102
RTVSPropertyOp30
 70
     1
102
RTVSPropertyOp31
 70
     1
102
RTVSPropertyOp32
 70
     1
  0
XRECORD
  5
288
102
{ACAD_REACTORS
330
287
102
}
330
287
100
AcDbXrecord
280
     1
102
RTVSPropertyOp0
 70
     1
102
RTVSPropertyOp1
 70
     1
102
RTVSPropertyOp2
 70
     1
102
RTVSPropertyOp3
 70
     1
102
RTVSPropertyOp4
 70
     1
102
RTVSPropertyOp5
 70
     1
102
RTVSPropertyOp6
 70
     1
102
RTVSPropertyOp7
 70
     1
102
RTVSPropertyOp8
 70
     1
102
RTVSPropertyOp9
 70
     1
102
RTVSPropertyOp10
 70
     1
102
RTVSPropertyOp11
 70
     1
102
RTVSPropertyOp12
 70
     1
102
RTVSPropertyOp13
 70
     1
102
RTVSPropertyOp14
 70
     1
102
RTVSPropertyOp15
 70
     1
102
RTVSPropertyOp16
 70
     1
102
RTVSPropertyOp17
 70
     1
102
RTVSPropertyOp18
 70
     1
102
RTVSPropertyOp19
 70
     1
102
RTVSPropertyOp20
 70
     1
102
RTVSPropertyOp21
 70
     1
102
RTVSPropertyOp22
 70
     1
102
RTVSPropertyOp23
 70
     1
102
RTVSPropertyOp24
 70
     1
102
RTVSPropertyOp25
 70
     1
102
RTVSPropertyOp26
 70
     1
102
RTVSPropertyOp27
 70
     1
102
RTVSPropertyOp28
 70
     1
102
RTVSPropertyOp29
 70
     1
102
RTVSPropertyOp30
 70
     1
102
RTVSPropertyOp31
 70
     1
102
RTVSPropertyOp32
 70
     1
  0
XRECORD
  5
27E
102
{ACAD_REACTORS
330
27D
102
}
330
27D
100
AcDbXrecord
280
     1
102
RTVSPropertyOp0
 70
     1
102
RTVSPropertyOp1
 70
     1
102
RTVSPropertyOp2
 70
     1
102
RTVSPropertyOp3
 70
     1
102
RTVSPropertyOp4
 70
     1
102
RTVSPropertyOp5
 70
     1
102
RTVSPropertyOp6
 70
     1
102
RTVSPropertyOp7
 70
     1
102
RTVSPropertyOp8
 70
     1
102
RTVSPropertyOp9
 70
     1
102
RTVSPropertyOp10
 70
     1
102
RTVSPropertyOp11
 70
     1
102
RTVSPropertyOp12
 70
     1
102
RTVSPropertyOp13
 70
     1
102
RTVSPropertyOp14
 70
     1
102
RTVSPropertyOp15
 70
     1
102
RTVSPropertyOp16
 70
     1
102
RTVSPropertyOp17
 70
     1
102
RTVSPropertyOp18
 70
     1
102
RTVSPropertyOp19
 70
     1
102
RTVSPropertyOp20
 70
     1
102
RTVSPropertyOp21
 70
     1
102
RTVSPropertyOp22
 70
     1
102
RTVSPropertyOp23
 70
     1
102
RTVSPropertyOp24
 70
     1
102
RTVSPropertyOp25
 70
     1
102
RTVSPropertyOp26
 70
     1
102
RTVSPropertyOp27
 70
     1
102
RTVSPropertyOp28
 70
     1
102
RTVSPropertyOp29
 70
     1
102
RTVSPropertyOp30
 70
     1
102
RTVSPropertyOp31
 70
     1
102
RTVSPropertyOp32
 70
     1
  0
XRECORD
  5
286
102
{ACAD_REACTORS
330
285
102
}
330
285
100
AcDbXrecord
280
     1
102
RTVSPropertyOp0
 70
     1
102
RTVSPropertyOp1
 70
     1
102
RTVSPropertyOp2
 70
     1
102
RTVSPropertyOp3
 70
     1
102
RTVSPropertyOp4
 70
     1
102
RTVSPropertyOp5
 70
     1
102
RTVSPropertyOp6
 70
     1
102
RTVSPropertyOp7
 70
     1
102
RTVSPropertyOp8
 70
     1
102
RTVSPropertyOp9
 70
     1
102
RTVSPropertyOp10
 70
     1
102
RTVSPropertyOp11
 70
     1
102
RTVSPropertyOp12
 70
     1
102
RTVSPropertyOp13
 70
     1
102
RTVSPropertyOp14
 70
     1
102
RTVSPropertyOp15
 70
     1
102
RTVSPropertyOp16
 70
     1
102
RTVSPropertyOp17
 70
     1
102
RTVSPropertyOp18
 70
     1
102
RTVSPropertyOp19
 70
     1
102
RTVSPropertyOp20
 70
     1
102
RTVSPropertyOp21
 70
     1
102
RTVSPropertyOp22
 70
     1
102
RTVSPropertyOp23
 70
     1
102
RTVSPropertyOp24
 70
     1
102
RTVSPropertyOp25
 70
     1
102
RTVSPropertyOp26
 70
     1
102
RTVSPropertyOp27
 70
     1
102
RTVSPropertyOp28
 70
     1
102
RTVSPropertyOp29
 70
     1
102
RTVSPropertyOp30
 70
     1
102
RTVSPropertyOp31
 70
     1
102
RTVSPropertyOp32
 70
     1
  0
ENDSEC
  0
EOF
