  0
SECTION
  2
HEADER
  9
$ACADVER
  1
AC1018
  9
$ACADMAINTVER
 70
     0
  9
$DWGCODEPAGE
  3
ANSI_1252
  9
$INSBASE
 10
0.0
 20
0.0
 30
0.0
  9
$EXTMIN
 10
-385.265001025923
 20
-271.1024241738891
 30
0.0
  9
$EXTMAX
 10
-88.2650010259249
 20
-61.10242417388895
 30
0.0
  9
$LIMMIN
 10
0.0
 20
0.0
  9
$LIMMAX
 10
12.0
 20
9.0
  9
$ORTHOMODE
 70
     0
  9
$REGENMODE
 70
     1
  9
$FILLMODE
 70
     1
  9
$QTEXTMODE
 70
     0
  9
$MIRRTEXT
 70
     1
  9
$LTSCALE
 40
1.0
  9
$ATTMODE
 70
     1
  9
$TEXTSIZE
 40
0.2
  9
$TRACEWID
 40
0.05
  9
$TEXTSTYLE
  7
Standard
  9
$CLAYER
  8
0
  9
$CELTYPE
  6
ByLayer
  9
$CECOLOR
 62
   256
  9
$CELTSCALE
 40
1.0
  9
$DISPSILH
 70
     0
  9
$DIMSCALE
 40
1.0
  9
$DIMASZ
 40
0.18
  9
$DIMEXO
 40
0.0625
  9
$DIMDLI
 40
0.38
  9
$DIMRND
 40
0.0
  9
$DIMDLE
 40
0.0
  9
$DIMEXE
 40
0.18
  9
$DIMTP
 40
0.0
  9
$DIMTM
 40
0.0
  9
$DIMTXT
 40
0.18
  9
$DIMCEN
 40
0.09
  9
$DIMTSZ
 40
0.0
  9
$DIMTOL
 70
     0
  9
$DIMLIM
 70
     0
  9
$DIMTIH
 70
     1
  9
$DIMTOH
 70
     1
  9
$DIMSE1
 70
     0
  9
$DIMSE2
 70
     0
  9
$DIMTAD
 70
     0
  9
$DIMZIN
 70
     0
  9
$DIMBLK
  1

  9
$DIMASO
 70
     1
  9
$DIMSHO
 70
     1
  9
$DIMPOST
  1

  9
$DIMAPOST
  1

  9
$DIMALT
 70
     0
  9
$DIMALTD
 70
     2
  9
$DIMALTF
 40
25.4
  9
$DIMLFAC
 40
1.0
  9
$DIMTOFL
 70
     0
  9
$DIMTVP
 40
0.0
  9
$DIMTIX
 70
     0
  9
$DIMSOXD
 70
     0
  9
$DIMSAH
 70
     0
  9
$DIMBLK1
  1

  9
$DIMBLK2
  1

  9
$DIMSTYLE
  2
Standard
  9
$DIMCLRD
 70
     0
  9
$DIMCLRE
 70
     0
  9
$DIMCLRT
 70
     0
  9
$DIMTFAC
 40
1.0
  9
$DIMGAP
 40
0.09
  9
$DIMJUST
 70
     0
  9
$DIMSD1
 70
     0
  9
$DIMSD2
 70
     0
  9
$DIMTOLJ
 70
     1
  9
$DIMTZIN
 70
     0
  9
$DIMALTZ
 70
     0
  9
$DIMALTTZ
 70
     0
  9
$DIMUPT
 70
     0
  9
$DIMDEC
 70
     4
  9
$DIMTDEC
 70
     4
  9
$DIMALTU
 70
     2
  9
$DIMALTTD
 70
     2
  9
$DIMTXSTY
  7
Standard
  9
$DIMAUNIT
 70
     0
  9
$DIMADEC
 70
     0
  9
$DIMALTRND
 40
0.0
  9
$DIMAZIN
 70
     0
  9
$DIMDSEP
 70
    46
  9
$DIMATFIT
 70
     3
  9
$DIMFRAC
 70
     0
  9
$DIMLDRBLK
  1

  9
$DIMLUNIT
 70
     2
  9
$DIMLWD
 70
    -2
  9
$DIMLWE
 70
    -2
  9
$DIMTMOVE
 70
     0
  9
$LUNITS
 70
     2
  9
$LUPREC
 70
     4
  9
$SKETCHINC
 40
0.1
  9
$FILLETRAD
 40
0.5
  9
$AUNITS
 70
     0
  9
$AUPREC
 70
     0
  9
$MENU
  1
.
  9
$ELEVATION
 40
0.0
  9
$PELEVATION
 40
0.0
  9
$THICKNESS
 40
0.0
  9
$LIMCHECK
 70
     0
  9
$CHAMFERA
 40
0.5
  9
$CHAMFERB
 40
0.5
  9
$CHAMFERC
 40
1.0
  9
$CHAMFERD
 40
0.0
  9
$SKPOLY
 70
     0
  9
$TDCREATE
 40
2458082.410551574
  9
$TDUCREATE
 40
2458082.368884908
  9
$TDUPDATE
 40
2458082.410552118
  9
$TDUUPDATE
 40
2458082.368885451
  9
$TDINDWG
 40
0.0000000116
  9
$TDUSRTIMER
 40
0.0000000116
  9
$USRTIMER
 70
     1
  9
$ANGBASE
 50
0.0
  9
$ANGDIR
 70
     0
  9
$PDMODE
 70
     0
  9
$PDSIZE
 40
0.0
  9
$PLINEWID
 40
0.0
  9
$SPLFRAME
 70
     0
  9
$SPLINETYPE
 70
     6
  9
$SPLINESEGS
 70
     8
  9
$HANDSEED
  5
290
  9
$SURFTAB1
 70
     6
  9
$SURFTAB2
 70
     6
  9
$SURFTYPE
 70
     6
  9
$SURFU
 70
     6
  9
$SURFV
 70
     6
  9
$UCSBASE
  2

  9
$UCSNAME
  2

  9
$UCSORG
 10
0.0
 20
0.0
 30
0.0
  9
$UCSXDIR
 10
1.0
 20
0.0
 30
0.0
  9
$UCSYDIR
 10
0.0
 20
1.0
 30
0.0
  9
$UCSORTHOREF
  2

  9
$UCSORTHOVIEW
 70
     0
  9
$UCSORGTOP
 10
0.0
 20
0.0
 30
0.0
  9
$UCSORGBOTTOM
 10
0.0
 20
0.0
 30
0.0
  9
$UCSORGLEFT
 10
0.0
 20
0.0
 30
0.0
  9
$UCSORGRIGHT
 10
0.0
 20
0.0
 30
0.0
  9
$UCSORGFRONT
 10
0.0
 20
0.0
 30
0.0
  9
$UCSORGBACK
 10
0.0
 20
0.0
 30
0.0
  9
$PUCSBASE
  2

  9
$PUCSNAME
  2

  9
$PUCSORG
 10
0.0
 20
0.0
 30
0.0
  9
$PUCSXDIR
 10
1.0
 20
0.0
 30
0.0
  9
$PUCSYDIR
 10
0.0
 20
1.0
 30
0.0
  9
$PUCSORTHOREF
  2

  9
$PUCSORTHOVIEW
 70
     0
  9
$PUCSORGTOP
 10
0.0
 20
0.0
 30
0.0
  9
$PUCSORGBOTTOM
 10
0.0
 20
0.0
 30
0.0
  9
$PUCSORGLEFT
 10
0.0
 20
0.0
 30
0.0
  9
$PUCSORGRIGHT
 10
0.0
 20
0.0
 30
0.0
  9
$PUCSORGFRONT
 10
0.0
 20
0.0
 30
0.0
  9
$PUCSORGBACK
 10
0.0
 20
0.0
 30
0.0
  9
$USERI1
 70
     0
  9
$USERI2
 70
     0
  9
$USERI3
 70
     0
  9
$USERI4
 70
     0
  9
$USERI5
 70
     0
  9
$USERR1
 40
18.1
  9
$USERR2
 40
0.0
  9
$USERR3
 40
0.0
  9
$USERR4
 40
0.0
  9
$USERR5
 40
0.0
  9
$WORLDVIEW
 70
     1
  9
$SHADEDGE
 70
     3
  9
$SHADEDIF
 70
    70
  9
$TILEMODE
 70
     1
  9
$MAXACTVP
 70
    64
  9
$PINSBASE
 10
0.0
 20
0.0
 30
0.0
  9
$PLIMCHECK
 70
     0
  9
$PEXTMIN
 10
1.00000000000000E+20
 20
1.00000000000000E+20
 30
1.00000000000000E+20
  9
$PEXTMAX
 10
-1.00000000000000E+20
 20
-1.00000000000000E+20
 30
-1.00000000000000E+20
  9
$PLIMMIN
 10
0.0
 20
0.0
  9
$PLIMMAX
 10
12.0
 20
9.0
  9
$UNITMODE
 70
     0
  9
$VISRETAIN
 70
     1
  9
$PLINEGEN
 70
     0
  9
$PSLTSCALE
 70
     1
  9
$TREEDEPTH
 70
  3020
  9
$CMLSTYLE
  2
Standard
  9
$CMLJUST
 70
     0
  9
$CMLSCALE
 40
1.0
  9
$PROXYGRAPHICS
 70
     1
  9
$MEASUREMENT
 70
     1
  9
$CELWEIGHT
370
    -1
  9
$ENDCAPS
280
     0
  9
$JOINSTYLE
280
     0
  9
$LWDISPLAY
290
     0
  9
$INSUNITS
 70
     4
  9
$HYPERLINKBASE
  1

  9
$STYLESHEET
  1

  9
$XEDIT
290
     1
  9
$CEPSNTYPE
380
     0
  9
$PSTYLEMODE
290
     1
  9
$FINGERPRINTGUID
  2
{12305A57-AE7B-485B-B283-AEF3DFE290A2}
  9
$VERSIONGUID
  2
{FAEB1C32-E019-11D5-929B-00C0DF256EC4}
  9
$EXTNAMES
290
     1
  9
$PSVPSCALE
 40
0.0
  9
$OLESTARTUP
290
     0
  9
$SORTENTS
280
   127
  9
$INDEXCTL
280
     0
  9
$HIDETEXT
280
     1
  9
$XCLIPFRAME
290
     0
  9
$HALOGAP
280
     0
  9
$OBSCOLOR
 70
   257
  9
$OBSLTYPE
280
     0
  9
$INTERSECTIONDISPLAY
280
     0
  9
$INTERSECTIONCOLOR
 70
   257
  9
$DIMASSOC
280
     2
  9
$PROJECTNAME
  1

  0
ENDSEC
  0
SECTION
  2
CLASSES
  0
CLASS
  1
ACDBDICTIONARYWDFLT
  2
AcDbDictionaryWithDefault
  3
ObjectDBX Classes
 90
        0
 91
        4
280
     0
281
     0
  0
CLASS
  1
VISUALSTYLE
  2
AcDbVisualStyle
  3
ObjectDBX Classes
 90
     4095
 91
        4
280
     0
281
     0
  0
CLASS
  1
MATERIAL
  2
AcDbMaterial
  3
ObjectDBX Classes
 90
     1153
 91
        4
280
     0
281
     0
  0
ENDSEC
  0
SECTION
  2
TABLES
  0
TABLE
  2
VPORT
  5
8
330
0
100
AcDbSymbolTable
 70
     1
  0
VPORT
  5
29
330
8
100
AcDbSymbolTableRecord
100
AcDbViewportTableRecord
  2
*Active
 70
     0
 10
0.0
 20
0.0
 11
1.0
 21
1.0
 12
-236.765001025924
 22
-166.102424173889
 13
0.0
 23
0.0
 14
0.5
 24
0.5
 15
0.5
 25
0.5
 16
0.0
 26
0.0
 36
1.0
 17
0.0
 27
0.0
 37
0.0
 40
231.0000000000002
 41
1.60267857142857
 42
50.0
 43
0.0
 44
0.0
 50
0.0
 51
0.0
 71
     0
 72
   100
 73
     1
 74
     3
 75
     0
 76
     0
 77
     0
 78
     0
281
     0
 65
     1
110
0.0
120
0.0
130
0.0
111
1.0
121
0.0
131
0.0
112
0.0
122
1.0
132
0.0
 79
     0
146
0.0
  0
ENDTAB
  0
TABLE
  2
LTYPE
  5
5
330
0
100
AcDbSymbolTable
 70
     8
  0
LTYPE
  5
14
330
5
100
AcDbSymbolTableRecord
100
AcDbLinetypeTableRecord
  2
ByBlock
 70
     0
  3

 72
    65
 73
     0
 40
0.0
  0
LTYPE
  5
15
330
5
100
AcDbSymbolTableRecord
100
AcDbLinetypeTableRecord
  2
ByLayer
 70
     0
  3

 72
    65
 73
     0
 40
0.0
  0
LTYPE
  5
16
330
5
100
AcDbSymbolTableRecord
100
AcDbLinetypeTableRecord
  2
Continuous
 70
     0
  3
Solid line
 72
    65
 73
     0
 40
0.0
  0
LTYPE
  5
3F
330
5
100
AcDbSymbolTableRecord
100
AcDbLinetypeTableRecord
  2
DASHED
 70
     0
  3
Dashed
 72
    65
 73
     2
 40
15.0
 49
7.0
 74
     0
 49
-8.0
 74
     0
  0
LTYPE
  5
40
330
5
100
AcDbSymbolTableRecord
100
AcDbLinetypeTableRecord
  2
DOTTED
 70
     0
  3
Dotted
 72
    65
 73
     2
 40
1.0
 49
0.0
 74
     0
 49
-1.0
 74
     0
  0
LTYPE
  5
41
330
5
100
AcDbSymbolTableRecord
100
AcDbLinetypeTableRecord
  2
DOT_CENTER
 70
     0
  3
Dot_Center
 72
    65
 73
     4
 40
14.0
 49
12.0
 74
     0
 49
-1.0
 74
     0
 49
0.0
 74
     0
 49
-1.0
 74
     0
  0
LTYPE
  5
42
330
5
100
AcDbSymbolTableRecord
100
AcDbLinetypeTableRecord
  2
LONG_DASHED
 70
     0
  3
Long_Dashed
 72
    65
 73
     2
 40
15.0
 49
10.0
 74
     0
 49
-5.0
 74
     0
  0
LTYPE
  5
43
330
5
100
AcDbSymbolTableRecord
100
AcDbLinetypeTableRecord
  2
DASH_CENTER
 70
     0
  3
Dash_Center
 72
    65
 73
     4
 40
14.0
 49
11.0
 74
     0
 49
-1.0
 74
     0
 49
1.0
 74
     0
 49
-1.0
 74
     0
  0
LTYPE
  5
44
330
5
100
AcDbSymbolTableRecord
100
AcDbLinetypeTableRecord
  2
PHANTOM
 70
     0
  3
Phantom
 72
    65
 73
     6
 40
13.0
 49
10.0
 74
     0
 49
-1.0
 74
     0
 49
0.0
 74
     0
 49
-1.0
 74
     0
 49
0.0
 74
     0
 49
-1.0
 74
     0
  0
LTYPE
  5
45
330
5
100
AcDbSymbolTableRecord
100
AcDbLinetypeTableRecord
  2
CENTER_DASH_DASH
 70
     0
  3
Center_Dash_Dash
 72
    65
 73
     6
 40
14.0
 49
9.0
 74
     0
 49
-1.0
 74
     0
 49
1.0
 74
     0
 49
-1.0
 74
     0
 49
1.0
 74
     0
 49
-1.0
 74
     0
  0
ENDTAB
  0
TABLE
  2
LAYER
  5
2
330
0
100
AcDbSymbolTable
 70
     2
  0
LAYER
  5
10
330
2
100
AcDbSymbolTableRecord
100
AcDbLayerTableRecord
  2
0
 70
     0
 62
     7
  6
Continuous
370
    -3
390
F
  0
LAYER
  5
46
330
2
100
AcDbSymbolTableRecord
100
AcDbLayerTableRecord
  2
1
 70
     0
 62
     7
  6
Continuous
370
    -3
390
F
  0
ENDTAB
  0
TABLE
  2
STYLE
  5
3
330
0
100
AcDbSymbolTable
 70
     5
  0
STYLE
  5
11
330
3
100
AcDbSymbolTableRecord
100
AcDbTextStyleTableRecord
  2
Standard
 70
     0
 40
0.0
 41
1.0
 50
0.0
 71
     0
 42
0.2
  3
txt
  4

  0
STYLE
  5
98
330
3
100
AcDbSymbolTableRecord
100
AcDbTextStyleTableRecord
  2
CONVERTER_11
 70
     0
 40
0.0
 41
0.9
 50
0.0
 71
     0
 42
0.2
  3
txt.shx
  4

  0
STYLE
  5
22B
330
3
100
AcDbSymbolTableRecord
100
AcDbTextStyleTableRecord
  2
CONVERTER_12
 70
     0
 40
0.0
 41
0.81
 50
0.0
 71
     0
 42
0.2
  3
txt.shx
  4

  0
STYLE
  5
241
330
3
100
AcDbSymbolTableRecord
100
AcDbTextStyleTableRecord
  2
CONVERTER_13
 70
     0
 40
0.0
 41
0.72
 50
0.0
 71
     0
 42
0.2
  3
txt.shx
  4

  0
STYLE
  5
244
330
3
100
AcDbSymbolTableRecord
100
AcDbTextStyleTableRecord
  2
CONVERTER_14
 70
     0
 40
0.0
 41
0.855
 50
0.0
 71
     0
 42
0.2
  3
txt.shx
  4

  0
ENDTAB
  0
TABLE
  2
VIEW
  5
6
330
0
100
AcDbSymbolTable
 70
     0
  0
ENDTAB
  0
TABLE
  2
UCS
  5
7
330
0
100
AcDbSymbolTable
 70
     0
  0
ENDTAB
  0
TABLE
  2
APPID
  5
9
330
0
100
AcDbSymbolTable
 70
     1
  0
APPID
  5
12
330
9
100
AcDbSymbolTableRecord
100
AcDbRegAppTableRecord
  2
ACAD
 70
     0
  0
ENDTAB
  0
TABLE
  2
DIMSTYLE
  5
A
330
0
100
AcDbSymbolTable
 70
     3
100
AcDbDimStyleTable
  0
DIMSTYLE
105
27
330
A
100
AcDbSymbolTableRecord
100
AcDbDimStyleTableRecord
  2
Standard
 70
     0
178
     0
340
11
  0
DIMSTYLE
105
122
102
{ACAD_REACTORS
330
123
102
}
330
A
100
AcDbSymbolTableRecord
100
AcDbDimStyleTableRecord
  2
ME10_DIM_10
 70
     0
 41
1.75
 42
0.0
 44
0.75
 73
     0
 74
     0
 77
     1
 78
     8
140
1.75
147
0.75
172
     1
173
     1
174
     1
175
     1
176
     2
177
     2
271
     2
178
     3
271
     2
340
98
  0
DIMSTYLE
105
12D
102
{ACAD_REACTORS
330
12E
102
}
330
A
100
AcDbSymbolTableRecord
100
AcDbDimStyleTableRecord
  2
ME10_DIM_11
 70
     0
  3
ø<>
 41
1.75
 42
0.0
 44
0.75
 73
     0
 74
     0
 77
     1
 78
     8
140
1.75
147
0.75
172
     1
173
     1
174
     1
175
     1
176
     2
177
     2
271
     2
178
     3
271
     2
340
98
  0
ENDTAB
  0
TABLE
  2
BLOCK_RECORD
  5
1
330
0
100
AcDbSymbolTable
 70
    19
  0
BLOCK_RECORD
  5
1F
330
1
100
AcDbSymbolTableRecord
100
AcDbBlockTableRecord
  2
*Model_Space
340
22
  0
BLOCK_RECORD
  5
1B
330
1
100
AcDbSymbolTableRecord
100
AcDbBlockTableRecord
  2
*Paper_Space
340
1E
  0
BLOCK_RECORD
  5
23
330
1
100
AcDbSymbolTableRecord
100
AcDbBlockTableRecord
  2
*Paper_Space0
340
26
  0
BLOCK_RECORD
  5
47
330
1
100
AcDbSymbolTableRecord
100
AcDbBlockTableRecord
  2
WP_SC_BRASS_21-select__1
340
0
102
{BLKREFS
331
4B
102
}
  0
BLOCK_RECORD
  5
4A
330
1
100
AcDbSymbolTableRecord
100
AcDbBlockTableRecord
  2
Allg1
340
0
102
{BLKREFS
331
7D
102
}
  0
BLOCK_RECORD
  5
4E
330
1
100
AcDbSymbolTableRecord
100
AcDbBlockTableRecord
  2
WP_SC_BRASS_21-select__2
340
0
102
{BLKREFS
331
52
102
}
  0
BLOCK_RECORD
  5
51
330
1
100
AcDbSymbolTableRecord
100
AcDbBlockTableRecord
  2
Drfsicht1
340
0
102
{BLKREFS
331
7E
102
}
  0
BLOCK_RECORD
  5
55
330
1
100
AcDbSymbolTableRecord
100
AcDbBlockTableRecord
  2
WP_SC_BRASS_21-select__3
340
0
102
{BLKREFS
331
59
102
}
  0
BLOCK_RECORD
  5
58
330
1
100
AcDbSymbolTableRecord
100
AcDbBlockTableRecord
  2
Rckans1
340
0
102
{BLKREFS
331
7F
102
}
  0
BLOCK_RECORD
  5
5C
330
1
100
AcDbSymbolTableRecord
100
AcDbBlockTableRecord
  2
WP_SC_BRASS_21-select__4
340
0
102
{BLKREFS
331
60
102
}
  0
BLOCK_RECORD
  5
5F
330
1
100
AcDbSymbolTableRecord
100
AcDbBlockTableRecord
  2
SA_Links1
340
0
102
{BLKREFS
331
80
102
}
  0
BLOCK_RECORD
  5
63
330
1
100
AcDbSymbolTableRecord
100
AcDbBlockTableRecord
  2
WP_SC_BRASS_21-select__5
340
0
102
{BLKREFS
331
67
102
}
  0
BLOCK_RECORD
  5
66
330
1
100
AcDbSymbolTableRecord
100
AcDbBlockTableRecord
  2
SA_Rechts1
340
0
102
{BLKREFS
331
81
102
}
  0
BLOCK_RECORD
  5
6A
330
1
100
AcDbSymbolTableRecord
100
AcDbBlockTableRecord
  2
WP_SC_BRASS_21-select__6
340
0
102
{BLKREFS
331
6E
102
}
  0
BLOCK_RECORD
  5
6D
330
1
100
AcDbSymbolTableRecord
100
AcDbBlockTableRecord
  2
Vordans1
340
0
102
{BLKREFS
331
82
102
}
  0
BLOCK_RECORD
  5
71
330
1
100
AcDbSymbolTableRecord
100
AcDbBlockTableRecord
  2
_rahmen
340
0
102
{BLKREFS
331
78
102
}
  0
BLOCK_RECORD
  5
74
330
1
100
AcDbSymbolTableRecord
100
AcDbBlockTableRecord
  2
_punkt
340
0
102
{BLKREFS
331
79
102
}
  0
BLOCK_RECORD
  5
77
330
1
100
AcDbSymbolTableRecord
100
AcDbBlockTableRecord
  2
A4I_CS
340
0
102
{BLKREFS
331
83
102
}
  0
BLOCK_RECORD
  5
7C
330
1
100
AcDbSymbolTableRecord
100
AcDbBlockTableRecord
  2
1
340
0
102
{BLKREFS
331
86
102
}
  0
BLOCK_RECORD
  5
119
330
1
100
AcDbSymbolTableRecord
100
AcDbBlockTableRecord
  2
*D17
340
0
  0
BLOCK_RECORD
  5
124
330
1
100
AcDbSymbolTableRecord
100
AcDbBlockTableRecord
  2
*D18
340
0
  0
ENDTAB
  0
ENDSEC
  0
SECTION
  2
BLOCKS
  0
BLOCK
  5
20
330
1F
100
AcDbEntity
  8
0
100
AcDbBlockBegin
  2
*Model_Space
 70
     0
 10
0.0
 20
0.0
 30
0.0
  3
*Model_Space
  1

  0
ENDBLK
  5
21
330
1F
100
AcDbEntity
  8
0
100
AcDbBlockEnd
  0
BLOCK
  5
1C
330
1B
100
AcDbEntity
 67
     1
  8
0
100
AcDbBlockBegin
  2
*Paper_Space
 70
     0
 10
0.0
 20
0.0
 30
0.0
  3
*Paper_Space
  1

  0
ENDBLK
  5
1D
330
1B
100
AcDbEntity
 67
     1
  8
0
100
AcDbBlockEnd
  0
BLOCK
  5
24
330
23
100
AcDbEntity
  8
0
100
AcDbBlockBegin
  2
*Paper_Space0
 70
     0
 10
0.0
 20
0.0
 30
0.0
  3
*Paper_Space0
  1

  0
ENDBLK
  5
25
330
23
100
AcDbEntity
  8
0
100
AcDbBlockEnd
  0
BLOCK
  5
48
330
47
100
AcDbEntity
  8
0
100
AcDbBlockBegin
  2
WP_SC_BRASS_21-select__1
 70
     0
 10
-83.61288198199719
 20
-110.9198937476924
 30
0.0
  3
WP_SC_BRASS_21-select__1
  1

  0
LINE
  5
87
330
47
100
AcDbEntity
  8
0
  6
Continuous
 62
     7
100
AcDbLine
 10
-62.63334425513138
 20
-105.6702341642025
 30
0.0
 11
-66.73334425513137
 21
-109.2209383197187
 31
0.0
  0
LINE
  5
88
330
47
100
AcDbEntity
  8
0
  6
Continuous
 62
     7
100
AcDbLine
 10
-77.16665574484847
 20
-88.88861156259284
 30
0.0
 11
-81.26665574484848
 21
-92.43931571810904
 31
0.0
  0
SPLINE
  5
89
330
47
100
AcDbEntity
  8
0
  6
Continuous
 62
     7
100
AcDbSpline
210
0.0
220
0.0
230
1.0
 70
     8
 71
     3
 72
    21
 73
    17
 74
    15
 42
0.000000001
 43
0.0000000001
 44
0.00000001
 40
0.0
 40
0.0
 40
0.0
 40
0.0
 40
1.369888471444663
 40
2.805280542492722
 40
4.325541817737674
 40
5.934544990819944
 40
7.622414733455946
 40
9.368704445190192
 40
11.14594553664991
 40
12.92318662810965
 40
14.66947633984389
 40
16.3573460824799
 40
17.96634925556217
 40
19.48661053080714
 40
20.9220026018552
 40
22.29189107329986
 40
22.29189107329986
 40
22.29189107329986
 40
22.29189107329986
 10
-57.48273181625041
 20
-98.08449437414316
 30
0.0
 10
-57.23604104868346
 20
-97.69733439332191
 30
0.0
 10
-56.7308635779118
 20
-96.90450169698717
 30
0.0
 10
-56.36861076396222
 20
-95.48668481000804
 30
0.0
 10
-56.29487376294192
 20
-93.9597368579277
 30
0.0
 10
-56.53793020344733
 20
-92.3619684768375
 30
0.0
 10
-57.0767937082491
 20
-90.76182220278534
 30
0.0
 10
-57.89151193976208
 20
-89.21942691999476
 30
0.0
 10
-58.94881774686008
 20
-87.79542083071392
 30
0.0
 10
-60.20717457265854
 20
-86.54553003108444
 30
0.0
 10
-61.61736167966979
 20
-85.51882592163827
 30
0.0
 10
-63.12411526252689
 20
-84.75689704325299
 30
0.0
 10
-64.67077349375487
 20
-84.28808092934737
 30
0.0
 10
-66.1925938844814
 20
-84.14292621171586
 30
0.0
 10
-67.6476190773754
 20
-84.29891824440197
 30
0.0
 10
-68.50448815145907
 20
-84.68565245704882
 30
0.0
 10
-68.92291869393424
 20
-84.87450442732242
 30
0.0
 11
-57.48273181625041
 21
-98.08449437414316
 31
0.0
 11
-56.80710189594982
 21
-96.89280706362798
 31
0.0
 11
-56.42283693444971
 21
-95.50980639450856
 31
0.0
 11
-56.3455041223663
 21
-93.991513277196
 31
0.0
 11
-56.5782343535463
 21
-92.39943041030642
 31
0.0
 11
-57.11160196874803
 21
-90.79804873929176
 31
0.0
 11
-57.92400006367347
 21
-89.25223597915357
 31
0.0
 11
-58.98252189965852
 21
-87.82460948325041
 31
0.0
 11
-60.24428828030968
 21
-86.5729979262087
 31
0.0
 11
-61.6581892607761
 21
-85.54810194539866
 31
0.0
 11
-63.16695069660841
 21
-84.79143610174444
 31
0.0
 11
-64.70945690090423
 21
-84.33365250083963
 31
0.0
 11
-66.22322491404043
 21
-84.19329311814963
 31
0.0
 11
-67.64693558043564
 21
-84.37604527221067
 31
0.0
 11
-68.92291869393424
 21
-84.87450442732242
 31
0.0
  0
SPLINE
  5
8A
330
47
100
AcDbEntity
  8
0
  6
Continuous
 62
     7
100
AcDbSpline
210
0.0
220
0.0
230
1.0
 70
     8
 71
     3
 72
    11
 73
     7
 74
     5
 42
0.000000001
 43
0.0000000001
 44
0.00000001
 40
0.0
 40
0.0
 40
0.0
 40
0.0
 40
1.146194289988074
 40
2.31953446389792
 40
3.542124006083476
 40
4.827770291889481
 40
4.827770291889481
 40
4.827770291889481
 40
4.827770291889481
 10
-68.40271111543673
 20
-107.2933195073717
 30
0.0
 10
-68.13058134366214
 20
-107.0224100196149
 30
0.0
 10
-67.57987682777771
 20
-106.474174951432
 30
0.0
 10
-67.01977785892097
 20
-105.4183083508325
 30
0.0
 10
-66.65815868424409
 20
-104.2352327827222
 30
0.0
 10
-66.61672199264996
 20
-103.3971850798285
 30
0.0
 10
-66.59548279763298
 20
-102.9676270189139
 30
0.0
 11
-68.40271111543673
 21
-107.2933195073717
 31
0.0
 11
-67.63123376498135
 21
-106.4456261360723
 31
0.0
 11
-67.06198526837413
 21
-105.4196225696199
 31
0.0
 11
-66.71304182948377
 21
-104.2478872454095
 31
0.0
 11
-66.59548279763298
 21
-102.9676270189139
 31
0.0
  0
SPLINE
  5
8B
330
47
100
AcDbEntity
  8
0
  6
Continuous
 62
     7
100
AcDbSpline
210
0.0
220
0.0
230
1.0
 70
     8
 71
     3
 72
    21
 73
    17
 74
    15
 42
0.000000001
 43
0.0000000001
 44
0.00000001
 40
0.0
 40
0.0
 40
0.0
 40
0.0
 40
1.442927814073943
 40
2.93854712605925
 40
4.524701300564733
 40
6.216977699295606
 40
8.009103982049446
 40
9.877451448490596
 40
11.78678640579906
 40
13.6961213631075
 40
15.56446882954865
 40
17.35659511230251
 40
19.0488715110334
 40
20.63502568553886
 40
22.13064499752417
 40
23.57357281159809
 40
23.57357281159809
 40
23.57357281159809
 40
23.57357281159809
 10
-79.59728888454313
 20
-94.3669345304561
 30
0.0
 10
-79.93406286163395
 20
-94.71526827710322
 30
0.0
 10
-80.61990880486235
 20
-95.4246559071791
 30
0.0
 10
-81.21608630940167
 20
-96.84379532359998
 30
0.0
 10
-81.46384203483107
 20
-98.42678725995806
 30
0.0
 10
-81.33121610757311
 20
-100.126532605351
 30
0.0
 10
-80.83867705036877
 20
-101.8520599679368
 30
0.0
 10
-80.01023976796077
 20
-103.5244128478812
 30
0.0
 10
-78.88764863050143
 20
-105.0629548977091
 30
0.0
 10
-77.52525707877676
 20
-106.3938236969451
 30
0.0
 10
-75.98840517269343
 20
-107.4526715163743
 30
0.0
 10
-74.35093871695175
 20
-108.186662666338
 30
0.0
 10
-72.68757367904622
 20
-108.5607490553436
 30
0.0
 10
-71.08542431155963
 20
-108.5416761866464
 30
0.0
 10
-69.59567234104574
 20
-108.1543476871683
 30
0.0
 10
-68.79558268198325
 20
-107.5768773372725
 30
0.0
 10
-68.40271111543673
 20
-107.2933195073717
 30
0.0
 11
-79.59728888454313
 21
-94.3669345304561
 31
0.0
 11
-80.53559919691769
 21
-95.46311629007322
 31
0.0
 11
-81.14618862227505
 21
-96.82842127216598
 31
0.0
 11
-81.39843683737993
 21
-98.39438931482957
 31
0.0
 11
-81.27969806111149
 21
-100.0824949147195
 31
0.0
 11
-80.79592332632382
 21
-101.8080900642423
 31
0.0
 11
-79.97137401930505
 21
-103.4846462646148
 31
0.0
 11
-78.84739385395729
 21
-105.0280932385982
 31
0.0
 11
-77.4803461188769
 21
-106.361037522357
 31
0.0
 11
-75.93877857942829
 21
-107.4166377184686
 31
0.0
 11
-74.29999298595914
 21
-108.1419641227263
 31
0.0
 11
-72.64616442968264
 21
-108.5006429760395
 31
0.0
 11
-71.06022256299767
 21
-108.4746917108885
 31
0.0
 11
-69.62169401834001
 21
-108.065408475597
 31
0.0
 11
-68.40271111543673
 21
-107.2933195073717
 31
0.0
  0
SPLINE
  5
8C
330
47
100
AcDbEntity
  8
0
  6
Continuous
 62
     7
100
AcDbSpline
210
0.0
220
0.0
230
1.0
 70
     8
 71
     3
 72
    19
 73
    15
 74
    13
 42
0.000000001
 43
0.0000000001
 44
0.00000001
 40
0.0
 40
0.0
 40
0.0
 40
0.0
 40
1.53892853478542
 40
3.158056992810543
 40
4.839644266507649
 40
6.558212724426495
 40
8.284044220939435
 40
9.986614436584206
 40
11.63801093309267
 40
13.21640027064436
 40
14.7095296766148
 40
16.1179961508562
 40
17.45740462730022
 40
18.75771178459188
 40
18.75771178459188
 40
18.75771178459188
 40
18.75771178459188
 10
-66.59548279763298
 20
-102.9676270189139
 30
0.0
 10
-66.62642147487814
 20
-102.4540895359542
 30
0.0
 10
-66.68991118643736
 20
-101.4002520118454
 30
0.0
 10
-67.16291598748177
 20
-99.8440844160364
 30
0.0
 10
-67.88504474284956
 20
-98.32961872883774
 30
0.0
 10
-68.85884584625532
 20
-96.91654349976817
 30
0.0
 10
-70.03664467088356
 20
-95.66044881967193
 30
0.0
 10
-71.37432389389332
 20
-94.61117787795139
 30
0.0
 10
-72.81891571331221
 20
-93.81042476913836
 30
0.0
 10
-74.31380336580044
 20
-93.29144831419724
 30
0.0
 10
-75.80295222011961
 20
-93.0746992583786
 30
0.0
 10
-77.2213019399597
 20
-93.18051460256711
 30
0.0
 10
-78.53303087142476
 20
-93.58399827470767
 30
0.0
 10
-79.2460568293595
 20
-94.10854576319488
 30
0.0
 10
-79.59728888454313
 20
-94.3669345304561
 30
0.0
 11
-66.59548279763298
 21
-102.9676270189139
 31
0.0
 11
-66.74651644638516
 21
-101.4361277962185
 31
0.0
 11
-67.19345436090353
 21
-99.87990690513618
 31
0.0
 11
-67.91806532153007
 21
-98.36245024593542
 31
0.0
 11
-68.89078746930795
 21
-96.94566191778694
 31
0.0
 11
-70.07193995485684
 21
-95.68734035300471
 31
0.0
 11
-71.41333678575381
 21
-94.63881763881915
 31
0.0
 11
-72.86025654884543
 21
-93.84286940604113
 31
0.0
 11
-74.35367189527716
 21
-93.33196481034821
 31
0.0
 11
-75.83265919586971
 21
-93.12694776041852
 31
0.0
 11
-77.23688356776061
 21
-93.2361802136007
 31
0.0
 11
-78.50905926653326
 21
-93.65520774540633
 31
0.0
 11
-79.59728888454313
 21
-94.3669345304561
 31
0.0
  0
SPLINE
  5
8D
330
47
100
AcDbEntity
  8
0
  6
Continuous
 62
     7
100
AcDbSpline
210
0.0
220
0.0
230
1.0
 70
     8
 71
     3
 72
    11
 73
     7
 74
     5
 42
0.000000001
 43
0.0000000001
 44
0.00000001
 40
0.0
 40
0.0
 40
0.0
 40
0.0
 40
1.48804171027862
 40
3.011325445533816
 40
4.598546957037284
 40
6.267631608937378
 40
6.267631608937378
 40
6.267631608937378
 40
6.267631608937378
 10
-81.26665574484848
 20
-92.43931571810904
 30
0.0
 10
-81.61994702761473
 20
-92.79102277250077
 30
0.0
 10
-82.33489675357625
 20
-93.50276654257361
 30
0.0
 10
-83.06204278180914
 20
-94.87354072761093
 30
0.0
 10
-83.5315132914321
 20
-96.40946339495142
 30
0.0
 10
-83.58530829021824
 20
-97.49745515030729
 30
0.0
 10
-83.61288198199719
 20
-98.0551270189139
 30
0.0
 11
-81.26665574484848
 21
-92.43931571810904
 31
0.0
 11
-82.26822283140459
 21
-93.53982991944504
 31
0.0
 11
-83.00724719542096
 21
-94.87183454957618
 31
0.0
 11
-83.46026148450667
 21
-96.39303479504231
 31
0.0
 11
-83.61288198199719
 21
-98.0551270189139
 31
0.0
  0
SPLINE
  5
8E
330
47
100
AcDbEntity
  8
0
  6
Continuous
 62
     7
100
AcDbSpline
210
0.0
220
0.0
230
1.0
 70
     8
 71
     3
 72
    19
 73
    15
 74
    13
 42
0.000000001
 43
0.0000000001
 44
0.00000001
 40
0.0
 40
0.0
 40
0.0
 40
0.0
 40
1.997907220307472
 40
4.099933639285053
 40
6.283046941780261
 40
8.514170904605837
 40
10.75472407553104
 40
12.96507839065775
 40
15.1089966494098
 40
17.15813368431131
 40
19.09658238710906
 40
20.9251178104838
 40
22.66399899200837
 40
24.35211705755429
 40
24.35211705755429
 40
24.35211705755429
 40
24.35211705755429
 10
-83.61288198199719
 20
-98.0551270189139
 30
0.0
 10
-83.5727159799655
 20
-98.72182480371183
 30
0.0
 10
-83.49029074481865
 20
-100.0899647475599
 30
0.0
 10
-82.87621433458119
 20
-102.1102525030979
 30
0.0
 10
-81.93871384562318
 20
-104.0764009389484
 30
0.0
 10
-80.6744808340122
 20
-105.9109196572408
 30
0.0
 10
-79.14540867577519
 20
-107.5416390665002
 30
0.0
 10
-77.40877249154101
 20
-108.9038504646691
 30
0.0
 10
-75.53333749792918
 20
-109.9434246764182
 30
0.0
 10
-73.59260615959455
 20
-110.6171835832731
 30
0.0
 10
-71.65932519047226
 20
-110.8985770951859
 30
0.0
 10
-69.81795888693361
 20
-110.7612027892728
 30
0.0
 10
-68.1150125520725
 20
-110.2373818842182
 30
0.0
 10
-67.1893297307395
 20
-109.5563904038681
 30
0.0
 10
-66.73334425513137
 20
-109.2209383197187
 30
0.0
 11
-83.61288198199719
 21
-98.0551270189139
 31
0.0
 11
-83.41680320993297
 21
-100.0433891676764
 31
0.0
 11
-82.8365680226635
 21
-102.0637461139937
 31
0.0
 11
-81.89584502114835
 21
-104.0337775662895
 31
0.0
 11
-80.63301275912092
 21
-105.8731167993244
 31
0.0
 11
-79.09958672525043
 21
-107.5067272518486
 31
0.0
 11
-77.35812417285783
 21
-108.8679672667562
 31
0.0
 11
-75.47966693656346
 21
-109.9013035689592
 31
0.0
 11
-73.5408470131258
 21
-110.564583219508
 31
0.0
 11
-71.62075823691795
 21
-110.8307457053816
 31
0.0
 11
-69.79773010498937
 21
-110.6889351521276
 31
0.0
 11
-68.14613358377576
 21
-110.1449344968009
 31
0.0
 11
-66.73334425513137
 21
-109.2209383197187
 31
0.0
  0
SPLINE
  5
8F
330
47
100
AcDbEntity
  8
0
  6
Continuous
 62
     7
100
AcDbSpline
210
0.0
220
0.0
230
1.0
 70
     8
 71
     3
 72
    13
 73
     9
 74
     7
 42
0.000000001
 43
0.0000000001
 44
0.00000001
 40
0.0
 40
0.0
 40
0.0
 40
0.0
 40
1.426949028323658
 40
2.888363152886989
 40
4.36770051905769
 40
5.847037885228411
 40
7.308452009791734
 40
8.735401038115395
 40
8.735401038115395
 40
8.735401038115395
 40
8.735401038115395
 10
-60.31155779391442
 20
-94.6174827126232
 30
0.0
 10
-60.48091976518401
 20
-94.17223599579866
 30
0.0
 10
-60.82373432059961
 20
-93.27098852496884
 30
0.0
 10
-61.56625546288355
 20
-92.01138773572319
 30
0.0
 10
-62.45820578828383
 20
-90.83464002632421
 30
0.0
 10
-63.49546249629482
 20
-89.78373133559816
 30
0.0
 10
-64.6360695126698
 20
-88.86888302620312
 30
0.0
 10
-65.47909966742209
 20
-88.40083497176805
 30
0.0
 10
-65.89558506320829
 20
-88.16960341844513
 30
0.0
 11
-60.31155779391442
 21
-94.6174827126232
 31
0.0
 11
-60.85581849493244
 21
-93.2984058306695
 31
0.0
 11
-61.58629743429206
 21
-92.03265239243095
 31
0.0
 11
-62.48252171285827
 21
-90.8556982347222
 31
0.0
 11
-63.51937218696651
 21
-89.8005299347904
 31
0.0
 11
-64.66778906127752
 21
-88.89672136542497
 31
0.0
 11
-65.89558506320829
 21
-88.16960341844513
 31
0.0
  0
SPLINE
  5
90
330
47
100
AcDbEntity
  8
0
  6
Continuous
 62
     7
100
AcDbSpline
210
0.0
220
0.0
230
1.0
 70
     8
 71
     3
 72
    19
 73
    15
 74
    13
 42
0.000000001
 43
0.0000000001
 44
0.00000001
 40
0.0
 40
0.0
 40
0.0
 40
0.0
 40
1.489774129313882
 40
3.025795240789606
 40
4.641558392206654
 40
6.354191837285078
 40
8.163869269927867
 40
10.05631065412951
 40
12.00648790083192
 40
13.98257660558182
 40
15.94986615182354
 40
17.87461554658081
 40
19.72792870642938
 40
21.48969929259398
 40
21.48969929259398
 40
21.48969929259398
 40
21.48969929259398
 10
-72.13209012676236
 20
-86.21573214125816
 30
0.0
 10
-71.72629358107511
 20
-85.92441128514508
 30
0.0
 10
-70.90210336121838
 20
-85.33272612605008
 30
0.0
 10
-69.39398699358117
 20
-84.88483779138592
 30
0.0
 10
-67.76642211037871
 20
-84.77631370882204
 30
0.0
 10
-66.060290838933
 20
-85.03553446944527
 30
0.0
 10
-64.349485231173
 20
-85.63890992703439
 30
0.0
 10
-62.69770626436685
 20
-86.56294086590317
 30
0.0
 10
-61.16924609400482
 20
-87.76955227924518
 30
0.0
 10
-59.82421697803937
 20
-89.21115306257623
 30
0.0
 10
-58.71263331413927
 20
-90.83094873805025
 30
0.0
 10
-57.88859578357203
 20
-92.56567001108247
 30
0.0
 10
-57.34898884631736
 20
-94.34743208808221
 30
0.0
 10
-57.27658540636978
 20
-95.55377145411457
 30
0.0
 10
-57.24130040780798
 20
-96.14166743769222
 30
0.0
 11
-72.13209012676236
 21
-86.21573214125816
 31
0.0
 11
-70.8761710995098
 21
-85.41442422908489
 31
0.0
 11
-69.41265783100197
 21
-84.94806622908473
 31
0.0
 11
-67.80081733247313
 21
-84.83554611465497
 31
0.0
 11
-66.10592500835659
 21
-85.08141870441824
 31
0.0
 11
-64.39661873321816
 21
-85.6757287835928
 31
0.0
 11
-62.74212025745865
 21
-86.59440674018657
 31
0.0
 11
-61.20943236052753
 21
-87.80025047183709
 31
0.0
 11
-59.86062355691634
 21
-89.24442545447761
 31
0.0
 11
-58.75031775704071
 21
-90.86844798766955
 31
0.0
 11
-57.92347766598413
 21
-92.60654916245653
 31
0.0
 11
-57.41358948036384
 21
-94.38834143540406
 31
0.0
 11
-57.24130040780798
 21
-96.14166743769222
 31
0.0
  0
SPLINE
  5
91
330
47
100
AcDbEntity
  8
0
  6
Continuous
 62
     7
100
AcDbSpline
210
0.0
220
0.0
230
1.0
 70
     8
 71
     3
 72
    11
 73
     7
 74
     5
 42
0.000000001
 43
0.0000000001
 44
0.00000001
 40
0.0
 40
0.0
 40
0.0
 40
0.0
 40
1.459445247427815
 40
2.848087599345047
 40
4.181019715431682
 40
5.482464443790326
 40
5.482464443790326
 40
5.482464443790326
 40
5.482464443790326
 10
-57.24130040780798
 20
-96.14166743769222
 30
0.0
 10
-57.26511447163514
 20
-96.62926417680085
 30
0.0
 10
-57.31158730868582
 20
-97.58080259614344
 30
0.0
 10
-57.71695019804596
 20
-98.92565689014206
 30
0.0
 10
-58.34464843077679
 20
-100.1287822002946
 30
0.0
 10
-58.96311758844832
 20
-100.7581993720495
 30
0.0
 10
-59.26865604668653
 20
-101.0691463989278
 30
0.0
 11
-57.24130040780798
 21
-96.14166743769222
 31
0.0
 11
-57.37304724754296
 21
-97.5951540051976
 31
0.0
 11
-57.76420707122385
 21
-98.9275659457603
 31
0.0
 11
-58.40266743002048
 21
-100.0976413290437
 31
0.0
 11
-59.26865604668653
 21
-101.0691463989278
 31
0.0
  0
SPLINE
  5
92
330
47
100
AcDbEntity
  8
0
  6
Continuous
 62
     7
100
AcDbSpline
210
0.0
220
0.0
230
1.0
 70
     8
 71
     3
 72
    19
 73
    15
 74
    13
 42
0.000000001
 43
0.0000000001
 44
0.00000001
 40
0.0
 40
0.0
 40
0.0
 40
0.0
 40
1.445411639615805
 40
2.976773642577026
 40
4.598777662593631
 40
6.301699131858474
 40
8.06470743920103
 40
9.859589243462002
 40
11.654471047723
 40
13.41747935506555
 40
15.12040082433039
 40
16.74240484434702
 40
18.27376684730825
 40
19.71917848692405
 40
19.71917848692405
 40
19.71917848692405
 40
19.71917848692405
 10
-58.8396580263553
 20
-98.70231859284239
 30
0.0
 10
-58.6824286627273
 20
-98.2446017407
 30
0.0
 10
-58.35862041854448
 20
-97.30195022899989
 30
0.0
 10
-58.29658546565597
 20
-95.75119507388052
 30
0.0
 10
-58.52371849427515
 20
-94.14239236337045
 30
0.0
 10
-59.06300757271657
 20
-92.52457015792066
 30
0.0
 10
-59.88131852695462
 20
-90.96581957686588
 30
0.0
 10
-60.94816951845257
 20
-89.52691025601446
 30
0.0
 10
-62.21991312035232
 20
-88.2654431408187
 30
0.0
 10
-63.64577452844088
 20
-87.23284668687923
 30
0.0
 10
-65.16996195006476
 20
-86.46797146677062
 30
0.0
 10
-66.729816108238
 20
-86.01333911061465
 30
0.0
 10
-68.27352779794556
 20
-85.85320134002508
 30
0.0
 10
-69.25276915402664
 20
-86.0390238845446
 30
0.0
 10
-69.72825268791128
 20
-86.12925247495026
 30
0.0
 11
-58.8396580263553
 21
-98.70231859284239
 31
0.0
 11
-58.43484731060221
 21
-97.31475126138606
 31
0.0
 11
-58.34262210288018
 21
-95.78616887667276
 31
0.0
 11
-58.56679483812702
 21
-94.17973069354991
 31
0.0
 11
-59.09810112470051
 21
-92.56181377152092
 31
0.0
 11
-59.91458944565485
 21
-90.9992693358006
 31
0.0
 11
-60.98252162079244
 21
-89.55666004931419
 31
0.0
 11
-62.25777278415288
 21
-88.29359427331563
 31
0.0
 11
-63.68764951073177
 21
-87.26225977925301
 31
0.0
 11
-65.21307107629535
 21
-86.5052719431197
 31
0.0
 11
-66.77100785833863
 21
-86.05390730717687
 31
0.0
 11
-68.29708709022935
 21
-85.92681767822533
 31
0.0
 11
-69.72825268791128
 21
-86.12925247495026
 31
0.0
  0
SPLINE
  5
93
330
47
100
AcDbEntity
  8
0
  6
Continuous
 62
     7
100
AcDbSpline
210
0.0
220
0.0
230
1.0
 70
     8
 71
     3
 72
    17
 73
    13
 74
    11
 42
0.000000001
 43
0.0000000001
 44
0.00000001
 40
0.0
 40
0.0
 40
0.0
 40
0.0
 40
1.621634448855554
 40
3.341009640005213
 40
5.159415339412185
 40
7.063012660731937
 40
9.026648428007972
 40
11.01796265262473
 40
13.00145885036679
 40
14.94251552861527
 40
16.81141548996421
 40
18.58744751450211
 40
18.58744751450211
 40
18.58744751450211
 40
18.58744751450211
 10
-71.03451144904483
 20
-86.27123669556632
 30
0.0
 10
-70.49642858382434
 20
-86.1995585662707
 30
0.0
 10
-69.38783099385458
 20
-86.05188206774916
 30
0.0
 10
-67.6674265199698
 20
-86.31229236506142
 30
0.0
 10
-65.94265317006644
 20
-86.89381467725008
 30
0.0
 10
-64.2729459153922
 20
-87.81138685881834
 30
0.0
 10
-62.72591135311734
 20
-89.01551919362393
 30
0.0
 10
-61.36281400785789
 20
-90.46109325178871
 30
0.0
 10
-60.23526973205888
 20
-92.08940224892388
 30
0.0
 10
-59.39881685417743
 20
-93.83610189481544
 30
0.0
 10
-58.85075501242772
 20
-95.63172763166276
 30
0.0
 10
-58.77716023945191
 20
-96.84804292851153
 30
0.0
 10
-58.74130040780798
 20
-97.44070554336888
 30
0.0
 11
-71.03451144904483
 21
-86.27123669556632
 31
0.0
 11
-69.41897645129723
 21
-86.1307199146701
 31
0.0
 11
-67.7142158127718
 21
-86.35442111976073
 31
0.0
 11
-65.9903585247667
 21
-86.9331398357749
 31
0.0
 11
-64.31831937324225
 21
-87.8430672205976
 31
0.0
 11
-62.76688205339569
 21
-89.04677302882416
 31
0.0
 11
-61.39986770007159
 21
-90.49473853234441
 31
0.0
 11
-60.27351280483826
 21
-92.12739949358435
 31
0.0
 11
-59.43415113168003
 21
-93.87759177086346
 31
0.0
 11
-58.91631346118287
 21
-95.67331758858494
 31
0.0
 11
-58.74130040780798
 21
-97.44070554336888
 31
0.0
  0
SPLINE
  5
94
330
47
100
AcDbEntity
  8
0
  6
Continuous
 62
     7
100
AcDbSpline
210
0.0
220
0.0
230
1.0
 70
     8
 71
     3
 72
     9
 73
     5
 74
     3
 42
0.000000001
 43
0.0000000001
 44
0.00000001
 40
0.0
 40
0.0
 40
0.0
 40
0.0
 40
1.318886340772412
 40
2.579429108719613
 40
2.579429108719613
 40
2.579429108719613
 40
2.579429108719613
 10
-58.74130040780798
 20
-97.44070554336888
 30
0.0
 10
-58.75771155123837
 20
-97.8821586504974
 30
0.0
 10
-58.78980787809093
 20
-98.74553630188994
 30
0.0
 10
-59.04304146875288
 20
-99.571335639379
 30
0.0
 10
-59.16679435450584
 20
-99.97489601396313
 30
0.0
 11
-58.74130040780798
 21
-97.44070554336888
 31
0.0
 11
-58.84834737733906
 21
-98.75524049097737
 31
0.0
 11
-59.16679435450584
 21
-99.97489601396313
 31
0.0
  0
SPLINE
  5
95
330
47
100
AcDbEntity
  8
0
  6
Continuous
 62
     7
100
AcDbSpline
210
0.0
220
0.0
230
1.0
 70
     8
 71
     3
 72
    23
 73
    19
 74
    17
 42
0.000000001
 43
0.0000000001
 44
0.00000001
 40
0.0
 40
0.0
 40
0.0
 40
0.0
 40
1.638071439908479
 40
3.322687859039779
 40
5.090086513313517
 40
6.960131122046289
 40
8.935276764611542
 40
11.00277988283209
 40
13.13827389195259
 40
15.30967645701851
 40
17.48107902208445
 40
19.61657303120493
 40
21.6840761494255
 40
23.65922179199073
 40
25.52926640072352
 40
27.29666505499726
 40
28.98128147412857
 40
30.61935291403705
 40
30.61935291403705
 40
30.61935291403705
 40
30.61935291403705
 10
-62.63334425513138
 20
-105.6702341642025
 30
0.0
 10
-62.24714553878174
 20
-105.2798800974695
 30
0.0
 10
-61.46377447309587
 20
-104.4880802401552
 30
0.0
 10
-60.708069275959
 20
-102.938488935223
 30
0.0
 10
-60.29247422463406
 20
-101.2031076658716
 30
0.0
 10
-60.25445974017121
 20
-99.31872242472357
 30
0.0
 10
-60.58256208698973
 20
-97.36535082880044
 30
0.0
 10
-61.26405083182583
 20
-95.41226373296465
 30
0.0
 10
-62.27145901271216
 20
-93.53222670756223
 30
0.0
 10
-63.56677935866894
 20
-91.79469290024173
 30
0.0
 10
-65.10144607161665
 20
-90.26443912703891
 30
0.0
 10
-66.8182847018373
 20
-88.99878689297817
 30
0.0
 10
-68.65398407062908
 20
-88.04527551880597
 30
0.0
 10
-70.54044879262695
 20
-87.4414853280899
 30
0.0
 10
-72.41093713537946
 20
-87.20991201850491
 30
0.0
 10
-74.18788987358016
 20
-87.3733328338941
 30
0.0
 10
-75.82954539951947
 20
-87.8999168171809
 30
0.0
 10
-76.72513417021416
 20
-88.56213883010585
 30
0.0
 10
-77.16665574484847
 20
-88.88861156259284
 30
0.0
 11
-62.63334425513138
 21
-105.6702341642025
 31
0.0
 11
-61.54524684495848
 21
-104.4457660810303
 31
0.0
 11
-60.77821713581972
 21
-102.9459001136822
 31
0.0
 11
-60.36173327527372
 21
-101.2282740762019
 31
0.0
 11
-60.3117987684104
 21
-99.35889626855027
 31
0.0
 11
-60.63033434982383
 21
-97.40960527064951
 31
0.0
 11
-61.30509712124847
 21
-95.4553114479572
 31
0.0
 11
-62.31015798988338
 21
-93.57111737369945
 31
0.0
 11
-63.6068915243863
 21
-91.82943105475377
 31
0.0
 11
-65.14546627389248
 21
-90.29718537168301
 31
0.0
 11
-66.86675464576439
 21
-89.03326251011762
 31
0.0
 11
-68.70460921774438
 21
-88.08623573363963
 31
0.0
 11
-70.58840187588572
 21
-87.49249712763861
 31
0.0
 11
-72.4457395719487
 21
-87.27486549965306
 31
0.0
 11
-74.20524616078046
 21
-87.44170246972621
 31
0.0
 11
-75.79930415350904
 21
-87.98659843275826
 31
0.0
 11
-77.16665574484847
 21
-88.88861156259284
 31
0.0
  0
SPLINE
  5
96
330
47
100
AcDbEntity
  8
0
  6
Continuous
 62
     7
100
AcDbSpline
210
0.0
220
0.0
230
1.0
 70
     8
 71
     3
 72
    23
 73
    19
 74
    17
 42
0.000000001
 43
0.0000000001
 44
0.00000001
 40
0.0
 40
0.0
 40
0.0
 40
0.0
 40
1.638071439908483
 40
3.322687859039783
 40
5.090086513313505
 40
6.960131122046304
 40
8.935276764611585
 40
11.00277988283212
 40
13.13827389195257
 40
15.30967645701852
 40
17.48107902208447
 40
19.61657303120494
 40
21.68407614942549
 40
23.65922179199075
 40
25.52926640072355
 40
27.29666505499726
 40
28.98128147412856
 40
30.61935291403706
 40
30.61935291403706
 40
30.61935291403706
 40
30.61935291403706
 10
-66.73334425513137
 20
-109.2209383197187
 30
0.0
 10
-66.34714553878173
 20
-108.8305842529857
 30
0.0
 10
-65.56377447309585
 20
-108.0387843956714
 30
0.0
 10
-64.808069275959
 20
-106.4891930907392
 30
0.0
 10
-64.39247422463404
 20
-104.7538118213878
 30
0.0
 10
-64.35445974017122
 20
-102.8694265802398
 30
0.0
 10
-64.68256208698973
 20
-100.9160549843166
 30
0.0
 10
-65.36405083182586
 20
-98.96296788848086
 30
0.0
 10
-66.37145901271214
 20
-97.08293086307837
 30
0.0
 10
-67.66677935866898
 20
-95.34539705575796
 30
0.0
 10
-69.2014460716166
 20
-93.81514328255507
 30
0.0
 10
-70.91828470183731
 20
-92.54949104849439
 30
0.0
 10
-72.75398407062906
 20
-91.59597967432214
 30
0.0
 10
-74.64044879262698
 20
-90.99218948360613
 30
0.0
 10
-76.51093713537945
 20
-90.76061617402107
 30
0.0
 10
-78.2878898735802
 20
-90.92403698941033
 30
0.0
 10
-79.92954539951945
 20
-91.4506209726971
 30
0.0
 10
-80.82513417021414
 20
-92.11284298562208
 30
0.0
 10
-81.26665574484848
 20
-92.43931571810904
 30
0.0
 11
-66.73334425513137
 21
-109.2209383197187
 31
0.0
 11
-65.64524684495848
 21
-107.9964702365465
 31
0.0
 11
-64.87821713581971
 21
-106.4966042691984
 31
0.0
 11
-64.46173327527373
 21
-104.7789782317181
 31
0.0
 11
-64.4117987684104
 21
-102.9096004240665
 31
0.0
 11
-64.73033434982383
 21
-100.9603094261657
 31
0.0
 11
-65.40509712124847
 21
-99.00601560347337
 31
0.0
 11
-66.41015798988337
 21
-97.12182152921567
 31
0.0
 11
-67.7068915243863
 21
-95.38013521026997
 31
0.0
 11
-69.24546627389248
 21
-93.84788952719919
 31
0.0
 11
-70.9667546457644
 21
-92.58396666563382
 31
0.0
 11
-72.80460921774437
 21
-91.63693988915584
 31
0.0
 11
-74.68840187588573
 21
-91.04320128315481
 31
0.0
 11
-76.54573957194873
 21
-90.82556965516926
 31
0.0
 11
-78.30524616078046
 21
-90.99240662524241
 31
0.0
 11
-79.89930415350902
 21
-91.53730258827447
 31
0.0
 11
-81.26665574484848
 21
-92.43931571810904
 31
0.0
  0
SPLINE
  5
97
330
47
100
AcDbEntity
  8
0
  6
Continuous
 62
     7
100
AcDbSpline
210
0.0
220
0.0
230
1.0
 70
     8
 71
     3
 72
    25
 73
    21
 74
    19
 42
0.000000001
 43
0.0000000001
 44
0.00000001
 40
0.0
 40
0.0
 40
0.0
 40
0.0
 40
1.850037198336271
 40
3.671224805064099
 40
5.523926743883282
 40
7.460437955613747
 40
9.513449133708596
 40
11.69219809891911
 40
13.98455453803826
 40
16.36182010807097
 40
18.78427336858074
 40
21.20672662909052
 40
23.58399219912323
 40
25.87634863824236
 40
28.05509760345286
 40
30.10810878154771
 40
32.0446199932782
 40
33.89732193209739
 40
35.71850953882522
 40
37.56854673716145
 40
37.56854673716145
 40
37.56854673716145
 40
37.56854673716145
 10
-63.98880554869952
 20
-106.8440980782791
 30
0.0
 10
-63.41393939414596
 20
-106.6103343411031
 30
0.0
 10
-62.2731715870529
 20
-106.1464521837323
 30
0.0
 10
-60.87846041837246
 20
-104.8905325006942
 30
0.0
 10
-59.85297279792731
 20
-103.304640904086
 30
0.0
 10
-59.25267592153274
 20
-101.4294410920973
 30
0.0
 10
-59.09145137986481
 20
-99.36384361186458
 30
0.0
 10
-59.36942677271769
 20
-97.19314660211111
 30
0.0
 10
-60.07001573014898
 20
-95.00840406490535
 30
0.0
 10
-61.16164958571308
 20
-92.89980174252966
 30
0.0
 10
-62.59751007885284
 20
-90.95528108081311
 30
0.0
 10
-64.31696348409601
 20
-89.25635908531139
 30
0.0
 10
-66.24799085062253
 20
-87.87469286720096
 30
0.0
 10
-68.31024104293078
 20
-86.86918355074717
 30
0.0
 10
-70.41896313465514
 20
-86.28395969011092
 30
0.0
 10
-72.48640651703597
 20
-86.14844524870385
 30
0.0
 10
-74.42812969863968
 20
-86.47469938387137
 30
0.0
 10
-76.14425354191583
 20
-87.26311296215238
 30
0.0
 10
-77.58653610958322
 20
-88.46410192516888
 30
0.0
 10
-78.2086272050484
 20
-89.52690036070106
 30
0.0
 10
-78.52211703841661
 20
-90.06247547666936
 30
0.0
 11
-63.98880554869952
 21
-106.8440980782791
 31
0.0
 11
-62.31850981216341
 21
-106.0486423487488
 31
0.0
 11
-60.94934321898291
 21
-104.8477646908092
 31
0.0
 11
-59.9407895743346
 21
-103.2936334142009
 31
0.0
 11
-59.33666188786164
 21
-101.4537678171748
 31
0.0
 11
-59.16320832522316
 21
-99.4080970808233
 31
0.0
 11
-59.42796167825824
 21
-97.24549385394066
 31
0.0
 11
-60.11942273566441
 21
-95.05990934398281
 31
0.0
 11
-61.20754927703497
 21
-92.94629343299462
 31
0.0
 11
-62.64507128735994
 21
-90.99647029561497
 31
0.0
 11
-64.36953542286489
 21
-89.29514632805709
 31
0.0
 11
-66.30602600010768
 21
-87.91623522379135
 31
0.0
 11
-68.37041351503966
 21
-86.91963990357864
 31
0.0
 11
-70.47301370207643
 21
-86.34865872320627
 31
0.0
 11
-72.5224817258349
 21
-86.22809455129529
 31
0.0
 11
-74.42978036284377
 21
-86.5631879501374
 31
0.0
 11
-76.11205050220352
 21
-87.33937842758743
 31
0.0
 11
-77.49620636821537
 21
-88.52294796411871
 31
0.0
 11
-78.52211703841661
 21
-90.06247547666936
 31
0.0
  0
ENDBLK
  5
49
330
47
100
AcDbEntity
  8
0
100
AcDbBlockEnd
  0
BLOCK
  5
4C
330
4A
100
AcDbEntity
  8
0
100
AcDbBlockBegin
  2
Allg1
 70
     0
 10
-68.99999999999493
 20
-96.49999999999602
 30
0.0
  3
Allg1
  1

  0
INSERT
  5
4B
330
4A
100
AcDbEntity
  8
0
100
AcDbBlockReference
  2
WP_SC_BRASS_21-select__1
 10
-83.61288198199719
 20
-110.9198937476924
 30
0.0
  0
MTEXT
  5
99
330
4A
100
AcDbEntity
  8
1
 62
     6
100
AcDbMText
 10
-68.999999999995
 20
-116.3036112438117
 30
0.0
 40
2.5
 41
0.0
 71
     2
 72
     1
  1
 
  7
CONVERTER_11
 73
     1
 44
1.32052821128451
  0
ENDBLK
  5
4D
330
4A
100
AcDbEntity
  8
0
100
AcDbBlockEnd
  0
BLOCK
  5
4F
330
4E
100
AcDbEntity
  8
0
100
AcDbBlockBegin
  2
WP_SC_BRASS_21-select__2
 70
     0
 10
-140.2999991443992
 20
-111.9174245553588
 30
0.0
  3
WP_SC_BRASS_21-select__2
  1

  0
LINE
  5
9A
330
4E
100
AcDbEntity
  8
0
  6
Continuous
 62
     7
100
AcDbLine
 10
-127.2999991443992
 20
-91.41742455535879
 30
0.0
 11
-130.6831071471482
 21
-91.41742455535879
 31
0.0
  0
LINE
  5
9B
330
4E
100
AcDbEntity
  8
0
  6
Continuous
 62
     7
100
AcDbLine
 10
-120.2999991443992
 20
-91.41742455535879
 30
0.0
 11
-123.2999991443992
 21
-91.41742455535879
 31
0.0
  0
LINE
  5
9C
330
4E
100
AcDbEntity
  8
0
  6
Continuous
 62
     7
100
AcDbLine
 10
-124.2999991443992
 20
-91.41742455535879
 30
0.0
 11
-126.2999991443992
 21
-91.41742455535879
 31
0.0
  0
LINE
  5
9D
330
4E
100
AcDbEntity
  8
0
  6
Continuous
 62
     7
100
AcDbLine
 10
-132.0999991443992
 20
-111.3674245553588
 30
0.0
 11
-140.2999991443992
 21
-111.3674245553588
 31
0.0
  0
LINE
  5
9E
330
4E
100
AcDbEntity
  8
0
  6
Continuous
 62
     7
100
AcDbLine
 10
-130.6831071471482
 20
-111.6411343800378
 30
0.0
 11
-130.7999991443992
 21
-111.9174245553588
 31
0.0
  0
LINE
  5
9F
330
4E
100
AcDbEntity
  8
0
  6
Continuous
 62
     7
100
AcDbLine
 10
-123.2999991443992
 20
-91.41742455535879
 30
0.0
 11
-123.7999991443992
 21
-90.44242455535898
 31
0.0
  0
LINE
  5
A0
330
4E
100
AcDbEntity
  8
0
  6
Continuous
 62
     7
100
AcDbLine
 10
-124.2999991443992
 20
-91.41742455535879
 30
0.0
 11
-123.7999991443992
 21
-90.44242455535898
 31
0.0
  0
LINE
  5
A1
330
4E
100
AcDbEntity
  8
0
  6
Continuous
 62
     7
100
AcDbLine
 10
-127.2999991443992
 20
-91.41742455535879
 30
0.0
 11
-126.7999991443992
 21
-90.44242455535898
 31
0.0
  0
LINE
  5
A2
330
4E
100
AcDbEntity
  8
0
  6
Continuous
 62
     7
100
AcDbLine
 10
-127.2999991443992
 20
-109.1174245553588
 30
0.0
 11
-130.6831071471482
 21
-109.1174245553588
 31
0.0
  0
LINE
  5
A3
330
4E
100
AcDbEntity
  8
0
  6
Continuous
 62
     7
100
AcDbLine
 10
-120.2999991443992
 20
-109.1174245553588
 30
0.0
 11
-123.2999991443992
 21
-109.1174245553588
 31
0.0
  0
LINE
  5
A4
330
4E
100
AcDbEntity
  8
0
  6
Continuous
 62
     7
100
AcDbLine
 10
-123.2999991443992
 20
-109.1174245553588
 30
0.0
 11
-123.7999991443992
 21
-110.0924245553586
 31
0.0
  0
LINE
  5
A5
330
4E
100
AcDbEntity
  8
0
  6
Continuous
 62
     7
100
AcDbLine
 10
-120.2999991443992
 20
-109.1174245553588
 30
0.0
 11
-120.2999991443992
 21
-91.41742455535879
 31
0.0
  0
LINE
  5
A6
330
4E
100
AcDbEntity
  8
0
  6
Continuous
 62
     7
100
AcDbLine
 10
-127.2999991443992
 20
-109.1174245553588
 30
0.0
 11
-127.2999991443992
 21
-91.41742455535879
 31
0.0
  0
LINE
  5
A7
330
4E
100
AcDbEntity
  8
0
  6
Continuous
 62
     7
100
AcDbLine
 10
-126.2999991443992
 20
-91.41742455535879
 30
0.0
 11
-126.7999991443992
 21
-90.44242455535898
 31
0.0
  0
LINE
  5
A8
330
4E
100
AcDbEntity
  8
0
  6
Continuous
 62
     7
100
AcDbLine
 10
-126.7999991443992
 20
-90.44242455535898
 30
0.0
 11
-126.7999991443992
 21
-110.0924245553586
 31
0.0
  0
LINE
  5
A9
330
4E
100
AcDbEntity
  8
0
  6
Continuous
 62
     7
100
AcDbLine
 10
-124.2999991443992
 20
-109.1174245553588
 30
0.0
 11
-126.2999991443992
 21
-109.1174245553588
 31
0.0
  0
LINE
  5
AA
330
4E
100
AcDbEntity
  8
0
  6
Continuous
 62
     7
100
AcDbLine
 10
-124.2999991443992
 20
-109.1174245553588
 30
0.0
 11
-124.2999991443992
 21
-91.41742455535879
 31
0.0
  0
LINE
  5
AB
330
4E
100
AcDbEntity
  8
0
  6
Continuous
 62
     7
100
AcDbLine
 10
-123.7999991443992
 20
-90.44242455535898
 30
0.0
 11
-123.7999991443992
 21
-110.0924245553586
 31
0.0
  0
LINE
  5
AC
330
4E
100
AcDbEntity
  8
0
  6
Continuous
 62
     7
100
AcDbLine
 10
-124.2999991443992
 20
-109.1174245553588
 30
0.0
 11
-123.7999991443992
 21
-110.0924245553586
 31
0.0
  0
LINE
  5
AD
330
4E
100
AcDbEntity
  8
0
  6
Continuous
 62
     7
100
AcDbLine
 10
-126.2999991443992
 20
-109.1174245553588
 30
0.0
 11
-126.2999991443992
 21
-91.41742455535879
 31
0.0
  0
LINE
  5
AE
330
4E
100
AcDbEntity
  8
0
  6
Continuous
 62
     7
100
AcDbLine
 10
-126.2999991443992
 20
-109.1174245553588
 30
0.0
 11
-126.7999991443992
 21
-110.0924245553586
 31
0.0
  0
LINE
  5
AF
330
4E
100
AcDbEntity
  8
0
  6
Continuous
 62
     7
100
AcDbLine
 10
-127.2999991443992
 20
-109.1174245553588
 30
0.0
 11
-126.7999991443992
 21
-110.0924245553586
 31
0.0
  0
LINE
  5
B0
330
4E
100
AcDbEntity
  8
0
  6
Continuous
 62
     7
100
AcDbLine
 10
-123.2999991443992
 20
-109.1174245553588
 30
0.0
 11
-123.2999991443992
 21
-91.41742455535879
 31
0.0
  0
LINE
  5
B1
330
4E
100
AcDbEntity
  8
0
  6
Continuous
 62
     7
100
AcDbLine
 10
-130.7999991443992
 20
-111.9174245553588
 30
0.0
 11
-130.7999991443992
 21
-88.61742455535878
 31
0.0
  0
LINE
  5
B2
330
4E
100
AcDbEntity
  8
0
  6
Continuous
 62
     7
100
AcDbLine
 10
-132.0999991443992
 20
-111.3674245553588
 30
0.0
 11
-132.0999991443992
 21
-89.16742455535879
 31
0.0
  0
LINE
  5
B3
330
4E
100
AcDbEntity
  8
0
  6
Continuous
 62
     7
100
AcDbLine
 10
-130.6831071471482
 20
-111.6411343800378
 30
0.0
 11
-130.6831071471482
 21
-88.89371473067979
 31
0.0
  0
LINE
  5
B4
330
4E
100
AcDbEntity
  8
0
  6
Continuous
 62
     7
100
AcDbLine
 10
-132.0999991443992
 20
-89.16742455535879
 30
0.0
 11
-130.7999991443992
 21
-88.61742455535878
 31
0.0
  0
LINE
  5
B5
330
4E
100
AcDbEntity
  8
0
  6
Continuous
 62
     7
100
AcDbLine
 10
-140.2999991443992
 20
-111.3674245553588
 30
0.0
 11
-140.2999991443992
 21
-89.16742455535879
 31
0.0
  0
LINE
  5
B6
330
4E
100
AcDbEntity
  8
0
  6
Continuous
 62
     7
100
AcDbLine
 10
-132.0999991443992
 20
-89.16742455535879
 30
0.0
 11
-140.2999991443992
 21
-89.16742455535879
 31
0.0
  0
LINE
  5
B7
330
4E
100
AcDbEntity
  8
0
  6
Continuous
 62
     7
100
AcDbLine
 10
-130.6831071471482
 20
-88.89371473067979
 30
0.0
 11
-130.7999991443992
 21
-88.61742455535878
 31
0.0
  0
LINE
  5
B8
330
4E
100
AcDbEntity
  8
0
  6
Continuous
 62
     7
100
AcDbLine
 10
-132.0999991443992
 20
-111.3674245553588
 30
0.0
 11
-130.7999991443992
 21
-111.9174245553588
 31
0.0
  0
LINE
  5
B9
330
4E
100
AcDbEntity
  8
1
  6
DOT_CENTER
 62
     2
100
AcDbLine
 10
-120.2999991443992
 20
-100.2674245553588
 30
0.0
 11
-140.2999991443994
 21
-100.267424555359
 31
0.0
  0
ENDBLK
  5
50
330
4E
100
AcDbEntity
  8
0
100
AcDbBlockEnd
  0
BLOCK
  5
53
330
51
100
AcDbEntity
  8
0
100
AcDbBlockBegin
  2
Drfsicht1
 70
     0
 10
-130.2999991444092
 20
-100.2674245553588
 30
0.0
  3
Drfsicht1
  1

  0
INSERT
  5
52
330
51
100
AcDbEntity
  8
0
100
AcDbBlockReference
  2
WP_SC_BRASS_21-select__2
 10
-140.2999991443992
 20
-111.9174245553588
 30
0.0
  0
MTEXT
  5
BA
330
51
100
AcDbEntity
  8
1
 62
     6
100
AcDbMText
 10
-130.2999991444092
 20
-114.4174241738891
 30
0.0
 40
2.5
 41
0.0
 71
     2
 72
     1
  1
 
  7
CONVERTER_11
 73
     1
 44
1.32052821128451
  0
ENDBLK
  5
54
330
51
100
AcDbEntity
  8
0
100
AcDbBlockEnd
  0
BLOCK
  5
56
330
55
100
AcDbEntity
  8
0
100
AcDbBlockBegin
  2
WP_SC_BRASS_21-select__3
 70
     0
 10
-77.000000000035
 20
-73.64999999999995
 30
0.0
  3
WP_SC_BRASS_21-select__3
  1

  0
LINE
  5
BB
330
55
100
AcDbEntity
  8
0
  6
Continuous
 62
     7
100
AcDbLine
 10
-73.500000000035
 20
-71.82499999999976
 30
0.0
 11
-73.500000000035
 21
-52.17500000000015
 31
0.0
  0
LINE
  5
BC
330
55
100
AcDbEntity
  8
0
  6
Continuous
 62
     7
100
AcDbLine
 10
-73.000000000035
 20
-53.14999999999995
 30
0.0
 11
-71.000000000035
 21
-53.14999999999995
 31
0.0
  0
LINE
  5
BD
330
55
100
AcDbEntity
  8
0
  6
Continuous
 62
     7
100
AcDbLine
 10
-73.000000000035
 20
-53.14999999999995
 30
0.0
 11
-73.000000000035
 21
-61.99999999999995
 31
0.0
  0
LINE
  5
BE
330
55
100
AcDbEntity
  8
0
  6
Continuous
 62
     7
100
AcDbLine
 10
-74.000000000035
 20
-53.14999999999995
 30
0.0
 11
-74.000000000035
 21
-61.99999999999995
 31
0.0
  0
LINE
  5
BF
330
55
100
AcDbEntity
  8
0
  6
Continuous
 62
     7
100
AcDbLine
 10
-74.000000000035
 20
-61.99999999999995
 30
0.0
 11
-74.000000000035
 21
-70.84999999999995
 31
0.0
  0
LINE
  5
C0
330
55
100
AcDbEntity
  8
0
  6
Continuous
 62
     7
100
AcDbLine
 10
-73.000000000035
 20
-61.99999999999995
 30
0.0
 11
-73.000000000035
 21
-70.84999999999995
 31
0.0
  0
LINE
  5
C1
330
55
100
AcDbEntity
  8
0
  6
Continuous
 62
     7
100
AcDbLine
 10
-71.000000000035
 20
-53.14999999999995
 30
0.0
 11
-71.000000000035
 21
-70.84999999999995
 31
0.0
  0
LINE
  5
C2
330
55
100
AcDbEntity
  8
0
  6
Continuous
 62
     7
100
AcDbLine
 10
-70.000000000035
 20
-53.14999999999995
 30
0.0
 11
-70.000000000035
 21
-70.84999999999995
 31
0.0
  0
LINE
  5
C3
330
55
100
AcDbEntity
  8
0
  6
Continuous
 62
     7
100
AcDbLine
 10
-70.500000000035
 20
-71.82499999999976
 30
0.0
 11
-70.500000000035
 21
-52.17500000000015
 31
0.0
  0
LINE
  5
C4
330
55
100
AcDbEntity
  8
0
  6
Continuous
 62
     7
100
AcDbLine
 10
-77.000000000035
 20
-61.99999999999995
 30
0.0
 11
-77.000000000035
 21
-70.84999999999995
 31
0.0
  0
LINE
  5
C5
330
55
100
AcDbEntity
  8
0
  6
Continuous
 62
     7
100
AcDbLine
 10
-77.000000000035
 20
-53.14999999999995
 30
0.0
 11
-77.000000000035
 21
-61.99999999999995
 31
0.0
  0
LINE
  5
C6
330
55
100
AcDbEntity
  8
0
  6
Continuous
 62
     7
100
AcDbLine
 10
-65.200000000035
 20
-73.09999999999995
 30
0.0
 11
-57.000000000035
 21
-73.09999999999995
 31
0.0
  0
LINE
  5
C7
330
55
100
AcDbEntity
  8
0
  6
Continuous
 62
     7
100
AcDbLine
 10
-66.61689199728602
 20
-73.37370982467894
 30
0.0
 11
-66.500000000035
 21
-73.64999999999995
 31
0.0
  0
LINE
  5
C8
330
55
100
AcDbEntity
  8
0
  6
Continuous
 62
     7
100
AcDbLine
 10
-73.000000000035
 20
-53.14999999999995
 30
0.0
 11
-73.500000000035
 21
-52.17500000000015
 31
0.0
  0
LINE
  5
C9
330
55
100
AcDbEntity
  8
0
  6
Continuous
 62
     7
100
AcDbLine
 10
-71.000000000035
 20
-53.14999999999995
 30
0.0
 11
-70.500000000035
 21
-52.17500000000015
 31
0.0
  0
LINE
  5
CA
330
55
100
AcDbEntity
  8
0
  6
Continuous
 62
     7
100
AcDbLine
 10
-74.000000000035
 20
-53.14999999999995
 30
0.0
 11
-73.500000000035
 21
-52.17500000000015
 31
0.0
  0
LINE
  5
CB
330
55
100
AcDbEntity
  8
0
  6
Continuous
 62
     7
100
AcDbLine
 10
-70.000000000035
 20
-53.14999999999995
 30
0.0
 11
-66.61689199728602
 21
-53.14999999999995
 31
0.0
  0
LINE
  5
CC
330
55
100
AcDbEntity
  8
0
  6
Continuous
 62
     7
100
AcDbLine
 10
-77.000000000035
 20
-53.14999999999995
 30
0.0
 11
-74.000000000035
 21
-53.14999999999995
 31
0.0
  0
LINE
  5
CD
330
55
100
AcDbEntity
  8
0
  6
Continuous
 62
     7
100
AcDbLine
 10
-70.000000000035
 20
-53.14999999999995
 30
0.0
 11
-70.500000000035
 21
-52.17500000000015
 31
0.0
  0
LINE
  5
CE
330
55
100
AcDbEntity
  8
0
  6
Continuous
 62
     7
100
AcDbLine
 10
-66.500000000035
 20
-50.34999999999995
 30
0.0
 11
-66.500000000035
 21
-61.99999999999995
 31
0.0
  0
LINE
  5
CF
330
55
100
AcDbEntity
  8
0
  6
Continuous
 62
     7
100
AcDbLine
 10
-66.500000000035
 20
-61.99999999999995
 30
0.0
 11
-66.500000000035
 21
-73.64999999999995
 31
0.0
  0
LINE
  5
D0
330
55
100
AcDbEntity
  8
0
  6
Continuous
 62
     7
100
AcDbLine
 10
-66.61689199728602
 20
-50.62629017532095
 30
0.0
 11
-66.61689199728602
 21
-53.14999999999995
 31
0.0
  0
LINE
  5
D1
330
55
100
AcDbEntity
  8
0
  6
Continuous
 62
     7
100
AcDbLine
 10
-65.200000000035
 20
-50.89999999999995
 30
0.0
 11
-65.200000000035
 21
-61.99999999999995
 31
0.0
  0
LINE
  5
D2
330
55
100
AcDbEntity
  8
0
  6
Continuous
 62
     7
100
AcDbLine
 10
-65.200000000035
 20
-61.99999999999995
 30
0.0
 11
-65.200000000035
 21
-73.09999999999995
 31
0.0
  0
LINE
  5
D3
330
55
100
AcDbEntity
  8
0
  6
Continuous
 62
     7
100
AcDbLine
 10
-66.61689199728602
 20
-53.14999999999995
 30
0.0
 11
-66.61689199728602
 21
-61.99999999999995
 31
0.0
  0
LINE
  5
D4
330
55
100
AcDbEntity
  8
0
  6
Continuous
 62
     7
100
AcDbLine
 10
-66.61689199728602
 20
-61.99999999999995
 30
0.0
 11
-66.61689199728602
 21
-73.37370982467894
 31
0.0
  0
LINE
  5
D5
330
55
100
AcDbEntity
  8
0
  6
Continuous
 62
     7
100
AcDbLine
 10
-65.200000000035
 20
-73.09999999999995
 30
0.0
 11
-66.500000000035
 21
-73.64999999999995
 31
0.0
  0
LINE
  5
D6
330
55
100
AcDbEntity
  8
0
  6
Continuous
 62
     7
100
AcDbLine
 10
-57.000000000035
 20
-50.89999999999995
 30
0.0
 11
-57.000000000035
 21
-61.99999999999995
 31
0.0
  0
LINE
  5
D7
330
55
100
AcDbEntity
  8
0
  6
Continuous
 62
     7
100
AcDbLine
 10
-57.000000000035
 20
-61.99999999999995
 30
0.0
 11
-57.000000000035
 21
-73.09999999999995
 31
0.0
  0
LINE
  5
D8
330
55
100
AcDbEntity
  8
0
  6
Continuous
 62
     7
100
AcDbLine
 10
-73.000000000035
 20
-70.84999999999995
 30
0.0
 11
-73.500000000035
 21
-71.82499999999976
 31
0.0
  0
LINE
  5
D9
330
55
100
AcDbEntity
  8
0
  6
Continuous
 62
     7
100
AcDbLine
 10
-71.000000000035
 20
-70.84999999999995
 30
0.0
 11
-70.500000000035
 21
-71.82499999999976
 31
0.0
  0
LINE
  5
DA
330
55
100
AcDbEntity
  8
0
  6
Continuous
 62
     7
100
AcDbLine
 10
-74.000000000035
 20
-70.84999999999995
 30
0.0
 11
-73.500000000035
 21
-71.82499999999976
 31
0.0
  0
LINE
  5
DB
330
55
100
AcDbEntity
  8
0
  6
Continuous
 62
     7
100
AcDbLine
 10
-70.000000000035
 20
-70.84999999999995
 30
0.0
 11
-66.61689199728602
 21
-70.84999999999995
 31
0.0
  0
LINE
  5
DC
330
55
100
AcDbEntity
  8
0
  6
Continuous
 62
     7
100
AcDbLine
 10
-77.000000000035
 20
-70.84999999999995
 30
0.0
 11
-74.000000000035
 21
-70.84999999999995
 31
0.0
  0
LINE
  5
DD
330
55
100
AcDbEntity
  8
0
  6
Continuous
 62
     7
100
AcDbLine
 10
-73.000000000035
 20
-70.84999999999995
 30
0.0
 11
-71.000000000035
 21
-70.84999999999995
 31
0.0
  0
LINE
  5
DE
330
55
100
AcDbEntity
  8
0
  6
Continuous
 62
     7
100
AcDbLine
 10
-70.000000000035
 20
-70.84999999999995
 30
0.0
 11
-70.500000000035
 21
-71.82499999999976
 31
0.0
  0
LINE
  5
DF
330
55
100
AcDbEntity
  8
0
  6
Continuous
 62
     7
100
AcDbLine
 10
-65.200000000035
 20
-50.89999999999995
 30
0.0
 11
-57.000000000035
 21
-50.89999999999995
 31
0.0
  0
LINE
  5
E0
330
55
100
AcDbEntity
  8
0
  6
Continuous
 62
     7
100
AcDbLine
 10
-66.61689199728602
 20
-50.62629017532095
 30
0.0
 11
-66.500000000035
 21
-50.34999999999995
 31
0.0
  0
LINE
  5
E1
330
55
100
AcDbEntity
  8
0
  6
Continuous
 62
     7
100
AcDbLine
 10
-65.200000000035
 20
-50.89999999999995
 30
0.0
 11
-66.500000000035
 21
-50.34999999999995
 31
0.0
  0
LINE
  5
E2
330
55
100
AcDbEntity
  8
1
  6
DOT_CENTER
 62
     2
100
AcDbLine
 10
-77.000000000035
 20
-61.99999999999995
 30
0.0
 11
-57.000000000035
 21
-61.99999999999995
 31
0.0
  0
ENDBLK
  5
57
330
55
100
AcDbEntity
  8
0
100
AcDbBlockEnd
  0
BLOCK
  5
5A
330
58
100
AcDbEntity
  8
0
100
AcDbBlockBegin
  2
Rckans1
 70
     0
 10
-67.00000000002501
 20
-61.99999999999995
 30
0.0
  3
Rckans1
  1

  0
INSERT
  5
59
330
58
100
AcDbEntity
  8
0
100
AcDbBlockReference
  2
WP_SC_BRASS_21-select__3
 10
-77.000000000035
 20
-73.64999999999995
 30
0.0
  0
MTEXT
  5
E3
330
58
100
AcDbEntity
  8
1
 62
     6
100
AcDbMText
 10
-67.00000000002501
 20
-76.11742401123047
 30
0.0
 40
2.5
 41
0.0
 71
     2
 72
     1
  1
 
  7
CONVERTER_11
 73
     1
 44
1.32052821128451
  0
ENDBLK
  5
5B
330
58
100
AcDbEntity
  8
0
100
AcDbBlockEnd
  0
BLOCK
  5
5D
330
5C
100
AcDbEntity
  8
0
100
AcDbBlockBegin
  2
WP_SC_BRASS_21-select__4
 70
     0
 10
-110.3000005722045
 20
-73.65
 30
0.0
  3
WP_SC_BRASS_21-select__4
  1

  0
LINE
  5
E4
330
5C
100
AcDbEntity
  8
1
  6
DOT_CENTER
 62
     2
100
AcDbLine
 10
-85.83500057220446
 20
-62.0
 30
0.0
 11
-111.4650005722045
 21
-62.0
 31
0.0
  0
LINE
  5
E5
330
5C
100
AcDbEntity
  8
1
  6
DOT_CENTER
 62
     2
100
AcDbLine
 10
-98.65000057220448
 20
-49.185
 30
0.0
 11
-98.65000057220448
 21
-74.81500000000001
 31
0.0
  0
CIRCLE
  5
E6
330
5C
100
AcDbEntity
  8
0
  6
Continuous
 62
     7
100
AcDbCircle
 10
-98.65000057220448
 20
-62.0
 30
0.0
 40
8.549999999999997
  0
CIRCLE
  5
E7
330
5C
100
AcDbEntity
  8
0
  6
Continuous
 62
     7
100
AcDbCircle
 10
-98.65000057220448
 20
-62.0
 30
0.0
 40
11.10000000000002
  0
CIRCLE
  5
E8
330
5C
100
AcDbEntity
  8
0
  6
Continuous
 62
     7
100
AcDbCircle
 10
-98.65000057220448
 20
-62.0
 30
0.0
 40
11.65000000000002
  0
ENDBLK
  5
5E
330
5C
100
AcDbEntity
  8
0
100
AcDbBlockEnd
  0
BLOCK
  5
61
330
5F
100
AcDbEntity
  8
0
100
AcDbBlockBegin
  2
SA_Links1
 70
     0
 10
-98.65000057220448
 20
-62.0
 30
0.0
  3
SA_Links1
  1

  0
INSERT
  5
60
330
5F
100
AcDbEntity
  8
0
100
AcDbBlockReference
  2
WP_SC_BRASS_21-select__4
 10
-110.3000005722045
 20
-73.65
 30
0.0
  0
MTEXT
  5
E9
330
5F
100
AcDbEntity
  8
1
 62
     6
100
AcDbMText
 10
-98.65000057220459
 20
-76.11742401123047
 30
0.0
 40
2.5
 41
0.0
 71
     2
 72
     1
  1
 
  7
CONVERTER_11
 73
     1
 44
1.32052821128451
  0
ENDBLK
  5
62
330
5F
100
AcDbEntity
  8
0
100
AcDbBlockEnd
  0
BLOCK
  5
64
330
63
100
AcDbEntity
  8
0
100
AcDbBlockBegin
  2
WP_SC_BRASS_21-select__5
 70
     0
 10
-178.6000010258889
 20
-73.64999999999995
 30
0.0
  3
WP_SC_BRASS_21-select__5
  1

  0
LINE
  5
EA
330
63
100
AcDbEntity
  8
1
  6
DOT_CENTER
 62
     2
100
AcDbLine
 10
-154.1350010258889
 20
-61.99999999999995
 30
0.0
 11
-179.7650010258889
 21
-61.99999999999995
 31
0.0
  0
LINE
  5
EB
330
63
100
AcDbEntity
  8
1
  6
DOT_CENTER
 62
     2
100
AcDbLine
 10
-166.9500010258889
 20
-49.18499999999995
 30
0.0
 11
-166.9500010258889
 21
-74.81499999999996
 31
0.0
  0
CIRCLE
  5
EC
330
63
100
AcDbEntity
  8
0
  6
Continuous
 62
     7
100
AcDbCircle
 10
-166.9500010258889
 20
-61.99999999999995
 30
0.0
 40
10.79999999999998
  0
CIRCLE
  5
ED
330
63
100
AcDbEntity
  8
0
  6
Continuous
 62
     7
100
AcDbCircle
 10
-166.9500010258889
 20
-61.99999999999995
 30
0.0
 40
11.373709824679
  0
CIRCLE
  5
EE
330
63
100
AcDbEntity
  8
0
  6
Continuous
 62
     7
100
AcDbCircle
 10
-166.9500010258889
 20
-61.99999999999995
 30
0.0
 40
8.849999999999994
  0
CIRCLE
  5
EF
330
63
100
AcDbEntity
  8
0
  6
Continuous
 62
     7
100
AcDbCircle
 10
-166.9500010258889
 20
-61.99999999999995
 30
0.0
 40
8.549999999999983
  0
CIRCLE
  5
F0
330
63
100
AcDbEntity
  8
0
  6
Continuous
 62
     7
100
AcDbCircle
 10
-166.9500010258889
 20
-61.99999999999995
 30
0.0
 40
9.824999999999818
  0
CIRCLE
  5
F1
330
63
100
AcDbEntity
  8
0
  6
Continuous
 62
     7
100
AcDbCircle
 10
-166.9500010258889
 20
-61.99999999999995
 30
0.0
 40
11.65000000000001
  0
ENDBLK
  5
65
330
63
100
AcDbEntity
  8
0
100
AcDbBlockEnd
  0
BLOCK
  5
68
330
66
100
AcDbEntity
  8
0
100
AcDbBlockBegin
  2
SA_Rechts1
 70
     0
 10
-166.9500010258889
 20
-61.99999999999995
 30
0.0
  3
SA_Rechts1
  1

  0
INSERT
  5
67
330
66
100
AcDbEntity
  8
0
100
AcDbBlockReference
  2
WP_SC_BRASS_21-select__5
 10
-178.6000010258889
 20
-73.64999999999995
 30
0.0
  0
MTEXT
  5
F2
330
66
100
AcDbEntity
  8
1
 62
     6
100
AcDbMText
 10
-166.9500010258889
 20
-76.11742401123047
 30
0.0
 40
2.5
 41
0.0
 71
     2
 72
     1
  1
 
  7
CONVERTER_11
 73
     1
 44
1.32052821128451
  0
ENDBLK
  5
69
330
66
100
AcDbEntity
  8
0
100
AcDbBlockEnd
  0
BLOCK
  5
6B
330
6A
100
AcDbEntity
  8
0
100
AcDbBlockBegin
  2
WP_SC_BRASS_21-select__6
 70
     0
 10
-140.29999949999
 20
-73.64999999999995
 30
0.0
  3
WP_SC_BRASS_21-select__6
  1

  0
LINE
  5
F3
330
6A
100
AcDbEntity
  8
0
  6
Continuous
 62
     7
100
AcDbLine
 10
-120.29999949999
 20
-53.14999999999995
 30
0.0
 11
-123.29999949999
 21
-53.14999999999995
 31
0.0
  0
LINE
  5
F4
330
6A
100
AcDbEntity
  8
0
  6
Continuous
 62
     7
100
AcDbLine
 10
-123.29999949999
 20
-70.84999999999995
 30
0.0
 11
-123.29999949999
 21
-53.14999999999995
 31
0.0
  0
LINE
  5
F5
330
6A
100
AcDbEntity
  8
0
  6
Continuous
 62
     7
100
AcDbLine
 10
-120.29999949999
 20
-70.84999999999995
 30
0.0
 11
-120.29999949999
 21
-53.14999999999995
 31
0.0
  0
LINE
  5
F6
330
6A
100
AcDbEntity
  8
0
  6
Continuous
 62
     7
100
AcDbLine
 10
-130.683107502739
 20
-50.62629017532095
 30
0.0
 11
-130.79999949999
 21
-50.34999999999995
 31
0.0
  0
LINE
  5
F7
330
6A
100
AcDbEntity
  8
0
  6
Continuous
 62
     7
100
AcDbLine
 10
-130.79999949999
 20
-73.64999999999995
 30
0.0
 11
-130.79999949999
 21
-50.34999999999995
 31
0.0
  0
LINE
  5
F8
330
6A
100
AcDbEntity
  8
0
  6
Continuous
 62
     7
100
AcDbLine
 10
-130.683107502739
 20
-70.84999999999995
 30
0.0
 11
-130.683107502739
 21
-73.37370982467894
 31
0.0
  0
LINE
  5
F9
330
6A
100
AcDbEntity
  8
0
  6
Continuous
 62
     7
100
AcDbLine
 10
-127.29999949999
 20
-70.84999999999995
 30
0.0
 11
-127.29999949999
 21
-61.99999999999995
 31
0.0
  0
LINE
  5
FA
330
6A
100
AcDbEntity
  8
0
  6
Continuous
 62
     7
100
AcDbLine
 10
-126.79999949999
 20
-61.99999999999995
 30
0.0
 11
-126.79999949999
 21
-71.82499999999976
 31
0.0
  0
LINE
  5
FB
330
6A
100
AcDbEntity
  8
0
  6
Continuous
 62
     7
100
AcDbLine
 10
-126.29999949999
 20
-70.84999999999995
 30
0.0
 11
-126.29999949999
 21
-61.99999999999995
 31
0.0
  0
LINE
  5
FC
330
6A
100
AcDbEntity
  8
0
  6
Continuous
 62
     7
100
AcDbLine
 10
-126.29999949999
 20
-70.84999999999995
 30
0.0
 11
-126.79999949999
 21
-71.82499999999976
 31
0.0
  0
LINE
  5
FD
330
6A
100
AcDbEntity
  8
0
  6
Continuous
 62
     7
100
AcDbLine
 10
-127.29999949999
 20
-70.84999999999995
 30
0.0
 11
-126.79999949999
 21
-71.82499999999976
 31
0.0
  0
LINE
  5
FE
330
6A
100
AcDbEntity
  8
0
  6
Continuous
 62
     7
100
AcDbLine
 10
-130.683107502739
 20
-50.62629017532095
 30
0.0
 11
-130.683107502739
 21
-70.84999999999995
 31
0.0
  0
LINE
  5
FF
330
6A
100
AcDbEntity
  8
0
  6
Continuous
 62
     7
100
AcDbLine
 10
-127.29999949999
 20
-70.84999999999995
 30
0.0
 11
-130.683107502739
 21
-70.84999999999995
 31
0.0
  0
LINE
  5
100
330
6A
100
AcDbEntity
  8
0
  6
Continuous
 62
     7
100
AcDbLine
 10
-126.29999949999
 20
-61.99999999999995
 30
0.0
 11
-126.29999949999
 21
-53.14999999999995
 31
0.0
  0
LINE
  5
101
330
6A
100
AcDbEntity
  8
0
  6
Continuous
 62
     7
100
AcDbLine
 10
-126.79999949999
 20
-52.17500000000015
 30
0.0
 11
-126.79999949999
 21
-61.99999999999995
 31
0.0
  0
LINE
  5
102
330
6A
100
AcDbEntity
  8
0
  6
Continuous
 62
     7
100
AcDbLine
 10
-127.29999949999
 20
-61.99999999999995
 30
0.0
 11
-127.29999949999
 21
-53.14999999999995
 31
0.0
  0
LINE
  5
103
330
6A
100
AcDbEntity
  8
0
  6
Continuous
 62
     7
100
AcDbLine
 10
-130.683107502739
 20
-73.37370982467894
 30
0.0
 11
-130.79999949999
 21
-73.64999999999995
 31
0.0
  0
LINE
  5
104
330
6A
100
AcDbEntity
  8
0
  6
Continuous
 62
     7
100
AcDbLine
 10
-132.09999949999
 20
-50.89999999999995
 30
0.0
 11
-130.79999949999
 21
-50.34999999999995
 31
0.0
  0
LINE
  5
105
330
6A
100
AcDbEntity
  8
0
  6
Continuous
 62
     7
100
AcDbLine
 10
-132.09999949999
 20
-73.09999999999995
 30
0.0
 11
-132.09999949999
 21
-50.89999999999995
 31
0.0
  0
LINE
  5
106
330
6A
100
AcDbEntity
  8
0
  6
Continuous
 62
     7
100
AcDbLine
 10
-140.29999949999
 20
-73.09999999999995
 30
0.0
 11
-140.29999949999
 21
-50.89999999999995
 31
0.0
  0
LINE
  5
107
330
6A
100
AcDbEntity
  8
0
  6
Continuous
 62
     7
100
AcDbLine
 10
-127.29999949999
 20
-53.14999999999995
 30
0.0
 11
-130.683107502739
 21
-53.14999999999995
 31
0.0
  0
LINE
  5
108
330
6A
100
AcDbEntity
  8
0
  6
Continuous
 62
     7
100
AcDbLine
 10
-124.29999949999
 20
-53.14999999999995
 30
0.0
 11
-126.29999949999
 21
-53.14999999999995
 31
0.0
  0
LINE
  5
109
330
6A
100
AcDbEntity
  8
0
  6
Continuous
 62
     7
100
AcDbLine
 10
-124.29999949999
 20
-53.14999999999995
 30
0.0
 11
-123.79999949999
 21
-52.17500000000015
 31
0.0
  0
LINE
  5
10A
330
6A
100
AcDbEntity
  8
0
  6
Continuous
 62
     7
100
AcDbLine
 10
-127.29999949999
 20
-53.14999999999995
 30
0.0
 11
-126.79999949999
 21
-52.17500000000015
 31
0.0
  0
LINE
  5
10B
330
6A
100
AcDbEntity
  8
0
  6
Continuous
 62
     7
100
AcDbLine
 10
-126.29999949999
 20
-53.14999999999995
 30
0.0
 11
-126.79999949999
 21
-52.17500000000015
 31
0.0
  0
LINE
  5
10C
330
6A
100
AcDbEntity
  8
0
  6
Continuous
 62
     7
100
AcDbLine
 10
-132.09999949999
 20
-50.89999999999995
 30
0.0
 11
-140.29999949999
 21
-50.89999999999995
 31
0.0
  0
LINE
  5
10D
330
6A
100
AcDbEntity
  8
0
  6
Continuous
 62
     7
100
AcDbLine
 10
-124.29999949999
 20
-70.84999999999995
 30
0.0
 11
-124.29999949999
 21
-53.14999999999995
 31
0.0
  0
LINE
  5
10E
330
6A
100
AcDbEntity
  8
0
  6
Continuous
 62
     7
100
AcDbLine
 10
-124.29999949999
 20
-70.84999999999995
 30
0.0
 11
-123.79999949999
 21
-71.82499999999976
 31
0.0
  0
LINE
  5
10F
330
6A
100
AcDbEntity
  8
0
  6
Continuous
 62
     7
100
AcDbLine
 10
-124.29999949999
 20
-70.84999999999995
 30
0.0
 11
-126.29999949999
 21
-70.84999999999995
 31
0.0
  0
LINE
  5
110
330
6A
100
AcDbEntity
  8
0
  6
Continuous
 62
     7
100
AcDbLine
 10
-132.09999949999
 20
-73.09999999999995
 30
0.0
 11
-140.29999949999
 21
-73.09999999999995
 31
0.0
  0
LINE
  5
111
330
6A
100
AcDbEntity
  8
0
  6
Continuous
 62
     7
100
AcDbLine
 10
-123.29999949999
 20
-53.14999999999995
 30
0.0
 11
-123.79999949999
 21
-52.17500000000015
 31
0.0
  0
LINE
  5
112
330
6A
100
AcDbEntity
  8
0
  6
Continuous
 62
     7
100
AcDbLine
 10
-123.29999949999
 20
-70.84999999999995
 30
0.0
 11
-123.79999949999
 21
-71.82499999999976
 31
0.0
  0
LINE
  5
113
330
6A
100
AcDbEntity
  8
0
  6
Continuous
 62
     7
100
AcDbLine
 10
-120.29999949999
 20
-70.84999999999995
 30
0.0
 11
-123.29999949999
 21
-70.84999999999995
 31
0.0
  0
LINE
  5
114
330
6A
100
AcDbEntity
  8
0
  6
Continuous
 62
     7
100
AcDbLine
 10
-123.79999949999
 20
-61.99999999999995
 30
0.0
 11
-123.79999949999
 21
-71.82499999999976
 31
0.0
  0
LINE
  5
115
330
6A
100
AcDbEntity
  8
0
  6
Continuous
 62
     7
100
AcDbLine
 10
-123.79999949999
 20
-52.17500000000015
 30
0.0
 11
-123.79999949999
 21
-61.99999999999995
 31
0.0
  0
LINE
  5
116
330
6A
100
AcDbEntity
  8
0
  6
Continuous
 62
     7
100
AcDbLine
 10
-132.09999949999
 20
-73.09999999999995
 30
0.0
 11
-130.79999949999
 21
-73.64999999999995
 31
0.0
  0
LINE
  5
117
330
6A
100
AcDbEntity
  8
1
  6
DOT_CENTER
 62
     2
100
AcDbLine
 10
-120.29999949999
 20
-61.99999999999994
 30
0.0
 11
-140.29999949999
 21
-62.0
 31
0.0
  0
ENDBLK
  5
6C
330
6A
100
AcDbEntity
  8
0
100
AcDbBlockEnd
  0
BLOCK
  5
6F
330
6D
100
AcDbEntity
  8
0
100
AcDbBlockBegin
  2
Vordans1
 70
     0
 10
-130.2999995
 20
-61.99999999999995
 30
0.0
  3
Vordans1
  1

  0
INSERT
  5
6E
330
6D
100
AcDbEntity
  8
0
100
AcDbBlockReference
  2
WP_SC_BRASS_21-select__6
 10
-140.29999949999
 20
-73.64999999999995
 30
0.0
  0
MTEXT
  5
118
330
6D
100
AcDbEntity
  8
1
 62
     6
100
AcDbMText
 10
-130.2999995
 20
-76.11742401123047
 30
0.0
 40
2.5
 41
0.0
 71
     2
 72
     1
  1
 
  7
CONVERTER_11
 73
     1
 44
1.32052821128451
  0
DIMENSION
  5
123
330
6D
100
AcDbEntity
  8
1
100
AcDbDimension
  2
*D17
 10
-140.29999949999
 20
-78.64999999999995
 30
0.0
 11
-130.29999949999
 21
-77.02499999999995
 31
0.0
 70
    32
  1
<>
 71
     5
 42
-1.0
 53
0.00013888888889
  3
ME10_DIM_10
100
AcDbAlignedDimension
 13
-120.29999949999
 23
-70.84999999999995
 33
0.0
 14
-140.29999949999
 24
-73.09999999999995
 34
0.0
100
AcDbRotatedDimension
  0
DIMENSION
  5
12E
330
6D
100
AcDbEntity
  8
1
100
AcDbDimension
  2
*D18
 10
-145.29999949999
 20
-50.34999999999995
 30
0.0
 11
-147.01249949999
 21
-61.99999999999995
 31
0.0
 70
    32
  1
<>
 71
     5
 42
-1.0
 53
90.0
  3
ME10_DIM_11
100
AcDbAlignedDimension
 13
-130.79999949999
 23
-73.64999999999995
 33
0.0
 14
-130.79999949999
 24
-50.34999999999995
 34
0.0
 50
90.0
100
AcDbRotatedDimension
  0
ENDBLK
  5
70
330
6D
100
AcDbEntity
  8
0
100
AcDbBlockEnd
  0
BLOCK
  5
72
330
71
100
AcDbEntity
  8
0
100
AcDbBlockBegin
  2
_rahmen
 70
     0
 10
-93.2650010259239
 20
-271.1024241738891
 30
0.0
  3
_rahmen
  1

  0
LINE
  5
12F
330
71
100
AcDbEntity
  8
1
  6
Continuous
 62
     6
100
AcDbLine
 10
-222.8098055526739
 20
-240.602424173889
 30
0.0
 11
-93.2650010259222
 21
-240.602424173889
 31
0.0
  0
LINE
  5
130
330
71
100
AcDbEntity
  8
1
  6
Continuous
 62
     7
100
AcDbLine
 10
-204.6098055526739
 20
-261.852424173889
 30
0.0
 11
-186.409805552674
 21
-261.852424173889
 31
0.0
  0
LINE
  5
131
330
71
100
AcDbEntity
  8
1
  6
Continuous
 62
     6
100
AcDbLine
 10
-204.6098055526739
 20
-266.102424173889
 30
0.0
 11
-222.8098055526739
 21
-266.1024241738891
 31
0.0
  0
LINE
  5
132
330
71
100
AcDbEntity
  8
1
  6
Continuous
 62
     7
100
AcDbLine
 10
-204.6098055526739
 20
-261.852424173889
 30
0.0
 11
-204.6098055526739
 21
-266.102424173889
 31
0.0
  0
LINE
  5
133
330
71
100
AcDbEntity
  8
1
  6
Continuous
 62
     7
100
AcDbLine
 10
-186.409805552674
 20
-261.852424173889
 30
0.0
 11
-186.409805552674
 21
-266.1024241738891
 31
0.0
  0
LINE
  5
134
330
71
100
AcDbEntity
  8
1
  6
Continuous
 62
     7
100
AcDbLine
 10
-222.8098055526739
 20
-261.8524241738891
 30
0.0
 11
-222.8098055526739
 21
-266.1024241738891
 31
0.0
  0
LINE
  5
135
330
71
100
AcDbEntity
  8
1
  6
Continuous
 62
     7
100
AcDbLine
 10
-222.8098055526739
 20
-261.8524241738891
 30
0.0
 11
-204.6098055526739
 21
-261.852424173889
 31
0.0
  0
LINE
  5
136
330
71
100
AcDbEntity
  8
1
  6
Continuous
 62
     2
100
AcDbLine
 10
-213.5731506661113
 20
-242.477424173889
 30
0.0
 11
-213.5731506661113
 21
-247.477424173889
 31
0.0
  0
LINE
  5
137
330
71
100
AcDbEntity
  8
1
  6
Continuous
 62
     2
100
AcDbLine
 10
-213.5731506661113
 20
-247.477424173889
 30
0.0
 11
-218.5731506661113
 21
-246.227424173889
 31
0.0
  0
LINE
  5
138
330
71
100
AcDbEntity
  8
1
  6
Continuous
 62
     2
100
AcDbLine
 10
-218.5731506661113
 20
-246.227424173889
 30
0.0
 11
-218.5731506661113
 21
-243.727424173889
 31
0.0
  0
LINE
  5
139
330
71
100
AcDbEntity
  8
1
  6
Continuous
 62
     2
100
AcDbLine
 10
-218.5731506661113
 20
-243.727424173889
 30
0.0
 11
-213.5731506661113
 21
-242.477424173889
 31
0.0
  0
LINE
  5
13A
330
71
100
AcDbEntity
  8
1
  6
Continuous
 62
     6
100
AcDbLine
 10
-345.2650010259221
 20
-266.102424173889
 30
0.0
 11
-380.265001025922
 21
-266.102424173889
 31
0.0
  0
LINE
  5
13B
330
71
100
AcDbEntity
  8
1
  6
Continuous
 62
     6
100
AcDbLine
 10
-93.2650010259222
 20
-249.102424173889
 30
0.0
 11
-93.2650010259226
 21
-257.602424173889
 31
0.0
  0
LINE
  5
13C
330
71
100
AcDbEntity
  8
1
  6
Continuous
 62
     6
100
AcDbLine
 10
-186.409805552674
 20
-266.1024241738891
 30
0.0
 11
-186.7650010259239
 21
-266.102424173889
 31
0.0
  0
LINE
  5
13D
330
71
100
AcDbEntity
  8
1
  6
Continuous
 62
     6
100
AcDbLine
 10
-339.0650010259241
 20
-266.1024241738891
 30
0.0
 11
-345.2650010259221
 21
-266.102424173889
 31
0.0
  0
LINE
  5
13E
330
71
100
AcDbEntity
  8
1
  6
Continuous
 62
     7
100
AcDbLine
 10
-186.409805552674
 20
-249.102424173889
 30
0.0
 11
-186.409805552674
 21
-261.852424173889
 31
0.0
  0
LINE
  5
13F
330
71
100
AcDbEntity
  8
1
  6
Continuous
 62
     7
100
AcDbLine
 10
-222.8098055526739
 20
-249.102424173889
 30
0.0
 11
-222.8098055526739
 21
-261.8524241738891
 31
0.0
  0
LINE
  5
140
330
71
100
AcDbEntity
  8
1
  6
Continuous
 62
     6
100
AcDbLine
 10
-236.7650010259239
 20
-266.102424173889
 30
0.0
 11
-286.7650010259241
 21
-266.102424173889
 31
0.0
  0
LINE
  5
141
330
71
100
AcDbEntity
  8
1
  6
Continuous
 62
     6
100
AcDbLine
 10
-339.0650010259241
 20
-266.1024241738891
 30
0.0
 11
-336.7650010259239
 21
-266.102424173889
 31
0.0
  0
LINE
  5
142
330
71
100
AcDbEntity
  8
1
  6
Continuous
 62
     6
100
AcDbLine
 10
-186.409805552674
 20
-266.1024241738891
 30
0.0
 11
-136.7650010259239
 21
-266.102424173889
 31
0.0
  0
LINE
  5
143
330
71
100
AcDbEntity
  8
1
  6
Continuous
 62
     6
100
AcDbLine
 10
-93.2650010259239
 20
-266.102424173889
 30
0.0
 11
-93.2650010259226
 21
-257.602424173889
 31
0.0
  0
LINE
  5
144
330
71
100
AcDbEntity
  8
1
  6
Continuous
 62
     2
100
AcDbLine
 10
-385.265001025923
 20
-266.102424173889
 30
0.0
 11
-385.265001025923
 21
-271.1024241738891
 31
0.0
  0
LINE
  5
145
330
71
100
AcDbEntity
  8
1
  6
Continuous
 62
     2
100
AcDbLine
 10
-380.265001025922
 20
-266.102424173889
 30
0.0
 11
-385.265001025923
 21
-266.102424173889
 31
0.0
  0
LINE
  5
146
330
71
100
AcDbEntity
  8
1
  6
Continuous
 62
     2
100
AcDbLine
 10
-380.265001025922
 20
-271.1024241738891
 30
0.0
 11
-336.7650010259239
 21
-271.1024241738891
 31
0.0
  0
LINE
  5
147
330
71
100
AcDbEntity
  8
1
  6
Continuous
 62
     2
100
AcDbLine
 10
-380.265001025922
 20
-266.102424173889
 30
0.0
 11
-380.265001025922
 21
-271.1024241738891
 31
0.0
  0
LINE
  5
148
330
71
100
AcDbEntity
  8
1
  6
Continuous
 62
     2
100
AcDbLine
 10
-136.7650010259239
 20
-271.1024241738891
 30
0.0
 11
-186.7650010259239
 21
-271.1024241738891
 31
0.0
  0
LINE
  5
149
330
71
100
AcDbEntity
  8
1
  6
Continuous
 62
     2
100
AcDbLine
 10
-136.7650010259239
 20
-271.1024241738891
 30
0.0
 11
-136.7650010259239
 21
-266.102424173889
 31
0.0
  0
LINE
  5
14A
330
71
100
AcDbEntity
  8
1
  6
Continuous
 62
     2
100
AcDbLine
 10
-186.7650010259239
 20
-271.1024241738891
 30
0.0
 11
-186.7650010259239
 21
-266.102424173889
 31
0.0
  0
LINE
  5
14B
330
71
100
AcDbEntity
  8
1
  6
Continuous
 62
     2
100
AcDbLine
 10
-236.7650010259239
 20
-271.1024241738891
 30
0.0
 11
-186.7650010259239
 21
-271.1024241738891
 31
0.0
  0
LINE
  5
14C
330
71
100
AcDbEntity
  8
1
  6
Continuous
 62
     2
100
AcDbLine
 10
-236.7650010259239
 20
-271.1024241738891
 30
0.0
 11
-236.7650010259239
 21
-266.102424173889
 31
0.0
  0
LINE
  5
14D
330
71
100
AcDbEntity
  8
1
  6
Continuous
 62
     2
100
AcDbLine
 10
-286.7650010259241
 20
-271.1024241738891
 30
0.0
 11
-236.7650010259239
 21
-271.1024241738891
 31
0.0
  0
LINE
  5
14E
330
71
100
AcDbEntity
  8
1
  6
Continuous
 62
     2
100
AcDbLine
 10
-286.7650010259241
 20
-271.1024241738891
 30
0.0
 11
-286.7650010259241
 21
-266.102424173889
 31
0.0
  0
LINE
  5
14F
330
71
100
AcDbEntity
  8
1
  6
Continuous
 62
     2
100
AcDbLine
 10
-336.7650010259239
 20
-271.1024241738891
 30
0.0
 11
-286.7650010259241
 21
-271.1024241738891
 31
0.0
  0
LINE
  5
150
330
71
100
AcDbEntity
  8
1
  6
Continuous
 62
     2
100
AcDbLine
 10
-336.7650010259239
 20
-271.1024241738891
 30
0.0
 11
-336.7650010259239
 21
-266.102424173889
 31
0.0
  0
LINE
  5
151
330
71
100
AcDbEntity
  8
1
  6
Continuous
 62
     6
100
AcDbLine
 10
-380.2650010259222
 20
-216.1024241738888
 30
0.0
 11
-380.265001025922
 21
-266.102424173889
 31
0.0
  0
LINE
  5
152
330
71
100
AcDbEntity
  8
1
  6
Continuous
 62
     2
100
AcDbLine
 10
-385.265001025923
 20
-216.1024241738888
 30
0.0
 11
-385.265001025923
 21
-266.102424173889
 31
0.0
  0
LINE
  5
153
330
71
100
AcDbEntity
  8
1
  6
Continuous
 62
     2
100
AcDbLine
 10
-385.265001025923
 20
-216.1024241738888
 30
0.0
 11
-380.2650010259222
 21
-216.1024241738888
 31
0.0
  0
LINE
  5
154
330
71
100
AcDbEntity
  8
1
  6
Continuous
 62
     6
100
AcDbLine
 10
-380.2650010259224
 20
-166.102424173889
 30
0.0
 11
-380.2650010259222
 21
-216.1024241738888
 31
0.0
  0
LINE
  5
155
330
71
100
AcDbEntity
  8
1
  6
Continuous
 62
     2
100
AcDbLine
 10
-385.265001025923
 20
-166.102424173889
 30
0.0
 11
-385.265001025923
 21
-216.1024241738888
 31
0.0
  0
LINE
  5
156
330
71
100
AcDbEntity
  8
1
  6
Continuous
 62
     2
100
AcDbLine
 10
-385.265001025923
 20
-166.102424173889
 30
0.0
 11
-380.2650010259224
 21
-166.102424173889
 31
0.0
  0
LINE
  5
157
330
71
100
AcDbEntity
  8
1
  6
Continuous
 62
     6
100
AcDbLine
 10
-380.2650010259229
 20
-116.102424173889
 30
0.0
 11
-380.2650010259224
 21
-166.102424173889
 31
0.0
  0
LINE
  5
158
330
71
100
AcDbEntity
  8
1
  6
Continuous
 62
     2
100
AcDbLine
 10
-385.265001025923
 20
-116.102424173889
 30
0.0
 11
-385.265001025923
 21
-166.102424173889
 31
0.0
  0
LINE
  5
159
330
71
100
AcDbEntity
  8
1
  6
Continuous
 62
     2
100
AcDbLine
 10
-385.265001025923
 20
-116.102424173889
 30
0.0
 11
-380.2650010259229
 21
-116.102424173889
 31
0.0
  0
LINE
  5
15A
330
71
100
AcDbEntity
  8
1
  6
Continuous
 62
     6
100
AcDbLine
 10
-380.265001025923
 20
-81.10242417388895
 30
0.0
 11
-380.2650010259229
 21
-116.102424173889
 31
0.0
  0
LINE
  5
15B
330
71
100
AcDbEntity
  8
1
  6
Continuous
 62
     2
100
AcDbLine
 10
-385.265001025923
 20
-61.10242417388895
 30
0.0
 11
-385.265001025923
 21
-116.102424173889
 31
0.0
  0
LINE
  5
15C
330
71
100
AcDbEntity
  8
1
  6
Continuous
 62
     2
100
AcDbLine
 10
-385.265001025923
 20
-271.1024241738891
 30
0.0
 11
-380.265001025922
 21
-271.1024241738891
 31
0.0
  0
LINE
  5
15D
330
71
100
AcDbEntity
  8
1
  6
Continuous
 62
     2
100
AcDbLine
 10
-236.7650010259239
 20
-61.10242417388895
 30
0.0
 11
-236.7650010259239
 21
-70.31111601859027
 31
0.0
  0
LINE
  5
15E
330
71
100
AcDbEntity
  8
1
  6
Continuous
 62
     2
100
AcDbLine
 10
-236.7650010259239
 20
-61.10242417388895
 30
0.0
 11
-385.265001025923
 21
-61.10242417388895
 31
0.0
  0
LINE
  5
15F
330
71
100
AcDbEntity
  8
1
  6
Continuous
 62
     2
100
AcDbLine
 10
-88.2650010259249
 20
-266.102424173889
 30
0.0
 11
-88.2650010259249
 21
-216.1024241738888
 31
0.0
  0
LINE
  5
160
330
71
100
AcDbEntity
  8
1
  6
Continuous
 62
     2
100
AcDbLine
 10
-88.2650010259249
 20
-116.102424173889
 30
0.0
 11
-88.2650010259249
 21
-61.10242417388895
 31
0.0
  0
LINE
  5
161
330
71
100
AcDbEntity
  8
1
  6
Continuous
 62
     6
100
AcDbLine
 10
-93.2650010259247
 20
-116.102424173889
 30
0.0
 11
-93.2650010259249
 21
-81.10242417388895
 31
0.0
  0
LINE
  5
162
330
71
100
AcDbEntity
  8
1
  6
Continuous
 62
     2
100
AcDbLine
 10
-93.2650010259247
 20
-116.102424173889
 30
0.0
 11
-88.2650010259249
 21
-116.102424173889
 31
0.0
  0
LINE
  5
163
330
71
100
AcDbEntity
  8
1
  6
Continuous
 62
     2
100
AcDbLine
 10
-88.2650010259249
 20
-166.102424173889
 30
0.0
 11
-88.2650010259249
 21
-116.102424173889
 31
0.0
  0
LINE
  5
164
330
71
100
AcDbEntity
  8
1
  6
Continuous
 62
     6
100
AcDbLine
 10
-93.2650010259235
 20
-166.102424173889
 30
0.0
 11
-93.2650010259247
 21
-116.102424173889
 31
0.0
  0
LINE
  5
165
330
71
100
AcDbEntity
  8
1
  6
Continuous
 62
     2
100
AcDbLine
 10
-93.2650010259235
 20
-166.102424173889
 30
0.0
 11
-88.2650010259249
 21
-166.102424173889
 31
0.0
  0
LINE
  5
166
330
71
100
AcDbEntity
  8
1
  6
Continuous
 62
     2
100
AcDbLine
 10
-88.2650010259249
 20
-216.1024241738888
 30
0.0
 11
-88.2650010259249
 21
-166.102424173889
 31
0.0
  0
LINE
  5
167
330
71
100
AcDbEntity
  8
1
  6
Continuous
 62
     6
100
AcDbLine
 10
-93.265001025923
 20
-216.1024241738888
 30
0.0
 11
-93.2650010259235
 21
-166.102424173889
 31
0.0
  0
LINE
  5
168
330
71
100
AcDbEntity
  8
1
  6
Continuous
 62
     2
100
AcDbLine
 10
-93.265001025923
 20
-216.1024241738888
 30
0.0
 11
-88.2650010259249
 21
-216.1024241738888
 31
0.0
  0
LINE
  5
169
330
71
100
AcDbEntity
  8
1
  6
Continuous
 62
     6
100
AcDbLine
 10
-93.2650010259249
 20
-81.10242417388895
 30
0.0
 11
-380.265001025923
 21
-81.10242417388895
 31
0.0
  0
LINE
  5
16A
330
71
100
AcDbEntity
  8
1
  6
Continuous
 62
     2
100
AcDbLine
 10
-88.2650010259249
 20
-61.10242417388895
 30
0.0
 11
-236.7650010259239
 21
-61.10242417388895
 31
0.0
  0
LINE
  5
16B
330
71
100
AcDbEntity
  8
1
  6
Continuous
 62
     6
100
AcDbLine
 10
-93.2650010259222
 20
-249.102424173889
 30
0.0
 11
-93.265001025923
 21
-216.1024241738888
 31
0.0
  0
LINE
  5
16C
330
71
100
AcDbEntity
  8
1
  6
Continuous
 62
     2
100
AcDbLine
 10
-93.2650010259239
 20
-271.1024241738891
 30
0.0
 11
-136.7650010259239
 21
-271.1024241738891
 31
0.0
  0
LINE
  5
16D
330
71
100
AcDbEntity
  8
1
  6
Continuous
 62
     2
100
AcDbLine
 10
-88.2650010259249
 20
-271.1024241738891
 30
0.0
 11
-93.2650010259239
 21
-271.1024241738891
 31
0.0
  0
LINE
  5
16E
330
71
100
AcDbEntity
  8
1
  6
Continuous
 62
     2
100
AcDbLine
 10
-88.2650010259249
 20
-271.1024241738891
 30
0.0
 11
-88.2650010259249
 21
-266.102424173889
 31
0.0
  0
LINE
  5
16F
330
71
100
AcDbEntity
  8
1
  6
Continuous
 62
     6
100
AcDbLine
 10
-222.8098055526739
 20
-249.102424173889
 30
0.0
 11
-186.409805552674
 21
-249.102424173889
 31
0.0
  0
LINE
  5
170
330
71
100
AcDbEntity
  8
1
  6
Continuous
 62
     2
100
AcDbLine
 10
-93.2650010259239
 20
-266.102424173889
 30
0.0
 11
-93.2650010259239
 21
-271.1024241738891
 31
0.0
  0
LINE
  5
171
330
71
100
AcDbEntity
  8
1
  6
Continuous
 62
     2
100
AcDbLine
 10
-93.2650010259239
 20
-266.102424173889
 30
0.0
 11
-88.2650010259249
 21
-266.102424173889
 31
0.0
  0
LINE
  5
172
330
71
100
AcDbEntity
  8
1
  6
Continuous
 62
     6
100
AcDbLine
 10
-186.7650010259239
 20
-266.102424173889
 30
0.0
 11
-204.6098055526739
 21
-266.102424173889
 31
0.0
  0
LINE
  5
173
330
71
100
AcDbEntity
  8
1
  6
Continuous
 62
     6
100
AcDbLine
 10
-136.7650010259239
 20
-266.102424173889
 30
0.0
 11
-93.2650010259239
 21
-266.102424173889
 31
0.0
  0
LINE
  5
174
330
71
100
AcDbEntity
  8
1
  6
Continuous
 62
     6
100
AcDbLine
 10
-286.7650010259241
 20
-266.102424173889
 30
0.0
 11
-291.8098055526739
 21
-266.102424173889
 31
0.0
  0
LINE
  5
175
330
71
100
AcDbEntity
  8
1
  6
Continuous
 62
     6
100
AcDbLine
 10
-236.7650010259239
 20
-266.102424173889
 30
0.0
 11
-222.8098055526739
 21
-266.1024241738891
 31
0.0
  0
LINE
  5
176
102
{ACAD_REACTORS
330
260
330
261
102
}
330
71
100
AcDbEntity
  8
0
  6
Continuous
 62
     2
100
AcDbLine
 10
-215.2951796105271
 20
-254.0299094176768
 30
0.0
 11
-215.2951796105271
 21
-253.4243741291701
 31
0.0
  0
LINE
  5
177
102
{ACAD_REACTORS
330
260
330
261
102
}
330
71
100
AcDbEntity
  8
0
  6
Continuous
 62
     2
100
AcDbLine
 10
-215.2951796105271
 20
-256.8300440243081
 30
0.0
 11
-215.2951796105271
 21
-256.2481926176131
 31
0.0
  0
LINE
  5
178
102
{ACAD_REACTORS
330
262
330
263
102
}
330
71
100
AcDbEntity
  8
0
  6
Continuous
 62
     2
100
AcDbLine
 10
-192.6656931750479
 20
-256.5403799561851
 30
0.0
 11
-192.6656931750479
 21
-258.8089241738726
 31
0.0
  0
LINE
  5
179
102
{ACAD_REACTORS
330
262
330
263
102
}
330
71
100
AcDbEntity
  8
0
  6
Continuous
 62
     2
100
AcDbLine
 10
-194.0467469540355
 20
-255.755114650062
 30
0.0
 11
-190.6618014354068
 21
-255.7551146500616
 31
0.0
  0
LINE
  5
17A
102
{ACAD_REACTORS
330
262
330
263
102
}
330
71
100
AcDbEntity
  8
0
  6
Continuous
 62
     2
100
AcDbLine
 10
-190.6618014354068
 20
-256.5403799561851
 30
0.0
 11
-190.6618014354068
 21
-255.7551146500616
 31
0.0
  0
LINE
  5
17B
102
{ACAD_REACTORS
330
262
330
263
102
}
330
71
100
AcDbEntity
  8
0
  6
Continuous
 62
     2
100
AcDbLine
 10
-191.4729004728802
 20
-256.5403799561851
 30
0.0
 11
-190.6618014354068
 21
-256.5403799561851
 31
0.0
  0
LINE
  5
17C
102
{ACAD_REACTORS
330
262
330
263
102
}
330
71
100
AcDbEntity
  8
0
  6
Continuous
 62
     2
100
AcDbLine
 10
-191.4729004728802
 20
-258.8089241738726
 30
0.0
 11
-191.4729004728802
 21
-256.5403799561851
 31
0.0
  0
LINE
  5
17D
102
{ACAD_REACTORS
330
262
330
263
102
}
330
71
100
AcDbEntity
  8
0
  6
Continuous
 62
     2
100
AcDbLine
 10
-192.6656931750479
 20
-258.8089241738726
 30
0.0
 11
-191.4729004728802
 21
-258.8089241738726
 31
0.0
  0
LINE
  5
17E
102
{ACAD_REACTORS
330
258
330
259
102
}
330
71
100
AcDbEntity
  8
0
  6
Continuous
 62
     2
100
AcDbLine
 10
-193.3622841131124
 20
-252.3959241738872
 30
0.0
 11
-194.7650083308617
 21
-252.3959241738872
 31
0.0
  0
LINE
  5
17F
102
{ACAD_REACTORS
330
258
330
259
102
}
330
71
100
AcDbEntity
  8
0
  6
Continuous
 62
     2
100
AcDbLine
 10
-193.3622841131124
 20
-252.3959241738872
 30
0.0
 11
-192.7611165912206
 21
-253.0757474954426
 31
0.0
  0
LINE
  5
180
102
{ACAD_REACTORS
330
258
330
259
102
}
330
71
100
AcDbEntity
  8
0
  6
Continuous
 62
     2
100
AcDbLine
 10
-192.7611165912206
 20
-253.0757474954426
 30
0.0
 11
-192.1599490693278
 21
-252.3959241738872
 31
0.0
  0
LINE
  5
181
102
{ACAD_REACTORS
330
258
330
259
102
}
330
71
100
AcDbEntity
  8
0
  6
Continuous
 62
     2
100
AcDbLine
 10
-192.0597544823471
 20
-253.8688747039234
 30
0.0
 11
-190.7572248515806
 21
-252.3959241738872
 31
0.0
  0
LINE
  5
182
102
{ACAD_REACTORS
330
258
330
259
102
}
330
71
100
AcDbEntity
  8
0
  6
Continuous
 62
     2
100
AcDbLine
 10
-192.0597544823471
 20
-253.8688747039234
 30
0.0
 11
-190.6618014354068
 21
-255.4497336976984
 31
0.0
  0
LINE
  5
183
102
{ACAD_REACTORS
330
258
330
259
102
}
330
71
100
AcDbEntity
  8
0
  6
Continuous
 62
     2
100
AcDbLine
 10
-192.0645256531551
 20
-255.4497336976984
 30
0.0
 11
-190.6618014354068
 21
-255.4497336976984
 31
0.0
  0
LINE
  5
184
102
{ACAD_REACTORS
330
258
330
259
102
}
330
71
100
AcDbEntity
  8
0
  6
Continuous
 62
     2
100
AcDbLine
 10
-192.7611165912206
 20
-254.6620019124046
 30
0.0
 11
-192.0645256531551
 21
-255.4497336976984
 31
0.0
  0
LINE
  5
185
102
{ACAD_REACTORS
330
256
330
257
102
}
330
71
100
AcDbEntity
  8
0
  6
Continuous
 62
     2
100
AcDbLine
 10
-196.2202154275043
 20
-252.3959241738872
 30
0.0
 11
-194.9797110172514
 21
-252.3959241738872
 31
0.0
  0
LINE
  5
186
102
{ACAD_REACTORS
330
256
330
257
102
}
330
71
100
AcDbEntity
  8
0
  6
Continuous
 62
     2
100
AcDbLine
 10
-194.9797110172514
 20
-252.3959241738872
 30
0.0
 11
-194.9797110172514
 21
-255.4497336976984
 31
0.0
  0
LINE
  5
187
102
{ACAD_REACTORS
330
256
330
257
102
}
330
71
100
AcDbEntity
  8
0
  6
Continuous
 62
     2
100
AcDbLine
 10
-196.2202154275043
 20
-255.4497336976984
 30
0.0
 11
-196.2202154275043
 21
-252.3959241738872
 31
0.0
  0
LINE
  5
188
102
{ACAD_REACTORS
330
254
330
255
102
}
330
71
100
AcDbEntity
  8
0
  6
Continuous
 62
     2
100
AcDbLine
 10
-197.6885255100419
 20
-257.5874003643481
 30
0.0
 11
-197.3883602728495
 21
-256.8195853983615
 31
0.0
  0
LINE
  5
189
102
{ACAD_REACTORS
330
254
330
255
102
}
330
71
100
AcDbEntity
  8
0
  6
Continuous
 62
     2
100
AcDbLine
 10
-198.1660611146627
 20
-258.8089241738726
 30
0.0
 11
-197.9545810611869
 21
-258.2679636296548
 31
0.0
  0
LINE
  5
18A
102
{ACAD_REACTORS
330
254
330
255
102
}
330
71
100
AcDbEntity
  8
0
  6
Continuous
 62
     2
100
AcDbLine
 10
-198.0086124779764
 20
-255.7551146500616
 30
0.0
 11
-199.4065655249157
 21
-258.8089241738726
 31
0.0
  0
LINE
  5
18B
102
{ACAD_REACTORS
330
254
330
255
102
}
330
71
100
AcDbEntity
  8
0
  6
Continuous
 62
     2
100
AcDbLine
 10
-195.3701550207834
 20
-258.8089241738726
 30
0.0
 11
-196.6106594310373
 21
-258.8089241738726
 31
0.0
  0
LINE
  5
18C
102
{ACAD_REACTORS
330
254
330
255
102
}
330
71
100
AcDbEntity
  8
0
  6
Continuous
 62
     2
100
AcDbLine
 10
-197.9545810611869
 20
-258.2679636296548
 30
0.0
 11
-196.8221394845131
 21
-258.2679636296548
 31
0.0
  0
LINE
  5
18D
102
{ACAD_REACTORS
330
252
330
253
102
}
330
71
100
AcDbEntity
  8
0
  6
Continuous
 62
     2
100
AcDbLine
 10
-201.5640776640979
 20
-256.5403799561851
 30
0.0
 11
-200.7529786266233
 21
-256.5403799561851
 31
0.0
  0
LINE
  5
18E
102
{ACAD_REACTORS
330
252
330
253
102
}
330
71
100
AcDbEntity
  8
0
  6
Continuous
 62
     2
100
AcDbLine
 10
-198.7490868869843
 20
-255.7551146500616
 30
0.0
 11
-201.5640776640979
 21
-255.7551146500616
 31
0.0
  0
LINE
  5
18F
102
{ACAD_REACTORS
330
252
330
253
102
}
330
71
100
AcDbEntity
  8
0
  6
Continuous
 62
     2
100
AcDbLine
 10
-198.7490868869843
 20
-256.5403799561851
 30
0.0
 11
-198.7490868869843
 21
-255.7551146500616
 31
0.0
  0
LINE
  5
190
102
{ACAD_REACTORS
330
252
330
253
102
}
330
71
100
AcDbEntity
  8
0
  6
Continuous
 62
     2
100
AcDbLine
 10
-199.5601859244568
 20
-256.5403799561851
 30
0.0
 11
-198.7490868869843
 21
-256.5403799561851
 31
0.0
  0
LINE
  5
191
102
{ACAD_REACTORS
330
252
330
253
102
}
330
71
100
AcDbEntity
  8
0
  6
Continuous
 62
     2
100
AcDbLine
 10
-199.5601859244568
 20
-258.8089241738726
 30
0.0
 11
-199.5601859244568
 21
-256.5403799561851
 31
0.0
  0
LINE
  5
192
102
{ACAD_REACTORS
330
250
330
251
102
}
330
71
100
AcDbEntity
  8
0
  6
Continuous
 62
     2
100
AcDbLine
 10
-198.8920710803588
 20
-255.4497336976984
 30
0.0
 11
-198.8920710803588
 21
-254.1409581874937
 31
0.0
  0
LINE
  5
193
102
{ACAD_REACTORS
330
250
330
251
102
}
330
71
100
AcDbEntity
  8
0
  6
Continuous
 62
     2
100
AcDbLine
 10
-200.0848637825253
 20
-252.3959241738872
 30
0.0
 11
-200.0848637825253
 21
-255.4497336976984
 31
0.0
  0
LINE
  5
194
102
{ACAD_REACTORS
330
250
330
251
102
}
330
71
100
AcDbEntity
  8
0
  6
Continuous
 62
     2
100
AcDbLine
 10
-198.8920710803588
 20
-252.3959241738872
 30
0.0
 11
-200.0848637825253
 21
-252.3959241738872
 31
0.0
  0
LINE
  5
195
102
{ACAD_REACTORS
330
250
330
251
102
}
330
71
100
AcDbEntity
  8
0
  6
Continuous
 62
     2
100
AcDbLine
 10
-197.6515666701048
 20
-252.3959241738872
 30
0.0
 11
-197.6515666701048
 21
-253.7046996840923
 31
0.0
  0
LINE
  5
196
102
{ACAD_REACTORS
330
24E
330
24F
102
}
330
71
100
AcDbEntity
  8
0
  6
Continuous
 62
     2
100
AcDbLine
 10
-205.333302602945
 20
-255.7551146500616
 30
0.0
 11
-205.333302602945
 21
-258.8089241738726
 31
0.0
  0
LINE
  5
197
102
{ACAD_REACTORS
330
24E
330
24F
102
}
330
71
100
AcDbEntity
  8
0
  6
Continuous
 62
     2
100
AcDbLine
 10
-204.1405099007774
 20
-255.7551146500616
 30
0.0
 11
-205.333302602945
 21
-255.7551146500616
 31
0.0
  0
LINE
  5
198
102
{ACAD_REACTORS
330
24E
330
24F
102
}
330
71
100
AcDbEntity
  8
0
  6
Continuous
 62
     2
100
AcDbLine
 10
-202.9000054905245
 20
-258.8089241738726
 30
0.0
 11
-201.7072127883581
 21
-258.8089241738726
 31
0.0
  0
LINE
  5
199
102
{ACAD_REACTORS
330
24E
330
24F
102
}
330
71
100
AcDbEntity
  8
0
  6
Continuous
 62
     2
100
AcDbLine
 10
-205.333302602945
 20
-258.8089241738726
 30
0.0
 11
-204.1405099007774
 21
-258.8089241738726
 31
0.0
  0
LINE
  5
19A
102
{ACAD_REACTORS
330
25E
330
25F
102
}
330
71
100
AcDbEntity
  8
0
  6
Continuous
 62
     2
100
AcDbLine
 10
-201.6593501493859
 20
-253.5738221330718
 30
0.0
 11
-201.6593501493859
 21
-253.0939377793301
 31
0.0
  0
LINE
  5
19B
102
{ACAD_REACTORS
330
25E
330
25F
102
}
330
71
100
AcDbEntity
  8
0
  6
Continuous
 62
     2
100
AcDbLine
 10
-200.3234223229582
 20
-253.5738221330718
 30
0.0
 11
-201.6593501493859
 21
-253.5738221330718
 31
0.0
  0
LINE
  5
19C
102
{ACAD_REACTORS
330
25E
330
25F
102
}
330
71
100
AcDbEntity
  8
0
  6
Continuous
 62
     2
100
AcDbLine
 10
-200.3234223229582
 20
-254.2718357385141
 30
0.0
 11
-200.3234223229582
 21
-253.5738221330718
 31
0.0
  0
LINE
  5
19D
102
{ACAD_REACTORS
330
25E
330
25F
102
}
330
71
100
AcDbEntity
  8
0
  6
Continuous
 62
     2
100
AcDbLine
 10
-201.6593501493859
 20
-254.2718357385141
 30
0.0
 11
-200.3234223229582
 21
-254.2718357385141
 31
0.0
  0
LINE
  5
19E
102
{ACAD_REACTORS
330
24C
330
24D
102
}
330
71
100
AcDbEntity
  8
0
  6
Continuous
 62
     2
100
AcDbLine
 10
-205.1423048397128
 20
-252.3959241738872
 30
0.0
 11
-205.1423048397128
 21
-255.4497336976984
 31
0.0
  0
LINE
  5
19F
102
{ACAD_REACTORS
330
24C
330
24D
102
}
330
71
100
AcDbEntity
  8
0
  6
Continuous
 62
     2
100
AcDbLine
 10
-205.1423048397128
 20
-255.4497336976984
 30
0.0
 11
-206.3350975418792
 21
-255.4497336976984
 31
0.0
  0
LINE
  5
1A0
102
{ACAD_REACTORS
330
24C
330
24D
102
}
330
71
100
AcDbEntity
  8
0
  6
Continuous
 62
     2
100
AcDbLine
 10
-206.3350975418792
 20
-255.4497336976984
 30
0.0
 11
-206.3350975418792
 21
-254.3154615888545
 31
0.0
  0
LINE
  5
1A1
102
{ACAD_REACTORS
330
24C
330
24D
102
}
330
71
100
AcDbEntity
  8
0
  6
Continuous
 62
     2
100
AcDbLine
 10
-207.3847551197867
 20
-255.4497336976984
 30
0.0
 11
-208.5775478219533
 21
-255.4497336976984
 31
0.0
  0
LINE
  5
1A2
102
{ACAD_REACTORS
330
24C
330
24D
102
}
330
71
100
AcDbEntity
  8
0
  6
Continuous
 62
     2
100
AcDbLine
 10
-208.5775478219533
 20
-252.3959241738872
 30
0.0
 11
-207.3847551197867
 21
-252.3959241738872
 31
0.0
  0
LINE
  5
1A3
102
{ACAD_REACTORS
330
24C
330
24D
102
}
330
71
100
AcDbEntity
  8
0
  6
Continuous
 62
     2
100
AcDbLine
 10
-207.3847551197867
 20
-252.3959241738872
 30
0.0
 11
-207.3847551197867
 21
-253.4647575072218
 31
0.0
  0
LINE
  5
1A4
102
{ACAD_REACTORS
330
24C
330
24D
102
}
330
71
100
AcDbEntity
  8
0
  6
Continuous
 62
     2
100
AcDbLine
 10
-207.3847551197867
 20
-253.4647575072218
 30
0.0
 11
-206.3350975418792
 21
-253.4647575072218
 31
0.0
  0
LINE
  5
1A5
102
{ACAD_REACTORS
330
25A
330
25B
102
}
330
71
100
AcDbEntity
  8
0
  6
Continuous
 62
     2
100
AcDbLine
 10
-210.5337278535069
 20
-253.0590300193273
 30
0.0
 11
-210.216432791965
 21
-253.0590300193273
 31
0.0
  0
LINE
  5
1A6
102
{ACAD_REACTORS
330
25A
330
25B
102
}
330
71
100
AcDbEntity
  8
0
  6
Continuous
 62
     2
100
AcDbLine
 10
-210.5337278535069
 20
-253.7647576686695
 30
0.0
 11
-210.216432791965
 21
-253.7647576686695
 31
0.0
  0
LINE
  5
1A7
102
{ACAD_REACTORS
330
25A
330
25B
102
}
330
71
100
AcDbEntity
  8
0
  6
Continuous
 62
     2
100
AcDbLine
 10
-211.774232263761
 20
-252.3959241738872
 30
0.0
 11
-211.774232263761
 21
-255.4497336976984
 31
0.0
  0
LINE
  5
1A8
102
{ACAD_REACTORS
330
25A
330
25B
102
}
330
71
100
AcDbEntity
  8
0
  6
Continuous
 62
     2
100
AcDbLine
 10
-211.774232263761
 20
-252.3959241738872
 30
0.0
 11
-209.7749602657266
 21
-252.3959241738872
 31
0.0
  0
LINE
  5
1A9
102
{ACAD_REACTORS
330
25A
330
25B
102
}
330
71
100
AcDbEntity
  8
0
  6
Continuous
 62
     2
100
AcDbLine
 10
-210.5337278535069
 20
-254.5066554565545
 30
0.0
 11
-209.7749602657266
 21
-254.5066554565545
 31
0.0
  0
LINE
  5
1AA
102
{ACAD_REACTORS
330
260
330
261
102
}
330
71
100
AcDbEntity
  8
0
  6
Continuous
 62
     2
100
AcDbLine
 10
-217.8707282970577
 20
-253.4241966525219
 30
0.0
 11
-217.8707282970577
 21
-257.780651695239
 31
0.0
  0
LINE
  5
1AB
102
{ACAD_REACTORS
330
260
330
261
102
}
330
71
100
AcDbEntity
  8
0
  6
Continuous
 62
     2
100
AcDbLine
 10
-217.555011373982
 20
-253.1084797294458
 30
0.0
 11
-216.0791781129724
 21
-253.1084797294458
 31
0.0
  0
LINE
  5
1AC
102
{ACAD_REACTORS
330
260
330
261
102
}
330
71
100
AcDbEntity
  8
0
  6
Continuous
 62
     2
100
AcDbLine
 10
-215.7634611898958
 20
-254.0282212715825
 30
0.0
 11
-215.7634611898958
 21
-253.4241966525219
 31
0.0
  0
LINE
  5
1AD
102
{ACAD_REACTORS
330
260
330
261
102
}
330
71
100
AcDbEntity
  8
0
  6
Continuous
 62
     2
100
AcDbLine
 10
-215.7634611898958
 20
-257.780651695239
 30
0.0
 11
-215.7634611898958
 21
-256.2498807637074
 31
0.0
  0
LINE
  5
1AE
102
{ACAD_REACTORS
330
260
330
261
102
}
330
71
100
AcDbEntity
  8
0
  6
Continuous
 62
     2
100
AcDbLine
 10
-212.6755939600117
 20
-258.8089241738726
 30
0.0
 11
-218.1489060507285
 21
-258.8089241738726
 31
0.0
  0
LINE
  5
1AF
102
{ACAD_REACTORS
330
260
330
261
102
}
330
71
100
AcDbEntity
  8
0
  6
Continuous
 62
     2
100
AcDbLine
 10
-212.2513493446278
 20
-252.8201687892891
 30
0.0
 11
-212.2513493446278
 21
-258.3846795584893
 31
0.0
  0
LINE
  5
1B0
102
{ACAD_REACTORS
330
260
330
261
102
}
330
71
100
AcDbEntity
  8
0
  6
Continuous
 62
     2
100
AcDbLine
 10
-218.1489060507285
 20
-252.3959241739053
 30
0.0
 11
-212.6755939600117
 21
-252.3959241739053
 31
0.0
  0
LINE
  5
1B1
102
{ACAD_REACTORS
330
260
330
261
102
}
330
71
100
AcDbEntity
  8
0
  6
Continuous
 62
     2
100
AcDbLine
 10
-218.5731506661113
 20
-252.8201687892891
 30
0.0
 11
-218.5731506661113
 21
-258.3846795584893
 31
0.0
  0
LINE
  5
1B2
102
{ACAD_REACTORS
330
260
330
261
102
}
330
71
100
AcDbEntity
  8
0
  6
Continuous
 62
     2
100
AcDbLine
 10
-216.0791781129724
 20
-258.0963686183158
 30
0.0
 11
-217.555011373982
 21
-258.0963686183158
 31
0.0
  0
LINE
  5
1B3
102
{ACAD_REACTORS
330
25A
330
25B
102
}
330
71
100
AcDbEntity
  8
0
  6
Continuous
 62
     2
100
AcDbLine
 10
-210.5337278535069
 20
-255.4497336976984
 30
0.0
 11
-210.5337278535069
 21
-254.5066554565545
 31
0.0
  0
LINE
  5
1B4
102
{ACAD_REACTORS
330
25A
330
25B
102
}
330
71
100
AcDbEntity
  8
0
  6
Continuous
 62
     2
100
AcDbLine
 10
-211.774232263761
 20
-255.4497336976984
 30
0.0
 11
-210.5337278535069
 21
-255.4497336976984
 31
0.0
  0
LINE
  5
1B5
102
{ACAD_REACTORS
330
25A
330
25B
102
}
330
71
100
AcDbEntity
  8
0
  6
Continuous
 62
     2
100
AcDbLine
 10
-210.5337278535069
 20
-253.7647576686695
 30
0.0
 11
-210.5337278535069
 21
-253.0590300193273
 31
0.0
  0
LINE
  5
1B6
102
{ACAD_REACTORS
330
24C
330
24D
102
}
330
71
100
AcDbEntity
  8
0
  6
Continuous
 62
     2
100
AcDbLine
 10
-208.5775478219533
 20
-252.3959241738872
 30
0.0
 11
-208.5775478219533
 21
-255.4497336976984
 31
0.0
  0
LINE
  5
1B7
102
{ACAD_REACTORS
330
24C
330
24D
102
}
330
71
100
AcDbEntity
  8
0
  6
Continuous
 62
     2
100
AcDbLine
 10
-207.3847551197867
 20
-254.3154615888545
 30
0.0
 11
-207.3847551197867
 21
-255.4497336976984
 31
0.0
  0
LINE
  5
1B8
102
{ACAD_REACTORS
330
24C
330
24D
102
}
330
71
100
AcDbEntity
  8
0
  6
Continuous
 62
     2
100
AcDbLine
 10
-206.3350975418792
 20
-254.3154615888545
 30
0.0
 11
-207.3847551197867
 21
-254.3154615888545
 31
0.0
  0
LINE
  5
1B9
102
{ACAD_REACTORS
330
24C
330
24D
102
}
330
71
100
AcDbEntity
  8
0
  6
Continuous
 62
     2
100
AcDbLine
 10
-206.3350975418792
 20
-252.3959241738872
 30
0.0
 11
-205.1423048397128
 21
-252.3959241738872
 31
0.0
  0
LINE
  5
1BA
102
{ACAD_REACTORS
330
24C
330
24D
102
}
330
71
100
AcDbEntity
  8
0
  6
Continuous
 62
     2
100
AcDbLine
 10
-206.3350975418792
 20
-253.4647575072218
 30
0.0
 11
-206.3350975418792
 21
-252.3959241738872
 31
0.0
  0
LINE
  5
1BB
102
{ACAD_REACTORS
330
25E
330
25F
102
}
330
71
100
AcDbEntity
  8
0
  6
Continuous
 62
     2
100
AcDbLine
 10
-200.3234223229582
 20
-253.0939377793301
 30
0.0
 11
-200.3234223229582
 21
-252.3959241738872
 31
0.0
  0
LINE
  5
1BC
102
{ACAD_REACTORS
330
25E
330
25F
102
}
330
71
100
AcDbEntity
  8
0
  6
Continuous
 62
     2
100
AcDbLine
 10
-203.4737420467392
 20
-252.3959241738872
 30
0.0
 11
-200.3234223229582
 21
-252.3959241738872
 31
0.0
  0
LINE
  5
1BD
102
{ACAD_REACTORS
330
25E
330
25F
102
}
330
71
100
AcDbEntity
  8
0
  6
Continuous
 62
     2
100
AcDbLine
 10
-203.4737420467392
 20
-255.4497336976984
 30
0.0
 11
-200.3234223229582
 21
-255.4497336976984
 31
0.0
  0
LINE
  5
1BE
102
{ACAD_REACTORS
330
25E
330
25F
102
}
330
71
100
AcDbEntity
  8
0
  6
Continuous
 62
     2
100
AcDbLine
 10
-200.3234223229582
 20
-255.4497336976984
 30
0.0
 11
-200.3234223229582
 21
-254.7517200922559
 31
0.0
  0
LINE
  5
1BF
102
{ACAD_REACTORS
330
25E
330
25F
102
}
330
71
100
AcDbEntity
  8
0
  6
Continuous
 62
     2
100
AcDbLine
 10
-200.3234223229582
 20
-254.7517200922559
 30
0.0
 11
-201.6593501493859
 21
-254.7517200922559
 31
0.0
  0
LINE
  5
1C0
102
{ACAD_REACTORS
330
25E
330
25F
102
}
330
71
100
AcDbEntity
  8
0
  6
Continuous
 62
     2
100
AcDbLine
 10
-201.6593501493859
 20
-254.7517200922559
 30
0.0
 11
-201.6593501493859
 21
-254.2718357385141
 31
0.0
  0
LINE
  5
1C1
102
{ACAD_REACTORS
330
25E
330
25F
102
}
330
71
100
AcDbEntity
  8
0
  6
Continuous
 62
     2
100
AcDbLine
 10
-201.6593501493859
 20
-253.0939377793301
 30
0.0
 11
-200.3234223229582
 21
-253.0939377793301
 31
0.0
  0
LINE
  5
1C2
102
{ACAD_REACTORS
330
24E
330
24F
102
}
330
71
100
AcDbEntity
  8
0
  6
Continuous
 62
     2
100
AcDbLine
 10
-204.1405099007774
 20
-258.8089241738726
 30
0.0
 11
-204.1405099007774
 21
-257.500148663668
 31
0.0
  0
LINE
  5
1C3
102
{ACAD_REACTORS
330
24E
330
24F
102
}
330
71
100
AcDbEntity
  8
0
  6
Continuous
 62
     2
100
AcDbLine
 10
-204.1405099007774
 20
-257.500148663668
 30
0.0
 11
-202.9000054905245
 21
-258.8089241738726
 31
0.0
  0
LINE
  5
1C4
102
{ACAD_REACTORS
330
24E
330
24F
102
}
330
71
100
AcDbEntity
  8
0
  6
Continuous
 62
     2
100
AcDbLine
 10
-201.7072127883581
 20
-258.8089241738726
 30
0.0
 11
-201.7072127883581
 21
-255.7551146500616
 31
0.0
  0
LINE
  5
1C5
102
{ACAD_REACTORS
330
24E
330
24F
102
}
330
71
100
AcDbEntity
  8
0
  6
Continuous
 62
     2
100
AcDbLine
 10
-201.7072127883581
 20
-255.7551146500616
 30
0.0
 11
-202.9000054905245
 21
-255.7551146500616
 31
0.0
  0
LINE
  5
1C6
102
{ACAD_REACTORS
330
24E
330
24F
102
}
330
71
100
AcDbEntity
  8
0
  6
Continuous
 62
     2
100
AcDbLine
 10
-202.9000054905245
 20
-255.7551146500616
 30
0.0
 11
-202.9000054905245
 21
-257.0638901602666
 31
0.0
  0
LINE
  5
1C7
102
{ACAD_REACTORS
330
24E
330
24F
102
}
330
71
100
AcDbEntity
  8
0
  6
Continuous
 62
     2
100
AcDbLine
 10
-202.9000054905245
 20
-257.0638901602666
 30
0.0
 11
-204.1405099007774
 21
-255.7551146500616
 31
0.0
  0
LINE
  5
1C8
102
{ACAD_REACTORS
330
250
330
251
102
}
330
71
100
AcDbEntity
  8
0
  6
Continuous
 62
     2
100
AcDbLine
 10
-198.8920710803588
 20
-254.1409581874937
 30
0.0
 11
-197.6515666701048
 21
-255.4497336976984
 31
0.0
  0
LINE
  5
1C9
102
{ACAD_REACTORS
330
250
330
251
102
}
330
71
100
AcDbEntity
  8
0
  6
Continuous
 62
     2
100
AcDbLine
 10
-197.6515666701048
 20
-255.4497336976984
 30
0.0
 11
-196.4587739679382
 21
-255.4497336976984
 31
0.0
  0
LINE
  5
1CA
102
{ACAD_REACTORS
330
250
330
251
102
}
330
71
100
AcDbEntity
  8
0
  6
Continuous
 62
     2
100
AcDbLine
 10
-196.4587739679382
 20
-255.4497336976984
 30
0.0
 11
-196.4587739679382
 21
-252.3959241738872
 31
0.0
  0
LINE
  5
1CB
102
{ACAD_REACTORS
330
250
330
251
102
}
330
71
100
AcDbEntity
  8
0
  6
Continuous
 62
     2
100
AcDbLine
 10
-196.4587739679382
 20
-252.3959241738872
 30
0.0
 11
-197.6515666701048
 21
-252.3959241738872
 31
0.0
  0
LINE
  5
1CC
102
{ACAD_REACTORS
330
250
330
251
102
}
330
71
100
AcDbEntity
  8
0
  6
Continuous
 62
     2
100
AcDbLine
 10
-197.6515666701048
 20
-253.7046996840923
 30
0.0
 11
-198.8920710803588
 21
-252.3959241738872
 31
0.0
  0
LINE
  5
1CD
102
{ACAD_REACTORS
330
250
330
251
102
}
330
71
100
AcDbEntity
  8
0
  6
Continuous
 62
     2
100
AcDbLine
 10
-200.0848637825253
 20
-255.4497336976984
 30
0.0
 11
-198.8920710803588
 21
-255.4497336976984
 31
0.0
  0
LINE
  5
1CE
102
{ACAD_REACTORS
330
252
330
253
102
}
330
71
100
AcDbEntity
  8
0
  6
Continuous
 62
     2
100
AcDbLine
 10
-201.5640776640979
 20
-255.7551146500616
 30
0.0
 11
-201.5640776640979
 21
-256.5403799561851
 31
0.0
  0
LINE
  5
1CF
102
{ACAD_REACTORS
330
252
330
253
102
}
330
71
100
AcDbEntity
  8
0
  6
Continuous
 62
     2
100
AcDbLine
 10
-200.7529786266233
 20
-256.5403799561851
 30
0.0
 11
-200.7529786266233
 21
-258.8089241738726
 31
0.0
  0
LINE
  5
1D0
102
{ACAD_REACTORS
330
252
330
253
102
}
330
71
100
AcDbEntity
  8
0
  6
Continuous
 62
     2
100
AcDbLine
 10
-200.7529786266233
 20
-258.8089241738726
 30
0.0
 11
-199.5601859244568
 21
-258.8089241738726
 31
0.0
  0
LINE
  5
1D1
102
{ACAD_REACTORS
330
254
330
255
102
}
330
71
100
AcDbEntity
  8
0
  6
Continuous
 62
     2
100
AcDbLine
 10
-196.6106594310373
 20
-258.8089241738726
 30
0.0
 11
-196.8221394845131
 21
-258.2679636296548
 31
0.0
  0
LINE
  5
1D2
102
{ACAD_REACTORS
330
254
330
255
102
}
330
71
100
AcDbEntity
  8
0
  6
Continuous
 62
     2
100
AcDbLine
 10
-196.7681080677237
 20
-255.7551146500616
 30
0.0
 11
-195.3701550207834
 21
-258.8089241738726
 31
0.0
  0
LINE
  5
1D3
102
{ACAD_REACTORS
330
254
330
255
102
}
330
71
100
AcDbEntity
  8
0
  6
Continuous
 62
     2
100
AcDbLine
 10
-198.0086124779764
 20
-255.7551146500616
 30
0.0
 11
-196.7681080677237
 21
-255.7551146500616
 31
0.0
  0
LINE
  5
1D4
102
{ACAD_REACTORS
330
254
330
255
102
}
330
71
100
AcDbEntity
  8
0
  6
Continuous
 62
     2
100
AcDbLine
 10
-199.4065655249157
 20
-258.8089241738726
 30
0.0
 11
-198.1660611146627
 21
-258.8089241738726
 31
0.0
  0
LINE
  5
1D5
102
{ACAD_REACTORS
330
254
330
255
102
}
330
71
100
AcDbEntity
  8
0
  6
Continuous
 62
     2
100
AcDbLine
 10
-197.6885255100419
 20
-257.5874003643481
 30
0.0
 11
-197.0881950356594
 21
-257.5874003643481
 31
0.0
  0
LINE
  5
1D6
102
{ACAD_REACTORS
330
254
330
255
102
}
330
71
100
AcDbEntity
  8
0
  6
Continuous
 62
     2
100
AcDbLine
 10
-197.0881950356594
 20
-257.5874003643481
 30
0.0
 11
-197.3883602728495
 21
-256.8195853983615
 31
0.0
  0
LINE
  5
1D7
102
{ACAD_REACTORS
330
256
330
257
102
}
330
71
100
AcDbEntity
  8
0
  6
Continuous
 62
     2
100
AcDbLine
 10
-194.9797110172514
 20
-255.4497336976984
 30
0.0
 11
-196.2202154275043
 21
-255.4497336976984
 31
0.0
  0
LINE
  5
1D8
102
{ACAD_REACTORS
330
258
330
259
102
}
330
71
100
AcDbEntity
  8
0
  6
Continuous
 62
     2
100
AcDbLine
 10
-193.4577075292863
 20
-255.4497336976984
 30
0.0
 11
-194.8604317470345
 21
-255.4497336976984
 31
0.0
  0
LINE
  5
1D9
102
{ACAD_REACTORS
330
258
330
259
102
}
330
71
100
AcDbEntity
  8
0
  6
Continuous
 62
     2
100
AcDbLine
 10
-193.4577075292863
 20
-255.4497336976984
 30
0.0
 11
-192.7611165912206
 21
-254.6620019124046
 31
0.0
  0
LINE
  5
1DA
102
{ACAD_REACTORS
330
258
330
259
102
}
330
71
100
AcDbEntity
  8
0
  6
Continuous
 62
     2
100
AcDbLine
 10
-192.1599490693278
 20
-252.3959241738872
 30
0.0
 11
-190.7572248515806
 21
-252.3959241738872
 31
0.0
  0
LINE
  5
1DB
102
{ACAD_REACTORS
330
258
330
259
102
}
330
71
100
AcDbEntity
  8
0
  6
Continuous
 62
     2
100
AcDbLine
 10
-194.7650083308617
 20
-252.3959241738872
 30
0.0
 11
-193.4624787000942
 21
-253.8688747039234
 31
0.0
  0
LINE
  5
1DC
102
{ACAD_REACTORS
330
258
330
259
102
}
330
71
100
AcDbEntity
  8
0
  6
Continuous
 62
     2
100
AcDbLine
 10
-194.8604317470345
 20
-255.4497336976984
 30
0.0
 11
-193.4624787000942
 21
-253.8688747039234
 31
0.0
  0
LINE
  5
1DD
102
{ACAD_REACTORS
330
262
330
263
102
}
330
71
100
AcDbEntity
  8
0
  6
Continuous
 62
     2
100
AcDbLine
 10
-192.9996751316546
 20
-257.761903765709
 30
0.0
 11
-192.9996751316546
 21
-258.6344207725124
 31
0.0
  0
LINE
  5
1DE
102
{ACAD_REACTORS
330
262
330
263
102
}
330
71
100
AcDbEntity
  8
0
  6
Continuous
 62
     2
100
AcDbLine
 10
-193.769332474616
 20
-256.5403799561851
 30
0.0
 11
-192.6656931750479
 21
-256.5403799561851
 31
0.0
  0
LINE
  5
1DF
102
{ACAD_REACTORS
330
264
330
265
102
}
330
71
100
AcDbEntity
  8
0
  6
Continuous
 62
     2
100
AcDbLine
 10
-209.1023766109065
 20
-257.7619037657086
 30
0.0
 11
-209.1023766109065
 21
-258.6344207725118
 31
0.0
  0
LINE
  5
1E0
102
{ACAD_REACTORS
330
264
330
265
102
}
330
71
100
AcDbEntity
  8
0
  6
Continuous
 62
     2
100
AcDbLine
 10
-209.1023766109065
 20
-256.8021350582256
 30
0.0
 11
-209.1023766109065
 21
-255.9296180514224
 31
0.0
  0
LINE
  5
1E1
330
71
100
AcDbEntity
  8
1
  6
Continuous
 62
     7
100
AcDbLine
 10
-93.2650010259226
 20
-257.602424173889
 30
0.0
 11
-186.409805552674
 21
-257.602424173889
 31
0.0
  0
LINE
  5
1E2
330
71
100
AcDbEntity
  8
1
  6
Continuous
 62
     6
100
AcDbLine
 10
-291.8098055526739
 20
-266.102424173889
 30
0.0
 11
-336.7650010259239
 21
-266.102424173889
 31
0.0
  0
LINE
  5
1E3
330
71
100
AcDbEntity
  8
1
  6
Continuous
 62
     7
100
AcDbLine
 10
-102.1834093076014
 20
-240.602424173889
 30
0.0
 11
-102.1834093076014
 21
-249.102424173889
 31
0.0
  0
LINE
  5
1E4
330
71
100
AcDbEntity
  8
1
  6
Continuous
 62
     7
100
AcDbLine
 10
-128.683409307601
 20
-240.602424173889
 30
0.0
 11
-128.683409307601
 21
-249.102424173889
 31
0.0
  0
LINE
  5
1E5
330
71
100
AcDbEntity
  8
1
  6
Continuous
 62
     7
100
AcDbLine
 10
-186.409805552674
 20
-249.102424173889
 30
0.0
 11
-186.409805552674
 21
-240.602424173889
 31
0.0
  0
LINE
  5
1E6
330
71
100
AcDbEntity
  8
1
  6
Continuous
 62
     7
100
AcDbLine
 10
-222.8098055526739
 20
-249.102424173889
 30
0.0
 11
-222.8098055526739
 21
-240.602424173889
 31
0.0
  0
LINE
  5
1E7
330
71
100
AcDbEntity
  8
1
  6
Continuous
 62
     6
100
AcDbLine
 10
-186.409805552674
 20
-249.102424173889
 30
0.0
 11
-93.2650010259222
 21
-249.102424173889
 31
0.0
  0
LINE
  5
1E8
330
71
100
AcDbEntity
  8
1
  6
Continuous
 62
     7
100
AcDbLine
 10
-158.5098055526739
 20
-257.6024241738891
 30
0.0
 11
-158.5098055526739
 21
-249.102424173889
 31
0.0
  0
LINE
  5
1E9
330
71
100
AcDbEntity
  8
1
  6
PHANTOM
 62
     2
100
AcDbLine
 10
-207.3231506661113
 20
-244.977424173889
 30
0.0
 11
-212.8231506661113
 21
-244.977424173889
 31
0.0
  0
LINE
  5
1EA
330
71
100
AcDbEntity
  8
1
  6
PHANTOM
 62
     2
100
AcDbLine
 10
-210.0731506661113
 20
-242.227424173889
 30
0.0
 11
-210.0731506661113
 21
-247.727424173889
 31
0.0
  0
LINE
  5
1EB
330
71
100
AcDbEntity
  8
1
  6
DOT_CENTER
 62
     2
100
AcDbLine
 10
-218.8231506661113
 20
-244.977424173889
 30
0.0
 11
-213.3231506661113
 21
-244.977424173889
 31
0.0
  0
ARC
  5
1EC
102
{ACAD_REACTORS
330
264
330
265
102
}
330
71
100
AcDbEntity
  8
0
  6
Continuous
 62
     2
100
AcDbCircle
 10
-210.4383045280243
 20
-260.5947003572233
 30
0.0
 40
4.852596863498068
100
AcDbArc
 50
74.02000874164739
 51
84.84185523037506
  0
ARC
  5
1ED
102
{ACAD_REACTORS
330
264
330
265
102
}
330
71
100
AcDbEntity
  8
0
  6
Continuous
 62
     2
100
AcDbCircle
 10
-209.8622639192706
 20
-257.438940001339
 30
0.0
 40
0.9059297849853228
100
AcDbArc
 50
71.55192388185348
 51
113.3722778881306
  0
ARC
  5
1EE
102
{ACAD_REACTORS
330
264
330
265
102
}
330
71
100
AcDbEntity
  8
0
  6
Continuous
 62
     2
100
AcDbCircle
 10
-210.0187039519726
 20
-257.4870908413059
 30
0.0
 40
0.5115800601948034
100
AcDbArc
 50
208.5214732576956
 51
246.6277221118194
  0
ARC
  5
1EF
102
{ACAD_REACTORS
330
264
330
265
102
}
330
71
100
AcDbEntity
  8
0
  6
Continuous
 62
     2
100
AcDbCircle
 10
-209.8622639192706
 20
-257.1250988225959
 30
0.0
 40
0.9059297849848783
100
AcDbArc
 50
246.627722111868
 51
288.4480761181601
  0
ARC
  5
1F0
102
{ACAD_REACTORS
330
264
330
265
102
}
330
71
100
AcDbEntity
  8
0
  6
Continuous
 62
     2
100
AcDbCircle
 10
-210.2804316529314
 20
-255.8715530465587
 30
0.0
 40
2.227384008972665
100
AcDbArc
 50
288.4480761181342
 51
301.9309089499595
  0
ARC
  5
1F1
102
{ACAD_REACTORS
330
260
330
261
102
}
330
71
100
AcDbEntity
  8
0
  6
Continuous
 62
     2
100
AcDbCircle
 10
-215.5055053855382
 20
-255.1390510176447
 30
0.0
 40
0.9118481501443941
100
AcDbArc
 50
295.3740086781804
 51
64.62599132180586
  0
ARC
  5
1F2
102
{ACAD_REACTORS
330
260
330
261
102
}
330
71
100
AcDbEntity
  8
0
  6
Continuous
 62
     2
100
AcDbCircle
 10
-214.9794626874503
 20
-253.4243741291701
 30
0.0
 40
0.3157169230761563
100
AcDbArc
 50
90.18896704254587
 51
180.0
  0
ARC
  5
1F3
102
{ACAD_REACTORS
330
262
330
263
102
}
330
71
100
AcDbEntity
  8
0
  6
Continuous
 62
     2
100
AcDbCircle
 10
-193.769332474616
 20
-257.4949029630112
 30
0.0
 40
0.9545230068260935
100
AcDbArc
 50
90.0
 51
109.3371432194309
  0
ARC
  5
1F4
102
{ACAD_REACTORS
330
262
330
263
102
}
330
71
100
AcDbEntity
  8
0
  6
Continuous
 62
     2
100
AcDbCircle
 10
-193.5386452146383
 20
-257.2820194119673
 30
0.0
 40
0.9410597353348518
100
AcDbArc
 50
151.478526742367
 51
208.5214732576695
  0
ARC
  5
1F5
102
{ACAD_REACTORS
330
262
330
263
102
}
330
71
100
AcDbEntity
  8
0
  6
Continuous
 62
     2
100
AcDbCircle
 10
-193.7595624400166
 20
-257.1250988225959
 30
0.0
 40
0.9059297849852278
100
AcDbArc
 50
246.6277221118168
 51
288.4480761180828
  0
ARC
  5
1F6
102
{ACAD_REACTORS
330
262
330
263
102
}
330
71
100
AcDbEntity
  8
0
  6
Continuous
 62
     2
100
AcDbCircle
 10
-194.1777301736785
 20
-255.8715530465593
 30
0.0
 40
2.227384008972665
100
AcDbArc
 50
288.4480761181342
 51
301.9309089499403
  0
ARC
  5
1F7
102
{ACAD_REACTORS
330
262
330
263
102
}
330
71
100
AcDbEntity
  8
0
  6
Continuous
 62
     2
100
AcDbCircle
 10
-194.3356030487713
 20
-253.969338466711
 30
0.0
 40
4.852596863498711
100
AcDbArc
 50
275.1581447696365
 51
285.9799912583384
  0
ARC
  5
1F8
102
{ACAD_REACTORS
330
262
330
263
102
}
330
71
100
AcDbEntity
  8
0
  6
Continuous
 62
     2
100
AcDbCircle
 10
-194.0467469540355
 20
-257.1692290499325
 30
0.0
 40
1.63969512394045
100
AcDbArc
 50
195.0618917771053
 51
275.1581447696772
  0
ARC
  5
1F9
102
{ACAD_REACTORS
330
25A
330
25B
102
}
330
71
100
AcDbEntity
  8
0
  6
Continuous
 62
     2
100
AcDbCircle
 10
-209.7749602657266
 20
-253.4512898152208
 30
0.0
 40
1.055365641333708
100
AcDbArc
 50
270.0
 51
90.0
  0
ARC
  5
1FA
102
{ACAD_REACTORS
330
260
330
261
102
}
330
71
100
AcDbEntity
  8
0
  6
Continuous
 62
     2
100
AcDbCircle
 10
-217.555011373982
 20
-257.780651695239
 30
0.0
 40
0.3157169230756836
100
AcDbArc
 50
180.0
 51
270.0
  0
ARC
  5
1FB
102
{ACAD_REACTORS
330
260
330
261
102
}
330
71
100
AcDbEntity
  8
0
  6
Continuous
 62
     2
100
AcDbCircle
 10
-216.0791781129724
 20
-253.4241966525219
 30
0.0
 40
0.315716923076593
100
AcDbArc
 50
0.0
 51
90.0
  0
ARC
  5
1FC
102
{ACAD_REACTORS
330
260
330
261
102
}
330
71
100
AcDbEntity
  8
0
  6
Continuous
 62
     2
100
AcDbCircle
 10
-216.0791781129724
 20
-254.0282212715825
 30
0.0
 40
0.3157169230760431
100
AcDbArc
 50
295.1944106485464
 51
0.0
  0
ARC
  5
1FD
102
{ACAD_REACTORS
330
260
330
261
102
}
330
71
100
AcDbEntity
  8
0
  6
Continuous
 62
     2
100
AcDbCircle
 10
-216.0791781129724
 20
-257.780651695239
 30
0.0
 40
0.3157169230768204
100
AcDbArc
 50
270.0
 51
0.0
  0
ARC
  5
1FE
102
{ACAD_REACTORS
330
260
330
261
102
}
330
71
100
AcDbEntity
  8
0
  6
Continuous
 62
     2
100
AcDbCircle
 10
-218.1489060507285
 20
-252.8201687892891
 30
0.0
 40
0.4242446153837989
100
AcDbArc
 50
90.0
 51
180.0
  0
ARC
  5
1FF
102
{ACAD_REACTORS
330
260
330
261
102
}
330
71
100
AcDbEntity
  8
0
  6
Continuous
 62
     2
100
AcDbCircle
 10
-212.6755939600117
 20
-252.8201687892891
 30
0.0
 40
0.4242446153838841
100
AcDbArc
 50
0.0
 51
90.0
  0
ARC
  5
200
102
{ACAD_REACTORS
330
260
330
261
102
}
330
71
100
AcDbEntity
  8
0
  6
Continuous
 62
     2
100
AcDbCircle
 10
-212.6755939600117
 20
-258.3846795584893
 30
0.0
 40
0.4242446153832589
100
AcDbArc
 50
270.0
 51
0.0
  0
ARC
  5
201
102
{ACAD_REACTORS
330
25E
330
25F
102
}
330
71
100
AcDbEntity
  8
0
  6
Continuous
 62
     2
100
AcDbCircle
 10
-203.4572100729202
 20
-253.922828935793
 30
0.0
 40
0.7717997786796724
100
AcDbArc
 50
321.8795802028404
 51
38.12041979715458
  0
ARC
  5
202
102
{ACAD_REACTORS
330
25E
330
25F
102
}
330
71
100
AcDbEntity
  8
0
  6
Continuous
 62
     2
100
AcDbCircle
 10
-203.257470036574
 20
-254.0795601139135
 30
0.0
 40
0.5179085730134372
100
AcDbArc
 50
218.1204197971511
 51
321.8795802028566
  0
ARC
  5
203
102
{ACAD_REACTORS
330
25C
330
25D
102
}
330
71
100
AcDbEntity
  8
0
  6
Continuous
 62
     2
100
AcDbCircle
 10
-206.9374776255342
 20
-257.2820194119673
 30
0.0
 40
1.458034083652078
100
AcDbArc
 50
297.5481481756995
 51
62.45185182429739
  0
ARC
  5
204
102
{ACAD_REACTORS
330
25C
330
25D
102
}
330
71
100
AcDbEntity
  8
0
  6
Continuous
 62
     2
100
AcDbCircle
 10
-207.4993574092008
 20
-257.2820194119673
 30
0.0
 40
1.458034083651415
100
AcDbArc
 50
117.548148175664
 51
242.4518518243391
  0
ARC
  5
205
102
{ACAD_REACTORS
330
25C
330
25D
102
}
330
71
100
AcDbEntity
  8
0
  6
Continuous
 62
     2
100
AcDbCircle
 10
-207.2184175173675
 20
-257.8205944222701
 30
0.0
 40
2.065479772208492
100
AcDbArc
 50
62.45185182430527
 51
117.5481481756675
  0
ARC
  5
206
102
{ACAD_REACTORS
330
25C
330
25D
102
}
330
71
100
AcDbEntity
  8
0
  6
Continuous
 62
     2
100
AcDbCircle
 10
-207.2184175173675
 20
-256.7434444016641
 30
0.0
 40
2.065479772208534
100
AcDbArc
 50
242.4518518243405
 51
297.5481481756867
  0
ARC
  5
207
102
{ACAD_REACTORS
330
25E
330
25F
102
}
330
71
100
AcDbEntity
  8
0
  6
Continuous
 62
     2
100
AcDbCircle
 10
-203.0577300002277
 20
-253.922828935793
 30
0.0
 40
0.7717997786796198
100
AcDbArc
 50
141.8795802028454
 51
218.1204197971596
  0
ARC
  5
208
102
{ACAD_REACTORS
330
25E
330
25F
102
}
330
71
100
AcDbEntity
  8
0
  6
Continuous
 62
     2
100
AcDbCircle
 10
-203.257470036574
 20
-253.7660977576726
 30
0.0
 40
0.5179085730135266
100
AcDbArc
 50
38.12041979714334
 51
141.8795802028489
  0
ARC
  5
209
102
{ACAD_REACTORS
330
260
330
261
102
}
330
71
100
AcDbEntity
  8
0
  6
Continuous
 62
     2
100
AcDbCircle
 10
-218.1489060507285
 20
-258.3846795584893
 30
0.0
 40
0.4242446153828041
100
AcDbArc
 50
180.0
 51
270.0
  0
ARC
  5
20A
102
{ACAD_REACTORS
330
260
330
261
102
}
330
71
100
AcDbEntity
  8
0
  6
Continuous
 62
     2
100
AcDbCircle
 10
-216.0791781129724
 20
-256.2498807637074
 30
0.0
 40
0.315716923076593
100
AcDbArc
 50
0.0
 51
64.80558935145369
  0
ARC
  5
20B
102
{ACAD_REACTORS
330
260
330
261
102
}
330
71
100
AcDbEntity
  8
0
  6
Continuous
 62
     2
100
AcDbCircle
 10
-215.5565936653974
 20
-255.1390510176447
 30
0.0
 40
0.9118975235576917
100
AcDbArc
 50
115.194410648526
 51
244.8055893514869
  0
ARC
  5
20C
102
{ACAD_REACTORS
330
260
330
261
102
}
330
71
100
AcDbEntity
  8
0
  6
Continuous
 62
     2
100
AcDbCircle
 10
-217.555011373982
 20
-253.4241966525219
 30
0.0
 40
0.3157169230761099
100
AcDbArc
 50
90.0
 51
180.0
  0
ARC
  5
20D
102
{ACAD_REACTORS
330
25A
330
25B
102
}
330
71
100
AcDbEntity
  8
0
  6
Continuous
 62
     2
100
AcDbCircle
 10
-210.216432791965
 20
-253.4118938439983
 30
0.0
 40
0.3528638246711751
100
AcDbArc
 50
270.0
 51
90.0
  0
ARC
  5
20E
102
{ACAD_REACTORS
330
25E
330
25F
102
}
330
71
100
AcDbEntity
  8
0
  6
Continuous
 62
     2
100
AcDbCircle
 10
-203.4737420467392
 20
-253.922828935793
 30
0.0
 40
1.526904761905797
100
AcDbArc
 50
90.0
 51
270.0
  0
ARC
  5
20F
102
{ACAD_REACTORS
330
262
330
263
102
}
330
71
100
AcDbEntity
  8
0
  6
Continuous
 62
     2
100
AcDbCircle
 10
-194.0467469540355
 20
-257.3948097740023
 30
0.0
 40
1.639695123940271
100
AcDbArc
 50
90.0
 51
164.9381082228966
  0
ARC
  5
210
102
{ACAD_REACTORS
330
262
330
263
102
}
330
71
100
AcDbEntity
  8
0
  6
Continuous
 62
     2
100
AcDbCircle
 10
-194.4658747974971
 20
-257.2820194119673
 30
0.0
 40
1.205656168392973
100
AcDbArc
 50
164.938108222908
 51
195.0618917770998
  0
ARC
  5
211
102
{ACAD_REACTORS
330
262
330
263
102
}
330
71
100
AcDbEntity
  8
0
  6
Continuous
 62
     2
100
AcDbCircle
 10
-193.9160024727197
 20
-257.4870908413059
 30
0.0
 40
0.5115800601959674
100
AcDbArc
 50
208.5214732576754
 51
246.6277221118399
  0
ARC
  5
212
102
{ACAD_REACTORS
330
262
330
263
102
}
330
71
100
AcDbEntity
  8
0
  6
Continuous
 62
     2
100
AcDbCircle
 10
-193.9160024727197
 20
-257.0769479826283
 30
0.0
 40
0.511580060194468
100
AcDbArc
 50
109.3371432194832
 51
151.4785267424309
  0
ARC
  5
213
102
{ACAD_REACTORS
330
260
330
261
102
}
330
71
100
AcDbEntity
  8
0
  6
Continuous
 62
     2
100
AcDbCircle
 10
-214.9794626874503
 20
-256.8300440243081
 30
0.0
 40
0.315716923076792
100
AcDbArc
 50
180.0
 51
269.8110329574542
  0
ARC
  5
214
102
{ACAD_REACTORS
330
260
330
261
102
}
330
71
100
AcDbEntity
  8
0
  6
Continuous
 62
     2
100
AcDbCircle
 10
-214.9738465521403
 20
-255.1272090767392
 30
0.0
 40
2.018561131933237
100
AcDbArc
 50
269.8110329575858
 51
90.18896704241413
  0
ARC
  5
215
102
{ACAD_REACTORS
330
260
330
261
102
}
330
71
100
AcDbEntity
  8
0
  6
Continuous
 62
     2
100
AcDbCircle
 10
-214.9794626874503
 20
-254.0299094176768
 30
0.0
 40
0.315716923076792
100
AcDbArc
 50
180.0
 51
244.6259913216548
  0
ARC
  5
216
102
{ACAD_REACTORS
330
260
330
261
102
}
330
71
100
AcDbEntity
  8
0
  6
Continuous
 62
     2
100
AcDbCircle
 10
-214.9794626874503
 20
-256.2481926176131
 30
0.0
 40
0.3157169230765842
100
AcDbArc
 50
115.3740086783474
 51
180.0
  0
ARC
  5
217
102
{ACAD_REACTORS
330
264
330
265
102
}
330
71
100
AcDbEntity
  8
0
  6
Continuous
 62
     2
100
AcDbCircle
 10
-210.1494484332884
 20
-257.3948097740023
 30
0.0
 40
1.639695123940478
100
AcDbArc
 50
84.84185523036227
 51
164.9381082228886
  0
ARC
  5
218
102
{ACAD_REACTORS
330
264
330
265
102
}
330
71
100
AcDbEntity
  8
0
  6
Continuous
 62
     2
100
AcDbCircle
 10
-210.5685762767512
 20
-257.2820194119673
 30
0.0
 40
1.205656168390942
100
AcDbArc
 50
164.938108222882
 51
195.0618917770945
  0
ARC
  5
219
102
{ACAD_REACTORS
330
264
330
265
102
}
330
71
100
AcDbEntity
  8
0
  6
Continuous
 62
     2
100
AcDbCircle
 10
-210.1494484332884
 20
-257.1692290499325
 30
0.0
 40
1.639695123939422
100
AcDbArc
 50
195.0618917770903
 51
275.1581447696393
  0
ARC
  5
21A
102
{ACAD_REACTORS
330
264
330
265
102
}
330
71
100
AcDbEntity
  8
0
  6
Continuous
 62
     2
100
AcDbCircle
 10
-210.4383045280243
 20
-253.969338466711
 30
0.0
 40
4.85259686349811
100
AcDbArc
 50
275.158144769625
 51
285.9799912583529
  0
ARC
  5
21B
102
{ACAD_REACTORS
330
264
330
265
102
}
330
71
100
AcDbEntity
  8
0
  6
Continuous
 62
     2
100
AcDbCircle
 10
-209.6413466938923
 20
-257.2820194119673
 30
0.0
 40
0.9410597353332545
100
AcDbArc
 50
151.4785267422669
 51
208.5214732577118
  0
ARC
  5
21C
102
{ACAD_REACTORS
330
264
330
265
102
}
330
71
100
AcDbEntity
  8
0
  6
Continuous
 62
     2
100
AcDbCircle
 10
-210.0187039519726
 20
-257.0769479826283
 30
0.0
 40
0.5115800601948108
100
AcDbArc
 50
113.3722778882058
 51
151.4785267423044
  0
ARC
  5
21D
102
{ACAD_REACTORS
330
264
330
265
102
}
330
71
100
AcDbEntity
  8
0
  6
Continuous
 62
     2
100
AcDbCircle
 10
-210.2804316529314
 20
-258.6924857773755
 30
0.0
 40
2.227384008973517
100
AcDbArc
 50
58.06909105004049
 51
71.55192388186583
  0
ARC
  5
21E
102
{ACAD_REACTORS
330
25C
330
25D
102
}
330
71
100
AcDbEntity
  8
0
  6
Continuous
 62
     2
100
AcDbCircle
 10
-207.2184175173675
 20
-257.1252882338469
 30
0.0
 40
0.5179085730132998
100
AcDbArc
 50
38.12041979714704
 51
141.8795802028588
  0
ARC
  5
21F
102
{ACAD_REACTORS
330
25C
330
25D
102
}
330
71
100
AcDbEntity
  8
0
  6
Continuous
 62
     2
100
AcDbCircle
 10
-207.0186774810214
 20
-257.2820194119673
 30
0.0
 40
0.7717997786794106
100
AcDbArc
 50
141.8795802028413
 51
218.1204197971753
  0
ARC
  5
220
102
{ACAD_REACTORS
330
25C
330
25D
102
}
330
71
100
AcDbEntity
  8
0
  6
Continuous
 62
     2
100
AcDbCircle
 10
-207.2184175173675
 20
-257.4387505900874
 30
0.0
 40
0.5179085730137529
100
AcDbArc
 50
218.1204197971956
 51
321.8795802027985
  0
ARC
  5
221
102
{ACAD_REACTORS
330
25C
330
25D
102
}
330
71
100
AcDbEntity
  8
0
  6
Continuous
 62
     2
100
AcDbCircle
 10
-207.4181575537139
 20
-257.2820194119673
 30
0.0
 40
0.7717997786797649
100
AcDbArc
 50
321.8795802028351
 51
38.12041979714831
  0
CIRCLE
  5
222
330
71
100
AcDbEntity
  8
1
  6
Continuous
 62
     2
100
AcDbCircle
 10
-210.0731506661113
 20
-244.977424173889
 30
0.0
 40
2.5
  0
CIRCLE
  5
223
330
71
100
AcDbEntity
  8
1
  6
Continuous
 62
     2
100
AcDbCircle
 10
-210.0731506661113
 20
-244.977424173889
 30
0.0
 40
1.249999999999915
  0
CIRCLE
  5
224
102
{ACAD_REACTORS
330
260
330
261
102
}
330
71
100
AcDbEntity
  8
0
  6
Continuous
 62
     2
100
AcDbCircle
 10
-215.529320400211
 20
-255.1390510176447
 30
0.0
 40
0.470978932778479
  0
MTEXT
  5
225
330
71
100
AcDbEntity
  8
1
 62
     3
100
AcDbMText
 10
-380.2599332398521
 20
-79.31111601859016
 30
0.0
 40
1.8
 41
0.0
 71
     7
 72
     1
  3
Weitergabe sowie Vervielf\U+00e4ltigung dieses Dokuments, Verwertung und \PMitteilung seines Inhalts sind verboten, soweit nicht ausdr\U+00fccklich gestattet. \PZuwiderhandlungen verpflichten zu Schadenersatz. Alle Rechte f\U+00fcr den Fall\Pder Pat
  1
ent-, Gebrauchsmuster- oder Designeintragung vorbehalten.
  7
CONVERTER_11
 73
     1
 44
0.99639855942377
  0
MTEXT
  5
226
330
71
100
AcDbEntity
  8
1
 62
     3
100
AcDbMText
 10
-197.406823401064
 20
-79.31111601859016
 30
0.0
 40
1.8
 41
0.0
 71
     7
 72
     1
  3
Transfer or duplication of this document as well as the utilisation or\Pcommunication of its content are not permitted unless express consent\Pis granted. Violations give rise to claims for damages. All rights reserved\Pin case of patent, utility mo
  1
del or design patent registrations.
  7
CONVERTER_11
 73
     1
 44
0.99639855942377
  0
TEXT
  5
227
330
71
100
AcDbEntity
  8
1
 62
     2
100
AcDbText
 10
-203.6098055526741
 20
-264.8614413888806
 30
0.0
 40
1.8
  1
of
 41
0.9
  7
CONVERTER_11
100
AcDbText
  0
TEXT
  5
228
330
71
100
AcDbEntity
  8
1
 62
     2
100
AcDbText
 10
-221.8098055526739
 20
-264.8614413888806
 30
0.0
 40
1.8
  1
page
 41
0.9
  7
CONVERTER_11
100
AcDbText
  0
TEXT
  5
229
330
71
100
AcDbEntity
  8
1
 62
     2
100
AcDbText
 10
-213.1635405823319
 20
-264.901672827691
 30
0.0
 40
1.8
  1
1
 41
0.9
  7
CONVERTER_11
100
AcDbText
  0
TEXT
  5
22A
330
71
100
AcDbEntity
  8
1
 62
     2
100
AcDbText
 10
-198.3744967428604
 20
-264.8524241738891
 30
0.0
 40
1.8
  1
1
 41
0.9
  7
CONVERTER_11
100
AcDbText
  0
MTEXT
  5
22C
330
71
100
AcDbEntity
  8
1
 62
     7
100
AcDbMText
 10
-139.8374032892984
 20
-262.8524241738887
 30
0.0
 40
3.0
 41
0.0
 71
     5
 72
     1
  1
WP-SC BRASS 21
  7
CONVERTER_12
 73
     1
 44
1.20048019207683
  0
MTEXT
  5
22D
330
71
100
AcDbEntity
  8
1
 62
     2
100
AcDbMText
 10
-185.409805552674
 20
-258.602424173889
 30
0.0
 40
1.8
 41
0.0
 71
     1
 72
     1
  1
description
  7
CONVERTER_11
 73
     1
 44
1.20048019207683
  0
MTEXT
  5
22E
330
71
100
AcDbEntity
  8
1
 62
     3
100
AcDbMText
 10
-196.609805552674
 20
-244.977424173889
 30
0.0
 40
2.5
 41
0.0
 71
     5
 72
     1
  1
DIN A4
  7
CONVERTER_11
 73
     1
 44
1.20048019207683
  0
MTEXT
  5
22F
330
71
100
AcDbEntity
  8
1
 62
     7
100
AcDbMText
 10
-382.765001025923
 20
-243.602424173889
 30
0.0
 40
3.5
 41
0.0
 71
     5
 72
     1
  1
D
  7
CONVERTER_11
 73
     1
 44
1.20048019207683
  0
MTEXT
  5
230
330
71
100
AcDbEntity
  8
1
 62
     7
100
AcDbMText
 10
-382.765001025923
 20
-191.102424173889
 30
0.0
 40
3.5
 41
0.0
 71
     5
 72
     1
  1
C
  7
CONVERTER_11
 73
     1
 44
1.20048019207683
  0
MTEXT
  5
231
330
71
100
AcDbEntity
  8
1
 62
     7
100
AcDbMText
 10
-382.765001025923
 20
-141.102424173889
 30
0.0
 40
3.5
 41
0.0
 71
     5
 72
     1
  1
B
  7
CONVERTER_11
 73
     1
 44
1.20048019207683
  0
MTEXT
  5
232
330
71
100
AcDbEntity
  8
1
 62
     7
100
AcDbMText
 10
-382.765001025923
 20
-88.60242417388895
 30
0.0
 40
3.5
 41
0.0
 71
     5
 72
     1
  1
A
  7
CONVERTER_11
 73
     1
 44
1.20048019207683
  0
MTEXT
  5
233
330
71
100
AcDbEntity
  8
1
 62
     7
100
AcDbMText
 10
-112.5150010259247
 20
-268.6024241738891
 30
0.0
 40
3.5
 41
0.0
 71
     5
 72
     1
  1
6
  7
CONVERTER_11
 73
     1
 44
1.20048019207683
  0
MTEXT
  5
234
330
71
100
AcDbEntity
  8
1
 62
     7
100
AcDbMText
 10
-161.7650010259239
 20
-268.6024241738891
 30
0.0
 40
3.5
 41
0.0
 71
     5
 72
     1
  1
5
  7
CONVERTER_11
 73
     1
 44
1.20048019207683
  0
MTEXT
  5
235
330
71
100
AcDbEntity
  8
1
 62
     7
100
AcDbMText
 10
-211.765001025924
 20
-268.6024241738891
 30
0.0
 40
3.5
 41
0.0
 71
     5
 72
     1
  1
4
  7
CONVERTER_11
 73
     1
 44
1.20048019207683
  0
MTEXT
  5
236
330
71
100
AcDbEntity
  8
1
 62
     7
100
AcDbMText
 10
-261.7650010259239
 20
-268.6024241738891
 30
0.0
 40
3.5
 41
0.0
 71
     5
 72
     1
  1
3
  7
CONVERTER_11
 73
     1
 44
1.20048019207683
  0
MTEXT
  5
237
330
71
100
AcDbEntity
  8
1
 62
     7
100
AcDbMText
 10
-311.7650010259239
 20
-268.6024241738891
 30
0.0
 40
3.5
 41
0.0
 71
     5
 72
     1
  1
2
  7
CONVERTER_11
 73
     1
 44
1.20048019207683
  0
MTEXT
  5
238
330
71
100
AcDbEntity
  8
1
 62
     7
100
AcDbMText
 10
-361.0150010259235
 20
-268.6024241738891
 30
0.0
 40
3.5
 41
0.0
 71
     5
 72
     1
  1
1
  7
CONVERTER_11
 73
     1
 44
1.20048019207683
  0
MTEXT
  5
239
330
71
100
AcDbEntity
  8
1
 62
     7
100
AcDbMText
 10
-90.7650010259249
 20
-243.602424173889
 30
0.0
 40
3.5
 41
0.0
 71
     5
 72
     1
  1
D
  7
CONVERTER_11
 73
     1
 44
1.20048019207683
  0
MTEXT
  5
23A
330
71
100
AcDbEntity
  8
1
 62
     7
100
AcDbMText
 10
-90.7650010259249
 20
-141.102424173887
 30
0.0
 40
3.5
 41
0.0
 71
     5
 72
     1
  1
B
  7
CONVERTER_11
 73
     1
 44
1.20048019207683
  0
MTEXT
  5
23B
330
71
100
AcDbEntity
  8
1
 62
     7
100
AcDbMText
 10
-90.7650010259249
 20
-88.60242417388895
 30
0.0
 40
3.5
 41
0.0
 71
     5
 72
     1
  1
A
  7
CONVERTER_11
 73
     1
 44
1.20048019207683
  0
MTEXT
  5
23C
330
71
100
AcDbEntity
  8
1
 62
     7
100
AcDbMText
 10
-90.7650010259249
 20
-191.102424173887
 30
0.0
 40
3.5
 41
0.0
 71
     5
 72
     1
  1
C
  7
CONVERTER_11
 73
     1
 44
1.20048019207683
  0
MTEXT
  5
23D
330
71
100
AcDbEntity
  8
1
 62
     2
100
AcDbMText
 10
-257.2478202777214
 20
-253.352424173889
 30
0.0
 40
2.0
 41
0.0
 71
     5
 72
     1
  1
General Information\P- Simplified representation\P- Document excluded from change process\P- Linear dimensions [mm]
  7
CONVERTER_11
 73
     1
 44
1.20048019207683
  0
TEXT
  5
23E
330
71
100
AcDbEntity
  8
1
 62
     7
100
AcDbText
 10
-184.9098055526742
 20
-256.3024241738891
 30
0.0
 40
2.5
  1
3241068
 41
0.81
  7
CONVERTER_12
100
AcDbText
  0
MTEXT
  5
23F
330
71
100
AcDbEntity
  8
1
 62
     2
100
AcDbMText
 10
-185.3098055526739
 20
-250.102424173889
 30
0.0
 40
1.8
 41
0.0
 71
     1
 72
     1
  1
ident.-No.
  7
CONVERTER_11
 73
     1
 44
1.20048019207683
  0
MTEXT
  5
240
330
71
100
AcDbEntity
  8
1
 62
     2
100
AcDbMText
 10
-101.0834093076012
 20
-241.602424173889
 30
0.0
 40
1.8
 41
0.0
 71
     1
 72
     1
  1
scale
  7
CONVERTER_11
 73
     1
 44
1.20048019207683
  0
MTEXT
  5
242
330
71
100
AcDbEntity
  8
1
 62
     3
100
AcDbMText
 10
-97.72420516676159
 20
-247.8024241738889
 30
0.0
 40
2.5
 41
0.0
 71
     8
 72
     1
  1
2:1
  7
CONVERTER_13
 73
     1
 44
1.32052821128451
  0
TEXT
  5
243
330
71
100
AcDbEntity
  8
1
 62
     7
100
AcDbText
 10
-185.3098055526739
 20
-247.8024241738891
 30
0.0
 40
2.5
  1
01097297
 41
0.81
  7
CONVERTER_12
100
AcDbText
  0
MTEXT
  5
245
330
71
100
AcDbEntity
  8
1
 62
     2
100
AcDbMText
 10
-185.3098055526739
 20
-241.602424173889
 30
0.0
 40
1.8
 41
0.0
 71
     1
 72
     1
  1
document-No. / RI
  7
CONVERTER_14
 73
     1
 44
1.32052821128451
  0
TEXT
  5
246
330
71
100
AcDbEntity
  8
1
 62
     3
100
AcDbText
 10
-157.5098055526739
 20
-256.3024241738891
 30
0.0
 40
2.5
  1
 
 41
0.81
  7
CONVERTER_12
100
AcDbText
  0
MTEXT
  5
247
330
71
100
AcDbEntity
  8
1
 62
     2
100
AcDbMText
 10
-157.5098055526739
 20
-250.102424173889
 30
0.0
 40
1.8
 41
0.0
 71
     1
 72
     1
  1
document-type
  7
CONVERTER_11
 73
     1
 44
1.20048019207683
  0
MTEXT
  5
248
330
71
100
AcDbEntity
  8
1
 62
     2
100
AcDbMText
 10
-127.683409307601
 20
-241.602424173889
 30
0.0
 40
1.8
 41
0.0
 71
     1
 72
     1
  1
date
  7
CONVERTER_11
 73
     1
 44
1.32052821128451
  0
TEXT
  5
249
330
71
100
AcDbEntity
  8
1
 62
     3
100
AcDbText
 10
-127.683409307601
 20
-247.8024241738891
 30
0.0
 40
2.5
  1
24.11.2017
 41
0.81
  7
CONVERTER_12
100
AcDbText
  0
TEXT
  5
24A
330
71
100
AcDbEntity
  8
1
 62
     7
100
AcDbText
 10
-165.2798933336181
 20
-247.8024241738891
 30
0.0
 40
2.5
  1
00
 41
0.81
  7
CONVERTER_12
100
AcDbText
  0
TEXT
  5
24B
330
71
100
AcDbEntity
  8
1
 62
     7
100
AcDbText
 10
-167.4362578306601
 20
-247.8024241738891
 30
0.0
 40
2.5
  1
/
 41
0.9
  7
CONVERTER_11
100
AcDbText
  0
HATCH
  5
24C
330
71
100
AcDbEntity
  8
1
  6
Continuous
 62
     2
100
AcDbHatch
 10
0.0
 20
0.0
 30
0.0
210
0.0
220
0.0
230
1.0
  2
_USER
 70
     0
 71
     1
 91
        1
 92
        1
 93
       12
 72
     1
 10
-205.1423048397128
 20
-255.4497336976984
 11
-206.3350975418792
 21
-255.4497336976984
 72
     1
 10
-206.3350975418792
 20
-255.4497336976984
 11
-206.3350975418792
 21
-254.3154615888545
 72
     1
 10
-206.3350975418792
 20
-254.3154615888545
 11
-207.3847551197867
 21
-254.3154615888545
 72
     1
 10
-207.3847551197867
 20
-254.3154615888545
 11
-207.3847551197867
 21
-255.4497336976984
 72
     1
 10
-207.3847551197867
 20
-255.4497336976984
 11
-208.5775478219533
 21
-255.4497336976984
 72
     1
 10
-208.5775478219533
 20
-255.4497336976984
 11
-208.5775478219533
 21
-252.3959241738872
 72
     1
 10
-208.5775478219533
 20
-252.3959241738872
 11
-207.3847551197867
 21
-252.3959241738872
 72
     1
 10
-207.3847551197867
 20
-252.3959241738872
 11
-207.3847551197867
 21
-253.4647575072218
 72
     1
 10
-207.3847551197867
 20
-253.4647575072218
 11
-206.3350975418792
 21
-253.4647575072218
 72
     1
 10
-206.3350975418792
 20
-253.4647575072218
 11
-206.3350975418792
 21
-252.3959241738872
 72
     1
 10
-206.3350975418792
 20
-252.3959241738872
 11
-205.1423048397128
 21
-252.3959241738872
 72
     1
 10
-205.1423048397128
 20
-252.3959241738872
 11
-205.1423048397128
 21
-255.4497336976984
 97
       12
330
1B9
330
1BA
330
1A4
330
1A3
330
1A2
330
1B6
330
1A1
330
1B7
330
1B8
330
1A0
330
19F
330
19E
 75
     1
 76
     0
 52
45.0
 41
0.1
 77
     0
 78
     1
 53
45.0
 43
0.0
 44
0.0
 45
-0.0707106781186548
 46
0.0707106781186548
 79
     0
 98
        1
 10
0.0
 20
0.0
  0
HATCH
  5
24D
330
71
100
AcDbEntity
  8
1
  6
Continuous
 62
     2
100
AcDbHatch
 10
0.0
 20
0.0
 30
0.0
210
0.0
220
0.0
230
1.0
  2
_USER
 70
     0
 71
     1
 91
        1
 92
        1
 93
       12
 72
     1
 10
-205.1423048397128
 20
-255.4497336976984
 11
-206.3350975418792
 21
-255.4497336976984
 72
     1
 10
-206.3350975418792
 20
-255.4497336976984
 11
-206.3350975418792
 21
-254.3154615888545
 72
     1
 10
-206.3350975418792
 20
-254.3154615888545
 11
-207.3847551197867
 21
-254.3154615888545
 72
     1
 10
-207.3847551197867
 20
-254.3154615888545
 11
-207.3847551197867
 21
-255.4497336976984
 72
     1
 10
-207.3847551197867
 20
-255.4497336976984
 11
-208.5775478219533
 21
-255.4497336976984
 72
     1
 10
-208.5775478219533
 20
-255.4497336976984
 11
-208.5775478219533
 21
-252.3959241738872
 72
     1
 10
-208.5775478219533
 20
-252.3959241738872
 11
-207.3847551197867
 21
-252.3959241738872
 72
     1
 10
-207.3847551197867
 20
-252.3959241738872
 11
-207.3847551197867
 21
-253.4647575072218
 72
     1
 10
-207.3847551197867
 20
-253.4647575072218
 11
-206.3350975418792
 21
-253.4647575072218
 72
     1
 10
-206.3350975418792
 20
-253.4647575072218
 11
-206.3350975418792
 21
-252.3959241738872
 72
     1
 10
-206.3350975418792
 20
-252.3959241738872
 11
-205.1423048397128
 21
-252.3959241738872
 72
     1
 10
-205.1423048397128
 20
-252.3959241738872
 11
-205.1423048397128
 21
-255.4497336976984
 97
       12
330
1B9
330
1BA
330
1A4
330
1A3
330
1A2
330
1B6
330
1A1
330
1B7
330
1B8
330
1A0
330
19F
330
19E
 75
     1
 76
     0
 52
45.0
 41
0.1
 77
     0
 78
     1
 53
45.0
 43
0.0
 44
0.0
 45
-0.0707106781186548
 46
0.0707106781186548
 79
     0
 98
        1
 10
0.0
 20
0.0
  0
HATCH
  5
24E
330
71
100
AcDbEntity
  8
1
  6
Continuous
 62
     2
100
AcDbHatch
 10
0.0
 20
0.0
 30
0.0
210
0.0
220
0.0
230
1.0
  2
_USER
 70
     0
 71
     1
 91
        1
 92
        1
 93
       10
 72
     1
 10
-202.9000054905245
 20
-257.0638901602666
 11
-204.1405099007774
 21
-255.7551146500616
 72
     1
 10
-204.1405099007774
 20
-255.7551146500616
 11
-205.333302602945
 21
-255.7551146500616
 72
     1
 10
-205.333302602945
 20
-255.7551146500616
 11
-205.333302602945
 21
-258.8089241738726
 72
     1
 10
-205.333302602945
 20
-258.8089241738726
 11
-204.1405099007774
 21
-258.8089241738726
 72
     1
 10
-204.1405099007774
 20
-258.8089241738726
 11
-204.1405099007774
 21
-257.500148663668
 72
     1
 10
-204.1405099007774
 20
-257.500148663668
 11
-202.9000054905245
 21
-258.8089241738726
 72
     1
 10
-202.9000054905245
 20
-258.8089241738726
 11
-201.7072127883581
 21
-258.8089241738726
 72
     1
 10
-201.7072127883581
 20
-258.8089241738726
 11
-201.7072127883581
 21
-255.7551146500616
 72
     1
 10
-201.7072127883581
 20
-255.7551146500616
 11
-202.9000054905245
 21
-255.7551146500616
 72
     1
 10
-202.9000054905245
 20
-255.7551146500616
 11
-202.9000054905245
 21
-257.0638901602666
 97
       10
330
1C7
330
197
330
196
330
199
330
1C2
330
1C3
330
198
330
1C4
330
1C5
330
1C6
 75
     1
 76
     0
 52
45.0
 41
0.1
 77
     0
 78
     1
 53
45.0
 43
0.0
 44
0.0
 45
-0.0707106781186548
 46
0.0707106781186548
 79
     0
 98
        1
 10
0.0
 20
0.0
  0
HATCH
  5
24F
330
71
100
AcDbEntity
  8
1
  6
Continuous
 62
     2
100
AcDbHatch
 10
0.0
 20
0.0
 30
0.0
210
0.0
220
0.0
230
1.0
  2
_USER
 70
     0
 71
     1
 91
        1
 92
        1
 93
       10
 72
     1
 10
-202.9000054905245
 20
-257.0638901602666
 11
-204.1405099007774
 21
-255.7551146500616
 72
     1
 10
-204.1405099007774
 20
-255.7551146500616
 11
-205.333302602945
 21
-255.7551146500616
 72
     1
 10
-205.333302602945
 20
-255.7551146500616
 11
-205.333302602945
 21
-258.8089241738726
 72
     1
 10
-205.333302602945
 20
-258.8089241738726
 11
-204.1405099007774
 21
-258.8089241738726
 72
     1
 10
-204.1405099007774
 20
-258.8089241738726
 11
-204.1405099007774
 21
-257.500148663668
 72
     1
 10
-204.1405099007774
 20
-257.500148663668
 11
-202.9000054905245
 21
-258.8089241738726
 72
     1
 10
-202.9000054905245
 20
-258.8089241738726
 11
-201.7072127883581
 21
-258.8089241738726
 72
     1
 10
-201.7072127883581
 20
-258.8089241738726
 11
-201.7072127883581
 21
-255.7551146500616
 72
     1
 10
-201.7072127883581
 20
-255.7551146500616
 11
-202.9000054905245
 21
-255.7551146500616
 72
     1
 10
-202.9000054905245
 20
-255.7551146500616
 11
-202.9000054905245
 21
-257.0638901602666
 97
       10
330
1C7
330
197
330
196
330
199
330
1C2
330
1C3
330
198
330
1C4
330
1C5
330
1C6
 75
     1
 76
     0
 52
45.0
 41
0.1
 77
     0
 78
     1
 53
45.0
 43
0.0
 44
0.0
 45
-0.0707106781186548
 46
0.0707106781186548
 79
     0
 98
        1
 10
0.0
 20
0.0
  0
HATCH
  5
250
330
71
100
AcDbEntity
  8
1
  6
Continuous
 62
     2
100
AcDbHatch
 10
0.0
 20
0.0
 30
0.0
210
0.0
220
0.0
230
1.0
  2
_USER
 70
     0
 71
     1
 91
        1
 92
        1
 93
       10
 72
     1
 10
-197.6515666701048
 20
-253.7046996840923
 11
-198.8920710803588
 21
-252.3959241738872
 72
     1
 10
-198.8920710803588
 20
-252.3959241738872
 11
-200.0848637825253
 21
-252.3959241738872
 72
     1
 10
-200.0848637825253
 20
-252.3959241738872
 11
-200.0848637825253
 21
-255.4497336976984
 72
     1
 10
-200.0848637825253
 20
-255.4497336976984
 11
-198.8920710803588
 21
-255.4497336976984
 72
     1
 10
-198.8920710803588
 20
-255.4497336976984
 11
-198.8920710803588
 21
-254.1409581874937
 72
     1
 10
-198.8920710803588
 20
-254.1409581874937
 11
-197.6515666701048
 21
-255.4497336976984
 72
     1
 10
-197.6515666701048
 20
-255.4497336976984
 11
-196.4587739679382
 21
-255.4497336976984
 72
     1
 10
-196.4587739679382
 20
-255.4497336976984
 11
-196.4587739679382
 21
-252.3959241738872
 72
     1
 10
-196.4587739679382
 20
-252.3959241738872
 11
-197.6515666701048
 21
-252.3959241738872
 72
     1
 10
-197.6515666701048
 20
-252.3959241738872
 11
-197.6515666701048
 21
-253.7046996840923
 97
       10
330
1CC
330
194
330
193
330
1CD
330
192
330
1C8
330
1C9
330
1CA
330
1CB
330
195
 75
     1
 76
     0
 52
45.0
 41
0.1
 77
     0
 78
     1
 53
45.0
 43
0.0
 44
0.0
 45
-0.0707106781186548
 46
0.0707106781186548
 79
     0
 98
        1
 10
0.0
 20
0.0
  0
HATCH
  5
251
330
71
100
AcDbEntity
  8
1
  6
Continuous
 62
     2
100
AcDbHatch
 10
0.0
 20
0.0
 30
0.0
210
0.0
220
0.0
230
1.0
  2
_USER
 70
     0
 71
     1
 91
        1
 92
        1
 93
       10
 72
     1
 10
-197.6515666701048
 20
-253.7046996840923
 11
-198.8920710803588
 21
-252.3959241738872
 72
     1
 10
-198.8920710803588
 20
-252.3959241738872
 11
-200.0848637825253
 21
-252.3959241738872
 72
     1
 10
-200.0848637825253
 20
-252.3959241738872
 11
-200.0848637825253
 21
-255.4497336976984
 72
     1
 10
-200.0848637825253
 20
-255.4497336976984
 11
-198.8920710803588
 21
-255.4497336976984
 72
     1
 10
-198.8920710803588
 20
-255.4497336976984
 11
-198.8920710803588
 21
-254.1409581874937
 72
     1
 10
-198.8920710803588
 20
-254.1409581874937
 11
-197.6515666701048
 21
-255.4497336976984
 72
     1
 10
-197.6515666701048
 20
-255.4497336976984
 11
-196.4587739679382
 21
-255.4497336976984
 72
     1
 10
-196.4587739679382
 20
-255.4497336976984
 11
-196.4587739679382
 21
-252.3959241738872
 72
     1
 10
-196.4587739679382
 20
-252.3959241738872
 11
-197.6515666701048
 21
-252.3959241738872
 72
     1
 10
-197.6515666701048
 20
-252.3959241738872
 11
-197.6515666701048
 21
-253.7046996840923
 97
       10
330
1CC
330
194
330
193
330
1CD
330
192
330
1C8
330
1C9
330
1CA
330
1CB
330
195
 75
     1
 76
     0
 52
45.0
 41
0.1
 77
     0
 78
     1
 53
45.0
 43
0.0
 44
0.0
 45
-0.0707106781186548
 46
0.0707106781186548
 79
     0
 98
        1
 10
0.0
 20
0.0
  0
HATCH
  5
252
330
71
100
AcDbEntity
  8
1
  6
Continuous
 62
     2
100
AcDbHatch
 10
0.0
 20
0.0
 30
0.0
210
0.0
220
0.0
230
1.0
  2
_USER
 70
     0
 71
     1
 91
        1
 92
        1
 93
        8
 72
     1
 10
-198.7490868869843
 20
-255.7551146500616
 11
-201.5640776640979
 21
-255.7551146500616
 72
     1
 10
-201.5640776640979
 20
-255.7551146500616
 11
-201.5640776640979
 21
-256.5403799561851
 72
     1
 10
-201.5640776640979
 20
-256.5403799561851
 11
-200.7529786266233
 21
-256.5403799561851
 72
     1
 10
-200.7529786266233
 20
-256.5403799561851
 11
-200.7529786266233
 21
-258.8089241738726
 72
     1
 10
-200.7529786266233
 20
-258.8089241738726
 11
-199.5601859244568
 21
-258.8089241738726
 72
     1
 10
-199.5601859244568
 20
-258.8089241738726
 11
-199.5601859244568
 21
-256.5403799561851
 72
     1
 10
-199.5601859244568
 20
-256.5403799561851
 11
-198.7490868869843
 21
-256.5403799561851
 72
     1
 10
-198.7490868869843
 20
-256.5403799561851
 11
-198.7490868869843
 21
-255.7551146500616
 97
        8
330
18E
330
1CE
330
18D
330
1CF
330
1D0
330
191
330
190
330
18F
 75
     1
 76
     0
 52
45.0
 41
0.1
 77
     0
 78
     1
 53
45.0
 43
0.0
 44
0.0
 45
-0.0707106781186548
 46
0.0707106781186548
 79
     0
 98
        1
 10
0.0
 20
0.0
  0
HATCH
  5
253
330
71
100
AcDbEntity
  8
1
  6
Continuous
 62
     2
100
AcDbHatch
 10
0.0
 20
0.0
 30
0.0
210
0.0
220
0.0
230
1.0
  2
_USER
 70
     0
 71
     1
 91
        1
 92
        1
 93
        8
 72
     1
 10
-198.7490868869843
 20
-255.7551146500616
 11
-201.5640776640979
 21
-255.7551146500616
 72
     1
 10
-201.5640776640979
 20
-255.7551146500616
 11
-201.5640776640979
 21
-256.5403799561851
 72
     1
 10
-201.5640776640979
 20
-256.5403799561851
 11
-200.7529786266233
 21
-256.5403799561851
 72
     1
 10
-200.7529786266233
 20
-256.5403799561851
 11
-200.7529786266233
 21
-258.8089241738726
 72
     1
 10
-200.7529786266233
 20
-258.8089241738726
 11
-199.5601859244568
 21
-258.8089241738726
 72
     1
 10
-199.5601859244568
 20
-258.8089241738726
 11
-199.5601859244568
 21
-256.5403799561851
 72
     1
 10
-199.5601859244568
 20
-256.5403799561851
 11
-198.7490868869843
 21
-256.5403799561851
 72
     1
 10
-198.7490868869843
 20
-256.5403799561851
 11
-198.7490868869843
 21
-255.7551146500616
 97
        8
330
18E
330
1CE
330
18D
330
1CF
330
1D0
330
191
330
190
330
18F
 75
     1
 76
     0
 52
45.0
 41
0.1
 77
     0
 78
     1
 53
45.0
 43
0.0
 44
0.0
 45
-0.0707106781186548
 46
0.0707106781186548
 79
     0
 98
        1
 10
0.0
 20
0.0
  0
HATCH
  5
254
330
71
100
AcDbEntity
  8
1
  6
Continuous
 62
     2
100
AcDbHatch
 10
0.0
 20
0.0
 30
0.0
210
0.0
220
0.0
230
1.0
  2
_USER
 70
     0
 71
     1
 91
        2
 92
        1
 93
        8
 72
     1
 10
-196.6106594310373
 20
-258.8089241738726
 11
-196.8221394845131
 21
-258.2679636296548
 72
     1
 10
-196.8221394845131
 20
-258.2679636296548
 11
-197.9545810611869
 21
-258.2679636296548
 72
     1
 10
-197.9545810611869
 20
-258.2679636296548
 11
-198.1660611146627
 21
-258.8089241738726
 72
     1
 10
-198.1660611146627
 20
-258.8089241738726
 11
-199.4065655249157
 21
-258.8089241738726
 72
     1
 10
-199.4065655249157
 20
-258.8089241738726
 11
-198.0086124779764
 21
-255.7551146500616
 72
     1
 10
-198.0086124779764
 20
-255.7551146500616
 11
-196.7681080677237
 21
-255.7551146500616
 72
     1
 10
-196.7681080677237
 20
-255.7551146500616
 11
-195.3701550207834
 21
-258.8089241738726
 72
     1
 10
-195.3701550207834
 20
-258.8089241738726
 11
-196.6106594310373
 21
-258.8089241738726
 97
        8
330
1D2
330
1D3
330
18A
330
1D4
330
189
330
18C
330
1D1
330
18B
 92
       16
 93
        3
 72
     1
 10
-197.6885255100419
 20
-257.5874003643481
 11
-197.3883602728495
 21
-256.8195853983615
 72
     1
 10
-197.3883602728495
 20
-256.8195853983615
 11
-197.0881950356594
 21
-257.5874003643481
 72
     1
 10
-197.0881950356594
 20
-257.5874003643481
 11
-197.6885255100419
 21
-257.5874003643481
 97
        3
330
188
330
1D6
330
1D5
 75
     1
 76
     0
 52
45.0
 41
0.1
 77
     0
 78
     1
 53
45.0
 43
0.0
 44
0.0
 45
-0.0707106781186548
 46
0.0707106781186548
 79
     0
 98
        1
 10
0.0
 20
0.0
  0
HATCH
  5
255
330
71
100
AcDbEntity
  8
1
  6
Continuous
 62
     2
100
AcDbHatch
 10
0.0
 20
0.0
 30
0.0
210
0.0
220
0.0
230
1.0
  2
_USER
 70
     0
 71
     1
 91
        2
 92
        1
 93
        8
 72
     1
 10
-196.6106594310373
 20
-258.8089241738726
 11
-196.8221394845131
 21
-258.2679636296548
 72
     1
 10
-196.8221394845131
 20
-258.2679636296548
 11
-197.9545810611869
 21
-258.2679636296548
 72
     1
 10
-197.9545810611869
 20
-258.2679636296548
 11
-198.1660611146627
 21
-258.8089241738726
 72
     1
 10
-198.1660611146627
 20
-258.8089241738726
 11
-199.4065655249157
 21
-258.8089241738726
 72
     1
 10
-199.4065655249157
 20
-258.8089241738726
 11
-198.0086124779764
 21
-255.7551146500616
 72
     1
 10
-198.0086124779764
 20
-255.7551146500616
 11
-196.7681080677237
 21
-255.7551146500616
 72
     1
 10
-196.7681080677237
 20
-255.7551146500616
 11
-195.3701550207834
 21
-258.8089241738726
 72
     1
 10
-195.3701550207834
 20
-258.8089241738726
 11
-196.6106594310373
 21
-258.8089241738726
 97
        8
330
1D2
330
1D3
330
18A
330
1D4
330
189
330
18C
330
1D1
330
18B
 92
       16
 93
        3
 72
     1
 10
-197.6885255100419
 20
-257.5874003643481
 11
-197.3883602728495
 21
-256.8195853983615
 72
     1
 10
-197.3883602728495
 20
-256.8195853983615
 11
-197.0881950356594
 21
-257.5874003643481
 72
     1
 10
-197.0881950356594
 20
-257.5874003643481
 11
-197.6885255100419
 21
-257.5874003643481
 97
        3
330
188
330
1D6
330
1D5
 75
     1
 76
     0
 52
45.0
 41
0.1
 77
     0
 78
     1
 53
45.0
 43
0.0
 44
0.0
 45
-0.0707106781186548
 46
0.0707106781186548
 79
     0
 98
        1
 10
0.0
 20
0.0
  0
HATCH
  5
256
330
71
100
AcDbEntity
  8
1
  6
Continuous
 62
     2
100
AcDbHatch
 10
0.0
 20
0.0
 30
0.0
210
0.0
220
0.0
230
1.0
  2
_USER
 70
     0
 71
     1
 91
        1
 92
        1
 93
        4
 72
     1
 10
-194.9797110172514
 20
-255.4497336976984
 11
-196.2202154275043
 21
-255.4497336976984
 72
     1
 10
-196.2202154275043
 20
-255.4497336976984
 11
-196.2202154275043
 21
-252.3959241738872
 72
     1
 10
-196.2202154275043
 20
-252.3959241738872
 11
-194.9797110172514
 21
-252.3959241738872
 72
     1
 10
-194.9797110172514
 20
-252.3959241738872
 11
-194.9797110172514
 21
-255.4497336976984
 97
        4
330
185
330
187
330
1D7
330
186
 75
     1
 76
     0
 52
45.0
 41
0.1
 77
     0
 78
     1
 53
45.0
 43
0.0
 44
0.0
 45
-0.0707106781186548
 46
0.0707106781186548
 79
     0
 98
        1
 10
0.0
 20
0.0
  0
HATCH
  5
257
330
71
100
AcDbEntity
  8
1
  6
Continuous
 62
     2
100
AcDbHatch
 10
0.0
 20
0.0
 30
0.0
210
0.0
220
0.0
230
1.0
  2
_USER
 70
     0
 71
     1
 91
        1
 92
        1
 93
        4
 72
     1
 10
-194.9797110172514
 20
-255.4497336976984
 11
-196.2202154275043
 21
-255.4497336976984
 72
     1
 10
-196.2202154275043
 20
-255.4497336976984
 11
-196.2202154275043
 21
-252.3959241738872
 72
     1
 10
-196.2202154275043
 20
-252.3959241738872
 11
-194.9797110172514
 21
-252.3959241738872
 72
     1
 10
-194.9797110172514
 20
-252.3959241738872
 11
-194.9797110172514
 21
-255.4497336976984
 97
        4
330
185
330
187
330
1D7
330
186
 75
     1
 76
     0
 52
45.0
 41
0.1
 77
     0
 78
     1
 53
45.0
 43
0.0
 44
0.0
 45
-0.0707106781186548
 46
0.0707106781186548
 79
     0
 98
        1
 10
0.0
 20
0.0
  0
HATCH
  5
258
330
71
100
AcDbEntity
  8
1
  6
Continuous
 62
     2
100
AcDbHatch
 10
0.0
 20
0.0
 30
0.0
210
0.0
220
0.0
230
1.0
  2
_USER
 70
     0
 71
     1
 91
        1
 92
        1
 93
       12
 72
     1
 10
-190.7572248515806
 20
-252.3959241738872
 11
-192.0597544823471
 21
-253.8688747039234
 72
     1
 10
-192.0597544823471
 20
-253.8688747039234
 11
-190.6618014354068
 21
-255.4497336976984
 72
     1
 10
-190.6618014354068
 20
-255.4497336976984
 11
-192.0645256531551
 21
-255.4497336976984
 72
     1
 10
-192.0645256531551
 20
-255.4497336976984
 11
-192.7611165912206
 21
-254.6620019124046
 72
     1
 10
-192.7611165912206
 20
-254.6620019124046
 11
-193.4577075292863
 21
-255.4497336976984
 72
     1
 10
-193.4577075292863
 20
-255.4497336976984
 11
-194.8604317470345
 21
-255.4497336976984
 72
     1
 10
-194.8604317470345
 20
-255.4497336976984
 11
-193.4624787000942
 21
-253.8688747039234
 72
     1
 10
-193.4624787000942
 20
-253.8688747039234
 11
-194.7650083308617
 21
-252.3959241738872
 72
     1
 10
-194.7650083308617
 20
-252.3959241738872
 11
-193.3622841131124
 21
-252.3959241738872
 72
     1
 10
-193.3622841131124
 20
-252.3959241738872
 11
-192.7611165912206
 21
-253.0757474954426
 72
     1
 10
-192.7611165912206
 20
-253.0757474954426
 11
-192.1599490693278
 21
-252.3959241738872
 72
     1
 10
-192.1599490693278
 20
-252.3959241738872
 11
-190.7572248515806
 21
-252.3959241738872
 97
       12
330
180
330
17F
330
17E
330
1DB
330
1DC
330
1D8
330
1D9
330
184
330
183
330
182
330
181
330
1DA
 75
     1
 76
     0
 52
45.0
 41
0.1
 77
     0
 78
     1
 53
45.0
 43
0.0
 44
0.0
 45
-0.0707106781186548
 46
0.0707106781186548
 79
     0
 98
        1
 10
0.0
 20
0.0
  0
HATCH
  5
259
330
71
100
AcDbEntity
  8
1
  6
Continuous
 62
     2
100
AcDbHatch
 10
0.0
 20
0.0
 30
0.0
210
0.0
220
0.0
230
1.0
  2
_USER
 70
     0
 71
     1
 91
        1
 92
        1
 93
       12
 72
     1
 10
-190.7572248515806
 20
-252.3959241738872
 11
-192.0597544823471
 21
-253.8688747039234
 72
     1
 10
-192.0597544823471
 20
-253.8688747039234
 11
-190.6618014354068
 21
-255.4497336976984
 72
     1
 10
-190.6618014354068
 20
-255.4497336976984
 11
-192.0645256531551
 21
-255.4497336976984
 72
     1
 10
-192.0645256531551
 20
-255.4497336976984
 11
-192.7611165912206
 21
-254.6620019124046
 72
     1
 10
-192.7611165912206
 20
-254.6620019124046
 11
-193.4577075292863
 21
-255.4497336976984
 72
     1
 10
-193.4577075292863
 20
-255.4497336976984
 11
-194.8604317470345
 21
-255.4497336976984
 72
     1
 10
-194.8604317470345
 20
-255.4497336976984
 11
-193.4624787000942
 21
-253.8688747039234
 72
     1
 10
-193.4624787000942
 20
-253.8688747039234
 11
-194.7650083308617
 21
-252.3959241738872
 72
     1
 10
-194.7650083308617
 20
-252.3959241738872
 11
-193.3622841131124
 21
-252.3959241738872
 72
     1
 10
-193.3622841131124
 20
-252.3959241738872
 11
-192.7611165912206
 21
-253.0757474954426
 72
     1
 10
-192.7611165912206
 20
-253.0757474954426
 11
-192.1599490693278
 21
-252.3959241738872
 72
     1
 10
-192.1599490693278
 20
-252.3959241738872
 11
-190.7572248515806
 21
-252.3959241738872
 97
       12
330
180
330
17F
330
17E
330
1DB
330
1DC
330
1D8
330
1D9
330
184
330
183
330
182
330
181
330
1DA
 75
     1
 76
     0
 52
45.0
 41
0.1
 77
     0
 78
     1
 53
45.0
 43
0.0
 44
0.0
 45
-0.0707106781186548
 46
0.0707106781186548
 79
     0
 98
        1
 10
0.0
 20
0.0
  0
HATCH
  5
25A
330
71
100
AcDbEntity
  8
1
  6
Continuous
 62
     2
100
AcDbHatch
 10
0.0
 20
0.0
 30
0.0
210
0.0
220
0.0
230
1.0
  2
_USER
 70
     0
 71
     1
 91
        2
 92
        1
 93
        6
 72
     1
 10
-209.7749602657266
 20
-254.5066554565545
 11
-210.5337278535069
 21
-254.5066554565545
 72
     1
 10
-210.5337278535069
 20
-254.5066554565545
 11
-210.5337278535069
 21
-255.4497336976984
 72
     1
 10
-210.5337278535069
 20
-255.4497336976984
 11
-211.774232263761
 21
-255.4497336976984
 72
     1
 10
-211.774232263761
 20
-255.4497336976984
 11
-211.774232263761
 21
-252.3959241738872
 72
     1
 10
-211.774232263761
 20
-252.3959241738872
 11
-209.7749602657266
 21
-252.3959241738872
 72
     2
 10
-209.7749602657266
 20
-253.4512898152208
 40
1.055365641333708
 50
270.0
 51
450.0
 73
     0
 97
        6
330
1A8
330
1A7
330
1B4
330
1B3
330
1A9
330
1F9
 92
       16
 93
        4
 72
     2
 10
-210.216432791965
 20
-253.4118938439983
 40
0.3528638246711751
 50
270.0
 51
450.0
 73
     1
 72
     1
 10
-210.216432791965
 20
-253.0590300193273
 11
-210.5337278535069
 21
-253.0590300193273
 72
     1
 10
-210.5337278535069
 20
-253.0590300193273
 11
-210.5337278535069
 21
-253.7647576686695
 72
     1
 10
-210.5337278535069
 20
-253.7647576686695
 11
-210.216432791965
 21
-253.7647576686695
 97
        4
330
20D
330
1A5
330
1B5
330
1A6
 75
     1
 76
     0
 52
45.0
 41
0.1
 77
     0
 78
     1
 53
45.0
 43
0.0
 44
0.0
 45
-0.0707106781186548
 46
0.0707106781186548
 79
     0
 98
        1
 10
0.0
 20
0.0
  0
HATCH
  5
25B
330
71
100
AcDbEntity
  8
1
  6
Continuous
 62
     2
100
AcDbHatch
 10
0.0
 20
0.0
 30
0.0
210
0.0
220
0.0
230
1.0
  2
_USER
 70
     0
 71
     1
 91
        2
 92
        1
 93
        6
 72
     1
 10
-209.7749602657266
 20
-254.5066554565545
 11
-210.5337278535069
 21
-254.5066554565545
 72
     1
 10
-210.5337278535069
 20
-254.5066554565545
 11
-210.5337278535069
 21
-255.4497336976984
 72
     1
 10
-210.5337278535069
 20
-255.4497336976984
 11
-211.774232263761
 21
-255.4497336976984
 72
     1
 10
-211.774232263761
 20
-255.4497336976984
 11
-211.774232263761
 21
-252.3959241738872
 72
     1
 10
-211.774232263761
 20
-252.3959241738872
 11
-209.7749602657266
 21
-252.3959241738872
 72
     2
 10
-209.7749602657266
 20
-253.4512898152208
 40
1.055365641333708
 50
270.0
 51
450.0
 73
     0
 97
        6
330
1A8
330
1A7
330
1B4
330
1B3
330
1A9
330
1F9
 92
       16
 93
        4
 72
     2
 10
-210.216432791965
 20
-253.4118938439983
 40
0.3528638246711751
 50
270.0
 51
450.0
 73
     1
 72
     1
 10
-210.216432791965
 20
-253.0590300193273
 11
-210.5337278535069
 21
-253.0590300193273
 72
     1
 10
-210.5337278535069
 20
-253.0590300193273
 11
-210.5337278535069
 21
-253.7647576686695
 72
     1
 10
-210.5337278535069
 20
-253.7647576686695
 11
-210.216432791965
 21
-253.7647576686695
 97
        4
330
20D
330
1A5
330
1B5
330
1A6
 75
     1
 76
     0
 52
45.0
 41
0.1
 77
     0
 78
     1
 53
45.0
 43
0.0
 44
0.0
 45
-0.0707106781186548
 46
0.0707106781186548
 79
     0
 98
        1
 10
0.0
 20
0.0
  0
HATCH
  5
25C
330
71
100
AcDbEntity
  8
1
  6
Continuous
 62
     2
100
AcDbHatch
 10
0.0
 20
0.0
 30
0.0
210
0.0
220
0.0
230
1.0
  2
_USER
 70
     0
 71
     1
 91
        2
 92
        1
 93
        4
 72
     2
 10
-207.2184175173675
 20
-257.8205944222701
 40
2.065479772208492
 50
62.45185182430527
 51
117.5481481756675
 73
     1
 72
     2
 10
-207.4993574092008
 20
-257.2820194119673
 40
1.458034083651415
 50
117.548148175664
 51
242.4518518243391
 73
     1
 72
     2
 10
-207.2184175173675
 20
-256.7434444016641
 40
2.065479772208534
 50
242.4518518243405
 51
297.5481481756867
 73
     1
 72
     2
 10
-206.9374776255342
 20
-257.2820194119673
 40
1.458034083652078
 50
297.5481481756995
 51
422.4518518242974
 73
     1
 97
        4
330
205
330
204
330
206
330
203
 92
       16
 93
        4
 72
     2
 10
-207.4181575537139
 20
-257.2820194119673
 40
0.7717997786797649
 50
321.8795802028351
 51
398.1204197971483
 73
     1
 72
     2
 10
-207.2184175173675
 20
-257.1252882338469
 40
0.5179085730132998
 50
38.12041979714704
 51
141.8795802028588
 73
     1
 72
     2
 10
-207.0186774810214
 20
-257.2820194119673
 40
0.7717997786794106
 50
141.8795802028413
 51
218.1204197971753
 73
     1
 72
     2
 10
-207.2184175173675
 20
-257.4387505900874
 40
0.5179085730137529
 50
218.1204197971956
 51
321.8795802027985
 73
     1
 97
        4
330
221
330
21E
330
21F
330
220
 75
     1
 76
     0
 52
45.0
 41
0.1
 77
     0
 78
     1
 53
45.0
 43
0.0
 44
0.0
 45
-0.0707106781186548
 46
0.0707106781186548
 79
     0
 98
        1
 10
0.0
 20
0.0
  0
HATCH
  5
25D
330
71
100
AcDbEntity
  8
1
  6
Continuous
 62
     2
100
AcDbHatch
 10
0.0
 20
0.0
 30
0.0
210
0.0
220
0.0
230
1.0
  2
_USER
 70
     0
 71
     1
 91
        2
 92
        1
 93
        4
 72
     2
 10
-207.2184175173675
 20
-257.8205944222701
 40
2.065479772208492
 50
62.45185182430527
 51
117.5481481756675
 73
     1
 72
     2
 10
-207.4993574092008
 20
-257.2820194119673
 40
1.458034083651415
 50
117.548148175664
 51
242.4518518243391
 73
     1
 72
     2
 10
-207.2184175173675
 20
-256.7434444016641
 40
2.065479772208534
 50
242.4518518243405
 51
297.5481481756867
 73
     1
 72
     2
 10
-206.9374776255342
 20
-257.2820194119673
 40
1.458034083652078
 50
297.5481481756995
 51
422.4518518242974
 73
     1
 97
        4
330
205
330
204
330
206
330
203
 92
       16
 93
        4
 72
     2
 10
-207.4181575537139
 20
-257.2820194119673
 40
0.7717997786797649
 50
321.8795802028351
 51
398.1204197971483
 73
     1
 72
     2
 10
-207.2184175173675
 20
-257.1252882338469
 40
0.5179085730132998
 50
38.12041979714704
 51
141.8795802028588
 73
     1
 72
     2
 10
-207.0186774810214
 20
-257.2820194119673
 40
0.7717997786794106
 50
141.8795802028413
 51
218.1204197971753
 73
     1
 72
     2
 10
-207.2184175173675
 20
-257.4387505900874
 40
0.5179085730137529
 50
218.1204197971956
 51
321.8795802027985
 73
     1
 97
        4
330
221
330
21E
330
21F
330
220
 75
     1
 76
     0
 52
45.0
 41
0.1
 77
     0
 78
     1
 53
45.0
 43
0.0
 44
0.0
 45
-0.0707106781186548
 46
0.0707106781186548
 79
     0
 98
        1
 10
0.0
 20
0.0
  0
HATCH
  5
25E
330
71
100
AcDbEntity
  8
1
  6
Continuous
 62
     2
100
AcDbHatch
 10
0.0
 20
0.0
 30
0.0
210
0.0
220
0.0
230
1.0
  2
_USER
 70
     0
 71
     1
 91
        2
 92
        1
 93
       12
 72
     1
 10
-200.3234223229582
 20
-253.0939377793301
 11
-201.6593501493859
 21
-253.0939377793301
 72
     1
 10
-201.6593501493859
 20
-253.0939377793301
 11
-201.6593501493859
 21
-253.5738221330718
 72
     1
 10
-201.6593501493859
 20
-253.5738221330718
 11
-200.3234223229582
 21
-253.5738221330718
 72
     1
 10
-200.3234223229582
 20
-253.5738221330718
 11
-200.3234223229582
 21
-254.2718357385141
 72
     1
 10
-200.3234223229582
 20
-254.2718357385141
 11
-201.6593501493859
 21
-254.2718357385141
 72
     1
 10
-201.6593501493859
 20
-254.2718357385141
 11
-201.6593501493859
 21
-254.7517200922559
 72
     1
 10
-201.6593501493859
 20
-254.7517200922559
 11
-200.3234223229582
 21
-254.7517200922559
 72
     1
 10
-200.3234223229582
 20
-254.7517200922559
 11
-200.3234223229582
 21
-255.4497336976984
 72
     1
 10
-200.3234223229582
 20
-255.4497336976984
 11
-203.4737420467392
 21
-255.4497336976984
 72
     2
 10
-203.4737420467392
 20
-253.922828935793
 40
1.526904761905797
 50
90.0
 51
270.0
 73
     0
 72
     1
 10
-203.4737420467392
 20
-252.3959241738872
 11
-200.3234223229582
 21
-252.3959241738872
 72
     1
 10
-200.3234223229582
 20
-252.3959241738872
 11
-200.3234223229582
 21
-253.0939377793301
 97
       12
330
1BC
330
20E
330
1BD
330
1BE
330
1BF
330
1C0
330
19D
330
19C
330
19B
330
19A
330
1C1
330
1BB
 92
       16
 93
        4
 72
     2
 10
-203.257470036574
 20
-253.7660977576726
 40
0.5179085730135266
 50
38.12041979714334
 51
141.8795802028489
 73
     1
 72
     2
 10
-203.0577300002277
 20
-253.922828935793
 40
0.7717997786796198
 50
141.8795802028454
 51
218.1204197971596
 73
     1
 72
     2
 10
-203.257470036574
 20
-254.0795601139135
 40
0.5179085730134372
 50
218.1204197971511
 51
321.8795802028566
 73
     1
 72
     2
 10
-203.4572100729202
 20
-253.922828935793
 40
0.7717997786796724
 50
321.8795802028404
 51
398.1204197971546
 73
     1
 97
        4
330
208
330
207
330
202
330
201
 75
     1
 76
     0
 52
45.0
 41
0.1
 77
     0
 78
     1
 53
45.0
 43
0.0
 44
0.0
 45
-0.0707106781186548
 46
0.0707106781186548
 79
     0
 98
        1
 10
0.0
 20
0.0
  0
HATCH
  5
25F
330
71
100
AcDbEntity
  8
1
  6
Continuous
 62
     2
100
AcDbHatch
 10
0.0
 20
0.0
 30
0.0
210
0.0
220
0.0
230
1.0
  2
_USER
 70
     0
 71
     1
 91
        2
 92
        1
 93
       12
 72
     1
 10
-200.3234223229582
 20
-253.0939377793301
 11
-201.6593501493859
 21
-253.0939377793301
 72
     1
 10
-201.6593501493859
 20
-253.0939377793301
 11
-201.6593501493859
 21
-253.5738221330718
 72
     1
 10
-201.6593501493859
 20
-253.5738221330718
 11
-200.3234223229582
 21
-253.5738221330718
 72
     1
 10
-200.3234223229582
 20
-253.5738221330718
 11
-200.3234223229582
 21
-254.2718357385141
 72
     1
 10
-200.3234223229582
 20
-254.2718357385141
 11
-201.6593501493859
 21
-254.2718357385141
 72
     1
 10
-201.6593501493859
 20
-254.2718357385141
 11
-201.6593501493859
 21
-254.7517200922559
 72
     1
 10
-201.6593501493859
 20
-254.7517200922559
 11
-200.3234223229582
 21
-254.7517200922559
 72
     1
 10
-200.3234223229582
 20
-254.7517200922559
 11
-200.3234223229582
 21
-255.4497336976984
 72
     1
 10
-200.3234223229582
 20
-255.4497336976984
 11
-203.4737420467392
 21
-255.4497336976984
 72
     2
 10
-203.4737420467392
 20
-253.922828935793
 40
1.526904761905797
 50
90.0
 51
270.0
 73
     0
 72
     1
 10
-203.4737420467392
 20
-252.3959241738872
 11
-200.3234223229582
 21
-252.3959241738872
 72
     1
 10
-200.3234223229582
 20
-252.3959241738872
 11
-200.3234223229582
 21
-253.0939377793301
 97
       12
330
1BC
330
20E
330
1BD
330
1BE
330
1BF
330
1C0
330
19D
330
19C
330
19B
330
19A
330
1C1
330
1BB
 92
       16
 93
        4
 72
     2
 10
-203.257470036574
 20
-253.7660977576726
 40
0.5179085730135266
 50
38.12041979714334
 51
141.8795802028489
 73
     1
 72
     2
 10
-203.0577300002277
 20
-253.922828935793
 40
0.7717997786796198
 50
141.8795802028454
 51
218.1204197971596
 73
     1
 72
     2
 10
-203.257470036574
 20
-254.0795601139135
 40
0.5179085730134372
 50
218.1204197971511
 51
321.8795802028566
 73
     1
 72
     2
 10
-203.4572100729202
 20
-253.922828935793
 40
0.7717997786796724
 50
321.8795802028404
 51
398.1204197971546
 73
     1
 97
        4
330
208
330
207
330
202
330
201
 75
     1
 76
     0
 52
45.0
 41
0.1
 77
     0
 78
     1
 53
45.0
 43
0.0
 44
0.0
 45
-0.0707106781186548
 46
0.0707106781186548
 79
     0
 98
        1
 10
0.0
 20
0.0
  0
HATCH
  5
260
330
71
100
AcDbEntity
  8
1
  6
Continuous
 62
     2
100
AcDbHatch
 10
0.0
 20
0.0
 30
0.0
210
0.0
220
0.0
230
1.0
  2
_USER
 70
     0
 71
     1
 91
        4
 92
        1
 93
        8
 72
     1
 10
-212.2513493446278
 20
-252.8201687892891
 11
-212.2513493446278
 21
-258.3846795584893
 72
     2
 10
-212.6755939600117
 20
-258.3846795584893
 40
0.4242446153832589
 50
0.0
 51
90.0
 73
     0
 72
     1
 10
-212.6755939600117
 20
-258.8089241738726
 11
-218.1489060507285
 21
-258.8089241738726
 72
     2
 10
-218.1489060507285
 20
-258.3846795584893
 40
0.4242446153828041
 50
90.0
 51
180.0
 73
     0
 72
     1
 10
-218.5731506661113
 20
-258.3846795584893
 11
-218.5731506661113
 21
-252.8201687892891
 72
     2
 10
-218.1489060507285
 20
-252.8201687892891
 40
0.4242446153837989
 50
180.0
 51
270.0
 73
     0
 72
     1
 10
-218.1489060507285
 20
-252.3959241739053
 11
-212.6755939600117
 21
-252.3959241739053
 72
     2
 10
-212.6755939600117
 20
-252.8201687892891
 40
0.4242446153838841
 50
270.0
 51
360.0
 73
     0
 97
        8
330
1B0
330
1FE
330
1B1
330
209
330
1AE
330
200
330
1AF
330
1FF
 92
       16
 93
        1
 72
     2
 10
-215.529320400211
 20
-255.1390510176447
 40
0.470978932778479
 50
0.0
 51
360.0
 73
     1
 97
        1
330
224
 92
       16
 93
        8
 72
     2
 10
-214.9794626874503
 20
-256.2481926176131
 40
0.3157169230765842
 50
115.3740086783474
 51
180.0
 73
     1
 72
     1
 10
-215.2951796105271
 20
-256.2481926176131
 11
-215.2951796105271
 21
-256.8300440243081
 72
     2
 10
-214.9794626874503
 20
-256.8300440243081
 40
0.315716923076792
 50
180.0
 51
269.8110329574542
 73
     1
 72
     2
 10
-214.9738465521403
 20
-255.1272090767392
 40
2.018561131933237
 50
269.8110329575858
 51
450.1889670424142
 73
     1
 72
     2
 10
-214.9794626874503
 20
-253.4243741291701
 40
0.3157169230761563
 50
90.18896704254587
 51
180.0
 73
     1
 72
     1
 10
-215.2951796105271
 20
-253.4243741291701
 11
-215.2951796105271
 21
-254.0299094176768
 72
     2
 10
-214.9794626874503
 20
-254.0299094176768
 40
0.315716923076792
 50
180.0
 51
244.6259913216548
 73
     1
 72
     2
 10
-215.5055053855382
 20
-255.1390510176447
 40
0.9118481501443941
 50
295.3740086781942
 51
424.6259913218197
 73
     0
 97
        8
330
216
330
177
330
213
330
214
330
1F2
330
176
330
215
330
1F1
 92
       16
 93
       12
 72
     2
 10
-217.555011373982
 20
-257.780651695239
 40
0.3157169230756836
 50
180.0
 51
270.0
 73
     1
 72
     1
 10
-217.555011373982
 20
-258.0963686183158
 11
-216.0791781129724
 21
-258.0963686183158
 72
     2
 10
-216.0791781129724
 20
-257.780651695239
 40
0.3157169230768204
 50
270.0
 51
360.0
 73
     1
 72
     1
 10
-215.7634611898958
 20
-257.780651695239
 11
-215.7634611898958
 21
-256.2498807637074
 72
     2
 10
-216.0791781129724
 20
-256.2498807637074
 40
0.315716923076593
 50
0.0
 51
64.80558935145369
 73
     1
 72
     2
 10
-215.5565936653974
 20
-255.1390510176447
 40
0.9118975235576917
 50
115.1944106485131
 51
244.805589351474
 73
     0
 72
     2
 10
-216.0791781129724
 20
-254.0282212715825
 40
0.3157169230760431
 50
295.1944106485464
 51
360.0
 73
     1
 72
     1
 10
-215.7634611898958
 20
-254.0282212715825
 11
-215.7634611898958
 21
-253.4241966525219
 72
     2
 10
-216.0791781129724
 20
-253.4241966525219
 40
0.315716923076593
 50
0.0
 51
90.0
 73
     1
 72
     1
 10
-216.0791781129724
 20
-253.1084797294458
 11
-217.555011373982
 21
-253.1084797294458
 72
     2
 10
-217.555011373982
 20
-253.4241966525219
 40
0.3157169230761099
 50
90.0
 51
180.0
 73
     1
 72
     1
 10
-217.8707282970577
 20
-253.4241966525219
 11
-217.8707282970577
 21
-257.780651695239
 97
       12
330
1FA
330
1B2
330
1FD
330
1AD
330
20A
330
20B
330
1FC
330
1AC
330
1FB
330
1AB
330
20C
330
1AA
 75
     1
 76
     0
 52
45.0
 41
0.1
 77
     0
 78
     1
 53
45.0
 43
0.0
 44
0.0
 45
-0.0707106781186548
 46
0.0707106781186548
 79
     0
 98
        1
 10
0.0
 20
0.0
  0
HATCH
  5
261
330
71
100
AcDbEntity
  8
1
  6
Continuous
 62
     2
100
AcDbHatch
 10
0.0
 20
0.0
 30
0.0
210
0.0
220
0.0
230
1.0
  2
_USER
 70
     0
 71
     1
 91
        4
 92
        1
 93
        8
 72
     1
 10
-212.2513493446278
 20
-252.8201687892891
 11
-212.2513493446278
 21
-258.3846795584893
 72
     2
 10
-212.6755939600117
 20
-258.3846795584893
 40
0.4242446153832589
 50
0.0
 51
90.0
 73
     0
 72
     1
 10
-212.6755939600117
 20
-258.8089241738726
 11
-218.1489060507285
 21
-258.8089241738726
 72
     2
 10
-218.1489060507285
 20
-258.3846795584893
 40
0.4242446153828041
 50
90.0
 51
180.0
 73
     0
 72
     1
 10
-218.5731506661113
 20
-258.3846795584893
 11
-218.5731506661113
 21
-252.8201687892891
 72
     2
 10
-218.1489060507285
 20
-252.8201687892891
 40
0.4242446153837989
 50
180.0
 51
270.0
 73
     0
 72
     1
 10
-218.1489060507285
 20
-252.3959241739053
 11
-212.6755939600117
 21
-252.3959241739053
 72
     2
 10
-212.6755939600117
 20
-252.8201687892891
 40
0.4242446153838841
 50
270.0
 51
360.0
 73
     0
 97
        8
330
1B0
330
1FE
330
1B1
330
209
330
1AE
330
200
330
1AF
330
1FF
 92
       16
 93
        1
 72
     2
 10
-215.529320400211
 20
-255.1390510176447
 40
0.470978932778479
 50
0.0
 51
360.0
 73
     1
 97
        1
330
224
 92
       16
 93
        8
 72
     2
 10
-214.9794626874503
 20
-256.2481926176131
 40
0.3157169230765842
 50
115.3740086783474
 51
180.0
 73
     1
 72
     1
 10
-215.2951796105271
 20
-256.2481926176131
 11
-215.2951796105271
 21
-256.8300440243081
 72
     2
 10
-214.9794626874503
 20
-256.8300440243081
 40
0.315716923076792
 50
180.0
 51
269.8110329574542
 73
     1
 72
     2
 10
-214.9738465521403
 20
-255.1272090767392
 40
2.018561131933237
 50
269.8110329575858
 51
450.1889670424142
 73
     1
 72
     2
 10
-214.9794626874503
 20
-253.4243741291701
 40
0.3157169230761563
 50
90.18896704254587
 51
180.0
 73
     1
 72
     1
 10
-215.2951796105271
 20
-253.4243741291701
 11
-215.2951796105271
 21
-254.0299094176768
 72
     2
 10
-214.9794626874503
 20
-254.0299094176768
 40
0.315716923076792
 50
180.0
 51
244.6259913216548
 73
     1
 72
     2
 10
-215.5055053855382
 20
-255.1390510176447
 40
0.9118481501443941
 50
295.3740086781942
 51
424.6259913218197
 73
     0
 97
        8
330
216
330
177
330
213
330
214
330
1F2
330
176
330
215
330
1F1
 92
       16
 93
       12
 72
     2
 10
-217.555011373982
 20
-257.780651695239
 40
0.3157169230756836
 50
180.0
 51
270.0
 73
     1
 72
     1
 10
-217.555011373982
 20
-258.0963686183158
 11
-216.0791781129724
 21
-258.0963686183158
 72
     2
 10
-216.0791781129724
 20
-257.780651695239
 40
0.3157169230768204
 50
270.0
 51
360.0
 73
     1
 72
     1
 10
-215.7634611898958
 20
-257.780651695239
 11
-215.7634611898958
 21
-256.2498807637074
 72
     2
 10
-216.0791781129724
 20
-256.2498807637074
 40
0.315716923076593
 50
0.0
 51
64.80558935145369
 73
     1
 72
     2
 10
-215.5565936653974
 20
-255.1390510176447
 40
0.9118975235576917
 50
115.1944106485131
 51
244.805589351474
 73
     0
 72
     2
 10
-216.0791781129724
 20
-254.0282212715825
 40
0.3157169230760431
 50
295.1944106485464
 51
360.0
 73
     1
 72
     1
 10
-215.7634611898958
 20
-254.0282212715825
 11
-215.7634611898958
 21
-253.4241966525219
 72
     2
 10
-216.0791781129724
 20
-253.4241966525219
 40
0.315716923076593
 50
0.0
 51
90.0
 73
     1
 72
     1
 10
-216.0791781129724
 20
-253.1084797294458
 11
-217.555011373982
 21
-253.1084797294458
 72
     2
 10
-217.555011373982
 20
-253.4241966525219
 40
0.3157169230761099
 50
90.0
 51
180.0
 73
     1
 72
     1
 10
-217.8707282970577
 20
-253.4241966525219
 11
-217.8707282970577
 21
-257.780651695239
 97
       12
330
1FA
330
1B2
330
1FD
330
1AD
330
20A
330
20B
330
1FC
330
1AC
330
1FB
330
1AB
330
20C
330
1AA
 75
     1
 76
     0
 52
45.0
 41
0.1
 77
     0
 78
     1
 53
45.0
 43
0.0
 44
0.0
 45
-0.0707106781186548
 46
0.0707106781186548
 79
     0
 98
        1
 10
0.0
 20
0.0
  0
HATCH
  5
262
330
71
100
AcDbEntity
  8
1
  6
Continuous
 62
     2
100
AcDbHatch
 10
0.0
 20
0.0
 30
0.0
210
0.0
220
0.0
230
1.0
  2
_USER
 70
     0
 71
     1
 91
        1
 92
        1
 93
       18
 72
     1
 10
-190.6618014354068
 20
-256.5403799561851
 11
-191.4729004728802
 21
-256.5403799561851
 72
     1
 10
-191.4729004728802
 20
-256.5403799561851
 11
-191.4729004728802
 21
-258.8089241738726
 72
     1
 10
-191.4729004728802
 20
-258.8089241738726
 11
-192.6656931750479
 21
-258.8089241738726
 72
     1
 10
-192.6656931750479
 20
-258.8089241738726
 11
-192.6656931750479
 21
-256.5403799561851
 72
     1
 10
-192.6656931750479
 20
-256.5403799561851
 11
-193.769332474616
 21
-256.5403799561851
 72
     2
 10
-193.769332474616
 20
-257.4949029630112
 40
0.9545230068260935
 50
90.0
 51
109.3371432194309
 73
     1
 72
     2
 10
-193.9160024727197
 20
-257.0769479826283
 40
0.511580060194468
 50
109.3371432194832
 51
151.4785267424309
 73
     1
 72
     2
 10
-193.5386452146383
 20
-257.2820194119673
 40
0.9410597353348518
 50
151.478526742367
 51
208.5214732576695
 73
     1
 72
     2
 10
-193.9160024727197
 20
-257.4870908413059
 40
0.5115800601959674
 50
208.5214732576754
 51
246.6277221118399
 73
     1
 72
     2
 10
-193.7595624400166
 20
-257.1250988225959
 40
0.9059297849852278
 50
246.6277221118168
 51
288.4480761180828
 73
     1
 72
     2
 10
-194.1777301736785
 20
-255.8715530465593
 40
2.227384008972665
 50
288.4480761181342
 51
301.9309089499403
 73
     1
 72
     1
 10
-192.9996751316546
 20
-257.761903765709
 11
-192.9996751316546
 21
-258.6344207725124
 72
     2
 10
-194.3356030487713
 20
-253.969338466711
 40
4.852596863498711
 50
74.02000874166154
 51
84.84185523036355
 73
     0
 72
     2
 10
-194.0467469540355
 20
-257.1692290499325
 40
1.63969512394045
 50
84.84185523032279
 51
164.9381082228947
 73
     0
 72
     2
 10
-194.4658747974971
 20
-257.2820194119673
 40
1.205656168392973
 50
164.9381082229002
 51
195.061891777092
 73
     0
 72
     2
 10
-194.0467469540355
 20
-257.3948097740023
 40
1.639695123940271
 50
195.0618917771034
 51
270.0
 73
     0
 72
     1
 10
-194.0467469540355
 20
-255.755114650062
 11
-190.6618014354068
 21
-255.7551146500616
 72
     1
 10
-190.6618014354068
 20
-255.7551146500616
 11
-190.6618014354068
 21
-256.5403799561851
 97
       18
330
179
330
20F
330
210
330
1F8
330
1F7
330
1DD
330
1F6
330
1F5
330
211
330
1F4
330
212
330
1F3
330
1DE
330
178
330
17D
330
17C
330
17B
330
17A
 75
     1
 76
     0
 52
45.0
 41
0.1
 77
     0
 78
     1
 53
45.0
 43
0.0
 44
0.0
 45
-0.0707106781186548
 46
0.0707106781186548
 79
     0
 98
        1
 10
0.0
 20
0.0
  0
HATCH
  5
263
330
71
100
AcDbEntity
  8
1
  6
Continuous
 62
     2
100
AcDbHatch
 10
0.0
 20
0.0
 30
0.0
210
0.0
220
0.0
230
1.0
  2
_USER
 70
     0
 71
     1
 91
        1
 92
        1
 93
       18
 72
     1
 10
-190.6618014354068
 20
-256.5403799561851
 11
-191.4729004728802
 21
-256.5403799561851
 72
     1
 10
-191.4729004728802
 20
-256.5403799561851
 11
-191.4729004728802
 21
-258.8089241738726
 72
     1
 10
-191.4729004728802
 20
-258.8089241738726
 11
-192.6656931750479
 21
-258.8089241738726
 72
     1
 10
-192.6656931750479
 20
-258.8089241738726
 11
-192.6656931750479
 21
-256.5403799561851
 72
     1
 10
-192.6656931750479
 20
-256.5403799561851
 11
-193.769332474616
 21
-256.5403799561851
 72
     2
 10
-193.769332474616
 20
-257.4949029630112
 40
0.9545230068260935
 50
90.0
 51
109.3371432194309
 73
     1
 72
     2
 10
-193.9160024727197
 20
-257.0769479826283
 40
0.511580060194468
 50
109.3371432194832
 51
151.4785267424309
 73
     1
 72
     2
 10
-193.5386452146383
 20
-257.2820194119673
 40
0.9410597353348518
 50
151.478526742367
 51
208.5214732576695
 73
     1
 72
     2
 10
-193.9160024727197
 20
-257.4870908413059
 40
0.5115800601959674
 50
208.5214732576754
 51
246.6277221118399
 73
     1
 72
     2
 10
-193.7595624400166
 20
-257.1250988225959
 40
0.9059297849852278
 50
246.6277221118168
 51
288.4480761180828
 73
     1
 72
     2
 10
-194.1777301736785
 20
-255.8715530465593
 40
2.227384008972665
 50
288.4480761181342
 51
301.9309089499403
 73
     1
 72
     1
 10
-192.9996751316546
 20
-257.761903765709
 11
-192.9996751316546
 21
-258.6344207725124
 72
     2
 10
-194.3356030487713
 20
-253.969338466711
 40
4.852596863498711
 50
74.02000874166154
 51
84.84185523036355
 73
     0
 72
     2
 10
-194.0467469540355
 20
-257.1692290499325
 40
1.63969512394045
 50
84.84185523032279
 51
164.9381082228947
 73
     0
 72
     2
 10
-194.4658747974971
 20
-257.2820194119673
 40
1.205656168392973
 50
164.9381082229002
 51
195.061891777092
 73
     0
 72
     2
 10
-194.0467469540355
 20
-257.3948097740023
 40
1.639695123940271
 50
195.0618917771034
 51
270.0
 73
     0
 72
     1
 10
-194.0467469540355
 20
-255.755114650062
 11
-190.6618014354068
 21
-255.7551146500616
 72
     1
 10
-190.6618014354068
 20
-255.7551146500616
 11
-190.6618014354068
 21
-256.5403799561851
 97
       18
330
179
330
20F
330
210
330
1F8
330
1F7
330
1DD
330
1F6
330
1F5
330
211
330
1F4
330
212
330
1F3
330
1DE
330
178
330
17D
330
17C
330
17B
330
17A
 75
     1
 76
     0
 52
45.0
 41
0.1
 77
     0
 78
     1
 53
45.0
 43
0.0
 44
0.0
 45
-0.0707106781186548
 46
0.0707106781186548
 79
     0
 98
        1
 10
0.0
 20
0.0
  0
HATCH
  5
264
330
71
100
AcDbEntity
  8
1
  6
Continuous
 62
     2
100
AcDbHatch
 10
0.0
 20
0.0
 30
0.0
210
0.0
220
0.0
230
1.0
  2
_USER
 70
     0
 71
     1
 91
        1
 92
        1
 93
       14
 72
     2
 10
-210.1494484332884
 20
-257.3948097740023
 40
1.639695123940478
 50
84.84185523036227
 51
164.9381082228886
 73
     1
 72
     2
 10
-210.5685762767512
 20
-257.2820194119673
 40
1.205656168390942
 50
164.938108222882
 51
195.0618917770945
 73
     1
 72
     2
 10
-210.1494484332884
 20
-257.1692290499325
 40
1.639695123939422
 50
195.0618917770903
 51
275.1581447696393
 73
     1
 72
     2
 10
-210.4383045280243
 20
-253.969338466711
 40
4.85259686349811
 50
275.158144769625
 51
285.9799912583529
 73
     1
 72
     1
 10
-209.1023766109065
 20
-258.6344207725118
 11
-209.1023766109065
 21
-257.7619037657086
 72
     2
 10
-210.2804316529314
 20
-255.8715530465587
 40
2.227384008972665
 50
58.06909105004051
 51
71.5519238818658
 73
     0
 72
     2
 10
-209.8622639192706
 20
-257.1250988225959
 40
0.9059297849848783
 50
71.55192388183985
 51
113.372277888132
 73
     0
 72
     2
 10
-210.0187039519726
 20
-257.4870908413059
 40
0.5115800601948034
 50
113.3722778881806
 51
151.4785267423044
 73
     0
 72
     2
 10
-209.6413466938923
 20
-257.2820194119673
 40
0.9410597353332545
 50
151.4785267422882
 51
208.5214732577331
 73
     0
 72
     2
 10
-210.0187039519726
 20
-257.0769479826283
 40
0.5115800601948108
 50
208.5214732576956
 51
246.6277221117941
 73
     0
 72
     2
 10
-209.8622639192706
 20
-257.438940001339
 40
0.9059297849853228
 50
246.6277221118694
 51
288.4480761181465
 73
     0
 72
     2
 10
-210.2804316529314
 20
-258.6924857773755
 40
2.227384008973517
 50
288.4480761181342
 51
301.9309089499596
 73
     0
 72
     1
 10
-209.1023766109065
 20
-256.8021350582256
 11
-209.1023766109065
 21
-255.9296180514224
 72
     2
 10
-210.4383045280243
 20
-260.5947003572233
 40
4.852596863498068
 50
74.02000874164739
 51
84.84185523037506
 73
     1
 97
       14
330
217
330
218
330
219
330
21A
330
1DF
330
1F0
330
1EF
330
1EE
330
21B
330
21C
330
1ED
330
21D
330
1E0
330
1EC
 75
     1
 76
     0
 52
45.0
 41
0.1
 77
     0
 78
     1
 53
45.0
 43
0.0
 44
0.0
 45
-0.0707106781186548
 46
0.0707106781186548
 79
     0
 98
        1
 10
0.0
 20
0.0
  0
HATCH
  5
265
330
71
100
AcDbEntity
  8
1
  6
Continuous
 62
     2
100
AcDbHatch
 10
0.0
 20
0.0
 30
0.0
210
0.0
220
0.0
230
1.0
  2
_USER
 70
     0
 71
     1
 91
        1
 92
        1
 93
       14
 72
     2
 10
-210.1494484332884
 20
-257.3948097740023
 40
1.639695123940478
 50
84.84185523036227
 51
164.9381082228886
 73
     1
 72
     2
 10
-210.5685762767512
 20
-257.2820194119673
 40
1.205656168390942
 50
164.938108222882
 51
195.0618917770945
 73
     1
 72
     2
 10
-210.1494484332884
 20
-257.1692290499325
 40
1.639695123939422
 50
195.0618917770903
 51
275.1581447696393
 73
     1
 72
     2
 10
-210.4383045280243
 20
-253.969338466711
 40
4.85259686349811
 50
275.158144769625
 51
285.9799912583529
 73
     1
 72
     1
 10
-209.1023766109065
 20
-258.6344207725118
 11
-209.1023766109065
 21
-257.7619037657086
 72
     2
 10
-210.2804316529314
 20
-255.8715530465587
 40
2.227384008972665
 50
58.06909105004051
 51
71.5519238818658
 73
     0
 72
     2
 10
-209.8622639192706
 20
-257.1250988225959
 40
0.9059297849848783
 50
71.55192388183985
 51
113.372277888132
 73
     0
 72
     2
 10
-210.0187039519726
 20
-257.4870908413059
 40
0.5115800601948034
 50
113.3722778881806
 51
151.4785267423044
 73
     0
 72
     2
 10
-209.6413466938923
 20
-257.2820194119673
 40
0.9410597353332545
 50
151.4785267422882
 51
208.5214732577331
 73
     0
 72
     2
 10
-210.0187039519726
 20
-257.0769479826283
 40
0.5115800601948108
 50
208.5214732576956
 51
246.6277221117941
 73
     0
 72
     2
 10
-209.8622639192706
 20
-257.438940001339
 40
0.9059297849853228
 50
246.6277221118694
 51
288.4480761181465
 73
     0
 72
     2
 10
-210.2804316529314
 20
-258.6924857773755
 40
2.227384008973517
 50
288.4480761181342
 51
301.9309089499596
 73
     0
 72
     1
 10
-209.1023766109065
 20
-256.8021350582256
 11
-209.1023766109065
 21
-255.9296180514224
 72
     2
 10
-210.4383045280243
 20
-260.5947003572233
 40
4.852596863498068
 50
74.02000874164739
 51
84.84185523037506
 73
     1
 97
       14
330
217
330
218
330
219
330
21A
330
1DF
330
1F0
330
1EF
330
1EE
330
21B
330
21C
330
1ED
330
21D
330
1E0
330
1EC
 75
     1
 76
     0
 52
45.0
 41
0.1
 77
     0
 78
     1
 53
45.0
 43
0.0
 44
0.0
 45
-0.0707106781186548
 46
0.0707106781186548
 79
     0
 98
        1
 10
0.0
 20
0.0
  0
ENDBLK
  5
73
330
71
100
AcDbEntity
  8
0
100
AcDbBlockEnd
  0
BLOCK
  5
75
330
74
100
AcDbEntity
  8
0
100
AcDbBlockBegin
  2
_punkt
 70
     0
 10
-93.2650010259239
 20
-266.102424173889
 30
0.0
  3
_punkt
  1

  0
LINE
  5
266
330
74
100
AcDbEntity
  8
1
  6
Continuous
 62
     2
100
AcDbLine
 10
-93.2650010259239
 20
-266.102424173889
 30
0.0
 11
-88.2650010259249
 21
-266.102424173889
 31
0.0
  0
LINE
  5
267
330
74
100
AcDbEntity
  8
1
  6
Continuous
 62
     2
100
AcDbLine
 10
-93.2650010259239
 20
-266.102424173889
 30
0.0
 11
-93.2650010259239
 21
-271.1024241738891
 31
0.0
  0
ENDBLK
  5
76
330
74
100
AcDbEntity
  8
0
100
AcDbBlockEnd
  0
BLOCK
  5
7A
330
77
100
AcDbEntity
  8
0
100
AcDbBlockBegin
  2
A4I_CS
 70
     0
 10
-93.2650010259239
 20
-271.1024241738891
 30
0.0
  3
A4I_CS
  1

  0
INSERT
  5
78
330
77
100
AcDbEntity
  8
1
100
AcDbBlockReference
  2
_rahmen
 10
-93.2650010259239
 20
-271.1024241738891
 30
0.0
  0
INSERT
  5
79
330
77
100
AcDbEntity
  8
1
100
AcDbBlockReference
  2
_punkt
 10
-93.2650010259239
 20
-266.102424173889
 30
0.0
  0
ENDBLK
  5
7B
330
77
100
AcDbEntity
  8
0
100
AcDbBlockEnd
  0
BLOCK
  5
84
330
7C
100
AcDbEntity
  8
0
100
AcDbBlockBegin
  2
1
 70
     0
 10
0.0
 20
0.0
 30
0.0
  3
1
  1

  0
INSERT
  5
7D
330
7C
100
AcDbEntity
  8
0
100
AcDbBlockReference
  2
Allg1
 10
-137.9999999999899
 20
-192.999999999992
 30
0.0
 41
2.0
 42
2.0
 43
2.0
  0
INSERT
  5
7E
330
7C
100
AcDbEntity
  8
0
100
AcDbBlockReference
  2
Drfsicht1
 10
-260.5999982888184
 20
-200.5348491107176
 30
0.0
 41
2.0
 42
2.0
 43
2.0
  0
INSERT
  5
7F
330
7C
100
AcDbEntity
  8
0
100
AcDbBlockReference
  2
Rckans1
 10
-134.00000000005
 20
-123.9999999999999
 30
0.0
 41
2.0
 42
2.0
 43
2.0
  0
INSERT
  5
80
330
7C
100
AcDbEntity
  8
0
100
AcDbBlockReference
  2
SA_Links1
 10
-197.300001144409
 20
-124.0
 30
0.0
 41
2.0
 42
2.0
 43
2.0
  0
INSERT
  5
81
330
7C
100
AcDbEntity
  8
0
100
AcDbBlockReference
  2
SA_Rechts1
 10
-333.9000020517778
 20
-123.9999999999999
 30
0.0
 41
2.0
 42
2.0
 43
2.0
  0
INSERT
  5
82
330
7C
100
AcDbEntity
  8
0
100
AcDbBlockReference
  2
Vordans1
 10
-260.599999
 20
-123.9999999999999
 30
0.0
 41
2.0
 42
2.0
 43
2.0
  0
INSERT
  5
83
330
7C
100
AcDbEntity
  8
0
100
AcDbBlockReference
  2
A4I_CS
 10
-93.2650010259239
 20
-271.1024241738891
 30
0.0
  0
ENDBLK
  5
85
330
7C
100
AcDbEntity
  8
0
100
AcDbBlockEnd
  0
BLOCK
  5
120
330
119
100
AcDbEntity
  8
0
100
AcDbBlockBegin
  2
*D17
 70
     1
 10
0.0
 20
0.0
 30
0.0
  3
*D17
  1

  0
LINE
  5
11A
330
119
100
AcDbEntity
  8
1
  6
Continuous
 62
     2
100
AcDbLine
 10
-140.29999949999
 20
-78.64999999999995
 30
0.0
 11
-120.29999949999
 21
-78.64999999999995
 31
0.0
  0
LINE
  5
11B
330
119
100
AcDbEntity
  8
1
  6
Continuous
 62
     2
100
AcDbLine
 10
-140.29999949999
 20
-73.09999999999995
 30
0.0
 11
-140.29999949999
 21
-79.39999999999995
 31
0.0
  0
LINE
  5
11C
330
119
100
AcDbEntity
  8
1
  6
Continuous
 62
     2
100
AcDbLine
 10
-120.29999949999
 20
-70.84999999999995
 30
0.0
 11
-120.29999949999
 21
-79.39999999999995
 31
0.0
  0
SOLID
  5
11D
330
119
100
AcDbEntity
  8
1
 62
     2
100
AcDbTrace
 10
-138.54999949999
 20
-78.41960812922201
 30
0.0
 11
-138.54999949999
 21
-78.88039187077788
 31
0.0
 12
-140.29999949999
 22
-78.64999999999995
 32
0.0
 13
-140.29999949999
 23
-78.64999999999995
 33
0.0
  0
SOLID
  5
11E
330
119
100
AcDbEntity
  8
1
 62
     2
100
AcDbTrace
 10
-122.04999949999
 20
-78.88039187077788
 30
0.0
 11
-122.04999949999
 21
-78.41960812922201
 31
0.0
 12
-120.29999949999
 22
-78.64999999999995
 32
0.0
 13
-120.29999949999
 23
-78.64999999999995
 33
0.0
  0
MTEXT
  5
11F
330
119
100
AcDbEntity
  8
1
 62
     3
100
AcDbMText
 10
-131.61249949999
 20
-77.89999999999995
 30
0.0
 40
1.75
 41
0.0
 71
     7
 72
     1
  1
20
  7
CONVERTER_11
 11
0.9999999999970619
 21
2.424068405545306E-6
 31
0.0
 73
     1
 44
0.60024009603842
  0
ENDBLK
  5
121
330
119
100
AcDbEntity
  8
0
100
AcDbBlockEnd
  0
BLOCK
  5
12B
330
124
100
AcDbEntity
  8
0
100
AcDbBlockBegin
  2
*D18
 70
     1
 10
0.0
 20
0.0
 30
0.0
  3
*D18
  1

  0
LINE
  5
125
330
124
100
AcDbEntity
  8
1
  6
Continuous
 62
     2
100
AcDbLine
 10
-145.29999949999
 20
-50.34999999999995
 30
0.0
 11
-145.29999949999
 21
-73.64999999999995
 31
0.0
  0
LINE
  5
126
330
124
100
AcDbEntity
  8
1
  6
Continuous
 62
     2
100
AcDbLine
 10
-130.79999949999
 20
-50.34999999999995
 30
0.0
 11
-146.04999949999
 21
-50.34999999999995
 31
0.0
  0
LINE
  5
127
330
124
100
AcDbEntity
  8
1
  6
Continuous
 62
     2
100
AcDbLine
 10
-130.79999949999
 20
-73.64999999999995
 30
0.0
 11
-146.04999949999
 21
-73.64999999999995
 31
0.0
  0
SOLID
  5
128
330
124
100
AcDbEntity
  8
1
 62
     2
100
AcDbTrace
 10
-145.0696076292121
 20
-52.09999999999995
 30
0.0
 11
-145.5303913707679
 21
-52.09999999999995
 31
0.0
 12
-145.29999949999
 22
-50.34999999999995
 32
0.0
 13
-145.29999949999
 23
-50.34999999999995
 33
0.0
  0
SOLID
  5
129
330
124
100
AcDbEntity
  8
1
 62
     2
100
AcDbTrace
 10
-145.5303913707679
 20
-71.89999999999995
 30
0.0
 11
-145.0696076292121
 21
-71.89999999999995
 31
0.0
 12
-145.29999949999
 22
-73.64999999999995
 32
0.0
 13
-145.29999949999
 23
-73.64999999999995
 33
0.0
  0
MTEXT
  5
12A
330
124
100
AcDbEntity
  8
1
 62
     3
100
AcDbMText
 10
-146.22499949999
 20
-64.87874999999995
 30
0.0
 40
1.75
 41
0.0
 71
     7
 72
     1
  1
\C3;\U+00f8\C3;23,3
  7
CONVERTER_11
 11
0.0
 21
1.0
 31
0.0
 73
     1
 44
0.60024009603842
  0
ENDBLK
  5
12C
330
124
100
AcDbEntity
  8
0
100
AcDbBlockEnd
  0
ENDSEC
  0
SECTION
  2
ENTITIES
  0
INSERT
  5
86
330
1F
100
AcDbEntity
  8
1
100
AcDbBlockReference
  2
1
 10
0.0
 20
0.0
 30
0.0
  0
ENDSEC
  0
SECTION
  2
OBJECTS
  0
DICTIONARY
  5
C
330
0
100
AcDbDictionary
281
     1
  3
ACAD_GROUP
350
D
  3
ACAD_LAYOUT
350
1A
  3
ACAD_MATERIAL
350
3B
  3
ACAD_MLEADERSTYLE
350
28F
  3
ACAD_MLINESTYLE
350
17
  3
ACAD_PLOTSETTINGS
350
19
  3
ACAD_PLOTSTYLENAME
350
E
  3
ACAD_TABLESTYLE
350
28E
  3
ACAD_VISUALSTYLE
350
2A
  0
DICTIONARY
  5
D
102
{ACAD_REACTORS
330
C
102
}
330
C
100
AcDbDictionary
281
     1
  0
DICTIONARY
  5
1A
102
{ACAD_REACTORS
330
C
102
}
330
C
100
AcDbDictionary
281
     1
  3
Layout1
350
1E
  3
Layout2
350
26
  3
Model
350
22
  0
DICTIONARY
  5
3B
102
{ACAD_REACTORS
330
C
102
}
330
C
100
AcDbDictionary
281
     1
  3
ByBlock
350
3D
  3
ByLayer
350
3C
  3
Global
350
3E
  0
DICTIONARY
  5
28F
102
{ACAD_REACTORS
330
C
102
}
330
C
100
AcDbDictionary
281
     1
  0
DICTIONARY
  5
17
102
{ACAD_REACTORS
330
C
102
}
330
C
100
AcDbDictionary
281
     1
  3
Standard
350
18
  0
DICTIONARY
  5
19
102
{ACAD_REACTORS
330
C
102
}
330
C
100
AcDbDictionary
281
     1
  0
ACDBDICTIONARYWDFLT
  5
E
102
{ACAD_REACTORS
330
C
102
}
330
C
100
AcDbDictionary
281
     1
  3
Normal
350
F
100
AcDbDictionaryWithDefault
340
F
  0
DICTIONARY
  5
28E
102
{ACAD_REACTORS
330
C
102
}
330
C
100
AcDbDictionary
281
     1
  0
DICTIONARY
  5
2A
102
{ACAD_REACTORS
330
C
102
}
330
C
100
AcDbDictionary
281
     1
  3
2dWireframe
350
2F
  3
3D Hidden
350
31
  3
3dWireframe
350
30
  3
Basic
350
32
  3
Brighten
350
36
  3
ColorChange
350
3A
  3
Conceptual
350
34
  3
Dim
350
35
  3
Facepattern
350
39
  3
Flat
350
2B
  3
FlatWithEdges
350
2C
  3
Gouraud
350
2D
  3
GouraudWithEdges
350
2E
  3
Linepattern
350
38
  3
Realistic
350
33
  3
Thicken
350
37
  0
LAYOUT
  5
1E
102
{ACAD_REACTORS
330
1A
102
}
330
1A
100
AcDbPlotSettings
  1

  2
none_device
  4

  6

 40
0.0
 41
0.0
 42
0.0
 43
0.0
 44
0.0
 45
0.0
 46
0.0
 47
0.0
 48
0.0
 49
0.0
140
0.0
141
0.0
142
1.0
143
1.0
 70
   688
 72
     0
 73
     0
 74
     5
  7

 75
    16
 76
     0
 77
     2
 78
   300
147
1.0
148
0.0
149
0.0
100
AcDbLayout
  1
Layout1
 70
     1
 71
     1
 10
0.0
 20
0.0
 11
12.0
 21
9.0
 12
0.0
 22
0.0
 32
0.0
 14
1.00000000000000E+20
 24
1.00000000000000E+20
 34
1.00000000000000E+20
 15
-1.00000000000000E+20
 25
-1.00000000000000E+20
 35
-1.00000000000000E+20
146
0.0
 13
0.0
 23
0.0
 33
0.0
 16
1.0
 26
0.0
 36
0.0
 17
0.0
 27
1.0
 37
0.0
 76
     0
330
1B
  0
LAYOUT
  5
26
102
{ACAD_REACTORS
330
1A
102
}
330
1A
100
AcDbPlotSettings
  1

  2
none_device
  4

  6

 40
0.0
 41
0.0
 42
0.0
 43
0.0
 44
0.0
 45
0.0
 46
0.0
 47
0.0
 48
0.0
 49
0.0
140
0.0
141
0.0
142
1.0
143
1.0
 70
   688
 72
     0
 73
     0
 74
     5
  7

 75
    16
 76
     0
 77
     2
 78
   300
147
1.0
148
0.0
149
0.0
100
AcDbLayout
  1
Layout2
 70
     1
 71
     2
 10
0.0
 20
0.0
 11
0.0
 21
0.0
 12
0.0
 22
0.0
 32
0.0
 14
0.0
 24
0.0
 34
0.0
 15
0.0
 25
0.0
 35
0.0
146
0.0
 13
0.0
 23
0.0
 33
0.0
 16
1.0
 26
0.0
 36
0.0
 17
0.0
 27
1.0
 37
0.0
 76
     0
330
23
  0
LAYOUT
  5
22
102
{ACAD_REACTORS
330
1A
102
}
330
1A
100
AcDbPlotSettings
  1

  2
none_device
  4

  6

 40
0.0
 41
0.0
 42
0.0
 43
0.0
 44
0.0
 45
0.0
 46
0.0
 47
0.0
 48
0.0
 49
0.0
140
0.0
141
0.0
142
1.0
143
1.0
 70
  1712
 72
     0
 73
     0
 74
     0
  7

 75
     0
 76
     0
 77
     2
 78
   300
147
1.0
148
0.0
149
0.0
100
AcDbLayout
  1
Model
 70
     1
 71
     0
 10
0.0
 20
0.0
 11
12.0
 21
9.0
 12
0.0
 22
0.0
 32
0.0
 14
-385.265001025923
 24
-271.1024241738891
 34
0.0
 15
-88.2650010259249
 25
-61.10242417388895
 35
0.0
146
0.0
 13
0.0
 23
0.0
 33
0.0
 16
1.0
 26
0.0
 36
0.0
 17
0.0
 27
1.0
 37
0.0
 76
     0
330
1F
331
29
  0
MATERIAL
  5
3D
102
{ACAD_REACTORS
330
3B
102
}
102
{ACAD_XDICTIONARY
360
28A
102
}
330
3B
100
AcDbMaterial
  1
ByBlock
  0
MATERIAL
  5
3C
102
{ACAD_REACTORS
330
3B
102
}
102
{ACAD_XDICTIONARY
360
288
102
}
330
3B
100
AcDbMaterial
  1
ByLayer
  0
MATERIAL
  5
3E
102
{ACAD_REACTORS
330
3B
102
}
102
{ACAD_XDICTIONARY
360
28C
102
}
330
3B
100
AcDbMaterial
  1
Global
  0
MLINESTYLE
  5
18
102
{ACAD_REACTORS
330
17
102
}
330
17
100
AcDbMlineStyle
  2
Standard
 70
     0
  3

 62
   256
 51
90.0
 52
90.0
 71
     2
 49
0.5
 62
   256
  6
BYLAYER
 49
-0.5
 62
   256
  6
BYLAYER
  0
ACDBPLACEHOLDER
  5
F
102
{ACAD_REACTORS
330
E
102
}
330
E
  0
VISUALSTYLE
  5
2F
102
{ACAD_REACTORS
330
2A
102
}
102
{ACAD_XDICTIONARY
360
270
102
}
330
2A
100
AcDbVisualStyle
  2
2dWireframe
 70
     4
 71
     0
 72
     2
 73
     0
 90
        0
 40
-0.6
 41
-30.0
 62
     5
 63
     7
421
 16777215
 74
     1
 91
        4
 64
     7
 65
   257
 75
     1
175
     1
 42
1.0
 92
        0
 66
   257
 43
1.0
 76
     1
 77
     6
 78
     2
 67
     7
 79
     5
170
     0
171
     0
290
     0
174
     0
 93
        1
 44
0.0
173
     0
291
     0
 45
0.0
1001
ACAD
1000
AcDbSavedByObjectVersion
1070
     0
  0
VISUALSTYLE
  5
31
102
{ACAD_REACTORS
330
2A
102
}
102
{ACAD_XDICTIONARY
360
274
102
}
330
2A
100
AcDbVisualStyle
  2
3D Hidden
 70
     6
 71
     1
 72
     2
 73
     2
 90
        0
 40
-0.6
 41
-30.0
 62
     5
 63
     7
421
 16777215
 74
     2
 91
        2
 64
     7
 65
   257
 75
     2
175
     1
 42
40.0
 92
        0
 66
   257
 43
1.0
 76
     1
 77
     6
 78
     2
 67
     7
 79
     3
170
     0
171
     0
290
     0
174
     0
 93
        1
 44
0.0
173
     0
291
     0
 45
0.0
1001
ACAD
1000
AcDbSavedByObjectVersion
1070
     0
  0
VISUALSTYLE
  5
30
102
{ACAD_REACTORS
330
2A
102
}
102
{ACAD_XDICTIONARY
360
272
102
}
330
2A
100
AcDbVisualStyle
  2
3dWireframe
 70
     5
 71
     0
 72
     2
 73
     0
 90
        0
 40
-0.6
 41
-30.0
 62
     5
 63
     7
421
 16777215
 74
     1
 91
        4
 64
     7
 65
   257
 75
     1
175
     1
 42
1.0
 92
        0
 66
   257
 43
1.0
 76
     1
 77
     6
 78
     2
 67
     7
 79
     5
170
     0
171
     0
290
     0
174
     0
 93
        1
 44
0.0
173
     0
291
     0
 45
0.0
1001
ACAD
1000
AcDbSavedByObjectVersion
1070
     0
  0
VISUALSTYLE
  5
32
102
{ACAD_REACTORS
330
2A
102
}
102
{ACAD_XDICTIONARY
360
276
102
}
330
2A
100
AcDbVisualStyle
  2
Basic
 70
     7
 71
     1
 72
     0
 73
     1
 90
        0
 40
-0.6
 41
-30.0
 62
     5
 63
     7
421
 16777215
 74
     0
 91
        4
 64
     7
 65
   257
 75
     1
175
     1
 42
1.0
 92
        8
 66
     7
 43
1.0
 76
     1
 77
     6
 78
     2
 67
     7
 79
     5
170
     0
171
     0
290
     0
174
     0
 93
        1
 44
0.0
173
     0
291
     1
 45
0.0
1001
ACAD
1000
AcDbSavedByObjectVersion
1070
     0
  0
VISUALSTYLE
  5
36
102
{ACAD_REACTORS
330
2A
102
}
102
{ACAD_XDICTIONARY
360
27E
102
}
330
2A
100
AcDbVisualStyle
  2
Brighten
 70
    12
 71
     2
 72
     2
 73
     0
 90
        0
 40
-0.6
 41
-30.0
 62
     5
 63
     7
421
 16777215
 74
     1
 91
        4
 64
     7
 65
   257
 75
     1
175
     1
 42
1.0
 92
        8
 66
     7
 43
1.0
 76
     1
 77
     6
 78
     2
 67
     7
 79
     5
170
     0
171
     0
290
     0
174
     0
 93
        1
 44
50.0
173
     0
291
     1
 45
0.0
1001
ACAD
1000
AcDbSavedByObjectVersion
1070
     0
  0
VISUALSTYLE
  5
3A
102
{ACAD_REACTORS
330
2A
102
}
102
{ACAD_XDICTIONARY
360
286
102
}
330
2A
100
AcDbVisualStyle
  2
ColorChange
 70
    16
 71
     2
 72
     2
 73
     3
 90
        0
 40
-0.6
 41
-30.0
 62
     5
 63
     8
421
  8421504
 74
     1
 91
        4
 64
     7
 65
   257
 75
     1
175
     1
 42
1.0
 92
        8
 66
     8
424
  8421504
 43
1.0
 76
     1
 77
     6
 78
     2
 67
     7
 79
     5
170
     0
171
     0
290
     0
174
     0
 93
        1
 44
0.0
173
     0
291
     1
 45
0.0
1001
ACAD
1000
AcDbSavedByObjectVersion
1070
     0
  0
VISUALSTYLE
  5
34
102
{ACAD_REACTORS
330
2A
102
}
102
{ACAD_XDICTIONARY
360
27A
102
}
330
2A
100
AcDbVisualStyle
  2
Conceptual
 70
     9
 71
     3
 72
     2
 73
     0
 90
        0
 40
-0.6
 41
-30.0
 62
     5
 63
     7
421
 16777215
 74
     2
 91
        2
 64
     7
 65
   257
 75
     1
175
     1
 42
40.0
 92
        8
 66
     7
 43
1.0
 76
     1
 77
     6
 78
     2
 67
     7
 79
     3
170
     0
171
     0
290
     0
174
     0
 93
        1
 44
0.0
173
     0
291
     0
 45
0.0
1001
ACAD
1000
AcDbSavedByObjectVersion
1070
     0
  0
VISUALSTYLE
  5
35
102
{ACAD_REACTORS
330
2A
102
}
102
{ACAD_XDICTIONARY
360
27C
102
}
330
2A
100
AcDbVisualStyle
  2
Dim
 70
    11
 71
     2
 72
     2
 73
     0
 90
        0
 40
-0.6
 41
-30.0
 62
     5
 63
     7
421
 16777215
 74
     1
 91
        4
 64
     7
 65
   257
 75
     1
175
     1
 42
1.0
 92
        8
 66
     7
 43
1.0
 76
     1
 77
     6
 78
     2
 67
     7
 79
     5
170
     0
171
     0
290
     0
174
     0
 93
        1
 44
-50.0
173
     0
291
     1
 45
0.0
1001
ACAD
1000
AcDbSavedByObjectVersion
1070
     0
  0
VISUALSTYLE
  5
39
102
{ACAD_REACTORS
330
2A
102
}
102
{ACAD_XDICTIONARY
360
284
102
}
330
2A
100
AcDbVisualStyle
  2
Facepattern
 70
    15
 71
     2
 72
     2
 73
     0
 90
        0
 40
-0.6
 41
-30.0
 62
     5
 63
     7
421
 16777215
 74
     1
 91
        4
 64
     7
 65
   257
 75
     1
175
     1
 42
1.0
 92
        8
 66
     7
 43
1.0
 76
     1
 77
     6
 78
     2
 67
     7
 79
     5
170
     0
171
     0
290
     0
174
     0
 93
        1
 44
0.0
173
     0
291
     1
 45
0.0
1001
ACAD
1000
AcDbSavedByObjectVersion
1070
     0
  0
VISUALSTYLE
  5
2B
102
{ACAD_REACTORS
330
2A
102
}
102
{ACAD_XDICTIONARY
360
268
102
}
330
2A
100
AcDbVisualStyle
  2
Flat
 70
     0
 71
     2
 72
     1
 73
     1
 90
        2
 40
-0.6
 41
30.0
 62
     5
 63
     7
421
 16777215
 74
     0
 91
        4
 64
     7
 65
   257
 75
     1
175
     1
 42
1.0
 92
        8
 66
     7
 43
1.0
 76
     1
 77
     6
 78
     2
 67
     7
 79
     5
170
     0
171
     0
290
     0
174
     0
 93
       13
 44
0.0
173
     0
291
     1
 45
0.0
1001
ACAD
1000
AcDbSavedByObjectVersion
1070
     0
  0
VISUALSTYLE
  5
2C
102
{ACAD_REACTORS
330
2A
102
}
102
{ACAD_XDICTIONARY
360
26A
102
}
330
2A
100
AcDbVisualStyle
  2
FlatWithEdges
 70
     1
 71
     2
 72
     1
 73
     1
 90
        2
 40
-0.6
 41
30.0
 62
     5
 63
     7
421
 16777215
 74
     1
 91
        4
 64
     7
 65
   257
 75
     1
175
     1
 42
1.0
 92
        0
 66
   257
 43
1.0
 76
     1
 77
     6
 78
     2
 67
     7
 79
     5
170
     0
171
     0
290
     0
174
     0
 93
       13
 44
0.0
173
     0
291
     1
 45
0.0
1001
ACAD
1000
AcDbSavedByObjectVersion
1070
     0
  0
VISUALSTYLE
  5
2D
102
{ACAD_REACTORS
330
2A
102
}
102
{ACAD_XDICTIONARY
360
26C
102
}
330
2A
100
AcDbVisualStyle
  2
Gouraud
 70
     2
 71
     2
 72
     2
 73
     1
 90
        2
 40
-0.6
 41
30.0
 62
     5
 63
     7
421
 16777215
 74
     0
 91
        4
 64
     7
 65
   257
 75
     1
175
     1
 42
1.0
 92
        0
 66
     7
 43
1.0
 76
     1
 77
     6
 78
     2
 67
     7
 79
     5
170
     0
171
     0
290
     0
174
     0
 93
       13
 44
0.0
173
     0
291
     1
 45
0.0
1001
ACAD
1000
AcDbSavedByObjectVersion
1070
     0
  0
VISUALSTYLE
  5
2E
102
{ACAD_REACTORS
330
2A
102
}
102
{ACAD_XDICTIONARY
360
26E
102
}
330
2A
100
AcDbVisualStyle
  2
GouraudWithEdges
 70
     3
 71
     2
 72
     2
 73
     1
 90
        2
 40
-0.6
 41
30.0
 62
     5
 63
     7
421
 16777215
 74
     1
 91
        4
 64
     7
 65
   257
 75
     1
175
     1
 42
1.0
 92
        0
 66
   257
 43
1.0
 76
     1
 77
     6
 78
     2
 67
     7
 79
     5
170
     0
171
     0
290
     0
174
     0
 93
       13
 44
0.0
173
     0
291
     1
 45
0.0
1001
ACAD
1000
AcDbSavedByObjectVersion
1070
     0
  0
VISUALSTYLE
  5
38
102
{ACAD_REACTORS
330
2A
102
}
102
{ACAD_XDICTIONARY
360
282
102
}
330
2A
100
AcDbVisualStyle
  2
Linepattern
 70
    14
 71
     2
 72
     2
 73
     0
 90
        0
 40
-0.6
 41
-30.0
 62
     5
 63
     7
421
 16777215
 74
     1
 91
        4
 64
     7
 65
   257
 75
     7
175
     7
 42
1.0
 92
        8
 66
     7
 43
1.0
 76
     1
 77
     6
 78
     2
 67
     7
 79
     5
170
     0
171
     0
290
     0
174
     0
 93
        1
 44
0.0
173
     0
291
     1
 45
0.0
1001
ACAD
1000
AcDbSavedByObjectVersion
1070
     0
  0
VISUALSTYLE
  5
33
102
{ACAD_REACTORS
330
2A
102
}
102
{ACAD_XDICTIONARY
360
278
102
}
330
2A
100
AcDbVisualStyle
  2
Realistic
 70
     8
 71
     2
 72
     2
 73
     0
 90
        0
 40
-0.6
 41
-30.0
 62
     5
 63
     7
421
 16777215
 74
     1
 91
        0
 64
     7
 65
   257
 75
     1
175
     1
 42
1.0
 92
        8
 66
     8
424
  7895160
 43
1.0
 76
     1
 77
     6
 78
     2
 67
     7
 79
     5
170
     0
171
     0
290
     0
174
     0
 93
       13
 44
0.0
173
     0
291
     0
 45
0.0
1001
ACAD
1000
AcDbSavedByObjectVersion
1070
     0
  0
VISUALSTYLE
  5
37
102
{ACAD_REACTORS
330
2A
102
}
102
{ACAD_XDICTIONARY
360
280
102
}
330
2A
100
AcDbVisualStyle
  2
Thicken
 70
    13
 71
     2
 72
     2
 73
     0
 90
        0
 40
-0.6
 41
-30.0
 62
     5
 63
     7
421
 16777215
 74
     1
 91
        4
 64
     7
 65
   257
 75
     1
175
     1
 42
1.0
 92
       12
 66
     7
 43
1.0
 76
     1
 77
     6
 78
     2
 67
     7
 79
     5
170
     0
171
     0
290
     0
174
     0
 93
        1
 44
0.0
173
     0
291
     1
 45
0.0
1001
ACAD
1000
AcDbSavedByObjectVersion
1070
     0
  0
DICTIONARY
  5
28A
330
3D
100
AcDbDictionary
280
     1
281
     1
  3
ACAD_XREC_ROUNDTRIP
360
28B
  0
DICTIONARY
  5
288
330
3C
100
AcDbDictionary
280
     1
281
     1
  3
ACAD_XREC_ROUNDTRIP
360
289
  0
DICTIONARY
  5
28C
330
3E
100
AcDbDictionary
280
     1
281
     1
  3
ACAD_XREC_ROUNDTRIP
360
28D
  0
DICTIONARY
  5
270
330
2F
100
AcDbDictionary
280
     1
281
     1
  3
ACAD_XREC_ROUNDTRIP
360
271
  0
DICTIONARY
  5
274
330
31
100
AcDbDictionary
280
     1
281
     1
  3
ACAD_XREC_ROUNDTRIP
360
275
  0
DICTIONARY
  5
272
330
30
100
AcDbDictionary
280
     1
281
     1
  3
ACAD_XREC_ROUNDTRIP
360
273
  0
DICTIONARY
  5
276
330
32
100
AcDbDictionary
280
     1
281
     1
  3
ACAD_XREC_ROUNDTRIP
360
277
  0
DICTIONARY
  5
27E
330
36
100
AcDbDictionary
280
     1
281
     1
  3
ACAD_XREC_ROUNDTRIP
360
27F
  0
DICTIONARY
  5
286
330
3A
100
AcDbDictionary
280
     1
281
     1
  3
ACAD_XREC_ROUNDTRIP
360
287
  0
DICTIONARY
  5
27A
330
34
100
AcDbDictionary
280
     1
281
     1
  3
ACAD_XREC_ROUNDTRIP
360
27B
  0
DICTIONARY
  5
27C
330
35
100
AcDbDictionary
280
     1
281
     1
  3
ACAD_XREC_ROUNDTRIP
360
27D
  0
DICTIONARY
  5
284
330
39
100
AcDbDictionary
280
     1
281
     1
  3
ACAD_XREC_ROUNDTRIP
360
285
  0
DICTIONARY
  5
268
330
2B
100
AcDbDictionary
280
     1
281
     1
  3
ACAD_XREC_ROUNDTRIP
360
269
  0
DICTIONARY
  5
26A
330
2C
100
AcDbDictionary
280
     1
281
     1
  3
ACAD_XREC_ROUNDTRIP
360
26B
  0
DICTIONARY
  5
26C
330
2D
100
AcDbDictionary
280
     1
281
     1
  3
ACAD_XREC_ROUNDTRIP
360
26D
  0
DICTIONARY
  5
26E
330
2E
100
AcDbDictionary
280
     1
281
     1
  3
ACAD_XREC_ROUNDTRIP
360
26F
  0
DICTIONARY
  5
282
330
38
100
AcDbDictionary
280
     1
281
     1
  3
ACAD_XREC_ROUNDTRIP
360
283
  0
DICTIONARY
  5
278
330
33
100
AcDbDictionary
280
     1
281
     1
  3
ACAD_XREC_ROUNDTRIP
360
279
  0
DICTIONARY
  5
280
330
37
100
AcDbDictionary
280
     1
281
     1
  3
ACAD_XREC_ROUNDTRIP
360
281
  0
XRECORD
  5
28B
102
{ACAD_REACTORS
330
28A
102
}
330
28A
100
AcDbXrecord
280
     1
102
MATERIAL
148
0.0
149
0.0
149
0.0
 93
        0
 94
      127
282
     0
 72
     1
 77
     1
171
     1
175
     1
179
     1
273
     0
  0
XRECORD
  5
289
102
{ACAD_REACTORS
330
288
102
}
330
288
100
AcDbXrecord
280
     1
102
MATERIAL
148
0.0
149
0.0
149
0.0
 93
        0
 94
      127
282
     0
 72
     1
 77
     1
171
     1
175
     1
179
     1
273
     0
  0
XRECORD
  5
28D
102
{ACAD_REACTORS
330
28C
102
}
330
28C
100
AcDbXrecord
280
     1
102
MATERIAL
148
0.0
149
0.0
149
0.0
 93
        0
 94
      127
282
     0
 72
     1
 77
     1
171
     1
175
     1
179
     1
273
     0
  0
XRECORD
  5
271
102
{ACAD_REACTORS
330
270
102
}
330
270
100
AcDbXrecord
280
     1
102
RTVSPropertyOp0
 70
     1
102
RTVSPropertyOp1
 70
     1
102
RTVSPropertyOp2
 70
     1
102
RTVSPropertyOp3
 70
     1
102
RTVSPropertyOp4
 70
     1
102
RTVSPropertyOp5
 70
     1
102
RTVSPropertyOp6
 70
     1
102
RTVSPropertyOp7
 70
     1
102
RTVSPropertyOp8
 70
     1
102
RTVSPropertyOp9
 70
     1
102
RTVSPropertyOp10
 70
     1
102
RTVSPropertyOp11
 70
     1
102
RTVSPropertyOp12
 70
     1
102
RTVSPropertyOp13
 70
     1
102
RTVSPropertyOp14
 70
     1
102
RTVSPropertyOp15
 70
     1
102
RTVSPropertyOp16
 70
     1
102
RTVSPropertyOp17
 70
     1
102
RTVSPropertyOp18
 70
     1
102
RTVSPropertyOp19
 70
     1
102
RTVSPropertyOp20
 70
     1
102
RTVSPropertyOp21
 70
     1
102
RTVSPropertyOp22
 70
     1
102
RTVSPropertyOp23
 70
     1
102
RTVSPropertyOp24
 70
     1
102
RTVSPropertyOp25
 70
     1
102
RTVSPropertyOp26
 70
     1
102
RTVSPropertyOp27
 70
     1
102
RTVSPropertyOp28
 70
     1
102
RTVSPropertyOp29
 70
     1
102
RTVSPropertyOp30
 70
     1
102
RTVSPropertyOp31
 70
     1
102
RTVSPropertyOp32
 70
     1
  0
XRECORD
  5
275
102
{ACAD_REACTORS
330
274
102
}
330
274
100
AcDbXrecord
280
     1
102
RTVSPropertyOp0
 70
     1
102
RTVSPropertyOp1
 70
     1
102
RTVSPropertyOp2
 70
     1
102
RTVSPropertyOp3
 70
     1
102
RTVSPropertyOp4
 70
     1
102
RTVSPropertyOp5
 70
     1
102
RTVSPropertyOp6
 70
     1
102
RTVSPropertyOp7
 70
     1
102
RTVSPropertyOp8
 70
     1
102
RTVSPropertyOp9
 70
     1
102
RTVSPropertyOp10
 70
     1
102
RTVSPropertyOp11
 70
     1
102
RTVSPropertyOp12
 70
     1
102
RTVSPropertyOp13
 70
     1
102
RTVSPropertyOp14
 70
     1
102
RTVSPropertyOp15
 70
     1
102
RTVSPropertyOp16
 70
     1
102
RTVSPropertyOp17
 70
     1
102
RTVSPropertyOp18
 70
     1
102
RTVSPropertyOp19
 70
     1
102
RTVSPropertyOp20
 70
     1
102
RTVSPropertyOp21
 70
     1
102
RTVSPropertyOp22
 70
     1
102
RTVSPropertyOp23
 70
     1
102
RTVSPropertyOp24
 70
     1
102
RTVSPropertyOp25
 70
     1
102
RTVSPropertyOp26
 70
     1
102
RTVSPropertyOp27
 70
     1
102
RTVSPropertyOp28
 70
     1
102
RTVSPropertyOp29
 70
     1
102
RTVSPropertyOp30
 70
     1
102
RTVSPropertyOp31
 70
     1
102
RTVSPropertyOp32
 70
     1
  0
XRECORD
  5
273
102
{ACAD_REACTORS
330
272
102
}
330
272
100
AcDbXrecord
280
     1
102
RTVSPropertyOp0
 70
     1
102
RTVSPropertyOp1
 70
     1
102
RTVSPropertyOp2
 70
     1
102
RTVSPropertyOp3
 70
     1
102
RTVSPropertyOp4
 70
     1
102
RTVSPropertyOp5
 70
     1
102
RTVSPropertyOp6
 70
     1
102
RTVSPropertyOp7
 70
     1
102
RTVSPropertyOp8
 70
     1
102
RTVSPropertyOp9
 70
     1
102
RTVSPropertyOp10
 70
     1
102
RTVSPropertyOp11
 70
     1
102
RTVSPropertyOp12
 70
     1
102
RTVSPropertyOp13
 70
     1
102
RTVSPropertyOp14
 70
     1
102
RTVSPropertyOp15
 70
     1
102
RTVSPropertyOp16
 70
     1
102
RTVSPropertyOp17
 70
     1
102
RTVSPropertyOp18
 70
     1
102
RTVSPropertyOp19
 70
     1
102
RTVSPropertyOp20
 70
     1
102
RTVSPropertyOp21
 70
     1
102
RTVSPropertyOp22
 70
     1
102
RTVSPropertyOp23
 70
     1
102
RTVSPropertyOp24
 70
     1
102
RTVSPropertyOp25
 70
     1
102
RTVSPropertyOp26
 70
     1
102
RTVSPropertyOp27
 70
     1
102
RTVSPropertyOp28
 70
     1
102
RTVSPropertyOp29
 70
     1
102
RTVSPropertyOp30
 70
     1
102
RTVSPropertyOp31
 70
     1
102
RTVSPropertyOp32
 70
     1
  0
XRECORD
  5
277
102
{ACAD_REACTORS
330
276
102
}
330
276
100
AcDbXrecord
280
     1
102
RTVSPropertyOp0
 70
     1
102
RTVSPropertyOp1
 70
     1
102
RTVSPropertyOp2
 70
     1
102
RTVSPropertyOp3
 70
     1
102
RTVSPropertyOp4
 70
     1
102
RTVSPropertyOp5
 70
     1
102
RTVSPropertyOp6
 70
     1
102
RTVSPropertyOp7
 70
     1
102
RTVSPropertyOp8
 70
     1
102
RTVSPropertyOp9
 70
     1
102
RTVSPropertyOp10
 70
     1
102
RTVSPropertyOp11
 70
     1
102
RTVSPropertyOp12
 70
     1
102
RTVSPropertyOp13
 70
     1
102
RTVSPropertyOp14
 70
     1
102
RTVSPropertyOp15
 70
     1
102
RTVSPropertyOp16
 70
     1
102
RTVSPropertyOp17
 70
     1
102
RTVSPropertyOp18
 70
     1
102
RTVSPropertyOp19
 70
     1
102
RTVSPropertyOp20
 70
     1
102
RTVSPropertyOp21
 70
     1
102
RTVSPropertyOp22
 70
     1
102
RTVSPropertyOp23
 70
     1
102
RTVSPropertyOp24
 70
     1
102
RTVSPropertyOp25
 70
     1
102
RTVSPropertyOp26
 70
     1
102
RTVSPropertyOp27
 70
     1
102
RTVSPropertyOp28
 70
     1
102
RTVSPropertyOp29
 70
     1
102
RTVSPropertyOp30
 70
     1
102
RTVSPropertyOp31
 70
     1
102
RTVSPropertyOp32
 70
     1
  0
XRECORD
  5
27F
102
{ACAD_REACTORS
330
27E
102
}
330
27E
100
AcDbXrecord
280
     1
102
RTVSPropertyOp0
 70
     1
102
RTVSPropertyOp1
 70
     1
102
RTVSPropertyOp2
 70
     1
102
RTVSPropertyOp3
 70
     1
102
RTVSPropertyOp4
 70
     1
102
RTVSPropertyOp5
 70
     1
102
RTVSPropertyOp6
 70
     1
102
RTVSPropertyOp7
 70
     1
102
RTVSPropertyOp8
 70
     1
102
RTVSPropertyOp9
 70
     1
102
RTVSPropertyOp10
 70
     1
102
RTVSPropertyOp11
 70
     1
102
RTVSPropertyOp12
 70
     1
102
RTVSPropertyOp13
 70
     1
102
RTVSPropertyOp14
 70
     1
102
RTVSPropertyOp15
 70
     1
102
RTVSPropertyOp16
 70
     1
102
RTVSPropertyOp17
 70
     1
102
RTVSPropertyOp18
 70
     1
102
RTVSPropertyOp19
 70
     1
102
RTVSPropertyOp20
 70
     1
102
RTVSPropertyOp21
 70
     1
102
RTVSPropertyOp22
 70
     1
102
RTVSPropertyOp23
 70
     1
102
RTVSPropertyOp24
 70
     1
102
RTVSPropertyOp25
 70
     1
102
RTVSPropertyOp26
 70
     1
102
RTVSPropertyOp27
 70
     1
102
RTVSPropertyOp28
 70
     1
102
RTVSPropertyOp29
 70
     1
102
RTVSPropertyOp30
 70
     1
102
RTVSPropertyOp31
 70
     1
102
RTVSPropertyOp32
 70
     1
  0
XRECORD
  5
287
102
{ACAD_REACTORS
330
286
102
}
330
286
100
AcDbXrecord
280
     1
102
RTVSPropertyOp0
 70
     1
102
RTVSPropertyOp1
 70
     1
102
RTVSPropertyOp2
 70
     1
102
RTVSPropertyOp3
 70
     1
102
RTVSPropertyOp4
 70
     1
102
RTVSPropertyOp5
 70
     1
102
RTVSPropertyOp6
 70
     1
102
RTVSPropertyOp7
 70
     1
102
RTVSPropertyOp8
 70
     1
102
RTVSPropertyOp9
 70
     1
102
RTVSPropertyOp10
 70
     1
102
RTVSPropertyOp11
 70
     1
102
RTVSPropertyOp12
 70
     1
102
RTVSPropertyOp13
 70
     1
102
RTVSPropertyOp14
 70
     1
102
RTVSPropertyOp15
 70
     1
102
RTVSPropertyOp16
 70
     1
102
RTVSPropertyOp17
 70
     1
102
RTVSPropertyOp18
 70
     1
102
RTVSPropertyOp19
 70
     1
102
RTVSPropertyOp20
 70
     1
102
RTVSPropertyOp21
 70
     1
102
RTVSPropertyOp22
 70
     1
102
RTVSPropertyOp23
 70
     1
102
RTVSPropertyOp24
 70
     1
102
RTVSPropertyOp25
 70
     1
102
RTVSPropertyOp26
 70
     1
102
RTVSPropertyOp27
 70
     1
102
RTVSPropertyOp28
 70
     1
102
RTVSPropertyOp29
 70
     1
102
RTVSPropertyOp30
 70
     1
102
RTVSPropertyOp31
 70
     1
102
RTVSPropertyOp32
 70
     1
  0
XRECORD
  5
27B
102
{ACAD_REACTORS
330
27A
102
}
330
27A
100
AcDbXrecord
280
     1
102
RTVSPropertyOp0
 70
     1
102
RTVSPropertyOp1
 70
     1
102
RTVSPropertyOp2
 70
     1
102
RTVSPropertyOp3
 70
     1
102
RTVSPropertyOp4
 70
     1
102
RTVSPropertyOp5
 70
     1
102
RTVSPropertyOp6
 70
     1
102
RTVSPropertyOp7
 70
     1
102
RTVSPropertyOp8
 70
     1
102
RTVSPropertyOp9
 70
     1
102
RTVSPropertyOp10
 70
     1
102
RTVSPropertyOp11
 70
     1
102
RTVSPropertyOp12
 70
     1
102
RTVSPropertyOp13
 70
     1
102
RTVSPropertyOp14
 70
     1
102
RTVSPropertyOp15
 70
     1
102
RTVSPropertyOp16
 70
     1
102
RTVSPropertyOp17
 70
     1
102
RTVSPropertyOp18
 70
     1
102
RTVSPropertyOp19
 70
     1
102
RTVSPropertyOp20
 70
     1
102
RTVSPropertyOp21
 70
     1
102
RTVSPropertyOp22
 70
     1
102
RTVSPropertyOp23
 70
     1
102
RTVSPropertyOp24
 70
     1
102
RTVSPropertyOp25
 70
     1
102
RTVSPropertyOp26
 70
     1
102
RTVSPropertyOp27
 70
     1
102
RTVSPropertyOp28
 70
     1
102
RTVSPropertyOp29
 70
     1
102
RTVSPropertyOp30
 70
     1
102
RTVSPropertyOp31
 70
     1
102
RTVSPropertyOp32
 70
     1
  0
XRECORD
  5
27D
102
{ACAD_REACTORS
330
27C
102
}
330
27C
100
AcDbXrecord
280
     1
102
RTVSPropertyOp0
 70
     1
102
RTVSPropertyOp1
 70
     1
102
RTVSPropertyOp2
 70
     1
102
RTVSPropertyOp3
 70
     1
102
RTVSPropertyOp4
 70
     1
102
RTVSPropertyOp5
 70
     1
102
RTVSPropertyOp6
 70
     1
102
RTVSPropertyOp7
 70
     1
102
RTVSPropertyOp8
 70
     1
102
RTVSPropertyOp9
 70
     1
102
RTVSPropertyOp10
 70
     1
102
RTVSPropertyOp11
 70
     1
102
RTVSPropertyOp12
 70
     1
102
RTVSPropertyOp13
 70
     1
102
RTVSPropertyOp14
 70
     1
102
RTVSPropertyOp15
 70
     1
102
RTVSPropertyOp16
 70
     1
102
RTVSPropertyOp17
 70
     1
102
RTVSPropertyOp18
 70
     1
102
RTVSPropertyOp19
 70
     1
102
RTVSPropertyOp20
 70
     1
102
RTVSPropertyOp21
 70
     1
102
RTVSPropertyOp22
 70
     1
102
RTVSPropertyOp23
 70
     1
102
RTVSPropertyOp24
 70
     1
102
RTVSPropertyOp25
 70
     1
102
RTVSPropertyOp26
 70
     1
102
RTVSPropertyOp27
 70
     1
102
RTVSPropertyOp28
 70
     1
102
RTVSPropertyOp29
 70
     1
102
RTVSPropertyOp30
 70
     1
102
RTVSPropertyOp31
 70
     1
102
RTVSPropertyOp32
 70
     1
  0
XRECORD
  5
285
102
{ACAD_REACTORS
330
284
102
}
330
284
100
AcDbXrecord
280
     1
102
RTVSPropertyOp0
 70
     1
102
RTVSPropertyOp1
 70
     1
102
RTVSPropertyOp2
 70
     1
102
RTVSPropertyOp3
 70
     1
102
RTVSPropertyOp4
 70
     1
102
RTVSPropertyOp5
 70
     1
102
RTVSPropertyOp6
 70
     1
102
RTVSPropertyOp7
 70
     1
102
RTVSPropertyOp8
 70
     1
102
RTVSPropertyOp9
 70
     1
102
RTVSPropertyOp10
 70
     1
102
RTVSPropertyOp11
 70
     1
102
RTVSPropertyOp12
 70
     1
102
RTVSPropertyOp13
 70
     1
102
RTVSPropertyOp14
 70
     1
102
RTVSPropertyOp15
 70
     1
102
RTVSPropertyOp16
 70
     1
102
RTVSPropertyOp17
 70
     1
102
RTVSPropertyOp18
 70
     1
102
RTVSPropertyOp19
 70
     1
102
RTVSPropertyOp20
 70
     1
102
RTVSPropertyOp21
 70
     1
102
RTVSPropertyOp22
 70
     1
102
RTVSPropertyOp23
 70
     1
102
RTVSPropertyOp24
 70
     1
102
RTVSPropertyOp25
 70
     1
102
RTVSPropertyOp26
 70
     1
102
RTVSPropertyOp27
 70
     1
102
RTVSPropertyOp28
 70
     1
102
RTVSPropertyOp29
 70
     1
102
RTVSPropertyOp30
 70
     1
102
RTVSPropertyOp31
 70
     1
102
RTVSPropertyOp32
 70
     1
  0
XRECORD
  5
269
102
{ACAD_REACTORS
330
268
102
}
330
268
100
AcDbXrecord
280
     1
102
RTVSPropertyOp0
 70
     1
102
RTVSPropertyOp1
 70
     1
102
RTVSPropertyOp2
 70
     1
102
RTVSPropertyOp3
 70
     1
102
RTVSPropertyOp4
 70
     1
102
RTVSPropertyOp5
 70
     1
102
RTVSPropertyOp6
 70
     1
102
RTVSPropertyOp7
 70
     1
102
RTVSPropertyOp8
 70
     1
102
RTVSPropertyOp9
 70
     1
102
RTVSPropertyOp10
 70
     1
102
RTVSPropertyOp11
 70
     1
102
RTVSPropertyOp12
 70
     1
102
RTVSPropertyOp13
 70
     1
102
RTVSPropertyOp14
 70
     1
102
RTVSPropertyOp15
 70
     1
102
RTVSPropertyOp16
 70
     1
102
RTVSPropertyOp17
 70
     1
102
RTVSPropertyOp18
 70
     1
102
RTVSPropertyOp19
 70
     1
102
RTVSPropertyOp20
 70
     1
102
RTVSPropertyOp21
 70
     1
102
RTVSPropertyOp22
 70
     1
102
RTVSPropertyOp23
 70
     1
102
RTVSPropertyOp24
 70
     1
102
RTVSPropertyOp25
 70
     1
102
RTVSPropertyOp26
 70
     1
102
RTVSPropertyOp27
 70
     1
102
RTVSPropertyOp28
 70
     1
102
RTVSPropertyOp29
 70
     1
102
RTVSPropertyOp30
 70
     1
102
RTVSPropertyOp31
 70
     1
102
RTVSPropertyOp32
 70
     1
  0
XRECORD
  5
26B
102
{ACAD_REACTORS
330
26A
102
}
330
26A
100
AcDbXrecord
280
     1
102
RTVSPropertyOp0
 70
     1
102
RTVSPropertyOp1
 70
     1
102
RTVSPropertyOp2
 70
     1
102
RTVSPropertyOp3
 70
     1
102
RTVSPropertyOp4
 70
     1
102
RTVSPropertyOp5
 70
     1
102
RTVSPropertyOp6
 70
     1
102
RTVSPropertyOp7
 70
     1
102
RTVSPropertyOp8
 70
     1
102
RTVSPropertyOp9
 70
     1
102
RTVSPropertyOp10
 70
     1
102
RTVSPropertyOp11
 70
     1
102
RTVSPropertyOp12
 70
     1
102
RTVSPropertyOp13
 70
     1
102
RTVSPropertyOp14
 70
     1
102
RTVSPropertyOp15
 70
     1
102
RTVSPropertyOp16
 70
     1
102
RTVSPropertyOp17
 70
     1
102
RTVSPropertyOp18
 70
     1
102
RTVSPropertyOp19
 70
     1
102
RTVSPropertyOp20
 70
     1
102
RTVSPropertyOp21
 70
     1
102
RTVSPropertyOp22
 70
     1
102
RTVSPropertyOp23
 70
     1
102
RTVSPropertyOp24
 70
     1
102
RTVSPropertyOp25
 70
     1
102
RTVSPropertyOp26
 70
     1
102
RTVSPropertyOp27
 70
     1
102
RTVSPropertyOp28
 70
     1
102
RTVSPropertyOp29
 70
     1
102
RTVSPropertyOp30
 70
     1
102
RTVSPropertyOp31
 70
     1
102
RTVSPropertyOp32
 70
     1
  0
XRECORD
  5
26D
102
{ACAD_REACTORS
330
26C
102
}
330
26C
100
AcDbXrecord
280
     1
102
RTVSPropertyOp0
 70
     1
102
RTVSPropertyOp1
 70
     1
102
RTVSPropertyOp2
 70
     1
102
RTVSPropertyOp3
 70
     1
102
RTVSPropertyOp4
 70
     1
102
RTVSPropertyOp5
 70
     1
102
RTVSPropertyOp6
 70
     1
102
RTVSPropertyOp7
 70
     1
102
RTVSPropertyOp8
 70
     1
102
RTVSPropertyOp9
 70
     1
102
RTVSPropertyOp10
 70
     1
102
RTVSPropertyOp11
 70
     1
102
RTVSPropertyOp12
 70
     1
102
RTVSPropertyOp13
 70
     1
102
RTVSPropertyOp14
 70
     1
102
RTVSPropertyOp15
 70
     1
102
RTVSPropertyOp16
 70
     1
102
RTVSPropertyOp17
 70
     1
102
RTVSPropertyOp18
 70
     1
102
RTVSPropertyOp19
 70
     1
102
RTVSPropertyOp20
 70
     1
102
RTVSPropertyOp21
 70
     1
102
RTVSPropertyOp22
 70
     1
102
RTVSPropertyOp23
 70
     1
102
RTVSPropertyOp24
 70
     1
102
RTVSPropertyOp25
 70
     1
102
RTVSPropertyOp26
 70
     1
102
RTVSPropertyOp27
 70
     1
102
RTVSPropertyOp28
 70
     1
102
RTVSPropertyOp29
 70
     1
102
RTVSPropertyOp30
 70
     1
102
RTVSPropertyOp31
 70
     1
102
RTVSPropertyOp32
 70
     1
  0
XRECORD
  5
26F
102
{ACAD_REACTORS
330
26E
102
}
330
26E
100
AcDbXrecord
280
     1
102
RTVSPropertyOp0
 70
     1
102
RTVSPropertyOp1
 70
     1
102
RTVSPropertyOp2
 70
     1
102
RTVSPropertyOp3
 70
     1
102
RTVSPropertyOp4
 70
     1
102
RTVSPropertyOp5
 70
     1
102
RTVSPropertyOp6
 70
     1
102
RTVSPropertyOp7
 70
     1
102
RTVSPropertyOp8
 70
     1
102
RTVSPropertyOp9
 70
     1
102
RTVSPropertyOp10
 70
     1
102
RTVSPropertyOp11
 70
     1
102
RTVSPropertyOp12
 70
     1
102
RTVSPropertyOp13
 70
     1
102
RTVSPropertyOp14
 70
     1
102
RTVSPropertyOp15
 70
     1
102
RTVSPropertyOp16
 70
     1
102
RTVSPropertyOp17
 70
     1
102
RTVSPropertyOp18
 70
     1
102
RTVSPropertyOp19
 70
     1
102
RTVSPropertyOp20
 70
     1
102
RTVSPropertyOp21
 70
     1
102
RTVSPropertyOp22
 70
     1
102
RTVSPropertyOp23
 70
     1
102
RTVSPropertyOp24
 70
     1
102
RTVSPropertyOp25
 70
     1
102
RTVSPropertyOp26
 70
     1
102
RTVSPropertyOp27
 70
     1
102
RTVSPropertyOp28
 70
     1
102
RTVSPropertyOp29
 70
     1
102
RTVSPropertyOp30
 70
     1
102
RTVSPropertyOp31
 70
     1
102
RTVSPropertyOp32
 70
     1
  0
XRECORD
  5
283
102
{ACAD_REACTORS
330
282
102
}
330
282
100
AcDbXrecord
280
     1
102
RTVSPropertyOp0
 70
     1
102
RTVSPropertyOp1
 70
     1
102
RTVSPropertyOp2
 70
     1
102
RTVSPropertyOp3
 70
     1
102
RTVSPropertyOp4
 70
     1
102
RTVSPropertyOp5
 70
     1
102
RTVSPropertyOp6
 70
     1
102
RTVSPropertyOp7
 70
     1
102
RTVSPropertyOp8
 70
     1
102
RTVSPropertyOp9
 70
     1
102
RTVSPropertyOp10
 70
     1
102
RTVSPropertyOp11
 70
     1
102
RTVSPropertyOp12
 70
     1
102
RTVSPropertyOp13
 70
     1
102
RTVSPropertyOp14
 70
     1
102
RTVSPropertyOp15
 70
     1
102
RTVSPropertyOp16
 70
     1
102
RTVSPropertyOp17
 70
     1
102
RTVSPropertyOp18
 70
     1
102
RTVSPropertyOp19
 70
     1
102
RTVSPropertyOp20
 70
     1
102
RTVSPropertyOp21
 70
     1
102
RTVSPropertyOp22
 70
     1
102
RTVSPropertyOp23
 70
     1
102
RTVSPropertyOp24
 70
     1
102
RTVSPropertyOp25
 70
     1
102
RTVSPropertyOp26
 70
     1
102
RTVSPropertyOp27
 70
     1
102
RTVSPropertyOp28
 70
     1
102
RTVSPropertyOp29
 70
     1
102
RTVSPropertyOp30
 70
     1
102
RTVSPropertyOp31
 70
     1
102
RTVSPropertyOp32
 70
     1
  0
XRECORD
  5
279
102
{ACAD_REACTORS
330
278
102
}
330
278
100
AcDbXrecord
280
     1
102
RTVSPropertyOp0
 70
     1
102
RTVSPropertyOp1
 70
     1
102
RTVSPropertyOp2
 70
     1
102
RTVSPropertyOp3
 70
     1
102
RTVSPropertyOp4
 70
     1
102
RTVSPropertyOp5
 70
     1
102
RTVSPropertyOp6
 70
     1
102
RTVSPropertyOp7
 70
     1
102
RTVSPropertyOp8
 70
     1
102
RTVSPropertyOp9
 70
     1
102
RTVSPropertyOp10
 70
     1
102
RTVSPropertyOp11
 70
     1
102
RTVSPropertyOp12
 70
     1
102
RTVSPropertyOp13
 70
     1
102
RTVSPropertyOp14
 70
     1
102
RTVSPropertyOp15
 70
     1
102
RTVSPropertyOp16
 70
     1
102
RTVSPropertyOp17
 70
     1
102
RTVSPropertyOp18
 70
     1
102
RTVSPropertyOp19
 70
     1
102
RTVSPropertyOp20
 70
     1
102
RTVSPropertyOp21
 70
     1
102
RTVSPropertyOp22
 70
     1
102
RTVSPropertyOp23
 70
     1
102
RTVSPropertyOp24
 70
     1
102
RTVSPropertyOp25
 70
     1
102
RTVSPropertyOp26
 70
     1
102
RTVSPropertyOp27
 70
     1
102
RTVSPropertyOp28
 70
     1
102
RTVSPropertyOp29
 70
     1
102
RTVSPropertyOp30
 70
     1
102
RTVSPropertyOp31
 70
     1
102
RTVSPropertyOp32
 70
     1
  0
XRECORD
  5
281
102
{ACAD_REACTORS
330
280
102
}
330
280
100
AcDbXrecord
280
     1
102
RTVSPropertyOp0
 70
     1
102
RTVSPropertyOp1
 70
     1
102
RTVSPropertyOp2
 70
     1
102
RTVSPropertyOp3
 70
     1
102
RTVSPropertyOp4
 70
     1
102
RTVSPropertyOp5
 70
     1
102
RTVSPropertyOp6
 70
     1
102
RTVSPropertyOp7
 70
     1
102
RTVSPropertyOp8
 70
     1
102
RTVSPropertyOp9
 70
     1
102
RTVSPropertyOp10
 70
     1
102
RTVSPropertyOp11
 70
     1
102
RTVSPropertyOp12
 70
     1
102
RTVSPropertyOp13
 70
     1
102
RTVSPropertyOp14
 70
     1
102
RTVSPropertyOp15
 70
     1
102
RTVSPropertyOp16
 70
     1
102
RTVSPropertyOp17
 70
     1
102
RTVSPropertyOp18
 70
     1
102
RTVSPropertyOp19
 70
     1
102
RTVSPropertyOp20
 70
     1
102
RTVSPropertyOp21
 70
     1
102
RTVSPropertyOp22
 70
     1
102
RTVSPropertyOp23
 70
     1
102
RTVSPropertyOp24
 70
     1
102
RTVSPropertyOp25
 70
     1
102
RTVSPropertyOp26
 70
     1
102
RTVSPropertyOp27
 70
     1
102
RTVSPropertyOp28
 70
     1
102
RTVSPropertyOp29
 70
     1
102
RTVSPropertyOp30
 70
     1
102
RTVSPropertyOp31
 70
     1
102
RTVSPropertyOp32
 70
     1
  0
ENDSEC
  0
EOF
