  0
SECTION
  2
HEADER
  9
$ACADVER
  1
AC1018
  9
$ACADMAINTVER
 70
     0
  9
$DWGCODEPAGE
  3
ANSI_1252
  9
$INSBASE
 10
0.0
 20
0.0
 30
0.0
  9
$EXTMIN
 10
-457.7082196961705
 20
-314.224989179649
 30
0.0
  9
$EXTMAX
 10
-37.70821969617208
 20
-17.22498917964902
 30
0.0
  9
$LIMMIN
 10
0.0
 20
0.0
  9
$LIMMAX
 10
12.0
 20
9.0
  9
$ORTHOMODE
 70
     0
  9
$REGENMODE
 70
     1
  9
$FILLMODE
 70
     1
  9
$QTEXTMODE
 70
     0
  9
$MIRRTEXT
 70
     1
  9
$LTSCALE
 40
1.0
  9
$ATTMODE
 70
     1
  9
$TEXTSIZE
 40
0.2
  9
$TRACEWID
 40
0.05
  9
$TEXTSTYLE
  7
Standard
  9
$CLAYER
  8
0
  9
$CELTYPE
  6
ByLayer
  9
$CECOLOR
 62
   256
  9
$CELTSCALE
 40
1.0
  9
$DISPSILH
 70
     0
  9
$DIMSCALE
 40
1.0
  9
$DIMASZ
 40
0.18
  9
$DIMEXO
 40
0.0625
  9
$DIMDLI
 40
0.38
  9
$DIMRND
 40
0.0
  9
$DIMDLE
 40
0.0
  9
$DIMEXE
 40
0.18
  9
$DIMTP
 40
0.0
  9
$DIMTM
 40
0.0
  9
$DIMTXT
 40
0.18
  9
$DIMCEN
 40
0.09
  9
$DIMTSZ
 40
0.0
  9
$DIMTOL
 70
     0
  9
$DIMLIM
 70
     0
  9
$DIMTIH
 70
     1
  9
$DIMTOH
 70
     1
  9
$DIMSE1
 70
     0
  9
$DIMSE2
 70
     0
  9
$DIMTAD
 70
     0
  9
$DIMZIN
 70
     0
  9
$DIMBLK
  1

  9
$DIMASO
 70
     1
  9
$DIMSHO
 70
     1
  9
$DIMPOST
  1

  9
$DIMAPOST
  1

  9
$DIMALT
 70
     0
  9
$DIMALTD
 70
     2
  9
$DIMALTF
 40
25.4
  9
$DIMLFAC
 40
1.0
  9
$DIMTOFL
 70
     0
  9
$DIMTVP
 40
0.0
  9
$DIMTIX
 70
     0
  9
$DIMSOXD
 70
     0
  9
$DIMSAH
 70
     0
  9
$DIMBLK1
  1

  9
$DIMBLK2
  1

  9
$DIMSTYLE
  2
Standard
  9
$DIMCLRD
 70
     0
  9
$DIMCLRE
 70
     0
  9
$DIMCLRT
 70
     0
  9
$DIMTFAC
 40
1.0
  9
$DIMGAP
 40
0.09
  9
$DIMJUST
 70
     0
  9
$DIMSD1
 70
     0
  9
$DIMSD2
 70
     0
  9
$DIMTOLJ
 70
     1
  9
$DIMTZIN
 70
     0
  9
$DIMALTZ
 70
     0
  9
$DIMALTTZ
 70
     0
  9
$DIMUPT
 70
     0
  9
$DIMDEC
 70
     4
  9
$DIMTDEC
 70
     4
  9
$DIMALTU
 70
     2
  9
$DIMALTTD
 70
     2
  9
$DIMTXSTY
  7
Standard
  9
$DIMAUNIT
 70
     0
  9
$DIMADEC
 70
     0
  9
$DIMALTRND
 40
0.0
  9
$DIMAZIN
 70
     0
  9
$DIMDSEP
 70
    46
  9
$DIMATFIT
 70
     3
  9
$DIMFRAC
 70
     0
  9
$DIMLDRBLK
  1

  9
$DIMLUNIT
 70
     2
  9
$DIMLWD
 70
    -2
  9
$DIMLWE
 70
    -2
  9
$DIMTMOVE
 70
     0
  9
$LUNITS
 70
     2
  9
$LUPREC
 70
     4
  9
$SKETCHINC
 40
0.1
  9
$FILLETRAD
 40
0.5
  9
$AUNITS
 70
     0
  9
$AUPREC
 70
     0
  9
$MENU
  1
.
  9
$ELEVATION
 40
0.0
  9
$PELEVATION
 40
0.0
  9
$THICKNESS
 40
0.0
  9
$LIMCHECK
 70
     0
  9
$CHAMFERA
 40
0.5
  9
$CHAMFERB
 40
0.5
  9
$CHAMFERC
 40
1.0
  9
$CHAMFERD
 40
0.0
  9
$SKPOLY
 70
     0
  9
$TDCREATE
 40
2458515.381108379
  9
$TDUCREATE
 40
2458515.339441713
  9
$TDUPDATE
 40
2458515.381108912
  9
$TDUUPDATE
 40
2458515.339442245
  9
$TDINDWG
 40
0.0000000116
  9
$TDUSRTIMER
 40
0.0000000116
  9
$USRTIMER
 70
     1
  9
$ANGBASE
 50
0.0
  9
$ANGDIR
 70
     0
  9
$PDMODE
 70
     0
  9
$PDSIZE
 40
0.0
  9
$PLINEWID
 40
0.0
  9
$SPLFRAME
 70
     0
  9
$SPLINETYPE
 70
     6
  9
$SPLINESEGS
 70
     8
  9
$HANDSEED
  5
3BD
  9
$SURFTAB1
 70
     6
  9
$SURFTAB2
 70
     6
  9
$SURFTYPE
 70
     6
  9
$SURFU
 70
     6
  9
$SURFV
 70
     6
  9
$UCSBASE
  2

  9
$UCSNAME
  2

  9
$UCSORG
 10
0.0
 20
0.0
 30
0.0
  9
$UCSXDIR
 10
1.0
 20
0.0
 30
0.0
  9
$UCSYDIR
 10
0.0
 20
1.0
 30
0.0
  9
$UCSORTHOREF
  2

  9
$UCSORTHOVIEW
 70
     0
  9
$UCSORGTOP
 10
0.0
 20
0.0
 30
0.0
  9
$UCSORGBOTTOM
 10
0.0
 20
0.0
 30
0.0
  9
$UCSORGLEFT
 10
0.0
 20
0.0
 30
0.0
  9
$UCSORGRIGHT
 10
0.0
 20
0.0
 30
0.0
  9
$UCSORGFRONT
 10
0.0
 20
0.0
 30
0.0
  9
$UCSORGBACK
 10
0.0
 20
0.0
 30
0.0
  9
$PUCSBASE
  2

  9
$PUCSNAME
  2

  9
$PUCSORG
 10
0.0
 20
0.0
 30
0.0
  9
$PUCSXDIR
 10
1.0
 20
0.0
 30
0.0
  9
$PUCSYDIR
 10
0.0
 20
1.0
 30
0.0
  9
$PUCSORTHOREF
  2

  9
$PUCSORTHOVIEW
 70
     0
  9
$PUCSORGTOP
 10
0.0
 20
0.0
 30
0.0
  9
$PUCSORGBOTTOM
 10
0.0
 20
0.0
 30
0.0
  9
$PUCSORGLEFT
 10
0.0
 20
0.0
 30
0.0
  9
$PUCSORGRIGHT
 10
0.0
 20
0.0
 30
0.0
  9
$PUCSORGFRONT
 10
0.0
 20
0.0
 30
0.0
  9
$PUCSORGBACK
 10
0.0
 20
0.0
 30
0.0
  9
$USERI1
 70
     0
  9
$USERI2
 70
     0
  9
$USERI3
 70
     0
  9
$USERI4
 70
     0
  9
$USERI5
 70
     0
  9
$USERR1
 40
18.1
  9
$USERR2
 40
0.0
  9
$USERR3
 40
0.0
  9
$USERR4
 40
0.0
  9
$USERR5
 40
0.0
  9
$WORLDVIEW
 70
     1
  9
$SHADEDGE
 70
     3
  9
$SHADEDIF
 70
    70
  9
$TILEMODE
 70
     1
  9
$MAXACTVP
 70
    64
  9
$PINSBASE
 10
0.0
 20
0.0
 30
0.0
  9
$PLIMCHECK
 70
     0
  9
$PEXTMIN
 10
1.00000000000000E+20
 20
1.00000000000000E+20
 30
1.00000000000000E+20
  9
$PEXTMAX
 10
-1.00000000000000E+20
 20
-1.00000000000000E+20
 30
-1.00000000000000E+20
  9
$PLIMMIN
 10
0.0
 20
0.0
  9
$PLIMMAX
 10
12.0
 20
9.0
  9
$UNITMODE
 70
     0
  9
$VISRETAIN
 70
     1
  9
$PLINEGEN
 70
     0
  9
$PSLTSCALE
 70
     1
  9
$TREEDEPTH
 70
  3020
  9
$CMLSTYLE
  2
Standard
  9
$CMLJUST
 70
     0
  9
$CMLSCALE
 40
1.0
  9
$PROXYGRAPHICS
 70
     1
  9
$MEASUREMENT
 70
     1
  9
$CELWEIGHT
370
    -1
  9
$ENDCAPS
280
     0
  9
$JOINSTYLE
280
     0
  9
$LWDISPLAY
290
     0
  9
$INSUNITS
 70
     4
  9
$HYPERLINKBASE
  1

  9
$STYLESHEET
  1

  9
$XEDIT
290
     1
  9
$CEPSNTYPE
380
     0
  9
$PSTYLEMODE
290
     1
  9
$FINGERPRINTGUID
  2
{5477431C-D5C3-46BE-A317-8CC05EE96444}
  9
$VERSIONGUID
  2
{FAEB1C32-E019-11D5-929B-00C0DF256EC4}
  9
$EXTNAMES
290
     1
  9
$PSVPSCALE
 40
0.0
  9
$OLESTARTUP
290
     0
  9
$SORTENTS
280
   127
  9
$INDEXCTL
280
     0
  9
$HIDETEXT
280
     1
  9
$XCLIPFRAME
290
     0
  9
$HALOGAP
280
     0
  9
$OBSCOLOR
 70
   257
  9
$OBSLTYPE
280
     0
  9
$INTERSECTIONDISPLAY
280
     0
  9
$INTERSECTIONCOLOR
 70
   257
  9
$DIMASSOC
280
     2
  9
$PROJECTNAME
  1

  0
ENDSEC
  0
SECTION
  2
CLASSES
  0
CLASS
  1
ACDBDICTIONARYWDFLT
  2
AcDbDictionaryWithDefault
  3
ObjectDBX Classes
 90
        0
 91
        4
280
     0
281
     0
  0
CLASS
  1
VISUALSTYLE
  2
AcDbVisualStyle
  3
ObjectDBX Classes
 90
     4095
 91
        4
280
     0
281
     0
  0
CLASS
  1
MATERIAL
  2
AcDbMaterial
  3
ObjectDBX Classes
 90
     1153
 91
        4
280
     0
281
     0
  0
ENDSEC
  0
SECTION
  2
TABLES
  0
TABLE
  2
VPORT
  5
8
330
0
100
AcDbSymbolTable
 70
     1
  0
VPORT
  5
29
330
8
100
AcDbSymbolTableRecord
100
AcDbViewportTableRecord
  2
*Active
 70
     0
 10
0.0
 20
0.0
 11
1.0
 21
1.0
 12
-247.7082196961713
 22
-165.724989179649
 13
0.0
 23
0.0
 14
0.5
 24
0.5
 15
0.5
 25
0.5
 16
0.0
 26
0.0
 36
1.0
 17
0.0
 27
0.0
 37
0.0
 40
326.7
 41
1.60267857142857
 42
50.0
 43
0.0
 44
0.0
 50
0.0
 51
0.0
 71
     0
 72
   100
 73
     1
 74
     3
 75
     0
 76
     0
 77
     0
 78
     0
281
     0
 65
     1
110
0.0
120
0.0
130
0.0
111
1.0
121
0.0
131
0.0
112
0.0
122
1.0
132
0.0
 79
     0
146
0.0
  0
ENDTAB
  0
TABLE
  2
LTYPE
  5
5
330
0
100
AcDbSymbolTable
 70
     8
  0
LTYPE
  5
14
330
5
100
AcDbSymbolTableRecord
100
AcDbLinetypeTableRecord
  2
ByBlock
 70
     0
  3

 72
    65
 73
     0
 40
0.0
  0
LTYPE
  5
15
330
5
100
AcDbSymbolTableRecord
100
AcDbLinetypeTableRecord
  2
ByLayer
 70
     0
  3

 72
    65
 73
     0
 40
0.0
  0
LTYPE
  5
16
330
5
100
AcDbSymbolTableRecord
100
AcDbLinetypeTableRecord
  2
Continuous
 70
     0
  3
Solid line
 72
    65
 73
     0
 40
0.0
  0
LTYPE
  5
3F
330
5
100
AcDbSymbolTableRecord
100
AcDbLinetypeTableRecord
  2
DASHED
 70
     0
  3
Dashed
 72
    65
 73
     2
 40
15.0
 49
7.0
 74
     0
 49
-8.0
 74
     0
  0
LTYPE
  5
40
330
5
100
AcDbSymbolTableRecord
100
AcDbLinetypeTableRecord
  2
DOTTED
 70
     0
  3
Dotted
 72
    65
 73
     2
 40
1.0
 49
0.0
 74
     0
 49
-1.0
 74
     0
  0
LTYPE
  5
41
330
5
100
AcDbSymbolTableRecord
100
AcDbLinetypeTableRecord
  2
DOT_CENTER
 70
     0
  3
Dot_Center
 72
    65
 73
     4
 40
14.0
 49
12.0
 74
     0
 49
-1.0
 74
     0
 49
0.0
 74
     0
 49
-1.0
 74
     0
  0
LTYPE
  5
42
330
5
100
AcDbSymbolTableRecord
100
AcDbLinetypeTableRecord
  2
LONG_DASHED
 70
     0
  3
Long_Dashed
 72
    65
 73
     2
 40
15.0
 49
10.0
 74
     0
 49
-5.0
 74
     0
  0
LTYPE
  5
43
330
5
100
AcDbSymbolTableRecord
100
AcDbLinetypeTableRecord
  2
DASH_CENTER
 70
     0
  3
Dash_Center
 72
    65
 73
     4
 40
14.0
 49
11.0
 74
     0
 49
-1.0
 74
     0
 49
1.0
 74
     0
 49
-1.0
 74
     0
  0
LTYPE
  5
44
330
5
100
AcDbSymbolTableRecord
100
AcDbLinetypeTableRecord
  2
PHANTOM
 70
     0
  3
Phantom
 72
    65
 73
     6
 40
13.0
 49
10.0
 74
     0
 49
-1.0
 74
     0
 49
0.0
 74
     0
 49
-1.0
 74
     0
 49
0.0
 74
     0
 49
-1.0
 74
     0
  0
LTYPE
  5
45
330
5
100
AcDbSymbolTableRecord
100
AcDbLinetypeTableRecord
  2
CENTER_DASH_DASH
 70
     0
  3
Center_Dash_Dash
 72
    65
 73
     6
 40
14.0
 49
9.0
 74
     0
 49
-1.0
 74
     0
 49
1.0
 74
     0
 49
-1.0
 74
     0
 49
1.0
 74
     0
 49
-1.0
 74
     0
  0
ENDTAB
  0
TABLE
  2
LAYER
  5
2
330
0
100
AcDbSymbolTable
 70
     2
  0
LAYER
  5
10
330
2
100
AcDbSymbolTableRecord
100
AcDbLayerTableRecord
  2
0
 70
     0
 62
     7
  6
Continuous
370
    -3
390
F
  0
LAYER
  5
46
330
2
100
AcDbSymbolTableRecord
100
AcDbLayerTableRecord
  2
1
 70
     0
 62
     7
  6
Continuous
370
    -3
390
F
  0
ENDTAB
  0
TABLE
  2
STYLE
  5
3
330
0
100
AcDbSymbolTable
 70
     5
  0
STYLE
  5
11
330
3
100
AcDbSymbolTableRecord
100
AcDbTextStyleTableRecord
  2
Standard
 70
     0
 40
0.0
 41
1.0
 50
0.0
 71
     0
 42
0.2
  3
txt
  4

  0
STYLE
  5
E2
330
3
100
AcDbSymbolTableRecord
100
AcDbTextStyleTableRecord
  2
CONVERTER_11
 70
     0
 40
0.0
 41
0.9
 50
0.0
 71
     0
 42
0.2
  3
txt.shx
  4

  0
STYLE
  5
361
330
3
100
AcDbSymbolTableRecord
100
AcDbTextStyleTableRecord
  2
CONVERTER_12
 70
     0
 40
0.0
 41
0.81
 50
0.0
 71
     0
 42
0.2
  3
txt.shx
  4

  0
STYLE
  5
367
330
3
100
AcDbSymbolTableRecord
100
AcDbTextStyleTableRecord
  2
CONVERTER_13
 70
     0
 40
0.0
 41
0.855
 50
0.0
 71
     0
 42
0.2
  3
txt.shx
  4

  0
STYLE
  5
36A
330
3
100
AcDbSymbolTableRecord
100
AcDbTextStyleTableRecord
  2
CONVERTER_14
 70
     0
 40
0.0
 41
0.72
 50
0.0
 71
     0
 42
0.2
  3
txt.shx
  4

  0
ENDTAB
  0
TABLE
  2
VIEW
  5
6
330
0
100
AcDbSymbolTable
 70
     0
  0
ENDTAB
  0
TABLE
  2
UCS
  5
7
330
0
100
AcDbSymbolTable
 70
     0
  0
ENDTAB
  0
TABLE
  2
APPID
  5
9
330
0
100
AcDbSymbolTable
 70
     1
  0
APPID
  5
12
330
9
100
AcDbSymbolTableRecord
100
AcDbRegAppTableRecord
  2
ACAD
 70
     0
  0
ENDTAB
  0
TABLE
  2
DIMSTYLE
  5
A
330
0
100
AcDbSymbolTable
 70
     4
100
AcDbDimStyleTable
  0
DIMSTYLE
105
27
330
A
100
AcDbSymbolTableRecord
100
AcDbDimStyleTableRecord
  2
Standard
 70
     0
178
     0
340
11
  0
DIMSTYLE
105
1BD
102
{ACAD_REACTORS
330
1BE
102
}
330
A
100
AcDbSymbolTableRecord
100
AcDbDimStyleTableRecord
  2
ME10_DIM_10
 70
     0
 41
7.0
 42
0.0
 44
3.0
 73
     0
 74
     0
 77
     1
 78
     8
140
7.0
147
3.0
172
     1
173
     1
174
     1
175
     1
176
     2
177
     2
178
     3
340
E2
  0
DIMSTYLE
105
1C8
102
{ACAD_REACTORS
330
1C9
102
}
330
A
100
AcDbSymbolTableRecord
100
AcDbDimStyleTableRecord
  2
ME10_DIM_11
 70
     0
  3
 {\Fgdt;n}<>
 41
7.0
 42
0.0
 44
3.0
 73
     0
 74
     0
 77
     1
 78
     8
140
7.0
147
3.0
172
     1
173
     1
174
     1
175
     1
176
     2
177
     2
178
     3
340
E2
  0
DIMSTYLE
105
1D3
102
{ACAD_REACTORS
330
1D4
102
}
330
A
100
AcDbSymbolTableRecord
100
AcDbDimStyleTableRecord
  2
ME10_DIM_12
 70
     0
 41
7.0
 42
0.0
 44
3.0
 73
     0
 74
     0
 77
     1
 78
     8
140
7.0
147
3.0
172
     1
173
     1
174
     1
175
     1
176
     2
177
     2
178
     3
340
E2
  0
ENDTAB
  0
TABLE
  2
BLOCK_RECORD
  5
1
330
0
100
AcDbSymbolTable
 70
    20
  0
BLOCK_RECORD
  5
1F
330
1
100
AcDbSymbolTableRecord
100
AcDbBlockTableRecord
  2
*Model_Space
340
22
  0
BLOCK_RECORD
  5
1B
330
1
100
AcDbSymbolTableRecord
100
AcDbBlockTableRecord
  2
*Paper_Space
340
1E
  0
BLOCK_RECORD
  5
23
330
1
100
AcDbSymbolTableRecord
100
AcDbBlockTableRecord
  2
*Paper_Space0
340
26
  0
BLOCK_RECORD
  5
47
330
1
100
AcDbSymbolTableRecord
100
AcDbBlockTableRecord
  2
WP_GR_HF_IP66_PG36_BK-select__1
340
0
102
{BLKREFS
331
4B
102
}
  0
BLOCK_RECORD
  5
4A
330
1
100
AcDbSymbolTableRecord
100
AcDbBlockTableRecord
  2
Allg1
340
0
102
{BLKREFS
331
7D
102
}
  0
BLOCK_RECORD
  5
4E
330
1
100
AcDbSymbolTableRecord
100
AcDbBlockTableRecord
  2
WP_GR_HF_IP66_PG36_BK-select__2
340
0
102
{BLKREFS
331
52
102
}
  0
BLOCK_RECORD
  5
51
330
1
100
AcDbSymbolTableRecord
100
AcDbBlockTableRecord
  2
SA_Links1
340
0
102
{BLKREFS
331
7E
102
}
  0
BLOCK_RECORD
  5
55
330
1
100
AcDbSymbolTableRecord
100
AcDbBlockTableRecord
  2
WP_GR_HF_IP66_PG36_BK-select__3
340
0
102
{BLKREFS
331
59
102
}
  0
BLOCK_RECORD
  5
58
330
1
100
AcDbSymbolTableRecord
100
AcDbBlockTableRecord
  2
Drfsicht1
340
0
102
{BLKREFS
331
7F
102
}
  0
BLOCK_RECORD
  5
5C
330
1
100
AcDbSymbolTableRecord
100
AcDbBlockTableRecord
  2
WP_GR_HF_IP66_PG36_BK-select__4
340
0
102
{BLKREFS
331
60
102
}
  0
BLOCK_RECORD
  5
5F
330
1
100
AcDbSymbolTableRecord
100
AcDbBlockTableRecord
  2
Vordans1
340
0
102
{BLKREFS
331
80
102
}
  0
BLOCK_RECORD
  5
63
330
1
100
AcDbSymbolTableRecord
100
AcDbBlockTableRecord
  2
WP_GR_HF_IP66_PG36_BK-select__5
340
0
102
{BLKREFS
331
67
102
}
  0
BLOCK_RECORD
  5
66
330
1
100
AcDbSymbolTableRecord
100
AcDbBlockTableRecord
  2
SA_Rechts1
340
0
102
{BLKREFS
331
81
102
}
  0
BLOCK_RECORD
  5
6A
330
1
100
AcDbSymbolTableRecord
100
AcDbBlockTableRecord
  2
WP_GR_HF_IP66_PG36_BK-select__6
340
0
102
{BLKREFS
331
6E
102
}
  0
BLOCK_RECORD
  5
6D
330
1
100
AcDbSymbolTableRecord
100
AcDbBlockTableRecord
  2
Rückansicht1
340
0
102
{BLKREFS
331
82
102
}
  0
BLOCK_RECORD
  5
71
330
1
100
AcDbSymbolTableRecord
100
AcDbBlockTableRecord
  2
_rahmen
340
0
102
{BLKREFS
331
78
102
}
  0
BLOCK_RECORD
  5
74
330
1
100
AcDbSymbolTableRecord
100
AcDbBlockTableRecord
  2
_punkt
340
0
102
{BLKREFS
331
79
102
}
  0
BLOCK_RECORD
  5
77
330
1
100
AcDbSymbolTableRecord
100
AcDbBlockTableRecord
  2
A3I_CS
340
0
102
{BLKREFS
331
83
102
}
  0
BLOCK_RECORD
  5
7C
330
1
100
AcDbSymbolTableRecord
100
AcDbBlockTableRecord
  2
1
340
0
102
{BLKREFS
331
86
102
}
  0
BLOCK_RECORD
  5
1B4
330
1
100
AcDbSymbolTableRecord
100
AcDbBlockTableRecord
  2
*D17
340
0
  0
BLOCK_RECORD
  5
1BF
330
1
100
AcDbSymbolTableRecord
100
AcDbBlockTableRecord
  2
*D18
340
0
  0
BLOCK_RECORD
  5
1CA
330
1
100
AcDbSymbolTableRecord
100
AcDbBlockTableRecord
  2
*D19
340
0
  0
ENDTAB
  0
ENDSEC
  0
SECTION
  2
BLOCKS
  0
BLOCK
  5
20
330
1F
100
AcDbEntity
  8
0
100
AcDbBlockBegin
  2
*Model_Space
 70
     0
 10
0.0
 20
0.0
 30
0.0
  3
*Model_Space
  1

  0
ENDBLK
  5
21
330
1F
100
AcDbEntity
  8
0
100
AcDbBlockEnd
  0
BLOCK
  5
1C
330
1B
100
AcDbEntity
 67
     1
  8
0
100
AcDbBlockBegin
  2
*Paper_Space
 70
     0
 10
0.0
 20
0.0
 30
0.0
  3
*Paper_Space
  1

  0
ENDBLK
  5
1D
330
1B
100
AcDbEntity
 67
     1
  8
0
100
AcDbBlockEnd
  0
BLOCK
  5
24
330
23
100
AcDbEntity
  8
0
100
AcDbBlockBegin
  2
*Paper_Space0
 70
     0
 10
0.0
 20
0.0
 30
0.0
  3
*Paper_Space0
  1

  0
ENDBLK
  5
25
330
23
100
AcDbEntity
  8
0
100
AcDbBlockEnd
  0
BLOCK
  5
48
330
47
100
AcDbEntity
  8
0
100
AcDbBlockBegin
  2
WP_GR_HF_IP66_PG36_BK-select__1
 70
     0
 10
-251.1350570127656
 20
-514.9557282390232
 30
0.0
  3
WP_GR_HF_IP66_PG36_BK-select__1
  1

  0
LINE
  5
87
330
47
100
AcDbEntity
  8
0
  6
Continuous
 62
     7
100
AcDbLine
 10
-223.1918646643417
 20
-495.4799919936177
 30
0.0
 11
-242.2444235475994
 21
-489.9799919936177
 31
0.0
  0
LINE
  5
88
330
47
100
AcDbEntity
  8
0
  6
Continuous
 62
     7
100
AcDbLine
 10
-216.0758176124382
 20
-497.2383626160896
 30
0.0
 11
-224.7080995862919
 21
-494.746437455427
 31
0.0
  0
LINE
  5
89
330
47
100
AcDbEntity
  8
0
  6
Continuous
 62
     7
100
AcDbLine
 10
-216.9725052593078
 20
-496.4554613293847
 30
0.0
 11
-225.615780568741
 21
-493.9603626660941
 31
0.0
  0
LINE
  5
8A
330
47
100
AcDbEntity
  8
0
  6
Continuous
 62
     7
100
AcDbLine
 10
-188.9866347158375
 20
-505.364599682846
 30
0.0
 11
-214.5343841274784
 21
-497.989599682846
 31
0.0
  0
LINE
  5
8B
330
47
100
AcDbEntity
  8
0
  6
Continuous
 62
     7
100
AcDbLine
 10
-154.4573819637245
 20
-514.9557282390232
 30
0.0
 11
-165.1804587143593
 21
-513.5191083611685
 31
0.0
  0
LINE
  5
8C
330
47
100
AcDbEntity
  8
0
  6
Continuous
 62
     7
100
AcDbLine
 10
-242.6774362494916
 20
-489.8549919936177
 30
0.0
 11
-245.2755124608449
 21
-489.1049919936177
 31
0.0
  0
LINE
  5
8D
330
47
100
AcDbEntity
  8
0
  6
Continuous
 62
     7
100
AcDbLine
 10
-234.1971231131867
 20
-485.4049965149344
 30
0.0
 11
-243.2903898529233
 21
-482.7799965149344
 31
0.0
  0
LINE
  5
8E
330
47
100
AcDbEntity
  8
0
  6
Continuous
 62
     7
100
AcDbLine
 10
-243.0320219836872
 20
-482.5562433766543
 30
0.0
 11
-234.2486680072364
 21
-485.0917792680001
 31
0.0
  0
LINE
  5
8F
330
47
100
AcDbEntity
  8
0
  6
Continuous
 62
     7
100
AcDbLine
 10
-243.0320219836872
 20
-482.5562433766543
 30
0.0
 11
-243.2903898529233
 21
-482.7799965149344
 31
0.0
  0
LINE
  5
90
330
47
100
AcDbEntity
  8
0
  6
Continuous
 62
     7
100
AcDbLine
 10
-234.1971231131867
 20
-474.1466662657366
 30
0.0
 11
-243.2903898529233
 21
-471.5216662657366
 31
0.0
  0
LINE
  5
91
330
47
100
AcDbEntity
  8
0
  6
Continuous
 62
     7
100
AcDbLine
 10
-224.8599272380126
 20
-449.8879197817005
 30
0.0
 11
-233.9531939777492
 21
-447.2629197817005
 31
0.0
  0
LINE
  5
92
330
47
100
AcDbEntity
  8
0
  6
Continuous
 62
     7
100
AcDbLine
 10
-228.9649085088088
 20
-480.6329229967795
 30
0.0
 11
-225.615780568741
 21
-463.7279788304446
 31
0.0
  0
LINE
  5
93
330
47
100
AcDbEntity
  8
0
  6
Continuous
 62
     7
100
AcDbLine
 10
-228.2552311476356
 20
-439.8950080064304
 30
0.0
 11
-230.853307358989
 21
-439.1450080064304
 31
0.0
  0
LINE
  5
94
330
47
100
AcDbEntity
  8
0
  6
Continuous
 62
     7
100
AcDbLine
 10
-220.309830625501
 20
-485.3547840258976
 30
0.0
 11
-228.9649085088088
 21
-482.8562782530051
 31
0.0
  0
LINE
  5
95
330
47
100
AcDbEntity
  8
0
  6
Continuous
 62
     7
100
AcDbLine
 10
-141.2073819637246
 20
-463.7308916388796
 30
0.0
 11
-148.1355851940001
 21
-461.7308916388796
 31
0.0
  0
LINE
  5
96
330
47
100
AcDbEntity
  8
0
  6
Continuous
 62
     7
100
AcDbLine
 10
-139.943920339042
 20
-466.4270866492456
 30
0.0
 11
-139.943920339042
 21
-467.9903700396782
 31
0.0
  0
LINE
  5
97
330
47
100
AcDbEntity
  8
0
  6
Continuous
 62
     7
100
AcDbLine
 10
-220.3095005332484
 20
-483.1315240590974
 30
0.0
 11
-228.9649085088088
 21
-480.6329229967795
 31
0.0
  0
LINE
  5
98
330
47
100
AcDbEntity
  8
0
  6
Continuous
 62
     7
100
AcDbLine
 10
-151.9304587143594
 20
-462.2942717610249
 30
0.0
 11
-141.2073819637246
 21
-463.7308916388796
 31
0.0
  0
LINE
  5
99
330
47
100
AcDbEntity
  8
0
  6
Continuous
 62
     7
100
AcDbLine
 10
-135.4178627841978
 20
-469.2969303135068
 30
0.0
 11
-146.6761930333955
 21
-466.0469303135068
 31
0.0
  0
LINE
  5
9A
330
47
100
AcDbEntity
  8
0
  6
Continuous
 62
     7
100
AcDbLine
 10
-225.615780568741
 20
-493.9603626660941
 30
0.0
 11
-228.9649085088088
 21
-482.8562782530051
 31
0.0
  0
LINE
  5
9B
330
47
100
AcDbEntity
  8
0
  6
Continuous
 62
     7
100
AcDbLine
 10
-148.4533173954906
 20
-514.4530696865413
 30
0.0
 11
-159.7116476446884
 21
-511.2030696865413
 31
0.0
  0
LINE
  5
9C
330
47
100
AcDbEntity
  8
0
  6
Continuous
 62
     7
100
AcDbLine
 10
-173.3721235693174
 20
-508.8229133508024
 30
0.0
 11
-173.3721235693174
 21
-487.3767598495332
 31
0.0
  0
LINE
  5
9D
330
47
100
AcDbEntity
  8
0
  6
Continuous
 62
     7
100
AcDbLine
 10
-166.4439203390419
 20
-510.8229133508024
 30
0.0
 11
-166.4439203390419
 21
-489.3767598495332
 31
0.0
  0
LINE
  5
9E
330
47
100
AcDbEntity
  8
0
  6
Continuous
 62
     7
100
AcDbLine
 10
-173.3721235693174
 20
-507.2596299603698
 30
0.0
 11
-188.2904859695748
 21
-502.9530696865413
 31
0.0
  0
LINE
  5
9F
330
47
100
AcDbEntity
  8
0
  6
Continuous
 62
     7
100
AcDbLine
 10
-166.4439203390419
 20
-510.8229133508024
 30
0.0
 11
-173.3721235693174
 21
-508.8229133508024
 31
0.0
  0
LINE
  5
A0
330
47
100
AcDbEntity
  8
0
  6
Continuous
 62
     7
100
AcDbLine
 10
-165.1804587143593
 20
-513.5191083611685
 30
0.0
 11
-172.1086619446348
 21
-511.5191083611685
 31
0.0
  0
LINE
  5
A1
330
47
100
AcDbEntity
  8
0
  6
Continuous
 62
     7
100
AcDbLine
 10
-201.8112852088265
 20
-447.8245728775534
 30
0.0
 11
-207.2534246405356
 21
-446.2535625446211
 31
0.0
  0
LINE
  5
A2
330
47
100
AcDbEntity
  8
0
  6
Continuous
 62
     7
100
AcDbLine
 10
-215.3389347355707
 20
-447.454959936231
 30
0.0
 11
-207.2534246405356
 21
-446.2535625446211
 31
0.0
  0
LINE
  5
A3
330
47
100
AcDbEntity
  8
0
  6
Continuous
 62
     7
100
AcDbLine
 10
-216.0521357317048
 20
-463.8685159932165
 30
0.0
 11
-224.7080995862919
 21
-461.3697544624458
 31
0.0
  0
LINE
  5
A4
330
47
100
AcDbEntity
  8
0
  6
Continuous
 62
     7
100
AcDbLine
 10
-207.9693238114495
 20
-451.0646201991469
 30
0.0
 11
-216.6225894912568
 21
-448.5666375643439
 31
0.0
  0
LINE
  5
A5
330
47
100
AcDbEntity
  8
0
  6
Continuous
 62
     7
100
AcDbLine
 10
-206.6867868684691
 20
-449.9526198863008
 30
0.0
 11
-215.3389347355707
 21
-447.454959936231
 31
0.0
  0
LINE
  5
A6
330
47
100
AcDbEntity
  8
0
  6
Continuous
 62
     7
100
AcDbLine
 10
-174.5588826120193
 20
-455.3854003172021
 30
0.0
 11
-200.1066320236603
 21
-448.0104003172021
 31
0.0
  0
LINE
  5
A7
330
47
100
AcDbEntity
  8
0
  6
Continuous
 62
     7
100
AcDbLine
 10
-227.4531939777492
 20
-441.6337546571017
 30
0.0
 11
-227.4531939777492
 21
-442.0812609336619
 31
0.0
  0
LINE
  5
A8
330
47
100
AcDbEntity
  8
0
  6
Continuous
 62
     7
100
AcDbLine
 10
-218.3599272380126
 20
-444.2587546571016
 30
0.0
 11
-227.4531939777492
 21
-441.6337546571017
 31
0.0
  0
LINE
  5
A9
330
47
100
AcDbEntity
  8
0
  6
Continuous
 62
     7
100
AcDbLine
 10
-227.4531939777492
 20
-442.0812609336619
 30
0.0
 11
-218.9560217091637
 21
-444.5341832819711
 31
0.0
  0
LINE
  5
AA
330
47
100
AcDbEntity
  8
0
  6
Continuous
 62
     7
100
AcDbLine
 10
-224.7080995862919
 20
-461.3697544624458
 30
0.0
 11
-216.6225894912568
 21
-448.5666375643439
 31
0.0
  0
LINE
  5
AB
330
47
100
AcDbEntity
  8
0
  6
Continuous
 62
     7
100
AcDbLine
 10
-216.9597327496434
 20
-466.2267645996818
 30
0.0
 11
-225.615780568741
 21
-463.7279788304446
 31
0.0
  0
LINE
  5
AC
330
47
100
AcDbEntity
  8
0
  6
Continuous
 62
     7
100
AcDbLine
 10
-208.7696595624858
 20
-445.5200080064304
 30
0.0
 11
-227.8222184457434
 21
-440.0200080064304
 31
0.0
  0
LINE
  5
AD
330
47
100
AcDbEntity
  8
0
  6
Continuous
 62
     7
100
AcDbLine
 10
-158.8586619446349
 20
-460.2942717610249
 30
0.0
 11
-148.1355851940001
 21
-461.7308916388796
 31
0.0
  0
LINE
  5
AE
330
47
100
AcDbEntity
  8
0
  6
Continuous
 62
     7
100
AcDbLine
 10
-151.9304587143594
 20
-462.2942717610249
 30
0.0
 11
-158.8586619446349
 21
-460.2942717610249
 31
0.0
  0
LINE
  5
AF
330
47
100
AcDbEntity
  8
0
  6
Continuous
 62
     7
100
AcDbLine
 10
-160.8498358107771
 20
-461.9553520770473
 30
0.0
 11
-175.255031358282
 21
-457.7969303135068
 31
0.0
  0
LINE
  5
B0
330
47
100
AcDbEntity
  8
0
  6
Continuous
 62
     7
100
AcDbLine
 10
-154.4573819637245
 20
-464.4826514883886
 30
0.0
 11
-161.385585194
 21
-462.4826514883886
 31
0.0
  0
LINE
  5
B1
330
47
100
AcDbEntity
  8
0
  6
Continuous
 62
     7
100
AcDbLine
 10
-166.4439203390419
 20
-489.3767598495332
 30
0.0
 11
-173.3721235693174
 21
-487.3767598495332
 31
0.0
  0
LINE
  5
B2
330
47
100
AcDbEntity
  8
0
  6
Continuous
 62
     7
100
AcDbLine
 10
-165.1804587143593
 20
-484.4921851118033
 30
0.0
 11
-172.1086619446348
 21
-482.4921851118033
 31
0.0
  0
LINE
  5
B3
330
47
100
AcDbEntity
  8
0
  6
Continuous
 62
     7
100
AcDbLine
 10
-165.1804587143593
 20
-484.4921851118033
 30
0.0
 11
-154.4573819637245
 21
-464.4826514883886
 31
0.0
  0
LINE
  5
B4
330
47
100
AcDbEntity
  8
0
  6
Continuous
 62
     7
100
AcDbLine
 10
-172.1086619446348
 20
-482.4921851118033
 30
0.0
 11
-161.385585194
 21
-462.4826514883886
 31
0.0
  0
SPLINE
  5
B5
330
47
100
AcDbEntity
  8
0
  6
Continuous
 62
     7
100
AcDbSpline
210
0.0
220
0.0
230
1.0
 70
     8
 71
     3
 72
     9
 73
     5
 74
     3
 42
0.000000001
 43
0.0000000001
 44
0.00000001
 40
0.0
 40
0.0
 40
0.0
 40
0.0
 40
0.8354156991823076
 40
1.690224610930762
 40
1.690224610930762
 40
1.690224610930762
 40
1.690224610930762
 10
-223.1918646643417
 20
-495.4799919936177
 30
0.0
 10
-223.4568400609707
 20
-495.3905664539544
 30
0.0
 10
-223.9929419447838
 20
-495.2096394455361
 30
0.0
 10
-224.4678972031742
 20
-494.9020146612074
 30
0.0
 10
-224.7080995862919
 20
-494.746437455427
 30
0.0
 11
-223.1918646643417
 21
-495.4799919936177
 31
0.0
 11
-223.971852972508
 21
-495.1807636009896
 31
0.0
 11
-224.7080995862919
 21
-494.746437455427
 31
0.0
  0
SPLINE
  5
B6
330
47
100
AcDbEntity
  8
0
  6
Continuous
 62
     7
100
AcDbSpline
210
0.0
220
0.0
230
1.0
 70
     8
 71
     3
 72
     9
 73
     5
 74
     3
 42
0.000000001
 43
0.0000000001
 44
0.00000001
 40
0.0
 40
0.0
 40
0.0
 40
0.0
 40
0.8548089117483901
 40
1.690224610930667
 40
1.690224610930667
 40
1.690224610930667
 40
1.690224610930667
 10
-221.5179570441473
 20
-495.6673522831572
 30
0.0
 10
-221.8041183298349
 20
-495.6709813859993
 30
0.0
 10
-222.3699487042036
 20
-495.6781572377072
 30
0.0
 10
-222.9199963815968
 20
-495.5455398753539
 30
0.0
 10
-223.1918646643417
 20
-495.4799919936177
 30
0.0
 11
-221.5179570441473
 21
-495.6673522831572
 31
0.0
 11
-222.3724041638628
 21
-495.6424847011028
 31
0.0
 11
-223.1918646643417
 21
-495.4799919936177
 31
0.0
  0
SPLINE
  5
B7
330
47
100
AcDbEntity
  8
0
  6
Continuous
 62
     7
100
AcDbSpline
210
0.0
220
0.0
230
1.0
 70
     8
 71
     3
 72
    13
 73
     9
 74
     7
 42
0.000000001
 43
0.0000000001
 44
0.00000001
 40
0.0
 40
0.0
 40
0.0
 40
0.0
 40
3.52669404820784
 40
6.695838903790185
 40
9.475202942366984
 40
11.86860102255583
 40
13.93410259640643
 40
15.80338280136501
 40
15.80338280136501
 40
15.80338280136501
 40
15.80338280136501
 10
-194.7777586639284
 20
-491.6376603762407
 30
0.0
 10
-194.7477618956769
 20
-492.8140364817808
 30
0.0
 10
-194.6908095365822
 20
-495.047523363266
 30
0.0
 10
-194.181307539537
 20
-498.1737596448455
 30
0.0
 10
-193.3660384302476
 20
-500.8484585552555
 30
0.0
 10
-192.2254091496868
 20
-502.9828793438826
 30
0.0
 10
-190.7900802620314
 20
-504.6071830874383
 30
0.0
 10
-189.5674598488016
 20
-505.1206629660143
 30
0.0
 10
-188.9866347158375
 20
-505.364599682846
 30
0.0
 11
-194.7777586639284
 21
-491.6376603762407
 31
0.0
 11
-194.6036854734757
 21
-495.1600557781737
 31
0.0
 11
-194.0861266846655
 21
-498.286653292231
 31
0.0
 11
-193.2389366376334
 21
-500.9337523618659
 31
0.0
 11
-192.0847954980862
 21
-503.0304909266589
 31
0.0
 11
-190.6545991256612
 21
-504.5207375903568
 31
0.0
 11
-188.9866347158375
 21
-505.364599682846
 31
0.0
  0
SPLINE
  5
B8
330
47
100
AcDbEntity
  8
0
  6
Continuous
 62
     7
100
AcDbSpline
210
0.0
220
0.0
230
1.0
 70
     8
 71
     3
 72
    13
 73
     9
 74
     7
 42
0.000000001
 43
0.0000000001
 44
0.00000001
 40
0.0
 40
0.0
 40
0.0
 40
0.0
 40
3.186363327817691
 40
6.049681440333504
 40
8.560833109151584
 40
10.72326505378072
 40
12.58944294562184
 40
14.27833509494209
 40
14.27833509494209
 40
14.27833509494209
 40
14.27833509494209
 10
-193.5227586639284
 20
-490.5507984944912
 30
0.0
 10
-193.4956566241701
 20
-491.6136527231756
 30
0.0
 10
-193.4442002438647
 20
-493.6316051154092
 30
0.0
 10
-192.9838658754475
 20
-496.4561553893977
 30
0.0
 10
-192.2472713320349
 20
-498.872742255618
 30
0.0
 10
-191.2167143116945
 20
-500.8011885657164
 30
0.0
 10
-189.9198965925692
 20
-502.2687448107755
 30
0.0
 10
-188.8152606954767
 20
-502.7326731911977
 30
0.0
 10
-188.2904859695748
 20
-502.9530696865413
 30
0.0
 11
-193.5227586639284
 21
-490.5507984944912
 31
0.0
 11
-193.3654837705936
 21
-493.7332780002745
 31
0.0
 11
-192.8978701013494
 21
-496.5581546469623
 31
0.0
 11
-192.1324350338656
 21
-498.9498050943448
 31
0.0
 11
-191.089670067339
 21
-500.8442055661877
 31
0.0
 11
-189.7974895693772
 21
-502.1906414215088
 31
0.0
 11
-188.2904859695748
 21
-502.9530696865413
 31
0.0
  0
SPLINE
  5
B9
330
47
100
AcDbEntity
  8
0
  6
Continuous
 62
     7
100
AcDbSpline
210
0.0
220
0.0
230
1.0
 70
     8
 71
     3
 72
     9
 73
     5
 74
     3
 42
0.000000001
 43
0.0000000001
 44
0.00000001
 40
0.0
 40
0.0
 40
0.0
 40
0.0
 40
1.258867197209398
 40
2.594633072712201
 40
2.594633072712201
 40
2.594633072712201
 40
2.594633072712201
 10
-154.4573819637245
 20
-514.9557282390232
 30
0.0
 10
-154.1211905159416
 20
-514.7041018729485
 30
0.0
 10
-153.4282711711784
 20
-514.1854783736056
 30
0.0
 10
-152.7931700735293
 20
-513.59740114289
 30
0.0
 10
-152.4662080975823
 20
-513.2946479230008
 30
0.0
 11
-154.4573819637245
 21
-514.9557282390232
 31
0.0
 11
-153.4624180877616
 21
-514.1844996693918
 31
0.0
 11
-152.4662080975823
 21
-513.2946479230008
 31
0.0
  0
SPLINE
  5
BA
330
47
100
AcDbEntity
  8
0
  6
Continuous
 62
     7
100
AcDbSpline
210
0.0
220
0.0
230
1.0
 70
     8
 71
     3
 72
    13
 73
     9
 74
     7
 42
0.000000001
 43
0.0000000001
 44
0.00000001
 40
0.0
 40
0.0
 40
0.0
 40
0.0
 40
3.525338148923511
 40
6.693264571266647
 40
9.471560034665067
 40
11.86403793104681
 40
13.9287453866424
 40
15.79730691408855
 40
15.79730691408855
 40
15.79730691408855
 40
15.79730691408855
 10
-248.4663336985636
 20
-476.1333302492217
 30
0.0
 10
-248.4363484630949
 20
-477.3092540763678
 30
0.0
 10
-248.3794180003299
 20
-479.5418822547086
 30
0.0
 10
-247.8701118902516
 20
-482.666916600003
 30
0.0
 10
-247.0551562254477
 20
-485.3405871755759
 30
0.0
 10
-245.9149654797882
 20
-487.4741873487503
 30
0.0
 10
-244.4801884294576
 20
-489.0978666002803
 30
0.0
 10
-243.258038074061
 20
-489.6111490625288
 30
0.0
 10
-242.6774362494916
 20
-489.8549919936177
 30
0.0
 11
-248.4663336985636
 21
-476.1333302492217
 31
0.0
 11
-248.2923274335974
 21
-479.6543714045566
 31
0.0
 11
-247.7749676293274
 21
-482.7797668434451
 31
0.0
 11
-246.9281032993452
 21
-485.4258481894854
 31
0.0
 11
-245.7744058895711
 21
-487.5217806264179
 31
0.0
 11
-244.3447593811878
 21
-489.011454338688
 31
0.0
 11
-242.6774362494916
 21
-489.8549919936177
 31
0.0
  0
SPLINE
  5
BB
330
47
100
AcDbEntity
  8
0
  6
Continuous
 62
     7
100
AcDbSpline
210
0.0
220
0.0
230
1.0
 70
     8
 71
     3
 72
    13
 73
     9
 74
     7
 42
0.000000001
 43
0.0000000001
 44
0.00000001
 40
0.0
 40
0.0
 40
0.0
 40
0.0
 40
3.525338148923513
 40
6.693264571266654
 40
9.471560034665057
 40
11.8640379310468
 40
13.92874538664239
 40
15.79730691408852
 40
15.79730691408852
 40
15.79730691408852
 40
15.79730691408852
 10
-248.0333209966714
 20
-476.2583302492217
 30
0.0
 10
-248.0033357612027
 20
-477.4342540763678
 30
0.0
 10
-247.9464052984377
 20
-479.6668822547086
 30
0.0
 10
-247.4370991883594
 20
-482.791916600003
 30
0.0
 10
-246.6221435235555
 20
-485.4655871755757
 30
0.0
 10
-245.481952777896
 20
-487.5991873487503
 30
0.0
 10
-244.0471757275655
 20
-489.2228666002804
 30
0.0
 10
-242.8250253721688
 20
-489.7361490625288
 30
0.0
 10
-242.2444235475994
 20
-489.9799919936177
 30
0.0
 11
-248.0333209966714
 21
-476.2583302492217
 31
0.0
 11
-247.8593147317052
 21
-479.7793714045566
 31
0.0
 11
-247.3419549274351
 21
-482.9047668434451
 31
0.0
 11
-246.495090597453
 21
-485.5508481894854
 31
0.0
 11
-245.3413931876788
 21
-487.6467806264179
 31
0.0
 11
-243.9117466792956
 21
-489.136454338688
 31
0.0
 11
-242.2444235475994
 21
-489.9799919936177
 31
0.0
  0
SPLINE
  5
BC
330
47
100
AcDbEntity
  8
0
  6
Continuous
 62
     7
100
AcDbSpline
210
0.0
220
0.0
230
1.0
 70
     8
 71
     3
 72
    11
 73
     7
 74
     5
 42
0.000000001
 43
0.0000000001
 44
0.00000001
 40
0.0
 40
0.0
 40
0.0
 40
0.0
 40
2.476502139852897
 40
5.154958869976524
 40
8.009459479848704
 40
11.00841976379822
 40
11.00841976379822
 40
11.00841976379822
 40
11.00841976379822
 10
-243.0320219836872
 20
-482.5562433766543
 30
0.0
 10
-243.1502629189035
 20
-481.7386783709101
 30
0.0
 10
-243.3963871238604
 20
-480.0368773044331
 30
0.0
 10
-243.481132784226
 20
-477.3640162265694
 30
0.0
 10
-243.3983349855753
 20
-474.5190472945068
 30
0.0
 10
-243.1811289425845
 20
-472.5791951284372
 30
0.0
 10
-243.0698456603419
 20
-471.5853318902142
 30
0.0
 11
-243.0320219836872
 21
-482.5562433766543
 31
0.0
 11
-243.3425287512543
 21
-480.0992841993402
 31
0.0
 11
-243.4529680120887
 21
-477.4231052759365
 31
0.0
 11
-243.3615914610033
 21
-474.5700675857145
 31
0.0
 11
-243.0698456603419
 21
-471.5853318902142
 31
0.0
  0
SPLINE
  5
BD
330
47
100
AcDbEntity
  8
0
  6
Continuous
 62
     7
100
AcDbSpline
210
0.0
220
0.0
230
1.0
 70
     8
 71
     3
 72
    11
 73
     7
 74
     5
 42
0.000000001
 43
0.0000000001
 44
0.00000001
 40
0.0
 40
0.0
 40
0.0
 40
0.0
 40
2.543068629568165
 40
5.292485227335337
 40
8.221246847847564
 40
11.2965649635594
 40
11.2965649635594
 40
11.2965649635594
 40
11.2965649635594
 10
-243.2903898529233
 20
-482.7799965149344
 30
0.0
 10
-243.4085439566319
 20
-481.9399942142231
 30
0.0
 10
-243.6544393298788
 20
-480.1918307080094
 30
0.0
 10
-243.7318207533764
 20
-477.4480371107801
 30
0.0
 10
-243.6370842034846
 20
-474.5294867834576
 30
0.0
 10
-243.4078200481615
 20
-472.5404568368208
 30
0.0
 10
-243.2903898529233
 20
-471.5216662657366
 30
0.0
 11
-243.2903898529233
 21
-482.7799965149344
 31
0.0
 11
-243.599579985825
 21
-480.2557937656546
 31
0.0
 11
-243.7031939777492
 21
-477.5083302492218
 31
0.0
 11
-243.599579985825
 21
-474.5814020344012
 31
0.0
 11
-243.2903898529233
 21
-471.5216662657366
 31
0.0
  0
SPLINE
  5
BE
330
47
100
AcDbEntity
  8
0
  6
Continuous
 62
     7
100
AcDbSpline
210
0.0
220
0.0
230
1.0
 70
     8
 71
     3
 72
    11
 73
     7
 74
     5
 42
0.000000001
 43
0.0000000001
 44
0.00000001
 40
0.0
 40
0.0
 40
0.0
 40
0.0
 40
3.514441617605923
 40
7.088298040265213
 40
10.66215446292454
 40
14.17659608053043
 40
14.17659608053043
 40
14.17659608053043
 40
14.17659608053043
 10
-243.4811502545106
 20
-455.2016389765129
 30
0.0
 10
-243.9254660301858
 20
-456.2860762557719
 30
0.0
 10
-244.8216091263868
 20
-458.4732842099601
 30
0.0
 10
-245.8967745474033
 20
-461.8639910841021
 30
0.0
 10
-246.7940581387238
 20
-465.3060480193735
 30
0.0
 10
-247.2014309968221
 20
-467.6343517878315
 30
0.0
 10
-247.403410099035
 20
-468.7887456389198
 30
0.0
 11
-243.4811502545106
 21
-455.2016389765129
 31
0.0
 11
-244.7695136769485
 21
-458.4714126043504
 31
0.0
 11
-245.8669623777866
 21
-461.8725971161787
 31
0.0
 11
-246.7509748248937
 21
-465.3353953672802
 31
0.0
 11
-247.403410099035
 21
-468.7887456389198
 31
0.0
  0
SPLINE
  5
BF
330
47
100
AcDbEntity
  8
0
  6
Continuous
 62
     7
100
AcDbSpline
210
0.0
220
0.0
230
1.0
 70
     8
 71
     3
 72
    19
 73
    15
 74
    13
 42
0.000000001
 43
0.0000000001
 44
0.00000001
 40
0.0
 40
0.0
 40
0.0
 40
0.0
 40
2.057701128634694
 40
4.370920765239763
 40
7.098862203072629
 40
10.29861457202235
 40
13.9569049266742
 40
18.01559190190447
 40
22.38735207294298
 40
26.96590027013085
 40
31.63370233667741
 40
36.26861447208694
 40
40.75017539930839
 40
44.96602132832924
 40
44.96602132832924
 40
44.96602132832924
 40
44.96602132832924
 10
-228.2552311476356
 20
-439.8950080064304
 30
0.0
 10
-228.9420600571593
 20
-439.7902153003679
 30
0.0
 10
-230.4010060132707
 20
-439.5676170801842
 30
0.0
 10
-232.7069231053525
 20
-440.3698365085804
 30
0.0
 10
-235.0202335980111
 20
-441.8615246798184
 30
0.0
 10
-237.3358157048381
 20
-444.0921092826149
 30
0.0
 10
-239.5860991229162
 20
-446.9607258007085
 30
0.0
 10
-241.7089416495883
 20
-450.3946660355389
 30
0.0
 10
-243.6373483099452
 20
-454.2846240084052
 30
0.0
 10
-245.3095230276795
 20
-458.5098641482136
 30
0.0
 10
-246.6752759562386
 20
-462.9362335551916
 30
0.0
 10
-247.6786080172943
 20
-467.4232391314044
 30
0.0
 10
-248.3329896693704
 20
-471.8279135398558
 30
0.0
 10
-248.4228002929719
 20
-474.7277220876206
 30
0.0
 10
-248.4663336985636
 20
-476.1333302492217
 30
0.0
 11
-228.2552311476356
 21
-439.8950080064304
 31
0.0
 11
-230.3070426734053
 21
-439.7394334630509
 31
0.0
 11
-232.5253792489908
 21
-440.3951528453891
 31
0.0
 11
-234.8386405456605
 21
-441.8410043780822
 31
0.0
 11
-237.1721617255287
 21
-444.0303179968834
 31
0.0
 11
-239.4506241642794
 21
-446.8924321160539
 31
0.0
 11
-241.6004867304799
 21
-450.3349647458481
 31
0.0
 11
-243.5523582105803
 21
-454.246803791203
 31
0.0
 11
-245.2432392506938
 21
-458.5016862691725
 31
0.0
 11
-246.6185526584228
 21
-462.9622791852519
 31
0.0
 11
-247.6339088920377
 21
-467.4846084770097
 31
0.0
 11
-248.2565342278045
 21
-471.9227078491737
 31
0.0
 11
-248.4663336985636
 21
-476.1333302492217
 31
0.0
  0
SPLINE
  5
C0
330
47
100
AcDbEntity
  8
0
  6
Continuous
 62
     7
100
AcDbSpline
210
0.0
220
0.0
230
1.0
 70
     8
 71
     3
 72
    19
 73
    15
 74
    13
 42
0.000000001
 43
0.0000000001
 44
0.00000001
 40
0.0
 40
0.0
 40
0.0
 40
0.0
 40
2.057701128634694
 40
4.370920765239763
 40
7.098862203072629
 40
10.29861457202233
 40
13.95690492667418
 40
18.01559190190446
 40
22.38735207294295
 40
26.96590027013082
 40
31.6337023366774
 40
36.26861447208692
 40
40.75017539930838
 40
44.96602132832922
 40
44.96602132832922
 40
44.96602132832922
 40
44.96602132832922
 10
-227.8222184457434
 20
-440.0200080064304
 30
0.0
 10
-228.5090473552671
 20
-439.9152153003679
 30
0.0
 10
-229.9679933113785
 20
-439.6926170801843
 30
0.0
 10
-232.2739104034603
 20
-440.4948365085803
 30
0.0
 10
-234.5872208961189
 20
-441.9865246798186
 30
0.0
 10
-236.9028030029459
 20
-444.2171092826148
 30
0.0
 10
-239.153086421024
 20
-447.0857258007085
 30
0.0
 10
-241.2759289476961
 20
-450.519666035539
 30
0.0
 10
-243.204335608053
 20
-454.4096240084052
 30
0.0
 10
-244.8765103257873
 20
-458.6348641482136
 30
0.0
 10
-246.2422632543463
 20
-463.0612335551915
 30
0.0
 10
-247.2455953154023
 20
-467.5482391314046
 30
0.0
 10
-247.8999769674782
 20
-471.9529135398559
 30
0.0
 10
-247.9897875910798
 20
-474.8527220876205
 30
0.0
 10
-248.0333209966714
 20
-476.2583302492217
 30
0.0
 11
-227.8222184457434
 21
-440.0200080064304
 31
0.0
 11
-229.8740299715131
 21
-439.8644334630509
 31
0.0
 11
-232.0923665470986
 21
-440.5201528453891
 31
0.0
 11
-234.4056278437683
 21
-441.9660043780822
 31
0.0
 11
-236.7391490236365
 21
-444.1553179968834
 31
0.0
 11
-239.0176114623871
 21
-447.0174321160539
 31
0.0
 11
-241.1674740285877
 21
-450.4599647458481
 31
0.0
 11
-243.119345508688
 21
-454.371803791203
 31
0.0
 11
-244.8102265488015
 21
-458.6266862691725
 31
0.0
 11
-246.1855399565306
 21
-463.0872791852519
 31
0.0
 11
-247.2008961901455
 21
-467.6096084770097
 31
0.0
 11
-247.8235215259123
 21
-472.0477078491737
 31
0.0
 11
-248.0333209966714
 21
-476.2583302492217
 31
0.0
  0
SPLINE
  5
C1
330
47
100
AcDbEntity
  8
0
  6
Continuous
 62
     7
100
AcDbSpline
210
0.0
220
0.0
230
1.0
 70
     8
 71
     3
 72
    11
 73
     7
 74
     5
 42
0.000000001
 43
0.0000000001
 44
0.00000001
 40
0.0
 40
0.0
 40
0.0
 40
0.0
 40
2.515775138429422
 40
4.804231159459198
 40
6.858173212493554
 40
8.685395443916006
 40
8.685395443916006
 40
8.685395443916006
 40
8.685395443916006
 10
-233.9531939777492
 20
-447.2629197817005
 30
0.0
 10
-233.4296174758025
 20
-446.6067061087714
 30
0.0
 10
-232.4297735174004
 20
-445.3535725903198
 30
0.0
 10
-230.7879124796192
 20
-443.7579471018635
 30
0.0
 10
-229.164710130175
 20
-442.4757582374853
 30
0.0
 10
-228.0010406184418
 20
-441.9032752356542
 30
0.0
 10
-227.4531939777492
 20
-441.6337546571017
 30
0.0
 11
-233.9531939777492
 21
-447.2629197817005
 31
0.0
 11
-232.3412497745125
 21
-445.3314021328297
 31
0.0
 11
-230.7031939777492
 21
-443.7333395016286
 31
0.0
 11
-229.0651381809859
 21
-442.4942062672031
 31
0.0
 11
-227.4531939777492
 21
-441.6337546571017
 31
0.0
  0
SPLINE
  5
C2
330
47
100
AcDbEntity
  8
0
  6
Continuous
 62
     7
100
AcDbSpline
210
0.0
220
0.0
230
1.0
 70
     8
 71
     3
 72
    11
 73
     7
 74
     5
 42
0.000000001
 43
0.0000000001
 44
0.00000001
 40
0.0
 40
0.0
 40
0.0
 40
0.0
 40
2.378875452814888
 40
4.544426855813844
 40
6.491301616810011
 40
8.227816412193683
 40
8.227816412193683
 40
8.227816412193683
 40
8.227816412193683
 10
-233.6717911371768
 20
-447.3441537845781
 30
0.0
 10
-233.1692450328125
 20
-446.7296882807451
 30
0.0
 10
-232.2092182956686
 20
-445.5558590618326
 30
0.0
 10
-230.6376221286455
 20
-444.0638345240417
 30
0.0
 10
-229.0852827477303
 20
-442.8659701104988
 30
0.0
 10
-227.9761084288109
 20
-442.3326784834341
 30
0.0
 10
-227.4531939777492
 20
-442.0812609336619
 30
0.0
 11
-233.6717911371768
 21
-447.3441537845781
 31
0.0
 11
-232.1257307280428
 21
-445.5361865207864
 31
0.0
 11
-230.5581117752108
 21
-444.0421370893115
 31
0.0
 11
-228.9926915447465
 21
-442.8846480633688
 31
0.0
 11
-227.4531939777492
 21
-442.0812609336619
 31
0.0
  0
SPLINE
  5
C3
330
47
100
AcDbEntity
  8
0
  6
Continuous
 62
     7
100
AcDbSpline
210
0.0
220
0.0
230
1.0
 70
     8
 71
     3
 72
     9
 73
     5
 74
     3
 42
0.000000001
 43
0.0000000001
 44
0.00000001
 40
0.0
 40
0.0
 40
0.0
 40
0.0
 40
0.1127355414622577
 40
0.2254221872556158
 40
0.2254221872556158
 40
0.2254221872556158
 40
0.2254221872556158
 10
-228.0401694731642
 20
-439.9625125125397
 30
0.0
 10
-228.0758258787971
 20
-439.9506381269254
 30
0.0
 10
-228.1471232312625
 20
-439.9268945249014
 30
0.0
 10
-228.2192003849005
 20
-439.9056353024586
 30
0.0
 10
-228.2552311476356
 20
-439.8950080064304
 30
0.0
 11
-228.0401694731642
 21
-439.9625125125397
 31
0.0
 11
-228.147333728043
 21
-439.9275107295692
 31
0.0
 11
-228.2552311476356
 21
-439.8950080064304
 31
0.0
  0
SPLINE
  5
C4
330
47
100
AcDbEntity
  8
0
  6
Continuous
 62
     7
100
AcDbSpline
210
0.0
220
0.0
230
1.0
 70
     8
 71
     3
 72
     9
 73
     5
 74
     3
 42
0.000000001
 43
0.0000000001
 44
0.00000001
 40
0.0
 40
0.0
 40
0.0
 40
0.0
 40
0.1126866457933711
 40
0.2254221872556074
 40
0.2254221872556074
 40
0.2254221872556074
 40
0.2254221872556074
 10
-242.6774362494916
 20
-489.8549919936177
 30
0.0
 10
-242.6412849835871
 20
-489.8652018544222
 30
0.0
 10
-242.5689667602319
 20
-489.8856259868681
 30
0.0
 10
-242.4959843465887
 20
-489.9035323657446
 30
0.0
 10
-242.4594852220708
 20
-489.9124874875084
 30
0.0
 11
-242.6774362494916
 21
-489.8549919936177
 31
0.0
 11
-242.5688164735714
 21
-489.8849924010357
 31
0.0
 11
-242.4594852220708
 21
-489.9124874875084
 31
0.0
  0
SPLINE
  5
C5
330
47
100
AcDbEntity
  8
0
  6
Continuous
 62
     7
100
AcDbSpline
210
0.0
220
0.0
230
1.0
 70
     8
 71
     3
 72
    11
 73
     7
 74
     5
 42
0.000000001
 43
0.0000000001
 44
0.00000001
 40
0.0
 40
0.0
 40
0.0
 40
0.0
 40
4.096322776758198
 40
8.412204873649522
 40
12.8480576828664
 40
17.29858275807005
 40
17.29858275807005
 40
17.29858275807005
 40
17.29858275807005
 10
-228.9649085088088
 20
-480.6329229967795
 30
0.0
 10
-228.8888329554049
 20
-479.2686861908774
 30
0.0
 10
-228.7326042502879
 20
-476.4670906799801
 30
0.0
 10
-228.0287841822841
 20
-472.2359814089662
 30
0.0
 10
-227.0316342430255
 20
-467.9446612098669
 30
0.0
 10
-226.0882510038259
 20
-465.135085915256
 30
0.0
 10
-225.615780568741
 20
-463.7279788304446
 30
0.0
 11
-228.9649085088088
 21
-480.6329229967795
 31
0.0
 11
-228.6644564007427
 21
-476.5476336770241
 31
0.0
 11
-227.9911960360606
 21
-472.2845879625859
 31
0.0
 11
-226.9649153650282
 21
-467.9690882074935
 31
0.0
 11
-225.615780568741
 21
-463.7279788304446
 31
0.0
  0
SPLINE
  5
C6
330
47
100
AcDbEntity
  8
0
  6
Continuous
 62
     7
100
AcDbSpline
210
0.0
220
0.0
230
1.0
 70
     8
 71
     3
 72
    11
 73
     7
 74
     5
 42
0.000000001
 43
0.0000000001
 44
0.00000001
 40
0.0
 40
0.0
 40
0.0
 40
0.0
 40
2.543068629568162
 40
5.292485227335336
 40
8.221246847847562
 40
11.2965649635594
 40
11.2965649635594
 40
11.2965649635594
 40
11.2965649635594
 10
-234.1971231131867
 20
-485.4049965149344
 30
0.0
 10
-234.3152772168953
 20
-484.564994214223
 30
0.0
 10
-234.5611725901422
 20
-482.8168307080091
 30
0.0
 10
-234.6385540136397
 20
-480.07303711078
 30
0.0
 10
-234.5438174637481
 20
-477.1544867834576
 30
0.0
 10
-234.314553308425
 20
-475.1654568368207
 30
0.0
 10
-234.1971231131867
 20
-474.1466662657366
 30
0.0
 11
-234.1971231131867
 21
-485.4049965149344
 31
0.0
 11
-234.5063132460884
 21
-482.8807937656546
 31
0.0
 11
-234.6099272380126
 21
-480.1333302492218
 31
0.0
 11
-234.5063132460884
 21
-477.2064020344012
 31
0.0
 11
-234.1971231131867
 21
-474.1466662657366
 31
0.0
  0
SPLINE
  5
C7
330
47
100
AcDbEntity
  8
0
  6
Continuous
 62
     7
100
AcDbSpline
210
0.0
220
0.0
230
1.0
 70
     8
 71
     3
 72
    25
 73
    21
 74
    19
 42
0.000000001
 43
0.0000000001
 44
0.00000001
 40
0.0
 40
0.0
 40
0.0
 40
0.0
 40
1.994493460847241
 40
4.223655458218107
 40
6.837453154792442
 40
9.89386298214083
 40
13.3860797888244
 40
17.26544916574272
 40
21.45582110771975
 40
25.86285940714261
 40
30.38095065899776
 40
34.89904191085283
 40
39.30608021027563
 40
43.49645215225271
 40
47.37582152917101
 40
50.86803833585459
 40
53.92444816320296
 40
56.53824585977725
 40
58.7674078571482
 40
60.76190131799558
 40
60.76190131799558
 40
60.76190131799558
 40
60.76190131799558
 10
-230.853307358989
 20
-439.1450080064304
 30
0.0
 10
-231.5181638224054
 20
-439.04058008914
 30
0.0
 10
-232.9261025714624
 20
-438.8194374582007
 30
0.0
 10
-235.1565248285735
 20
-439.5545337264601
 30
0.0
 10
-237.3996060443172
 20
-440.9453794013946
 30
0.0
 10
-239.6501355660562
 20
-443.0376506746138
 30
0.0
 10
-241.8467875622681
 20
-445.740418455356
 30
0.0
 10
-243.932919809453
 20
-448.9895419924635
 30
0.0
 10
-245.8465943772044
 20
-452.6877295866034
 30
0.0
 10
-247.5309545132943
 20
-456.7270594389829
 30
0.0
 10
-248.9352191903248
 20
-460.9868676678479
 30
0.0
 10
-250.0172119352665
 20
-465.3397077900846
 30
0.0
 10
-250.7446993686827
 20
-469.6552629986981
 30
0.0
 10
-251.0963435987306
 20
-473.8043699108162
 30
0.0
 10
-251.0627384807549
 20
-477.6654089171168
 30
0.0
 10
-250.6444425200543
 20
-481.1230471512793
 30
0.0
 10
-249.8552006627161
 20
-484.0928248364911
 30
0.0
 10
-248.6984443646174
 20
-486.4651190633346
 30
0.0
 10
-247.2029252501632
 20
-488.2758019585231
 30
0.0
 10
-245.8937369940359
 20
-488.8390263315164
 30
0.0
 10
-245.2755124608449
 20
-489.1049919936177
 30
0.0
 11
-230.853307358989
 21
-439.1450080064304
 31
0.0
 11
-232.8411525575945
 21
-438.98229454175
 31
0.0
 11
-234.9877035470861
 21
-439.5835283011128
 31
0.0
 11
-237.2277388442872
 21
-440.9304433902439
 31
0.0
 11
-239.4931959298908
 21
-442.9821122762312
 31
0.0
 11
-241.7152400094447
 21
-445.6761980810752
 31
0.0
 11
-243.8263556320505
 21
-448.9308405466293
 31
0.0
 11
-245.7623971840853
 21
-452.64715055865
 31
0.0
 11
-247.4645396428589
 21
-456.7122086890178
 31
0.0
 11
-248.8810634832688
 21
-461.0025010738713
 31
0.0
 11
-249.9689292767349
 21
-465.3876688646619
 31
0.0
 11
-250.6950817247012
 21
-469.7344710427626
 31
0.0
 11
-251.0374581829785
 21
-473.9108325402228
 31
0.0
 11
-250.9856545364077
 21
-477.7898560169241
 31
0.0
 11
-250.5412460056896
 21
-481.2536803879291
 31
0.0
 11
-249.7177345488985
 21
-484.1970576836513
 31
0.0
 11
-248.5401432567612
 21
-486.5305565884546
 31
0.0
 11
-247.0442516251734
 21
-488.1832729617114
 31
0.0
 11
-245.2755124608449
 21
-489.1049919936177
 31
0.0
  0
SPLINE
  5
C8
330
47
100
AcDbEntity
  8
0
  6
Continuous
 62
     7
100
AcDbSpline
210
0.0
220
0.0
230
1.0
 70
     8
 71
     3
 72
    19
 73
    15
 74
    13
 42
0.000000001
 43
0.0000000001
 44
0.00000001
 40
0.0
 40
0.0
 40
0.0
 40
0.0
 40
1.85984524992234
 40
3.950639921806359
 40
6.416279298432227
 40
9.308363170431228
 40
12.61489483717511
 40
16.28332344942801
 40
20.23472206557529
 40
24.37302524381138
 40
28.59200018857462
 40
32.78124769556627
 40
36.83188930284601
 40
40.64236543195205
 40
40.64236543195205
 40
40.64236543195205
 40
40.64236543195205
 10
-175.255031358282
 20
-457.7969303135068
 30
0.0
 10
-175.8758190261853
 20
-457.70221382923
 30
0.0
 10
-177.1944817169709
 20
-457.5010192843789
 30
0.0
 10
-179.2786760120821
 20
-458.2261022275876
 30
0.0
 10
-181.3695528036055
 20
-459.5743588443669
 30
0.0
 10
-183.4624827849263
 20
-461.5904641582779
 30
0.0
 10
-185.4963927974723
 20
-464.1832521650709
 30
0.0
 10
-187.4151158504776
 20
-467.2870058388474
 30
0.0
 10
-189.1580987935216
 20
-470.8029293912538
 30
0.0
 10
-190.6694874807316
 20
-474.6218964406957
 30
0.0
 10
-191.9039180122899
 20
-478.6226534046958
 30
0.0
 10
-192.8107758367722
 20
-482.678216137031
 30
0.0
 10
-193.4022361757191
 20
-486.6593641604159
 30
0.0
 10
-193.4834111627107
 20
-489.2803449634956
 30
0.0
 10
-193.5227586639284
 20
-490.5507984944912
 30
0.0
 11
-175.255031358282
 21
-457.7969303135068
 31
0.0
 11
-177.1095533142661
 21
-457.6563148608367
 31
0.0
 11
-179.1145882960453
 21
-458.2489843025655
 31
0.0
 11
-181.2054206218814
 21
-459.5558116494227
 31
0.0
 11
-183.3145647652237
 21
-461.5346143433392
 31
0.0
 11
-185.3739442771715
 21
-464.1215251818203
 31
0.0
 11
-187.3170892889297
 21
-467.2330450587497
 31
0.0
 11
-189.0812808190204
 21
-470.768745734359
 31
0.0
 11
-190.6095771437383
 21
-474.614504897139
 31
0.0
 11
-191.8526488776473
 21
-478.6461946482107
 31
0.0
 11
-192.7703747041838
 21
-482.7336845849919
 31
0.0
 11
-193.3331322192038
 21
-486.7450436329092
 31
0.0
 11
-193.5227586639284
 21
-490.5507984944912
 31
0.0
  0
SPLINE
  5
C9
330
47
100
AcDbEntity
  8
0
  6
Continuous
 62
     7
100
AcDbSpline
210
0.0
220
0.0
230
1.0
 70
     8
 71
     3
 72
    19
 73
    15
 74
    13
 42
0.000000001
 43
0.0000000001
 44
0.00000001
 40
0.0
 40
0.0
 40
0.0
 40
0.0
 40
2.058492552149533
 40
4.372601888613469
 40
7.101592534691157
 40
10.30257557762868
 40
13.96227296703223
 40
18.0225209757144
 40
22.39596259297245
 40
26.97627177023599
 40
31.64586914526973
 40
36.28256393919289
 40
40.76584854369409
 40
44.98331595191482
 40
44.98331595191482
 40
44.98331595191482
 40
44.98331595191482
 10
-174.5588826120193
 20
-455.3854003172021
 30
0.0
 10
-175.2459756865095
 20
-455.2805673062524
 30
0.0
 10
-176.7054827756822
 20
-455.0578834713676
 30
0.0
 10
-179.0122867589518
 20
-455.8604114457044
 30
0.0
 10
-181.326486986415
 20
-457.3526733431602
 30
0.0
 10
-183.6429597017441
 20
-459.5841158631124
 30
0.0
 10
-185.8941086134442
 20
-462.453835695251
 30
0.0
 10
-188.017767618011
 20
-465.889096676326
 30
0.0
 10
-189.946915973237
 20
-469.7805507868738
 30
0.0
 10
-191.6197338350937
 20
-474.0074160190437
 30
0.0
 10
-192.9860120532406
 20
-478.4354878757935
 30
0.0
 10
-193.9897300112427
 20
-482.9242192233819
 30
0.0
 10
-194.6443633485712
 20
-487.3305877373735
 30
0.0
 10
-194.7342085147193
 20
-490.231511596117
 30
0.0
 10
-194.7777586639284
 20
-491.6376603762407
 30
0.0
 11
-174.5588826120193
 21
-455.3854003172021
 31
0.0
 11
-176.6114832960681
 21
-455.2297659374598
 31
0.0
 11
-178.8306730780288
 21
-455.8857375195605
 31
0.0
 11
-181.1448240905819
 21
-457.3321451489968
 31
0.0
 11
-183.4792427785962
 21
-459.5223008114975
 31
0.0
 11
-185.758581549054
 21
-462.3855157437909
 31
0.0
 11
-187.9092709854723
 21
-465.8293724245966
 31
0.0
 11
-189.8618931853727
 21
-469.7427160234305
 31
0.0
 11
-191.5534245643478
 21
-473.9992349946606
 31
0.0
 11
-192.9292669387721
 21
-478.4615435234
 31
0.0
 11
-193.9450136940154
 21
-482.9856121725777
 31
0.0
 11
-194.5678785010651
 21
-487.4254185060386
 31
0.0
 11
-194.7777586639284
 21
-491.6376603762407
 31
0.0
  0
SPLINE
  5
CA
330
47
100
AcDbEntity
  8
0
  6
Continuous
 62
     7
100
AcDbSpline
210
0.0
220
0.0
230
1.0
 70
     8
 71
     3
 72
    13
 73
     9
 74
     7
 42
0.000000001
 43
0.0000000001
 44
0.00000001
 40
0.0
 40
0.0
 40
0.0
 40
0.0
 40
1.688892149320273
 40
3.55507004116134
 40
5.717501985790549
 40
8.228653654608584
 40
11.09197176712428
 40
14.27833509494208
 40
14.27833509494208
 40
14.27833509494208
 40
14.27833509494208
 10
-135.4178627841978
 20
-469.2969303135068
 30
0.0
 10
-134.8930880582959
 20
-469.5173268088506
 30
0.0
 10
-133.7884521612035
 20
-469.9812551892726
 30
0.0
 10
-132.4916344420781
 20
-471.4488114343318
 30
0.0
 10
-131.4610774217377
 20
-473.3772577444302
 30
0.0
 10
-130.724482878325
 20
-475.7938446106504
 30
0.0
 10
-130.264148509908
 20
-478.6183948846389
 30
0.0
 10
-130.2126921296025
 20
-480.6363472768725
 30
0.0
 10
-130.1855900898442
 20
-481.6992015055569
 30
0.0
 11
-135.4178627841978
 21
-469.2969303135068
 31
0.0
 11
-133.9108591843954
 21
-470.0593585785393
 31
0.0
 11
-132.6186786864337
 21
-471.4057944338604
 31
0.0
 11
-131.575913719907
 21
-473.3001949057033
 31
0.0
 11
-130.8104786524231
 21
-475.6918453530858
 31
0.0
 11
-130.342864983179
 21
-478.5167219997734
 31
0.0
 11
-130.1855900898442
 21
-481.6992015055569
 31
0.0
  0
SPLINE
  5
CB
330
47
100
AcDbEntity
  8
0
  6
Continuous
 62
     7
100
AcDbSpline
210
0.0
220
0.0
230
1.0
 70
     8
 71
     3
 72
     9
 73
     5
 74
     3
 42
0.000000001
 43
0.0000000001
 44
0.00000001
 40
0.0
 40
0.0
 40
0.0
 40
0.0
 40
1.550777313920217
 40
2.981892552969982
 40
2.981892552969982
 40
2.981892552969982
 40
2.981892552969982
 10
-139.943920339042
 20
-466.4270866492456
 30
0.0
 10
-140.1255827484576
 20
-465.942079442528
 30
0.0
 10
-140.4748900340847
 20
-465.0094894746729
 30
0.0
 10
-140.9698386740012
 20
-464.1455341957744
 30
0.0
 10
-141.2073819637246
 20
-463.7308916388796
 30
0.0
 11
-139.943920339042
 21
-466.4270866492456
 31
0.0
 11
-140.5282988130836
 21
-464.9906284778668
 31
0.0
 11
-141.2073819637246
 21
-463.7308916388796
 31
0.0
  0
SPLINE
  5
CC
330
47
100
AcDbEntity
  8
0
  6
Continuous
 62
     7
100
AcDbSpline
210
0.0
220
0.0
230
1.0
 70
     8
 71
     3
 72
    17
 73
    13
 74
    11
 42
0.000000001
 43
0.0000000001
 44
0.00000001
 40
0.0
 40
0.0
 40
0.0
 40
0.0
 40
4.460662351557325
 40
8.907050984635656
 40
13.2332031270944
 40
17.33890040529231
 40
21.13516317619814
 40
24.55081137484279
 40
27.54137158942066
 40
30.10282828849329
 40
32.29339506292915
 40
34.25872278300479
 40
34.25872278300479
 40
34.25872278300479
 40
34.25872278300479
 10
-216.9498505745736
 20
-466.1993290665515
 30
0.0
 10
-217.4235512201117
 20
-467.609458830611
 30
0.0
 10
-218.3694367116883
 20
-470.4252060702355
 30
0.0
 10
-219.376545574308
 20
-474.7261316836889
 30
0.0
 10
-220.0585800061746
 20
-478.9679615733091
 30
0.0
 10
-220.3680193446237
 20
-483.0375082336403
 30
0.0
 10
-220.3040800955827
 20
-486.8164334348801
 30
0.0
 10
-219.8663547704559
 20
-490.1958321801092
 30
0.0
 10
-219.0689259966352
 20
-493.0956004679765
 30
0.0
 10
-217.9151078145072
 20
-495.41134456416
 30
0.0
 10
-216.4328663123321
 20
-497.1775027931431
 30
0.0
 10
-215.1439257426787
 20
-497.7288614745765
 30
0.0
 10
-214.5343841274784
 20
-497.989599682846
 30
0.0
 11
-216.9498505745736
 21
-466.1993290665515
 31
0.0
 11
-218.303733307022
 21
-470.4495655390554
 31
0.0
 11
-219.3335362515249
 21
-474.7750571612864
 31
0.0
 11
-220.0088722084641
 21
-479.0481723838712
 31
0.0
 11
-220.3098151914897
 21
-483.1428254168613
 31
0.0
 11
-220.2274842408758
 21
-486.9381953117258
 31
0.0
 11
-219.7643097756728
 21
-490.3222937188652
 31
0.0
 11
-218.9339575399801
 21
-493.1952652742002
 31
0.0
 11
-217.7609296183728
 21
-495.4723392539473
 31
0.0
 11
-216.2798374252956
 21
-497.0863246034028
 31
0.0
 11
-214.5343841274784
 21
-497.989599682846
 31
0.0
  0
SPLINE
  5
CD
330
47
100
AcDbEntity
  8
0
  6
Continuous
 62
     7
100
AcDbSpline
210
0.0
220
0.0
230
1.0
 70
     8
 71
     3
 72
    11
 73
     7
 74
     5
 42
0.000000001
 43
0.0000000001
 44
0.00000001
 40
0.0
 40
0.0
 40
0.0
 40
0.0
 40
2.333810853761178
 40
5.071389727693075
 40
8.240651662333853
 40
11.8181814464328
 40
11.8181814464328
 40
11.8181814464328
 40
11.8181814464328
 10
-225.615780568741
 20
-493.9603626660941
 30
0.0
 10
-226.0981909395816
 20
-493.3447289416999
 30
0.0
 10
-227.1464725369231
 20
-492.0069519057149
 30
0.0
 10
-228.0971772022054
 20
-489.3924431806363
 30
0.0
 10
-228.771410762124
 20
-486.2987993651305
 30
0.0
 10
-228.8978586883546
 20
-484.0491626292641
 30
0.0
 10
-228.9649085088088
 20
-482.8562782530051
 30
0.0
 11
-225.615780568741
 21
-493.9603626660941
 31
0.0
 11
-226.9649153650282
 21
-492.0560233024738
 31
0.0
 11
-227.9911960360606
 21
-489.5180938124354
 31
0.0
 11
-228.6644564007427
 21
-486.4211692563488
 31
0.0
 11
-228.9649085088088
 21
-482.8562782530051
 31
0.0
  0
SPLINE
  5
CE
330
47
100
AcDbEntity
  8
0
  6
Continuous
 62
     7
100
AcDbSpline
210
0.0
220
0.0
230
1.0
 70
     8
 71
     3
 72
    13
 73
     9
 74
     7
 42
0.000000001
 43
0.0000000001
 44
0.00000001
 40
0.0
 40
0.0
 40
0.0
 40
0.0
 40
3.186363327817688
 40
6.049681440333496
 40
8.560833109151595
 40
10.72326505378073
 40
12.58944294562185
 40
14.27833509494202
 40
14.27833509494202
 40
14.27833509494202
 40
14.27833509494202
 10
-164.9439203390419
 20
-498.8007984944912
 30
0.0
 10
-164.9168182992836
 20
-499.8636527231756
 30
0.0
 10
-164.8653619189782
 20
-501.8816051154091
 30
0.0
 10
-164.4050275505611
 20
-504.706155389398
 30
0.0
 10
-163.6684330071485
 20
-507.1227422556178
 30
0.0
 10
-162.637875986808
 20
-509.0511885657164
 30
0.0
 10
-161.3410582676827
 20
-510.5187448107754
 30
0.0
 10
-160.2364223705903
 20
-510.9826731911977
 30
0.0
 10
-159.7116476446884
 20
-511.2030696865413
 30
0.0
 11
-164.9439203390419
 21
-498.8007984944912
 31
0.0
 11
-164.7866454457071
 21
-501.9832780002745
 31
0.0
 11
-164.319031776463
 21
-504.8081546469623
 31
0.0
 11
-163.5535967089792
 21
-507.1998050943448
 31
0.0
 11
-162.5108317424525
 21
-509.0942055661877
 31
0.0
 11
-161.2186512444907
 21
-510.4406414215088
 31
0.0
 11
-159.7116476446884
 21
-511.2030696865413
 31
0.0
  0
SPLINE
  5
CF
330
47
100
AcDbEntity
  8
0
  6
Continuous
 62
     7
100
AcDbSpline
210
0.0
220
0.0
230
1.0
 70
     8
 71
     3
 72
     9
 73
     5
 74
     3
 42
0.000000001
 43
0.0000000001
 44
0.00000001
 40
0.0
 40
0.0
 40
0.0
 40
0.0
 40
1.550777313920217
 40
2.981892552970032
 40
2.981892552970032
 40
2.981892552970032
 40
2.981892552970032
 10
-166.4439203390419
 20
-510.8229133508024
 30
0.0
 10
-166.2622579296263
 20
-511.30792055752
 30
0.0
 10
-165.9129506439992
 20
-512.2405105253753
 30
0.0
 10
-165.4180020040828
 20
-513.1044658042737
 30
0.0
 10
-165.1804587143593
 20
-513.5191083611685
 30
0.0
 11
-166.4439203390419
 21
-510.8229133508024
 31
0.0
 11
-165.8595418650003
 21
-512.2593715221813
 31
0.0
 11
-165.1804587143593
 21
-513.5191083611685
 31
0.0
  0
SPLINE
  5
D0
330
47
100
AcDbEntity
  8
0
  6
Continuous
 62
     7
100
AcDbSpline
210
0.0
220
0.0
230
1.0
 70
     8
 71
     3
 72
     9
 73
     5
 74
     3
 42
0.000000001
 43
0.0000000001
 44
0.00000001
 40
0.0
 40
0.0
 40
0.0
 40
0.0
 40
1.550777313920228
 40
2.981892552970029
 40
2.981892552970029
 40
2.981892552970029
 40
2.981892552970029
 10
-173.3721235693174
 20
-508.8229133508024
 30
0.0
 10
-173.1904611599018
 20
-509.30792055752
 30
0.0
 10
-172.8411538742747
 20
-510.2405105253752
 30
0.0
 10
-172.3462052343582
 20
-511.1044658042737
 30
0.0
 10
-172.1086619446348
 20
-511.5191083611685
 30
0.0
 11
-173.3721235693174
 21
-508.8229133508024
 31
0.0
 11
-172.7877450952758
 21
-510.2593715221813
 31
0.0
 11
-172.1086619446348
 21
-511.5191083611685
 31
0.0
  0
SPLINE
  5
D1
330
47
100
AcDbEntity
  8
0
  6
Continuous
 62
     7
100
AcDbSpline
210
0.0
220
0.0
230
1.0
 70
     8
 71
     3
 72
    13
 73
     9
 74
     7
 42
0.000000001
 43
0.0000000001
 44
0.00000001
 40
0.0
 40
0.0
 40
0.0
 40
0.0
 40
1.14988401494257
 40
2.420473215520146
 40
3.892767304891482
 40
5.602487589968546
 40
7.551980773002317
 40
9.72141963750288
 40
9.72141963750288
 40
9.72141963750288
 40
9.72141963750288
 10
-146.373191659646
 20
-507.2473027653124
 30
0.0
 10
-146.7304850895452
 20
-507.0972455772041
 30
0.0
 10
-147.4825776117249
 20
-506.7813794422605
 30
0.0
 10
-148.3655173372349
 20
-505.7821922166148
 30
0.0
 10
-149.0671731816178
 20
-504.4692074957441
 30
0.0
 10
-149.5686843608569
 20
-502.8238717575821
 30
0.0
 10
-149.8821035042901
 20
-500.9007736975107
 30
0.0
 10
-149.9171376372173
 20
-499.5268486635986
 30
0.0
 10
-149.9355900898442
 20
-498.8032032302996
 30
0.0
 11
-146.373191659646
 21
-507.2473027653124
 31
0.0
 11
-147.3992366637668
 21
-506.7282026699711
 31
0.0
 11
-148.2790191304642
 21
-505.8114803854972
 31
0.0
 11
-148.9889867672483
 21
-504.5216758089233
 31
0.0
 11
-149.5101340472373
 21
-502.8933180575139
 31
0.0
 11
-149.8285093114035
 21
-500.9699977874287
 31
0.0
 11
-149.9355900898442
 21
-498.8032032302996
 31
0.0
  0
SPLINE
  5
D2
330
47
100
AcDbEntity
  8
0
  6
Continuous
 62
     7
100
AcDbSpline
210
0.0
220
0.0
230
1.0
 70
     8
 71
     3
 72
    19
 73
    15
 74
    13
 42
0.000000001
 43
0.0000000001
 44
0.00000001
 40
0.0
 40
0.0
 40
0.0
 40
0.0
 40
2.594366729361448
 40
5.35225037681613
 40
8.204503998554046
 40
11.07699757796727
 40
13.89456569934832
 40
16.58487965082195
 40
19.08253317414277
 40
21.33378877716249
 40
23.30286715830925
 40
24.98160035131413
 40
26.40512012903498
 40
27.67139774282038
 40
27.67139774282038
 40
27.67139774282038
 40
27.67139774282038
 10
-149.9355900898442
 20
-498.8032032302996
 30
0.0
 10
-149.9088003017485
 20
-497.9382135911208
 30
0.0
 10
-149.8535322245867
 20
-496.1537160220965
 30
0.0
 10
-149.4508358250275
 20
-493.4431471539102
 30
0.0
 10
-148.8334007102656
 20
-490.681912953209
 30
0.0
 10
-147.992937369709
 20
-487.9579933181412
 30
0.0
 10
-146.9639067740727
 20
-485.3578455397999
 30
0.0
 10
-145.7771949829664
 20
-482.9640252487725
 30
0.0
 10
-144.4708303509621
 20
-480.850831258158
 30
0.0
 10
-143.086040555012
 20
-479.0855287852668
 30
0.0
 10
-141.6610669502104
 20
-477.7128613380125
 30
0.0
 10
-140.2374912620921
 20
-476.7948993846089
 30
0.0
 10
-138.8184653578932
 20
-476.301225896964
 30
0.0
 10
-137.9206524630843
 20
-476.4382094158157
 30
0.0
 10
-137.4979885200424
 20
-476.5026972347357
 30
0.0
 11
-149.9355900898442
 21
-498.8032032302996
 31
0.0
 11
-149.8064827232232
 21
-496.212050984116
 31
0.0
 11
-149.4233286704436
 21
-493.4809129089383
 31
0.0
 11
-148.7984940651422
 21
-490.6979410370873
 31
0.0
 11
-147.9521473526935
 21
-487.9529607810385
 31
0.0
 11
-146.9116051741621
 21
-485.3345715638266
 31
0.0
 11
-145.7104534941004
 21
-482.9272859974543
 31
0.0
 11
-144.3874611456693
 21
-480.8088043791194
 31
0.0
 11
-142.9853304141304
 21
-479.0475033827066
 31
0.0
 11
-141.5493173803654
 21
-477.7002334634444
 31
0.0
 11
-140.1257719670302
 21
-476.810478674095
 31
0.0
 11
-138.7606417666699
 21
-476.4069590541945
 31
0.0
 11
-137.4979885200424
 21
-476.5026972347357
 31
0.0
  0
SPLINE
  5
D3
330
47
100
AcDbEntity
  8
0
  6
Continuous
 62
     7
100
AcDbSpline
210
0.0
220
0.0
230
1.0
 70
     8
 71
     3
 72
    23
 73
    19
 74
    17
 42
0.000000001
 43
0.0000000001
 44
0.00000001
 40
0.0
 40
0.0
 40
0.0
 40
0.0
 40
1.386148647268846
 40
2.973023201223642
 40
4.875876304801811
 40
7.125667989173831
 40
9.698795726548745
 40
12.53810885553337
 40
15.56538124838365
 40
18.68966370650367
 40
21.81394616462367
 40
24.84121855747403
 40
27.68053168645858
 40
30.25365942383361
 40
32.50345110820569
 40
34.40630421178376
 40
35.99317876573854
 40
37.37932741300735
 40
37.37932741300735
 40
37.37932741300735
 40
37.37932741300735
 10
-137.4979885200424
 20
-476.5026972347357
 30
0.0
 10
-137.0706385401614
 20
-476.6957798614402
 30
0.0
 10
-136.1540547387805
 20
-477.1099050999045
 30
0.0
 10
-135.1692633863725
 20
-478.4756434172781
 30
0.0
 10
-134.4507170930823
 20
-480.2506980456363
 30
0.0
 10
-134.0222188999032
 20
-482.4661158668536
 30
0.0
 10
-133.8854260921929
 20
-485.0211091842411
 30
0.0
 10
-134.0480906315763
 20
-487.8350653300325
 30
0.0
 10
-134.5041008945527
 20
-490.8010389473756
 30
0.0
 10
-135.237163343109
 20
-493.8086692427113
 30
0.0
 10
-136.219762342609
 20
-496.7442645406168
 30
0.0
 10
-137.4145896582896
 20
-499.4969600458301
 30
0.0
 10
-138.7766165910517
 20
-501.9646900912844
 30
0.0
 10
-140.2540191941033
 20
-504.0537053312083
 30
0.0
 10
-141.7972765041294
 20
-505.6999263671499
 30
0.0
 10
-143.3512725376908
 20
-506.8189545334316
 30
0.0
 10
-144.9124123452775
 20
-507.4497458305245
 30
0.0
 10
-145.9086866245126
 20
-507.3116765051062
 30
0.0
 10
-146.373191659646
 20
-507.2473027653124
 30
0.0
 11
-137.4979885200424
 21
-476.5026972347357
 31
0.0
 11
-136.2846563790679
 21
-477.1729458563314
 31
0.0
 11
-135.2884859257637
 21
-478.4081848058045
 31
0.0
 11
-134.547760576183
 21
-480.1609471638474
 31
0.0
 11
-134.0909446843169
 21
-482.3638729132094
 31
0.0
 11
-133.9355948459117
 21
-484.9323068275178
 31
0.0
 11
-134.0876795939739
 21
-487.7675439010002
 31
0.0
 11
-134.5413558713917
 21
-490.7606285910319
 31
0.0
 11
-135.2791877351414
 21
-493.7965378456851
 31
0.0
 11
-136.272822027731
 21
-496.7586032997631
 31
0.0
 11
-137.4840727943749
 21
-499.5329950721521
 31
0.0
 11
-138.8663932884067
 21
-502.0130936760833
 31
0.0
 11
-140.3666610087387
 21
-504.1035919687857
 31
0.0
 11
-141.927221939763
 21
-505.7241511922714
 31
0.0
 11
-143.4881044533234
 21
-506.8124965906376
 31
0.0
 11
-144.9893245661117
 21
-507.326800982308
 31
0.0
 11
-146.373191659646
 21
-507.2473027653124
 31
0.0
  0
SPLINE
  5
D4
330
47
100
AcDbEntity
  8
0
  6
Continuous
 62
     7
100
AcDbSpline
210
0.0
220
0.0
230
1.0
 70
     8
 71
     3
 72
    19
 73
    15
 74
    13
 42
0.000000001
 43
0.0000000001
 44
0.00000001
 40
0.0
 40
0.0
 40
0.0
 40
0.0
 40
3.810476129105986
 40
7.861117736385829
 40
12.05036524337743
 40
16.26934018814067
 40
20.40764336637681
 40
24.35904198252404
 40
28.0274705947769
 40
31.33400226152078
 40
34.22608613351971
 40
36.69172551014561
 40
38.7825201820297
 40
40.64236543195201
 40
40.64236543195201
 40
40.64236543195201
 40
40.64236543195201
 10
-130.1855900898442
 20
-481.6992015055569
 30
0.0
 10
-130.2249375910618
 20
-482.9696550365524
 30
0.0
 10
-130.3061125780536
 20
-485.5906358396322
 30
0.0
 10
-130.8975729170003
 20
-489.5717838630172
 30
0.0
 10
-131.8044307414827
 20
-493.6273465953523
 30
0.0
 10
-133.0388612730411
 20
-497.6281035593524
 30
0.0
 10
-134.5502499602509
 20
-501.4470706087943
 30
0.0
 10
-136.2932329032951
 20
-504.9629941612006
 30
0.0
 10
-138.2119559563002
 20
-508.0667478349773
 30
0.0
 10
-140.2458659688464
 20
-510.6595358417701
 30
0.0
 10
-142.338795950167
 20
-512.6756411556812
 30
0.0
 10
-144.4296727416905
 20
-514.0238977724604
 30
0.0
 10
-146.5138670368016
 20
-514.7489807156692
 30
0.0
 10
-147.8325297275873
 20
-514.5477861708181
 30
0.0
 10
-148.4533173954906
 20
-514.4530696865413
 30
0.0
 11
-130.1855900898442
 21
-481.6992015055569
 31
0.0
 11
-130.3752165345688
 21
-485.5049563671388
 31
0.0
 11
-130.9379740495888
 21
-489.5163154150563
 31
0.0
 11
-131.8556998761254
 21
-493.6038053518374
 31
0.0
 11
-133.0987716100343
 21
-497.6354951029091
 31
0.0
 11
-134.6270679347522
 21
-501.4812542656892
 31
0.0
 11
-136.3912594648429
 21
-505.0169549412984
 31
0.0
 11
-138.3344044766011
 21
-508.1284748182277
 31
0.0
 11
-140.3937839885489
 21
-510.7153856567089
 31
0.0
 11
-142.5029281318912
 21
-512.6941883506254
 31
0.0
 11
-144.5937604577273
 21
-514.0010156974824
 31
0.0
 11
-146.5987954395065
 21
-514.5936851392113
 31
0.0
 11
-148.4533173954906
 21
-514.4530696865413
 31
0.0
  0
SPLINE
  5
D5
330
47
100
AcDbEntity
  8
0
  6
Continuous
 62
     7
100
AcDbSpline
210
0.0
220
0.0
230
1.0
 70
     8
 71
     3
 72
     9
 73
     5
 74
     3
 42
0.000000001
 43
0.0000000001
 44
0.00000001
 40
0.0
 40
0.0
 40
0.0
 40
0.0
 40
0.8354156991823342
 40
1.690224610930764
 40
1.690224610930764
 40
1.690224610930764
 40
1.690224610930764
 10
-208.7696595624858
 20
-445.5200080064304
 30
0.0
 10
-208.5046841658569
 20
-445.6094335460939
 30
0.0
 10
-207.9685822820436
 20
-445.7903605545118
 30
0.0
 10
-207.4936270236533
 20
-446.0979853388408
 30
0.0
 10
-207.2534246405356
 20
-446.2535625446211
 30
0.0
 11
-208.7696595624858
 21
-445.5200080064304
 31
0.0
 11
-207.9896712543195
 21
-445.8192363990585
 31
0.0
 11
-207.2534246405356
 21
-446.2535625446211
 31
0.0
  0
SPLINE
  5
D6
330
47
100
AcDbEntity
  8
0
  6
Continuous
 62
     7
100
AcDbSpline
210
0.0
220
0.0
230
1.0
 70
     8
 71
     3
 72
    11
 73
     7
 74
     5
 42
0.000000001
 43
0.0000000001
 44
0.00000001
 40
0.0
 40
0.0
 40
0.0
 40
0.0
 40
4.260089754592006
 40
8.272657474028767
 40
11.95380085444465
 40
15.23957602668324
 40
15.23957602668324
 40
15.23957602668324
 40
15.23957602668324
 10
-224.7080995862919
 20
-461.3697544624458
 30
0.0
 10
-224.1403541623148
 20
-460.0669813941201
 30
0.0
 10
-223.0378507521393
 20
-457.5371296880218
 30
0.0
 10
-221.058961510915
 20
-454.0732843795663
 30
0.0
 10
-218.9871740993931
 20
-451.0410136196811
 30
0.0
 10
-217.3803896991032
 20
-449.3596236413446
 30
0.0
 10
-216.6225894912568
 20
-448.5666375643439
 30
0.0
 11
-224.7080995862919
 21
-461.3697544624458
 31
0.0
 11
-222.9340613439337
 21
-457.4966222638498
 31
0.0
 11
-220.9556467341595
 21
-454.0056946875133
 31
0.0
 11
-218.831006325702
 21
-450.9995809615305
 31
0.0
 11
-216.6225894912568
 21
-448.5666375643439
 31
0.0
  0
SPLINE
  5
D7
330
47
100
AcDbEntity
  8
0
  6
Continuous
 62
     7
100
AcDbSpline
210
0.0
220
0.0
230
1.0
 70
     8
 71
     3
 72
    11
 73
     7
 74
     5
 42
0.000000001
 43
0.0000000001
 44
0.00000001
 40
0.0
 40
0.0
 40
0.0
 40
0.0
 40
2.084347354876942
 40
3.922710063844362
 40
5.564310170848015
 40
7.093913526845637
 40
7.093913526845637
 40
7.093913526845637
 40
7.093913526845637
 10
-215.3389347355707
 20
-447.454959936231
 30
0.0
 10
-214.7736829302885
 20
-447.0471473898278
 30
0.0
 10
-213.7098876104802
 20
-446.2796503835592
 30
0.0
 10
-211.992369572755
 20
-445.5513665599555
 30
0.0
 10
-210.3214759567158
 20
-445.2258140527966
 30
0.0
 10
-209.2746076816724
 20
-445.4242797413465
 30
0.0
 10
-208.7696595624858
 20
-445.5200080064304
 30
0.0
 11
-215.3389347355707
 21
-447.454959936231
 31
0.0
 11
-213.6016714898292
 21
-446.3032567166142
 31
0.0
 11
-211.9074792695987
 21
-445.5896110207053
 31
0.0
 11
-210.287029788296
 21
-445.3269431678597
 31
0.0
 11
-208.7696595624858
 21
-445.5200080064304
 31
0.0
  0
SPLINE
  5
D8
330
47
100
AcDbEntity
  8
0
  6
Continuous
 62
     7
100
AcDbSpline
210
0.0
220
0.0
230
1.0
 70
     8
 71
     3
 72
    11
 73
     7
 74
     5
 42
0.000000001
 43
0.0000000001
 44
0.00000001
 40
0.0
 40
0.0
 40
0.0
 40
0.0
 40
2.515775138429404
 40
4.804231159459201
 40
6.858173212493556
 40
8.685395443916061
 40
8.685395443916061
 40
8.685395443916061
 40
8.685395443916061
 10
-224.8599272380126
 20
-449.8879197817005
 30
0.0
 10
-224.3363507360658
 20
-449.2317061087713
 30
0.0
 10
-223.3365067776638
 20
-447.9785725903197
 30
0.0
 10
-221.6946457398826
 20
-446.3829471018635
 30
0.0
 10
-220.0714433904384
 20
-445.1007582374853
 30
0.0
 10
-218.9077738787052
 20
-444.5282752356542
 30
0.0
 10
-218.3599272380126
 20
-444.2587546571016
 30
0.0
 11
-224.8599272380126
 21
-449.8879197817005
 31
0.0
 11
-223.2479830347759
 21
-447.9564021328297
 31
0.0
 11
-221.6099272380126
 21
-446.3583395016286
 31
0.0
 11
-219.9718714412493
 21
-445.1192062672031
 31
0.0
 11
-218.3599272380126
 21
-444.2587546571016
 31
0.0
  0
SPLINE
  5
D9
330
47
100
AcDbEntity
  8
0
  6
Continuous
 62
     7
100
AcDbSpline
210
0.0
220
0.0
230
1.0
 70
     8
 71
     3
 72
    15
 73
    11
 74
     9
 42
0.000000001
 43
0.0000000001
 44
0.00000001
 40
0.0
 40
0.0
 40
0.0
 40
0.0
 40
2.032728177606499
 40
4.312451649581288
 40
6.994671912550185
 40
10.13693438905272
 40
13.72869234611864
 40
17.71575150211791
 40
22.01541095137081
 40
26.52630693553608
 40
26.52630693553608
 40
26.52630693553608
 40
26.52630693553608
 10
-200.1066320236603
 20
-448.0104003172021
 30
0.0
 10
-200.7847636445399
 20
-447.9056909308541
 30
0.0
 10
-202.2234261565794
 20
-447.6835490122871
 30
0.0
 10
-204.4994743718715
 20
-448.4584079374451
 30
0.0
 10
-206.7851740046038
 20
-449.9092289509922
 30
0.0
 10
-209.0750726486413
 20
-452.0839966307235
 30
0.0
 10
-211.3055771715055
 20
-454.885452550321
 30
0.0
 10
-213.4105884334295
 20
-458.2466806778042
 30
0.0
 10
-215.3514245552055
 20
-462.0538841719837
 30
0.0
 10
-216.408593223079
 20
-464.7956028402327
 30
0.0
 10
-216.9498505745736
 20
-466.1993290665515
 30
0.0
 11
-200.1066320236603
 21
-448.0104003172021
 31
0.0
 11
-202.1331612144883
 21
-447.8517708306514
 31
0.0
 11
-204.3230890210031
 21
-448.4852969379511
 31
0.0
 11
-206.6074342114495
 21
-449.8910254263145
 31
0.0
 11
-208.9142408422815
 21
-452.0246740936068
 31
0.0
 11
-211.1708455908343
 21
-454.8190363158425
 31
0.0
 11
-213.3061667937191
 21
-458.1860890439192
 31
0.0
 11
-215.2529423755257
 21
-462.0197734617294
 31
0.0
 11
-216.9498505745736
 21
-466.1993290665515
 31
0.0
  0
SPLINE
  5
DA
330
47
100
AcDbEntity
  8
0
  6
Continuous
 62
     7
100
AcDbSpline
210
0.0
220
0.0
230
1.0
 70
     8
 71
     3
 72
     9
 73
     5
 74
     3
 42
0.000000001
 43
0.0000000001
 44
0.00000001
 40
0.0
 40
0.0
 40
0.0
 40
0.0
 40
1.610995318075723
 40
3.345874421491684
 40
3.345874421491684
 40
3.345874421491684
 40
3.345874421491684
 10
-151.9304587143594
 20
-462.2942717610249
 30
0.0
 10
-152.3588526246703
 20
-462.619046539617
 30
0.0
 10
-153.2485834576934
 20
-463.2935709389787
 30
0.0
 10
-154.0446244396899
 20
-464.0766268676036
 30
0.0
 10
-154.4573819637245
 20
-464.4826514883886
 30
0.0
 11
-151.9304587143594
 21
-462.2942717610249
 31
0.0
 11
-153.1939203390419
 21
-463.2937569481073
 31
0.0
 11
-154.4573819637245
 21
-464.4826514883886
 31
0.0
  0
SPLINE
  5
DB
330
47
100
AcDbEntity
  8
0
  6
Continuous
 62
     7
100
AcDbSpline
210
0.0
220
0.0
230
1.0
 70
     8
 71
     3
 72
     9
 73
     5
 74
     3
 42
0.000000001
 43
0.0000000001
 44
0.00000001
 40
0.0
 40
0.0
 40
0.0
 40
0.0
 40
1.61099531807578
 40
3.345874421491683
 40
3.345874421491683
 40
3.345874421491683
 40
3.345874421491683
 10
-158.8586619446349
 20
-460.2942717610249
 30
0.0
 10
-159.2870558549458
 20
-460.6190465396171
 30
0.0
 10
-160.1767866879689
 20
-461.2935709389787
 30
0.0
 10
-160.9728276699654
 20
-462.0766268676038
 30
0.0
 10
-161.385585194
 20
-462.4826514883886
 30
0.0
 11
-158.8586619446349
 21
-460.2942717610249
 31
0.0
 11
-160.1221235693174
 21
-461.2937569481074
 31
0.0
 11
-161.385585194
 21
-462.4826514883886
 31
0.0
  0
SPLINE
  5
DC
330
47
100
AcDbEntity
  8
0
  6
Continuous
 62
     7
100
AcDbSpline
210
0.0
220
0.0
230
1.0
 70
     8
 71
     3
 72
     9
 73
     5
 74
     3
 42
0.000000001
 43
0.0000000001
 44
0.00000001
 40
0.0
 40
0.0
 40
0.0
 40
0.0
 40
2.528828576666596
 40
5.046226803311596
 40
5.046226803311596
 40
5.046226803311596
 40
5.046226803311596
 10
-165.1804587143593
 20
-484.4921851118033
 30
0.0
 10
-165.414508080396
 20
-485.3021778932242
 30
0.0
 10
-165.8815488858741
 20
-486.9185022795139
 30
0.0
 10
-166.2567464846445
 20
-488.5585789858554
 30
0.0
 10
-166.4439203390419
 20
-489.3767598495332
 30
0.0
 11
-165.1804587143593
 21
-484.4921851118033
 31
0.0
 11
-165.8595418650003
 21
-486.9281284702647
 31
0.0
 11
-166.4439203390419
 21
-489.3767598495332
 31
0.0
  0
SPLINE
  5
DD
330
47
100
AcDbEntity
  8
0
  6
Continuous
 62
     7
100
AcDbSpline
210
0.0
220
0.0
230
1.0
 70
     8
 71
     3
 72
     9
 73
     5
 74
     3
 42
0.000000001
 43
0.0000000001
 44
0.00000001
 40
0.0
 40
0.0
 40
0.0
 40
0.0
 40
2.528828576666604
 40
5.046226803311596
 40
5.046226803311596
 40
5.046226803311596
 40
5.046226803311596
 10
-172.1086619446348
 20
-482.4921851118033
 30
0.0
 10
-172.3427113106715
 20
-483.3021778932242
 30
0.0
 10
-172.8097521161496
 20
-484.9185022795137
 30
0.0
 10
-173.18494971492
 20
-486.5585789858554
 30
0.0
 10
-173.3721235693174
 20
-487.3767598495332
 30
0.0
 11
-172.1086619446348
 21
-482.4921851118033
 31
0.0
 11
-172.7877450952758
 21
-484.9281284702647
 31
0.0
 11
-173.3721235693174
 21
-487.3767598495332
 31
0.0
  0
SPLINE
  5
DE
330
47
100
AcDbEntity
  8
0
  6
Continuous
 62
     7
100
AcDbSpline
210
0.0
220
0.0
230
1.0
 70
     8
 71
     3
 72
    11
 73
     7
 74
     5
 42
0.000000001
 43
0.0000000001
 44
0.00000001
 40
0.0
 40
0.0
 40
0.0
 40
0.0
 40
1.254756251970292
 40
2.573032674862009
 40
4.007169447586988
 40
5.593209315574953
 40
5.593209315574953
 40
5.593209315574953
 40
5.593209315574953
 10
-188.9866347158375
 20
-505.364599682846
 30
0.0
 10
-188.5748721484735
 20
-505.450289653066
 30
0.0
 10
-187.7305021434613
 20
-505.6260075062327
 30
0.0
 10
-186.384917745441
 20
-505.4744371340308
 30
0.0
 10
-184.9948723865842
 20
-505.0464622788356
 30
0.0
 10
-184.1148993609769
 20
-504.5516885885904
 30
0.0
 10
-183.6527832474869
 20
-504.2918591440508
 30
0.0
 11
-188.9866347158375
 21
-505.364599682846
 31
0.0
 11
-187.7466765552376
 21
-505.556737697447
 31
0.0
 11
-186.4335420551979
 21
-505.4404169386004
 31
0.0
 11
-185.0633161718231
 21
-505.0170621026978
 31
0.0
 11
-183.6527832474869
 21
-504.2918591440508
 31
0.0
  0
SPLINE
  5
DF
330
47
100
AcDbEntity
  8
0
  6
Continuous
 62
     7
100
AcDbSpline
210
0.0
220
0.0
230
1.0
 70
     8
 71
     3
 72
    11
 73
     7
 74
     5
 42
0.000000001
 43
0.0000000001
 44
0.00000001
 40
0.0
 40
0.0
 40
0.0
 40
0.0
 40
1.586039867987894
 40
3.020176640712922
 40
4.338453063604655
 40
5.593209315574981
 40
5.593209315574981
 40
5.593209315574981
 40
5.593209315574981
 10
-170.617328636194
 20
-459.1357197710162
 30
0.0
 10
-170.8698767939948
 20
-458.6695845217718
 30
0.0
 10
-171.3507853018923
 20
-457.7819581716743
 30
0.0
 10
-172.2988931613681
 20
-456.6790166214739
 30
0.0
 10
-173.3566868564389
 20
-455.8336507547665
 30
0.0
 10
-174.1648006297513
 20
-455.5323376308098
 30
0.0
 10
-174.5588826120193
 20
-455.3854003172021
 30
0.0
 11
-170.617328636194
 21
-459.1357197710162
 31
0.0
 11
-171.4243677659627
 21
-457.7703589011768
 31
0.0
 11
-172.3581674871528
 21
-456.6818891637666
 31
0.0
 11
-173.4072894597103
 21
-455.8836436997454
 31
0.0
 11
-174.5588826120193
 21
-455.3854003172021
 31
0.0
  0
SPLINE
  5
E0
330
47
100
AcDbEntity
  8
0
  6
Continuous
 62
     7
100
AcDbSpline
210
0.0
220
0.0
230
1.0
 70
     8
 71
     3
 72
    19
 73
    15
 74
    13
 42
0.000000001
 43
0.0000000001
 44
0.00000001
 40
0.0
 40
0.0
 40
0.0
 40
0.0
 40
1.859845249922369
 40
3.950639921806415
 40
6.416279298432331
 40
9.30836317043131
 40
12.61489483717513
 40
16.28332344942802
 40
20.23472206557532
 40
24.37302524381141
 40
28.59200018857466
 40
32.78124769556632
 40
36.83188930284604
 40
40.64236543195209
 40
40.64236543195209
 40
40.64236543195209
 40
40.64236543195209
 10
-146.6761930333955
 20
-466.0469303135068
 30
0.0
 10
-147.2969807012987
 20
-465.9522138292298
 30
0.0
 10
-148.6156433920846
 20
-465.7510192843791
 30
0.0
 10
-150.6998376871955
 20
-466.4761022275873
 30
0.0
 10
-152.7907144787192
 20
-467.8243588443671
 30
0.0
 10
-154.8836444600398
 20
-469.840464158278
 30
0.0
 10
-156.9175544725859
 20
-472.4332521650707
 30
0.0
 10
-158.836277525591
 20
-475.5370058388476
 30
0.0
 10
-160.5792604686352
 20
-479.0529293912537
 30
0.0
 10
-162.0906491558451
 20
-482.8718964406958
 30
0.0
 10
-163.3250796874034
 20
-486.8726534046957
 30
0.0
 10
-164.2319375118859
 20
-490.9282161370309
 30
0.0
 10
-164.8233978508325
 20
-494.909364160416
 30
0.0
 10
-164.9045728378242
 20
-497.5303449634955
 30
0.0
 10
-164.9439203390419
 20
-498.8007984944912
 30
0.0
 11
-146.6761930333955
 21
-466.0469303135068
 31
0.0
 11
-148.5307149893796
 21
-465.9063148608367
 31
0.0
 11
-150.5357499711589
 21
-466.4989843025655
 31
0.0
 11
-152.626582296995
 21
-467.8058116494227
 31
0.0
 11
-154.7357264403373
 21
-469.7846143433392
 31
0.0
 11
-156.795105952285
 21
-472.3715251818203
 31
0.0
 11
-158.7382509640432
 21
-475.4830450587497
 31
0.0
 11
-160.5024424941339
 21
-479.018745734359
 31
0.0
 11
-162.0307388188518
 21
-482.864504897139
 31
0.0
 11
-163.2738105527608
 21
-486.8961946482107
 31
0.0
 11
-164.1915363792974
 21
-490.9836845849919
 31
0.0
 11
-164.7542938943173
 21
-494.9950436329092
 31
0.0
 11
-164.9439203390419
 21
-498.8007984944912
 31
0.0
  0
SPLINE
  5
E1
330
47
100
AcDbEntity
  8
0
  6
Continuous
 62
     7
100
AcDbSpline
210
0.0
220
0.0
230
1.0
 70
     8
 71
     3
 72
    25
 73
    21
 74
    19
 42
0.000000001
 43
0.0000000001
 44
0.00000001
 40
0.0
 40
0.0
 40
0.0
 40
0.0
 40
1.802715242497717
 40
3.817534740695924
 40
6.180005735834444
 40
8.942530002991022
 40
12.09895673224027
 40
15.60530982306482
 40
19.39276138618299
 40
23.37604600318008
 40
27.4597054041305
 40
31.54336480508089
 40
35.52664942207802
 40
39.31410098519621
 40
42.82045407602078
 40
45.97688080527001
 40
48.73940507242655
 40
51.10187606756497
 40
53.11669556576317
 40
54.91941080826085
 40
54.91941080826085
 40
54.91941080826085
 40
54.91941080826085
 10
-148.4533173954906
 20
-514.4530696865413
 30
0.0
 10
-149.0120972617309
 20
-514.212677645924
 30
0.0
 10
-150.1954020311795
 20
-513.7036094622838
 30
0.0
 10
-151.5471212323943
 20
-512.067030693193
 30
0.0
 10
-152.5926509630601
 20
-509.9228416797736
 30
0.0
 10
-153.3060041805492
 20
-507.2386195412577
 30
0.0
 10
-153.6840793758311
 20
-504.1134465217393
 30
0.0
 10
-153.7144532325556
 20
-500.6236612659087
 30
0.0
 10
-153.3966209477539
 20
-496.8735069413043
 30
0.0
 10
-152.7390842291092
 20
-492.9729089640747
 30
0.0
 10
-151.7611292480693
 20
-489.0386111610568
 30
0.0
 10
-150.491890020662
 20
-485.1883998770642
 30
0.0
 10
-148.9694875898345
 20
-481.5374671257054
 30
0.0
 10
-147.2398201919164
 20
-478.194874492406
 30
0.0
 10
-145.3542775837329
 20
-475.2581666799547
 30
0.0
 10
-143.3688421254947
 20
-472.8152804164578
 30
0.0
 10
-141.3347096729391
 20
-470.9241890735392
 30
0.0
 10
-139.3073093432146
 20
-469.6670785589034
 30
0.0
 10
-137.2913507641395
 20
-469.0026646263101
 30
0.0
 10
-136.0187907411962
 20
-469.2025435421598
 30
0.0
 10
-135.4178627841978
 20
-469.2969303135068
 30
0.0
 11
-148.4533173954906
 21
-514.4530696865413
 31
0.0
 11
-150.051985486326
 21
-513.6199774846261
 31
0.0
 11
-151.4040413841072
 21
-512.1261761472595
 31
0.0
 11
-152.4684027443083
 21
-510.0170521371488
 31
0.0
 11
-153.2127304071772
 21
-507.3566918890921
 31
0.0
 11
-153.6144073484031
 21
-504.2259275537606
 31
0.0
 11
-153.6612298751114
 21
-500.7198871036652
 31
0.0
 11
-153.35177423013
 21
-496.9450988271146
 31
0.0
 11
-152.6954441329297
 21
-493.0162583969082
 31
0.0
 11
-151.7121808196046
 21
-489.0527413552321
 31
0.0
 11
-150.4318611946187
 21
-485.1749770843069
 31
0.0
 11
-148.8933862799579
 21
-481.5007899280129
 31
0.0
 11
-147.143502569465
 21
-478.141817417148
 31
0.0
 11
-145.2353788336482
 21
-475.2001213425126
 31
0.0
 11
-143.2269928386667
 21
-472.7650822496728
 31
0.0
 11
-141.1793681651405
 21
-470.9106892181073
 31
0.0
 11
-139.1547208772857
 21
-469.6932851952388
 31
0.0
 11
-137.214569021399
 21
-469.1498623742763
 31
0.0
 11
-135.4178627841978
 21
-469.2969303135068
 31
0.0
  0
ENDBLK
  5
49
330
47
100
AcDbEntity
  8
0
100
AcDbBlockEnd
  0
BLOCK
  5
4C
330
4A
100
AcDbEntity
  8
0
100
AcDbBlockBegin
  2
Allg1
 70
     0
 10
-189.9999999999395
 20
-478.00000000001
 30
0.0
  3
Allg1
  1

  0
INSERT
  5
4B
330
4A
100
AcDbEntity
  8
0
100
AcDbBlockReference
  2
WP_GR_HF_IP66_PG36_BK-select__1
 10
-251.1350570127656
 20
-514.9557282390232
 30
0.0
  0
MTEXT
  5
E3
330
4A
100
AcDbEntity
  8
1
 62
     6
100
AcDbMText
 10
-189.9999999999402
 20
-538.5863746504333
 30
0.0
 40
10.0
 41
0.0
 71
     2
 72
     1
  1
 
  7
CONVERTER_11
 73
     1
 44
1.32052821128451
  0
ENDBLK
  5
4D
330
4A
100
AcDbEntity
  8
0
100
AcDbBlockEnd
  0
BLOCK
  5
4F
330
4E
100
AcDbEntity
  8
0
100
AcDbBlockBegin
  2
WP_GR_HF_IP66_PG36_BK-select__2
 70
     0
 10
-460.5000000000101
 20
-191.2499999999999
 30
0.0
  3
WP_GR_HF_IP66_PG36_BK-select__2
  1

  0
LINE
  5
E4
330
4E
100
AcDbEntity
  8
0
  6
Continuous
 62
     7
100
AcDbLine
 10
-436.5269232493752
 20
-132.8593555511923
 30
0.0
 11
-457.9730767506447
 21
-145.2412980482323
 31
0.0
  0
LINE
  5
E5
330
4E
100
AcDbEntity
  8
0
  6
Continuous
 62
     7
100
AcDbLine
 10
-410.0269232493754
 20
-145.2412980482323
 30
0.0
 11
-431.473076750645
 21
-132.8593555511923
 31
0.0
  0
LINE
  5
E6
330
4E
100
AcDbEntity
  8
0
  6
Continuous
 62
     7
100
AcDbLine
 10
-407.5000000000101
 20
-174.3819424970397
 30
0.0
 11
-407.5000000000101
 21
-149.6180575029601
 31
0.0
  0
LINE
  5
E7
330
4E
100
AcDbEntity
  8
0
  6
Continuous
 62
     7
100
AcDbLine
 10
-431.473076750645
 20
-191.1406444488074
 30
0.0
 11
-410.0269232493754
 21
-178.7587019517675
 31
0.0
  0
LINE
  5
E8
330
4E
100
AcDbEntity
  8
0
  6
Continuous
 62
     7
100
AcDbLine
 10
-457.9730767506447
 20
-178.7587019517675
 30
0.0
 11
-436.5269232493752
 21
-191.1406444488074
 31
0.0
  0
LINE
  5
E9
330
4E
100
AcDbEntity
  8
0
  6
Continuous
 62
     7
100
AcDbLine
 10
-460.5000000000101
 20
-149.6180575029601
 30
0.0
 11
-460.5000000000101
 21
-174.3819424970397
 31
0.0
  0
LINE
  5
EA
330
4E
100
AcDbEntity
  8
1
  6
DOT_CENTER
 62
     2
100
AcDbLine
 10
-405.3890000000101
 20
-161.9999999999999
 30
0.0
 11
-462.6110000000101
 21
-161.9999999999999
 31
0.0
  0
LINE
  5
EB
330
4E
100
AcDbEntity
  8
1
  6
DOT_CENTER
 62
     2
100
AcDbLine
 10
-434.0000000000101
 20
-133.3889999999999
 30
0.0
 11
-434.0000000000101
 21
-190.6109999999999
 31
0.0
  0
ARC
  5
EC
330
4E
100
AcDbEntity
  8
0
  6
Continuous
 62
     7
100
AcDbCircle
 10
-434.0000000000101
 20
-161.9999999999999
 30
0.0
 40
29.25000000000006
100
AcDbArc
 50
325.0440089759761
 51
334.9559910240243
  0
ARC
  5
ED
330
4E
100
AcDbEntity
  8
0
  6
Continuous
 62
     7
100
AcDbCircle
 10
-434.0000000000101
 20
-161.9999999999999
 30
0.0
 40
29.24999999999996
100
AcDbArc
 50
265.0440089759763
 51
274.9559910240237
  0
ARC
  5
EE
330
4E
100
AcDbEntity
  8
0
  6
Continuous
 62
     7
100
AcDbCircle
 10
-434.0000000000101
 20
-161.9999999999999
 30
0.0
 40
29.25000000000004
100
AcDbArc
 50
85.04400897597637
 51
94.95599102402363
  0
ARC
  5
EF
330
4E
100
AcDbEntity
  8
0
  6
Continuous
 62
     7
100
AcDbCircle
 10
-434.0000000000101
 20
-161.9999999999999
 30
0.0
 40
29.24999999999999
100
AcDbArc
 50
25.04400897597571
 51
34.95599102402387
  0
ARC
  5
F0
330
4E
100
AcDbEntity
  8
0
  6
Continuous
 62
     7
100
AcDbCircle
 10
-434.0000000000101
 20
-161.9999999999999
 30
0.0
 40
29.2499999999999
100
AcDbArc
 50
145.0440089759759
 51
154.9559910240243
  0
ARC
  5
F1
330
4E
100
AcDbEntity
  8
0
  6
Continuous
 62
     7
100
AcDbCircle
 10
-434.0000000000101
 20
-161.9999999999999
 30
0.0
 40
29.25
100
AcDbArc
 50
205.0440089759758
 51
214.9559910240241
  0
CIRCLE
  5
F2
330
4E
100
AcDbEntity
  8
0
  6
Continuous
 62
     7
100
AcDbCircle
 10
-434.0000000000101
 20
-161.9999999999999
 30
0.0
 40
26.0
  0
CIRCLE
  5
F3
330
4E
100
AcDbEntity
  8
0
  6
Continuous
 62
     7
100
AcDbCircle
 10
-434.0000000000101
 20
-161.9999999999999
 30
0.0
 40
16.0
  0
CIRCLE
  5
F4
330
4E
100
AcDbEntity
  8
0
  6
Continuous
 62
     7
100
AcDbCircle
 10
-434.0000000000101
 20
-161.9999999999999
 30
0.0
 40
21.25
  0
CIRCLE
  5
F5
330
4E
100
AcDbEntity
  8
0
  6
Continuous
 62
     7
100
AcDbCircle
 10
-434.0000000000101
 20
-161.9999999999999
 30
0.0
 40
26.00999999999998
  0
ENDBLK
  5
50
330
4E
100
AcDbEntity
  8
0
100
AcDbBlockEnd
  0
BLOCK
  5
53
330
51
100
AcDbEntity
  8
0
100
AcDbBlockBegin
  2
SA_Links1
 70
     0
 10
-434.000000000005
 20
-161.9999999999999
 30
0.0
  3
SA_Links1
  1

  0
INSERT
  5
52
330
51
100
AcDbEntity
  8
0
100
AcDbBlockReference
  2
WP_GR_HF_IP66_PG36_BK-select__2
 10
-460.5000000000101
 20
-191.2499999999999
 30
0.0
  0
MTEXT
  5
F6
330
51
100
AcDbEntity
  8
1
 62
     6
100
AcDbMText
 10
-434.0000000000101
 20
-201.2499999999998
 30
0.0
 40
10.0
 41
0.0
 71
     2
 72
     1
  1
 
  7
CONVERTER_11
 73
     1
 44
1.32052821128451
  0
ENDBLK
  5
54
330
51
100
AcDbEntity
  8
0
100
AcDbBlockEnd
  0
BLOCK
  5
56
330
55
100
AcDbEntity
  8
0
100
AcDbBlockBegin
  2
WP_GR_HF_IP66_PG36_BK-select__3
 70
     0
 10
-665.4999999999375
 20
-359.781287999995
 30
0.0
  3
WP_GR_HF_IP66_PG36_BK-select__3
  1

  0
LINE
  5
F7
330
55
100
AcDbEntity
  8
0
  6
Continuous
 62
     7
100
AcDbLine
 10
-567.4999999999375
 20
-306.781287999995
 30
0.0
 11
-567.4999999999375
 21
-309.3082112493603
 31
0.0
  0
LINE
  5
F8
330
55
100
AcDbEntity
  8
0
  6
Continuous
 62
     7
100
AcDbLine
 10
-575.4999999999375
 20
-306.781287999995
 30
0.0
 11
-575.4999999999375
 21
-309.3082112493603
 31
0.0
  0
LINE
  5
F9
330
55
100
AcDbEntity
  8
0
  6
Continuous
 62
     7
100
AcDbLine
 10
-567.4999999999375
 20
-309.781287999995
 30
0.0
 11
-567.4999999999375
 21
-309.3082112493603
 31
0.0
  0
LINE
  5
FA
330
55
100
AcDbEntity
  8
0
  6
Continuous
 62
     7
100
AcDbLine
 10
-575.4999999999375
 20
-309.781287999995
 30
0.0
 11
-575.4999999999375
 21
-309.3082112493603
 31
0.0
  0
LINE
  5
FB
330
55
100
AcDbEntity
  8
0
  6
Continuous
 62
     7
100
AcDbLine
 10
-600.4999999999375
 20
-307.271287999995
 30
0.0
 11
-600.4999999999375
 21
-309.781287999995
 31
0.0
  0
LINE
  5
FC
330
55
100
AcDbEntity
  8
0
  6
Continuous
 62
     7
100
AcDbLine
 10
-629.9999999999375
 20
-307.271287999995
 30
0.0
 11
-629.9999999999375
 21
-307.281287999995
 31
0.0
  0
LINE
  5
FD
330
55
100
AcDbEntity
  8
0
  6
Continuous
 62
     7
100
AcDbLine
 10
-662.4999999999375
 20
-307.281287999995
 30
0.0
 11
-665.4999999999375
 21
-307.281287999995
 31
0.0
  0
LINE
  5
FE
330
55
100
AcDbEntity
  8
0
  6
Continuous
 62
     7
100
AcDbLine
 10
-600.4999999999375
 20
-307.271287999995
 30
0.0
 11
-629.9999999999375
 21
-307.271287999995
 31
0.0
  0
LINE
  5
FF
330
55
100
AcDbEntity
  8
0
  6
Continuous
 62
     7
100
AcDbLine
 10
-575.4999999999375
 20
-309.781287999995
 30
0.0
 11
-600.4999999999375
 21
-309.781287999995
 31
0.0
  0
LINE
  5
100
330
55
100
AcDbEntity
  8
0
  6
Continuous
 62
     7
100
AcDbLine
 10
-567.4999999999375
 20
-306.781287999995
 30
0.0
 11
-575.4999999999375
 21
-306.781287999995
 31
0.0
  0
LINE
  5
101
330
55
100
AcDbEntity
  8
0
  6
Continuous
 62
     7
100
AcDbLine
 10
-567.4999999999375
 20
-309.3082112493603
 30
0.0
 11
-575.4999999999375
 21
-309.3082112493603
 31
0.0
  0
LINE
  5
102
330
55
100
AcDbEntity
  8
0
  6
Continuous
 62
     7
100
AcDbLine
 10
-567.4999999999375
 20
-330.7543647506299
 30
0.0
 11
-567.4999999999375
 21
-335.8082112493601
 31
0.0
  0
LINE
  5
103
330
55
100
AcDbEntity
  8
0
  6
Continuous
 62
     7
100
AcDbLine
 10
-567.4999999999375
 20
-356.781287999995
 30
0.0
 11
-567.4999999999375
 21
-335.8082112493601
 31
0.0
  0
LINE
  5
104
330
55
100
AcDbEntity
  8
0
  6
Continuous
 62
     7
100
AcDbLine
 10
-567.4999999999375
 20
-330.7543647506299
 30
0.0
 11
-567.4999999999375
 21
-309.781287999995
 31
0.0
  0
LINE
  5
105
330
55
100
AcDbEntity
  8
0
  6
Continuous
 62
     7
100
AcDbLine
 10
-575.4999999999375
 20
-330.7543647506299
 30
0.0
 11
-575.4999999999375
 21
-335.8082112493601
 31
0.0
  0
LINE
  5
106
330
55
100
AcDbEntity
  8
0
  6
Continuous
 62
     7
100
AcDbLine
 10
-575.4999999999375
 20
-356.781287999995
 30
0.0
 11
-575.4999999999375
 21
-335.8082112493601
 31
0.0
  0
LINE
  5
107
330
55
100
AcDbEntity
  8
0
  6
Continuous
 62
     7
100
AcDbLine
 10
-575.4999999999375
 20
-330.7543647506299
 30
0.0
 11
-575.4999999999375
 21
-309.781287999995
 31
0.0
  0
LINE
  5
108
330
55
100
AcDbEntity
  8
0
  6
Continuous
 62
     7
100
AcDbLine
 10
-567.4999999999375
 20
-330.7543647506299
 30
0.0
 11
-575.4999999999375
 21
-330.7543647506299
 31
0.0
  0
LINE
  5
109
330
55
100
AcDbEntity
  8
0
  6
Continuous
 62
     7
100
AcDbLine
 10
-567.4999999999375
 20
-357.2543647506297
 30
0.0
 11
-567.4999999999375
 21
-356.781287999995
 31
0.0
  0
LINE
  5
10A
330
55
100
AcDbEntity
  8
0
  6
Continuous
 62
     7
100
AcDbLine
 10
-567.4999999999375
 20
-335.8082112493601
 30
0.0
 11
-575.4999999999375
 21
-335.8082112493601
 31
0.0
  0
LINE
  5
10B
330
55
100
AcDbEntity
  8
0
  6
Continuous
 62
     7
100
AcDbLine
 10
-567.4999999999375
 20
-357.2543647506297
 30
0.0
 11
-575.4999999999375
 21
-357.2543647506297
 31
0.0
  0
LINE
  5
10C
330
55
100
AcDbEntity
  8
0
  6
Continuous
 62
     7
100
AcDbLine
 10
-554.4999999999375
 20
-356.781287999995
 30
0.0
 11
-567.4999999999375
 21
-356.781287999995
 31
0.0
  0
LINE
  5
10D
330
55
100
AcDbEntity
  8
0
  6
Continuous
 62
     7
100
AcDbLine
 10
-554.4999999999375
 20
-309.781287999995
 30
0.0
 11
-567.4999999999375
 21
-309.781287999995
 31
0.0
  0
LINE
  5
10E
330
55
100
AcDbEntity
  8
0
  6
Continuous
 62
     7
100
AcDbLine
 10
-629.9999999999375
 20
-331.9976332443089
 30
0.0
 11
-629.9999999999375
 21
-334.5649427556811
 31
0.0
  0
LINE
  5
10F
330
55
100
AcDbEntity
  8
0
  6
Continuous
 62
     7
100
AcDbLine
 10
-629.9999999999375
 20
-331.9976332443089
 30
0.0
 11
-639.9999999999375
 21
-331.9976332443089
 31
0.0
  0
LINE
  5
110
330
55
100
AcDbEntity
  8
0
  6
Continuous
 62
     7
100
AcDbLine
 10
-629.9999999999375
 20
-334.5649427556811
 30
0.0
 11
-639.9999999999375
 21
-334.5649427556811
 31
0.0
  0
LINE
  5
111
330
55
100
AcDbEntity
  8
0
  6
Continuous
 62
     7
100
AcDbLine
 10
-629.9999999999375
 20
-352.5399729980035
 30
0.0
 11
-629.9999999999375
 21
-352.5513249106495
 31
0.0
  0
LINE
  5
112
330
55
100
AcDbEntity
  8
0
  6
Continuous
 62
     7
100
AcDbLine
 10
-629.9999999999375
 20
-350.7359629457512
 30
0.0
 11
-629.9999999999375
 21
-352.5399729980035
 31
0.0
  0
LINE
  5
113
330
55
100
AcDbEntity
  8
0
  6
Continuous
 62
     7
100
AcDbLine
 10
-629.9999999999375
 20
-359.2495807907852
 30
0.0
 11
-629.9999999999375
 21
-359.281287999995
 31
0.0
  0
LINE
  5
114
330
55
100
AcDbEntity
  8
0
  6
Continuous
 62
     7
100
AcDbLine
 10
-629.9999999999375
 20
-352.5513249106495
 30
0.0
 11
-629.9999999999375
 21
-359.2495807907852
 31
0.0
  0
LINE
  5
115
330
55
100
AcDbEntity
  8
0
  6
Continuous
 62
     7
100
AcDbLine
 10
-656.9999999999375
 20
-358.781287999995
 30
0.0
 11
-656.9999999999375
 21
-358.4556797503432
 31
0.0
  0
LINE
  5
116
330
55
100
AcDbEntity
  8
0
  6
Continuous
 62
     7
100
AcDbLine
 10
-646.4999999999375
 20
-358.781287999995
 30
0.0
 11
-646.4999999999375
 21
-358.4556797503432
 31
0.0
  0
LINE
  5
117
330
55
100
AcDbEntity
  8
0
  6
Continuous
 62
     7
100
AcDbLine
 10
-639.9999999999375
 20
-359.2495807907852
 30
0.0
 11
-639.9999999999375
 21
-352.5513249106495
 31
0.0
  0
LINE
  5
118
330
55
100
AcDbEntity
  8
0
  6
Continuous
 62
     7
100
AcDbLine
 10
-629.9999999999375
 20
-352.5513249106495
 30
0.0
 11
-639.9999999999375
 21
-352.5513249106495
 31
0.0
  0
LINE
  5
119
330
55
100
AcDbEntity
  8
0
  6
Continuous
 62
     7
100
AcDbLine
 10
-629.9999999999375
 20
-350.7359629457512
 30
0.0
 11
-639.9999999999375
 21
-350.7359629457512
 31
0.0
  0
LINE
  5
11A
330
55
100
AcDbEntity
  8
0
  6
Continuous
 62
     7
100
AcDbLine
 10
-646.4999999999375
 20
-339.781287999995
 30
0.0
 11
-656.9999999999375
 21
-339.781287999995
 31
0.0
  0
LINE
  5
11B
330
55
100
AcDbEntity
  8
0
  6
Continuous
 62
     7
100
AcDbLine
 10
-629.9999999999375
 20
-334.5649427556811
 30
0.0
 11
-629.9999999999375
 21
-350.7359629457512
 31
0.0
  0
LINE
  5
11C
330
55
100
AcDbEntity
  8
0
  6
Continuous
 62
     7
100
AcDbLine
 10
-554.4999999999375
 20
-356.781287999995
 30
0.0
 11
-554.4999999999375
 21
-309.781287999995
 31
0.0
  0
LINE
  5
11D
330
55
100
AcDbEntity
  8
0
  6
Continuous
 62
     7
100
AcDbLine
 10
-656.9999999999375
 20
-339.781287999995
 30
0.0
 11
-656.9999999999375
 21
-326.7812879999949
 31
0.0
  0
LINE
  5
11E
330
55
100
AcDbEntity
  8
0
  6
Continuous
 62
     7
100
AcDbLine
 10
-662.4999999999375
 20
-358.281287999995
 30
0.0
 11
-662.4999999999375
 21
-359.281287999995
 31
0.0
  0
LINE
  5
11F
330
55
100
AcDbEntity
  8
0
  6
Continuous
 62
     7
100
AcDbLine
 10
-646.4999999999375
 20
-339.781287999995
 30
0.0
 11
-646.4999999999375
 21
-326.7812879999949
 31
0.0
  0
LINE
  5
120
330
55
100
AcDbEntity
  8
0
  6
Continuous
 62
     7
100
AcDbLine
 10
-646.4999999999375
 20
-308.1068962496468
 30
0.0
 11
-656.9999999999375
 21
-308.1068962496468
 31
0.0
  0
LINE
  5
121
330
55
100
AcDbEntity
  8
0
  6
Continuous
 62
     7
100
AcDbLine
 10
-646.4999999999375
 20
-307.781287999995
 30
0.0
 11
-656.9999999999375
 21
-307.781287999995
 31
0.0
  0
LINE
  5
122
330
55
100
AcDbEntity
  8
0
  6
Continuous
 62
     7
100
AcDbLine
 10
-656.9999999999375
 20
-307.281287999995
 30
0.0
 11
-661.9999999999375
 21
-307.281287999995
 31
0.0
  0
LINE
  5
123
330
55
100
AcDbEntity
  8
0
  6
Continuous
 62
     7
100
AcDbLine
 10
-656.9999999999375
 20
-308.1068962496468
 30
0.0
 11
-656.9999999999375
 21
-307.781287999995
 31
0.0
  0
LINE
  5
124
330
55
100
AcDbEntity
  8
0
  6
Continuous
 62
     7
100
AcDbLine
 10
-656.9999999999375
 20
-307.781287999995
 30
0.0
 11
-656.9999999999375
 21
-307.281287999995
 31
0.0
  0
LINE
  5
125
330
55
100
AcDbEntity
  8
0
  6
Continuous
 62
     7
100
AcDbLine
 10
-629.9999999999375
 20
-307.3129952092048
 30
0.0
 11
-629.9999999999375
 21
-314.0112510893405
 31
0.0
  0
LINE
  5
126
330
55
100
AcDbEntity
  8
0
  6
Continuous
 62
     7
100
AcDbLine
 10
-629.9999999999375
 20
-307.281287999995
 30
0.0
 11
-629.9999999999375
 21
-307.3129952092048
 31
0.0
  0
LINE
  5
127
330
55
100
AcDbEntity
  8
0
  6
Continuous
 62
     7
100
AcDbLine
 10
-629.9999999999375
 20
-314.0112510893405
 30
0.0
 11
-629.9999999999375
 21
-315.8266130542387
 31
0.0
  0
LINE
  5
128
330
55
100
AcDbEntity
  8
0
  6
Continuous
 62
     7
100
AcDbLine
 10
-646.4999999999375
 20
-308.1068962496468
 30
0.0
 11
-646.4999999999375
 21
-307.781287999995
 31
0.0
  0
LINE
  5
129
330
55
100
AcDbEntity
  8
0
  6
Continuous
 62
     7
100
AcDbLine
 10
-646.4999999999375
 20
-307.781287999995
 30
0.0
 11
-646.4999999999375
 21
-307.281287999995
 31
0.0
  0
LINE
  5
12A
330
55
100
AcDbEntity
  8
0
  6
Continuous
 62
     7
100
AcDbLine
 10
-629.9999999999375
 20
-315.8266130542387
 30
0.0
 11
-639.9999999999375
 21
-315.8266130542387
 31
0.0
  0
LINE
  5
12B
330
55
100
AcDbEntity
  8
0
  6
Continuous
 62
     7
100
AcDbLine
 10
-629.9999999999375
 20
-307.3129952092048
 30
0.0
 11
-639.9999999999375
 21
-307.3129952092048
 31
0.0
  0
LINE
  5
12C
330
55
100
AcDbEntity
  8
0
  6
Continuous
 62
     7
100
AcDbLine
 10
-639.9999999999375
 20
-314.0112510893405
 30
0.0
 11
-639.9999999999375
 21
-307.3129952092048
 31
0.0
  0
LINE
  5
12D
330
55
100
AcDbEntity
  8
0
  6
Continuous
 62
     7
100
AcDbLine
 10
-629.9999999999375
 20
-314.0112510893405
 30
0.0
 11
-639.9999999999375
 21
-314.0112510893405
 31
0.0
  0
LINE
  5
12E
330
55
100
AcDbEntity
  8
0
  6
Continuous
 62
     7
100
AcDbLine
 10
-662.4999999999375
 20
-307.281287999995
 30
0.0
 11
-662.4999999999375
 21
-308.281287999995
 31
0.0
  0
LINE
  5
12F
330
55
100
AcDbEntity
  8
0
  6
Continuous
 62
     7
100
AcDbLine
 10
-629.9999999999375
 20
-307.281287999995
 30
0.0
 11
-646.4999999999375
 21
-307.281287999995
 31
0.0
  0
LINE
  5
130
330
55
100
AcDbEntity
  8
0
  6
Continuous
 62
     7
100
AcDbLine
 10
-661.9999999999375
 20
-358.281287999995
 30
0.0
 11
-662.4999999999375
 21
-358.281287999995
 31
0.0
  0
LINE
  5
131
330
55
100
AcDbEntity
  8
0
  6
Continuous
 62
     7
100
AcDbLine
 10
-639.9999999999375
 20
-350.7359629457512
 30
0.0
 11
-639.9999999999375
 21
-334.5649427556811
 31
0.0
  0
LINE
  5
132
330
55
100
AcDbEntity
  8
0
  6
Continuous
 62
     7
100
AcDbLine
 10
-575.4999999999375
 20
-357.2543647506297
 30
0.0
 11
-575.4999999999375
 21
-356.781287999995
 31
0.0
  0
LINE
  5
133
330
55
100
AcDbEntity
  8
0
  6
Continuous
 62
     7
100
AcDbLine
 10
-656.9999999999375
 20
-359.281287999995
 30
0.0
 11
-661.9999999999375
 21
-359.281287999995
 31
0.0
  0
LINE
  5
134
330
55
100
AcDbEntity
  8
0
  6
Continuous
 62
     7
100
AcDbLine
 10
-629.9999999999375
 20
-359.281287999995
 30
0.0
 11
-646.4999999999375
 21
-359.281287999995
 31
0.0
  0
LINE
  5
135
330
55
100
AcDbEntity
  8
0
  6
Continuous
 62
     7
100
AcDbLine
 10
-629.9999999999375
 20
-359.2495807907852
 30
0.0
 11
-639.9999999999375
 21
-359.2495807907852
 31
0.0
  0
LINE
  5
136
330
55
100
AcDbEntity
  8
0
  6
Continuous
 62
     7
100
AcDbLine
 10
-600.4999999999375
 20
-356.781287999995
 30
0.0
 11
-600.4999999999375
 21
-359.291287999995
 31
0.0
  0
LINE
  5
137
330
55
100
AcDbEntity
  8
0
  6
Continuous
 62
     7
100
AcDbLine
 10
-575.4999999999375
 20
-356.781287999995
 30
0.0
 11
-600.4999999999375
 21
-356.781287999995
 31
0.0
  0
LINE
  5
138
330
55
100
AcDbEntity
  8
0
  6
Continuous
 62
     7
100
AcDbLine
 10
-567.4999999999375
 20
-359.781287999995
 30
0.0
 11
-575.4999999999375
 21
-359.781287999995
 31
0.0
  0
LINE
  5
139
330
55
100
AcDbEntity
  8
0
  6
Continuous
 62
     7
100
AcDbLine
 10
-567.4999999999375
 20
-357.2543647506297
 30
0.0
 11
-567.4999999999375
 21
-359.781287999995
 31
0.0
  0
LINE
  5
13A
330
55
100
AcDbEntity
  8
0
  6
Continuous
 62
     7
100
AcDbLine
 10
-656.9999999999375
 20
-359.281287999995
 30
0.0
 11
-656.9999999999375
 21
-358.781287999995
 31
0.0
  0
LINE
  5
13B
330
55
100
AcDbEntity
  8
0
  6
Continuous
 62
     7
100
AcDbLine
 10
-646.4999999999375
 20
-359.281287999995
 30
0.0
 11
-646.4999999999375
 21
-358.781287999995
 31
0.0
  0
LINE
  5
13C
330
55
100
AcDbEntity
  8
0
  6
Continuous
 62
     7
100
AcDbLine
 10
-575.4999999999375
 20
-357.2543647506297
 30
0.0
 11
-575.4999999999375
 21
-359.781287999995
 31
0.0
  0
LINE
  5
13D
330
55
100
AcDbEntity
  8
0
  6
Continuous
 62
     7
100
AcDbLine
 10
-662.4999999999375
 20
-359.281287999995
 30
0.0
 11
-665.4999999999375
 21
-359.281287999995
 31
0.0
  0
LINE
  5
13E
330
55
100
AcDbEntity
  8
0
  6
Continuous
 62
     7
100
AcDbLine
 10
-629.9999999999375
 20
-359.281287999995
 30
0.0
 11
-629.9999999999375
 21
-359.291287999995
 31
0.0
  0
LINE
  5
13F
330
55
100
AcDbEntity
  8
0
  6
Continuous
 62
     7
100
AcDbLine
 10
-600.4999999999375
 20
-359.291287999995
 30
0.0
 11
-629.9999999999375
 21
-359.291287999995
 31
0.0
  0
LINE
  5
140
330
55
100
AcDbEntity
  8
0
  6
Continuous
 62
     7
100
AcDbLine
 10
-646.4999999999375
 20
-358.781287999995
 30
0.0
 11
-656.9999999999375
 21
-358.781287999995
 31
0.0
  0
LINE
  5
141
330
55
100
AcDbEntity
  8
0
  6
Continuous
 62
     7
100
AcDbLine
 10
-646.4999999999375
 20
-358.4556797503432
 30
0.0
 11
-656.9999999999375
 21
-358.4556797503432
 31
0.0
  0
LINE
  5
142
330
55
100
AcDbEntity
  8
0
  6
Continuous
 62
     7
100
AcDbLine
 10
-646.4999999999375
 20
-326.7812879999949
 30
0.0
 11
-656.9999999999375
 21
-326.7812879999949
 31
0.0
  0
LINE
  5
143
330
55
100
AcDbEntity
  8
0
  6
Continuous
 62
     7
100
AcDbLine
 10
-661.9999999999375
 20
-308.281287999995
 30
0.0
 11
-662.4999999999375
 21
-308.281287999995
 31
0.0
  0
LINE
  5
144
330
55
100
AcDbEntity
  8
0
  6
Continuous
 62
     7
100
AcDbLine
 10
-639.9999999999375
 20
-331.9976332443089
 30
0.0
 11
-639.9999999999375
 21
-315.8266130542387
 31
0.0
  0
LINE
  5
145
330
55
100
AcDbEntity
  8
0
  6
Continuous
 62
     7
100
AcDbLine
 10
-629.9999999999375
 20
-315.8266130542387
 30
0.0
 11
-629.9999999999375
 21
-331.9976332443089
 31
0.0
  0
LINE
  5
146
330
55
100
AcDbEntity
  8
0
  6
Continuous
 62
     7
100
AcDbLine
 10
-665.4999999999375
 20
-307.281287999995
 30
0.0
 11
-665.4999999999375
 21
-359.281287999995
 31
0.0
  0
LINE
  5
147
330
55
100
AcDbEntity
  8
0
  6
Continuous
 62
     7
100
AcDbLine
 10
-661.9999999999375
 20
-307.281287999995
 30
0.0
 11
-661.9999999999375
 21
-308.281287999995
 31
0.0
  0
LINE
  5
148
330
55
100
AcDbEntity
  8
0
  6
Continuous
 62
     7
100
AcDbLine
 10
-661.9999999999375
 20
-358.281287999995
 30
0.0
 11
-661.9999999999375
 21
-359.281287999995
 31
0.0
  0
LINE
  5
149
330
55
100
AcDbEntity
  8
0
  6
Continuous
 62
     7
100
AcDbLine
 10
-661.9999999999375
 20
-308.281287999995
 30
0.0
 11
-661.9999999999375
 21
-358.281287999995
 31
0.0
  0
LINE
  5
14A
330
55
100
AcDbEntity
  8
0
  6
Continuous
 62
     7
100
AcDbLine
 10
-662.4999999999375
 20
-308.281287999995
 30
0.0
 11
-662.4999999999375
 21
-358.281287999995
 31
0.0
  0
LINE
  5
14B
330
55
100
AcDbEntity
  8
0
  6
Continuous
 62
     7
100
AcDbLine
 10
-600.4999999999375
 20
-309.781287999995
 30
0.0
 11
-600.4999999999375
 21
-356.781287999995
 31
0.0
  0
LINE
  5
14C
330
55
100
AcDbEntity
  8
1
  6
Continuous
 62
     2
100
AcDbLine
 10
-554.4999999999375
 20
-356.021287999995
 30
0.0
 11
-567.4999999999375
 21
-356.021287999995
 31
0.0
  0
LINE
  5
14D
330
55
100
AcDbEntity
  8
1
  6
Continuous
 62
     2
100
AcDbLine
 10
-554.4999999999375
 20
-310.541287999995
 30
0.0
 11
-567.4999999999375
 21
-310.541287999995
 31
0.0
  0
LINE
  5
14E
330
55
100
AcDbEntity
  8
1
  6
DOT_CENTER
 62
     2
100
AcDbLine
 10
-575.4999999999375
 20
-333.281287999995
 30
0.0
 11
-665.4999999999375
 21
-333.281287999995
 31
0.0
  0
LINE
  5
14F
330
55
100
AcDbEntity
  8
1
  6
DOT_CENTER
 62
     2
100
AcDbLine
 10
-554.4999999999375
 20
-333.281287999995
 30
0.0
 11
-567.4999999999375
 21
-333.281287999995
 31
0.0
  0
ENDBLK
  5
57
330
55
100
AcDbEntity
  8
0
100
AcDbBlockEnd
  0
BLOCK
  5
5A
330
58
100
AcDbEntity
  8
0
100
AcDbBlockBegin
  2
Drfsicht1
 70
     0
 10
-610.0000000000026
 20
-333.281288
 30
0.0
  3
Drfsicht1
  1

  0
INSERT
  5
59
330
58
100
AcDbEntity
  8
0
100
AcDbBlockReference
  2
WP_GR_HF_IP66_PG36_BK-select__3
 10
-665.4999999999375
 20
-359.781287999995
 30
0.0
  0
MTEXT
  5
150
330
58
100
AcDbEntity
  8
1
 62
     6
100
AcDbMText
 10
-609.9999999999375
 20
-369.781287999995
 30
0.0
 40
10.0
 41
0.0
 71
     2
 72
     1
  1
 
  7
CONVERTER_11
 73
     1
 44
1.32052821128451
  0
ENDBLK
  5
5B
330
58
100
AcDbEntity
  8
0
100
AcDbBlockEnd
  0
BLOCK
  5
5D
330
5C
100
AcDbEntity
  8
0
100
AcDbBlockBegin
  2
WP_GR_HF_IP66_PG36_BK-select__4
 70
     0
 10
-665.4999999999325
 20
-191.2499999999999
 30
0.0
  3
WP_GR_HF_IP66_PG36_BK-select__4
  1

  0
LINE
  5
151
330
5C
100
AcDbEntity
  8
0
  6
Continuous
 62
     7
100
AcDbLine
 10
-554.4999999999325
 20
-138.4999999999999
 30
0.0
 11
-567.4999999999325
 21
-138.4999999999999
 31
0.0
  0
LINE
  5
152
330
5C
100
AcDbEntity
  8
0
  6
Continuous
 62
     7
100
AcDbLine
 10
-575.4999999999325
 20
-145.2412980482324
 30
0.0
 11
-575.4999999999325
 21
-149.6180575029601
 31
0.0
  0
LINE
  5
153
330
5C
100
AcDbEntity
  8
0
  6
Continuous
 62
     7
100
AcDbLine
 10
-575.4999999999325
 20
-174.3819424970397
 30
0.0
 11
-575.4999999999325
 21
-149.6180575029601
 31
0.0
  0
LINE
  5
154
330
5C
100
AcDbEntity
  8
0
  6
Continuous
 62
     7
100
AcDbLine
 10
-567.4999999999325
 20
-145.2412980482324
 30
0.0
 11
-567.4999999999325
 21
-149.6180575029601
 31
0.0
  0
LINE
  5
155
330
5C
100
AcDbEntity
  8
0
  6
Continuous
 62
     7
100
AcDbLine
 10
-567.4999999999325
 20
-149.6180575029601
 30
0.0
 11
-575.4999999999325
 21
-149.6180575029601
 31
0.0
  0
LINE
  5
156
330
5C
100
AcDbEntity
  8
0
  6
Continuous
 62
     7
100
AcDbLine
 10
-575.4999999999325
 20
-185.4999999999999
 30
0.0
 11
-575.4999999999325
 21
-178.7587019517675
 31
0.0
  0
LINE
  5
157
330
5C
100
AcDbEntity
  8
0
  6
Continuous
 62
     7
100
AcDbLine
 10
-567.4999999999325
 20
-174.3819424970397
 30
0.0
 11
-567.4999999999325
 21
-178.7587019517675
 31
0.0
  0
LINE
  5
158
330
5C
100
AcDbEntity
  8
0
  6
Continuous
 62
     7
100
AcDbLine
 10
-567.4999999999325
 20
-174.3819424970397
 30
0.0
 11
-575.4999999999325
 21
-174.3819424970397
 31
0.0
  0
LINE
  5
159
330
5C
100
AcDbEntity
  8
0
  6
Continuous
 62
     7
100
AcDbLine
 10
-575.4999999999325
 20
-174.3819424970397
 30
0.0
 11
-575.4999999999325
 21
-178.7587019517675
 31
0.0
  0
LINE
  5
15A
330
5C
100
AcDbEntity
  8
0
  6
Continuous
 62
     7
100
AcDbLine
 10
-575.4999999999325
 20
-185.4999999999999
 30
0.0
 11
-600.4999999999325
 21
-185.4999999999999
 31
0.0
  0
LINE
  5
15B
330
5C
100
AcDbEntity
  8
0
  6
Continuous
 62
     7
100
AcDbLine
 10
-567.4999999999325
 20
-178.7587019517675
 30
0.0
 11
-575.4999999999325
 21
-178.7587019517675
 31
0.0
  0
LINE
  5
15C
330
5C
100
AcDbEntity
  8
0
  6
Continuous
 62
     7
100
AcDbLine
 10
-567.4999999999325
 20
-174.3819424970397
 30
0.0
 11
-567.4999999999325
 21
-149.6180575029601
 31
0.0
  0
LINE
  5
15D
330
5C
100
AcDbEntity
  8
0
  6
Continuous
 62
     7
100
AcDbLine
 10
-554.4999999999325
 20
-185.4999999999999
 30
0.0
 11
-554.4999999999325
 21
-138.4999999999999
 31
0.0
  0
LINE
  5
15E
330
5C
100
AcDbEntity
  8
0
  6
Continuous
 62
     7
100
AcDbLine
 10
-600.4999999999325
 20
-185.4999999999999
 30
0.0
 11
-600.4999999999325
 21
-188.0099999999999
 31
0.0
  0
LINE
  5
15F
330
5C
100
AcDbEntity
  8
0
  6
Continuous
 62
     7
100
AcDbLine
 10
-661.9999999999325
 20
-186.9999999999999
 30
0.0
 11
-661.9999999999325
 21
-187.9999999999999
 31
0.0
  0
LINE
  5
160
330
5C
100
AcDbEntity
  8
0
  6
Continuous
 62
     7
100
AcDbLine
 10
-661.9999999999325
 20
-161.9999999999999
 30
0.0
 11
-661.9999999999325
 21
-186.9999999999999
 31
0.0
  0
LINE
  5
161
330
5C
100
AcDbEntity
  8
0
  6
Continuous
 62
     7
100
AcDbLine
 10
-639.9999999999325
 20
-187.9682927907901
 30
0.0
 11
-639.9999999999325
 21
-181.2700369106545
 31
0.0
  0
LINE
  5
162
330
5C
100
AcDbEntity
  8
0
  6
Continuous
 62
     7
100
AcDbLine
 10
-646.4999999999325
 20
-187.4999999999999
 30
0.0
 11
-646.4999999999325
 21
-187.1743917503481
 31
0.0
  0
LINE
  5
163
330
5C
100
AcDbEntity
  8
0
  6
Continuous
 62
     7
100
AcDbLine
 10
-656.9999999999325
 20
-187.4999999999999
 30
0.0
 11
-656.9999999999325
 21
-187.1743917503481
 31
0.0
  0
LINE
  5
164
330
5C
100
AcDbEntity
  8
0
  6
Continuous
 62
     7
100
AcDbLine
 10
-656.9999999999325
 20
-187.9999999999999
 30
0.0
 11
-661.9999999999325
 21
-187.9999999999999
 31
0.0
  0
LINE
  5
165
330
5C
100
AcDbEntity
  8
0
  6
Continuous
 62
     7
100
AcDbLine
 10
-656.9999999999325
 20
-187.9999999999999
 30
0.0
 11
-656.9999999999325
 21
-187.4999999999999
 31
0.0
  0
LINE
  5
166
330
5C
100
AcDbEntity
  8
0
  6
Continuous
 62
     7
100
AcDbLine
 10
-646.4999999999325
 20
-187.9999999999999
 30
0.0
 11
-646.4999999999325
 21
-187.4999999999999
 31
0.0
  0
LINE
  5
167
330
5C
100
AcDbEntity
  8
0
  6
Continuous
 62
     7
100
AcDbLine
 10
-646.4999999999325
 20
-187.4999999999999
 30
0.0
 11
-656.9999999999325
 21
-187.4999999999999
 31
0.0
  0
LINE
  5
168
330
5C
100
AcDbEntity
  8
0
  6
Continuous
 62
     7
100
AcDbLine
 10
-639.9999999999325
 20
-179.4546749457562
 30
0.0
 11
-639.9999999999325
 21
-163.283654755686
 31
0.0
  0
LINE
  5
169
330
5C
100
AcDbEntity
  8
0
  6
Continuous
 62
     7
100
AcDbLine
 10
-600.4999999999325
 20
-161.9999999999999
 30
0.0
 11
-600.4999999999325
 21
-185.4999999999999
 31
0.0
  0
LINE
  5
16A
330
5C
100
AcDbEntity
  8
0
  6
Continuous
 62
     7
100
AcDbLine
 10
-629.9999999999325
 20
-142.7299630893454
 30
0.0
 11
-629.9999999999325
 21
-144.5179191127749
 31
0.0
  0
LINE
  5
16B
330
5C
100
AcDbEntity
  8
0
  6
Continuous
 62
     7
100
AcDbLine
 10
-646.4999999999325
 20
-155.4999999999999
 30
0.0
 11
-656.9999999999325
 21
-155.4999999999999
 31
0.0
  0
LINE
  5
16C
330
5C
100
AcDbEntity
  8
0
  6
Continuous
 62
     7
100
AcDbLine
 10
-629.9999999999325
 20
-142.7299630893454
 30
0.0
 11
-639.9999999999325
 21
-142.7299630893454
 31
0.0
  0
LINE
  5
16D
330
5C
100
AcDbEntity
  8
0
  6
Continuous
 62
     7
100
AcDbLine
 10
-629.9999999999325
 20
-144.5453250542436
 30
0.0
 11
-639.9999999999325
 21
-144.5453250542436
 31
0.0
  0
LINE
  5
16E
330
5C
100
AcDbEntity
  8
0
  6
Continuous
 62
     7
100
AcDbLine
 10
-629.9999999999325
 20
-160.7163452443139
 30
0.0
 11
-639.9999999999325
 21
-160.7163452443139
 31
0.0
  0
LINE
  5
16F
330
5C
100
AcDbEntity
  8
0
  6
Continuous
 62
     7
100
AcDbLine
 10
-661.9999999999325
 20
-136.9999999999999
 30
0.0
 11
-662.4999999999325
 21
-136.9999999999999
 31
0.0
  0
LINE
  5
170
330
5C
100
AcDbEntity
  8
0
  6
Continuous
 62
     7
100
AcDbLine
 10
-639.9999999999325
 20
-160.7163452443139
 30
0.0
 11
-639.9999999999325
 21
-144.5453250542436
 31
0.0
  0
LINE
  5
171
330
5C
100
AcDbEntity
  8
0
  6
Continuous
 62
     7
100
AcDbLine
 10
-629.9999999999325
 20
-160.7163452443139
 30
0.0
 11
-629.9999999999325
 21
-163.283654755686
 31
0.0
  0
LINE
  5
172
330
5C
100
AcDbEntity
  8
0
  6
Continuous
 62
     7
100
AcDbLine
 10
-575.4999999999325
 20
-191.1406444488075
 30
0.0
 11
-575.4999999999325
 21
-191.2499999999999
 31
0.0
  0
LINE
  5
173
330
5C
100
AcDbEntity
  8
0
  6
Continuous
 62
     7
100
AcDbLine
 10
-567.4999999999325
 20
-191.1406444488075
 30
0.0
 11
-567.4999999999325
 21
-191.2499999999999
 31
0.0
  0
LINE
  5
174
330
5C
100
AcDbEntity
  8
0
  6
Continuous
 62
     7
100
AcDbLine
 10
-567.4999999999325
 20
-191.1406444488075
 30
0.0
 11
-567.4999999999325
 21
-185.4999999999999
 31
0.0
  0
LINE
  5
175
330
5C
100
AcDbEntity
  8
0
  6
Continuous
 62
     7
100
AcDbLine
 10
-629.9999999999325
 20
-187.9999999999999
 30
0.0
 11
-629.9999999999325
 21
-188.0099999999999
 31
0.0
  0
LINE
  5
176
330
5C
100
AcDbEntity
  8
0
  6
Continuous
 62
     7
100
AcDbLine
 10
-662.4999999999325
 20
-187.9999999999999
 30
0.0
 11
-665.4999999999325
 21
-187.9999999999999
 31
0.0
  0
LINE
  5
177
330
5C
100
AcDbEntity
  8
0
  6
Continuous
 62
     7
100
AcDbLine
 10
-629.9999999999325
 20
-187.9999999999999
 30
0.0
 11
-646.4999999999325
 21
-187.9999999999999
 31
0.0
  0
LINE
  5
178
330
5C
100
AcDbEntity
  8
0
  6
Continuous
 62
     7
100
AcDbLine
 10
-629.9999999999325
 20
-187.9682927907901
 30
0.0
 11
-639.9999999999325
 21
-187.9682927907901
 31
0.0
  0
LINE
  5
179
330
5C
100
AcDbEntity
  8
0
  6
Continuous
 62
     7
100
AcDbLine
 10
-629.9999999999325
 20
-187.9682927907901
 30
0.0
 11
-629.9999999999325
 21
-187.9999999999999
 31
0.0
  0
LINE
  5
17A
330
5C
100
AcDbEntity
  8
0
  6
Continuous
 62
     7
100
AcDbLine
 10
-629.9999999999325
 20
-181.2700369106545
 30
0.0
 11
-629.9999999999325
 21
-187.9682927907901
 31
0.0
  0
LINE
  5
17B
330
5C
100
AcDbEntity
  8
0
  6
Continuous
 62
     7
100
AcDbLine
 10
-600.4999999999325
 20
-188.0099999999999
 30
0.0
 11
-629.9999999999325
 21
-188.0099999999999
 31
0.0
  0
LINE
  5
17C
330
5C
100
AcDbEntity
  8
0
  6
Continuous
 62
     7
100
AcDbLine
 10
-575.4999999999325
 20
-191.1406444488075
 30
0.0
 11
-575.4999999999325
 21
-185.4999999999999
 31
0.0
  0
LINE
  5
17D
330
5C
100
AcDbEntity
  8
0
  6
Continuous
 62
     7
100
AcDbLine
 10
-567.4999999999325
 20
-191.1406444488075
 30
0.0
 11
-575.4999999999325
 21
-191.1406444488075
 31
0.0
  0
LINE
  5
17E
330
5C
100
AcDbEntity
  8
0
  6
Continuous
 62
     7
100
AcDbLine
 10
-567.4999999999325
 20
-185.4999999999999
 30
0.0
 11
-567.4999999999325
 21
-178.7587019517675
 31
0.0
  0
LINE
  5
17F
330
5C
100
AcDbEntity
  8
0
  6
Continuous
 62
     7
100
AcDbLine
 10
-567.4999999999325
 20
-191.2499999999999
 30
0.0
 11
-575.4999999999325
 21
-191.2499999999999
 31
0.0
  0
LINE
  5
180
330
5C
100
AcDbEntity
  8
0
  6
Continuous
 62
     7
100
AcDbLine
 10
-554.4999999999325
 20
-185.4999999999999
 30
0.0
 11
-567.4999999999325
 21
-185.4999999999999
 31
0.0
  0
LINE
  5
181
330
5C
100
AcDbEntity
  8
0
  6
Continuous
 62
     7
100
AcDbLine
 10
-567.4999999999325
 20
-132.7499999999999
 30
0.0
 11
-567.4999999999325
 21
-132.8593555511924
 31
0.0
  0
LINE
  5
182
330
5C
100
AcDbEntity
  8
0
  6
Continuous
 62
     7
100
AcDbLine
 10
-567.4999999999325
 20
-138.4999999999999
 30
0.0
 11
-567.4999999999325
 21
-132.8593555511924
 31
0.0
  0
LINE
  5
183
330
5C
100
AcDbEntity
  8
0
  6
Continuous
 62
     7
100
AcDbLine
 10
-567.4999999999325
 20
-132.7499999999999
 30
0.0
 11
-575.4999999999325
 21
-132.7499999999999
 31
0.0
  0
LINE
  5
184
330
5C
100
AcDbEntity
  8
0
  6
Continuous
 62
     7
100
AcDbLine
 10
-575.4999999999325
 20
-132.7499999999999
 30
0.0
 11
-575.4999999999325
 21
-132.8593555511924
 31
0.0
  0
LINE
  5
185
330
5C
100
AcDbEntity
  8
0
  6
Continuous
 62
     7
100
AcDbLine
 10
-575.4999999999325
 20
-138.4999999999999
 30
0.0
 11
-575.4999999999325
 21
-132.8593555511924
 31
0.0
  0
LINE
  5
186
330
5C
100
AcDbEntity
  8
0
  6
Continuous
 62
     7
100
AcDbLine
 10
-575.4999999999325
 20
-145.2412980482324
 30
0.0
 11
-575.4999999999325
 21
-138.4999999999999
 31
0.0
  0
LINE
  5
187
330
5C
100
AcDbEntity
  8
0
  6
Continuous
 62
     7
100
AcDbLine
 10
-629.9999999999325
 20
-135.9999999999999
 30
0.0
 11
-629.9999999999325
 21
-136.0317072092098
 31
0.0
  0
LINE
  5
188
330
5C
100
AcDbEntity
  8
0
  6
Continuous
 62
     7
100
AcDbLine
 10
-629.9999999999325
 20
-136.0317072092098
 30
0.0
 11
-639.9999999999325
 21
-136.0317072092098
 31
0.0
  0
LINE
  5
189
330
5C
100
AcDbEntity
  8
0
  6
Continuous
 62
     7
100
AcDbLine
 10
-662.4999999999325
 20
-135.9999999999999
 30
0.0
 11
-665.4999999999325
 21
-135.9999999999999
 31
0.0
  0
LINE
  5
18A
330
5C
100
AcDbEntity
  8
0
  6
Continuous
 62
     7
100
AcDbLine
 10
-629.9999999999325
 20
-135.9999999999999
 30
0.0
 11
-646.4999999999325
 21
-135.9999999999999
 31
0.0
  0
LINE
  5
18B
330
5C
100
AcDbEntity
  8
0
  6
Continuous
 62
     7
100
AcDbLine
 10
-575.4999999999325
 20
-138.4999999999999
 30
0.0
 11
-600.4999999999325
 21
-138.4999999999999
 31
0.0
  0
LINE
  5
18C
330
5C
100
AcDbEntity
  8
0
  6
Continuous
 62
     7
100
AcDbLine
 10
-567.4999999999325
 20
-145.2412980482324
 30
0.0
 11
-575.4999999999325
 21
-145.2412980482324
 31
0.0
  0
LINE
  5
18D
330
5C
100
AcDbEntity
  8
0
  6
Continuous
 62
     7
100
AcDbLine
 10
-567.4999999999325
 20
-132.8593555511924
 30
0.0
 11
-575.4999999999325
 21
-132.8593555511924
 31
0.0
  0
LINE
  5
18E
330
5C
100
AcDbEntity
  8
0
  6
Continuous
 62
     7
100
AcDbLine
 10
-567.4999999999325
 20
-145.2412980482324
 30
0.0
 11
-567.4999999999325
 21
-138.4999999999999
 31
0.0
  0
LINE
  5
18F
330
5C
100
AcDbEntity
  8
0
  6
Continuous
 62
     7
100
AcDbLine
 10
-646.4999999999325
 20
-168.5
 30
0.0
 11
-656.9999999999325
 21
-168.5
 31
0.0
  0
LINE
  5
190
330
5C
100
AcDbEntity
  8
0
  6
Continuous
 62
     7
100
AcDbLine
 10
-629.9999999999325
 20
-163.283654755686
 30
0.0
 11
-639.9999999999325
 21
-163.283654755686
 31
0.0
  0
LINE
  5
191
330
5C
100
AcDbEntity
  8
0
  6
Continuous
 62
     7
100
AcDbLine
 10
-629.9999999999325
 20
-179.4546749457562
 30
0.0
 11
-639.9999999999325
 21
-179.4546749457562
 31
0.0
  0
LINE
  5
192
330
5C
100
AcDbEntity
  8
0
  6
Continuous
 62
     7
100
AcDbLine
 10
-629.9999999999325
 20
-179.4546749457562
 30
0.0
 11
-629.9999999999325
 21
-181.2700369106545
 31
0.0
  0
LINE
  5
193
330
5C
100
AcDbEntity
  8
0
  6
Continuous
 62
     7
100
AcDbLine
 10
-661.9999999999325
 20
-186.9999999999999
 30
0.0
 11
-662.4999999999325
 21
-186.9999999999999
 31
0.0
  0
LINE
  5
194
330
5C
100
AcDbEntity
  8
0
  6
Continuous
 62
     7
100
AcDbLine
 10
-629.9999999999325
 20
-181.2700369106545
 30
0.0
 11
-639.9999999999325
 21
-181.2700369106545
 31
0.0
  0
LINE
  5
195
330
5C
100
AcDbEntity
  8
0
  6
Continuous
 62
     7
100
AcDbLine
 10
-646.4999999999325
 20
-187.1743917503481
 30
0.0
 11
-656.9999999999325
 21
-187.1743917503481
 31
0.0
  0
LINE
  5
196
330
5C
100
AcDbEntity
  8
0
  6
Continuous
 62
     7
100
AcDbLine
 10
-629.9999999999325
 20
-163.283654755686
 30
0.0
 11
-629.9999999999325
 21
-179.4546749457562
 31
0.0
  0
LINE
  5
197
330
5C
100
AcDbEntity
  8
0
  6
Continuous
 62
     7
100
AcDbLine
 10
-662.4999999999325
 20
-186.9999999999999
 30
0.0
 11
-662.4999999999325
 21
-187.9999999999999
 31
0.0
  0
LINE
  5
198
330
5C
100
AcDbEntity
  8
0
  6
Continuous
 62
     7
100
AcDbLine
 10
-662.4999999999325
 20
-161.9999999999999
 30
0.0
 11
-662.4999999999325
 21
-186.9999999999999
 31
0.0
  0
LINE
  5
199
330
5C
100
AcDbEntity
  8
0
  6
Continuous
 62
     7
100
AcDbLine
 10
-629.9999999999325
 20
-144.5179191127749
 30
0.0
 11
-629.9999999999325
 21
-144.5453250542436
 31
0.0
  0
LINE
  5
19A
330
5C
100
AcDbEntity
  8
0
  6
Continuous
 62
     7
100
AcDbLine
 10
-629.9999999999325
 20
-144.5453250542436
 30
0.0
 11
-629.9999999999325
 21
-160.7163452443139
 31
0.0
  0
LINE
  5
19B
330
5C
100
AcDbEntity
  8
0
  6
Continuous
 62
     7
100
AcDbLine
 10
-629.9999999999325
 20
-136.0317072092098
 30
0.0
 11
-629.9999999999325
 21
-142.7299630893454
 31
0.0
  0
LINE
  5
19C
330
5C
100
AcDbEntity
  8
0
  6
Continuous
 62
     7
100
AcDbLine
 10
-629.9999999999325
 20
-135.9899999999999
 30
0.0
 11
-629.9999999999325
 21
-135.9999999999999
 31
0.0
  0
LINE
  5
19D
330
5C
100
AcDbEntity
  8
0
  6
Continuous
 62
     7
100
AcDbLine
 10
-600.4999999999325
 20
-135.9899999999999
 30
0.0
 11
-600.4999999999325
 21
-138.4999999999999
 31
0.0
  0
LINE
  5
19E
330
5C
100
AcDbEntity
  8
0
  6
Continuous
 62
     7
100
AcDbLine
 10
-600.4999999999325
 20
-138.4999999999999
 30
0.0
 11
-600.4999999999325
 21
-161.9999999999999
 31
0.0
  0
LINE
  5
19F
330
5C
100
AcDbEntity
  8
0
  6
Continuous
 62
     7
100
AcDbLine
 10
-646.4999999999325
 20
-136.4999999999999
 30
0.0
 11
-656.9999999999325
 21
-136.4999999999999
 31
0.0
  0
LINE
  5
1A0
330
5C
100
AcDbEntity
  8
0
  6
Continuous
 62
     7
100
AcDbLine
 10
-656.9999999999325
 20
-135.9999999999999
 30
0.0
 11
-661.9999999999325
 21
-135.9999999999999
 31
0.0
  0
LINE
  5
1A1
330
5C
100
AcDbEntity
  8
0
  6
Continuous
 62
     7
100
AcDbLine
 10
-656.9999999999325
 20
-136.8256082496517
 30
0.0
 11
-656.9999999999325
 21
-136.4999999999999
 31
0.0
  0
LINE
  5
1A2
330
5C
100
AcDbEntity
  8
0
  6
Continuous
 62
     7
100
AcDbLine
 10
-656.9999999999325
 20
-136.4999999999999
 30
0.0
 11
-656.9999999999325
 21
-135.9999999999999
 31
0.0
  0
LINE
  5
1A3
330
5C
100
AcDbEntity
  8
0
  6
Continuous
 62
     7
100
AcDbLine
 10
-639.9999999999325
 20
-142.7299630893454
 30
0.0
 11
-639.9999999999325
 21
-136.0317072092098
 31
0.0
  0
LINE
  5
1A4
330
5C
100
AcDbEntity
  8
0
  6
Continuous
 62
     7
100
AcDbLine
 10
-646.4999999999325
 20
-136.8256082496517
 30
0.0
 11
-646.4999999999325
 21
-136.4999999999999
 31
0.0
  0
LINE
  5
1A5
330
5C
100
AcDbEntity
  8
0
  6
Continuous
 62
     7
100
AcDbLine
 10
-646.4999999999325
 20
-136.4999999999999
 30
0.0
 11
-646.4999999999325
 21
-135.9999999999999
 31
0.0
  0
LINE
  5
1A6
330
5C
100
AcDbEntity
  8
0
  6
Continuous
 62
     7
100
AcDbLine
 10
-661.9999999999325
 20
-135.9999999999999
 30
0.0
 11
-661.9999999999325
 21
-136.9999999999999
 31
0.0
  0
LINE
  5
1A7
330
5C
100
AcDbEntity
  8
0
  6
Continuous
 62
     7
100
AcDbLine
 10
-646.4999999999325
 20
-136.8256082496517
 30
0.0
 11
-656.9999999999325
 21
-136.8256082496517
 31
0.0
  0
LINE
  5
1A8
330
5C
100
AcDbEntity
  8
0
  6
Continuous
 62
     7
100
AcDbLine
 10
-600.4999999999325
 20
-135.9899999999999
 30
0.0
 11
-629.9999999999325
 21
-135.9899999999999
 31
0.0
  0
LINE
  5
1A9
330
5C
100
AcDbEntity
  8
0
  6
Continuous
 62
     7
100
AcDbLine
 10
-662.4999999999325
 20
-135.9999999999999
 30
0.0
 11
-662.4999999999325
 21
-136.9999999999999
 31
0.0
  0
LINE
  5
1AA
330
5C
100
AcDbEntity
  8
0
  6
Continuous
 62
     7
100
AcDbLine
 10
-662.4999999999325
 20
-136.9999999999999
 30
0.0
 11
-662.4999999999325
 21
-161.9999999999999
 31
0.0
  0
LINE
  5
1AB
330
5C
100
AcDbEntity
  8
0
  6
Continuous
 62
     7
100
AcDbLine
 10
-656.9999999999325
 20
-168.5
 30
0.0
 11
-656.9999999999325
 21
-155.4999999999999
 31
0.0
  0
LINE
  5
1AC
330
5C
100
AcDbEntity
  8
0
  6
Continuous
 62
     7
100
AcDbLine
 10
-661.9999999999325
 20
-136.9999999999999
 30
0.0
 11
-661.9999999999325
 21
-161.9999999999999
 31
0.0
  0
LINE
  5
1AD
330
5C
100
AcDbEntity
  8
0
  6
Continuous
 62
     7
100
AcDbLine
 10
-646.4999999999325
 20
-168.5
 30
0.0
 11
-646.4999999999325
 21
-155.4999999999999
 31
0.0
  0
LINE
  5
1AE
330
5C
100
AcDbEntity
  8
0
  6
Continuous
 62
     7
100
AcDbLine
 10
-665.4999999999325
 20
-135.9999999999999
 30
0.0
 11
-665.4999999999325
 21
-187.9999999999999
 31
0.0
  0
LINE
  5
1AF
330
5C
100
AcDbEntity
  8
1
  6
Continuous
 62
     2
100
AcDbLine
 10
-554.4999999999325
 20
-139.2599999999999
 30
0.0
 11
-567.4999999999325
 21
-139.2599999999999
 31
0.0
  0
LINE
  5
1B0
330
5C
100
AcDbEntity
  8
1
  6
Continuous
 62
     2
100
AcDbLine
 10
-554.4999999999325
 20
-184.7399999999999
 30
0.0
 11
-567.4999999999325
 21
-184.7399999999999
 31
0.0
  0
LINE
  5
1B1
330
5C
100
AcDbEntity
  8
1
  6
DOT_CENTER
 62
     2
100
AcDbLine
 10
-575.4999999999325
 20
-161.9999999999999
 30
0.0
 11
-665.4999999999326
 21
-161.9999999999999
 31
0.0
  0
LINE
  5
1B2
330
5C
100
AcDbEntity
  8
1
  6
DOT_CENTER
 62
     2
100
AcDbLine
 10
-554.4999999999325
 20
-161.9999999999999
 30
0.0
 11
-567.4999999999325
 21
-161.9999999999999
 31
0.0
  0
ENDBLK
  5
5E
330
5C
100
AcDbEntity
  8
0
100
AcDbBlockEnd
  0
BLOCK
  5
61
330
5F
100
AcDbEntity
  8
0
100
AcDbBlockBegin
  2
Vordans1
 70
     0
 10
-609.9999999999976
 20
-162.0
 30
0.0
  3
Vordans1
  1

  0
INSERT
  5
60
330
5F
100
AcDbEntity
  8
0
100
AcDbBlockReference
  2
WP_GR_HF_IP66_PG36_BK-select__4
 10
-665.4999999999325
 20
-191.2499999999999
 30
0.0
  0
MTEXT
  5
1B3
330
5F
100
AcDbEntity
  8
1
 62
     6
100
AcDbMText
 10
-609.9999999999326
 20
-201.2499999999999
 30
0.0
 40
10.0
 41
0.0
 71
     2
 72
     1
  1
 
  7
CONVERTER_11
 73
     1
 44
1.32052821128451
  0
DIMENSION
  5
1BE
330
5F
100
AcDbEntity
  8
1
100
AcDbDimension
  2
*D17
 10
-665.4999999999325
 20
-207.9999999999999
 30
0.0
 11
-609.9999999999326
 21
-201.4999999999999
 31
0.0
 70
    32
  1
<>
 71
     5
 42
-1.0
 53
0.00013888888889
  3
ME10_DIM_10
100
AcDbAlignedDimension
 13
-554.4999999999325
 23
-185.4999999999999
 33
0.0
 14
-665.4999999999325
 24
-187.9999999999999
 34
0.0
100
AcDbRotatedDimension
  0
DIMENSION
  5
1C9
330
5F
100
AcDbEntity
  8
1
100
AcDbDimension
  2
*D18
 10
-685.4999999999325
 20
-187.9999999999999
 30
0.0
 11
-691.9999999999325
 21
-164.129017819424
 31
0.0
 70
    32
  1
<>
 71
     5
 42
-1.0
 53
90.0
  3
ME10_DIM_11
100
AcDbAlignedDimension
 13
-665.4999999999325
 23
-135.9999999999999
 33
0.0
 14
-665.4999999999325
 24
-187.9999999999999
 34
0.0
 50
90.0
100
AcDbRotatedDimension
  0
DIMENSION
  5
1D4
330
5F
100
AcDbEntity
  8
1
100
AcDbDimension
  2
*D19
 10
-532.782464253458
 20
-132.7499999999999
 30
0.0
 11
-539.632464253458
 21
-160.5175483564936
 31
0.0
 70
    32
  1
<>
 71
     5
 42
-1.0
 53
90.0
  3
ME10_DIM_12
100
AcDbAlignedDimension
 13
-567.4999999999325
 23
-191.2499999999999
 33
0.0
 14
-567.4999999999325
 24
-132.7499999999999
 34
0.0
 50
90.0
100
AcDbRotatedDimension
  0
ENDBLK
  5
62
330
5F
100
AcDbEntity
  8
0
100
AcDbBlockEnd
  0
BLOCK
  5
64
330
63
100
AcDbEntity
  8
0
100
AcDbBlockBegin
  2
WP_GR_HF_IP66_PG36_BK-select__5
 70
     0
 10
-806.500000000025
 20
-191.2499999999999
 30
0.0
  3
WP_GR_HF_IP66_PG36_BK-select__5
  1

  0
LINE
  5
1D5
330
63
100
AcDbEntity
  8
0
  6
Continuous
 62
     7
100
AcDbLine
 10
-803.9730767506596
 20
-145.2412980482324
 30
0.0
 11
-782.52692324939
 21
-132.8593555511924
 31
0.0
  0
LINE
  5
1D6
330
63
100
AcDbEntity
  8
0
  6
Continuous
 62
     7
100
AcDbLine
 10
-753.500000000025
 20
-149.6180575029601
 30
0.0
 11
-753.500000000025
 21
-174.3819424970397
 31
0.0
  0
LINE
  5
1D7
330
63
100
AcDbEntity
  8
0
  6
Continuous
 62
     7
100
AcDbLine
 10
-756.0269232493903
 20
-178.7587019517675
 30
0.0
 11
-777.4730767506599
 21
-191.1406444488075
 31
0.0
  0
LINE
  5
1D8
330
63
100
AcDbEntity
  8
0
  6
Continuous
 62
     7
100
AcDbLine
 10
-782.52692324939
 20
-191.1406444488075
 30
0.0
 11
-803.9730767506596
 21
-178.7587019517675
 31
0.0
  0
LINE
  5
1D9
330
63
100
AcDbEntity
  8
0
  6
Continuous
 62
     7
100
AcDbLine
 10
-806.500000000025
 20
-174.3819424970397
 30
0.0
 11
-806.500000000025
 21
-149.6180575029601
 31
0.0
  0
LINE
  5
1DA
330
63
100
AcDbEntity
  8
0
  6
Continuous
 62
     7
100
AcDbLine
 10
-777.4730767506599
 20
-132.8593555511924
 30
0.0
 11
-756.0269232493903
 21
-145.2412980482324
 31
0.0
  0
LINE
  5
1DB
330
63
100
AcDbEntity
  8
1
  6
DOT_CENTER
 62
     2
100
AcDbLine
 10
-754.1500000000249
 20
-161.9999999999999
 30
0.0
 11
-805.8500000000249
 21
-161.9999999999999
 31
0.0
  0
LINE
  5
1DC
330
63
100
AcDbEntity
  8
1
  6
DOT_CENTER
 62
     2
100
AcDbLine
 10
-780.000000000025
 20
-136.1499999999999
 30
0.0
 11
-780.000000000025
 21
-187.8499999999999
 31
0.0
  0
ARC
  5
1DD
330
63
100
AcDbEntity
  8
0
  6
Continuous
 62
     7
100
AcDbCircle
 10
-780.000000000025
 20
-161.9999999999999
 30
0.0
 40
29.24999999999994
100
AcDbArc
 50
85.04400897597624
 51
94.95599102402353
  0
ARC
  5
1DE
330
63
100
AcDbEntity
  8
0
  6
Continuous
 62
     7
100
AcDbCircle
 10
-780.000000000025
 20
-161.9999999999999
 30
0.0
 40
29.25000000000006
100
AcDbArc
 50
325.0440089759761
 51
334.9559910240243
  0
ARC
  5
1DF
330
63
100
AcDbEntity
  8
0
  6
Continuous
 62
     7
100
AcDbCircle
 10
-780.000000000025
 20
-161.9999999999999
 30
0.0
 40
29.25000000000007
100
AcDbArc
 50
265.0440089759765
 51
274.9559910240237
  0
ARC
  5
1E0
330
63
100
AcDbEntity
  8
0
  6
Continuous
 62
     7
100
AcDbCircle
 10
-780.000000000025
 20
-161.9999999999999
 30
0.0
 40
29.25
100
AcDbArc
 50
205.0440089759758
 51
214.955991024024
  0
ARC
  5
1E1
330
63
100
AcDbEntity
  8
0
  6
Continuous
 62
     7
100
AcDbCircle
 10
-780.000000000025
 20
-161.9999999999999
 30
0.0
 40
29.24999999999988
100
AcDbArc
 50
145.0440089759762
 51
154.9559910240243
  0
ARC
  5
1E2
330
63
100
AcDbEntity
  8
0
  6
Continuous
 62
     7
100
AcDbCircle
 10
-780.000000000025
 20
-161.9999999999999
 30
0.0
 40
29.24999999999999
100
AcDbArc
 50
25.04400897597571
 51
34.95599102402369
  0
ARC
  5
1E3
330
63
100
AcDbEntity
  8
1
  6
Continuous
 62
     2
100
AcDbCircle
 10
-780.000000000025
 20
-161.9999999999999
 30
0.0
 40
22.74000000000001
100
AcDbArc
 50
180.0
 51
90.0
  0
CIRCLE
  5
1E4
330
63
100
AcDbEntity
  8
0
  6
Continuous
 62
     7
100
AcDbCircle
 10
-780.000000000025
 20
-161.9999999999999
 30
0.0
 40
23.5
  0
CIRCLE
  5
1E5
330
63
100
AcDbEntity
  8
0
  6
Continuous
 62
     7
100
AcDbCircle
 10
-780.000000000025
 20
-161.9999999999999
 30
0.0
 40
16.0
  0
ENDBLK
  5
65
330
63
100
AcDbEntity
  8
0
100
AcDbBlockEnd
  0
BLOCK
  5
68
330
66
100
AcDbEntity
  8
0
100
AcDbBlockBegin
  2
SA_Rechts1
 70
     0
 10
-780.00000000003
 20
-162.0
 30
0.0
  3
SA_Rechts1
  1

  0
INSERT
  5
67
330
66
100
AcDbEntity
  8
0
100
AcDbBlockReference
  2
WP_GR_HF_IP66_PG36_BK-select__5
 10
-806.500000000025
 20
-191.2499999999999
 30
0.0
  0
MTEXT
  5
1E6
330
66
100
AcDbEntity
  8
1
 62
     6
100
AcDbMText
 10
-780.000000000025
 20
-201.2499999999999
 30
0.0
 40
10.0
 41
0.0
 71
     2
 72
     1
  1
 
  7
CONVERTER_11
 73
     1
 44
1.32052821128451
  0
ENDBLK
  5
69
330
66
100
AcDbEntity
  8
0
100
AcDbBlockEnd
  0
BLOCK
  5
6B
330
6A
100
AcDbEntity
  8
0
100
AcDbBlockBegin
  2
WP_GR_HF_IP66_PG36_BK-select__6
 70
     0
 10
-337.5000000000976
 20
-191.2499999999999
 30
0.0
  3
WP_GR_HF_IP66_PG36_BK-select__6
  1

  0
LINE
  5
1E7
330
6A
100
AcDbEntity
  8
0
  6
Continuous
 62
     7
100
AcDbLine
 10
-324.5000000000976
 20
-178.7587019517675
 30
0.0
 11
-324.5000000000976
 21
-174.3819424970397
 31
0.0
  0
LINE
  5
1E8
330
6A
100
AcDbEntity
  8
0
  6
Continuous
 62
     7
100
AcDbLine
 10
-324.5000000000976
 20
-149.6180575029601
 30
0.0
 11
-324.5000000000976
 21
-145.2412980482323
 31
0.0
  0
LINE
  5
1E9
330
6A
100
AcDbEntity
  8
0
  6
Continuous
 62
     7
100
AcDbLine
 10
-324.5000000000976
 20
-138.4999999999999
 30
0.0
 11
-324.5000000000976
 21
-145.2412980482323
 31
0.0
  0
LINE
  5
1EA
330
6A
100
AcDbEntity
  8
0
  6
Continuous
 62
     7
100
AcDbLine
 10
-235.0000000000976
 20
-155.4999999999999
 30
0.0
 11
-235.0000000000976
 21
-168.5
 31
0.0
  0
LINE
  5
1EB
330
6A
100
AcDbEntity
  8
0
  6
Continuous
 62
     7
100
AcDbLine
 10
-245.5000000000976
 20
-168.5
 30
0.0
 11
-235.0000000000976
 21
-168.5
 31
0.0
  0
LINE
  5
1EC
330
6A
100
AcDbEntity
  8
0
  6
Continuous
 62
     7
100
AcDbLine
 10
-245.5000000000976
 20
-155.4999999999999
 30
0.0
 11
-245.5000000000976
 21
-168.5
 31
0.0
  0
LINE
  5
1ED
330
6A
100
AcDbEntity
  8
0
  6
Continuous
 62
     7
100
AcDbLine
 10
-262.0000000000976
 20
-163.283654755686
 30
0.0
 11
-262.0000000000976
 21
-160.7163452443139
 31
0.0
  0
LINE
  5
1EE
330
6A
100
AcDbEntity
  8
0
  6
Continuous
 62
     7
100
AcDbLine
 10
-262.0000000000976
 20
-163.283654755686
 30
0.0
 11
-252.0000000000976
 21
-163.283654755686
 31
0.0
  0
LINE
  5
1EF
330
6A
100
AcDbEntity
  8
0
  6
Continuous
 62
     7
100
AcDbLine
 10
-324.5000000000976
 20
-178.7587019517675
 30
0.0
 11
-316.5000000000976
 21
-178.7587019517675
 31
0.0
  0
LINE
  5
1F0
330
6A
100
AcDbEntity
  8
0
  6
Continuous
 62
     7
100
AcDbLine
 10
-262.0000000000976
 20
-160.7163452443139
 30
0.0
 11
-252.0000000000976
 21
-160.7163452443139
 31
0.0
  0
LINE
  5
1F1
330
6A
100
AcDbEntity
  8
0
  6
Continuous
 62
     7
100
AcDbLine
 10
-252.0000000000976
 20
-163.283654755686
 30
0.0
 11
-252.0000000000976
 21
-179.4546749457562
 31
0.0
  0
LINE
  5
1F2
330
6A
100
AcDbEntity
  8
0
  6
Continuous
 62
     7
100
AcDbLine
 10
-252.0000000000976
 20
-144.5453250542436
 30
0.0
 11
-252.0000000000976
 21
-160.7163452443139
 31
0.0
  0
LINE
  5
1F3
330
6A
100
AcDbEntity
  8
0
  6
Continuous
 62
     7
100
AcDbLine
 10
-262.0000000000976
 20
-160.7163452443139
 30
0.0
 11
-262.0000000000976
 21
-144.5453250542436
 31
0.0
  0
LINE
  5
1F4
330
6A
100
AcDbEntity
  8
0
  6
Continuous
 62
     7
100
AcDbLine
 10
-262.0000000000976
 20
-179.4546749457562
 30
0.0
 11
-262.0000000000976
 21
-163.283654755686
 31
0.0
  0
LINE
  5
1F5
330
6A
100
AcDbEntity
  8
0
  6
Continuous
 62
     7
100
AcDbLine
 10
-229.5000000000976
 20
-186.9999999999999
 30
0.0
 11
-229.5000000000976
 21
-136.9999999999999
 31
0.0
  0
LINE
  5
1F6
330
6A
100
AcDbEntity
  8
0
  6
Continuous
 62
     7
100
AcDbLine
 10
-229.5000000000976
 20
-187.9999999999999
 30
0.0
 11
-226.5000000000976
 21
-187.9999999999999
 31
0.0
  0
LINE
  5
1F7
330
6A
100
AcDbEntity
  8
0
  6
Continuous
 62
     7
100
AcDbLine
 10
-229.5000000000976
 20
-187.9999999999999
 30
0.0
 11
-229.5000000000976
 21
-186.9999999999999
 31
0.0
  0
LINE
  5
1F8
330
6A
100
AcDbEntity
  8
0
  6
Continuous
 62
     7
100
AcDbLine
 10
-230.0000000000976
 20
-187.9999999999999
 30
0.0
 11
-230.0000000000976
 21
-186.9999999999999
 31
0.0
  0
LINE
  5
1F9
330
6A
100
AcDbEntity
  8
0
  6
Continuous
 62
     7
100
AcDbLine
 10
-235.0000000000976
 20
-187.9999999999999
 30
0.0
 11
-230.0000000000976
 21
-187.9999999999999
 31
0.0
  0
LINE
  5
1FA
330
6A
100
AcDbEntity
  8
0
  6
Continuous
 62
     7
100
AcDbLine
 10
-235.0000000000976
 20
-187.1743917503481
 30
0.0
 11
-235.0000000000976
 21
-187.4999999999999
 31
0.0
  0
LINE
  5
1FB
330
6A
100
AcDbEntity
  8
0
  6
Continuous
 62
     7
100
AcDbLine
 10
-235.0000000000976
 20
-187.4999999999999
 30
0.0
 11
-235.0000000000976
 21
-187.9999999999999
 31
0.0
  0
LINE
  5
1FC
330
6A
100
AcDbEntity
  8
0
  6
Continuous
 62
     7
100
AcDbLine
 10
-245.5000000000976
 20
-187.1743917503481
 30
0.0
 11
-245.5000000000976
 21
-187.4999999999999
 31
0.0
  0
LINE
  5
1FD
330
6A
100
AcDbEntity
  8
0
  6
Continuous
 62
     7
100
AcDbLine
 10
-245.5000000000976
 20
-187.4999999999999
 30
0.0
 11
-245.5000000000976
 21
-187.9999999999999
 31
0.0
  0
LINE
  5
1FE
330
6A
100
AcDbEntity
  8
0
  6
Continuous
 62
     7
100
AcDbLine
 10
-230.0000000000976
 20
-186.9999999999999
 30
0.0
 11
-229.5000000000976
 21
-186.9999999999999
 31
0.0
  0
LINE
  5
1FF
330
6A
100
AcDbEntity
  8
0
  6
Continuous
 62
     7
100
AcDbLine
 10
-245.5000000000976
 20
-187.4999999999999
 30
0.0
 11
-235.0000000000976
 21
-187.4999999999999
 31
0.0
  0
LINE
  5
200
330
6A
100
AcDbEntity
  8
0
  6
Continuous
 62
     7
100
AcDbLine
 10
-262.0000000000976
 20
-188.0099999999999
 30
0.0
 11
-262.0000000000976
 21
-187.9999999999999
 31
0.0
  0
LINE
  5
201
330
6A
100
AcDbEntity
  8
0
  6
Continuous
 62
     7
100
AcDbLine
 10
-262.0000000000976
 20
-187.9999999999999
 30
0.0
 11
-262.0000000000976
 21
-187.9682927907901
 31
0.0
  0
LINE
  5
202
330
6A
100
AcDbEntity
  8
0
  6
Continuous
 62
     7
100
AcDbLine
 10
-245.5000000000976
 20
-187.1743917503481
 30
0.0
 11
-235.0000000000976
 21
-187.1743917503481
 31
0.0
  0
LINE
  5
203
330
6A
100
AcDbEntity
  8
0
  6
Continuous
 62
     7
100
AcDbLine
 10
-324.5000000000976
 20
-191.1406444488075
 30
0.0
 11
-316.5000000000976
 21
-191.1406444488075
 31
0.0
  0
LINE
  5
204
330
6A
100
AcDbEntity
  8
0
  6
Continuous
 62
     7
100
AcDbLine
 10
-262.0000000000976
 20
-187.9999999999999
 30
0.0
 11
-245.5000000000976
 21
-187.9999999999999
 31
0.0
  0
LINE
  5
205
330
6A
100
AcDbEntity
  8
0
  6
Continuous
 62
     7
100
AcDbLine
 10
-291.5000000000976
 20
-188.0099999999999
 30
0.0
 11
-262.0000000000976
 21
-188.0099999999999
 31
0.0
  0
LINE
  5
206
330
6A
100
AcDbEntity
  8
0
  6
Continuous
 62
     7
100
AcDbLine
 10
-226.5000000000976
 20
-187.9999999999999
 30
0.0
 11
-226.5000000000976
 21
-161.9999999999999
 31
0.0
  0
LINE
  5
207
330
6A
100
AcDbEntity
  8
0
  6
Continuous
 62
     7
100
AcDbLine
 10
-316.5000000000976
 20
-132.8593555511924
 30
0.0
 11
-316.5000000000976
 21
-132.7499999999999
 31
0.0
  0
LINE
  5
208
330
6A
100
AcDbEntity
  8
0
  6
Continuous
 62
     7
100
AcDbLine
 10
-324.5000000000976
 20
-132.8593555511924
 30
0.0
 11
-324.5000000000976
 21
-132.7499999999999
 31
0.0
  0
LINE
  5
209
330
6A
100
AcDbEntity
  8
0
  6
Continuous
 62
     7
100
AcDbLine
 10
-324.5000000000976
 20
-149.6180575029601
 30
0.0
 11
-316.5000000000976
 21
-149.6180575029601
 31
0.0
  0
LINE
  5
20A
330
6A
100
AcDbEntity
  8
0
  6
Continuous
 62
     7
100
AcDbLine
 10
-324.5000000000976
 20
-174.3819424970397
 30
0.0
 11
-316.5000000000976
 21
-174.3819424970397
 31
0.0
  0
LINE
  5
20B
330
6A
100
AcDbEntity
  8
0
  6
Continuous
 62
     7
100
AcDbLine
 10
-324.5000000000976
 20
-149.6180575029601
 30
0.0
 11
-324.5000000000976
 21
-174.3819424970397
 31
0.0
  0
LINE
  5
20C
330
6A
100
AcDbEntity
  8
0
  6
Continuous
 62
     7
100
AcDbLine
 10
-324.5000000000976
 20
-132.7499999999999
 30
0.0
 11
-316.5000000000976
 21
-132.7499999999999
 31
0.0
  0
LINE
  5
20D
330
6A
100
AcDbEntity
  8
0
  6
Continuous
 62
     7
100
AcDbLine
 10
-262.0000000000976
 20
-181.2700369106544
 30
0.0
 11
-262.0000000000976
 21
-179.4546749457562
 31
0.0
  0
LINE
  5
20E
330
6A
100
AcDbEntity
  8
0
  6
Continuous
 62
     7
100
AcDbLine
 10
-262.0000000000976
 20
-179.4546749457562
 30
0.0
 11
-252.0000000000976
 21
-179.4546749457562
 31
0.0
  0
LINE
  5
20F
330
6A
100
AcDbEntity
  8
0
  6
Continuous
 62
     7
100
AcDbLine
 10
-252.0000000000976
 20
-181.2700369106544
 30
0.0
 11
-252.0000000000976
 21
-187.9682927907901
 31
0.0
  0
LINE
  5
210
330
6A
100
AcDbEntity
  8
0
  6
Continuous
 62
     7
100
AcDbLine
 10
-262.0000000000976
 20
-187.9682927907901
 30
0.0
 11
-262.0000000000976
 21
-181.2700369106544
 31
0.0
  0
LINE
  5
211
330
6A
100
AcDbEntity
  8
0
  6
Continuous
 62
     7
100
AcDbLine
 10
-337.5000000000976
 20
-185.4999999999999
 30
0.0
 11
-324.5000000000976
 21
-185.4999999999999
 31
0.0
  0
LINE
  5
212
330
6A
100
AcDbEntity
  8
0
  6
Continuous
 62
     7
100
AcDbLine
 10
-262.0000000000976
 20
-187.9682927907901
 30
0.0
 11
-252.0000000000976
 21
-187.9682927907901
 31
0.0
  0
LINE
  5
213
330
6A
100
AcDbEntity
  8
0
  6
Continuous
 62
     7
100
AcDbLine
 10
-262.0000000000976
 20
-181.2700369106544
 30
0.0
 11
-252.0000000000976
 21
-181.2700369106544
 31
0.0
  0
LINE
  5
214
330
6A
100
AcDbEntity
  8
0
  6
Continuous
 62
     7
100
AcDbLine
 10
-316.5000000000976
 20
-185.4999999999999
 30
0.0
 11
-291.5000000000976
 21
-185.4999999999999
 31
0.0
  0
LINE
  5
215
330
6A
100
AcDbEntity
  8
0
  6
Continuous
 62
     7
100
AcDbLine
 10
-337.5000000000976
 20
-161.9999999999999
 30
0.0
 11
-337.5000000000976
 21
-185.4999999999999
 31
0.0
  0
LINE
  5
216
330
6A
100
AcDbEntity
  8
0
  6
Continuous
 62
     7
100
AcDbLine
 10
-337.5000000000976
 20
-138.4999999999999
 30
0.0
 11
-337.5000000000976
 21
-161.9999999999999
 31
0.0
  0
LINE
  5
217
330
6A
100
AcDbEntity
  8
0
  6
Continuous
 62
     7
100
AcDbLine
 10
-324.5000000000976
 20
-191.2499999999999
 30
0.0
 11
-324.5000000000976
 21
-191.1406444488075
 31
0.0
  0
LINE
  5
218
330
6A
100
AcDbEntity
  8
0
  6
Continuous
 62
     7
100
AcDbLine
 10
-324.5000000000976
 20
-185.4999999999999
 30
0.0
 11
-324.5000000000976
 21
-191.1406444488075
 31
0.0
  0
LINE
  5
219
330
6A
100
AcDbEntity
  8
0
  6
Continuous
 62
     7
100
AcDbLine
 10
-324.5000000000976
 20
-178.7587019517675
 30
0.0
 11
-324.5000000000976
 21
-185.4999999999999
 31
0.0
  0
LINE
  5
21A
330
6A
100
AcDbEntity
  8
0
  6
Continuous
 62
     7
100
AcDbLine
 10
-324.5000000000976
 20
-191.2499999999999
 30
0.0
 11
-316.5000000000976
 21
-191.2499999999999
 31
0.0
  0
LINE
  5
21B
330
6A
100
AcDbEntity
  8
0
  6
Continuous
 62
     7
100
AcDbLine
 10
-291.5000000000976
 20
-188.0099999999999
 30
0.0
 11
-291.5000000000976
 21
-185.4999999999999
 31
0.0
  0
LINE
  5
21C
330
6A
100
AcDbEntity
  8
0
  6
Continuous
 62
     7
100
AcDbLine
 10
-316.5000000000976
 20
-132.8593555511924
 30
0.0
 11
-316.5000000000976
 21
-138.4999999999999
 31
0.0
  0
LINE
  5
21D
330
6A
100
AcDbEntity
  8
0
  6
Continuous
 62
     7
100
AcDbLine
 10
-316.5000000000976
 20
-138.4999999999999
 30
0.0
 11
-316.5000000000976
 21
-145.2412980482323
 31
0.0
  0
LINE
  5
21E
330
6A
100
AcDbEntity
  8
0
  6
Continuous
 62
     7
100
AcDbLine
 10
-316.5000000000976
 20
-149.6180575029601
 30
0.0
 11
-316.5000000000976
 21
-145.2412980482323
 31
0.0
  0
LINE
  5
21F
330
6A
100
AcDbEntity
  8
0
  6
Continuous
 62
     7
100
AcDbLine
 10
-316.5000000000976
 20
-191.2499999999999
 30
0.0
 11
-316.5000000000976
 21
-191.1406444488075
 31
0.0
  0
LINE
  5
220
330
6A
100
AcDbEntity
  8
0
  6
Continuous
 62
     7
100
AcDbLine
 10
-316.5000000000976
 20
-178.7587019517675
 30
0.0
 11
-316.5000000000976
 21
-174.3819424970397
 31
0.0
  0
LINE
  5
221
330
6A
100
AcDbEntity
  8
0
  6
Continuous
 62
     7
100
AcDbLine
 10
-316.5000000000976
 20
-185.4999999999999
 30
0.0
 11
-316.5000000000976
 21
-191.1406444488075
 31
0.0
  0
LINE
  5
222
330
6A
100
AcDbEntity
  8
0
  6
Continuous
 62
     7
100
AcDbLine
 10
-316.5000000000976
 20
-178.7587019517675
 30
0.0
 11
-316.5000000000976
 21
-185.4999999999999
 31
0.0
  0
LINE
  5
223
330
6A
100
AcDbEntity
  8
0
  6
Continuous
 62
     7
100
AcDbLine
 10
-316.5000000000976
 20
-149.6180575029601
 30
0.0
 11
-316.5000000000976
 21
-174.3819424970397
 31
0.0
  0
LINE
  5
224
330
6A
100
AcDbEntity
  8
0
  6
Continuous
 62
     7
100
AcDbLine
 10
-291.5000000000976
 20
-185.4999999999999
 30
0.0
 11
-291.5000000000976
 21
-138.4999999999999
 31
0.0
  0
LINE
  5
225
330
6A
100
AcDbEntity
  8
0
  6
Continuous
 62
     7
100
AcDbLine
 10
-229.5000000000976
 20
-135.9999999999999
 30
0.0
 11
-226.5000000000976
 21
-135.9999999999999
 31
0.0
  0
LINE
  5
226
330
6A
100
AcDbEntity
  8
0
  6
Continuous
 62
     7
100
AcDbLine
 10
-245.5000000000976
 20
-155.4999999999999
 30
0.0
 11
-235.0000000000976
 21
-155.4999999999999
 31
0.0
  0
LINE
  5
227
330
6A
100
AcDbEntity
  8
0
  6
Continuous
 62
     7
100
AcDbLine
 10
-229.5000000000976
 20
-136.9999999999999
 30
0.0
 11
-229.5000000000976
 21
-135.9999999999999
 31
0.0
  0
LINE
  5
228
330
6A
100
AcDbEntity
  8
0
  6
Continuous
 62
     7
100
AcDbLine
 10
-235.0000000000976
 20
-135.9999999999999
 30
0.0
 11
-230.0000000000976
 21
-135.9999999999999
 31
0.0
  0
LINE
  5
229
330
6A
100
AcDbEntity
  8
0
  6
Continuous
 62
     7
100
AcDbLine
 10
-230.0000000000976
 20
-136.9999999999999
 30
0.0
 11
-230.0000000000976
 21
-135.9999999999999
 31
0.0
  0
LINE
  5
22A
330
6A
100
AcDbEntity
  8
0
  6
Continuous
 62
     7
100
AcDbLine
 10
-230.0000000000976
 20
-136.9999999999999
 30
0.0
 11
-229.5000000000976
 21
-136.9999999999999
 31
0.0
  0
LINE
  5
22B
330
6A
100
AcDbEntity
  8
0
  6
Continuous
 62
     7
100
AcDbLine
 10
-245.5000000000976
 20
-136.8256082496517
 30
0.0
 11
-235.0000000000976
 21
-136.8256082496517
 31
0.0
  0
LINE
  5
22C
330
6A
100
AcDbEntity
  8
0
  6
Continuous
 62
     7
100
AcDbLine
 10
-245.5000000000976
 20
-135.9999999999999
 30
0.0
 11
-245.5000000000976
 21
-136.4999999999999
 31
0.0
  0
LINE
  5
22D
330
6A
100
AcDbEntity
  8
0
  6
Continuous
 62
     7
100
AcDbLine
 10
-245.5000000000976
 20
-136.4999999999999
 30
0.0
 11
-245.5000000000976
 21
-136.8256082496517
 31
0.0
  0
LINE
  5
22E
330
6A
100
AcDbEntity
  8
0
  6
Continuous
 62
     7
100
AcDbLine
 10
-235.0000000000976
 20
-135.9999999999999
 30
0.0
 11
-235.0000000000976
 21
-136.4999999999999
 31
0.0
  0
LINE
  5
22F
330
6A
100
AcDbEntity
  8
0
  6
Continuous
 62
     7
100
AcDbLine
 10
-235.0000000000976
 20
-136.4999999999999
 30
0.0
 11
-235.0000000000976
 21
-136.8256082496517
 31
0.0
  0
LINE
  5
230
330
6A
100
AcDbEntity
  8
0
  6
Continuous
 62
     7
100
AcDbLine
 10
-245.5000000000976
 20
-136.4999999999999
 30
0.0
 11
-235.0000000000976
 21
-136.4999999999999
 31
0.0
  0
LINE
  5
231
330
6A
100
AcDbEntity
  8
0
  6
Continuous
 62
     7
100
AcDbLine
 10
-252.0000000000976
 20
-136.0317072092097
 30
0.0
 11
-252.0000000000976
 21
-142.7299630893454
 31
0.0
  0
LINE
  5
232
330
6A
100
AcDbEntity
  8
0
  6
Continuous
 62
     7
100
AcDbLine
 10
-291.5000000000976
 20
-138.4999999999999
 30
0.0
 11
-291.5000000000976
 21
-135.9899999999999
 31
0.0
  0
LINE
  5
233
330
6A
100
AcDbEntity
  8
0
  6
Continuous
 62
     7
100
AcDbLine
 10
-262.0000000000976
 20
-144.5453250542436
 30
0.0
 11
-262.0000000000976
 21
-142.7299630893454
 31
0.0
  0
LINE
  5
234
330
6A
100
AcDbEntity
  8
0
  6
Continuous
 62
     7
100
AcDbLine
 10
-262.0000000000976
 20
-135.9999999999999
 30
0.0
 11
-262.0000000000976
 21
-135.9899999999999
 31
0.0
  0
LINE
  5
235
330
6A
100
AcDbEntity
  8
0
  6
Continuous
 62
     7
100
AcDbLine
 10
-262.0000000000976
 20
-136.0317072092097
 30
0.0
 11
-262.0000000000976
 21
-135.9999999999999
 31
0.0
  0
LINE
  5
236
330
6A
100
AcDbEntity
  8
0
  6
Continuous
 62
     7
100
AcDbLine
 10
-262.0000000000976
 20
-142.7299630893454
 30
0.0
 11
-262.0000000000976
 21
-136.0317072092097
 31
0.0
  0
LINE
  5
237
330
6A
100
AcDbEntity
  8
0
  6
Continuous
 62
     7
100
AcDbLine
 10
-262.0000000000976
 20
-142.7299630893454
 30
0.0
 11
-252.0000000000976
 21
-142.7299630893454
 31
0.0
  0
LINE
  5
238
330
6A
100
AcDbEntity
  8
0
  6
Continuous
 62
     7
100
AcDbLine
 10
-324.5000000000976
 20
-132.8593555511924
 30
0.0
 11
-324.5000000000976
 21
-138.4999999999999
 31
0.0
  0
LINE
  5
239
330
6A
100
AcDbEntity
  8
0
  6
Continuous
 62
     7
100
AcDbLine
 10
-337.5000000000976
 20
-138.4999999999999
 30
0.0
 11
-324.5000000000976
 21
-138.4999999999999
 31
0.0
  0
LINE
  5
23A
330
6A
100
AcDbEntity
  8
0
  6
Continuous
 62
     7
100
AcDbLine
 10
-324.5000000000976
 20
-145.2412980482323
 30
0.0
 11
-316.5000000000976
 21
-145.2412980482323
 31
0.0
  0
LINE
  5
23B
330
6A
100
AcDbEntity
  8
0
  6
Continuous
 62
     7
100
AcDbLine
 10
-324.5000000000976
 20
-132.8593555511924
 30
0.0
 11
-316.5000000000976
 21
-132.8593555511924
 31
0.0
  0
LINE
  5
23C
330
6A
100
AcDbEntity
  8
0
  6
Continuous
 62
     7
100
AcDbLine
 10
-262.0000000000976
 20
-144.5453250542436
 30
0.0
 11
-252.0000000000976
 21
-144.5453250542436
 31
0.0
  0
LINE
  5
23D
330
6A
100
AcDbEntity
  8
0
  6
Continuous
 62
     7
100
AcDbLine
 10
-262.0000000000976
 20
-136.0317072092097
 30
0.0
 11
-252.0000000000976
 21
-136.0317072092097
 31
0.0
  0
LINE
  5
23E
330
6A
100
AcDbEntity
  8
0
  6
Continuous
 62
     7
100
AcDbLine
 10
-262.0000000000976
 20
-135.9999999999999
 30
0.0
 11
-245.5000000000976
 21
-135.9999999999999
 31
0.0
  0
LINE
  5
23F
330
6A
100
AcDbEntity
  8
0
  6
Continuous
 62
     7
100
AcDbLine
 10
-316.5000000000976
 20
-138.4999999999999
 30
0.0
 11
-291.5000000000976
 21
-138.4999999999999
 31
0.0
  0
LINE
  5
240
330
6A
100
AcDbEntity
  8
0
  6
Continuous
 62
     7
100
AcDbLine
 10
-291.5000000000976
 20
-135.9899999999999
 30
0.0
 11
-262.0000000000976
 21
-135.9899999999999
 31
0.0
  0
LINE
  5
241
330
6A
100
AcDbEntity
  8
0
  6
Continuous
 62
     7
100
AcDbLine
 10
-226.5000000000976
 20
-161.9999999999999
 30
0.0
 11
-226.5000000000976
 21
-135.9999999999999
 31
0.0
  0
LINE
  5
242
330
6A
100
AcDbEntity
  8
0
  6
Continuous
 62
     7
100
AcDbLine
 10
-230.0000000000976
 20
-186.9999999999999
 30
0.0
 11
-230.0000000000976
 21
-136.9999999999999
 31
0.0
  0
LINE
  5
243
330
6A
100
AcDbEntity
  8
1
  6
Continuous
 62
     2
100
AcDbLine
 10
-337.5000000000976
 20
-184.7399999999999
 30
0.0
 11
-324.5000000000976
 21
-184.7399999999999
 31
0.0
  0
LINE
  5
244
330
6A
100
AcDbEntity
  8
1
  6
Continuous
 62
     2
100
AcDbLine
 10
-337.5000000000976
 20
-139.2599999999999
 30
0.0
 11
-324.5000000000976
 21
-139.2599999999999
 31
0.0
  0
LINE
  5
245
330
6A
100
AcDbEntity
  8
1
  6
DOT_CENTER
 62
     2
100
AcDbLine
 10
-316.5000000000976
 20
-161.9999999999999
 30
0.0
 11
-226.5000000000976
 21
-161.9999999999999
 31
0.0
  0
LINE
  5
246
330
6A
100
AcDbEntity
  8
1
  6
DOT_CENTER
 62
     2
100
AcDbLine
 10
-337.5000000000976
 20
-161.9999999999999
 30
0.0
 11
-324.5000000000976
 21
-161.9999999999999
 31
0.0
  0
ENDBLK
  5
6C
330
6A
100
AcDbEntity
  8
0
100
AcDbBlockEnd
  0
BLOCK
  5
6F
330
6D
100
AcDbEntity
  8
0
100
AcDbBlockBegin
  2
Rückansicht1
 70
     0
 10
-282.0000000000325
 20
-162.0
 30
0.0
  3
Rückansicht1
  1

  0
INSERT
  5
6E
330
6D
100
AcDbEntity
  8
0
100
AcDbBlockReference
  2
WP_GR_HF_IP66_PG36_BK-select__6
 10
-337.5000000000976
 20
-191.2499999999999
 30
0.0
  0
MTEXT
  5
247
330
6D
100
AcDbEntity
  8
1
 62
     6
100
AcDbMText
 10
-282.0000000000976
 20
-201.2499999999999
 30
0.0
 40
10.0
 41
0.0
 71
     2
 72
     1
  1
 
  7
CONVERTER_11
 73
     1
 44
1.32052821128451
  0
ENDBLK
  5
70
330
6D
100
AcDbEntity
  8
0
100
AcDbBlockEnd
  0
BLOCK
  5
72
330
71
100
AcDbEntity
  8
0
100
AcDbBlockBegin
  2
_rahmen
 70
     0
 10
-42.70821969616969
 20
-314.224989179649
 30
0.0
  3
_rahmen
  1

  0
LINE
  5
248
330
71
100
AcDbEntity
  8
1
  6
Continuous
 62
     6
100
AcDbLine
 10
-111.0415530295031
 20
-309.224989179649
 30
0.0
 11
-42.70821969616975
 21
-309.2249891796495
 31
0.0
  0
LINE
  5
249
330
71
100
AcDbEntity
  8
1
  6
Continuous
 62
     6
100
AcDbLine
 10
-42.70821969617015
 20
-300.7249891796496
 30
0.0
 11
-42.70821969616969
 21
-292.2249891796496
 31
0.0
  0
LINE
  5
24A
330
71
100
AcDbEntity
  8
1
  6
Continuous
 62
     6
100
AcDbLine
 10
-42.70821969616969
 20
-292.2249891796496
 30
0.0
 11
-42.70821969617066
 21
-287.9749891796496
 31
0.0
  0
LINE
  5
24B
330
71
100
AcDbEntity
  8
1
  6
Continuous
 62
     6
100
AcDbLine
 10
-42.70821969617066
 20
-287.9749891796496
 30
0.0
 11
-42.70821969616975
 21
-251.8249891796489
 31
0.0
  0
LINE
  5
24C
330
71
100
AcDbEntity
  8
1
  6
Continuous
 62
     2
100
AcDbLine
 10
-247.7082196961697
 20
-314.224989179649
 30
0.0
 11
-316.0415530295028
 21
-314.224989179649
 31
0.0
  0
LINE
  5
24D
330
71
100
AcDbEntity
  8
1
  6
Continuous
 62
     2
100
AcDbLine
 10
-111.0415530295031
 20
-314.224989179649
 30
0.0
 11
-42.70821969616969
 21
-314.224989179649
 31
0.0
  0
LINE
  5
24E
330
71
100
AcDbEntity
  8
1
  6
Continuous
 62
     2
100
AcDbLine
 10
-111.0415530295031
 20
-314.224989179649
 30
0.0
 11
-111.0415530295031
 21
-309.224989179649
 31
0.0
  0
LINE
  5
24F
330
71
100
AcDbEntity
  8
1
  6
Continuous
 62
     2
100
AcDbLine
 10
-179.3748863628363
 20
-314.224989179649
 30
0.0
 11
-179.3748863628363
 21
-309.2249891796519
 31
0.0
  0
LINE
  5
250
330
71
100
AcDbEntity
  8
1
  6
Continuous
 62
     2
100
AcDbLine
 10
-247.7082196961697
 20
-314.224989179649
 30
0.0
 11
-247.7082196961697
 21
-309.224989179649
 31
0.0
  0
LINE
  5
251
330
71
100
AcDbEntity
  8
1
  6
Continuous
 62
     2
100
AcDbLine
 10
-37.70821969617219
 20
-251.8249891796489
 30
0.0
 11
-37.70821969617219
 21
-194.4249891796488
 31
0.0
  0
LINE
  5
252
330
71
100
AcDbEntity
  8
1
  6
Continuous
 62
     2
100
AcDbLine
 10
-37.70821969617219
 20
-251.8249891796489
 30
0.0
 11
-42.70821969616975
 21
-251.8249891796489
 31
0.0
  0
LINE
  5
253
330
71
100
AcDbEntity
  8
1
  6
Continuous
 62
     2
100
AcDbLine
 10
-437.7082196961704
 20
-314.224989179649
 30
0.0
 11
-457.7082196961705
 21
-314.224989179649
 31
0.0
  0
LINE
  5
254
330
71
100
AcDbEntity
  8
1
  6
Continuous
 62
     2
100
AcDbLine
 10
-384.3748863628363
 20
-314.224989179649
 30
0.0
 11
-384.3748863628363
 21
-309.224989179649
 31
0.0
  0
LINE
  5
255
330
71
100
AcDbEntity
  8
1
  6
Continuous
 62
     2
100
AcDbLine
 10
-384.3748863628363
 20
-314.224989179649
 30
0.0
 11
-316.0415530295028
 21
-314.224989179649
 31
0.0
  0
LINE
  5
256
330
71
100
AcDbEntity
  8
1
  6
Continuous
 62
     6
100
AcDbLine
 10
-384.3748863628363
 20
-309.224989179649
 30
0.0
 11
-316.0415530295028
 21
-309.224989179649
 31
0.0
  0
LINE
  5
257
330
71
100
AcDbEntity
  8
1
  6
Continuous
 62
     6
100
AcDbLine
 10
-384.3748863628363
 20
-309.224989179649
 30
0.0
 11
-437.7082196961694
 21
-309.224989179649
 31
0.0
  0
LINE
  5
258
330
71
100
AcDbEntity
  8
1
  6
Continuous
 62
     2
100
AcDbLine
 10
-316.0415530295028
 20
-314.224989179649
 30
0.0
 11
-316.0415530295028
 21
-309.224989179649
 31
0.0
  0
LINE
  5
259
330
71
100
AcDbEntity
  8
1
  6
Continuous
 62
     2
100
AcDbLine
 10
-437.7082196961704
 20
-314.224989179649
 30
0.0
 11
-437.7082196961704
 21
-310.224989179649
 31
0.0
  0
LINE
  5
25A
330
71
100
AcDbEntity
  8
1
  6
Continuous
 62
     2
100
AcDbLine
 10
-437.7082196961704
 20
-314.224989179649
 30
0.0
 11
-384.3748863628363
 21
-314.224989179649
 31
0.0
  0
LINE
  5
25B
330
71
100
AcDbEntity
  8
1
  6
Continuous
 62
     2
100
AcDbLine
 10
-227.7082196961725
 20
-314.224989179649
 30
0.0
 11
-247.7082196961697
 21
-314.224989179649
 31
0.0
  0
LINE
  5
25C
330
71
100
AcDbEntity
  8
1
  6
Continuous
 62
     2
100
AcDbLine
 10
-227.7082196961725
 20
-314.224989179649
 30
0.0
 11
-227.7082196961725
 21
-310.224989179649
 31
0.0
  0
LINE
  5
25D
330
71
100
AcDbEntity
  8
1
  6
Continuous
 62
     2
100
AcDbLine
 10
-227.7082196961725
 20
-314.224989179649
 30
0.0
 11
-179.3748863628363
 21
-314.224989179649
 31
0.0
  0
LINE
  5
25E
330
71
100
AcDbEntity
  8
1
  6
Continuous
 62
     2
100
AcDbLine
 10
-179.3748863628363
 20
-314.224989179649
 30
0.0
 11
-111.0415530295031
 21
-314.224989179649
 31
0.0
  0
LINE
  5
25F
330
71
100
AcDbEntity
  8
1
  6
Continuous
 62
     2
100
AcDbLine
 10
-37.70821969617219
 20
-314.224989179649
 30
0.0
 11
-42.70821969616969
 21
-314.224989179649
 31
0.0
  0
LINE
  5
260
330
71
100
AcDbEntity
  8
1
  6
Continuous
 62
     2
100
AcDbLine
 10
-37.70821969617219
 20
-309.224989179649
 30
0.0
 11
-37.70821969617219
 21
-314.224989179649
 31
0.0
  0
LINE
  5
261
330
71
100
AcDbEntity
  8
1
  6
Continuous
 62
     2
100
AcDbLine
 10
-37.70821969617219
 20
-309.224989179649
 30
0.0
 11
-37.70821969617219
 21
-251.8249891796489
 31
0.0
  0
LINE
  5
262
330
71
100
AcDbEntity
  8
1
  6
Continuous
 62
     2
100
AcDbLine
 10
-37.70821969617219
 20
-17.22498917964902
 30
0.0
 11
-42.70821969617219
 21
-17.22498917964902
 31
0.0
  0
LINE
  5
263
330
71
100
AcDbEntity
  8
1
  6
Continuous
 62
     6
100
AcDbLine
 10
-42.70821969617219
 20
-22.22498917964902
 30
0.0
 11
-42.70821969617168
 21
-79.6249891796491
 31
0.0
  0
LINE
  5
264
330
71
100
AcDbEntity
  8
1
  6
Continuous
 62
     2
100
AcDbLine
 10
-37.70821969617219
 20
-17.22498917964902
 30
0.0
 11
-37.70821969617219
 21
-22.22498917964902
 31
0.0
  0
LINE
  5
265
330
71
100
AcDbEntity
  8
1
  6
Continuous
 62
     2
100
AcDbLine
 10
-42.70821969617219
 20
-22.22498917964902
 30
0.0
 11
-42.70821969617219
 21
-17.22498917964902
 31
0.0
  0
LINE
  5
266
330
71
100
AcDbEntity
  8
1
  6
Continuous
 62
     2
100
AcDbLine
 10
-42.70821969617219
 20
-22.22498917964902
 30
0.0
 11
-37.70821969617219
 21
-22.22498917964902
 31
0.0
  0
LINE
  5
267
330
71
100
AcDbEntity
  8
1
  6
Continuous
 62
     2
100
AcDbLine
 10
-37.70821969617219
 20
-22.22498917964902
 30
0.0
 11
-37.70821969617219
 21
-79.6249891796491
 31
0.0
  0
LINE
  5
268
330
71
100
AcDbEntity
  8
1
  6
Continuous
 62
     2
100
AcDbLine
 10
-42.70821969617168
 20
-79.6249891796491
 30
0.0
 11
-37.70821969617219
 21
-79.6249891796491
 31
0.0
  0
LINE
  5
269
330
71
100
AcDbEntity
  8
1
  6
Continuous
 62
     6
100
AcDbLine
 10
-42.70821969617168
 20
-79.6249891796491
 30
0.0
 11
-42.70821969616969
 21
-137.024989179649
 31
0.0
  0
LINE
  5
26A
330
71
100
AcDbEntity
  8
1
  6
Continuous
 62
     2
100
AcDbLine
 10
-37.70821969617219
 20
-79.6249891796491
 30
0.0
 11
-37.70821969617219
 21
-137.024989179649
 31
0.0
  0
LINE
  5
26B
330
71
100
AcDbEntity
  8
1
  6
Continuous
 62
     2
100
AcDbLine
 10
-42.70821969616969
 20
-137.024989179649
 30
0.0
 11
-37.70821969617219
 21
-137.024989179649
 31
0.0
  0
LINE
  5
26C
330
71
100
AcDbEntity
  8
1
  6
Continuous
 62
     6
100
AcDbLine
 10
-42.70821969616969
 20
-137.024989179649
 30
0.0
 11
-42.70821969616969
 21
-194.4249891796488
 31
0.0
  0
LINE
  5
26D
330
71
100
AcDbEntity
  8
1
  6
Continuous
 62
     2
100
AcDbLine
 10
-37.70821969617219
 20
-137.024989179649
 30
0.0
 11
-37.70821969617219
 21
-194.4249891796488
 31
0.0
  0
LINE
  5
26E
330
71
100
AcDbEntity
  8
1
  6
Continuous
 62
     2
100
AcDbLine
 10
-42.70821969616969
 20
-194.4249891796488
 30
0.0
 11
-37.70821969617219
 21
-194.4249891796488
 31
0.0
  0
LINE
  5
26F
330
71
100
AcDbEntity
  8
1
  6
Continuous
 62
     6
100
AcDbLine
 10
-42.70821969616969
 20
-194.4249891796488
 30
0.0
 11
-42.70821969616975
 21
-251.8249891796489
 31
0.0
  0
LINE
  5
270
330
71
100
AcDbEntity
  8
1
  6
Continuous
 62
     6
100
AcDbLine
 10
-437.7082196961704
 20
-22.22498917964879
 30
0.0
 11
-384.3748863628363
 21
-22.22498917964879
 31
0.0
  0
LINE
  5
271
330
71
100
AcDbEntity
  8
1
  6
Continuous
 62
     2
100
AcDbLine
 10
-42.70821969617219
 20
-17.22498917964902
 30
0.0
 11
-111.0415530295031
 21
-17.22498917964902
 31
0.0
  0
LINE
  5
272
330
71
100
AcDbEntity
  8
1
  6
Continuous
 62
     2
100
AcDbLine
 10
-111.0415530295031
 20
-22.22498917964902
 30
0.0
 11
-111.0415530295031
 21
-17.22498917964902
 31
0.0
  0
LINE
  5
273
330
71
100
AcDbEntity
  8
1
  6
Continuous
 62
     6
100
AcDbLine
 10
-111.0415530295031
 20
-22.22498917964902
 30
0.0
 11
-42.70821969617219
 21
-22.22498917964902
 31
0.0
  0
LINE
  5
274
330
71
100
AcDbEntity
  8
1
  6
Continuous
 62
     2
100
AcDbLine
 10
-111.0415530295031
 20
-17.22498917964902
 30
0.0
 11
-179.3748863628363
 21
-17.22498917964902
 31
0.0
  0
LINE
  5
275
330
71
100
AcDbEntity
  8
1
  6
Continuous
 62
     2
100
AcDbLine
 10
-179.3748863628363
 20
-22.22498917964902
 30
0.0
 11
-179.3748863628363
 21
-17.22498917964902
 31
0.0
  0
LINE
  5
276
330
71
100
AcDbEntity
  8
1
  6
Continuous
 62
     6
100
AcDbLine
 10
-179.3748863628363
 20
-22.22498917964902
 30
0.0
 11
-111.0415530295031
 21
-22.22498917964902
 31
0.0
  0
LINE
  5
277
330
71
100
AcDbEntity
  8
1
  6
Continuous
 62
     2
100
AcDbLine
 10
-179.3748863628363
 20
-17.22498917964902
 30
0.0
 11
-227.7082196961725
 21
-17.22498917964902
 31
0.0
  0
LINE
  5
278
330
71
100
AcDbEntity
  8
1
  6
Continuous
 62
     2
100
AcDbLine
 10
-247.7082196961697
 20
-22.22498917964902
 30
0.0
 11
-247.7082196961697
 21
-17.22498917964902
 31
0.0
  0
LINE
  5
279
330
71
100
AcDbEntity
  8
1
  6
Continuous
 62
     6
100
AcDbLine
 10
-247.7082196961697
 20
-22.22498917964902
 30
0.0
 11
-179.3748863628363
 21
-22.22498917964902
 31
0.0
  0
LINE
  5
27A
330
71
100
AcDbEntity
  8
1
  6
Continuous
 62
     2
100
AcDbLine
 10
-247.7082196961697
 20
-17.22498917964902
 30
0.0
 11
-316.0415530295028
 21
-17.22498917964902
 31
0.0
  0
LINE
  5
27B
330
71
100
AcDbEntity
  8
1
  6
Continuous
 62
     2
100
AcDbLine
 10
-316.0415530295028
 20
-22.22498917964902
 30
0.0
 11
-316.0415530295028
 21
-17.22498917964902
 31
0.0
  0
LINE
  5
27C
330
71
100
AcDbEntity
  8
1
  6
Continuous
 62
     6
100
AcDbLine
 10
-316.0415530295028
 20
-22.22498917964902
 30
0.0
 11
-247.7082196961697
 21
-22.22498917964902
 31
0.0
  0
LINE
  5
27D
330
71
100
AcDbEntity
  8
1
  6
Continuous
 62
     2
100
AcDbLine
 10
-316.0415530295028
 20
-17.22498917964902
 30
0.0
 11
-384.3748863628363
 21
-17.22498917964902
 31
0.0
  0
LINE
  5
27E
330
71
100
AcDbEntity
  8
1
  6
Continuous
 62
     2
100
AcDbLine
 10
-384.3748863628363
 20
-22.22498917964879
 30
0.0
 11
-384.3748863628363
 21
-17.22498917964902
 31
0.0
  0
LINE
  5
27F
330
71
100
AcDbEntity
  8
1
  6
Continuous
 62
     6
100
AcDbLine
 10
-384.3748863628363
 20
-22.22498917964879
 30
0.0
 11
-316.0415530295028
 21
-22.22498917964902
 31
0.0
  0
LINE
  5
280
330
71
100
AcDbEntity
  8
1
  6
Continuous
 62
     2
100
AcDbLine
 10
-384.3748863628363
 20
-17.22498917964902
 30
0.0
 11
-437.7082196961704
 21
-17.22498917964902
 31
0.0
  0
LINE
  5
281
330
71
100
AcDbEntity
  8
1
  6
Continuous
 62
     2
100
AcDbLine
 10
-437.7082196961704
 20
-17.22498917964902
 30
0.0
 11
-437.7082196961704
 21
-21.22498917964879
 31
0.0
  0
LINE
  5
282
330
71
100
AcDbEntity
  8
1
  6
Continuous
 62
     2
100
AcDbLine
 10
-437.7082196961704
 20
-17.22498917964902
 30
0.0
 11
-457.7082196961705
 21
-17.22498917964902
 31
0.0
  0
LINE
  5
283
330
71
100
AcDbEntity
  8
1
  6
Continuous
 62
     2
100
AcDbLine
 10
-227.7082196961725
 20
-17.22498917964902
 30
0.0
 11
-227.7082196961725
 21
-21.22498917964879
 31
0.0
  0
LINE
  5
284
330
71
100
AcDbEntity
  8
1
  6
Continuous
 62
     2
100
AcDbLine
 10
-227.7082196961725
 20
-17.22498917964902
 30
0.0
 11
-247.7082196961697
 21
-17.22498917964902
 31
0.0
  0
LINE
  5
285
330
71
100
AcDbEntity
  8
1
  6
Continuous
 62
     2
100
AcDbLine
 10
-457.7082196961705
 20
-17.22498917964902
 30
0.0
 11
-457.7082196961705
 21
-165.724989179649
 31
0.0
  0
LINE
  5
286
330
71
100
AcDbEntity
  8
1
  6
Continuous
 62
     2
100
AcDbLine
 10
-457.7082196961705
 20
-165.724989179649
 30
0.0
 11
-447.7082196961704
 21
-165.724989179649
 31
0.0
  0
LINE
  5
287
330
71
100
AcDbEntity
  8
1
  6
Continuous
 62
     2
100
AcDbLine
 10
-457.7082196961705
 20
-165.724989179649
 30
0.0
 11
-457.7082196961705
 21
-314.224989179649
 31
0.0
  0
LINE
  5
288
330
71
100
AcDbEntity
  8
1
  6
Continuous
 62
     6
100
AcDbLine
 10
-437.7082196961694
 20
-309.224989179649
 30
0.0
 11
-437.7082196961704
 21
-22.22498917964879
 31
0.0
  0
LINE
  5
289
330
71
100
AcDbEntity
  8
1
  6
Continuous
 62
     6
100
AcDbLine
 10
-42.70821969616975
 20
-309.2249891796495
 30
0.0
 11
-42.70821969617015
 21
-300.7249891796496
 31
0.0
  0
LINE
  5
28A
330
71
100
AcDbEntity
  8
1
  6
Continuous
 62
     6
100
AcDbLine
 10
-316.0415530295028
 20
-309.224989179649
 30
0.0
 11
-172.2530242229196
 21
-309.2249891796521
 31
0.0
  0
LINE
  5
28B
330
71
100
AcDbEntity
  8
1
  6
Continuous
 62
     2
100
AcDbLine
 10
-179.3748863628363
 20
-309.2249891796519
 30
0.0
 11
-179.3748863628363
 21
-309.224989179649
 31
0.0
  0
LINE
  5
28C
330
71
100
AcDbEntity
  8
1
  6
Continuous
 62
     6
100
AcDbLine
 10
-42.7082196961679
 20
-292.2249891796496
 30
0.0
 11
-42.7082196961679
 21
-283.7249891796496
 31
0.0
  0
LINE
  5
28D
330
71
100
AcDbEntity
  8
1
  6
Continuous
 62
     7
100
AcDbLine
 10
-107.9530242229197
 20
-300.7249891796496
 30
0.0
 11
-107.9530242229197
 21
-292.2249891796496
 31
0.0
  0
LINE
  5
28E
330
71
100
AcDbEntity
  8
1
  6
Continuous
 62
     6
100
AcDbLine
 10
-135.8530242229197
 20
-292.2249891796496
 30
0.0
 11
-42.7082196961679
 21
-292.2249891796496
 31
0.0
  0
LINE
  5
28F
330
71
100
AcDbEntity
  8
1
  6
Continuous
 62
     7
100
AcDbLine
 10
-172.2530242229196
 20
-292.2249891796496
 30
0.0
 11
-172.2530242229196
 21
-283.7249891796496
 31
0.0
  0
LINE
  5
290
330
71
100
AcDbEntity
  8
1
  6
Continuous
 62
     7
100
AcDbLine
 10
-135.8530242229197
 20
-292.2249891796496
 30
0.0
 11
-135.8530242229197
 21
-283.7249891796496
 31
0.0
  0
LINE
  5
291
330
71
100
AcDbEntity
  8
1
  6
Continuous
 62
     7
100
AcDbLine
 10
-78.12662797784672
 20
-283.7249891796496
 30
0.0
 11
-78.12662797784672
 21
-292.2249891796496
 31
0.0
  0
LINE
  5
292
330
71
100
AcDbEntity
  8
1
  6
Continuous
 62
     7
100
AcDbLine
 10
-51.62662797784709
 20
-283.7249891796496
 30
0.0
 11
-51.62662797784709
 21
-292.2249891796496
 31
0.0
  0
LINE
  5
293
330
71
100
AcDbEntity
  8
1
  6
Continuous
 62
     7
100
AcDbLine
 10
-42.7082196961684
 20
-300.7249891796496
 30
0.0
 11
-135.8530242229197
 21
-300.7249891796496
 31
0.0
  0
LINE
  5
294
102
{ACAD_REACTORS
330
379
330
37A
102
}
330
71
100
AcDbEntity
  8
0
  6
Continuous
 62
     2
100
AcDbLine
 10
-158.5455952811522
 20
-299.9247000639863
 30
0.0
 11
-158.5455952811522
 21
-299.052183057183
 31
0.0
  0
LINE
  5
295
102
{ACAD_REACTORS
330
379
330
37A
102
}
330
71
100
AcDbEntity
  8
0
  6
Continuous
 62
     2
100
AcDbLine
 10
-158.5455952811522
 20
-300.8844687714691
 30
0.0
 11
-158.5455952811522
 21
-301.7569857782724
 31
0.0
  0
LINE
  5
296
102
{ACAD_REACTORS
330
37B
330
37C
102
}
330
71
100
AcDbEntity
  8
0
  6
Continuous
 62
     2
100
AcDbLine
 10
-143.2125511448618
 20
-299.6629449619458
 30
0.0
 11
-142.1089118452937
 21
-299.6629449619458
 31
0.0
  0
LINE
  5
297
102
{ACAD_REACTORS
330
37B
330
37C
102
}
330
71
100
AcDbEntity
  8
0
  6
Continuous
 62
     2
100
AcDbLine
 10
-142.4428938019004
 20
-300.8844687714696
 30
0.0
 11
-142.4428938019004
 21
-301.7569857782729
 31
0.0
  0
LINE
  5
298
102
{ACAD_REACTORS
330
385
330
386
102
}
330
71
100
AcDbEntity
  8
0
  6
Continuous
 62
     2
100
AcDbLine
 10
-144.3036504172802
 20
-298.5722987034589
 30
0.0
 11
-142.9056973703399
 21
-296.991439709684
 31
0.0
  0
LINE
  5
299
102
{ACAD_REACTORS
330
385
330
386
102
}
330
71
100
AcDbEntity
  8
0
  6
Continuous
 62
     2
100
AcDbLine
 10
-144.2082270011074
 20
-295.5184891796478
 30
0.0
 11
-142.9056973703399
 21
-296.991439709684
 31
0.0
  0
LINE
  5
29A
102
{ACAD_REACTORS
330
385
330
386
102
}
330
71
100
AcDbEntity
  8
0
  6
Continuous
 62
     2
100
AcDbLine
 10
-141.6031677395735
 20
-295.5184891796478
 30
0.0
 11
-140.2004435218263
 21
-295.5184891796478
 31
0.0
  0
LINE
  5
29B
102
{ACAD_REACTORS
330
385
330
386
102
}
330
71
100
AcDbEntity
  8
0
  6
Continuous
 62
     2
100
AcDbLine
 10
-142.9009261995321
 20
-298.5722987034589
 30
0.0
 11
-142.2043352614663
 21
-297.7845669181652
 31
0.0
  0
LINE
  5
29C
102
{ACAD_REACTORS
330
385
330
386
102
}
330
71
100
AcDbEntity
  8
0
  6
Continuous
 62
     2
100
AcDbLine
 10
-142.9009261995321
 20
-298.5722987034589
 30
0.0
 11
-144.3036504172802
 21
-298.5722987034589
 31
0.0
  0
LINE
  5
29D
102
{ACAD_REACTORS
330
387
330
388
102
}
330
71
100
AcDbEntity
  8
0
  6
Continuous
 62
     2
100
AcDbLine
 10
-144.4229296874971
 20
-298.5722987034589
 30
0.0
 11
-145.66343409775
 21
-298.5722987034589
 31
0.0
  0
LINE
  5
29E
102
{ACAD_REACTORS
330
389
330
38A
102
}
330
71
100
AcDbEntity
  8
0
  6
Continuous
 62
     2
100
AcDbLine
 10
-146.5314137059051
 20
-300.7099653701088
 30
0.0
 11
-146.8315789430953
 21
-299.9421504041221
 31
0.0
  0
LINE
  5
29F
102
{ACAD_REACTORS
330
389
330
38A
102
}
330
71
100
AcDbEntity
  8
0
  6
Continuous
 62
     2
100
AcDbLine
 10
-147.1317441802876
 20
-300.7099653701088
 30
0.0
 11
-146.5314137059051
 21
-300.7099653701088
 31
0.0
  0
LINE
  5
2A0
102
{ACAD_REACTORS
330
389
330
38A
102
}
330
71
100
AcDbEntity
  8
0
  6
Continuous
 62
     2
100
AcDbLine
 10
-148.8497841951614
 20
-301.9314891796332
 30
0.0
 11
-147.6092797849085
 21
-301.9314891796332
 31
0.0
  0
LINE
  5
2A1
102
{ACAD_REACTORS
330
389
330
38A
102
}
330
71
100
AcDbEntity
  8
0
  6
Continuous
 62
     2
100
AcDbLine
 10
-147.4518311482222
 20
-298.8776796558221
 30
0.0
 11
-146.2113267379694
 21
-298.8776796558221
 31
0.0
  0
LINE
  5
2A2
102
{ACAD_REACTORS
330
389
330
38A
102
}
330
71
100
AcDbEntity
  8
0
  6
Continuous
 62
     2
100
AcDbLine
 10
-146.2113267379694
 20
-298.8776796558221
 30
0.0
 11
-144.8133736910291
 21
-301.9314891796332
 31
0.0
  0
LINE
  5
2A3
102
{ACAD_REACTORS
330
389
330
38A
102
}
330
71
100
AcDbEntity
  8
0
  6
Continuous
 62
     2
100
AcDbLine
 10
-146.053878101283
 20
-301.9314891796332
 30
0.0
 11
-146.2653581547588
 21
-301.3905286354154
 31
0.0
  0
LINE
  5
2A4
102
{ACAD_REACTORS
330
38B
330
38C
102
}
330
71
100
AcDbEntity
  8
0
  6
Continuous
 62
     2
100
AcDbLine
 10
-150.196197296869
 20
-301.9314891796332
 30
0.0
 11
-149.0034045947026
 21
-301.9314891796332
 31
0.0
  0
LINE
  5
2A5
102
{ACAD_REACTORS
330
38B
330
38C
102
}
330
71
100
AcDbEntity
  8
0
  6
Continuous
 62
     2
100
AcDbLine
 10
-150.196197296869
 20
-299.6629449619458
 30
0.0
 11
-150.196197296869
 21
-301.9314891796332
 31
0.0
  0
LINE
  5
2A6
102
{ACAD_REACTORS
330
38B
330
38C
102
}
330
71
100
AcDbEntity
  8
0
  6
Continuous
 62
     2
100
AcDbLine
 10
-151.0072963343437
 20
-298.8776796558221
 30
0.0
 11
-151.0072963343437
 21
-299.6629449619458
 31
0.0
  0
LINE
  5
2A7
102
{ACAD_REACTORS
330
38D
330
38E
102
}
330
71
100
AcDbEntity
  8
0
  6
Continuous
 62
     2
100
AcDbLine
 10
-149.528082452771
 20
-298.5722987034589
 30
0.0
 11
-148.3352897506046
 21
-298.5722987034589
 31
0.0
  0
LINE
  5
2A8
102
{ACAD_REACTORS
330
38D
330
38E
102
}
330
71
100
AcDbEntity
  8
0
  6
Continuous
 62
     2
100
AcDbLine
 10
-147.0947853403505
 20
-296.8272646898529
 30
0.0
 11
-148.3352897506046
 21
-295.5184891796478
 31
0.0
  0
LINE
  5
2A9
102
{ACAD_REACTORS
330
38D
330
38E
102
}
330
71
100
AcDbEntity
  8
0
  6
Continuous
 62
     2
100
AcDbLine
 10
-145.9019926381839
 20
-295.5184891796478
 30
0.0
 11
-147.0947853403505
 21
-295.5184891796478
 31
0.0
  0
LINE
  5
2AA
102
{ACAD_REACTORS
330
38D
330
38E
102
}
330
71
100
AcDbEntity
  8
0
  6
Continuous
 62
     2
100
AcDbLine
 10
-145.9019926381839
 20
-298.5722987034589
 30
0.0
 11
-145.9019926381839
 21
-295.5184891796478
 31
0.0
  0
LINE
  5
2AB
102
{ACAD_REACTORS
330
38D
330
38E
102
}
330
71
100
AcDbEntity
  8
0
  6
Continuous
 62
     2
100
AcDbLine
 10
-147.0947853403505
 20
-298.5722987034589
 30
0.0
 11
-145.9019926381839
 21
-298.5722987034589
 31
0.0
  0
LINE
  5
2AC
102
{ACAD_REACTORS
330
38D
330
38E
102
}
330
71
100
AcDbEntity
  8
0
  6
Continuous
 62
     2
100
AcDbLine
 10
-148.3352897506046
 20
-297.2635231932542
 30
0.0
 11
-147.0947853403505
 21
-298.5722987034589
 31
0.0
  0
LINE
  5
2AD
102
{ACAD_REACTORS
330
38F
330
390
102
}
330
71
100
AcDbEntity
  8
0
  6
Continuous
 62
     2
100
AcDbLine
 10
-152.3432241607702
 20
-300.1864551660273
 30
0.0
 11
-153.5837285710232
 21
-298.8776796558221
 31
0.0
  0
LINE
  5
2AE
102
{ACAD_REACTORS
330
38F
330
390
102
}
330
71
100
AcDbEntity
  8
0
  6
Continuous
 62
     2
100
AcDbLine
 10
-152.3432241607702
 20
-298.8776796558221
 30
0.0
 11
-152.3432241607702
 21
-300.1864551660273
 31
0.0
  0
LINE
  5
2AF
102
{ACAD_REACTORS
330
38F
330
390
102
}
330
71
100
AcDbEntity
  8
0
  6
Continuous
 62
     2
100
AcDbLine
 10
-151.1504314586038
 20
-298.8776796558221
 30
0.0
 11
-152.3432241607702
 21
-298.8776796558221
 31
0.0
  0
LINE
  5
2B0
102
{ACAD_REACTORS
330
38F
330
390
102
}
330
71
100
AcDbEntity
  8
0
  6
Continuous
 62
     2
100
AcDbLine
 10
-151.1504314586038
 20
-301.9314891796332
 30
0.0
 11
-151.1504314586038
 21
-298.8776796558221
 31
0.0
  0
LINE
  5
2B1
102
{ACAD_REACTORS
330
38F
330
390
102
}
330
71
100
AcDbEntity
  8
0
  6
Continuous
 62
     2
100
AcDbLine
 10
-153.5837285710232
 20
-300.6227136694287
 30
0.0
 11
-152.3432241607702
 21
-301.9314891796332
 31
0.0
  0
LINE
  5
2B2
102
{ACAD_REACTORS
330
38F
330
390
102
}
330
71
100
AcDbEntity
  8
0
  6
Continuous
 62
     2
100
AcDbLine
 10
-153.5837285710232
 20
-301.9314891796332
 30
0.0
 11
-153.5837285710232
 21
-300.6227136694287
 31
0.0
  0
LINE
  5
2B3
102
{ACAD_REACTORS
330
37F
330
380
102
}
330
71
100
AcDbEntity
  8
0
  6
Continuous
 62
     2
100
AcDbLine
 10
-151.1025688196316
 20
-296.2165027850907
 30
0.0
 11
-149.766640993204
 21
-296.2165027850907
 31
0.0
  0
LINE
  5
2B4
102
{ACAD_REACTORS
330
37F
330
380
102
}
330
71
100
AcDbEntity
  8
0
  6
Continuous
 62
     2
100
AcDbLine
 10
-151.1025688196316
 20
-297.8742850980165
 30
0.0
 11
-151.1025688196316
 21
-297.3944007442748
 31
0.0
  0
LINE
  5
2B5
102
{ACAD_REACTORS
330
37F
330
380
102
}
330
71
100
AcDbEntity
  8
0
  6
Continuous
 62
     2
100
AcDbLine
 10
-149.766640993204
 20
-297.8742850980165
 30
0.0
 11
-151.1025688196316
 21
-297.8742850980165
 31
0.0
  0
LINE
  5
2B6
102
{ACAD_REACTORS
330
37F
330
380
102
}
330
71
100
AcDbEntity
  8
0
  6
Continuous
 62
     2
100
AcDbLine
 10
-149.766640993204
 20
-298.5722987034589
 30
0.0
 11
-149.766640993204
 21
-297.8742850980165
 31
0.0
  0
LINE
  5
2B7
102
{ACAD_REACTORS
330
37F
330
380
102
}
330
71
100
AcDbEntity
  8
0
  6
Continuous
 62
     2
100
AcDbLine
 10
-152.9169607169849
 20
-298.5722987034589
 30
0.0
 11
-149.766640993204
 21
-298.5722987034589
 31
0.0
  0
LINE
  5
2B8
102
{ACAD_REACTORS
330
37F
330
380
102
}
330
71
100
AcDbEntity
  8
0
  6
Continuous
 62
     2
100
AcDbLine
 10
-152.9169607169849
 20
-295.5184891796478
 30
0.0
 11
-149.766640993204
 21
-295.5184891796478
 31
0.0
  0
LINE
  5
2B9
102
{ACAD_REACTORS
330
37F
330
380
102
}
330
71
100
AcDbEntity
  8
0
  6
Continuous
 62
     2
100
AcDbLine
 10
-149.766640993204
 20
-296.2165027850907
 30
0.0
 11
-149.766640993204
 21
-295.5184891796478
 31
0.0
  0
LINE
  5
2BA
102
{ACAD_REACTORS
330
391
330
392
102
}
330
71
100
AcDbEntity
  8
0
  6
Continuous
 62
     2
100
AcDbLine
 10
-155.778316212125
 20
-296.5873225129824
 30
0.0
 11
-155.778316212125
 21
-295.5184891796478
 31
0.0
  0
LINE
  5
2BB
102
{ACAD_REACTORS
330
391
330
392
102
}
330
71
100
AcDbEntity
  8
0
  6
Continuous
 62
     2
100
AcDbLine
 10
-155.778316212125
 20
-295.5184891796478
 30
0.0
 11
-154.5855235099585
 21
-295.5184891796478
 31
0.0
  0
LINE
  5
2BC
102
{ACAD_REACTORS
330
391
330
392
102
}
330
71
100
AcDbEntity
  8
0
  6
Continuous
 62
     2
100
AcDbLine
 10
-155.778316212125
 20
-297.4380265946152
 30
0.0
 11
-156.8279737900324
 21
-297.4380265946152
 31
0.0
  0
LINE
  5
2BD
102
{ACAD_REACTORS
330
391
330
392
102
}
330
71
100
AcDbEntity
  8
0
  6
Continuous
 62
     2
100
AcDbLine
 10
-156.8279737900324
 20
-297.4380265946152
 30
0.0
 11
-156.8279737900324
 21
-298.5722987034589
 31
0.0
  0
LINE
  5
2BE
102
{ACAD_REACTORS
330
391
330
392
102
}
330
71
100
AcDbEntity
  8
0
  6
Continuous
 62
     2
100
AcDbLine
 10
-158.020766492199
 20
-295.5184891796478
 30
0.0
 11
-158.020766492199
 21
-298.5722987034589
 31
0.0
  0
LINE
  5
2BF
102
{ACAD_REACTORS
330
383
330
384
102
}
330
71
100
AcDbEntity
  8
0
  6
Continuous
 62
     2
100
AcDbLine
 10
-159.9769465237527
 20
-296.8873226744301
 30
0.0
 11
-159.9769465237527
 21
-296.1815950250878
 31
0.0
  0
LINE
  5
2C0
102
{ACAD_REACTORS
330
383
330
384
102
}
330
71
100
AcDbEntity
  8
0
  6
Continuous
 62
     2
100
AcDbLine
 10
-161.2174509340067
 20
-298.5722987034589
 30
0.0
 11
-159.9769465237527
 21
-298.5722987034589
 31
0.0
  0
LINE
  5
2C1
102
{ACAD_REACTORS
330
383
330
384
102
}
330
71
100
AcDbEntity
  8
0
  6
Continuous
 62
     2
100
AcDbLine
 10
-159.9769465237527
 20
-298.5722987034589
 30
0.0
 11
-159.9769465237527
 21
-297.6292204623152
 31
0.0
  0
LINE
  5
2C2
102
{ACAD_REACTORS
330
37D
330
37E
102
}
330
71
100
AcDbEntity
  8
0
  6
Continuous
 62
     2
100
AcDbLine
 10
-165.5223967832182
 20
-301.2189336240763
 30
0.0
 11
-166.9982300442278
 21
-301.2189336240763
 31
0.0
  0
LINE
  5
2C3
102
{ACAD_REACTORS
330
37D
330
37E
102
}
330
71
100
AcDbEntity
  8
0
  6
Continuous
 62
     2
100
AcDbLine
 10
-168.0163693363571
 20
-295.9427337950498
 30
0.0
 11
-168.0163693363571
 21
-301.50724456425
 31
0.0
  0
LINE
  5
2C4
102
{ACAD_REACTORS
330
37D
330
37E
102
}
330
71
100
AcDbEntity
  8
0
  6
Continuous
 62
     2
100
AcDbLine
 10
-167.5921247209743
 20
-295.5184891796659
 30
0.0
 11
-162.1188126302574
 21
-295.5184891796659
 31
0.0
  0
LINE
  5
2C5
102
{ACAD_REACTORS
330
37D
330
37E
102
}
330
71
100
AcDbEntity
  8
0
  6
Continuous
 62
     2
100
AcDbLine
 10
-161.6945680148735
 20
-295.9427337950498
 30
0.0
 11
-161.6945680148735
 21
-301.50724456425
 31
0.0
  0
LINE
  5
2C6
102
{ACAD_REACTORS
330
37D
330
37E
102
}
330
71
100
AcDbEntity
  8
0
  6
Continuous
 62
     2
100
AcDbLine
 10
-162.1188126302574
 20
-301.9314891796332
 30
0.0
 11
-167.5921247209743
 21
-301.9314891796332
 31
0.0
  0
LINE
  5
2C7
102
{ACAD_REACTORS
330
37D
330
37E
102
}
330
71
100
AcDbEntity
  8
0
  6
Continuous
 62
     2
100
AcDbLine
 10
-165.2066798601416
 20
-300.9032167009996
 30
0.0
 11
-165.2066798601416
 21
-299.372445769468
 31
0.0
  0
LINE
  5
2C8
102
{ACAD_REACTORS
330
37D
330
37E
102
}
330
71
100
AcDbEntity
  8
0
  6
Continuous
 62
     2
100
AcDbLine
 10
-165.2066798601416
 20
-297.1507862773431
 30
0.0
 11
-165.2066798601416
 21
-296.5467616582825
 31
0.0
  0
LINE
  5
2C9
102
{ACAD_REACTORS
330
37D
330
37E
102
}
330
71
100
AcDbEntity
  8
0
  6
Continuous
 62
     2
100
AcDbLine
 10
-166.9982300442278
 20
-296.2310447352064
 30
0.0
 11
-165.5223967832182
 21
-296.2310447352064
 31
0.0
  0
LINE
  5
2CA
102
{ACAD_REACTORS
330
37D
330
37E
102
}
330
71
100
AcDbEntity
  8
0
  6
Continuous
 62
     2
100
AcDbLine
 10
-167.3139469673034
 20
-296.5467616582825
 30
0.0
 11
-167.3139469673034
 21
-300.9032167009996
 31
0.0
  0
LINE
  5
2CB
102
{ACAD_REACTORS
330
383
330
384
102
}
330
71
100
AcDbEntity
  8
0
  6
Continuous
 62
     2
100
AcDbLine
 10
-159.9769465237527
 20
-297.6292204623152
 30
0.0
 11
-159.2181789359723
 21
-297.6292204623152
 31
0.0
  0
LINE
  5
2CC
102
{ACAD_REACTORS
330
383
330
384
102
}
330
71
100
AcDbEntity
  8
0
  6
Continuous
 62
     2
100
AcDbLine
 10
-161.2174509340067
 20
-295.5184891796478
 30
0.0
 11
-159.2181789359723
 21
-295.5184891796478
 31
0.0
  0
LINE
  5
2CD
102
{ACAD_REACTORS
330
383
330
384
102
}
330
71
100
AcDbEntity
  8
0
  6
Continuous
 62
     2
100
AcDbLine
 10
-161.2174509340067
 20
-295.5184891796478
 30
0.0
 11
-161.2174509340067
 21
-298.5722987034589
 31
0.0
  0
LINE
  5
2CE
102
{ACAD_REACTORS
330
383
330
384
102
}
330
71
100
AcDbEntity
  8
0
  6
Continuous
 62
     2
100
AcDbLine
 10
-159.9769465237527
 20
-296.8873226744301
 30
0.0
 11
-159.6596514622107
 21
-296.8873226744301
 31
0.0
  0
LINE
  5
2CF
102
{ACAD_REACTORS
330
383
330
384
102
}
330
71
100
AcDbEntity
  8
0
  6
Continuous
 62
     2
100
AcDbLine
 10
-159.9769465237527
 20
-296.1815950250878
 30
0.0
 11
-159.6596514622107
 21
-296.1815950250878
 31
0.0
  0
LINE
  5
2D0
102
{ACAD_REACTORS
330
391
330
392
102
}
330
71
100
AcDbEntity
  8
0
  6
Continuous
 62
     2
100
AcDbLine
 10
-156.8279737900324
 20
-296.5873225129824
 30
0.0
 11
-155.778316212125
 21
-296.5873225129824
 31
0.0
  0
LINE
  5
2D1
102
{ACAD_REACTORS
330
391
330
392
102
}
330
71
100
AcDbEntity
  8
0
  6
Continuous
 62
     2
100
AcDbLine
 10
-156.8279737900324
 20
-295.5184891796478
 30
0.0
 11
-156.8279737900324
 21
-296.5873225129824
 31
0.0
  0
LINE
  5
2D2
102
{ACAD_REACTORS
330
391
330
392
102
}
330
71
100
AcDbEntity
  8
0
  6
Continuous
 62
     2
100
AcDbLine
 10
-158.020766492199
 20
-295.5184891796478
 30
0.0
 11
-156.8279737900324
 21
-295.5184891796478
 31
0.0
  0
LINE
  5
2D3
102
{ACAD_REACTORS
330
391
330
392
102
}
330
71
100
AcDbEntity
  8
0
  6
Continuous
 62
     2
100
AcDbLine
 10
-156.8279737900324
 20
-298.5722987034589
 30
0.0
 11
-158.020766492199
 21
-298.5722987034589
 31
0.0
  0
LINE
  5
2D4
102
{ACAD_REACTORS
330
391
330
392
102
}
330
71
100
AcDbEntity
  8
0
  6
Continuous
 62
     2
100
AcDbLine
 10
-155.778316212125
 20
-298.5722987034589
 30
0.0
 11
-155.778316212125
 21
-297.4380265946152
 31
0.0
  0
LINE
  5
2D5
102
{ACAD_REACTORS
330
391
330
392
102
}
330
71
100
AcDbEntity
  8
0
  6
Continuous
 62
     2
100
AcDbLine
 10
-154.5855235099585
 20
-298.5722987034589
 30
0.0
 11
-155.778316212125
 21
-298.5722987034589
 31
0.0
  0
LINE
  5
2D6
102
{ACAD_REACTORS
330
391
330
392
102
}
330
71
100
AcDbEntity
  8
0
  6
Continuous
 62
     2
100
AcDbLine
 10
-154.5855235099585
 20
-295.5184891796478
 30
0.0
 11
-154.5855235099585
 21
-298.5722987034589
 31
0.0
  0
LINE
  5
2D7
102
{ACAD_REACTORS
330
37F
330
380
102
}
330
71
100
AcDbEntity
  8
0
  6
Continuous
 62
     2
100
AcDbLine
 10
-151.1025688196316
 20
-297.3944007442748
 30
0.0
 11
-149.766640993204
 21
-297.3944007442748
 31
0.0
  0
LINE
  5
2D8
102
{ACAD_REACTORS
330
37F
330
380
102
}
330
71
100
AcDbEntity
  8
0
  6
Continuous
 62
     2
100
AcDbLine
 10
-149.766640993204
 20
-297.3944007442748
 30
0.0
 11
-149.766640993204
 21
-296.6963871388324
 31
0.0
  0
LINE
  5
2D9
102
{ACAD_REACTORS
330
37F
330
380
102
}
330
71
100
AcDbEntity
  8
0
  6
Continuous
 62
     2
100
AcDbLine
 10
-149.766640993204
 20
-296.6963871388324
 30
0.0
 11
-151.1025688196316
 21
-296.6963871388324
 31
0.0
  0
LINE
  5
2DA
102
{ACAD_REACTORS
330
37F
330
380
102
}
330
71
100
AcDbEntity
  8
0
  6
Continuous
 62
     2
100
AcDbLine
 10
-151.1025688196316
 20
-296.6963871388324
 30
0.0
 11
-151.1025688196316
 21
-296.2165027850907
 31
0.0
  0
LINE
  5
2DB
102
{ACAD_REACTORS
330
38F
330
390
102
}
330
71
100
AcDbEntity
  8
0
  6
Continuous
 62
     2
100
AcDbLine
 10
-154.7765212731907
 20
-301.9314891796332
 30
0.0
 11
-153.5837285710232
 21
-301.9314891796332
 31
0.0
  0
LINE
  5
2DC
102
{ACAD_REACTORS
330
38F
330
390
102
}
330
71
100
AcDbEntity
  8
0
  6
Continuous
 62
     2
100
AcDbLine
 10
-152.3432241607702
 20
-301.9314891796332
 30
0.0
 11
-151.1504314586038
 21
-301.9314891796332
 31
0.0
  0
LINE
  5
2DD
102
{ACAD_REACTORS
330
38F
330
390
102
}
330
71
100
AcDbEntity
  8
0
  6
Continuous
 62
     2
100
AcDbLine
 10
-153.5837285710232
 20
-298.8776796558221
 30
0.0
 11
-154.7765212731907
 21
-298.8776796558221
 31
0.0
  0
LINE
  5
2DE
102
{ACAD_REACTORS
330
38F
330
390
102
}
330
71
100
AcDbEntity
  8
0
  6
Continuous
 62
     2
100
AcDbLine
 10
-154.7765212731907
 20
-298.8776796558221
 30
0.0
 11
-154.7765212731907
 21
-301.9314891796332
 31
0.0
  0
LINE
  5
2DF
102
{ACAD_REACTORS
330
38D
330
38E
102
}
330
71
100
AcDbEntity
  8
0
  6
Continuous
 62
     2
100
AcDbLine
 10
-147.0947853403505
 20
-295.5184891796478
 30
0.0
 11
-147.0947853403505
 21
-296.8272646898529
 31
0.0
  0
LINE
  5
2E0
102
{ACAD_REACTORS
330
38D
330
38E
102
}
330
71
100
AcDbEntity
  8
0
  6
Continuous
 62
     2
100
AcDbLine
 10
-148.3352897506046
 20
-295.5184891796478
 30
0.0
 11
-149.528082452771
 21
-295.5184891796478
 31
0.0
  0
LINE
  5
2E1
102
{ACAD_REACTORS
330
38D
330
38E
102
}
330
71
100
AcDbEntity
  8
0
  6
Continuous
 62
     2
100
AcDbLine
 10
-149.528082452771
 20
-295.5184891796478
 30
0.0
 11
-149.528082452771
 21
-298.5722987034589
 31
0.0
  0
LINE
  5
2E2
102
{ACAD_REACTORS
330
38D
330
38E
102
}
330
71
100
AcDbEntity
  8
0
  6
Continuous
 62
     2
100
AcDbLine
 10
-148.3352897506046
 20
-298.5722987034589
 30
0.0
 11
-148.3352897506046
 21
-297.2635231932542
 31
0.0
  0
LINE
  5
2E3
102
{ACAD_REACTORS
330
38B
330
38C
102
}
330
71
100
AcDbEntity
  8
0
  6
Continuous
 62
     2
100
AcDbLine
 10
-149.0034045947026
 20
-301.9314891796332
 30
0.0
 11
-149.0034045947026
 21
-299.6629449619458
 31
0.0
  0
LINE
  5
2E4
102
{ACAD_REACTORS
330
38B
330
38C
102
}
330
71
100
AcDbEntity
  8
0
  6
Continuous
 62
     2
100
AcDbLine
 10
-149.0034045947026
 20
-299.6629449619458
 30
0.0
 11
-148.19230555723
 21
-299.6629449619458
 31
0.0
  0
LINE
  5
2E5
102
{ACAD_REACTORS
330
38B
330
38C
102
}
330
71
100
AcDbEntity
  8
0
  6
Continuous
 62
     2
100
AcDbLine
 10
-148.19230555723
 20
-299.6629449619458
 30
0.0
 11
-148.19230555723
 21
-298.8776796558221
 31
0.0
  0
LINE
  5
2E6
102
{ACAD_REACTORS
330
38B
330
38C
102
}
330
71
100
AcDbEntity
  8
0
  6
Continuous
 62
     2
100
AcDbLine
 10
-148.19230555723
 20
-298.8776796558221
 30
0.0
 11
-151.0072963343437
 21
-298.8776796558221
 31
0.0
  0
LINE
  5
2E7
102
{ACAD_REACTORS
330
38B
330
38C
102
}
330
71
100
AcDbEntity
  8
0
  6
Continuous
 62
     2
100
AcDbLine
 10
-151.0072963343437
 20
-299.6629449619458
 30
0.0
 11
-150.196197296869
 21
-299.6629449619458
 31
0.0
  0
LINE
  5
2E8
102
{ACAD_REACTORS
330
389
330
38A
102
}
330
71
100
AcDbEntity
  8
0
  6
Continuous
 62
     2
100
AcDbLine
 10
-147.3977997314327
 20
-301.3905286354154
 30
0.0
 11
-146.2653581547588
 21
-301.3905286354154
 31
0.0
  0
LINE
  5
2E9
102
{ACAD_REACTORS
330
389
330
38A
102
}
330
71
100
AcDbEntity
  8
0
  6
Continuous
 62
     2
100
AcDbLine
 10
-144.8133736910291
 20
-301.9314891796332
 30
0.0
 11
-146.053878101283
 21
-301.9314891796332
 31
0.0
  0
LINE
  5
2EA
102
{ACAD_REACTORS
330
389
330
38A
102
}
330
71
100
AcDbEntity
  8
0
  6
Continuous
 62
     2
100
AcDbLine
 10
-147.4518311482222
 20
-298.8776796558221
 30
0.0
 11
-148.8497841951614
 21
-301.9314891796332
 31
0.0
  0
LINE
  5
2EB
102
{ACAD_REACTORS
330
389
330
38A
102
}
330
71
100
AcDbEntity
  8
0
  6
Continuous
 62
     2
100
AcDbLine
 10
-147.6092797849085
 20
-301.9314891796332
 30
0.0
 11
-147.3977997314327
 21
-301.3905286354154
 31
0.0
  0
LINE
  5
2EC
102
{ACAD_REACTORS
330
389
330
38A
102
}
330
71
100
AcDbEntity
  8
0
  6
Continuous
 62
     2
100
AcDbLine
 10
-147.1317441802876
 20
-300.7099653701088
 30
0.0
 11
-146.8315789430953
 21
-299.9421504041221
 31
0.0
  0
LINE
  5
2ED
102
{ACAD_REACTORS
330
387
330
388
102
}
330
71
100
AcDbEntity
  8
0
  6
Continuous
 62
     2
100
AcDbLine
 10
-145.66343409775
 20
-298.5722987034589
 30
0.0
 11
-145.66343409775
 21
-295.5184891796478
 31
0.0
  0
LINE
  5
2EE
102
{ACAD_REACTORS
330
387
330
388
102
}
330
71
100
AcDbEntity
  8
0
  6
Continuous
 62
     2
100
AcDbLine
 10
-144.4229296874971
 20
-295.5184891796478
 30
0.0
 11
-144.4229296874971
 21
-298.5722987034589
 31
0.0
  0
LINE
  5
2EF
102
{ACAD_REACTORS
330
387
330
388
102
}
330
71
100
AcDbEntity
  8
0
  6
Continuous
 62
     2
100
AcDbLine
 10
-145.66343409775
 20
-295.5184891796478
 30
0.0
 11
-144.4229296874971
 21
-295.5184891796478
 31
0.0
  0
LINE
  5
2F0
102
{ACAD_REACTORS
330
385
330
386
102
}
330
71
100
AcDbEntity
  8
0
  6
Continuous
 62
     2
100
AcDbLine
 10
-142.2043352614663
 20
-297.7845669181652
 30
0.0
 11
-141.5077443234009
 21
-298.5722987034589
 31
0.0
  0
LINE
  5
2F1
102
{ACAD_REACTORS
330
385
330
386
102
}
330
71
100
AcDbEntity
  8
0
  6
Continuous
 62
     2
100
AcDbLine
 10
-141.5077443234009
 20
-298.5722987034589
 30
0.0
 11
-140.1050201056526
 21
-298.5722987034589
 31
0.0
  0
LINE
  5
2F2
102
{ACAD_REACTORS
330
385
330
386
102
}
330
71
100
AcDbEntity
  8
0
  6
Continuous
 62
     2
100
AcDbLine
 10
-141.5029731525929
 20
-296.991439709684
 30
0.0
 11
-140.1050201056526
 21
-298.5722987034589
 31
0.0
  0
LINE
  5
2F3
102
{ACAD_REACTORS
330
385
330
386
102
}
330
71
100
AcDbEntity
  8
0
  6
Continuous
 62
     2
100
AcDbLine
 10
-141.5029731525929
 20
-296.991439709684
 30
0.0
 11
-140.2004435218263
 21
-295.5184891796478
 31
0.0
  0
LINE
  5
2F4
102
{ACAD_REACTORS
330
385
330
386
102
}
330
71
100
AcDbEntity
  8
0
  6
Continuous
 62
     2
100
AcDbLine
 10
-142.2043352614663
 20
-296.1983125012033
 30
0.0
 11
-141.6031677395735
 21
-295.5184891796478
 31
0.0
  0
LINE
  5
2F5
102
{ACAD_REACTORS
330
385
330
386
102
}
330
71
100
AcDbEntity
  8
0
  6
Continuous
 62
     2
100
AcDbLine
 10
-142.8055027833582
 20
-295.5184891796478
 30
0.0
 11
-142.2043352614663
 21
-296.1983125012033
 31
0.0
  0
LINE
  5
2F6
102
{ACAD_REACTORS
330
385
330
386
102
}
330
71
100
AcDbEntity
  8
0
  6
Continuous
 62
     2
100
AcDbLine
 10
-142.8055027833582
 20
-295.5184891796478
 30
0.0
 11
-144.2082270011074
 21
-295.5184891796478
 31
0.0
  0
LINE
  5
2F7
102
{ACAD_REACTORS
330
37B
330
37C
102
}
330
71
100
AcDbEntity
  8
0
  6
Continuous
 62
     2
100
AcDbLine
 10
-142.1089118452937
 20
-301.9314891796332
 30
0.0
 11
-140.916119143126
 21
-301.9314891796332
 31
0.0
  0
LINE
  5
2F8
102
{ACAD_REACTORS
330
37B
330
37C
102
}
330
71
100
AcDbEntity
  8
0
  6
Continuous
 62
     2
100
AcDbLine
 10
-140.916119143126
 20
-301.9314891796332
 30
0.0
 11
-140.916119143126
 21
-299.6629449619458
 31
0.0
  0
LINE
  5
2F9
102
{ACAD_REACTORS
330
37B
330
37C
102
}
330
71
100
AcDbEntity
  8
0
  6
Continuous
 62
     2
100
AcDbLine
 10
-140.916119143126
 20
-299.6629449619458
 30
0.0
 11
-140.1050201056526
 21
-299.6629449619458
 31
0.0
  0
LINE
  5
2FA
102
{ACAD_REACTORS
330
37B
330
37C
102
}
330
71
100
AcDbEntity
  8
0
  6
Continuous
 62
     2
100
AcDbLine
 10
-140.1050201056526
 20
-299.6629449619458
 30
0.0
 11
-140.1050201056526
 21
-298.8776796558221
 31
0.0
  0
LINE
  5
2FB
102
{ACAD_REACTORS
330
37B
330
37C
102
}
330
71
100
AcDbEntity
  8
0
  6
Continuous
 62
     2
100
AcDbLine
 10
-143.4899656242812
 20
-298.8776796558227
 30
0.0
 11
-140.1050201056526
 21
-298.8776796558221
 31
0.0
  0
LINE
  5
2FC
102
{ACAD_REACTORS
330
37B
330
37C
102
}
330
71
100
AcDbEntity
  8
0
  6
Continuous
 62
     2
100
AcDbLine
 10
-142.1089118452937
 20
-299.6629449619458
 30
0.0
 11
-142.1089118452937
 21
-301.9314891796332
 31
0.0
  0
LINE
  5
2FD
102
{ACAD_REACTORS
330
37D
330
37E
102
}
330
71
100
AcDbEntity
  8
0
  6
Continuous
 62
     2
100
AcDbLine
 10
-164.7383982807728
 20
-299.9526090300687
 30
0.0
 11
-164.7383982807728
 21
-299.3707576233736
 31
0.0
  0
LINE
  5
2FE
102
{ACAD_REACTORS
330
37D
330
37E
102
}
330
71
100
AcDbEntity
  8
0
  6
Continuous
 62
     2
100
AcDbLine
 10
-164.7383982807728
 20
-297.1524744234375
 30
0.0
 11
-164.7383982807728
 21
-296.5469391349307
 31
0.0
  0
LINE
  5
2FF
330
71
100
AcDbEntity
  8
1
  6
Continuous
 62
     6
100
AcDbLine
 10
-86.20821969616969
 20
-309.2249891796495
 30
0.0
 11
-42.70821969616975
 21
-309.2249891796495
 31
0.0
  0
LINE
  5
300
330
71
100
AcDbEntity
  8
1
  6
Continuous
 62
     6
100
AcDbLine
 10
-136.2082196961697
 20
-309.2249891796495
 30
0.0
 11
-154.0530242229197
 21
-309.2249891796495
 31
0.0
  0
LINE
  5
301
330
71
100
AcDbEntity
  8
1
  6
Continuous
 62
     6
100
AcDbLine
 10
-172.2530242229196
 20
-292.2249891796496
 30
0.0
 11
-135.8530242229197
 21
-292.2249891796496
 31
0.0
  0
LINE
  5
302
330
71
100
AcDbEntity
  8
1
  6
Continuous
 62
     6
100
AcDbLine
 10
-42.70821969616975
 20
-309.2249891796495
 30
0.0
 11
-42.7082196961684
 21
-300.7249891796496
 31
0.0
  0
LINE
  5
303
330
71
100
AcDbEntity
  8
1
  6
Continuous
 62
     6
100
AcDbLine
 10
-135.8530242229197
 20
-309.2249891796496
 30
0.0
 11
-86.20821969616969
 21
-309.2249891796495
 31
0.0
  0
LINE
  5
304
330
71
100
AcDbEntity
  8
1
  6
Continuous
 62
     7
100
AcDbLine
 10
-172.2530242229196
 20
-292.2249891796496
 30
0.0
 11
-172.2530242229196
 21
-304.9749891796496
 31
0.0
  0
LINE
  5
305
330
71
100
AcDbEntity
  8
1
  6
Continuous
 62
     7
100
AcDbLine
 10
-135.8530242229197
 20
-292.2249891796496
 30
0.0
 11
-135.8530242229197
 21
-304.9749891796495
 31
0.0
  0
LINE
  5
306
330
71
100
AcDbEntity
  8
1
  6
Continuous
 62
     6
100
AcDbLine
 10
-135.8530242229197
 20
-309.2249891796496
 30
0.0
 11
-136.2082196961697
 21
-309.2249891796495
 31
0.0
  0
LINE
  5
307
330
71
100
AcDbEntity
  8
1
  6
Continuous
 62
     6
100
AcDbLine
 10
-42.7082196961679
 20
-292.2249891796496
 30
0.0
 11
-42.7082196961684
 21
-300.7249891796496
 31
0.0
  0
LINE
  5
308
330
71
100
AcDbEntity
  8
1
  6
Continuous
 62
     2
100
AcDbLine
 10
-168.0163693363571
 20
-286.8499891796497
 30
0.0
 11
-163.0163693363571
 21
-285.5999891796497
 31
0.0
  0
LINE
  5
309
330
71
100
AcDbEntity
  8
1
  6
Continuous
 62
     2
100
AcDbLine
 10
-168.0163693363571
 20
-289.3499891796497
 30
0.0
 11
-168.0163693363571
 21
-286.8499891796497
 31
0.0
  0
LINE
  5
30A
330
71
100
AcDbEntity
  8
1
  6
Continuous
 62
     2
100
AcDbLine
 10
-163.0163693363571
 20
-290.5999891796497
 30
0.0
 11
-168.0163693363571
 21
-289.3499891796497
 31
0.0
  0
LINE
  5
30B
330
71
100
AcDbEntity
  8
1
  6
Continuous
 62
     2
100
AcDbLine
 10
-163.0163693363571
 20
-285.5999891796497
 30
0.0
 11
-163.0163693363571
 21
-290.5999891796497
 31
0.0
  0
LINE
  5
30C
330
71
100
AcDbEntity
  8
1
  6
Continuous
 62
     7
100
AcDbLine
 10
-172.2530242229196
 20
-304.9749891796496
 30
0.0
 11
-154.0530242229197
 21
-304.9749891796495
 31
0.0
  0
LINE
  5
30D
330
71
100
AcDbEntity
  8
1
  6
Continuous
 62
     7
100
AcDbLine
 10
-172.2530242229196
 20
-304.9749891796496
 30
0.0
 11
-172.2530242229196
 21
-309.2249891796496
 31
0.0
  0
LINE
  5
30E
330
71
100
AcDbEntity
  8
1
  6
Continuous
 62
     7
100
AcDbLine
 10
-135.8530242229197
 20
-304.9749891796495
 30
0.0
 11
-135.8530242229197
 21
-309.2249891796496
 31
0.0
  0
LINE
  5
30F
330
71
100
AcDbEntity
  8
1
  6
Continuous
 62
     7
100
AcDbLine
 10
-154.0530242229197
 20
-304.9749891796495
 30
0.0
 11
-154.0530242229197
 21
-309.2249891796495
 31
0.0
  0
LINE
  5
310
330
71
100
AcDbEntity
  8
1
  6
Continuous
 62
     6
100
AcDbLine
 10
-154.0530242229197
 20
-309.2249891796495
 30
0.0
 11
-172.2530242229196
 21
-309.2249891796496
 31
0.0
  0
LINE
  5
311
330
71
100
AcDbEntity
  8
1
  6
Continuous
 62
     7
100
AcDbLine
 10
-154.0530242229197
 20
-304.9749891796495
 30
0.0
 11
-135.8530242229197
 21
-304.9749891796495
 31
0.0
  0
LINE
  5
312
330
71
100
AcDbEntity
  8
1
  6
Continuous
 62
     6
100
AcDbLine
 10
-172.2530242229196
 20
-283.7249891796496
 30
0.0
 11
-42.7082196961679
 21
-283.7249891796496
 31
0.0
  0
LINE
  5
313
330
71
100
AcDbEntity
  8
1
  6
PHANTOM
 62
     2
100
AcDbLine
 10
-156.7663693363571
 20
-288.0999891796497
 30
0.0
 11
-162.2663693363571
 21
-288.0999891796497
 31
0.0
  0
LINE
  5
314
330
71
100
AcDbEntity
  8
1
  6
PHANTOM
 62
     2
100
AcDbLine
 10
-159.5163693363571
 20
-285.3499891796496
 30
0.0
 11
-159.5163693363571
 21
-290.8499891796496
 31
0.0
  0
LINE
  5
315
330
71
100
AcDbEntity
  8
1
  6
DOT_CENTER
 62
     2
100
AcDbLine
 10
-168.2663693363571
 20
-288.0999891796497
 30
0.0
 11
-162.7663693363571
 21
-288.0999891796497
 31
0.0
  0
ARC
  5
316
102
{ACAD_REACTORS
330
381
330
382
102
}
330
71
100
AcDbEntity
  8
0
  6
Continuous
 62
     2
100
AcDbCircle
 10
-156.8613762239596
 20
-300.404584417728
 30
0.0
 40
0.7717997786795351
100
AcDbArc
 50
321.8795802028432
 51
38.1204197971668
  0
ARC
  5
317
102
{ACAD_REACTORS
330
381
330
382
102
}
330
71
100
AcDbEntity
  8
0
  6
Continuous
 62
     2
100
AcDbCircle
 10
-156.6616361876132
 20
-300.5613155958479
 30
0.0
 40
0.5179085730138424
100
AcDbArc
 50
218.1204197971879
 51
321.8795802027908
  0
ARC
  5
318
102
{ACAD_REACTORS
330
381
330
382
102
}
330
71
100
AcDbEntity
  8
0
  6
Continuous
 62
     2
100
AcDbCircle
 10
-156.4618961512672
 20
-300.404584417728
 30
0.0
 40
0.771799778679551
100
AcDbArc
 50
141.879580202828
 51
218.120419797162
  0
ARC
  5
319
102
{ACAD_REACTORS
330
381
330
382
102
}
330
71
100
AcDbEntity
  8
0
  6
Continuous
 62
     2
100
AcDbCircle
 10
-156.6616361876132
 20
-300.2478532396075
 30
0.0
 40
0.5179085730132806
100
AcDbArc
 50
38.12041979716469
 51
141.8795802028567
  0
ARC
  5
31A
102
{ACAD_REACTORS
330
379
330
37A
102
}
330
71
100
AcDbEntity
  8
0
  6
Continuous
 62
     2
100
AcDbCircle
 10
-159.7236503231772
 20
-301.8150507831361
 30
0.0
 40
2.227384008973465
100
AcDbArc
 50
58.06909105003707
 51
71.55192388186676
  0
ARC
  5
31B
102
{ACAD_REACTORS
330
379
330
37A
102
}
330
71
100
AcDbEntity
  8
0
  6
Continuous
 62
     2
100
AcDbCircle
 10
-159.4619226222184
 20
-300.1995129883889
 30
0.0
 40
0.5115800601948293
100
AcDbArc
 50
113.3722778881945
 51
151.4785267423156
  0
ARC
  5
31C
102
{ACAD_REACTORS
330
379
330
37A
102
}
330
71
100
AcDbEntity
  8
0
  6
Continuous
 62
     2
100
AcDbCircle
 10
-159.084565364138
 20
-300.404584417728
 30
0.0
 40
0.9410597353333294
100
AcDbArc
 50
151.4785267422693
 51
208.5214732576972
  0
ARC
  5
31D
102
{ACAD_REACTORS
330
379
330
37A
102
}
330
71
100
AcDbEntity
  8
0
  6
Continuous
 62
     2
100
AcDbCircle
 10
-159.88152319827
 20
-297.0919034724715
 30
0.0
 40
4.852596863498272
100
AcDbArc
 50
275.1581447696238
 51
285.9799912583526
  0
ARC
  5
31E
102
{ACAD_REACTORS
330
379
330
37A
102
}
330
71
100
AcDbEntity
  8
0
  6
Continuous
 62
     2
100
AcDbCircle
 10
-159.5926671035341
 20
-300.2917940556931
 30
0.0
 40
1.639695123939437
100
AcDbArc
 50
195.0618917770922
 51
275.1581447696363
  0
ARC
  5
31F
102
{ACAD_REACTORS
330
379
330
37A
102
}
330
71
100
AcDbEntity
  8
0
  6
Continuous
 62
     2
100
AcDbCircle
 10
-160.0117949469969
 20
-300.404584417728
 30
0.0
 40
1.205656168390971
100
AcDbArc
 50
164.9381082228768
 51
195.0618917770945
  0
ARC
  5
320
102
{ACAD_REACTORS
330
379
330
37A
102
}
330
71
100
AcDbEntity
  8
0
  6
Continuous
 62
     2
100
AcDbCircle
 10
-159.5926671035341
 20
-300.5173747797628
 30
0.0
 40
1.639695123940499
100
AcDbArc
 50
84.84185523036533
 51
164.9381082228905
  0
ARC
  5
321
102
{ACAD_REACTORS
330
37D
330
37E
102
}
330
71
100
AcDbEntity
  8
0
  6
Continuous
 62
     2
100
AcDbCircle
 10
-164.422681357696
 20
-299.3707576233736
 30
0.0
 40
0.3157169230765328
100
AcDbArc
 50
115.3740086783519
 51
180.0
  0
ARC
  5
322
102
{ACAD_REACTORS
330
37D
330
37E
102
}
330
71
100
AcDbEntity
  8
0
  6
Continuous
 62
     2
100
AcDbCircle
 10
-164.422681357696
 20
-297.1524744234375
 30
0.0
 40
0.315716923076792
100
AcDbArc
 50
180.0
 51
244.6259913216349
  0
ARC
  5
323
102
{ACAD_REACTORS
330
37D
330
37E
102
}
330
71
100
AcDbEntity
  8
0
  6
Continuous
 62
     2
100
AcDbCircle
 10
-164.417065222386
 20
-298.2497740824997
 30
0.0
 40
2.018561131933266
100
AcDbArc
 50
269.8110329575827
 51
90.18896704241737
  0
ARC
  5
324
102
{ACAD_REACTORS
330
37D
330
37E
102
}
330
71
100
AcDbEntity
  8
0
  6
Continuous
 62
     2
100
AcDbCircle
 10
-164.422681357696
 20
-299.9526090300687
 30
0.0
 40
0.315716923076792
100
AcDbArc
 50
180.0
 51
269.8110329574335
  0
ARC
  5
325
102
{ACAD_REACTORS
330
37B
330
37C
102
}
330
71
100
AcDbEntity
  8
0
  6
Continuous
 62
     2
100
AcDbCircle
 10
-143.3592211429655
 20
-300.1995129883889
 30
0.0
 40
0.5115800601944048
100
AcDbArc
 50
109.3371432194823
 51
151.4785267424182
  0
ARC
  5
326
102
{ACAD_REACTORS
330
37B
330
37C
102
}
330
71
100
AcDbEntity
  8
0
  6
Continuous
 62
     2
100
AcDbCircle
 10
-143.3592211429655
 20
-300.6096558470665
 30
0.0
 40
0.5115800601959967
100
AcDbArc
 50
208.5214732576881
 51
246.6277221118399
  0
ARC
  5
327
102
{ACAD_REACTORS
330
37B
330
37C
102
}
330
71
100
AcDbEntity
  8
0
  6
Continuous
 62
     2
100
AcDbCircle
 10
-143.9090934677429
 20
-300.404584417728
 30
0.0
 40
1.205656168392975
100
AcDbArc
 50
164.9381082229024
 51
195.0618917770924
  0
ARC
  5
328
102
{ACAD_REACTORS
330
37B
330
37C
102
}
330
71
100
AcDbEntity
  8
0
  6
Continuous
 62
     2
100
AcDbCircle
 10
-143.4899656242812
 20
-300.5173747797628
 30
0.0
 40
1.639695123940101
100
AcDbArc
 50
90.0
 51
164.9381082228993
  0
ARC
  5
329
102
{ACAD_REACTORS
330
37F
330
380
102
}
330
71
100
AcDbEntity
  8
0
  6
Continuous
 62
     2
100
AcDbCircle
 10
-152.9169607169849
 20
-297.0453939415536
 30
0.0
 40
1.526904761905769
100
AcDbArc
 50
90.0
 51
270.0
  0
ARC
  5
32A
102
{ACAD_REACTORS
330
383
330
384
102
}
330
71
100
AcDbEntity
  8
0
  6
Continuous
 62
     2
100
AcDbCircle
 10
-159.6596514622107
 20
-296.534458849759
 30
0.0
 40
0.3528638246710898
100
AcDbArc
 50
270.0
 51
90.0
  0
ARC
  5
32B
102
{ACAD_REACTORS
330
37D
330
37E
102
}
330
71
100
AcDbEntity
  8
0
  6
Continuous
 62
     2
100
AcDbCircle
 10
-166.9982300442278
 20
-296.5467616582825
 30
0.0
 40
0.3157169230760815
100
AcDbArc
 50
90.0
 51
180.0
  0
ARC
  5
32C
102
{ACAD_REACTORS
330
37D
330
37E
102
}
330
71
100
AcDbEntity
  8
0
  6
Continuous
 62
     2
100
AcDbCircle
 10
-164.9998123356432
 20
-298.2616160234053
 30
0.0
 40
0.9118975235576433
100
AcDbArc
 50
115.1944106485195
 51
244.8055893514911
  0
ARC
  5
32D
102
{ACAD_REACTORS
330
37D
330
37E
102
}
330
71
100
AcDbEntity
  8
0
  6
Continuous
 62
     2
100
AcDbCircle
 10
-165.5223967832182
 20
-299.372445769468
 30
0.0
 40
0.315716923076593
100
AcDbArc
 50
0.0
 51
64.805589351446
  0
ARC
  5
32E
102
{ACAD_REACTORS
330
37D
330
37E
102
}
330
71
100
AcDbEntity
  8
0
  6
Continuous
 62
     2
100
AcDbCircle
 10
-167.5921247209743
 20
-301.50724456425
 30
0.0
 40
0.4242446153827757
100
AcDbArc
 50
180.0
 51
270.0
  0
ARC
  5
32F
102
{ACAD_REACTORS
330
37F
330
380
102
}
330
71
100
AcDbEntity
  8
0
  6
Continuous
 62
     2
100
AcDbCircle
 10
-152.7006887068197
 20
-296.8886627634331
 30
0.0
 40
0.5179085730133669
100
AcDbArc
 50
38.12041979714121
 51
141.8795802028666
  0
ARC
  5
330
102
{ACAD_REACTORS
330
37F
330
380
102
}
330
71
100
AcDbEntity
  8
0
  6
Continuous
 62
     2
100
AcDbCircle
 10
-152.5009486704735
 20
-297.0453939415536
 30
0.0
 40
0.7717997786796245
100
AcDbArc
 50
141.8795802028484
 51
218.1204197971549
  0
ARC
  5
331
102
{ACAD_REACTORS
330
381
330
382
102
}
330
71
100
AcDbEntity
  8
0
  6
Continuous
 62
     2
100
AcDbCircle
 10
-156.6616361876132
 20
-299.8660094074246
 30
0.0
 40
2.065479772208637
100
AcDbArc
 50
242.4518518243384
 51
297.548148175686
  0
ARC
  5
332
102
{ACAD_REACTORS
330
381
330
382
102
}
330
71
100
AcDbEntity
  8
0
  6
Continuous
 62
     2
100
AcDbCircle
 10
-156.6616361876132
 20
-300.9431594280308
 30
0.0
 40
2.065479772208694
100
AcDbArc
 50
62.45185182430819
 51
117.5481481756674
  0
ARC
  5
333
102
{ACAD_REACTORS
330
381
330
382
102
}
330
71
100
AcDbEntity
  8
0
  6
Continuous
 62
     2
100
AcDbCircle
 10
-156.9425760794466
 20
-300.404584417728
 30
0.0
 40
1.458034083651616
100
AcDbArc
 50
117.5481481756598
 51
242.451851824337
  0
ARC
  5
334
102
{ACAD_REACTORS
330
381
330
382
102
}
330
71
100
AcDbEntity
  8
0
  6
Continuous
 62
     2
100
AcDbCircle
 10
-156.38069629578
 20
-300.404584417728
 30
0.0
 40
1.45803408365203
100
AcDbArc
 50
297.5481481757055
 51
62.45185182429758
  0
ARC
  5
335
102
{ACAD_REACTORS
330
37F
330
380
102
}
330
71
100
AcDbEntity
  8
0
  6
Continuous
 62
     2
100
AcDbCircle
 10
-152.7006887068197
 20
-297.2021251196741
 30
0.0
 40
0.5179085730134564
100
AcDbArc
 50
218.1204197971334
 51
321.8795802028588
  0
ARC
  5
336
102
{ACAD_REACTORS
330
37F
330
380
102
}
330
71
100
AcDbEntity
  8
0
  6
Continuous
 62
     2
100
AcDbCircle
 10
-152.9004287431659
 20
-297.0453939415536
 30
0.0
 40
0.7717997786795479
100
AcDbArc
 50
321.8795802028385
 51
38.12041979715814
  0
ARC
  5
337
102
{ACAD_REACTORS
330
37D
330
37E
102
}
330
71
100
AcDbEntity
  8
0
  6
Continuous
 62
     2
100
AcDbCircle
 10
-162.1188126302574
 20
-301.50724456425
 30
0.0
 40
0.424244615383202
100
AcDbArc
 50
270.0
 51
0.0
  0
ARC
  5
338
102
{ACAD_REACTORS
330
37D
330
37E
102
}
330
71
100
AcDbEntity
  8
0
  6
Continuous
 62
     2
100
AcDbCircle
 10
-162.1188126302574
 20
-295.9427337950498
 30
0.0
 40
0.4242446153838841
100
AcDbArc
 50
0.0
 51
90.0
  0
ARC
  5
339
102
{ACAD_REACTORS
330
37D
330
37E
102
}
330
71
100
AcDbEntity
  8
0
  6
Continuous
 62
     2
100
AcDbCircle
 10
-167.5921247209743
 20
-295.9427337950498
 30
0.0
 40
0.4242446153838841
100
AcDbArc
 50
90.0
 51
180.0
  0
ARC
  5
33A
102
{ACAD_REACTORS
330
37D
330
37E
102
}
330
71
100
AcDbEntity
  8
0
  6
Continuous
 62
     2
100
AcDbCircle
 10
-165.5223967832182
 20
-300.9032167009996
 30
0.0
 40
0.3157169230767067
100
AcDbArc
 50
270.0
 51
0.0
  0
ARC
  5
33B
102
{ACAD_REACTORS
330
37D
330
37E
102
}
330
71
100
AcDbEntity
  8
0
  6
Continuous
 62
     2
100
AcDbCircle
 10
-165.5223967832182
 20
-297.1507862773431
 30
0.0
 40
0.3157169230760658
100
AcDbArc
 50
295.1944106485672
 51
0.0
  0
ARC
  5
33C
102
{ACAD_REACTORS
330
37D
330
37E
102
}
330
71
100
AcDbEntity
  8
0
  6
Continuous
 62
     2
100
AcDbCircle
 10
-165.5223967832182
 20
-296.5467616582825
 30
0.0
 40
0.315716923076593
100
AcDbArc
 50
0.0
 51
90.0
  0
ARC
  5
33D
102
{ACAD_REACTORS
330
37D
330
37E
102
}
330
71
100
AcDbEntity
  8
0
  6
Continuous
 62
     2
100
AcDbCircle
 10
-166.9982300442278
 20
-300.9032167009996
 30
0.0
 40
0.3157169230755983
100
AcDbArc
 50
180.0
 51
270.0
  0
ARC
  5
33E
102
{ACAD_REACTORS
330
383
330
384
102
}
330
71
100
AcDbEntity
  8
0
  6
Continuous
 62
     2
100
AcDbCircle
 10
-159.2181789359723
 20
-296.5738548209815
 30
0.0
 40
1.055365641333651
100
AcDbArc
 50
270.0
 51
90.0
  0
ARC
  5
33F
102
{ACAD_REACTORS
330
37B
330
37C
102
}
330
71
100
AcDbEntity
  8
0
  6
Continuous
 62
     2
100
AcDbCircle
 10
-143.4899656242812
 20
-300.2917940556931
 30
0.0
 40
1.639695123940503
100
AcDbArc
 50
195.0618917771007
 51
275.1581447696772
  0
ARC
  5
340
102
{ACAD_REACTORS
330
37B
330
37C
102
}
330
71
100
AcDbEntity
  8
0
  6
Continuous
 62
     2
100
AcDbCircle
 10
-143.7788217190171
 20
-297.0919034724715
 30
0.0
 40
4.852596863498889
100
AcDbArc
 50
275.1581447696373
 51
285.9799912583383
  0
ARC
  5
341
102
{ACAD_REACTORS
330
37B
330
37C
102
}
330
71
100
AcDbEntity
  8
0
  6
Continuous
 62
     2
100
AcDbCircle
 10
-143.6209488439243
 20
-298.9941180523198
 30
0.0
 40
2.227384008972773
100
AcDbArc
 50
288.4480761181333
 51
301.9309089499394
  0
ARC
  5
342
102
{ACAD_REACTORS
330
37B
330
37C
102
}
330
71
100
AcDbEntity
  8
0
  6
Continuous
 62
     2
100
AcDbCircle
 10
-143.2027811102623
 20
-300.2476638283565
 30
0.0
 40
0.9059297849852208
100
AcDbArc
 50
246.6277221118088
 51
288.4480761180772
  0
ARC
  5
343
102
{ACAD_REACTORS
330
37B
330
37C
102
}
330
71
100
AcDbEntity
  8
0
  6
Continuous
 62
     2
100
AcDbCircle
 10
-142.981863884884
 20
-300.404584417728
 30
0.0
 40
0.9410597353350352
100
AcDbArc
 50
151.4785267423573
 51
208.521473257667
  0
ARC
  5
344
102
{ACAD_REACTORS
330
37B
330
37C
102
}
330
71
100
AcDbEntity
  8
0
  6
Continuous
 62
     2
100
AcDbCircle
 10
-143.2125511448618
 20
-300.6174679687719
 30
0.0
 40
0.9545230068260935
100
AcDbArc
 50
90.0
 51
109.3371432194281
  0
ARC
  5
345
102
{ACAD_REACTORS
330
37D
330
37E
102
}
330
71
100
AcDbEntity
  8
0
  6
Continuous
 62
     2
100
AcDbCircle
 10
-164.422681357696
 20
-296.5469391349307
 30
0.0
 40
0.3157169230761851
100
AcDbArc
 50
90.1889670425665
 51
180.0
  0
ARC
  5
346
102
{ACAD_REACTORS
330
37D
330
37E
102
}
330
71
100
AcDbEntity
  8
0
  6
Continuous
 62
     2
100
AcDbCircle
 10
-164.9487240557839
 20
-298.2616160234053
 30
0.0
 40
0.9118481501443941
100
AcDbArc
 50
295.3740086781804
 51
64.62599132180893
  0
ARC
  5
347
102
{ACAD_REACTORS
330
379
330
37A
102
}
330
71
100
AcDbEntity
  8
0
  6
Continuous
 62
     2
100
AcDbCircle
 10
-159.7236503231772
 20
-298.9941180523193
 30
0.0
 40
2.227384008972719
100
AcDbArc
 50
288.4480761181337
 51
301.9309089499637
  0
ARC
  5
348
102
{ACAD_REACTORS
330
379
330
37A
102
}
330
71
100
AcDbEntity
  8
0
  6
Continuous
 62
     2
100
AcDbCircle
 10
-159.3054825895163
 20
-300.2476638283565
 30
0.0
 40
0.9059297849848262
100
AcDbArc
 50
246.6277221118665
 51
288.4480761181539
  0
ARC
  5
349
102
{ACAD_REACTORS
330
379
330
37A
102
}
330
71
100
AcDbEntity
  8
0
  6
Continuous
 62
     2
100
AcDbCircle
 10
-159.4619226222184
 20
-300.6096558470665
 30
0.0
 40
0.5115800601947491
100
AcDbArc
 50
208.5214732576844
 51
246.6277221118282
  0
ARC
  5
34A
102
{ACAD_REACTORS
330
379
330
37A
102
}
330
71
100
AcDbEntity
  8
0
  6
Continuous
 62
     2
100
AcDbCircle
 10
-159.3054825895163
 20
-300.5615050070995
 30
0.0
 40
0.9059297849853498
100
AcDbArc
 50
71.55192388185974
 51
113.3722778881306
  0
ARC
  5
34B
102
{ACAD_REACTORS
330
379
330
37A
102
}
330
71
100
AcDbEntity
  8
0
  6
Continuous
 62
     2
100
AcDbCircle
 10
-159.88152319827
 20
-303.7172653629838
 30
0.0
 40
4.852596863497986
100
AcDbArc
 50
74.0200087416471
 51
84.84185523037608
  0
CIRCLE
  5
34C
102
{ACAD_REACTORS
330
37D
330
37E
102
}
330
71
100
AcDbEntity
  8
0
  6
Continuous
 62
     2
100
AcDbCircle
 10
-164.9725390704567
 20
-298.2616160234053
 30
0.0
 40
0.470978932778479
  0
CIRCLE
  5
34D
330
71
100
AcDbEntity
  8
1
  6
Continuous
 62
     2
100
AcDbCircle
 10
-159.5163693363571
 20
-288.0999891796497
 30
0.0
 40
1.25
  0
CIRCLE
  5
34E
330
71
100
AcDbEntity
  8
1
  6
Continuous
 62
     2
100
AcDbCircle
 10
-159.5163693363571
 20
-288.0999891796497
 30
0.0
 40
2.5
  0
TEXT
  5
34F
330
71
100
AcDbEntity
  8
1
 62
     7
100
AcDbText
 10
-78.04155302950306
 20
-313.224989179649
 30
0.0
 40
2.5
  1
6
 41
0.9
  7
CONVERTER_11
100
AcDbText
  0
TEXT
  5
350
330
71
100
AcDbEntity
  8
1
 62
     7
100
AcDbText
 10
-146.3748863628365
 20
-313.224989179649
 30
0.0
 40
2.5
  1
5
 41
0.9
  7
CONVERTER_11
100
AcDbText
  0
TEXT
  5
351
330
71
100
AcDbEntity
  8
1
 62
     7
100
AcDbText
 10
-214.7082196961697
 20
-313.224989179649
 30
0.0
 40
2.5
  1
4
 41
0.9
  7
CONVERTER_11
100
AcDbText
  0
TEXT
  5
352
330
71
100
AcDbEntity
  8
1
 62
     7
100
AcDbText
 10
-283.0415530295028
 20
-313.224989179649
 30
0.0
 40
2.5
  1
3
 41
0.9
  7
CONVERTER_11
100
AcDbText
  0
TEXT
  5
353
330
71
100
AcDbEntity
  8
1
 62
     7
100
AcDbText
 10
-41.70821969616969
 20
-281.724989179649
 30
0.0
 40
2.5
  1
E
 41
0.9
  7
CONVERTER_11
100
AcDbText
  0
TEXT
  5
354
330
71
100
AcDbEntity
  8
1
 62
     7
100
AcDbText
 10
-419.7082196961694
 20
-313.224989179649
 30
0.0
 40
2.5
  1
1
 41
0.9
  7
CONVERTER_11
100
AcDbText
  0
TEXT
  5
355
330
71
100
AcDbEntity
  8
1
 62
     7
100
AcDbText
 10
-351.3748863628363
 20
-313.224989179649
 30
0.0
 40
2.5
  1
2
 41
0.9
  7
CONVERTER_11
100
AcDbText
  0
TEXT
  5
356
330
71
100
AcDbEntity
  8
1
 62
     7
100
AcDbText
 10
-41.70821969616969
 20
-224.3249891796489
 30
0.0
 40
2.5
  1
D
 41
0.9
  7
CONVERTER_11
100
AcDbText
  0
TEXT
  5
357
330
71
100
AcDbEntity
  8
1
 62
     7
100
AcDbText
 10
-41.70821969616969
 20
-166.9249891796488
 30
0.0
 40
2.5
  1
C
 41
0.9
  7
CONVERTER_11
100
AcDbText
  0
TEXT
  5
358
330
71
100
AcDbEntity
  8
1
 62
     7
100
AcDbText
 10
-41.70821969616969
 20
-109.524989179649
 30
0.0
 40
2.5
  1
B
 41
0.9
  7
CONVERTER_11
100
AcDbText
  0
TEXT
  5
359
330
71
100
AcDbEntity
  8
1
 62
     7
100
AcDbText
 10
-41.70821969616969
 20
-52.12498917964911
 30
0.0
 40
2.5
  1
A
 41
0.9
  7
CONVERTER_11
100
AcDbText
  0
TEXT
  5
35A
330
71
100
AcDbEntity
  8
1
 62
     7
100
AcDbText
 10
-78.04155302950306
 20
-21.22498917964879
 30
0.0
 40
2.5
  1
6
 41
0.9
  7
CONVERTER_11
100
AcDbText
  0
TEXT
  5
35B
330
71
100
AcDbEntity
  8
1
 62
     7
100
AcDbText
 10
-146.3748863628363
 20
-21.22498917964879
 30
0.0
 40
2.5
  1
5
 41
0.9
  7
CONVERTER_11
100
AcDbText
  0
TEXT
  5
35C
330
71
100
AcDbEntity
  8
1
 62
     7
100
AcDbText
 10
-214.7082196961697
 20
-21.22498917964879
 30
0.0
 40
2.5
  1
4
 41
0.9
  7
CONVERTER_11
100
AcDbText
  0
TEXT
  5
35D
330
71
100
AcDbEntity
  8
1
 62
     7
100
AcDbText
 10
-283.0415530295028
 20
-21.22498917964879
 30
0.0
 40
2.5
  1
3
 41
0.9
  7
CONVERTER_11
100
AcDbText
  0
TEXT
  5
35E
330
71
100
AcDbEntity
  8
1
 62
     7
100
AcDbText
 10
-351.3748863628363
 20
-21.22498917964879
 30
0.0
 40
2.5
  1
2
 41
0.9
  7
CONVERTER_11
100
AcDbText
  0
TEXT
  5
35F
330
71
100
AcDbEntity
  8
1
 62
     7
100
AcDbText
 10
-419.7082196961694
 20
-21.22498917964879
 30
0.0
 40
2.5
  1
1
 41
0.9
  7
CONVERTER_11
100
AcDbText
  0
TEXT
  5
360
330
71
100
AcDbEntity
  8
1
 62
     7
100
AcDbText
 10
-116.8794765009059
 20
-290.9249891796496
 30
0.0
 40
2.5
  1
/
 41
0.9
  7
CONVERTER_11
100
AcDbText
  0
TEXT
  5
362
330
71
100
AcDbEntity
  8
1
 62
     7
100
AcDbText
 10
-114.7231120038639
 20
-290.9249891796496
 30
0.0
 40
2.5
  1
00
 41
0.81
  7
CONVERTER_12
100
AcDbText
  0
TEXT
  5
363
330
71
100
AcDbEntity
  8
1
 62
     3
100
AcDbText
 10
-77.12662797784672
 20
-290.9249891796496
 30
0.0
 40
2.5
  1
31.01.2019
 41
0.81
  7
CONVERTER_12
100
AcDbText
  0
MTEXT
  5
364
330
71
100
AcDbEntity
  8
1
 62
     2
100
AcDbMText
 10
-77.12662797784672
 20
-284.7249891796496
 30
0.0
 40
1.8
 41
0.0
 71
     1
 72
     1
  1
date
  7
CONVERTER_11
 73
     1
 44
1.32052821128451
  0
MTEXT
  5
365
330
71
100
AcDbEntity
  8
1
 62
     2
100
AcDbMText
 10
-106.9530242229197
 20
-293.2249891796496
 30
0.0
 40
1.8
 41
0.0
 71
     1
 72
     1
  1
document-type
  7
CONVERTER_11
 73
     1
 44
1.20048019207683
  0
TEXT
  5
366
330
71
100
AcDbEntity
  8
1
 62
     3
100
AcDbText
 10
-106.9530242229197
 20
-299.4249891796496
 30
0.0
 40
2.5
  1
TECDOC 2D_Productdrawing
 41
0.81
  7
CONVERTER_12
100
AcDbText
  0
MTEXT
  5
368
330
71
100
AcDbEntity
  8
1
 62
     2
100
AcDbMText
 10
-134.7530242229197
 20
-284.7249891796496
 30
0.0
 40
1.8
 41
0.0
 71
     1
 72
     1
  1
document-No. / RI
  7
CONVERTER_13
 73
     1
 44
1.32052821128451
  0
TEXT
  5
369
330
71
100
AcDbEntity
  8
1
 62
     7
100
AcDbText
 10
-134.7530242229197
 20
-290.9249891796496
 30
0.0
 40
2.5
  1
01188825
 41
0.81
  7
CONVERTER_12
100
AcDbText
  0
MTEXT
  5
36B
330
71
100
AcDbEntity
  8
1
 62
     3
100
AcDbMText
 10
-47.16742383700739
 20
-290.9249891796495
 30
0.0
 40
2.5
 41
0.0
 71
     8
 72
     1
  1
1:2
  7
CONVERTER_14
 73
     1
 44
1.32052821128451
  0
MTEXT
  5
36C
330
71
100
AcDbEntity
  8
1
 62
     2
100
AcDbMText
 10
-50.5266279778469
 20
-284.7249891796496
 30
0.0
 40
1.8
 41
0.0
 71
     1
 72
     1
  1
scale
  7
CONVERTER_11
 73
     1
 44
1.20048019207683
  0
MTEXT
  5
36D
330
71
100
AcDbEntity
  8
1
 62
     2
100
AcDbMText
 10
-134.7530242229197
 20
-293.2249891796496
 30
0.0
 40
1.8
 41
0.0
 71
     1
 72
     1
  1
ident.-No.
  7
CONVERTER_11
 73
     1
 44
1.20048019207683
  0
TEXT
  5
36E
330
71
100
AcDbEntity
  8
1
 62
     7
100
AcDbText
 10
-134.3530242229199
 20
-299.4249891796496
 30
0.0
 40
2.5
  1
3240950
 41
0.81
  7
CONVERTER_12
100
AcDbText
  0
MTEXT
  5
36F
330
71
100
AcDbEntity
  8
1
 62
     2
100
AcDbMText
 10
-206.6640474921292
 20
-296.4749891796508
 30
0.0
 40
2.0
 41
0.0
 71
     5
 72
     1
  1
General Information\P- Simplified representation\P- Document excluded from change process\P- Linear dimensions [mm]
  7
CONVERTER_11
 73
     1
 44
1.20048019207683
  0
MTEXT
  5
370
330
71
100
AcDbEntity
  8
1
 62
     3
100
AcDbMText
 10
-146.0530242229197
 20
-288.0999891796496
 30
0.0
 40
2.5
 41
0.0
 71
     5
 72
     1
  1
DIN A3
  7
CONVERTER_11
 73
     1
 44
1.20048019207683
  0
MTEXT
  5
371
330
71
100
AcDbEntity
  8
1
 62
     2
100
AcDbMText
 10
-134.8530242229197
 20
-301.7249891796496
 30
0.0
 40
1.8
 41
0.0
 71
     1
 72
     1
  1
description
  7
CONVERTER_11
 73
     1
 44
1.20048019207683
  0
MTEXT
  5
372
330
71
100
AcDbEntity
  8
1
 62
     7
100
AcDbMText
 10
-89.28062195954419
 20
-305.9749891796494
 30
0.0
 40
3.0
 41
0.0
 71
     5
 72
     1
  1
WP-GR HF IP66 PG36 BK
  7
CONVERTER_12
 73
     1
 44
1.20048019207683
  0
TEXT
  5
373
330
71
100
AcDbEntity
  8
1
 62
     2
100
AcDbText
 10
-147.8177154131061
 20
-307.9749891796496
 30
0.0
 40
1.8
  1
1
 41
0.9
  7
CONVERTER_11
100
AcDbText
  0
TEXT
  5
374
330
71
100
AcDbEntity
  8
1
 62
     2
100
AcDbText
 10
-162.6067592525776
 20
-308.0242378334515
 30
0.0
 40
1.8
  1
1
 41
0.9
  7
CONVERTER_11
100
AcDbText
  0
TEXT
  5
375
330
71
100
AcDbEntity
  8
1
 62
     2
100
AcDbText
 10
-171.2530242229196
 20
-307.9840063946413
 30
0.0
 40
1.8
  1
page
 41
0.9
  7
CONVERTER_11
100
AcDbText
  0
TEXT
  5
376
330
71
100
AcDbEntity
  8
1
 62
     2
100
AcDbText
 10
-153.0530242229198
 20
-307.9840063946411
 30
0.0
 40
1.8
  1
of
 41
0.9
  7
CONVERTER_11
100
AcDbText
  0
MTEXT
  5
377
330
71
100
AcDbEntity
  8
1
 62
     3
100
AcDbMText
 10
-439.4397526959104
 20
-136.2387050659953
 30
0.0
 40
1.8
 41
0.0
 71
     7
 72
     1
  3
Transfer or duplication of this document as well as the utilisation or\Pcommunication of its content are not permitted unless express consent\Pis granted. Violations give rise to claims for damages. All rights reserved\Pin case of patent, utility mo
  1
del or design patent registrations.
  7
CONVERTER_11
 11
0.0
 21
1.0
 31
0.0
 73
     1
 44
0.99639855942377
  0
MTEXT
  5
378
330
71
100
AcDbEntity
  8
1
 62
     3
100
AcDbMText
 10
-439.2855463848165
 20
-309.1980750801484
 30
0.0
 40
1.8
 41
0.0
 71
     7
 72
     1
  3
Weitergabe sowie Vervielf\U+00e4ltigung dieses Dokuments, Verwertung und \PMitteilung seines Inhalts sind verboten, soweit nicht ausdr\U+00fccklich gestattet. \PZuwiderhandlungen verpflichten zu Schadenersatz. Alle Rechte f\U+00fcr den Fall\Pder Pat
  1
ent-, Gebrauchsmuster- oder Designeintragung vorbehalten.
  7
CONVERTER_11
 11
0.0
 21
1.0
 31
0.0
 73
     1
 44
0.99639855942377
  0
HATCH
  5
379
330
71
100
AcDbEntity
  8
1
  6
Continuous
 62
     2
100
AcDbHatch
 10
0.0
 20
0.0
 30
0.0
210
0.0
220
0.0
230
1.0
  2
CUSTOM0
 70
     0
 71
     1
 91
        1
 92
        1
 93
       14
 72
     2
 10
-160.0117949469969
 20
-300.404584417728
 40
1.205656168390971
 50
164.9381082228768
 51
195.0618917770945
 73
     1
 72
     2
 10
-159.5926671035341
 20
-300.2917940556931
 40
1.639695123939437
 50
195.0618917770922
 51
275.1581447696363
 73
     1
 72
     2
 10
-159.88152319827
 20
-297.0919034724715
 40
4.852596863498272
 50
275.1581447696238
 51
285.9799912583526
 73
     1
 72
     1
 10
-158.5455952811522
 20
-301.7569857782724
 11
-158.5455952811522
 21
-300.8844687714691
 72
     2
 10
-159.7236503231772
 20
-298.9941180523193
 40
2.227384008972719
 50
58.06909105003628
 51
71.55192388186632
 73
     0
 72
     2
 10
-159.3054825895163
 20
-300.2476638283565
 40
0.9059297849848262
 50
71.55192388184605
 51
113.3722778881334
 73
     0
 72
     2
 10
-159.4619226222184
 20
-300.6096558470665
 40
0.5115800601947491
 50
113.3722778881718
 51
151.4785267423156
 73
     0
 72
     2
 10
-159.084565364138
 20
-300.404584417728
 40
0.9410597353333294
 50
151.4785267423028
 51
208.5214732577306
 73
     0
 72
     2
 10
-159.4619226222184
 20
-300.1995129883889
 40
0.5115800601948293
 50
208.5214732576844
 51
246.6277221118054
 73
     0
 72
     2
 10
-159.3054825895163
 20
-300.5615050070995
 40
0.9059297849853498
 50
246.6277221118694
 51
288.4480761181403
 73
     0
 72
     2
 10
-159.7236503231772
 20
-301.8150507831361
 40
2.227384008973465
 50
288.4480761181333
 51
301.9309089499629
 73
     0
 72
     1
 10
-158.5455952811522
 20
-299.9247000639863
 11
-158.5455952811522
 21
-299.052183057183
 72
     2
 10
-159.88152319827
 20
-303.7172653629838
 40
4.852596863497986
 50
74.0200087416471
 51
84.84185523037608
 73
     1
 72
     2
 10
-159.5926671035341
 20
-300.5173747797628
 40
1.639695123940499
 50
84.84185523036533
 51
164.9381082228905
 73
     1
 97
       14
330
34B
330
294
330
31A
330
34A
330
31B
330
31C
330
349
330
348
330
347
330
295
330
31D
330
31E
330
31F
330
320
 75
     1
 76
     2
 52
45.0
 41
0.1
 77
     0
 78
     1
 53
45.0
 43
62.7811309658083
 44
-72.3161373035813
 45
-0.1414213562373095
 46
0.0
 79
     0
 98
        1
 10
0.0
 20
0.0
  0
HATCH
  5
37A
330
71
100
AcDbEntity
  8
1
  6
Continuous
 62
     2
100
AcDbHatch
 10
0.0
 20
0.0
 30
0.0
210
0.0
220
0.0
230
1.0
  2
CUSTOM1
 70
     0
 71
     1
 91
        1
 92
        1
 93
       14
 72
     2
 10
-160.0117949469969
 20
-300.404584417728
 40
1.205656168390971
 50
164.9381082228768
 51
195.0618917770945
 73
     1
 72
     2
 10
-159.5926671035341
 20
-300.2917940556931
 40
1.639695123939437
 50
195.0618917770922
 51
275.1581447696363
 73
     1
 72
     2
 10
-159.88152319827
 20
-297.0919034724715
 40
4.852596863498272
 50
275.1581447696238
 51
285.9799912583526
 73
     1
 72
     1
 10
-158.5455952811522
 20
-301.7569857782724
 11
-158.5455952811522
 21
-300.8844687714691
 72
     2
 10
-159.7236503231772
 20
-298.9941180523193
 40
2.227384008972719
 50
58.06909105003628
 51
71.55192388186632
 73
     0
 72
     2
 10
-159.3054825895163
 20
-300.2476638283565
 40
0.9059297849848262
 50
71.55192388184605
 51
113.3722778881334
 73
     0
 72
     2
 10
-159.4619226222184
 20
-300.6096558470665
 40
0.5115800601947491
 50
113.3722778881718
 51
151.4785267423156
 73
     0
 72
     2
 10
-159.084565364138
 20
-300.404584417728
 40
0.9410597353333294
 50
151.4785267423028
 51
208.5214732577306
 73
     0
 72
     2
 10
-159.4619226222184
 20
-300.1995129883889
 40
0.5115800601948293
 50
208.5214732576844
 51
246.6277221118054
 73
     0
 72
     2
 10
-159.3054825895163
 20
-300.5615050070995
 40
0.9059297849853498
 50
246.6277221118694
 51
288.4480761181403
 73
     0
 72
     2
 10
-159.7236503231772
 20
-301.8150507831361
 40
2.227384008973465
 50
288.4480761181333
 51
301.9309089499629
 73
     0
 72
     1
 10
-158.5455952811522
 20
-299.9247000639863
 11
-158.5455952811522
 21
-299.052183057183
 72
     2
 10
-159.88152319827
 20
-303.7172653629838
 40
4.852596863497986
 50
74.0200087416471
 51
84.84185523037608
 73
     1
 72
     2
 10
-159.5926671035341
 20
-300.5173747797628
 40
1.639695123940499
 50
84.84185523036533
 51
164.9381082228905
 73
     1
 97
       14
330
34B
330
294
330
31A
330
34A
330
31B
330
31C
330
349
330
348
330
347
330
295
330
31D
330
31E
330
31F
330
320
 75
     1
 76
     2
 52
45.0
 41
0.1
 77
     0
 78
     1
 53
45.0
 43
62.7811309658083
 44
-72.3161373035813
 45
-0.1414213562373095
 46
0.0
 79
     0
 98
        1
 10
0.0
 20
0.0
  0
HATCH
  5
37B
330
71
100
AcDbEntity
  8
1
  6
Continuous
 62
     2
100
AcDbHatch
 10
0.0
 20
0.0
 30
0.0
210
0.0
220
0.0
230
1.0
  2
CUSTOM2
 70
     0
 71
     1
 91
        1
 92
        1
 93
       18
 72
     2
 10
-143.4899656242812
 20
-300.5173747797628
 40
1.639695123940101
 50
90.0
 51
164.9381082228993
 73
     1
 72
     2
 10
-143.9090934677429
 20
-300.404584417728
 40
1.205656168392975
 50
164.9381082229024
 51
195.0618917770924
 73
     1
 72
     2
 10
-143.4899656242812
 20
-300.2917940556931
 40
1.639695123940503
 50
195.0618917771007
 51
275.1581447696772
 73
     1
 72
     2
 10
-143.7788217190171
 20
-297.0919034724715
 40
4.852596863498889
 50
275.1581447696373
 51
285.9799912583383
 73
     1
 72
     1
 10
-142.4428938019004
 20
-301.7569857782729
 11
-142.4428938019004
 21
-300.8844687714696
 72
     2
 10
-143.6209488439243
 20
-298.9941180523198
 40
2.227384008972773
 50
58.06909105006066
 51
71.55192388186677
 73
     0
 72
     2
 10
-143.2027811102623
 20
-300.2476638283565
 40
0.9059297849852208
 50
71.55192388192279
 51
113.3722778881912
 73
     0
 72
     2
 10
-143.3592211429655
 20
-300.6096558470665
 40
0.5115800601959967
 50
113.3722778881601
 51
151.4785267423119
 73
     0
 72
     2
 10
-142.981863884884
 20
-300.404584417728
 40
0.9410597353350352
 50
151.478526742333
 51
208.5214732576427
 73
     0
 72
     2
 10
-143.3592211429655
 20
-300.1995129883889
 40
0.5115800601944048
 50
208.5214732575818
 51
250.6628567805177
 73
     0
 72
     2
 10
-143.2125511448618
 20
-300.6174679687719
 40
0.9545230068260935
 50
250.6628567805719
 51
270.0
 73
     0
 72
     1
 10
-143.2125511448618
 20
-299.6629449619458
 11
-142.1089118452937
 21
-299.6629449619458
 72
     1
 10
-142.1089118452937
 20
-299.6629449619458
 11
-142.1089118452937
 21
-301.9314891796332
 72
     1
 10
-142.1089118452937
 20
-301.9314891796332
 11
-140.916119143126
 21
-301.9314891796332
 72
     1
 10
-140.916119143126
 20
-301.9314891796332
 11
-140.916119143126
 21
-299.6629449619458
 72
     1
 10
-140.916119143126
 20
-299.6629449619458
 11
-140.1050201056526
 21
-299.6629449619458
 72
     1
 10
-140.1050201056526
 20
-299.6629449619458
 11
-140.1050201056526
 21
-298.8776796558221
 72
     1
 10
-140.1050201056526
 20
-298.8776796558221
 11
-143.4899656242812
 21
-298.8776796558227
 97
       18
330
2FA
330
2F9
330
2F8
330
2F7
330
2FC
330
296
330
344
330
325
330
343
330
326
330
342
330
341
330
297
330
340
330
33F
330
327
330
328
330
2FB
 75
     1
 76
     2
 52
45.0
 41
0.1
 77
     0
 78
     1
 53
45.0
 43
62.7811309658083
 44
-72.3161373035813
 45
-0.1414213562373095
 46
0.0
 79
     0
 98
        1
 10
0.0
 20
0.0
  0
HATCH
  5
37C
330
71
100
AcDbEntity
  8
1
  6
Continuous
 62
     2
100
AcDbHatch
 10
0.0
 20
0.0
 30
0.0
210
0.0
220
0.0
230
1.0
  2
CUSTOM3
 70
     0
 71
     1
 91
        1
 92
        1
 93
       18
 72
     2
 10
-143.4899656242812
 20
-300.5173747797628
 40
1.639695123940101
 50
90.0
 51
164.9381082228993
 73
     1
 72
     2
 10
-143.9090934677429
 20
-300.404584417728
 40
1.205656168392975
 50
164.9381082229024
 51
195.0618917770924
 73
     1
 72
     2
 10
-143.4899656242812
 20
-300.2917940556931
 40
1.639695123940503
 50
195.0618917771007
 51
275.1581447696772
 73
     1
 72
     2
 10
-143.7788217190171
 20
-297.0919034724715
 40
4.852596863498889
 50
275.1581447696373
 51
285.9799912583383
 73
     1
 72
     1
 10
-142.4428938019004
 20
-301.7569857782729
 11
-142.4428938019004
 21
-300.8844687714696
 72
     2
 10
-143.6209488439243
 20
-298.9941180523198
 40
2.227384008972773
 50
58.06909105006066
 51
71.55192388186677
 73
     0
 72
     2
 10
-143.2027811102623
 20
-300.2476638283565
 40
0.9059297849852208
 50
71.55192388192279
 51
113.3722778881912
 73
     0
 72
     2
 10
-143.3592211429655
 20
-300.6096558470665
 40
0.5115800601959967
 50
113.3722778881601
 51
151.4785267423119
 73
     0
 72
     2
 10
-142.981863884884
 20
-300.404584417728
 40
0.9410597353350352
 50
151.478526742333
 51
208.5214732576427
 73
     0
 72
     2
 10
-143.3592211429655
 20
-300.1995129883889
 40
0.5115800601944048
 50
208.5214732575818
 51
250.6628567805177
 73
     0
 72
     2
 10
-143.2125511448618
 20
-300.6174679687719
 40
0.9545230068260935
 50
250.6628567805719
 51
270.0
 73
     0
 72
     1
 10
-143.2125511448618
 20
-299.6629449619458
 11
-142.1089118452937
 21
-299.6629449619458
 72
     1
 10
-142.1089118452937
 20
-299.6629449619458
 11
-142.1089118452937
 21
-301.9314891796332
 72
     1
 10
-142.1089118452937
 20
-301.9314891796332
 11
-140.916119143126
 21
-301.9314891796332
 72
     1
 10
-140.916119143126
 20
-301.9314891796332
 11
-140.916119143126
 21
-299.6629449619458
 72
     1
 10
-140.916119143126
 20
-299.6629449619458
 11
-140.1050201056526
 21
-299.6629449619458
 72
     1
 10
-140.1050201056526
 20
-299.6629449619458
 11
-140.1050201056526
 21
-298.8776796558221
 72
     1
 10
-140.1050201056526
 20
-298.8776796558221
 11
-143.4899656242812
 21
-298.8776796558227
 97
       18
330
2FA
330
2F9
330
2F8
330
2F7
330
2FC
330
296
330
344
330
325
330
343
330
326
330
342
330
341
330
297
330
340
330
33F
330
327
330
328
330
2FB
 75
     1
 76
     2
 52
45.0
 41
0.1
 77
     0
 78
     1
 53
45.0
 43
62.7811309658083
 44
-72.3161373035813
 45
-0.1414213562373095
 46
0.0
 79
     0
 98
        1
 10
0.0
 20
0.0
  0
HATCH
  5
37D
330
71
100
AcDbEntity
  8
1
  6
Continuous
 62
     2
100
AcDbHatch
 10
0.0
 20
0.0
 30
0.0
210
0.0
220
0.0
230
1.0
  2
CUSTOM4
 70
     0
 71
     1
 91
        4
 92
        1
 93
        8
 72
     2
 10
-167.5921247209743
 20
-295.9427337950498
 40
0.4242446153838841
 50
90.0
 51
180.0
 73
     1
 72
     1
 10
-168.0163693363571
 20
-295.9427337950498
 11
-168.0163693363571
 21
-301.50724456425
 72
     2
 10
-167.5921247209743
 20
-301.50724456425
 40
0.4242446153827757
 50
180.0
 51
270.0
 73
     1
 72
     1
 10
-167.5921247209743
 20
-301.9314891796332
 11
-162.1188126302574
 21
-301.9314891796332
 72
     2
 10
-162.1188126302574
 20
-301.50724456425
 40
0.424244615383202
 50
270.0
 51
360.0
 73
     1
 72
     1
 10
-161.6945680148735
 20
-301.50724456425
 11
-161.6945680148735
 21
-295.9427337950498
 72
     2
 10
-162.1188126302574
 20
-295.9427337950498
 40
0.4242446153838841
 50
0.0
 51
90.0
 73
     1
 72
     1
 10
-162.1188126302574
 20
-295.5184891796659
 11
-167.5921247209743
 21
-295.5184891796659
 97
        8
330
338
330
2C5
330
337
330
2C6
330
32E
330
2C3
330
339
330
2C4
 92
       16
 93
       12
 72
     1
 10
-166.9982300442278
 20
-301.2189336240763
 11
-165.5223967832182
 21
-301.2189336240763
 72
     2
 10
-165.5223967832182
 20
-300.9032167009996
 40
0.3157169230767067
 50
270.0
 51
360.0
 73
     1
 72
     1
 10
-165.2066798601416
 20
-300.9032167009996
 11
-165.2066798601416
 21
-299.372445769468
 72
     2
 10
-165.5223967832182
 20
-299.372445769468
 40
0.315716923076593
 50
0.0
 51
64.805589351446
 73
     1
 72
     2
 10
-164.9998123356432
 20
-298.2616160234053
 40
0.9118975235576433
 50
115.1944106485089
 51
244.8055893514805
 73
     0
 72
     2
 10
-165.5223967832182
 20
-297.1507862773431
 40
0.3157169230760658
 50
295.1944106485672
 51
360.0
 73
     1
 72
     1
 10
-165.2066798601416
 20
-297.1507862773431
 11
-165.2066798601416
 21
-296.5467616582825
 72
     2
 10
-165.5223967832182
 20
-296.5467616582825
 40
0.315716923076593
 50
0.0
 51
90.0
 73
     1
 72
     1
 10
-165.5223967832182
 20
-296.2310447352064
 11
-166.9982300442278
 21
-296.2310447352064
 72
     2
 10
-166.9982300442278
 20
-296.5467616582825
 40
0.3157169230760815
 50
90.0
 51
180.0
 73
     1
 72
     1
 10
-167.3139469673034
 20
-296.5467616582825
 11
-167.3139469673034
 21
-300.9032167009996
 72
     2
 10
-166.9982300442278
 20
-300.9032167009996
 40
0.3157169230755983
 50
180.0
 51
270.0
 73
     1
 97
       12
330
2CA
330
32B
330
2C9
330
33C
330
2C8
330
33B
330
32C
330
32D
330
2C7
330
33A
330
2C2
330
33D
 92
       16
 93
        8
 72
     2
 10
-164.9487240557839
 20
-298.2616160234053
 40
0.9118481501443941
 50
295.3740086781804
 51
424.6259913218089
 73
     1
 72
     2
 10
-164.422681357696
 20
-297.1524744234375
 40
0.315716923076792
 50
115.3740086783651
 51
180.0
 73
     0
 72
     1
 10
-164.7383982807728
 20
-297.1524744234375
 11
-164.7383982807728
 21
-296.5469391349307
 72
     2
 10
-164.422681357696
 20
-296.5469391349307
 40
0.3157169230761851
 50
180.0
 51
269.8110329574335
 73
     0
 72
     2
 10
-164.417065222386
 20
-298.2497740824997
 40
2.018561131933266
 50
269.8110329575827
 51
450.1889670424174
 73
     0
 72
     2
 10
-164.422681357696
 20
-299.9526090300687
 40
0.315716923076792
 50
90.18896704256652
 51
180.0
 73
     0
 72
     1
 10
-164.7383982807728
 20
-299.9526090300687
 11
-164.7383982807728
 21
-299.3707576233736
 72
     2
 10
-164.422681357696
 20
-299.3707576233736
 40
0.3157169230765328
 50
180.0
 51
244.6259913216482
 73
     0
 97
        8
330
346
330
322
330
2FE
330
345
330
323
330
324
330
2FD
330
321
 92
       16
 93
        1
 72
     2
 10
-164.9725390704567
 20
-298.2616160234053
 40
0.470978932778479
 50
0.0
 51
360.0
 73
     1
 97
        1
330
34C
 75
     1
 76
     2
 52
45.0
 41
0.1
 77
     0
 78
     1
 53
45.0
 43
62.7811309658083
 44
-72.3161373035813
 45
-0.1414213562373095
 46
0.0
 79
     0
 98
        1
 10
0.0
 20
0.0
  0
HATCH
  5
37E
330
71
100
AcDbEntity
  8
1
  6
Continuous
 62
     2
100
AcDbHatch
 10
0.0
 20
0.0
 30
0.0
210
0.0
220
0.0
230
1.0
  2
CUSTOM5
 70
     0
 71
     1
 91
        4
 92
        1
 93
        8
 72
     2
 10
-167.5921247209743
 20
-295.9427337950498
 40
0.4242446153838841
 50
90.0
 51
180.0
 73
     1
 72
     1
 10
-168.0163693363571
 20
-295.9427337950498
 11
-168.0163693363571
 21
-301.50724456425
 72
     2
 10
-167.5921247209743
 20
-301.50724456425
 40
0.4242446153827757
 50
180.0
 51
270.0
 73
     1
 72
     1
 10
-167.5921247209743
 20
-301.9314891796332
 11
-162.1188126302574
 21
-301.9314891796332
 72
     2
 10
-162.1188126302574
 20
-301.50724456425
 40
0.424244615383202
 50
270.0
 51
360.0
 73
     1
 72
     1
 10
-161.6945680148735
 20
-301.50724456425
 11
-161.6945680148735
 21
-295.9427337950498
 72
     2
 10
-162.1188126302574
 20
-295.9427337950498
 40
0.4242446153838841
 50
0.0
 51
90.0
 73
     1
 72
     1
 10
-162.1188126302574
 20
-295.5184891796659
 11
-167.5921247209743
 21
-295.5184891796659
 97
        8
330
338
330
2C5
330
337
330
2C6
330
32E
330
2C3
330
339
330
2C4
 92
       16
 93
       12
 72
     1
 10
-166.9982300442278
 20
-301.2189336240763
 11
-165.5223967832182
 21
-301.2189336240763
 72
     2
 10
-165.5223967832182
 20
-300.9032167009996
 40
0.3157169230767067
 50
270.0
 51
360.0
 73
     1
 72
     1
 10
-165.2066798601416
 20
-300.9032167009996
 11
-165.2066798601416
 21
-299.372445769468
 72
     2
 10
-165.5223967832182
 20
-299.372445769468
 40
0.315716923076593
 50
0.0
 51
64.805589351446
 73
     1
 72
     2
 10
-164.9998123356432
 20
-298.2616160234053
 40
0.9118975235576433
 50
115.1944106485089
 51
244.8055893514805
 73
     0
 72
     2
 10
-165.5223967832182
 20
-297.1507862773431
 40
0.3157169230760658
 50
295.1944106485672
 51
360.0
 73
     1
 72
     1
 10
-165.2066798601416
 20
-297.1507862773431
 11
-165.2066798601416
 21
-296.5467616582825
 72
     2
 10
-165.5223967832182
 20
-296.5467616582825
 40
0.315716923076593
 50
0.0
 51
90.0
 73
     1
 72
     1
 10
-165.5223967832182
 20
-296.2310447352064
 11
-166.9982300442278
 21
-296.2310447352064
 72
     2
 10
-166.9982300442278
 20
-296.5467616582825
 40
0.3157169230760815
 50
90.0
 51
180.0
 73
     1
 72
     1
 10
-167.3139469673034
 20
-296.5467616582825
 11
-167.3139469673034
 21
-300.9032167009996
 72
     2
 10
-166.9982300442278
 20
-300.9032167009996
 40
0.3157169230755983
 50
180.0
 51
270.0
 73
     1
 97
       12
330
2CA
330
32B
330
2C9
330
33C
330
2C8
330
33B
330
32C
330
32D
330
2C7
330
33A
330
2C2
330
33D
 92
       16
 93
        8
 72
     2
 10
-164.9487240557839
 20
-298.2616160234053
 40
0.9118481501443941
 50
295.3740086781804
 51
424.6259913218089
 73
     1
 72
     2
 10
-164.422681357696
 20
-297.1524744234375
 40
0.315716923076792
 50
115.3740086783651
 51
180.0
 73
     0
 72
     1
 10
-164.7383982807728
 20
-297.1524744234375
 11
-164.7383982807728
 21
-296.5469391349307
 72
     2
 10
-164.422681357696
 20
-296.5469391349307
 40
0.3157169230761851
 50
180.0
 51
269.8110329574335
 73
     0
 72
     2
 10
-164.417065222386
 20
-298.2497740824997
 40
2.018561131933266
 50
269.8110329575827
 51
450.1889670424174
 73
     0
 72
     2
 10
-164.422681357696
 20
-299.9526090300687
 40
0.315716923076792
 50
90.18896704256652
 51
180.0
 73
     0
 72
     1
 10
-164.7383982807728
 20
-299.9526090300687
 11
-164.7383982807728
 21
-299.3707576233736
 72
     2
 10
-164.422681357696
 20
-299.3707576233736
 40
0.3157169230765328
 50
180.0
 51
244.6259913216482
 73
     0
 97
        8
330
346
330
322
330
2FE
330
345
330
323
330
324
330
2FD
330
321
 92
       16
 93
        1
 72
     2
 10
-164.9725390704567
 20
-298.2616160234053
 40
0.470978932778479
 50
0.0
 51
360.0
 73
     1
 97
        1
330
34C
 75
     1
 76
     2
 52
45.0
 41
0.1
 77
     0
 78
     1
 53
45.0
 43
62.7811309658083
 44
-72.3161373035813
 45
-0.1414213562373095
 46
0.0
 79
     0
 98
        1
 10
0.0
 20
0.0
  0
HATCH
  5
37F
330
71
100
AcDbEntity
  8
1
  6
Continuous
 62
     2
100
AcDbHatch
 10
0.0
 20
0.0
 30
0.0
210
0.0
220
0.0
230
1.0
  2
CUSTOM6
 70
     0
 71
     1
 91
        2
 92
        1
 93
       12
 72
     2
 10
-152.9169607169849
 20
-297.0453939415536
 40
1.526904761905769
 50
90.0
 51
270.0
 73
     1
 72
     1
 10
-152.9169607169849
 20
-298.5722987034589
 11
-149.766640993204
 21
-298.5722987034589
 72
     1
 10
-149.766640993204
 20
-298.5722987034589
 11
-149.766640993204
 21
-297.8742850980165
 72
     1
 10
-149.766640993204
 20
-297.8742850980165
 11
-151.1025688196316
 21
-297.8742850980165
 72
     1
 10
-151.1025688196316
 20
-297.8742850980165
 11
-151.1025688196316
 21
-297.3944007442748
 72
     1
 10
-151.1025688196316
 20
-297.3944007442748
 11
-149.766640993204
 21
-297.3944007442748
 72
     1
 10
-149.766640993204
 20
-297.3944007442748
 11
-149.766640993204
 21
-296.6963871388324
 72
     1
 10
-149.766640993204
 20
-296.6963871388324
 11
-151.1025688196316
 21
-296.6963871388324
 72
     1
 10
-151.1025688196316
 20
-296.6963871388324
 11
-151.1025688196316
 21
-296.2165027850907
 72
     1
 10
-151.1025688196316
 20
-296.2165027850907
 11
-149.766640993204
 21
-296.2165027850907
 72
     1
 10
-149.766640993204
 20
-296.2165027850907
 11
-149.766640993204
 21
-295.5184891796478
 72
     1
 10
-149.766640993204
 20
-295.5184891796478
 11
-152.9169607169849
 21
-295.5184891796478
 97
       12
330
2B9
330
2B3
330
2DA
330
2D9
330
2D8
330
2D7
330
2B4
330
2B5
330
2B6
330
2B7
330
329
330
2B8
 92
       16
 93
        4
 72
     2
 10
-152.5009486704735
 20
-297.0453939415536
 40
0.7717997786796245
 50
141.8795802028484
 51
218.1204197971549
 73
     1
 72
     2
 10
-152.7006887068197
 20
-297.2021251196741
 40
0.5179085730134564
 50
218.1204197971334
 51
321.8795802028588
 73
     1
 72
     2
 10
-152.9004287431659
 20
-297.0453939415536
 40
0.7717997786795479
 50
321.8795802028385
 51
398.1204197971581
 73
     1
 72
     2
 10
-152.7006887068197
 20
-296.8886627634331
 40
0.5179085730133669
 50
38.12041979714121
 51
141.8795802028666
 73
     1
 97
        4
330
336
330
335
330
330
330
32F
 75
     1
 76
     2
 52
45.0
 41
0.1
 77
     0
 78
     1
 53
45.0
 43
62.7811309658083
 44
-72.3161373035813
 45
-0.1414213562373095
 46
0.0
 79
     0
 98
        1
 10
0.0
 20
0.0
  0
HATCH
  5
380
330
71
100
AcDbEntity
  8
1
  6
Continuous
 62
     2
100
AcDbHatch
 10
0.0
 20
0.0
 30
0.0
210
0.0
220
0.0
230
1.0
  2
CUSTOM7
 70
     0
 71
     1
 91
        2
 92
        1
 93
       12
 72
     2
 10
-152.9169607169849
 20
-297.0453939415536
 40
1.526904761905769
 50
90.0
 51
270.0
 73
     1
 72
     1
 10
-152.9169607169849
 20
-298.5722987034589
 11
-149.766640993204
 21
-298.5722987034589
 72
     1
 10
-149.766640993204
 20
-298.5722987034589
 11
-149.766640993204
 21
-297.8742850980165
 72
     1
 10
-149.766640993204
 20
-297.8742850980165
 11
-151.1025688196316
 21
-297.8742850980165
 72
     1
 10
-151.1025688196316
 20
-297.8742850980165
 11
-151.1025688196316
 21
-297.3944007442748
 72
     1
 10
-151.1025688196316
 20
-297.3944007442748
 11
-149.766640993204
 21
-297.3944007442748
 72
     1
 10
-149.766640993204
 20
-297.3944007442748
 11
-149.766640993204
 21
-296.6963871388324
 72
     1
 10
-149.766640993204
 20
-296.6963871388324
 11
-151.1025688196316
 21
-296.6963871388324
 72
     1
 10
-151.1025688196316
 20
-296.6963871388324
 11
-151.1025688196316
 21
-296.2165027850907
 72
     1
 10
-151.1025688196316
 20
-296.2165027850907
 11
-149.766640993204
 21
-296.2165027850907
 72
     1
 10
-149.766640993204
 20
-296.2165027850907
 11
-149.766640993204
 21
-295.5184891796478
 72
     1
 10
-149.766640993204
 20
-295.5184891796478
 11
-152.9169607169849
 21
-295.5184891796478
 97
       12
330
2B9
330
2B3
330
2DA
330
2D9
330
2D8
330
2D7
330
2B4
330
2B5
330
2B6
330
2B7
330
329
330
2B8
 92
       16
 93
        4
 72
     2
 10
-152.5009486704735
 20
-297.0453939415536
 40
0.7717997786796245
 50
141.8795802028484
 51
218.1204197971549
 73
     1
 72
     2
 10
-152.7006887068197
 20
-297.2021251196741
 40
0.5179085730134564
 50
218.1204197971334
 51
321.8795802028588
 73
     1
 72
     2
 10
-152.9004287431659
 20
-297.0453939415536
 40
0.7717997786795479
 50
321.8795802028385
 51
398.1204197971581
 73
     1
 72
     2
 10
-152.7006887068197
 20
-296.8886627634331
 40
0.5179085730133669
 50
38.12041979714121
 51
141.8795802028666
 73
     1
 97
        4
330
336
330
335
330
330
330
32F
 75
     1
 76
     2
 52
45.0
 41
0.1
 77
     0
 78
     1
 53
45.0
 43
62.7811309658083
 44
-72.3161373035813
 45
-0.1414213562373095
 46
0.0
 79
     0
 98
        1
 10
0.0
 20
0.0
  0
HATCH
  5
381
330
71
100
AcDbEntity
  8
1
  6
Continuous
 62
     2
100
AcDbHatch
 10
0.0
 20
0.0
 30
0.0
210
0.0
220
0.0
230
1.0
  2
CUSTOM8
 70
     0
 71
     1
 91
        2
 92
        1
 93
        4
 72
     2
 10
-156.9425760794466
 20
-300.404584417728
 40
1.458034083651616
 50
117.5481481756598
 51
242.451851824337
 73
     1
 72
     2
 10
-156.6616361876132
 20
-299.8660094074246
 40
2.065479772208637
 50
242.4518518243384
 51
297.548148175686
 73
     1
 72
     2
 10
-156.38069629578
 20
-300.404584417728
 40
1.45803408365203
 50
297.5481481757055
 51
422.4518518242976
 73
     1
 72
     2
 10
-156.6616361876132
 20
-300.9431594280308
 40
2.065479772208694
 50
62.45185182430819
 51
117.5481481756674
 73
     1
 97
        4
330
334
330
331
330
333
330
332
 92
       16
 93
        4
 72
     2
 10
-156.6616361876132
 20
-300.2478532396075
 40
0.5179085730132806
 50
38.12041979716469
 51
141.8795802028567
 73
     1
 72
     2
 10
-156.4618961512672
 20
-300.404584417728
 40
0.771799778679551
 50
141.879580202828
 51
218.120419797162
 73
     1
 72
     2
 10
-156.6616361876132
 20
-300.5613155958479
 40
0.5179085730138424
 50
218.1204197971879
 51
321.8795802027908
 73
     1
 72
     2
 10
-156.8613762239596
 20
-300.404584417728
 40
0.7717997786795351
 50
321.8795802028432
 51
398.1204197971668
 73
     1
 97
        4
330
317
330
318
330
319
330
316
 75
     1
 76
     2
 52
45.0
 41
0.1
 77
     0
 78
     1
 53
45.0
 43
62.7811309658083
 44
-72.3161373035813
 45
-0.1414213562373095
 46
0.0
 79
     0
 98
        1
 10
0.0
 20
0.0
  0
HATCH
  5
382
330
71
100
AcDbEntity
  8
1
  6
Continuous
 62
     2
100
AcDbHatch
 10
0.0
 20
0.0
 30
0.0
210
0.0
220
0.0
230
1.0
  2
CUSTOM9
 70
     0
 71
     1
 91
        2
 92
        1
 93
        4
 72
     2
 10
-156.9425760794466
 20
-300.404584417728
 40
1.458034083651616
 50
117.5481481756598
 51
242.451851824337
 73
     1
 72
     2
 10
-156.6616361876132
 20
-299.8660094074246
 40
2.065479772208637
 50
242.4518518243384
 51
297.548148175686
 73
     1
 72
     2
 10
-156.38069629578
 20
-300.404584417728
 40
1.45803408365203
 50
297.5481481757055
 51
422.4518518242976
 73
     1
 72
     2
 10
-156.6616361876132
 20
-300.9431594280308
 40
2.065479772208694
 50
62.45185182430819
 51
117.5481481756674
 73
     1
 97
        4
330
334
330
331
330
333
330
332
 92
       16
 93
        4
 72
     2
 10
-156.6616361876132
 20
-300.2478532396075
 40
0.5179085730132806
 50
38.12041979716469
 51
141.8795802028567
 73
     1
 72
     2
 10
-156.4618961512672
 20
-300.404584417728
 40
0.771799778679551
 50
141.879580202828
 51
218.120419797162
 73
     1
 72
     2
 10
-156.6616361876132
 20
-300.5613155958479
 40
0.5179085730138424
 50
218.1204197971879
 51
321.8795802027908
 73
     1
 72
     2
 10
-156.8613762239596
 20
-300.404584417728
 40
0.7717997786795351
 50
321.8795802028432
 51
398.1204197971668
 73
     1
 97
        4
330
317
330
318
330
319
330
316
 75
     1
 76
     2
 52
45.0
 41
0.1
 77
     0
 78
     1
 53
45.0
 43
62.7811309658083
 44
-72.3161373035813
 45
-0.1414213562373095
 46
0.0
 79
     0
 98
        1
 10
0.0
 20
0.0
  0
HATCH
  5
383
330
71
100
AcDbEntity
  8
1
  6
Continuous
 62
     2
100
AcDbHatch
 10
0.0
 20
0.0
 30
0.0
210
0.0
220
0.0
230
1.0
  2
CUSTOM10
 70
     0
 71
     1
 91
        2
 92
        1
 93
        6
 72
     1
 10
-161.2174509340067
 20
-295.5184891796478
 11
-161.2174509340067
 21
-298.5722987034589
 72
     1
 10
-161.2174509340067
 20
-298.5722987034589
 11
-159.9769465237527
 21
-298.5722987034589
 72
     1
 10
-159.9769465237527
 20
-298.5722987034589
 11
-159.9769465237527
 21
-297.6292204623152
 72
     1
 10
-159.9769465237527
 20
-297.6292204623152
 11
-159.2181789359723
 21
-297.6292204623152
 72
     2
 10
-159.2181789359723
 20
-296.5738548209815
 40
1.055365641333651
 50
270.0
 51
450.0
 73
     1
 72
     1
 10
-159.2181789359723
 20
-295.5184891796478
 11
-161.2174509340067
 21
-295.5184891796478
 97
        6
330
33E
330
2CB
330
2C1
330
2C0
330
2CD
330
2CC
 92
       16
 93
        4
 72
     1
 10
-159.6596514622107
 20
-296.1815950250878
 11
-159.9769465237527
 21
-296.1815950250878
 72
     1
 10
-159.9769465237527
 20
-296.1815950250878
 11
-159.9769465237527
 21
-296.8873226744301
 72
     1
 10
-159.9769465237527
 20
-296.8873226744301
 11
-159.6596514622107
 21
-296.8873226744301
 72
     2
 10
-159.6596514622107
 20
-296.534458849759
 40
0.3528638246710898
 50
270.0
 51
450.0
 73
     1
 97
        4
330
2CE
330
2BF
330
2CF
330
32A
 75
     1
 76
     2
 52
45.0
 41
0.1
 77
     0
 78
     1
 53
45.0
 43
62.7811309658083
 44
-72.3161373035813
 45
-0.1414213562373095
 46
0.0
 79
     0
 98
        1
 10
0.0
 20
0.0
  0
HATCH
  5
384
330
71
100
AcDbEntity
  8
1
  6
Continuous
 62
     2
100
AcDbHatch
 10
0.0
 20
0.0
 30
0.0
210
0.0
220
0.0
230
1.0
  2
CUSTOM11
 70
     0
 71
     1
 91
        2
 92
        1
 93
        6
 72
     1
 10
-161.2174509340067
 20
-295.5184891796478
 11
-161.2174509340067
 21
-298.5722987034589
 72
     1
 10
-161.2174509340067
 20
-298.5722987034589
 11
-159.9769465237527
 21
-298.5722987034589
 72
     1
 10
-159.9769465237527
 20
-298.5722987034589
 11
-159.9769465237527
 21
-297.6292204623152
 72
     1
 10
-159.9769465237527
 20
-297.6292204623152
 11
-159.2181789359723
 21
-297.6292204623152
 72
     2
 10
-159.2181789359723
 20
-296.5738548209815
 40
1.055365641333651
 50
270.0
 51
450.0
 73
     1
 72
     1
 10
-159.2181789359723
 20
-295.5184891796478
 11
-161.2174509340067
 21
-295.5184891796478
 97
        6
330
33E
330
2CB
330
2C1
330
2C0
330
2CD
330
2CC
 92
       16
 93
        4
 72
     1
 10
-159.6596514622107
 20
-296.1815950250878
 11
-159.9769465237527
 21
-296.1815950250878
 72
     1
 10
-159.9769465237527
 20
-296.1815950250878
 11
-159.9769465237527
 21
-296.8873226744301
 72
     1
 10
-159.9769465237527
 20
-296.8873226744301
 11
-159.6596514622107
 21
-296.8873226744301
 72
     2
 10
-159.6596514622107
 20
-296.534458849759
 40
0.3528638246710898
 50
270.0
 51
450.0
 73
     1
 97
        4
330
2CE
330
2BF
330
2CF
330
32A
 75
     1
 76
     2
 52
45.0
 41
0.1
 77
     0
 78
     1
 53
45.0
 43
62.7811309658083
 44
-72.3161373035813
 45
-0.1414213562373095
 46
0.0
 79
     0
 98
        1
 10
0.0
 20
0.0
  0
HATCH
  5
385
330
71
100
AcDbEntity
  8
1
  6
Continuous
 62
     2
100
AcDbHatch
 10
0.0
 20
0.0
 30
0.0
210
0.0
220
0.0
230
1.0
  2
CUSTOM12
 70
     0
 71
     1
 91
        1
 92
        1
 93
       12
 72
     1
 10
-141.6031677395735
 20
-295.5184891796478
 11
-140.2004435218263
 21
-295.5184891796478
 72
     1
 10
-140.2004435218263
 20
-295.5184891796478
 11
-141.5029731525929
 21
-296.991439709684
 72
     1
 10
-141.5029731525929
 20
-296.991439709684
 11
-140.1050201056526
 21
-298.5722987034589
 72
     1
 10
-140.1050201056526
 20
-298.5722987034589
 11
-141.5077443234009
 21
-298.5722987034589
 72
     1
 10
-141.5077443234009
 20
-298.5722987034589
 11
-142.2043352614663
 21
-297.7845669181652
 72
     1
 10
-142.2043352614663
 20
-297.7845669181652
 11
-142.9009261995321
 21
-298.5722987034589
 72
     1
 10
-142.9009261995321
 20
-298.5722987034589
 11
-144.3036504172802
 21
-298.5722987034589
 72
     1
 10
-144.3036504172802
 20
-298.5722987034589
 11
-142.9056973703399
 21
-296.991439709684
 72
     1
 10
-142.9056973703399
 20
-296.991439709684
 11
-144.2082270011074
 21
-295.5184891796478
 72
     1
 10
-144.2082270011074
 20
-295.5184891796478
 11
-142.8055027833582
 21
-295.5184891796478
 72
     1
 10
-142.8055027833582
 20
-295.5184891796478
 11
-142.2043352614663
 21
-296.1983125012033
 72
     1
 10
-142.2043352614663
 20
-296.1983125012033
 11
-141.6031677395735
 21
-295.5184891796478
 97
       12
330
29A
330
2F3
330
2F2
330
2F1
330
2F0
330
29B
330
29C
330
298
330
299
330
2F6
330
2F5
330
2F4
 75
     1
 76
     2
 52
45.0
 41
0.1
 77
     0
 78
     1
 53
45.0
 43
62.7811309658083
 44
-72.3161373035813
 45
-0.1414213562373095
 46
0.0
 79
     0
 98
        1
 10
0.0
 20
0.0
  0
HATCH
  5
386
330
71
100
AcDbEntity
  8
1
  6
Continuous
 62
     2
100
AcDbHatch
 10
0.0
 20
0.0
 30
0.0
210
0.0
220
0.0
230
1.0
  2
CUSTOM13
 70
     0
 71
     1
 91
        1
 92
        1
 93
       12
 72
     1
 10
-141.6031677395735
 20
-295.5184891796478
 11
-140.2004435218263
 21
-295.5184891796478
 72
     1
 10
-140.2004435218263
 20
-295.5184891796478
 11
-141.5029731525929
 21
-296.991439709684
 72
     1
 10
-141.5029731525929
 20
-296.991439709684
 11
-140.1050201056526
 21
-298.5722987034589
 72
     1
 10
-140.1050201056526
 20
-298.5722987034589
 11
-141.5077443234009
 21
-298.5722987034589
 72
     1
 10
-141.5077443234009
 20
-298.5722987034589
 11
-142.2043352614663
 21
-297.7845669181652
 72
     1
 10
-142.2043352614663
 20
-297.7845669181652
 11
-142.9009261995321
 21
-298.5722987034589
 72
     1
 10
-142.9009261995321
 20
-298.5722987034589
 11
-144.3036504172802
 21
-298.5722987034589
 72
     1
 10
-144.3036504172802
 20
-298.5722987034589
 11
-142.9056973703399
 21
-296.991439709684
 72
     1
 10
-142.9056973703399
 20
-296.991439709684
 11
-144.2082270011074
 21
-295.5184891796478
 72
     1
 10
-144.2082270011074
 20
-295.5184891796478
 11
-142.8055027833582
 21
-295.5184891796478
 72
     1
 10
-142.8055027833582
 20
-295.5184891796478
 11
-142.2043352614663
 21
-296.1983125012033
 72
     1
 10
-142.2043352614663
 20
-296.1983125012033
 11
-141.6031677395735
 21
-295.5184891796478
 97
       12
330
29A
330
2F3
330
2F2
330
2F1
330
2F0
330
29B
330
29C
330
298
330
299
330
2F6
330
2F5
330
2F4
 75
     1
 76
     2
 52
45.0
 41
0.1
 77
     0
 78
     1
 53
45.0
 43
62.7811309658083
 44
-72.3161373035813
 45
-0.1414213562373095
 46
0.0
 79
     0
 98
        1
 10
0.0
 20
0.0
  0
HATCH
  5
387
330
71
100
AcDbEntity
  8
1
  6
Continuous
 62
     2
100
AcDbHatch
 10
0.0
 20
0.0
 30
0.0
210
0.0
220
0.0
230
1.0
  2
CUSTOM14
 70
     0
 71
     1
 91
        1
 92
        1
 93
        4
 72
     1
 10
-144.4229296874971
 20
-295.5184891796478
 11
-144.4229296874971
 21
-298.5722987034589
 72
     1
 10
-144.4229296874971
 20
-298.5722987034589
 11
-145.66343409775
 21
-298.5722987034589
 72
     1
 10
-145.66343409775
 20
-298.5722987034589
 11
-145.66343409775
 21
-295.5184891796478
 72
     1
 10
-145.66343409775
 20
-295.5184891796478
 11
-144.4229296874971
 21
-295.5184891796478
 97
        4
330
2EE
330
29D
330
2ED
330
2EF
 75
     1
 76
     2
 52
45.0
 41
0.1
 77
     0
 78
     1
 53
45.0
 43
62.7811309658083
 44
-72.3161373035813
 45
-0.1414213562373095
 46
0.0
 79
     0
 98
        1
 10
0.0
 20
0.0
  0
HATCH
  5
388
330
71
100
AcDbEntity
  8
1
  6
Continuous
 62
     2
100
AcDbHatch
 10
0.0
 20
0.0
 30
0.0
210
0.0
220
0.0
230
1.0
  2
CUSTOM15
 70
     0
 71
     1
 91
        1
 92
        1
 93
        4
 72
     1
 10
-144.4229296874971
 20
-295.5184891796478
 11
-144.4229296874971
 21
-298.5722987034589
 72
     1
 10
-144.4229296874971
 20
-298.5722987034589
 11
-145.66343409775
 21
-298.5722987034589
 72
     1
 10
-145.66343409775
 20
-298.5722987034589
 11
-145.66343409775
 21
-295.5184891796478
 72
     1
 10
-145.66343409775
 20
-295.5184891796478
 11
-144.4229296874971
 21
-295.5184891796478
 97
        4
330
2EE
330
29D
330
2ED
330
2EF
 75
     1
 76
     2
 52
45.0
 41
0.1
 77
     0
 78
     1
 53
45.0
 43
62.7811309658083
 44
-72.3161373035813
 45
-0.1414213562373095
 46
0.0
 79
     0
 98
        1
 10
0.0
 20
0.0
  0
HATCH
  5
389
330
71
100
AcDbEntity
  8
1
  6
Continuous
 62
     2
100
AcDbHatch
 10
0.0
 20
0.0
 30
0.0
210
0.0
220
0.0
230
1.0
  2
CUSTOM16
 70
     0
 71
     1
 91
        2
 92
        1
 93
        8
 72
     1
 10
-144.8133736910291
 20
-301.9314891796332
 11
-146.053878101283
 21
-301.9314891796332
 72
     1
 10
-146.053878101283
 20
-301.9314891796332
 11
-146.2653581547588
 21
-301.3905286354154
 72
     1
 10
-146.2653581547588
 20
-301.3905286354154
 11
-147.3977997314327
 21
-301.3905286354154
 72
     1
 10
-147.3977997314327
 20
-301.3905286354154
 11
-147.6092797849085
 21
-301.9314891796332
 72
     1
 10
-147.6092797849085
 20
-301.9314891796332
 11
-148.8497841951614
 21
-301.9314891796332
 72
     1
 10
-148.8497841951614
 20
-301.9314891796332
 11
-147.4518311482222
 21
-298.8776796558221
 72
     1
 10
-147.4518311482222
 20
-298.8776796558221
 11
-146.2113267379694
 21
-298.8776796558221
 72
     1
 10
-146.2113267379694
 20
-298.8776796558221
 11
-144.8133736910291
 21
-301.9314891796332
 97
        8
330
2E9
330
2A3
330
2E8
330
2EB
330
2A0
330
2EA
330
2A1
330
2A2
 92
       16
 93
        3
 72
     1
 10
-147.1317441802876
 20
-300.7099653701088
 11
-146.5314137059051
 21
-300.7099653701088
 72
     1
 10
-146.5314137059051
 20
-300.7099653701088
 11
-146.8315789430953
 21
-299.9421504041221
 72
     1
 10
-146.8315789430953
 20
-299.9421504041221
 11
-147.1317441802876
 21
-300.7099653701088
 97
        3
330
29F
330
29E
330
2EC
 75
     1
 76
     2
 52
45.0
 41
0.1
 77
     0
 78
     1
 53
45.0
 43
62.7811309658083
 44
-72.3161373035813
 45
-0.1414213562373095
 46
0.0
 79
     0
 98
        1
 10
0.0
 20
0.0
  0
HATCH
  5
38A
330
71
100
AcDbEntity
  8
1
  6
Continuous
 62
     2
100
AcDbHatch
 10
0.0
 20
0.0
 30
0.0
210
0.0
220
0.0
230
1.0
  2
CUSTOM17
 70
     0
 71
     1
 91
        2
 92
        1
 93
        8
 72
     1
 10
-144.8133736910291
 20
-301.9314891796332
 11
-146.053878101283
 21
-301.9314891796332
 72
     1
 10
-146.053878101283
 20
-301.9314891796332
 11
-146.2653581547588
 21
-301.3905286354154
 72
     1
 10
-146.2653581547588
 20
-301.3905286354154
 11
-147.3977997314327
 21
-301.3905286354154
 72
     1
 10
-147.3977997314327
 20
-301.3905286354154
 11
-147.6092797849085
 21
-301.9314891796332
 72
     1
 10
-147.6092797849085
 20
-301.9314891796332
 11
-148.8497841951614
 21
-301.9314891796332
 72
     1
 10
-148.8497841951614
 20
-301.9314891796332
 11
-147.4518311482222
 21
-298.8776796558221
 72
     1
 10
-147.4518311482222
 20
-298.8776796558221
 11
-146.2113267379694
 21
-298.8776796558221
 72
     1
 10
-146.2113267379694
 20
-298.8776796558221
 11
-144.8133736910291
 21
-301.9314891796332
 97
        8
330
2E9
330
2A3
330
2E8
330
2EB
330
2A0
330
2EA
330
2A1
330
2A2
 92
       16
 93
        3
 72
     1
 10
-147.1317441802876
 20
-300.7099653701088
 11
-146.5314137059051
 21
-300.7099653701088
 72
     1
 10
-146.5314137059051
 20
-300.7099653701088
 11
-146.8315789430953
 21
-299.9421504041221
 72
     1
 10
-146.8315789430953
 20
-299.9421504041221
 11
-147.1317441802876
 21
-300.7099653701088
 97
        3
330
29F
330
29E
330
2EC
 75
     1
 76
     2
 52
45.0
 41
0.1
 77
     0
 78
     1
 53
45.0
 43
62.7811309658083
 44
-72.3161373035813
 45
-0.1414213562373095
 46
0.0
 79
     0
 98
        1
 10
0.0
 20
0.0
  0
HATCH
  5
38B
330
71
100
AcDbEntity
  8
1
  6
Continuous
 62
     2
100
AcDbHatch
 10
0.0
 20
0.0
 30
0.0
210
0.0
220
0.0
230
1.0
  2
CUSTOM18
 70
     0
 71
     1
 91
        1
 92
        1
 93
        8
 72
     1
 10
-151.0072963343437
 20
-298.8776796558221
 11
-151.0072963343437
 21
-299.6629449619458
 72
     1
 10
-151.0072963343437
 20
-299.6629449619458
 11
-150.196197296869
 21
-299.6629449619458
 72
     1
 10
-150.196197296869
 20
-299.6629449619458
 11
-150.196197296869
 21
-301.9314891796332
 72
     1
 10
-150.196197296869
 20
-301.9314891796332
 11
-149.0034045947026
 21
-301.9314891796332
 72
     1
 10
-149.0034045947026
 20
-301.9314891796332
 11
-149.0034045947026
 21
-299.6629449619458
 72
     1
 10
-149.0034045947026
 20
-299.6629449619458
 11
-148.19230555723
 21
-299.6629449619458
 72
     1
 10
-148.19230555723
 20
-299.6629449619458
 11
-148.19230555723
 21
-298.8776796558221
 72
     1
 10
-148.19230555723
 20
-298.8776796558221
 11
-151.0072963343437
 21
-298.8776796558221
 97
        8
330
2E5
330
2E4
330
2E3
330
2A4
330
2A5
330
2E7
330
2A6
330
2E6
 75
     1
 76
     2
 52
45.0
 41
0.1
 77
     0
 78
     1
 53
45.0
 43
62.7811309658083
 44
-72.3161373035813
 45
-0.1414213562373095
 46
0.0
 79
     0
 98
        1
 10
0.0
 20
0.0
  0
HATCH
  5
38C
330
71
100
AcDbEntity
  8
1
  6
Continuous
 62
     2
100
AcDbHatch
 10
0.0
 20
0.0
 30
0.0
210
0.0
220
0.0
230
1.0
  2
CUSTOM19
 70
     0
 71
     1
 91
        1
 92
        1
 93
        8
 72
     1
 10
-151.0072963343437
 20
-298.8776796558221
 11
-151.0072963343437
 21
-299.6629449619458
 72
     1
 10
-151.0072963343437
 20
-299.6629449619458
 11
-150.196197296869
 21
-299.6629449619458
 72
     1
 10
-150.196197296869
 20
-299.6629449619458
 11
-150.196197296869
 21
-301.9314891796332
 72
     1
 10
-150.196197296869
 20
-301.9314891796332
 11
-149.0034045947026
 21
-301.9314891796332
 72
     1
 10
-149.0034045947026
 20
-301.9314891796332
 11
-149.0034045947026
 21
-299.6629449619458
 72
     1
 10
-149.0034045947026
 20
-299.6629449619458
 11
-148.19230555723
 21
-299.6629449619458
 72
     1
 10
-148.19230555723
 20
-299.6629449619458
 11
-148.19230555723
 21
-298.8776796558221
 72
     1
 10
-148.19230555723
 20
-298.8776796558221
 11
-151.0072963343437
 21
-298.8776796558221
 97
        8
330
2E5
330
2E4
330
2E3
330
2A4
330
2A5
330
2E7
330
2A6
330
2E6
 75
     1
 76
     2
 52
45.0
 41
0.1
 77
     0
 78
     1
 53
45.0
 43
62.7811309658083
 44
-72.3161373035813
 45
-0.1414213562373095
 46
0.0
 79
     0
 98
        1
 10
0.0
 20
0.0
  0
HATCH
  5
38D
330
71
100
AcDbEntity
  8
1
  6
Continuous
 62
     2
100
AcDbHatch
 10
0.0
 20
0.0
 30
0.0
210
0.0
220
0.0
230
1.0
  2
CUSTOM20
 70
     0
 71
     1
 91
        1
 92
        1
 93
       10
 72
     1
 10
-148.3352897506046
 20
-295.5184891796478
 11
-149.528082452771
 21
-295.5184891796478
 72
     1
 10
-149.528082452771
 20
-295.5184891796478
 11
-149.528082452771
 21
-298.5722987034589
 72
     1
 10
-149.528082452771
 20
-298.5722987034589
 11
-148.3352897506046
 21
-298.5722987034589
 72
     1
 10
-148.3352897506046
 20
-298.5722987034589
 11
-148.3352897506046
 21
-297.2635231932542
 72
     1
 10
-148.3352897506046
 20
-297.2635231932542
 11
-147.0947853403505
 21
-298.5722987034589
 72
     1
 10
-147.0947853403505
 20
-298.5722987034589
 11
-145.9019926381839
 21
-298.5722987034589
 72
     1
 10
-145.9019926381839
 20
-298.5722987034589
 11
-145.9019926381839
 21
-295.5184891796478
 72
     1
 10
-145.9019926381839
 20
-295.5184891796478
 11
-147.0947853403505
 21
-295.5184891796478
 72
     1
 10
-147.0947853403505
 20
-295.5184891796478
 11
-147.0947853403505
 21
-296.8272646898529
 72
     1
 10
-147.0947853403505
 20
-296.8272646898529
 11
-148.3352897506046
 21
-295.5184891796478
 97
       10
330
2DF
330
2A9
330
2AA
330
2AB
330
2AC
330
2E2
330
2A7
330
2E1
330
2E0
330
2A8
 75
     1
 76
     2
 52
45.0
 41
0.1
 77
     0
 78
     1
 53
45.0
 43
62.7811309658083
 44
-72.3161373035813
 45
-0.1414213562373095
 46
0.0
 79
     0
 98
        1
 10
0.0
 20
0.0
  0
HATCH
  5
38E
330
71
100
AcDbEntity
  8
1
  6
Continuous
 62
     2
100
AcDbHatch
 10
0.0
 20
0.0
 30
0.0
210
0.0
220
0.0
230
1.0
  2
CUSTOM21
 70
     0
 71
     1
 91
        1
 92
        1
 93
       10
 72
     1
 10
-148.3352897506046
 20
-295.5184891796478
 11
-149.528082452771
 21
-295.5184891796478
 72
     1
 10
-149.528082452771
 20
-295.5184891796478
 11
-149.528082452771
 21
-298.5722987034589
 72
     1
 10
-149.528082452771
 20
-298.5722987034589
 11
-148.3352897506046
 21
-298.5722987034589
 72
     1
 10
-148.3352897506046
 20
-298.5722987034589
 11
-148.3352897506046
 21
-297.2635231932542
 72
     1
 10
-148.3352897506046
 20
-297.2635231932542
 11
-147.0947853403505
 21
-298.5722987034589
 72
     1
 10
-147.0947853403505
 20
-298.5722987034589
 11
-145.9019926381839
 21
-298.5722987034589
 72
     1
 10
-145.9019926381839
 20
-298.5722987034589
 11
-145.9019926381839
 21
-295.5184891796478
 72
     1
 10
-145.9019926381839
 20
-295.5184891796478
 11
-147.0947853403505
 21
-295.5184891796478
 72
     1
 10
-147.0947853403505
 20
-295.5184891796478
 11
-147.0947853403505
 21
-296.8272646898529
 72
     1
 10
-147.0947853403505
 20
-296.8272646898529
 11
-148.3352897506046
 21
-295.5184891796478
 97
       10
330
2DF
330
2A9
330
2AA
330
2AB
330
2AC
330
2E2
330
2A7
330
2E1
330
2E0
330
2A8
 75
     1
 76
     2
 52
45.0
 41
0.1
 77
     0
 78
     1
 53
45.0
 43
62.7811309658083
 44
-72.3161373035813
 45
-0.1414213562373095
 46
0.0
 79
     0
 98
        1
 10
0.0
 20
0.0
  0
HATCH
  5
38F
330
71
100
AcDbEntity
  8
1
  6
Continuous
 62
     2
100
AcDbHatch
 10
0.0
 20
0.0
 30
0.0
210
0.0
220
0.0
230
1.0
  2
CUSTOM22
 70
     0
 71
     1
 91
        1
 92
        1
 93
       10
 72
     1
 10
-153.5837285710232
 20
-298.8776796558221
 11
-154.7765212731907
 21
-298.8776796558221
 72
     1
 10
-154.7765212731907
 20
-298.8776796558221
 11
-154.7765212731907
 21
-301.9314891796332
 72
     1
 10
-154.7765212731907
 20
-301.9314891796332
 11
-153.5837285710232
 21
-301.9314891796332
 72
     1
 10
-153.5837285710232
 20
-301.9314891796332
 11
-153.5837285710232
 21
-300.6227136694287
 72
     1
 10
-153.5837285710232
 20
-300.6227136694287
 11
-152.3432241607702
 21
-301.9314891796332
 72
     1
 10
-152.3432241607702
 20
-301.9314891796332
 11
-151.1504314586038
 21
-301.9314891796332
 72
     1
 10
-151.1504314586038
 20
-301.9314891796332
 11
-151.1504314586038
 21
-298.8776796558221
 72
     1
 10
-151.1504314586038
 20
-298.8776796558221
 11
-152.3432241607702
 21
-298.8776796558221
 72
     1
 10
-152.3432241607702
 20
-298.8776796558221
 11
-152.3432241607702
 21
-300.1864551660273
 72
     1
 10
-152.3432241607702
 20
-300.1864551660273
 11
-153.5837285710232
 21
-298.8776796558221
 97
       10
330
2AE
330
2AF
330
2B0
330
2DC
330
2B1
330
2B2
330
2DB
330
2DE
330
2DD
330
2AD
 75
     1
 76
     2
 52
45.0
 41
0.1
 77
     0
 78
     1
 53
45.0
 43
62.7811309658083
 44
-72.3161373035813
 45
-0.1414213562373095
 46
0.0
 79
     0
 98
        1
 10
0.0
 20
0.0
  0
HATCH
  5
390
330
71
100
AcDbEntity
  8
1
  6
Continuous
 62
     2
100
AcDbHatch
 10
0.0
 20
0.0
 30
0.0
210
0.0
220
0.0
230
1.0
  2
CUSTOM23
 70
     0
 71
     1
 91
        1
 92
        1
 93
       10
 72
     1
 10
-153.5837285710232
 20
-298.8776796558221
 11
-154.7765212731907
 21
-298.8776796558221
 72
     1
 10
-154.7765212731907
 20
-298.8776796558221
 11
-154.7765212731907
 21
-301.9314891796332
 72
     1
 10
-154.7765212731907
 20
-301.9314891796332
 11
-153.5837285710232
 21
-301.9314891796332
 72
     1
 10
-153.5837285710232
 20
-301.9314891796332
 11
-153.5837285710232
 21
-300.6227136694287
 72
     1
 10
-153.5837285710232
 20
-300.6227136694287
 11
-152.3432241607702
 21
-301.9314891796332
 72
     1
 10
-152.3432241607702
 20
-301.9314891796332
 11
-151.1504314586038
 21
-301.9314891796332
 72
     1
 10
-151.1504314586038
 20
-301.9314891796332
 11
-151.1504314586038
 21
-298.8776796558221
 72
     1
 10
-151.1504314586038
 20
-298.8776796558221
 11
-152.3432241607702
 21
-298.8776796558221
 72
     1
 10
-152.3432241607702
 20
-298.8776796558221
 11
-152.3432241607702
 21
-300.1864551660273
 72
     1
 10
-152.3432241607702
 20
-300.1864551660273
 11
-153.5837285710232
 21
-298.8776796558221
 97
       10
330
2AE
330
2AF
330
2B0
330
2DC
330
2B1
330
2B2
330
2DB
330
2DE
330
2DD
330
2AD
 75
     1
 76
     2
 52
45.0
 41
0.1
 77
     0
 78
     1
 53
45.0
 43
62.7811309658083
 44
-72.3161373035813
 45
-0.1414213562373095
 46
0.0
 79
     0
 98
        1
 10
0.0
 20
0.0
  0
HATCH
  5
391
330
71
100
AcDbEntity
  8
1
  6
Continuous
 62
     2
100
AcDbHatch
 10
0.0
 20
0.0
 30
0.0
210
0.0
220
0.0
230
1.0
  2
CUSTOM24
 70
     0
 71
     1
 91
        1
 92
        1
 93
       12
 72
     1
 10
-154.5855235099585
 20
-295.5184891796478
 11
-154.5855235099585
 21
-298.5722987034589
 72
     1
 10
-154.5855235099585
 20
-298.5722987034589
 11
-155.778316212125
 21
-298.5722987034589
 72
     1
 10
-155.778316212125
 20
-298.5722987034589
 11
-155.778316212125
 21
-297.4380265946152
 72
     1
 10
-155.778316212125
 20
-297.4380265946152
 11
-156.8279737900324
 21
-297.4380265946152
 72
     1
 10
-156.8279737900324
 20
-297.4380265946152
 11
-156.8279737900324
 21
-298.5722987034589
 72
     1
 10
-156.8279737900324
 20
-298.5722987034589
 11
-158.020766492199
 21
-298.5722987034589
 72
     1
 10
-158.020766492199
 20
-298.5722987034589
 11
-158.020766492199
 21
-295.5184891796478
 72
     1
 10
-158.020766492199
 20
-295.5184891796478
 11
-156.8279737900324
 21
-295.5184891796478
 72
     1
 10
-156.8279737900324
 20
-295.5184891796478
 11
-156.8279737900324
 21
-296.5873225129824
 72
     1
 10
-156.8279737900324
 20
-296.5873225129824
 11
-155.778316212125
 21
-296.5873225129824
 72
     1
 10
-155.778316212125
 20
-296.5873225129824
 11
-155.778316212125
 21
-295.5184891796478
 72
     1
 10
-155.778316212125
 20
-295.5184891796478
 11
-154.5855235099585
 21
-295.5184891796478
 97
       12
330
2D6
330
2D5
330
2D4
330
2BC
330
2BD
330
2D3
330
2BE
330
2D2
330
2D1
330
2D0
330
2BA
330
2BB
 75
     1
 76
     2
 52
45.0
 41
0.1
 77
     0
 78
     1
 53
45.0
 43
62.7811309658083
 44
-72.3161373035813
 45
-0.1414213562373095
 46
0.0
 79
     0
 98
        1
 10
0.0
 20
0.0
  0
HATCH
  5
392
330
71
100
AcDbEntity
  8
1
  6
Continuous
 62
     2
100
AcDbHatch
 10
0.0
 20
0.0
 30
0.0
210
0.0
220
0.0
230
1.0
  2
CUSTOM25
 70
     0
 71
     1
 91
        1
 92
        1
 93
       12
 72
     1
 10
-154.5855235099585
 20
-295.5184891796478
 11
-154.5855235099585
 21
-298.5722987034589
 72
     1
 10
-154.5855235099585
 20
-298.5722987034589
 11
-155.778316212125
 21
-298.5722987034589
 72
     1
 10
-155.778316212125
 20
-298.5722987034589
 11
-155.778316212125
 21
-297.4380265946152
 72
     1
 10
-155.778316212125
 20
-297.4380265946152
 11
-156.8279737900324
 21
-297.4380265946152
 72
     1
 10
-156.8279737900324
 20
-297.4380265946152
 11
-156.8279737900324
 21
-298.5722987034589
 72
     1
 10
-156.8279737900324
 20
-298.5722987034589
 11
-158.020766492199
 21
-298.5722987034589
 72
     1
 10
-158.020766492199
 20
-298.5722987034589
 11
-158.020766492199
 21
-295.5184891796478
 72
     1
 10
-158.020766492199
 20
-295.5184891796478
 11
-156.8279737900324
 21
-295.5184891796478
 72
     1
 10
-156.8279737900324
 20
-295.5184891796478
 11
-156.8279737900324
 21
-296.5873225129824
 72
     1
 10
-156.8279737900324
 20
-296.5873225129824
 11
-155.778316212125
 21
-296.5873225129824
 72
     1
 10
-155.778316212125
 20
-296.5873225129824
 11
-155.778316212125
 21
-295.5184891796478
 72
     1
 10
-155.778316212125
 20
-295.5184891796478
 11
-154.5855235099585
 21
-295.5184891796478
 97
       12
330
2D6
330
2D5
330
2D4
330
2BC
330
2BD
330
2D3
330
2BE
330
2D2
330
2D1
330
2D0
330
2BA
330
2BB
 75
     1
 76
     2
 52
45.0
 41
0.1
 77
     0
 78
     1
 53
45.0
 43
62.7811309658083
 44
-72.3161373035813
 45
-0.1414213562373095
 46
0.0
 79
     0
 98
        1
 10
0.0
 20
0.0
  0
ENDBLK
  5
73
330
71
100
AcDbEntity
  8
0
100
AcDbBlockEnd
  0
BLOCK
  5
75
330
74
100
AcDbEntity
  8
0
100
AcDbBlockBegin
  2
_punkt
 70
     0
 10
-42.70821969616975
 20
-309.2249891796495
 30
0.0
  3
_punkt
  1

  0
LINE
  5
393
330
74
100
AcDbEntity
  8
1
  6
Continuous
 62
     2
100
AcDbLine
 10
-42.70821969616969
 20
-309.2249891796495
 30
0.0
 11
-42.70821969616969
 21
-314.224989179649
 31
0.0
  0
LINE
  5
394
330
74
100
AcDbEntity
  8
1
  6
Continuous
 62
     2
100
AcDbLine
 10
-42.70821969616969
 20
-309.2249891796495
 30
0.0
 11
-37.70821969617208
 21
-309.2249891796495
 31
0.0
  0
ENDBLK
  5
76
330
74
100
AcDbEntity
  8
0
100
AcDbBlockEnd
  0
BLOCK
  5
7A
330
77
100
AcDbEntity
  8
0
100
AcDbBlockBegin
  2
A3I_CS
 70
     0
 10
-42.70821969616969
 20
-314.224989179649
 30
0.0
  3
A3I_CS
  1

  0
INSERT
  5
78
330
77
100
AcDbEntity
  8
1
100
AcDbBlockReference
  2
_rahmen
 10
-42.70821969616969
 20
-314.224989179649
 30
0.0
  0
INSERT
  5
79
330
77
100
AcDbEntity
  8
1
100
AcDbBlockReference
  2
_punkt
 10
-42.70821969616975
 20
-309.2249891796495
 30
0.0
  0
ENDBLK
  5
7B
330
77
100
AcDbEntity
  8
0
100
AcDbBlockEnd
  0
BLOCK
  5
84
330
7C
100
AcDbEntity
  8
0
100
AcDbBlockBegin
  2
1
 70
     0
 10
0.0
 20
0.0
 30
0.0
  3
1
  1

  0
INSERT
  5
7D
330
7C
100
AcDbEntity
  8
0
100
AcDbBlockReference
  2
Allg1
 10
-94.99999999996975
 20
-239.000000000005
 30
0.0
 41
0.5
 42
0.5
 43
0.5
  0
INSERT
  5
7E
330
7C
100
AcDbEntity
  8
0
100
AcDbBlockReference
  2
SA_Links1
 10
-217.0000000000025
 20
-80.99999999999994
 30
0.0
 41
0.5
 42
0.5
 43
0.5
  0
INSERT
  5
7F
330
7C
100
AcDbEntity
  8
0
100
AcDbBlockReference
  2
Drfsicht1
 10
-305.0000000000013
 20
-166.640644
 30
0.0
 41
0.5
 42
0.5
 43
0.5
  0
INSERT
  5
80
330
7C
100
AcDbEntity
  8
0
100
AcDbBlockReference
  2
Vordans1
 10
-304.9999999999988
 20
-81.0
 30
0.0
 41
0.5
 42
0.5
 43
0.5
  0
INSERT
  5
81
330
7C
100
AcDbEntity
  8
0
100
AcDbBlockReference
  2
SA_Rechts1
 10
-390.000000000015
 20
-81.0
 30
0.0
 41
0.5
 42
0.5
 43
0.5
  0
INSERT
  5
82
330
7C
100
AcDbEntity
  8
0
100
AcDbBlockReference
  2
Rückansicht1
 10
-141.0000000000163
 20
-81.0
 30
0.0
 41
0.5
 42
0.5
 43
0.5
  0
INSERT
  5
83
330
7C
100
AcDbEntity
  8
0
100
AcDbBlockReference
  2
A3I_CS
 10
-42.70821969616969
 20
-314.224989179649
 30
0.0
  0
ENDBLK
  5
85
330
7C
100
AcDbEntity
  8
0
100
AcDbBlockEnd
  0
BLOCK
  5
1BB
330
1B4
100
AcDbEntity
  8
0
100
AcDbBlockBegin
  2
*D17
 70
     1
 10
0.0
 20
0.0
 30
0.0
  3
*D17
  1

  0
LINE
  5
1B5
330
1B4
100
AcDbEntity
  8
1
  6
Continuous
 62
     2
100
AcDbLine
 10
-665.4999999999325
 20
-207.9999999999999
 30
0.0
 11
-554.4999999999325
 21
-207.9999999999999
 31
0.0
  0
LINE
  5
1B6
330
1B4
100
AcDbEntity
  8
1
  6
Continuous
 62
     2
100
AcDbLine
 10
-665.4999999999325
 20
-187.9999999999999
 30
0.0
 11
-665.4999999999325
 21
-210.9999999999999
 31
0.0
  0
LINE
  5
1B7
330
1B4
100
AcDbEntity
  8
1
  6
Continuous
 62
     2
100
AcDbLine
 10
-554.4999999999325
 20
-185.4999999999999
 30
0.0
 11
-554.4999999999325
 21
-210.9999999999999
 31
0.0
  0
SOLID
  5
1B8
330
1B4
100
AcDbEntity
  8
1
 62
     2
100
AcDbTrace
 10
-658.4999999999325
 20
-207.0784325168881
 30
0.0
 11
-658.4999999999325
 21
-208.9215674831117
 31
0.0
 12
-665.4999999999325
 22
-207.9999999999999
 32
0.0
 13
-665.4999999999325
 23
-207.9999999999999
 33
0.0
  0
SOLID
  5
1B9
330
1B4
100
AcDbEntity
  8
1
 62
     2
100
AcDbTrace
 10
-561.4999999999325
 20
-208.9215674831117
 30
0.0
 11
-561.4999999999325
 21
-207.0784325168881
 31
0.0
 12
-554.4999999999325
 22
-207.9999999999999
 32
0.0
 13
-554.4999999999325
 23
-207.9999999999999
 33
0.0
  0
MTEXT
  5
1BA
330
1B4
100
AcDbEntity
  8
1
 62
     3
100
AcDbMText
 10
-615.2499999999326
 20
-204.9999999999999
 30
0.0
 40
7.0
 41
0.0
 71
     7
 72
     1
  1
111
  7
CONVERTER_11
 11
0.9999999999970619
 21
2.424068405545306E-6
 31
0.0
 73
     1
 44
0.60024009603842
  0
ENDBLK
  5
1BC
330
1B4
100
AcDbEntity
  8
0
100
AcDbBlockEnd
  0
BLOCK
  5
1C6
330
1BF
100
AcDbEntity
  8
0
100
AcDbBlockBegin
  2
*D18
 70
     1
 10
0.0
 20
0.0
 30
0.0
  3
*D18
  1

  0
LINE
  5
1C0
330
1BF
100
AcDbEntity
  8
1
  6
Continuous
 62
     2
100
AcDbLine
 10
-685.4999999999325
 20
-187.9999999999999
 30
0.0
 11
-685.4999999999325
 21
-135.9999999999999
 31
0.0
  0
LINE
  5
1C1
330
1BF
100
AcDbEntity
  8
1
  6
Continuous
 62
     2
100
AcDbLine
 10
-665.4999999999325
 20
-187.9999999999999
 30
0.0
 11
-688.4999999999325
 21
-187.9999999999999
 31
0.0
  0
LINE
  5
1C2
330
1BF
100
AcDbEntity
  8
1
  6
Continuous
 62
     2
100
AcDbLine
 10
-665.4999999999325
 20
-135.9999999999999
 30
0.0
 11
-688.4999999999325
 21
-135.9999999999999
 31
0.0
  0
SOLID
  5
1C3
330
1BF
100
AcDbEntity
  8
1
 62
     2
100
AcDbTrace
 10
-686.4215674830442
 20
-180.9999999999999
 30
0.0
 11
-684.5784325168207
 21
-180.9999999999999
 31
0.0
 12
-685.4999999999325
 22
-187.9999999999999
 32
0.0
 13
-685.4999999999325
 23
-187.9999999999999
 33
0.0
  0
SOLID
  5
1C4
330
1BF
100
AcDbEntity
  8
1
 62
     2
100
AcDbTrace
 10
-684.5784325168207
 20
-142.9999999999999
 30
0.0
 11
-686.4215674830442
 21
-142.9999999999999
 31
0.0
 12
-685.4999999999325
 22
-135.9999999999999
 32
0.0
 13
-685.4999999999325
 23
-135.9999999999999
 33
0.0
  0
MTEXT
  5
1C5
330
1BF
100
AcDbEntity
  8
1
 62
     3
100
AcDbMText
 10
-688.4999999999325
 20
-173.859017819424
 30
0.0
 40
7.0
 41
0.0
 71
     7
 72
     1
  1
\C3; {\Fgdt;n}\C3;52
  7
CONVERTER_11
 11
0.0
 21
1.0
 31
0.0
 73
     1
 44
0.60024009603842
  0
ENDBLK
  5
1C7
330
1BF
100
AcDbEntity
  8
0
100
AcDbBlockEnd
  0
BLOCK
  5
1D1
330
1CA
100
AcDbEntity
  8
0
100
AcDbBlockBegin
  2
*D19
 70
     1
 10
0.0
 20
0.0
 30
0.0
  3
*D19
  1

  0
LINE
  5
1CB
330
1CA
100
AcDbEntity
  8
1
  6
Continuous
 62
     2
100
AcDbLine
 10
-532.782464253458
 20
-132.7499999999999
 30
0.0
 11
-532.782464253458
 21
-191.2499999999999
 31
0.0
  0
LINE
  5
1CC
330
1CA
100
AcDbEntity
  8
1
  6
Continuous
 62
     2
100
AcDbLine
 10
-567.4999999999325
 20
-132.7499999999999
 30
0.0
 11
-529.782464253458
 21
-132.7499999999999
 31
0.0
  0
LINE
  5
1CD
330
1CA
100
AcDbEntity
  8
1
  6
Continuous
 62
     2
100
AcDbLine
 10
-567.4999999999325
 20
-191.2499999999999
 30
0.0
 11
-529.782464253458
 21
-191.2499999999999
 31
0.0
  0
SOLID
  5
1CE
330
1CA
100
AcDbEntity
  8
1
 62
     2
100
AcDbTrace
 10
-531.8608967703462
 20
-139.7499999999999
 30
0.0
 11
-533.7040317365697
 21
-139.7499999999999
 31
0.0
 12
-532.782464253458
 22
-132.7499999999999
 32
0.0
 13
-532.782464253458
 23
-132.7499999999999
 33
0.0
  0
SOLID
  5
1CF
330
1CA
100
AcDbEntity
  8
1
 62
     2
100
AcDbTrace
 10
-533.7040317365697
 20
-184.2499999999999
 30
0.0
 11
-531.8608967703462
 21
-184.2499999999999
 31
0.0
 12
-532.782464253458
 22
-191.2499999999999
 32
0.0
 13
-532.782464253458
 23
-191.2499999999999
 33
0.0
  0
MTEXT
  5
1D0
330
1CA
100
AcDbEntity
  8
1
 62
     3
100
AcDbMText
 10
-536.482464253458
 20
-170.1425483564936
 30
0.0
 40
7.0
 41
0.0
 71
     7
 72
     1
  1
58,5
  7
CONVERTER_11
 11
0.0
 21
1.0
 31
0.0
 73
     1
 44
0.60024009603842
  0
ENDBLK
  5
1D2
330
1CA
100
AcDbEntity
  8
0
100
AcDbBlockEnd
  0
ENDSEC
  0
SECTION
  2
ENTITIES
  0
INSERT
  5
86
330
1F
100
AcDbEntity
  8
1
100
AcDbBlockReference
  2
1
 10
0.0
 20
0.0
 30
0.0
  0
ENDSEC
  0
SECTION
  2
OBJECTS
  0
DICTIONARY
  5
C
330
0
100
AcDbDictionary
281
     1
  3
ACAD_GROUP
350
D
  3
ACAD_LAYOUT
350
1A
  3
ACAD_MATERIAL
350
3B
  3
ACAD_MLEADERSTYLE
350
3BC
  3
ACAD_MLINESTYLE
350
17
  3
ACAD_PLOTSETTINGS
350
19
  3
ACAD_PLOTSTYLENAME
350
E
  3
ACAD_TABLESTYLE
350
3BB
  3
ACAD_VISUALSTYLE
350
2A
  0
DICTIONARY
  5
D
102
{ACAD_REACTORS
330
C
102
}
330
C
100
AcDbDictionary
281
     1
  0
DICTIONARY
  5
1A
102
{ACAD_REACTORS
330
C
102
}
330
C
100
AcDbDictionary
281
     1
  3
Layout1
350
1E
  3
Layout2
350
26
  3
Model
350
22
  0
DICTIONARY
  5
3B
102
{ACAD_REACTORS
330
C
102
}
330
C
100
AcDbDictionary
281
     1
  3
ByBlock
350
3D
  3
ByLayer
350
3C
  3
Global
350
3E
  0
DICTIONARY
  5
3BC
102
{ACAD_REACTORS
330
C
102
}
330
C
100
AcDbDictionary
281
     1
  0
DICTIONARY
  5
17
102
{ACAD_REACTORS
330
C
102
}
330
C
100
AcDbDictionary
281
     1
  3
Standard
350
18
  0
DICTIONARY
  5
19
102
{ACAD_REACTORS
330
C
102
}
330
C
100
AcDbDictionary
281
     1
  0
ACDBDICTIONARYWDFLT
  5
E
102
{ACAD_REACTORS
330
C
102
}
330
C
100
AcDbDictionary
281
     1
  3
Normal
350
F
100
AcDbDictionaryWithDefault
340
F
  0
DICTIONARY
  5
3BB
102
{ACAD_REACTORS
330
C
102
}
330
C
100
AcDbDictionary
281
     1
  0
DICTIONARY
  5
2A
102
{ACAD_REACTORS
330
C
102
}
330
C
100
AcDbDictionary
281
     1
  3
2dWireframe
350
2F
  3
3D Hidden
350
31
  3
3dWireframe
350
30
  3
Basic
350
32
  3
Brighten
350
36
  3
ColorChange
350
3A
  3
Conceptual
350
34
  3
Dim
350
35
  3
Facepattern
350
39
  3
Flat
350
2B
  3
FlatWithEdges
350
2C
  3
Gouraud
350
2D
  3
GouraudWithEdges
350
2E
  3
Linepattern
350
38
  3
Realistic
350
33
  3
Thicken
350
37
  0
LAYOUT
  5
1E
102
{ACAD_REACTORS
330
1A
102
}
330
1A
100
AcDbPlotSettings
  1

  2
none_device
  4

  6

 40
0.0
 41
0.0
 42
0.0
 43
0.0
 44
0.0
 45
0.0
 46
0.0
 47
0.0
 48
0.0
 49
0.0
140
0.0
141
0.0
142
1.0
143
1.0
 70
   688
 72
     0
 73
     0
 74
     5
  7

 75
    16
 76
     0
 77
     2
 78
   300
147
1.0
148
0.0
149
0.0
100
AcDbLayout
  1
Layout1
 70
     1
 71
     1
 10
0.0
 20
0.0
 11
12.0
 21
9.0
 12
0.0
 22
0.0
 32
0.0
 14
1.00000000000000E+20
 24
1.00000000000000E+20
 34
1.00000000000000E+20
 15
-1.00000000000000E+20
 25
-1.00000000000000E+20
 35
-1.00000000000000E+20
146
0.0
 13
0.0
 23
0.0
 33
0.0
 16
1.0
 26
0.0
 36
0.0
 17
0.0
 27
1.0
 37
0.0
 76
     0
330
1B
  0
LAYOUT
  5
26
102
{ACAD_REACTORS
330
1A
102
}
330
1A
100
AcDbPlotSettings
  1

  2
none_device
  4

  6

 40
0.0
 41
0.0
 42
0.0
 43
0.0
 44
0.0
 45
0.0
 46
0.0
 47
0.0
 48
0.0
 49
0.0
140
0.0
141
0.0
142
1.0
143
1.0
 70
   688
 72
     0
 73
     0
 74
     5
  7

 75
    16
 76
     0
 77
     2
 78
   300
147
1.0
148
0.0
149
0.0
100
AcDbLayout
  1
Layout2
 70
     1
 71
     2
 10
0.0
 20
0.0
 11
0.0
 21
0.0
 12
0.0
 22
0.0
 32
0.0
 14
0.0
 24
0.0
 34
0.0
 15
0.0
 25
0.0
 35
0.0
146
0.0
 13
0.0
 23
0.0
 33
0.0
 16
1.0
 26
0.0
 36
0.0
 17
0.0
 27
1.0
 37
0.0
 76
     0
330
23
  0
LAYOUT
  5
22
102
{ACAD_REACTORS
330
1A
102
}
330
1A
100
AcDbPlotSettings
  1

  2
none_device
  4

  6

 40
0.0
 41
0.0
 42
0.0
 43
0.0
 44
0.0
 45
0.0
 46
0.0
 47
0.0
 48
0.0
 49
0.0
140
0.0
141
0.0
142
1.0
143
1.0
 70
  1712
 72
     0
 73
     0
 74
     0
  7

 75
     0
 76
     0
 77
     2
 78
   300
147
1.0
148
0.0
149
0.0
100
AcDbLayout
  1
Model
 70
     1
 71
     0
 10
0.0
 20
0.0
 11
12.0
 21
9.0
 12
0.0
 22
0.0
 32
0.0
 14
-457.7082196961705
 24
-314.224989179649
 34
0.0
 15
-37.70821969617208
 25
-17.22498917964902
 35
0.0
146
0.0
 13
0.0
 23
0.0
 33
0.0
 16
1.0
 26
0.0
 36
0.0
 17
0.0
 27
1.0
 37
0.0
 76
     0
330
1F
331
29
  0
MATERIAL
  5
3D
102
{ACAD_REACTORS
330
3B
102
}
102
{ACAD_XDICTIONARY
360
3B7
102
}
330
3B
100
AcDbMaterial
  1
ByBlock
  0
MATERIAL
  5
3C
102
{ACAD_REACTORS
330
3B
102
}
102
{ACAD_XDICTIONARY
360
3B5
102
}
330
3B
100
AcDbMaterial
  1
ByLayer
  0
MATERIAL
  5
3E
102
{ACAD_REACTORS
330
3B
102
}
102
{ACAD_XDICTIONARY
360
3B9
102
}
330
3B
100
AcDbMaterial
  1
Global
  0
MLINESTYLE
  5
18
102
{ACAD_REACTORS
330
17
102
}
330
17
100
AcDbMlineStyle
  2
Standard
 70
     0
  3

 62
   256
 51
90.0
 52
90.0
 71
     2
 49
0.5
 62
   256
  6
BYLAYER
 49
-0.5
 62
   256
  6
BYLAYER
  0
ACDBPLACEHOLDER
  5
F
102
{ACAD_REACTORS
330
E
102
}
330
E
  0
VISUALSTYLE
  5
2F
102
{ACAD_REACTORS
330
2A
102
}
102
{ACAD_XDICTIONARY
360
39D
102
}
330
2A
100
AcDbVisualStyle
  2
2dWireframe
 70
     4
 71
     0
 72
     2
 73
     0
 90
        0
 40
-0.6
 41
-30.0
 62
     5
 63
     7
421
 16777215
 74
     1
 91
        4
 64
     7
 65
   257
 75
     1
175
     1
 42
1.0
 92
        0
 66
   257
 43
1.0
 76
     1
 77
     6
 78
     2
 67
     7
 79
     5
170
     0
171
     0
290
     0
174
     0
 93
        1
 44
0.0
173
     0
291
     0
 45
0.0
1001
ACAD
1000
AcDbSavedByObjectVersion
1070
     0
  0
VISUALSTYLE
  5
31
102
{ACAD_REACTORS
330
2A
102
}
102
{ACAD_XDICTIONARY
360
3A1
102
}
330
2A
100
AcDbVisualStyle
  2
3D Hidden
 70
     6
 71
     1
 72
     2
 73
     2
 90
        0
 40
-0.6
 41
-30.0
 62
     5
 63
     7
421
 16777215
 74
     2
 91
        2
 64
     7
 65
   257
 75
     2
175
     1
 42
40.0
 92
        0
 66
   257
 43
1.0
 76
     1
 77
     6
 78
     2
 67
     7
 79
     3
170
     0
171
     0
290
     0
174
     0
 93
        1
 44
0.0
173
     0
291
     0
 45
0.0
1001
ACAD
1000
AcDbSavedByObjectVersion
1070
     0
  0
VISUALSTYLE
  5
30
102
{ACAD_REACTORS
330
2A
102
}
102
{ACAD_XDICTIONARY
360
39F
102
}
330
2A
100
AcDbVisualStyle
  2
3dWireframe
 70
     5
 71
     0
 72
     2
 73
     0
 90
        0
 40
-0.6
 41
-30.0
 62
     5
 63
     7
421
 16777215
 74
     1
 91
        4
 64
     7
 65
   257
 75
     1
175
     1
 42
1.0
 92
        0
 66
   257
 43
1.0
 76
     1
 77
     6
 78
     2
 67
     7
 79
     5
170
     0
171
     0
290
     0
174
     0
 93
        1
 44
0.0
173
     0
291
     0
 45
0.0
1001
ACAD
1000
AcDbSavedByObjectVersion
1070
     0
  0
VISUALSTYLE
  5
32
102
{ACAD_REACTORS
330
2A
102
}
102
{ACAD_XDICTIONARY
360
3A3
102
}
330
2A
100
AcDbVisualStyle
  2
Basic
 70
     7
 71
     1
 72
     0
 73
     1
 90
        0
 40
-0.6
 41
-30.0
 62
     5
 63
     7
421
 16777215
 74
     0
 91
        4
 64
     7
 65
   257
 75
     1
175
     1
 42
1.0
 92
        8
 66
     7
 43
1.0
 76
     1
 77
     6
 78
     2
 67
     7
 79
     5
170
     0
171
     0
290
     0
174
     0
 93
        1
 44
0.0
173
     0
291
     1
 45
0.0
1001
ACAD
1000
AcDbSavedByObjectVersion
1070
     0
  0
VISUALSTYLE
  5
36
102
{ACAD_REACTORS
330
2A
102
}
102
{ACAD_XDICTIONARY
360
3AB
102
}
330
2A
100
AcDbVisualStyle
  2
Brighten
 70
    12
 71
     2
 72
     2
 73
     0
 90
        0
 40
-0.6
 41
-30.0
 62
     5
 63
     7
421
 16777215
 74
     1
 91
        4
 64
     7
 65
   257
 75
     1
175
     1
 42
1.0
 92
        8
 66
     7
 43
1.0
 76
     1
 77
     6
 78
     2
 67
     7
 79
     5
170
     0
171
     0
290
     0
174
     0
 93
        1
 44
50.0
173
     0
291
     1
 45
0.0
1001
ACAD
1000
AcDbSavedByObjectVersion
1070
     0
  0
VISUALSTYLE
  5
3A
102
{ACAD_REACTORS
330
2A
102
}
102
{ACAD_XDICTIONARY
360
3B3
102
}
330
2A
100
AcDbVisualStyle
  2
ColorChange
 70
    16
 71
     2
 72
     2
 73
     3
 90
        0
 40
-0.6
 41
-30.0
 62
     5
 63
     8
421
  8421504
 74
     1
 91
        4
 64
     7
 65
   257
 75
     1
175
     1
 42
1.0
 92
        8
 66
     8
424
  8421504
 43
1.0
 76
     1
 77
     6
 78
     2
 67
     7
 79
     5
170
     0
171
     0
290
     0
174
     0
 93
        1
 44
0.0
173
     0
291
     1
 45
0.0
1001
ACAD
1000
AcDbSavedByObjectVersion
1070
     0
  0
VISUALSTYLE
  5
34
102
{ACAD_REACTORS
330
2A
102
}
102
{ACAD_XDICTIONARY
360
3A7
102
}
330
2A
100
AcDbVisualStyle
  2
Conceptual
 70
     9
 71
     3
 72
     2
 73
     0
 90
        0
 40
-0.6
 41
-30.0
 62
     5
 63
     7
421
 16777215
 74
     2
 91
        2
 64
     7
 65
   257
 75
     1
175
     1
 42
40.0
 92
        8
 66
     7
 43
1.0
 76
     1
 77
     6
 78
     2
 67
     7
 79
     3
170
     0
171
     0
290
     0
174
     0
 93
        1
 44
0.0
173
     0
291
     0
 45
0.0
1001
ACAD
1000
AcDbSavedByObjectVersion
1070
     0
  0
VISUALSTYLE
  5
35
102
{ACAD_REACTORS
330
2A
102
}
102
{ACAD_XDICTIONARY
360
3A9
102
}
330
2A
100
AcDbVisualStyle
  2
Dim
 70
    11
 71
     2
 72
     2
 73
     0
 90
        0
 40
-0.6
 41
-30.0
 62
     5
 63
     7
421
 16777215
 74
     1
 91
        4
 64
     7
 65
   257
 75
     1
175
     1
 42
1.0
 92
        8
 66
     7
 43
1.0
 76
     1
 77
     6
 78
     2
 67
     7
 79
     5
170
     0
171
     0
290
     0
174
     0
 93
        1
 44
-50.0
173
     0
291
     1
 45
0.0
1001
ACAD
1000
AcDbSavedByObjectVersion
1070
     0
  0
VISUALSTYLE
  5
39
102
{ACAD_REACTORS
330
2A
102
}
102
{ACAD_XDICTIONARY
360
3B1
102
}
330
2A
100
AcDbVisualStyle
  2
Facepattern
 70
    15
 71
     2
 72
     2
 73
     0
 90
        0
 40
-0.6
 41
-30.0
 62
     5
 63
     7
421
 16777215
 74
     1
 91
        4
 64
     7
 65
   257
 75
     1
175
     1
 42
1.0
 92
        8
 66
     7
 43
1.0
 76
     1
 77
     6
 78
     2
 67
     7
 79
     5
170
     0
171
     0
290
     0
174
     0
 93
        1
 44
0.0
173
     0
291
     1
 45
0.0
1001
ACAD
1000
AcDbSavedByObjectVersion
1070
     0
  0
VISUALSTYLE
  5
2B
102
{ACAD_REACTORS
330
2A
102
}
102
{ACAD_XDICTIONARY
360
395
102
}
330
2A
100
AcDbVisualStyle
  2
Flat
 70
     0
 71
     2
 72
     1
 73
     1
 90
        2
 40
-0.6
 41
30.0
 62
     5
 63
     7
421
 16777215
 74
     0
 91
        4
 64
     7
 65
   257
 75
     1
175
     1
 42
1.0
 92
        8
 66
     7
 43
1.0
 76
     1
 77
     6
 78
     2
 67
     7
 79
     5
170
     0
171
     0
290
     0
174
     0
 93
       13
 44
0.0
173
     0
291
     1
 45
0.0
1001
ACAD
1000
AcDbSavedByObjectVersion
1070
     0
  0
VISUALSTYLE
  5
2C
102
{ACAD_REACTORS
330
2A
102
}
102
{ACAD_XDICTIONARY
360
397
102
}
330
2A
100
AcDbVisualStyle
  2
FlatWithEdges
 70
     1
 71
     2
 72
     1
 73
     1
 90
        2
 40
-0.6
 41
30.0
 62
     5
 63
     7
421
 16777215
 74
     1
 91
        4
 64
     7
 65
   257
 75
     1
175
     1
 42
1.0
 92
        0
 66
   257
 43
1.0
 76
     1
 77
     6
 78
     2
 67
     7
 79
     5
170
     0
171
     0
290
     0
174
     0
 93
       13
 44
0.0
173
     0
291
     1
 45
0.0
1001
ACAD
1000
AcDbSavedByObjectVersion
1070
     0
  0
VISUALSTYLE
  5
2D
102
{ACAD_REACTORS
330
2A
102
}
102
{ACAD_XDICTIONARY
360
399
102
}
330
2A
100
AcDbVisualStyle
  2
Gouraud
 70
     2
 71
     2
 72
     2
 73
     1
 90
        2
 40
-0.6
 41
30.0
 62
     5
 63
     7
421
 16777215
 74
     0
 91
        4
 64
     7
 65
   257
 75
     1
175
     1
 42
1.0
 92
        0
 66
     7
 43
1.0
 76
     1
 77
     6
 78
     2
 67
     7
 79
     5
170
     0
171
     0
290
     0
174
     0
 93
       13
 44
0.0
173
     0
291
     1
 45
0.0
1001
ACAD
1000
AcDbSavedByObjectVersion
1070
     0
  0
VISUALSTYLE
  5
2E
102
{ACAD_REACTORS
330
2A
102
}
102
{ACAD_XDICTIONARY
360
39B
102
}
330
2A
100
AcDbVisualStyle
  2
GouraudWithEdges
 70
     3
 71
     2
 72
     2
 73
     1
 90
        2
 40
-0.6
 41
30.0
 62
     5
 63
     7
421
 16777215
 74
     1
 91
        4
 64
     7
 65
   257
 75
     1
175
     1
 42
1.0
 92
        0
 66
   257
 43
1.0
 76
     1
 77
     6
 78
     2
 67
     7
 79
     5
170
     0
171
     0
290
     0
174
     0
 93
       13
 44
0.0
173
     0
291
     1
 45
0.0
1001
ACAD
1000
AcDbSavedByObjectVersion
1070
     0
  0
VISUALSTYLE
  5
38
102
{ACAD_REACTORS
330
2A
102
}
102
{ACAD_XDICTIONARY
360
3AF
102
}
330
2A
100
AcDbVisualStyle
  2
Linepattern
 70
    14
 71
     2
 72
     2
 73
     0
 90
        0
 40
-0.6
 41
-30.0
 62
     5
 63
     7
421
 16777215
 74
     1
 91
        4
 64
     7
 65
   257
 75
     7
175
     7
 42
1.0
 92
        8
 66
     7
 43
1.0
 76
     1
 77
     6
 78
     2
 67
     7
 79
     5
170
     0
171
     0
290
     0
174
     0
 93
        1
 44
0.0
173
     0
291
     1
 45
0.0
1001
ACAD
1000
AcDbSavedByObjectVersion
1070
     0
  0
VISUALSTYLE
  5
33
102
{ACAD_REACTORS
330
2A
102
}
102
{ACAD_XDICTIONARY
360
3A5
102
}
330
2A
100
AcDbVisualStyle
  2
Realistic
 70
     8
 71
     2
 72
     2
 73
     0
 90
        0
 40
-0.6
 41
-30.0
 62
     5
 63
     7
421
 16777215
 74
     1
 91
        0
 64
     7
 65
   257
 75
     1
175
     1
 42
1.0
 92
        8
 66
     8
424
  7895160
 43
1.0
 76
     1
 77
     6
 78
     2
 67
     7
 79
     5
170
     0
171
     0
290
     0
174
     0
 93
       13
 44
0.0
173
     0
291
     0
 45
0.0
1001
ACAD
1000
AcDbSavedByObjectVersion
1070
     0
  0
VISUALSTYLE
  5
37
102
{ACAD_REACTORS
330
2A
102
}
102
{ACAD_XDICTIONARY
360
3AD
102
}
330
2A
100
AcDbVisualStyle
  2
Thicken
 70
    13
 71
     2
 72
     2
 73
     0
 90
        0
 40
-0.6
 41
-30.0
 62
     5
 63
     7
421
 16777215
 74
     1
 91
        4
 64
     7
 65
   257
 75
     1
175
     1
 42
1.0
 92
       12
 66
     7
 43
1.0
 76
     1
 77
     6
 78
     2
 67
     7
 79
     5
170
     0
171
     0
290
     0
174
     0
 93
        1
 44
0.0
173
     0
291
     1
 45
0.0
1001
ACAD
1000
AcDbSavedByObjectVersion
1070
     0
  0
DICTIONARY
  5
3B7
330
3D
100
AcDbDictionary
280
     1
281
     1
  3
ACAD_XREC_ROUNDTRIP
360
3B8
  0
DICTIONARY
  5
3B5
330
3C
100
AcDbDictionary
280
     1
281
     1
  3
ACAD_XREC_ROUNDTRIP
360
3B6
  0
DICTIONARY
  5
3B9
330
3E
100
AcDbDictionary
280
     1
281
     1
  3
ACAD_XREC_ROUNDTRIP
360
3BA
  0
DICTIONARY
  5
39D
330
2F
100
AcDbDictionary
280
     1
281
     1
  3
ACAD_XREC_ROUNDTRIP
360
39E
  0
DICTIONARY
  5
3A1
330
31
100
AcDbDictionary
280
     1
281
     1
  3
ACAD_XREC_ROUNDTRIP
360
3A2
  0
DICTIONARY
  5
39F
330
30
100
AcDbDictionary
280
     1
281
     1
  3
ACAD_XREC_ROUNDTRIP
360
3A0
  0
DICTIONARY
  5
3A3
330
32
100
AcDbDictionary
280
     1
281
     1
  3
ACAD_XREC_ROUNDTRIP
360
3A4
  0
DICTIONARY
  5
3AB
330
36
100
AcDbDictionary
280
     1
281
     1
  3
ACAD_XREC_ROUNDTRIP
360
3AC
  0
DICTIONARY
  5
3B3
330
3A
100
AcDbDictionary
280
     1
281
     1
  3
ACAD_XREC_ROUNDTRIP
360
3B4
  0
DICTIONARY
  5
3A7
330
34
100
AcDbDictionary
280
     1
281
     1
  3
ACAD_XREC_ROUNDTRIP
360
3A8
  0
DICTIONARY
  5
3A9
330
35
100
AcDbDictionary
280
     1
281
     1
  3
ACAD_XREC_ROUNDTRIP
360
3AA
  0
DICTIONARY
  5
3B1
330
39
100
AcDbDictionary
280
     1
281
     1
  3
ACAD_XREC_ROUNDTRIP
360
3B2
  0
DICTIONARY
  5
395
330
2B
100
AcDbDictionary
280
     1
281
     1
  3
ACAD_XREC_ROUNDTRIP
360
396
  0
DICTIONARY
  5
397
330
2C
100
AcDbDictionary
280
     1
281
     1
  3
ACAD_XREC_ROUNDTRIP
360
398
  0
DICTIONARY
  5
399
330
2D
100
AcDbDictionary
280
     1
281
     1
  3
ACAD_XREC_ROUNDTRIP
360
39A
  0
DICTIONARY
  5
39B
330
2E
100
AcDbDictionary
280
     1
281
     1
  3
ACAD_XREC_ROUNDTRIP
360
39C
  0
DICTIONARY
  5
3AF
330
38
100
AcDbDictionary
280
     1
281
     1
  3
ACAD_XREC_ROUNDTRIP
360
3B0
  0
DICTIONARY
  5
3A5
330
33
100
AcDbDictionary
280
     1
281
     1
  3
ACAD_XREC_ROUNDTRIP
360
3A6
  0
DICTIONARY
  5
3AD
330
37
100
AcDbDictionary
280
     1
281
     1
  3
ACAD_XREC_ROUNDTRIP
360
3AE
  0
XRECORD
  5
3B8
102
{ACAD_REACTORS
330
3B7
102
}
330
3B7
100
AcDbXrecord
280
     1
102
MATERIAL
148
0.0
149
0.0
149
0.0
 93
        0
 94
      127
282
     0
 72
     1
 77
     1
171
     1
175
     1
179
     1
273
     0
  0
XRECORD
  5
3B6
102
{ACAD_REACTORS
330
3B5
102
}
330
3B5
100
AcDbXrecord
280
     1
102
MATERIAL
148
0.0
149
0.0
149
0.0
 93
        0
 94
      127
282
     0
 72
     1
 77
     1
171
     1
175
     1
179
     1
273
     0
  0
XRECORD
  5
3BA
102
{ACAD_REACTORS
330
3B9
102
}
330
3B9
100
AcDbXrecord
280
     1
102
MATERIAL
148
0.0
149
0.0
149
0.0
 93
        0
 94
      127
282
     0
 72
     1
 77
     1
171
     1
175
     1
179
     1
273
     0
  0
XRECORD
  5
39E
102
{ACAD_REACTORS
330
39D
102
}
330
39D
100
AcDbXrecord
280
     1
102
RTVSPropertyOp0
 70
     1
102
RTVSPropertyOp1
 70
     1
102
RTVSPropertyOp2
 70
     1
102
RTVSPropertyOp3
 70
     1
102
RTVSPropertyOp4
 70
     1
102
RTVSPropertyOp5
 70
     1
102
RTVSPropertyOp6
 70
     1
102
RTVSPropertyOp7
 70
     1
102
RTVSPropertyOp8
 70
     1
102
RTVSPropertyOp9
 70
     1
102
RTVSPropertyOp10
 70
     1
102
RTVSPropertyOp11
 70
     1
102
RTVSPropertyOp12
 70
     1
102
RTVSPropertyOp13
 70
     1
102
RTVSPropertyOp14
 70
     1
102
RTVSPropertyOp15
 70
     1
102
RTVSPropertyOp16
 70
     1
102
RTVSPropertyOp17
 70
     1
102
RTVSPropertyOp18
 70
     1
102
RTVSPropertyOp19
 70
     1
102
RTVSPropertyOp20
 70
     1
102
RTVSPropertyOp21
 70
     1
102
RTVSPropertyOp22
 70
     1
102
RTVSPropertyOp23
 70
     1
102
RTVSPropertyOp24
 70
     1
102
RTVSPropertyOp25
 70
     1
102
RTVSPropertyOp26
 70
     1
102
RTVSPropertyOp27
 70
     1
102
RTVSPropertyOp28
 70
     1
102
RTVSPropertyOp29
 70
     1
102
RTVSPropertyOp30
 70
     1
102
RTVSPropertyOp31
 70
     1
102
RTVSPropertyOp32
 70
     1
  0
XRECORD
  5
3A2
102
{ACAD_REACTORS
330
3A1
102
}
330
3A1
100
AcDbXrecord
280
     1
102
RTVSPropertyOp0
 70
     1
102
RTVSPropertyOp1
 70
     1
102
RTVSPropertyOp2
 70
     1
102
RTVSPropertyOp3
 70
     1
102
RTVSPropertyOp4
 70
     1
102
RTVSPropertyOp5
 70
     1
102
RTVSPropertyOp6
 70
     1
102
RTVSPropertyOp7
 70
     1
102
RTVSPropertyOp8
 70
     1
102
RTVSPropertyOp9
 70
     1
102
RTVSPropertyOp10
 70
     1
102
RTVSPropertyOp11
 70
     1
102
RTVSPropertyOp12
 70
     1
102
RTVSPropertyOp13
 70
     1
102
RTVSPropertyOp14
 70
     1
102
RTVSPropertyOp15
 70
     1
102
RTVSPropertyOp16
 70
     1
102
RTVSPropertyOp17
 70
     1
102
RTVSPropertyOp18
 70
     1
102
RTVSPropertyOp19
 70
     1
102
RTVSPropertyOp20
 70
     1
102
RTVSPropertyOp21
 70
     1
102
RTVSPropertyOp22
 70
     1
102
RTVSPropertyOp23
 70
     1
102
RTVSPropertyOp24
 70
     1
102
RTVSPropertyOp25
 70
     1
102
RTVSPropertyOp26
 70
     1
102
RTVSPropertyOp27
 70
     1
102
RTVSPropertyOp28
 70
     1
102
RTVSPropertyOp29
 70
     1
102
RTVSPropertyOp30
 70
     1
102
RTVSPropertyOp31
 70
     1
102
RTVSPropertyOp32
 70
     1
  0
XRECORD
  5
3A0
102
{ACAD_REACTORS
330
39F
102
}
330
39F
100
AcDbXrecord
280
     1
102
RTVSPropertyOp0
 70
     1
102
RTVSPropertyOp1
 70
     1
102
RTVSPropertyOp2
 70
     1
102
RTVSPropertyOp3
 70
     1
102
RTVSPropertyOp4
 70
     1
102
RTVSPropertyOp5
 70
     1
102
RTVSPropertyOp6
 70
     1
102
RTVSPropertyOp7
 70
     1
102
RTVSPropertyOp8
 70
     1
102
RTVSPropertyOp9
 70
     1
102
RTVSPropertyOp10
 70
     1
102
RTVSPropertyOp11
 70
     1
102
RTVSPropertyOp12
 70
     1
102
RTVSPropertyOp13
 70
     1
102
RTVSPropertyOp14
 70
     1
102
RTVSPropertyOp15
 70
     1
102
RTVSPropertyOp16
 70
     1
102
RTVSPropertyOp17
 70
     1
102
RTVSPropertyOp18
 70
     1
102
RTVSPropertyOp19
 70
     1
102
RTVSPropertyOp20
 70
     1
102
RTVSPropertyOp21
 70
     1
102
RTVSPropertyOp22
 70
     1
102
RTVSPropertyOp23
 70
     1
102
RTVSPropertyOp24
 70
     1
102
RTVSPropertyOp25
 70
     1
102
RTVSPropertyOp26
 70
     1
102
RTVSPropertyOp27
 70
     1
102
RTVSPropertyOp28
 70
     1
102
RTVSPropertyOp29
 70
     1
102
RTVSPropertyOp30
 70
     1
102
RTVSPropertyOp31
 70
     1
102
RTVSPropertyOp32
 70
     1
  0
XRECORD
  5
3A4
102
{ACAD_REACTORS
330
3A3
102
}
330
3A3
100
AcDbXrecord
280
     1
102
RTVSPropertyOp0
 70
     1
102
RTVSPropertyOp1
 70
     1
102
RTVSPropertyOp2
 70
     1
102
RTVSPropertyOp3
 70
     1
102
RTVSPropertyOp4
 70
     1
102
RTVSPropertyOp5
 70
     1
102
RTVSPropertyOp6
 70
     1
102
RTVSPropertyOp7
 70
     1
102
RTVSPropertyOp8
 70
     1
102
RTVSPropertyOp9
 70
     1
102
RTVSPropertyOp10
 70
     1
102
RTVSPropertyOp11
 70
     1
102
RTVSPropertyOp12
 70
     1
102
RTVSPropertyOp13
 70
     1
102
RTVSPropertyOp14
 70
     1
102
RTVSPropertyOp15
 70
     1
102
RTVSPropertyOp16
 70
     1
102
RTVSPropertyOp17
 70
     1
102
RTVSPropertyOp18
 70
     1
102
RTVSPropertyOp19
 70
     1
102
RTVSPropertyOp20
 70
     1
102
RTVSPropertyOp21
 70
     1
102
RTVSPropertyOp22
 70
     1
102
RTVSPropertyOp23
 70
     1
102
RTVSPropertyOp24
 70
     1
102
RTVSPropertyOp25
 70
     1
102
RTVSPropertyOp26
 70
     1
102
RTVSPropertyOp27
 70
     1
102
RTVSPropertyOp28
 70
     1
102
RTVSPropertyOp29
 70
     1
102
RTVSPropertyOp30
 70
     1
102
RTVSPropertyOp31
 70
     1
102
RTVSPropertyOp32
 70
     1
  0
XRECORD
  5
3AC
102
{ACAD_REACTORS
330
3AB
102
}
330
3AB
100
AcDbXrecord
280
     1
102
RTVSPropertyOp0
 70
     1
102
RTVSPropertyOp1
 70
     1
102
RTVSPropertyOp2
 70
     1
102
RTVSPropertyOp3
 70
     1
102
RTVSPropertyOp4
 70
     1
102
RTVSPropertyOp5
 70
     1
102
RTVSPropertyOp6
 70
     1
102
RTVSPropertyOp7
 70
     1
102
RTVSPropertyOp8
 70
     1
102
RTVSPropertyOp9
 70
     1
102
RTVSPropertyOp10
 70
     1
102
RTVSPropertyOp11
 70
     1
102
RTVSPropertyOp12
 70
     1
102
RTVSPropertyOp13
 70
     1
102
RTVSPropertyOp14
 70
     1
102
RTVSPropertyOp15
 70
     1
102
RTVSPropertyOp16
 70
     1
102
RTVSPropertyOp17
 70
     1
102
RTVSPropertyOp18
 70
     1
102
RTVSPropertyOp19
 70
     1
102
RTVSPropertyOp20
 70
     1
102
RTVSPropertyOp21
 70
     1
102
RTVSPropertyOp22
 70
     1
102
RTVSPropertyOp23
 70
     1
102
RTVSPropertyOp24
 70
     1
102
RTVSPropertyOp25
 70
     1
102
RTVSPropertyOp26
 70
     1
102
RTVSPropertyOp27
 70
     1
102
RTVSPropertyOp28
 70
     1
102
RTVSPropertyOp29
 70
     1
102
RTVSPropertyOp30
 70
     1
102
RTVSPropertyOp31
 70
     1
102
RTVSPropertyOp32
 70
     1
  0
XRECORD
  5
3B4
102
{ACAD_REACTORS
330
3B3
102
}
330
3B3
100
AcDbXrecord
280
     1
102
RTVSPropertyOp0
 70
     1
102
RTVSPropertyOp1
 70
     1
102
RTVSPropertyOp2
 70
     1
102
RTVSPropertyOp3
 70
     1
102
RTVSPropertyOp4
 70
     1
102
RTVSPropertyOp5
 70
     1
102
RTVSPropertyOp6
 70
     1
102
RTVSPropertyOp7
 70
     1
102
RTVSPropertyOp8
 70
     1
102
RTVSPropertyOp9
 70
     1
102
RTVSPropertyOp10
 70
     1
102
RTVSPropertyOp11
 70
     1
102
RTVSPropertyOp12
 70
     1
102
RTVSPropertyOp13
 70
     1
102
RTVSPropertyOp14
 70
     1
102
RTVSPropertyOp15
 70
     1
102
RTVSPropertyOp16
 70
     1
102
RTVSPropertyOp17
 70
     1
102
RTVSPropertyOp18
 70
     1
102
RTVSPropertyOp19
 70
     1
102
RTVSPropertyOp20
 70
     1
102
RTVSPropertyOp21
 70
     1
102
RTVSPropertyOp22
 70
     1
102
RTVSPropertyOp23
 70
     1
102
RTVSPropertyOp24
 70
     1
102
RTVSPropertyOp25
 70
     1
102
RTVSPropertyOp26
 70
     1
102
RTVSPropertyOp27
 70
     1
102
RTVSPropertyOp28
 70
     1
102
RTVSPropertyOp29
 70
     1
102
RTVSPropertyOp30
 70
     1
102
RTVSPropertyOp31
 70
     1
102
RTVSPropertyOp32
 70
     1
  0
XRECORD
  5
3A8
102
{ACAD_REACTORS
330
3A7
102
}
330
3A7
100
AcDbXrecord
280
     1
102
RTVSPropertyOp0
 70
     1
102
RTVSPropertyOp1
 70
     1
102
RTVSPropertyOp2
 70
     1
102
RTVSPropertyOp3
 70
     1
102
RTVSPropertyOp4
 70
     1
102
RTVSPropertyOp5
 70
     1
102
RTVSPropertyOp6
 70
     1
102
RTVSPropertyOp7
 70
     1
102
RTVSPropertyOp8
 70
     1
102
RTVSPropertyOp9
 70
     1
102
RTVSPropertyOp10
 70
     1
102
RTVSPropertyOp11
 70
     1
102
RTVSPropertyOp12
 70
     1
102
RTVSPropertyOp13
 70
     1
102
RTVSPropertyOp14
 70
     1
102
RTVSPropertyOp15
 70
     1
102
RTVSPropertyOp16
 70
     1
102
RTVSPropertyOp17
 70
     1
102
RTVSPropertyOp18
 70
     1
102
RTVSPropertyOp19
 70
     1
102
RTVSPropertyOp20
 70
     1
102
RTVSPropertyOp21
 70
     1
102
RTVSPropertyOp22
 70
     1
102
RTVSPropertyOp23
 70
     1
102
RTVSPropertyOp24
 70
     1
102
RTVSPropertyOp25
 70
     1
102
RTVSPropertyOp26
 70
     1
102
RTVSPropertyOp27
 70
     1
102
RTVSPropertyOp28
 70
     1
102
RTVSPropertyOp29
 70
     1
102
RTVSPropertyOp30
 70
     1
102
RTVSPropertyOp31
 70
     1
102
RTVSPropertyOp32
 70
     1
  0
XRECORD
  5
3AA
102
{ACAD_REACTORS
330
3A9
102
}
330
3A9
100
AcDbXrecord
280
     1
102
RTVSPropertyOp0
 70
     1
102
RTVSPropertyOp1
 70
     1
102
RTVSPropertyOp2
 70
     1
102
RTVSPropertyOp3
 70
     1
102
RTVSPropertyOp4
 70
     1
102
RTVSPropertyOp5
 70
     1
102
RTVSPropertyOp6
 70
     1
102
RTVSPropertyOp7
 70
     1
102
RTVSPropertyOp8
 70
     1
102
RTVSPropertyOp9
 70
     1
102
RTVSPropertyOp10
 70
     1
102
RTVSPropertyOp11
 70
     1
102
RTVSPropertyOp12
 70
     1
102
RTVSPropertyOp13
 70
     1
102
RTVSPropertyOp14
 70
     1
102
RTVSPropertyOp15
 70
     1
102
RTVSPropertyOp16
 70
     1
102
RTVSPropertyOp17
 70
     1
102
RTVSPropertyOp18
 70
     1
102
RTVSPropertyOp19
 70
     1
102
RTVSPropertyOp20
 70
     1
102
RTVSPropertyOp21
 70
     1
102
RTVSPropertyOp22
 70
     1
102
RTVSPropertyOp23
 70
     1
102
RTVSPropertyOp24
 70
     1
102
RTVSPropertyOp25
 70
     1
102
RTVSPropertyOp26
 70
     1
102
RTVSPropertyOp27
 70
     1
102
RTVSPropertyOp28
 70
     1
102
RTVSPropertyOp29
 70
     1
102
RTVSPropertyOp30
 70
     1
102
RTVSPropertyOp31
 70
     1
102
RTVSPropertyOp32
 70
     1
  0
XRECORD
  5
3B2
102
{ACAD_REACTORS
330
3B1
102
}
330
3B1
100
AcDbXrecord
280
     1
102
RTVSPropertyOp0
 70
     1
102
RTVSPropertyOp1
 70
     1
102
RTVSPropertyOp2
 70
     1
102
RTVSPropertyOp3
 70
     1
102
RTVSPropertyOp4
 70
     1
102
RTVSPropertyOp5
 70
     1
102
RTVSPropertyOp6
 70
     1
102
RTVSPropertyOp7
 70
     1
102
RTVSPropertyOp8
 70
     1
102
RTVSPropertyOp9
 70
     1
102
RTVSPropertyOp10
 70
     1
102
RTVSPropertyOp11
 70
     1
102
RTVSPropertyOp12
 70
     1
102
RTVSPropertyOp13
 70
     1
102
RTVSPropertyOp14
 70
     1
102
RTVSPropertyOp15
 70
     1
102
RTVSPropertyOp16
 70
     1
102
RTVSPropertyOp17
 70
     1
102
RTVSPropertyOp18
 70
     1
102
RTVSPropertyOp19
 70
     1
102
RTVSPropertyOp20
 70
     1
102
RTVSPropertyOp21
 70
     1
102
RTVSPropertyOp22
 70
     1
102
RTVSPropertyOp23
 70
     1
102
RTVSPropertyOp24
 70
     1
102
RTVSPropertyOp25
 70
     1
102
RTVSPropertyOp26
 70
     1
102
RTVSPropertyOp27
 70
     1
102
RTVSPropertyOp28
 70
     1
102
RTVSPropertyOp29
 70
     1
102
RTVSPropertyOp30
 70
     1
102
RTVSPropertyOp31
 70
     1
102
RTVSPropertyOp32
 70
     1
  0
XRECORD
  5
396
102
{ACAD_REACTORS
330
395
102
}
330
395
100
AcDbXrecord
280
     1
102
RTVSPropertyOp0
 70
     1
102
RTVSPropertyOp1
 70
     1
102
RTVSPropertyOp2
 70
     1
102
RTVSPropertyOp3
 70
     1
102
RTVSPropertyOp4
 70
     1
102
RTVSPropertyOp5
 70
     1
102
RTVSPropertyOp6
 70
     1
102
RTVSPropertyOp7
 70
     1
102
RTVSPropertyOp8
 70
     1
102
RTVSPropertyOp9
 70
     1
102
RTVSPropertyOp10
 70
     1
102
RTVSPropertyOp11
 70
     1
102
RTVSPropertyOp12
 70
     1
102
RTVSPropertyOp13
 70
     1
102
RTVSPropertyOp14
 70
     1
102
RTVSPropertyOp15
 70
     1
102
RTVSPropertyOp16
 70
     1
102
RTVSPropertyOp17
 70
     1
102
RTVSPropertyOp18
 70
     1
102
RTVSPropertyOp19
 70
     1
102
RTVSPropertyOp20
 70
     1
102
RTVSPropertyOp21
 70
     1
102
RTVSPropertyOp22
 70
     1
102
RTVSPropertyOp23
 70
     1
102
RTVSPropertyOp24
 70
     1
102
RTVSPropertyOp25
 70
     1
102
RTVSPropertyOp26
 70
     1
102
RTVSPropertyOp27
 70
     1
102
RTVSPropertyOp28
 70
     1
102
RTVSPropertyOp29
 70
     1
102
RTVSPropertyOp30
 70
     1
102
RTVSPropertyOp31
 70
     1
102
RTVSPropertyOp32
 70
     1
  0
XRECORD
  5
398
102
{ACAD_REACTORS
330
397
102
}
330
397
100
AcDbXrecord
280
     1
102
RTVSPropertyOp0
 70
     1
102
RTVSPropertyOp1
 70
     1
102
RTVSPropertyOp2
 70
     1
102
RTVSPropertyOp3
 70
     1
102
RTVSPropertyOp4
 70
     1
102
RTVSPropertyOp5
 70
     1
102
RTVSPropertyOp6
 70
     1
102
RTVSPropertyOp7
 70
     1
102
RTVSPropertyOp8
 70
     1
102
RTVSPropertyOp9
 70
     1
102
RTVSPropertyOp10
 70
     1
102
RTVSPropertyOp11
 70
     1
102
RTVSPropertyOp12
 70
     1
102
RTVSPropertyOp13
 70
     1
102
RTVSPropertyOp14
 70
     1
102
RTVSPropertyOp15
 70
     1
102
RTVSPropertyOp16
 70
     1
102
RTVSPropertyOp17
 70
     1
102
RTVSPropertyOp18
 70
     1
102
RTVSPropertyOp19
 70
     1
102
RTVSPropertyOp20
 70
     1
102
RTVSPropertyOp21
 70
     1
102
RTVSPropertyOp22
 70
     1
102
RTVSPropertyOp23
 70
     1
102
RTVSPropertyOp24
 70
     1
102
RTVSPropertyOp25
 70
     1
102
RTVSPropertyOp26
 70
     1
102
RTVSPropertyOp27
 70
     1
102
RTVSPropertyOp28
 70
     1
102
RTVSPropertyOp29
 70
     1
102
RTVSPropertyOp30
 70
     1
102
RTVSPropertyOp31
 70
     1
102
RTVSPropertyOp32
 70
     1
  0
XRECORD
  5
39A
102
{ACAD_REACTORS
330
399
102
}
330
399
100
AcDbXrecord
280
     1
102
RTVSPropertyOp0
 70
     1
102
RTVSPropertyOp1
 70
     1
102
RTVSPropertyOp2
 70
     1
102
RTVSPropertyOp3
 70
     1
102
RTVSPropertyOp4
 70
     1
102
RTVSPropertyOp5
 70
     1
102
RTVSPropertyOp6
 70
     1
102
RTVSPropertyOp7
 70
     1
102
RTVSPropertyOp8
 70
     1
102
RTVSPropertyOp9
 70
     1
102
RTVSPropertyOp10
 70
     1
102
RTVSPropertyOp11
 70
     1
102
RTVSPropertyOp12
 70
     1
102
RTVSPropertyOp13
 70
     1
102
RTVSPropertyOp14
 70
     1
102
RTVSPropertyOp15
 70
     1
102
RTVSPropertyOp16
 70
     1
102
RTVSPropertyOp17
 70
     1
102
RTVSPropertyOp18
 70
     1
102
RTVSPropertyOp19
 70
     1
102
RTVSPropertyOp20
 70
     1
102
RTVSPropertyOp21
 70
     1
102
RTVSPropertyOp22
 70
     1
102
RTVSPropertyOp23
 70
     1
102
RTVSPropertyOp24
 70
     1
102
RTVSPropertyOp25
 70
     1
102
RTVSPropertyOp26
 70
     1
102
RTVSPropertyOp27
 70
     1
102
RTVSPropertyOp28
 70
     1
102
RTVSPropertyOp29
 70
     1
102
RTVSPropertyOp30
 70
     1
102
RTVSPropertyOp31
 70
     1
102
RTVSPropertyOp32
 70
     1
  0
XRECORD
  5
39C
102
{ACAD_REACTORS
330
39B
102
}
330
39B
100
AcDbXrecord
280
     1
102
RTVSPropertyOp0
 70
     1
102
RTVSPropertyOp1
 70
     1
102
RTVSPropertyOp2
 70
     1
102
RTVSPropertyOp3
 70
     1
102
RTVSPropertyOp4
 70
     1
102
RTVSPropertyOp5
 70
     1
102
RTVSPropertyOp6
 70
     1
102
RTVSPropertyOp7
 70
     1
102
RTVSPropertyOp8
 70
     1
102
RTVSPropertyOp9
 70
     1
102
RTVSPropertyOp10
 70
     1
102
RTVSPropertyOp11
 70
     1
102
RTVSPropertyOp12
 70
     1
102
RTVSPropertyOp13
 70
     1
102
RTVSPropertyOp14
 70
     1
102
RTVSPropertyOp15
 70
     1
102
RTVSPropertyOp16
 70
     1
102
RTVSPropertyOp17
 70
     1
102
RTVSPropertyOp18
 70
     1
102
RTVSPropertyOp19
 70
     1
102
RTVSPropertyOp20
 70
     1
102
RTVSPropertyOp21
 70
     1
102
RTVSPropertyOp22
 70
     1
102
RTVSPropertyOp23
 70
     1
102
RTVSPropertyOp24
 70
     1
102
RTVSPropertyOp25
 70
     1
102
RTVSPropertyOp26
 70
     1
102
RTVSPropertyOp27
 70
     1
102
RTVSPropertyOp28
 70
     1
102
RTVSPropertyOp29
 70
     1
102
RTVSPropertyOp30
 70
     1
102
RTVSPropertyOp31
 70
     1
102
RTVSPropertyOp32
 70
     1
  0
XRECORD
  5
3B0
102
{ACAD_REACTORS
330
3AF
102
}
330
3AF
100
AcDbXrecord
280
     1
102
RTVSPropertyOp0
 70
     1
102
RTVSPropertyOp1
 70
     1
102
RTVSPropertyOp2
 70
     1
102
RTVSPropertyOp3
 70
     1
102
RTVSPropertyOp4
 70
     1
102
RTVSPropertyOp5
 70
     1
102
RTVSPropertyOp6
 70
     1
102
RTVSPropertyOp7
 70
     1
102
RTVSPropertyOp8
 70
     1
102
RTVSPropertyOp9
 70
     1
102
RTVSPropertyOp10
 70
     1
102
RTVSPropertyOp11
 70
     1
102
RTVSPropertyOp12
 70
     1
102
RTVSPropertyOp13
 70
     1
102
RTVSPropertyOp14
 70
     1
102
RTVSPropertyOp15
 70
     1
102
RTVSPropertyOp16
 70
     1
102
RTVSPropertyOp17
 70
     1
102
RTVSPropertyOp18
 70
     1
102
RTVSPropertyOp19
 70
     1
102
RTVSPropertyOp20
 70
     1
102
RTVSPropertyOp21
 70
     1
102
RTVSPropertyOp22
 70
     1
102
RTVSPropertyOp23
 70
     1
102
RTVSPropertyOp24
 70
     1
102
RTVSPropertyOp25
 70
     1
102
RTVSPropertyOp26
 70
     1
102
RTVSPropertyOp27
 70
     1
102
RTVSPropertyOp28
 70
     1
102
RTVSPropertyOp29
 70
     1
102
RTVSPropertyOp30
 70
     1
102
RTVSPropertyOp31
 70
     1
102
RTVSPropertyOp32
 70
     1
  0
XRECORD
  5
3A6
102
{ACAD_REACTORS
330
3A5
102
}
330
3A5
100
AcDbXrecord
280
     1
102
RTVSPropertyOp0
 70
     1
102
RTVSPropertyOp1
 70
     1
102
RTVSPropertyOp2
 70
     1
102
RTVSPropertyOp3
 70
     1
102
RTVSPropertyOp4
 70
     1
102
RTVSPropertyOp5
 70
     1
102
RTVSPropertyOp6
 70
     1
102
RTVSPropertyOp7
 70
     1
102
RTVSPropertyOp8
 70
     1
102
RTVSPropertyOp9
 70
     1
102
RTVSPropertyOp10
 70
     1
102
RTVSPropertyOp11
 70
     1
102
RTVSPropertyOp12
 70
     1
102
RTVSPropertyOp13
 70
     1
102
RTVSPropertyOp14
 70
     1
102
RTVSPropertyOp15
 70
     1
102
RTVSPropertyOp16
 70
     1
102
RTVSPropertyOp17
 70
     1
102
RTVSPropertyOp18
 70
     1
102
RTVSPropertyOp19
 70
     1
102
RTVSPropertyOp20
 70
     1
102
RTVSPropertyOp21
 70
     1
102
RTVSPropertyOp22
 70
     1
102
RTVSPropertyOp23
 70
     1
102
RTVSPropertyOp24
 70
     1
102
RTVSPropertyOp25
 70
     1
102
RTVSPropertyOp26
 70
     1
102
RTVSPropertyOp27
 70
     1
102
RTVSPropertyOp28
 70
     1
102
RTVSPropertyOp29
 70
     1
102
RTVSPropertyOp30
 70
     1
102
RTVSPropertyOp31
 70
     1
102
RTVSPropertyOp32
 70
     1
  0
XRECORD
  5
3AE
102
{ACAD_REACTORS
330
3AD
102
}
330
3AD
100
AcDbXrecord
280
     1
102
RTVSPropertyOp0
 70
     1
102
RTVSPropertyOp1
 70
     1
102
RTVSPropertyOp2
 70
     1
102
RTVSPropertyOp3
 70
     1
102
RTVSPropertyOp4
 70
     1
102
RTVSPropertyOp5
 70
     1
102
RTVSPropertyOp6
 70
     1
102
RTVSPropertyOp7
 70
     1
102
RTVSPropertyOp8
 70
     1
102
RTVSPropertyOp9
 70
     1
102
RTVSPropertyOp10
 70
     1
102
RTVSPropertyOp11
 70
     1
102
RTVSPropertyOp12
 70
     1
102
RTVSPropertyOp13
 70
     1
102
RTVSPropertyOp14
 70
     1
102
RTVSPropertyOp15
 70
     1
102
RTVSPropertyOp16
 70
     1
102
RTVSPropertyOp17
 70
     1
102
RTVSPropertyOp18
 70
     1
102
RTVSPropertyOp19
 70
     1
102
RTVSPropertyOp20
 70
     1
102
RTVSPropertyOp21
 70
     1
102
RTVSPropertyOp22
 70
     1
102
RTVSPropertyOp23
 70
     1
102
RTVSPropertyOp24
 70
     1
102
RTVSPropertyOp25
 70
     1
102
RTVSPropertyOp26
 70
     1
102
RTVSPropertyOp27
 70
     1
102
RTVSPropertyOp28
 70
     1
102
RTVSPropertyOp29
 70
     1
102
RTVSPropertyOp30
 70
     1
102
RTVSPropertyOp31
 70
     1
102
RTVSPropertyOp32
 70
     1
  0
ENDSEC
  0
EOF
