  0
SECTION
  2
HEADER
  9
$ACADVER
  1
AC1018
  9
$ACADMAINTVER
 70
     0
  9
$DWGCODEPAGE
  3
ANSI_1252
  9
$INSBASE
 10
0.0
 20
0.0
 30
0.0
  9
$EXTMIN
 10
-1227.374999999999
 20
-1175.875
 30
0.0
  9
$EXTMAX
 10
-807.3750000000009
 20
-878.875
 30
0.0
  9
$LIMMIN
 10
0.0
 20
0.0
  9
$LIMMAX
 10
12.0
 20
9.0
  9
$ORTHOMODE
 70
     0
  9
$REGENMODE
 70
     1
  9
$FILLMODE
 70
     1
  9
$QTEXTMODE
 70
     0
  9
$MIRRTEXT
 70
     1
  9
$LTSCALE
 40
1.0
  9
$ATTMODE
 70
     1
  9
$TEXTSIZE
 40
0.2
  9
$TRACEWID
 40
0.05
  9
$TEXTSTYLE
  7
Standard
  9
$CLAYER
  8
0
  9
$CELTYPE
  6
ByLayer
  9
$CECOLOR
 62
   256
  9
$CELTSCALE
 40
1.0
  9
$DISPSILH
 70
     0
  9
$DIMSCALE
 40
1.0
  9
$DIMASZ
 40
0.18
  9
$DIMEXO
 40
0.0625
  9
$DIMDLI
 40
0.38
  9
$DIMRND
 40
0.0
  9
$DIMDLE
 40
0.0
  9
$DIMEXE
 40
0.18
  9
$DIMTP
 40
0.0
  9
$DIMTM
 40
0.0
  9
$DIMTXT
 40
0.18
  9
$DIMCEN
 40
0.09
  9
$DIMTSZ
 40
0.0
  9
$DIMTOL
 70
     0
  9
$DIMLIM
 70
     0
  9
$DIMTIH
 70
     1
  9
$DIMTOH
 70
     1
  9
$DIMSE1
 70
     0
  9
$DIMSE2
 70
     0
  9
$DIMTAD
 70
     0
  9
$DIMZIN
 70
     0
  9
$DIMBLK
  1

  9
$DIMASO
 70
     1
  9
$DIMSHO
 70
     1
  9
$DIMPOST
  1

  9
$DIMAPOST
  1

  9
$DIMALT
 70
     0
  9
$DIMALTD
 70
     2
  9
$DIMALTF
 40
25.4
  9
$DIMLFAC
 40
1.0
  9
$DIMTOFL
 70
     0
  9
$DIMTVP
 40
0.0
  9
$DIMTIX
 70
     0
  9
$DIMSOXD
 70
     0
  9
$DIMSAH
 70
     0
  9
$DIMBLK1
  1

  9
$DIMBLK2
  1

  9
$DIMSTYLE
  2
Standard
  9
$DIMCLRD
 70
     0
  9
$DIMCLRE
 70
     0
  9
$DIMCLRT
 70
     0
  9
$DIMTFAC
 40
1.0
  9
$DIMGAP
 40
0.09
  9
$DIMJUST
 70
     0
  9
$DIMSD1
 70
     0
  9
$DIMSD2
 70
     0
  9
$DIMTOLJ
 70
     1
  9
$DIMTZIN
 70
     0
  9
$DIMALTZ
 70
     0
  9
$DIMALTTZ
 70
     0
  9
$DIMUPT
 70
     0
  9
$DIMDEC
 70
     4
  9
$DIMTDEC
 70
     4
  9
$DIMALTU
 70
     2
  9
$DIMALTTD
 70
     2
  9
$DIMTXSTY
  7
Standard
  9
$DIMAUNIT
 70
     0
  9
$DIMADEC
 70
     0
  9
$DIMALTRND
 40
0.0
  9
$DIMAZIN
 70
     0
  9
$DIMDSEP
 70
    46
  9
$DIMATFIT
 70
     3
  9
$DIMFRAC
 70
     0
  9
$DIMLDRBLK
  1

  9
$DIMLUNIT
 70
     2
  9
$DIMLWD
 70
    -2
  9
$DIMLWE
 70
    -2
  9
$DIMTMOVE
 70
     0
  9
$LUNITS
 70
     2
  9
$LUPREC
 70
     4
  9
$SKETCHINC
 40
0.1
  9
$FILLETRAD
 40
0.5
  9
$AUNITS
 70
     0
  9
$AUPREC
 70
     0
  9
$MENU
  1
.
  9
$ELEVATION
 40
0.0
  9
$PELEVATION
 40
0.0
  9
$THICKNESS
 40
0.0
  9
$LIMCHECK
 70
     0
  9
$CHAMFERA
 40
0.5
  9
$CHAMFERB
 40
0.5
  9
$CHAMFERC
 40
1.0
  9
$CHAMFERD
 40
0.0
  9
$SKPOLY
 70
     0
  9
$TDCREATE
 40
2458515.380076852
  9
$TDUCREATE
 40
2458515.338410185
  9
$TDUPDATE
 40
2458515.380077396
  9
$TDUUPDATE
 40
2458515.338410729
  9
$TDINDWG
 40
0.0000000116
  9
$TDUSRTIMER
 40
0.0000000116
  9
$USRTIMER
 70
     1
  9
$ANGBASE
 50
0.0
  9
$ANGDIR
 70
     0
  9
$PDMODE
 70
     0
  9
$PDSIZE
 40
0.0
  9
$PLINEWID
 40
0.0
  9
$SPLFRAME
 70
     0
  9
$SPLINETYPE
 70
     6
  9
$SPLINESEGS
 70
     8
  9
$HANDSEED
  5
3A8
  9
$SURFTAB1
 70
     6
  9
$SURFTAB2
 70
     6
  9
$SURFTYPE
 70
     6
  9
$SURFU
 70
     6
  9
$SURFV
 70
     6
  9
$UCSBASE
  2

  9
$UCSNAME
  2

  9
$UCSORG
 10
0.0
 20
0.0
 30
0.0
  9
$UCSXDIR
 10
1.0
 20
0.0
 30
0.0
  9
$UCSYDIR
 10
0.0
 20
1.0
 30
0.0
  9
$UCSORTHOREF
  2

  9
$UCSORTHOVIEW
 70
     0
  9
$UCSORGTOP
 10
0.0
 20
0.0
 30
0.0
  9
$UCSORGBOTTOM
 10
0.0
 20
0.0
 30
0.0
  9
$UCSORGLEFT
 10
0.0
 20
0.0
 30
0.0
  9
$UCSORGRIGHT
 10
0.0
 20
0.0
 30
0.0
  9
$UCSORGFRONT
 10
0.0
 20
0.0
 30
0.0
  9
$UCSORGBACK
 10
0.0
 20
0.0
 30
0.0
  9
$PUCSBASE
  2

  9
$PUCSNAME
  2

  9
$PUCSORG
 10
0.0
 20
0.0
 30
0.0
  9
$PUCSXDIR
 10
1.0
 20
0.0
 30
0.0
  9
$PUCSYDIR
 10
0.0
 20
1.0
 30
0.0
  9
$PUCSORTHOREF
  2

  9
$PUCSORTHOVIEW
 70
     0
  9
$PUCSORGTOP
 10
0.0
 20
0.0
 30
0.0
  9
$PUCSORGBOTTOM
 10
0.0
 20
0.0
 30
0.0
  9
$PUCSORGLEFT
 10
0.0
 20
0.0
 30
0.0
  9
$PUCSORGRIGHT
 10
0.0
 20
0.0
 30
0.0
  9
$PUCSORGFRONT
 10
0.0
 20
0.0
 30
0.0
  9
$PUCSORGBACK
 10
0.0
 20
0.0
 30
0.0
  9
$USERI1
 70
     0
  9
$USERI2
 70
     0
  9
$USERI3
 70
     0
  9
$USERI4
 70
     0
  9
$USERI5
 70
     0
  9
$USERR1
 40
18.1
  9
$USERR2
 40
0.0
  9
$USERR3
 40
0.0
  9
$USERR4
 40
0.0
  9
$USERR5
 40
0.0
  9
$WORLDVIEW
 70
     1
  9
$SHADEDGE
 70
     3
  9
$SHADEDIF
 70
    70
  9
$TILEMODE
 70
     1
  9
$MAXACTVP
 70
    64
  9
$PINSBASE
 10
0.0
 20
0.0
 30
0.0
  9
$PLIMCHECK
 70
     0
  9
$PEXTMIN
 10
1.00000000000000E+20
 20
1.00000000000000E+20
 30
1.00000000000000E+20
  9
$PEXTMAX
 10
-1.00000000000000E+20
 20
-1.00000000000000E+20
 30
-1.00000000000000E+20
  9
$PLIMMIN
 10
0.0
 20
0.0
  9
$PLIMMAX
 10
12.0
 20
9.0
  9
$UNITMODE
 70
     0
  9
$VISRETAIN
 70
     1
  9
$PLINEGEN
 70
     0
  9
$PSLTSCALE
 70
     1
  9
$TREEDEPTH
 70
  3020
  9
$CMLSTYLE
  2
Standard
  9
$CMLJUST
 70
     0
  9
$CMLSCALE
 40
1.0
  9
$PROXYGRAPHICS
 70
     1
  9
$MEASUREMENT
 70
     1
  9
$CELWEIGHT
370
    -1
  9
$ENDCAPS
280
     0
  9
$JOINSTYLE
280
     0
  9
$LWDISPLAY
290
     0
  9
$INSUNITS
 70
     4
  9
$HYPERLINKBASE
  1

  9
$STYLESHEET
  1

  9
$XEDIT
290
     1
  9
$CEPSNTYPE
380
     0
  9
$PSTYLEMODE
290
     1
  9
$FINGERPRINTGUID
  2
{267F3430-C2B3-4C23-9474-FAC2E942A891}
  9
$VERSIONGUID
  2
{FAEB1C32-E019-11D5-929B-00C0DF256EC4}
  9
$EXTNAMES
290
     1
  9
$PSVPSCALE
 40
0.0
  9
$OLESTARTUP
290
     0
  9
$SORTENTS
280
   127
  9
$INDEXCTL
280
     0
  9
$HIDETEXT
280
     1
  9
$XCLIPFRAME
290
     0
  9
$HALOGAP
280
     0
  9
$OBSCOLOR
 70
   257
  9
$OBSLTYPE
280
     0
  9
$INTERSECTIONDISPLAY
280
     0
  9
$INTERSECTIONCOLOR
 70
   257
  9
$DIMASSOC
280
     2
  9
$PROJECTNAME
  1

  0
ENDSEC
  0
SECTION
  2
CLASSES
  0
CLASS
  1
ACDBDICTIONARYWDFLT
  2
AcDbDictionaryWithDefault
  3
ObjectDBX Classes
 90
        0
 91
        4
280
     0
281
     0
  0
CLASS
  1
VISUALSTYLE
  2
AcDbVisualStyle
  3
ObjectDBX Classes
 90
     4095
 91
        4
280
     0
281
     0
  0
CLASS
  1
MATERIAL
  2
AcDbMaterial
  3
ObjectDBX Classes
 90
     1153
 91
        4
280
     0
281
     0
  0
ENDSEC
  0
SECTION
  2
TABLES
  0
TABLE
  2
VPORT
  5
8
330
0
100
AcDbSymbolTable
 70
     1
  0
VPORT
  5
29
330
8
100
AcDbSymbolTableRecord
100
AcDbViewportTableRecord
  2
*Active
 70
     0
 10
0.0
 20
0.0
 11
1.0
 21
1.0
 12
-1017.375
 22
-1027.375
 13
0.0
 23
0.0
 14
0.5
 24
0.5
 15
0.5
 25
0.5
 16
0.0
 26
0.0
 36
1.0
 17
0.0
 27
0.0
 37
0.0
 40
326.7
 41
1.60267857142857
 42
50.0
 43
0.0
 44
0.0
 50
0.0
 51
0.0
 71
     0
 72
   100
 73
     1
 74
     3
 75
     0
 76
     0
 77
     0
 78
     0
281
     0
 65
     1
110
0.0
120
0.0
130
0.0
111
1.0
121
0.0
131
0.0
112
0.0
122
1.0
132
0.0
 79
     0
146
0.0
  0
ENDTAB
  0
TABLE
  2
LTYPE
  5
5
330
0
100
AcDbSymbolTable
 70
     8
  0
LTYPE
  5
14
330
5
100
AcDbSymbolTableRecord
100
AcDbLinetypeTableRecord
  2
ByBlock
 70
     0
  3

 72
    65
 73
     0
 40
0.0
  0
LTYPE
  5
15
330
5
100
AcDbSymbolTableRecord
100
AcDbLinetypeTableRecord
  2
ByLayer
 70
     0
  3

 72
    65
 73
     0
 40
0.0
  0
LTYPE
  5
16
330
5
100
AcDbSymbolTableRecord
100
AcDbLinetypeTableRecord
  2
Continuous
 70
     0
  3
Solid line
 72
    65
 73
     0
 40
0.0
  0
LTYPE
  5
3F
330
5
100
AcDbSymbolTableRecord
100
AcDbLinetypeTableRecord
  2
DASHED
 70
     0
  3
Dashed
 72
    65
 73
     2
 40
15.0
 49
7.0
 74
     0
 49
-8.0
 74
     0
  0
LTYPE
  5
40
330
5
100
AcDbSymbolTableRecord
100
AcDbLinetypeTableRecord
  2
DOTTED
 70
     0
  3
Dotted
 72
    65
 73
     2
 40
1.0
 49
0.0
 74
     0
 49
-1.0
 74
     0
  0
LTYPE
  5
41
330
5
100
AcDbSymbolTableRecord
100
AcDbLinetypeTableRecord
  2
DOT_CENTER
 70
     0
  3
Dot_Center
 72
    65
 73
     4
 40
14.0
 49
12.0
 74
     0
 49
-1.0
 74
     0
 49
0.0
 74
     0
 49
-1.0
 74
     0
  0
LTYPE
  5
42
330
5
100
AcDbSymbolTableRecord
100
AcDbLinetypeTableRecord
  2
LONG_DASHED
 70
     0
  3
Long_Dashed
 72
    65
 73
     2
 40
15.0
 49
10.0
 74
     0
 49
-5.0
 74
     0
  0
LTYPE
  5
43
330
5
100
AcDbSymbolTableRecord
100
AcDbLinetypeTableRecord
  2
DASH_CENTER
 70
     0
  3
Dash_Center
 72
    65
 73
     4
 40
14.0
 49
11.0
 74
     0
 49
-1.0
 74
     0
 49
1.0
 74
     0
 49
-1.0
 74
     0
  0
LTYPE
  5
44
330
5
100
AcDbSymbolTableRecord
100
AcDbLinetypeTableRecord
  2
PHANTOM
 70
     0
  3
Phantom
 72
    65
 73
     6
 40
13.0
 49
10.0
 74
     0
 49
-1.0
 74
     0
 49
0.0
 74
     0
 49
-1.0
 74
     0
 49
0.0
 74
     0
 49
-1.0
 74
     0
  0
LTYPE
  5
45
330
5
100
AcDbSymbolTableRecord
100
AcDbLinetypeTableRecord
  2
CENTER_DASH_DASH
 70
     0
  3
Center_Dash_Dash
 72
    65
 73
     6
 40
14.0
 49
9.0
 74
     0
 49
-1.0
 74
     0
 49
1.0
 74
     0
 49
-1.0
 74
     0
 49
1.0
 74
     0
 49
-1.0
 74
     0
  0
ENDTAB
  0
TABLE
  2
LAYER
  5
2
330
0
100
AcDbSymbolTable
 70
     2
  0
LAYER
  5
10
330
2
100
AcDbSymbolTableRecord
100
AcDbLayerTableRecord
  2
0
 70
     0
 62
     7
  6
Continuous
370
    -3
390
F
  0
LAYER
  5
46
330
2
100
AcDbSymbolTableRecord
100
AcDbLayerTableRecord
  2
1
 70
     0
 62
     7
  6
Continuous
370
    -3
390
F
  0
ENDTAB
  0
TABLE
  2
STYLE
  5
3
330
0
100
AcDbSymbolTable
 70
     5
  0
STYLE
  5
11
330
3
100
AcDbSymbolTableRecord
100
AcDbTextStyleTableRecord
  2
Standard
 70
     0
 40
0.0
 41
1.0
 50
0.0
 71
     0
 42
0.2
  3
txt
  4

  0
STYLE
  5
E9
330
3
100
AcDbSymbolTableRecord
100
AcDbTextStyleTableRecord
  2
CONVERTER_11
 70
     0
 40
0.0
 41
0.9
 50
0.0
 71
     0
 42
0.2
  3
txt.shx
  4

  0
STYLE
  5
34C
330
3
100
AcDbSymbolTableRecord
100
AcDbTextStyleTableRecord
  2
CONVERTER_12
 70
     0
 40
0.0
 41
0.81
 50
0.0
 71
     0
 42
0.2
  3
txt.shx
  4

  0
STYLE
  5
352
330
3
100
AcDbSymbolTableRecord
100
AcDbTextStyleTableRecord
  2
CONVERTER_13
 70
     0
 40
0.0
 41
0.855
 50
0.0
 71
     0
 42
0.2
  3
txt.shx
  4

  0
STYLE
  5
355
330
3
100
AcDbSymbolTableRecord
100
AcDbTextStyleTableRecord
  2
CONVERTER_14
 70
     0
 40
0.0
 41
0.72
 50
0.0
 71
     0
 42
0.2
  3
txt.shx
  4

  0
ENDTAB
  0
TABLE
  2
VIEW
  5
6
330
0
100
AcDbSymbolTable
 70
     0
  0
ENDTAB
  0
TABLE
  2
UCS
  5
7
330
0
100
AcDbSymbolTable
 70
     0
  0
ENDTAB
  0
TABLE
  2
APPID
  5
9
330
0
100
AcDbSymbolTable
 70
     1
  0
APPID
  5
12
330
9
100
AcDbSymbolTableRecord
100
AcDbRegAppTableRecord
  2
ACAD
 70
     0
  0
ENDTAB
  0
TABLE
  2
DIMSTYLE
  5
A
330
0
100
AcDbSymbolTable
 70
     3
100
AcDbDimStyleTable
  0
DIMSTYLE
105
27
330
A
100
AcDbSymbolTableRecord
100
AcDbDimStyleTableRecord
  2
Standard
 70
     0
178
     0
340
11
  0
DIMSTYLE
105
1AA
102
{ACAD_REACTORS
330
1AB
102
}
330
A
100
AcDbSymbolTableRecord
100
AcDbDimStyleTableRecord
  2
ME10_DIM_10
 70
     0
 41
3.5
 42
0.0
 44
1.5
 73
     0
 74
     0
 77
     1
 78
     8
140
3.5
147
1.5
172
     1
173
     1
174
     1
175
     1
176
     2
177
     2
178
     3
340
E9
  0
DIMSTYLE
105
1B5
102
{ACAD_REACTORS
330
1B6
102
}
330
A
100
AcDbSymbolTableRecord
100
AcDbDimStyleTableRecord
  2
ME10_DIM_11
 70
     0
  3
 {\Fgdt;n}<>
 41
3.5
 42
0.0
 44
1.5
 73
     0
 74
     0
 77
     1
 78
     8
140
3.5
147
1.5
172
     1
173
     1
174
     1
175
     1
176
     2
177
     2
178
     3
340
E9
  0
ENDTAB
  0
TABLE
  2
BLOCK_RECORD
  5
1
330
0
100
AcDbSymbolTable
 70
    19
  0
BLOCK_RECORD
  5
1F
330
1
100
AcDbSymbolTableRecord
100
AcDbBlockTableRecord
  2
*Model_Space
340
22
  0
BLOCK_RECORD
  5
1B
330
1
100
AcDbSymbolTableRecord
100
AcDbBlockTableRecord
  2
*Paper_Space
340
1E
  0
BLOCK_RECORD
  5
23
330
1
100
AcDbSymbolTableRecord
100
AcDbBlockTableRecord
  2
*Paper_Space0
340
26
  0
BLOCK_RECORD
  5
47
330
1
100
AcDbSymbolTableRecord
100
AcDbBlockTableRecord
  2
WP_GR_HF_IP66_PG16_BK-select__1
340
0
102
{BLKREFS
331
4B
102
}
  0
BLOCK_RECORD
  5
4A
330
1
100
AcDbSymbolTableRecord
100
AcDbBlockTableRecord
  2
Allg1
340
0
102
{BLKREFS
331
7D
102
}
  0
BLOCK_RECORD
  5
4E
330
1
100
AcDbSymbolTableRecord
100
AcDbBlockTableRecord
  2
WP_GR_HF_IP66_PG16_BK-select__2
340
0
102
{BLKREFS
331
52
102
}
  0
BLOCK_RECORD
  5
51
330
1
100
AcDbSymbolTableRecord
100
AcDbBlockTableRecord
  2
SA_Links1
340
0
102
{BLKREFS
331
7E
102
}
  0
BLOCK_RECORD
  5
55
330
1
100
AcDbSymbolTableRecord
100
AcDbBlockTableRecord
  2
WP_GR_HF_IP66_PG16_BK-select__3
340
0
102
{BLKREFS
331
59
102
}
  0
BLOCK_RECORD
  5
58
330
1
100
AcDbSymbolTableRecord
100
AcDbBlockTableRecord
  2
Drfsicht1
340
0
102
{BLKREFS
331
7F
102
}
  0
BLOCK_RECORD
  5
5C
330
1
100
AcDbSymbolTableRecord
100
AcDbBlockTableRecord
  2
WP_GR_HF_IP66_PG16_BK-select__4
340
0
102
{BLKREFS
331
60
102
}
  0
BLOCK_RECORD
  5
5F
330
1
100
AcDbSymbolTableRecord
100
AcDbBlockTableRecord
  2
Vordans1
340
0
102
{BLKREFS
331
80
102
}
  0
BLOCK_RECORD
  5
63
330
1
100
AcDbSymbolTableRecord
100
AcDbBlockTableRecord
  2
WP_GR_HF_IP66_PG16_BK-select__5
340
0
102
{BLKREFS
331
67
102
}
  0
BLOCK_RECORD
  5
66
330
1
100
AcDbSymbolTableRecord
100
AcDbBlockTableRecord
  2
SA_Rechts1
340
0
102
{BLKREFS
331
81
102
}
  0
BLOCK_RECORD
  5
6A
330
1
100
AcDbSymbolTableRecord
100
AcDbBlockTableRecord
  2
WP_GR_HF_IP66_PG16_BK-select__6
340
0
102
{BLKREFS
331
6E
102
}
  0
BLOCK_RECORD
  5
6D
330
1
100
AcDbSymbolTableRecord
100
AcDbBlockTableRecord
  2
Rückansicht1
340
0
102
{BLKREFS
331
82
102
}
  0
BLOCK_RECORD
  5
71
330
1
100
AcDbSymbolTableRecord
100
AcDbBlockTableRecord
  2
_rahmen
340
0
102
{BLKREFS
331
78
102
}
  0
BLOCK_RECORD
  5
74
330
1
100
AcDbSymbolTableRecord
100
AcDbBlockTableRecord
  2
_punkt
340
0
102
{BLKREFS
331
79
102
}
  0
BLOCK_RECORD
  5
77
330
1
100
AcDbSymbolTableRecord
100
AcDbBlockTableRecord
  2
A3I_CS
340
0
102
{BLKREFS
331
83
102
}
  0
BLOCK_RECORD
  5
7C
330
1
100
AcDbSymbolTableRecord
100
AcDbBlockTableRecord
  2
1
340
0
102
{BLKREFS
331
86
102
}
  0
BLOCK_RECORD
  5
1A1
330
1
100
AcDbSymbolTableRecord
100
AcDbBlockTableRecord
  2
*D17
340
0
  0
BLOCK_RECORD
  5
1AC
330
1
100
AcDbSymbolTableRecord
100
AcDbBlockTableRecord
  2
*D18
340
0
  0
ENDTAB
  0
ENDSEC
  0
SECTION
  2
BLOCKS
  0
BLOCK
  5
20
330
1F
100
AcDbEntity
  8
0
100
AcDbBlockBegin
  2
*Model_Space
 70
     0
 10
0.0
 20
0.0
 30
0.0
  3
*Model_Space
  1

  0
ENDBLK
  5
21
330
1F
100
AcDbEntity
  8
0
100
AcDbBlockEnd
  0
BLOCK
  5
1C
330
1B
100
AcDbEntity
 67
     1
  8
0
100
AcDbBlockBegin
  2
*Paper_Space
 70
     0
 10
0.0
 20
0.0
 30
0.0
  3
*Paper_Space
  1

  0
ENDBLK
  5
1D
330
1B
100
AcDbEntity
 67
     1
  8
0
100
AcDbBlockEnd
  0
BLOCK
  5
24
330
23
100
AcDbEntity
  8
0
100
AcDbBlockBegin
  2
*Paper_Space0
 70
     0
 10
0.0
 20
0.0
 30
0.0
  3
*Paper_Space0
  1

  0
ENDBLK
  5
25
330
23
100
AcDbEntity
  8
0
100
AcDbBlockEnd
  0
BLOCK
  5
48
330
47
100
AcDbEntity
  8
0
100
AcDbBlockBegin
  2
WP_GR_HF_IP66_PG16_BK-select__1
 70
     0
 10
-914.599657597745
 20
-1116.986076467991
 30
0.0
  3
WP_GR_HF_IP66_PG16_BK-select__1
  1

  0
LINE
  5
87
330
47
100
AcDbEntity
  8
0
  6
Continuous
 62
     7
100
AcDbLine
 10
-908.6697522719315
 20
-1102.921341611783
 30
0.0
 11
-911.2678284832848
 21
-1102.171341611783
 31
0.0
  0
LINE
  5
88
330
47
100
AcDbEntity
  8
0
  6
Continuous
 62
     7
100
AcDbLine
 10
-900.2588526187617
 20
-1093.678655615721
 30
0.0
 11
-907.6200685509294
 21
-1091.553655615721
 31
0.0
  0
LINE
  5
89
330
47
100
AcDbEntity
  8
0
  6
Continuous
 62
     7
100
AcDbLine
 10
-907.3537270802819
 20
-1099.983251173903
 30
0.0
 11
-907.6200685509294
 21
-1100.213909653565
 31
0.0
  0
LINE
  5
8A
330
47
100
AcDbEntity
  8
0
  6
Continuous
 62
     7
100
AcDbLine
 10
-900.2588526187617
 20
-1102.338909653565
 30
0.0
 11
-907.6200685509294
 21
-1100.213909653565
 31
0.0
  0
LINE
  5
8B
330
47
100
AcDbEntity
  8
0
  6
Continuous
 62
     7
100
AcDbLine
 10
-907.3537270802819
 20
-1099.983251173903
 30
0.0
 11
-900.337455991784
 21
-1102.008674174729
 31
0.0
  0
LINE
  5
8C
330
47
100
AcDbEntity
  8
0
  6
Continuous
 62
     7
100
AcDbLine
 10
-890.8205080755727
 20
-1077.81737122135
 30
0.0
 11
-898.1817240077404
 21
-1075.69237122135
 31
0.0
  0
LINE
  5
8D
330
47
100
AcDbEntity
  8
0
  6
Continuous
 62
     7
100
AcDbLine
 10
-898.1817240077404
 20
-1076.153688180674
 30
0.0
 11
-891.5523678204745
 21
-1078.06741847031
 31
0.0
  0
LINE
  5
8E
330
47
100
AcDbEntity
  8
0
  6
Continuous
 62
     7
100
AcDbLine
 10
-898.1817240077404
 20
-1075.69237122135
 30
0.0
 11
-898.1817240077404
 21
-1076.153688180674
 31
0.0
  0
LINE
  5
8F
330
47
100
AcDbEntity
  8
0
  6
Continuous
 62
     7
100
AcDbLine
 10
-884.4664544075972
 20
-1079.203658388282
 30
0.0
 11
-900.0549116757171
 21
-1074.703658388282
 31
0.0
  0
LINE
  5
90
330
47
100
AcDbEntity
  8
0
  6
Continuous
 62
     7
100
AcDbLine
 10
-857.8776405304749
 20
-1088.607427716731
 30
0.0
 11
-852.7313433179153
 21
-1089.296900807789
 31
0.0
  0
LINE
  5
91
330
47
100
AcDbEntity
  8
0
  6
Continuous
 62
     7
100
AcDbLine
 10
-852.6814881077682
 20
-1090.107427716731
 30
0.0
 11
-857.8776405304749
 21
-1088.607427716731
 31
0.0
  0
LINE
  5
92
330
47
100
AcDbEntity
  8
0
  6
Continuous
 62
     7
100
AcDbLine
 10
-847.5351908952086
 20
-1090.796900807789
 30
0.0
 11
-852.7313433179153
 21
-1089.296900807789
 31
0.0
  0
LINE
  5
93
330
47
100
AcDbEntity
  8
0
  6
Continuous
 62
     7
100
AcDbLine
 10
-861.2890075780207
 20
-1086.664627391177
 30
0.0
 11
-877.3104775480328
 21
-1082.039627391177
 31
0.0
  0
LINE
  5
94
330
47
100
AcDbEntity
  8
0
  6
Continuous
 62
     7
100
AcDbLine
 10
-859.4314881077685
 20
-1101.099396404836
 30
0.0
 11
-864.627640530475
 21
-1099.599396404836
 31
0.0
  0
LINE
  5
95
330
47
100
AcDbEntity
  8
0
  6
Continuous
 62
     7
100
AcDbLine
 10
-860.2333395014884
 20
-1104.199374263018
 30
0.0
 11
-865.4294919241951
 21
-1102.699374263018
 31
0.0
  0
LINE
  5
96
330
47
100
AcDbEntity
  8
0
  6
Continuous
 62
     7
100
AcDbLine
 10
-865.4294919241951
 20
-1111.760814088514
 30
0.0
 11
-868.2948710563454
 21
-1110.933650381876
 31
0.0
  0
LINE
  5
97
330
47
100
AcDbEntity
  8
0
  6
Continuous
 62
     7
100
AcDbLine
 10
-854.2851908952086
 20
-1116.892572283334
 30
0.0
 11
-859.4314881077685
 21
-1116.203099192276
 31
0.0
  0
LINE
  5
98
330
47
100
AcDbEntity
  8
0
  6
Continuous
 62
     7
100
AcDbLine
 10
-887.1464958277312
 20
-1108.199811062965
 30
0.0
 11
-894.5077117598989
 21
-1106.074811062965
 31
0.0
  0
LINE
  5
99
330
47
100
AcDbEntity
  8
0
  6
Continuous
 62
     7
100
AcDbLine
 10
-892.6482823019194
 20
-1107.546341611783
 30
0.0
 11
-908.2367395700393
 21
-1103.046341611783
 31
0.0
  0
LINE
  5
9A
330
47
100
AcDbEntity
  8
0
  6
Continuous
 62
     7
100
AcDbLine
 10
-887.9446553815806
 20
-1106.496558851324
 30
0.0
 11
-895.3058713137483
 21
-1104.371558851324
 31
0.0
  0
LINE
  5
9B
330
47
100
AcDbEntity
  8
0
  6
Continuous
 62
     7
100
AcDbLine
 10
-860.2333395014884
 20
-1114.491968688137
 30
0.0
 11
-860.2333395014884
 21
-1104.199374263018
 31
0.0
  0
LINE
  5
9C
330
47
100
AcDbEntity
  8
0
  6
Continuous
 62
     7
100
AcDbLine
 10
-859.4314881077685
 20
-1116.203099192276
 30
0.0
 11
-864.627640530475
 21
-1114.703099192276
 31
0.0
  0
LINE
  5
9D
330
47
100
AcDbEntity
  8
0
  6
Continuous
 62
     7
100
AcDbLine
 10
-860.2333395014884
 20
-1114.491968688137
 30
0.0
 11
-865.4294919241951
 21
-1112.991968688137
 31
0.0
  0
LINE
  5
9E
330
47
100
AcDbEntity
  8
0
  6
Continuous
 62
     7
100
AcDbLine
 10
-852.6523058051077
 20
-1115.449270011185
 30
0.0
 11
-852.6814881077682
 21
-1115.503724929291
 31
0.0
  0
LINE
  5
9F
330
47
100
AcDbEntity
  8
0
  6
Continuous
 62
     7
100
AcDbLine
 10
-887.9446553815806
 20
-1104.597557816523
 30
0.0
 11
-887.9446553815806
 21
-1106.496558851324
 31
0.0
  0
LINE
  5
A0
330
47
100
AcDbEntity
  8
0
  6
Continuous
 62
     7
100
AcDbLine
 10
-887.1464958277312
 20
-1108.199811062965
 30
0.0
 11
-886.1969953103305
 21
-1108.32702001139
 31
0.0
  0
LINE
  5
A1
330
47
100
AcDbEntity
  8
0
  6
Continuous
 62
     7
100
AcDbLine
 10
-895.3058713137483
 20
-1104.371558851324
 30
0.0
 11
-895.3058713137483
 21
-1094.06719114874
 31
0.0
  0
LINE
  5
A2
330
47
100
AcDbEntity
  8
0
  6
Continuous
 62
     7
100
AcDbLine
 10
-865.4294919241951
 20
-1112.991968688137
 30
0.0
 11
-865.4294919241951
 21
-1102.699374263018
 31
0.0
  0
LINE
  5
A3
330
47
100
AcDbEntity
  8
0
  6
Continuous
 62
     7
100
AcDbLine
 10
-887.9446553815806
 20
-1096.19219114874
 30
0.0
 11
-895.3058713137483
 21
-1094.06719114874
 31
0.0
  0
LINE
  5
A4
330
47
100
AcDbEntity
  8
0
  6
Continuous
 62
     7
100
AcDbLine
 10
-841.7028968598772
 20
-1095.191349618189
 30
0.0
 11
-850.3631508977217
 21
-1092.691349618189
 31
0.0
  0
LINE
  5
A5
330
47
100
AcDbEntity
  8
0
  6
Continuous
 62
     7
100
AcDbLine
 10
-852.6814881077682
 20
-1090.107427716731
 30
0.0
 11
-847.5351908952086
 21
-1090.796900807789
 31
0.0
  0
LINE
  5
A6
330
47
100
AcDbEntity
  8
0
  6
Continuous
 62
     7
100
AcDbLine
 10
-846.7333395014884
 20
-1092.508031311928
 30
0.0
 11
-846.7333395014884
 21
-1093.73918591155
 31
0.0
  0
LINE
  5
A7
330
47
100
AcDbEntity
  8
0
  6
Continuous
 62
     7
100
AcDbLine
 10
-887.9446553815806
 20
-1096.19219114874
 30
0.0
 11
-887.9446553815806
 21
-1098.091192183541
 31
0.0
  0
LINE
  5
A8
330
47
100
AcDbEntity
  8
0
  6
Continuous
 62
     7
100
AcDbLine
 10
-854.2851908952086
 20
-1091.496275070774
 30
0.0
 11
-859.4813433179154
 21
-1089.996275070774
 31
0.0
  0
LINE
  5
A9
330
47
100
AcDbEntity
  8
0
  6
Continuous
 62
     7
100
AcDbLine
 10
-886.1969953103305
 20
-1091.334693950909
 30
0.0
 11
-887.1464958277312
 21
-1093.106486037286
 31
0.0
  0
LINE
  5
AA
330
47
100
AcDbEntity
  8
0
  6
Continuous
 62
     7
100
AcDbLine
 10
-859.510525620576
 20
-1090.05072998888
 30
0.0
 11
-862.0544938488115
 21
-1089.316349618189
 31
0.0
  0
LINE
  5
AB
330
47
100
AcDbEntity
  8
0
  6
Continuous
 62
     7
100
AcDbLine
 10
-887.1464958277312
 20
-1093.106486037286
 30
0.0
 11
-894.5077117598989
 21
-1090.981486037286
 31
0.0
  0
LINE
  5
AC
330
47
100
AcDbEntity
  8
0
  6
Continuous
 62
     7
100
AcDbLine
 10
-859.4314881077685
 20
-1101.099396404836
 30
0.0
 11
-854.2851908952086
 21
-1091.496275070774
 31
0.0
  0
LINE
  5
AD
330
47
100
AcDbEntity
  8
0
  6
Continuous
 62
     7
100
AcDbLine
 10
-864.627640530475
 20
-1099.599396404836
 30
0.0
 11
-859.4813433179154
 21
-1089.996275070774
 31
0.0
  0
LINE
  5
AE
330
47
100
AcDbEntity
  8
0
  6
Continuous
 62
     7
100
AcDbLine
 10
-847.943274067411
 20
-1116.808650381876
 30
0.0
 11
-856.6035281052555
 21
-1114.308650381876
 31
0.0
  0
LINE
  5
AF
330
47
100
AcDbEntity
  8
0
  6
Continuous
 62
     7
100
AcDbLine
 10
-869.0603573271362
 20
-1113.585372608888
 30
0.0
 11
-885.0818272971483
 21
-1108.960372608888
 31
0.0
  0
LINE
  5
B0
330
47
100
AcDbEntity
  8
0
  6
Continuous
 62
     7
100
AcDbLine
 10
-887.7592088009085
 20
-1079.984927185994
 30
0.0
 11
-882.6070249496177
 21
-1080.6751889371
 31
0.0
  0
LINE
  5
B1
330
47
100
AcDbEntity
  8
0
  6
Continuous
 62
     7
100
AcDbLine
 10
-880.3979928687409
 20
-1082.109927185994
 30
0.0
 11
-887.7592088009085
 21
-1079.984927185994
 31
0.0
  0
LINE
  5
B2
330
47
100
AcDbEntity
  8
0
  6
Continuous
 62
     7
100
AcDbLine
 10
-895.8205080755727
 20
-1082.147498240272
 30
0.0
 11
-903.1817240077404
 21
-1080.022498240272
 31
0.0
  0
LINE
  5
B3
330
47
100
AcDbEntity
  8
0
  6
Continuous
 62
     7
100
AcDbLine
 10
-894.5077117598989
 20
-1090.981486037286
 30
0.0
 11
-889.3555279086081
 21
-1081.367380085809
 31
0.0
  0
LINE
  5
B4
330
47
100
AcDbEntity
  8
0
  6
Continuous
 62
     7
100
AcDbLine
 10
-900.4879243776094
 20
-1074.578658388282
 30
0.0
 11
-903.0860005889627
 21
-1073.828658388282
 31
0.0
  0
LINE
  5
B5
330
47
100
AcDbEntity
  8
0
  6
Continuous
 62
     7
100
AcDbLine
 10
-881.9943119764403
 20
-1083.492380085809
 30
0.0
 11
-882.943812493841
 21
-1085.264172172185
 31
0.0
  0
LINE
  5
B6
330
47
100
AcDbEntity
  8
0
  6
Continuous
 62
     7
100
AcDbLine
 10
-879.4484923513401
 20
-1082.23713613442
 30
0.0
 11
-880.3979928687409
 21
-1082.109927185994
 31
0.0
  0
LINE
  5
B7
330
47
100
AcDbEntity
  8
0
  6
Continuous
 62
     7
100
AcDbLine
 10
-881.9943119764403
 20
-1083.492380085809
 30
0.0
 11
-889.3555279086081
 21
-1081.367380085809
 31
0.0
  0
LINE
  5
B8
330
47
100
AcDbEntity
  8
0
  6
Continuous
 62
     7
100
AcDbLine
 10
-878.2274440206871
 20
-1081.939465051227
 30
0.0
 11
-882.6070249496177
 21
-1080.6751889371
 31
0.0
  0
SPLINE
  5
B9
330
47
100
AcDbEntity
  8
0
  6
Continuous
 62
     7
100
AcDbSpline
210
0.0
220
0.0
230
1.0
 70
     8
 71
     3
 72
    11
 73
     7
 74
     5
 42
0.000000001
 43
0.0000000001
 44
0.00000001
 40
0.0
 40
0.0
 40
0.0
 40
0.0
 40
2.044217672030178
 40
3.853296433826955
 40
5.413872384962878
 40
6.742737137862131
 40
6.742737137862131
 40
6.742737137862131
 40
6.742737137862131
 10
-903.1817240077404
 20
-1080.022498240272
 30
0.0
 10
-902.7860869142683
 20
-1079.466098624733
 30
0.0
 10
-902.040321409863
 20
-1078.417300022535
 30
0.0
 10
-900.7720441435381
 20
-1077.129667468993
 30
0.0
 10
-899.5160378528599
 20
-1076.160019431614
 30
0.0
 10
-898.6020640386029
 20
-1075.839691326732
 30
0.0
 10
-898.1817240077404
 20
-1075.69237122135
 30
0.0
 11
-903.1817240077404
 21
-1080.022498240272
 31
0.0
 11
-901.9506475380382
 21
-1078.390543399012
 31
0.0
 11
-900.6817240077405
 21
-1077.101125294212
 31
0.0
 11
-899.4128004774427
 21
-1076.192703373617
 31
0.0
 11
-898.1817240077404
 21
-1075.69237122135
 31
0.0
  0
SPLINE
  5
BA
330
47
100
AcDbEntity
  8
0
  6
Continuous
 62
     7
100
AcDbSpline
210
0.0
220
0.0
230
1.0
 70
     8
 71
     3
 72
    11
 73
     7
 74
     5
 42
0.000000001
 43
0.0000000001
 44
0.00000001
 40
0.0
 40
0.0
 40
0.0
 40
0.0
 40
1.962671222624341
 40
3.959608833027281
 40
5.956546443429878
 40
7.919217666054394
 40
7.919217666054394
 40
7.919217666054394
 40
7.919217666054394
 10
-908.9626918290763
 20
-1083.373614004826
 30
0.0
 10
-909.2119015197542
 20
-1083.978794294699
 30
0.0
 10
-909.7146718531419
 20
-1085.199720756805
 30
0.0
 10
-910.3160970641235
 20
-1087.093796061244
 30
0.0
 10
-910.8166248581085
 20
-1089.016997941115
 30
0.0
 10
-911.041882780526
 20
-1090.31803533581
 30
0.0
 10
-911.1535370452754
 20
-1090.962924456777
 30
0.0
 11
-908.9626918290763
 21
-1083.373614004826
 31
0.0
 11
-909.6850211661841
 21
-1085.198530073585
 31
0.0
 11
-910.2991840983431
 21
-1087.098678413917
 31
0.0
 11
-910.7921703764774
 21
-1089.03380744116
 31
0.0
 11
-911.1535370452754
 21
-1090.962924456777
 31
0.0
  0
SPLINE
  5
BB
330
47
100
AcDbEntity
  8
0
  6
Continuous
 62
     7
100
AcDbSpline
210
0.0
220
0.0
230
1.0
 70
     8
 71
     3
 72
    11
 73
     7
 74
     5
 42
0.000000001
 43
0.0000000001
 44
0.00000001
 40
0.0
 40
0.0
 40
0.0
 40
0.0
 40
1.878011029569374
 40
3.983476614047023
 40
6.279201770177928
 40
8.716386575305943
 40
8.716386575305943
 40
8.716386575305943
 40
8.716386575305943
 10
-907.6200685509294
 20
-1100.213909653565
 30
0.0
 10
-907.7450159467419
 20
-1099.599559586705
 30
0.0
 10
-908.0100436770695
 20
-1098.296452687688
 30
0.0
 10
-908.0861810363855
 20
-1096.197449244098
 30
0.0
 10
-907.9847677410153
 20
-1093.917557460134
 30
0.0
 10
-907.74403335046
 20
-1092.357168796405
 30
0.0
 10
-907.6200685509294
 20
-1091.553655615721
 30
0.0
 11
-907.6200685509294
 21
-1100.213909653565
 31
0.0
 11
-907.946739882985
 21
-1098.364528332287
 31
0.0
 11
-908.0567240077404
 21
-1096.261937352942
 31
0.0
 11
-907.946739882985
 21
-1093.968848281496
 31
0.0
 11
-907.6200685509294
 21
-1091.553655615721
 31
0.0
  0
SPLINE
  5
BC
330
47
100
AcDbEntity
  8
0
  6
Continuous
 62
     7
100
AcDbSpline
210
0.0
220
0.0
230
1.0
 70
     8
 71
     3
 72
    11
 73
     7
 74
     5
 42
0.000000001
 43
0.0000000001
 44
0.00000001
 40
0.0
 40
0.0
 40
0.0
 40
0.0
 40
1.808280318269145
 40
3.840757993960629
 40
6.06178700316519
 40
8.423952890833146
 40
8.423952890833146
 40
8.423952890833146
 40
8.423952890833146
 10
-907.3537270802819
 20
-1099.983251173903
 30
0.0
 10
-907.4801484470337
 20
-1099.39294762352
 30
0.0
 10
-907.7486653592824
 20
-1098.139152477898
 30
0.0
 10
-907.8356004408089
 20
-1096.113039550499
 30
0.0
 10
-907.7494301998736
 20
-1093.906869111927
 30
0.0
 10
-907.5225219151437
 20
-1092.39486009334
 30
0.0
 10
-907.4055740094614
 20
-1091.615574856349
 30
0.0
 11
-907.3537270802819
 21
-1099.983251173903
 31
0.0
 11
-907.685680117999
 21
-1098.205700923235
 31
0.0
 11
-907.8063181003306
 21
-1096.176806646523
 31
0.0
 11
-907.7120006383475
 21
-1093.957781166534
 31
0.0
 11
-907.4055740094614
 21
-1091.615574856349
 31
0.0
  0
SPLINE
  5
BD
330
47
100
AcDbEntity
  8
0
  6
Continuous
 62
     7
100
AcDbSpline
210
0.0
220
0.0
230
1.0
 70
     8
 71
     3
 72
    11
 73
     7
 74
     5
 42
0.000000001
 43
0.0000000001
 44
0.00000001
 40
0.0
 40
0.0
 40
0.0
 40
0.0
 40
1.878011029569374
 40
3.983476614047023
 40
6.279201770177928
 40
8.716386575305943
 40
8.716386575305943
 40
8.716386575305943
 40
8.716386575305943
 10
-900.2588526187617
 20
-1102.338909653565
 30
0.0
 10
-900.3838000145744
 20
-1101.724559586705
 30
0.0
 10
-900.6488277449017
 20
-1100.421452687687
 30
0.0
 10
-900.724965104218
 20
-1098.322449244098
 30
0.0
 10
-900.6235518088474
 20
-1096.042557460134
 30
0.0
 10
-900.3828174182922
 20
-1094.482168796406
 30
0.0
 10
-900.2588526187617
 20
-1093.678655615721
 30
0.0
 11
-900.2588526187617
 21
-1102.338909653565
 31
0.0
 11
-900.5855239508172
 21
-1100.489528332287
 31
0.0
 11
-900.6955080755727
 21
-1098.386937352942
 31
0.0
 11
-900.5855239508172
 21
-1096.093848281496
 31
0.0
 11
-900.2588526187617
 21
-1093.678655615721
 31
0.0
  0
SPLINE
  5
BE
330
47
100
AcDbEntity
  8
0
  6
Continuous
 62
     7
100
AcDbSpline
210
0.0
220
0.0
230
1.0
 70
     8
 71
     3
 72
     9
 73
     5
 74
     3
 42
0.000000001
 43
0.0000000001
 44
0.00000001
 40
0.0
 40
0.0
 40
0.0
 40
0.0
 40
0.1127144085709042
 40
0.2255806928376925
 40
0.2255806928376925
 40
0.2255806928376925
 40
0.2255806928376925
 10
-908.6697522719315
 20
-1102.921341611783
 30
0.0
 10
-908.6335408871774
 20
-1102.931395496773
 30
0.0
 10
-908.5610693201116
 20
-1102.951516794373
 30
0.0
 10
-908.4875055074026
 20
-1102.967180920137
 30
0.0
 10
-908.4506988347779
 20
-1102.975018246337
 30
0.0
 11
-908.6697522719315
 21
-1102.921341611783
 31
0.0
 11
-908.560845421248
 21
-1102.950390464076
 31
0.0
 11
-908.4506988347779
 21
-1102.975018246337
 31
0.0
  0
SPLINE
  5
BF
330
47
100
AcDbEntity
  8
0
  6
Continuous
 62
     7
100
AcDbSpline
210
0.0
220
0.0
230
1.0
 70
     8
 71
     3
 72
    23
 73
    19
 74
    17
 42
0.000000001
 43
0.0000000001
 44
0.00000001
 40
0.0
 40
0.0
 40
0.0
 40
0.0
 40
1.277855783447244
 40
2.740755763259824
 40
4.494948468254527
 40
6.568975177403098
 40
8.941077310423239
 40
11.55856910135691
 40
14.34933583869805
 40
17.22953372998323
 40
20.10973162126799
 40
22.90049835860896
 40
25.5179901495431
 40
27.89009228256288
 40
29.96411899171155
 40
31.71831169670634
 40
33.18121167651909
 40
34.45906745996649
 40
34.45906745996649
 40
34.45906745996649
 40
34.45906745996649
 10
-900.0549116757171
 20
-1074.703658388282
 30
0.0
 10
-900.4831272547282
 20
-1074.644313846945
 30
0.0
 10
-901.4015676056583
 20
-1074.517031188341
 30
0.0
 10
-902.8407433663888
 20
-1075.098541913182
 30
0.0
 10
-904.2733334598241
 20
-1076.130146004743
 30
0.0
 10
-905.6960237927125
 20
-1077.647756022062
 30
0.0
 10
-907.0580043175047
 20
-1079.573566946517
 30
0.0
 10
-908.3136228962802
 20
-1081.848505582251
 30
0.0
 10
-909.4151043280382
 20
-1084.386146751273
 30
0.0
 10
-910.3209377807847
 20
-1087.09239866671
 30
0.0
 10
-910.9967297255741
 20
-1089.86505784542
 30
0.0
 10
-911.4171141867403
 20
-1092.599314774099
 30
0.0
 10
-911.5670705589127
 20
-1095.193430596142
 30
0.0
 10
-911.4409646892965
 20
-1097.548815060791
 30
0.0
 10
-911.0459429171831
 20
-1099.591153364676
 30
0.0
 10
-910.3835330534691
 20
-1101.227531850843
 30
0.0
 10
-909.4756785237967
 20
-1102.486571860665
 30
0.0
 10
-908.6307028325095
 20
-1102.868343565395
 30
0.0
 10
-908.2367395700393
 20
-1103.046341611783
 30
0.0
 11
-900.0549116757171
 21
-1074.703658388282
 31
0.0
 11
-901.3306641525692
 21
-1074.630370969489
 31
0.0
 11
-902.7146014440459
 21
-1075.10449533056
 31
0.0
 11
-904.1535400112343
 21
-1076.107813744679
 31
0.0
 11
-905.5921821195224
 21
-1077.60176677883
 31
0.0
 11
-906.9752414242035
 21
-1079.528944892415
 31
0.0
 11
-908.249568129639
 21
-1081.815285792914
 31
0.0
 11
-909.3661899301388
 21
-1084.372928208086
 31
0.0
 11
-910.2821965436199
 21
-1087.103582298564
 31
0.0
 11
-910.962385293014
 21
-1089.902311142697
 31
0.0
 11
-911.3806181112586
 21
-1092.66156109132
 31
0.0
 11
-911.5208212383784
 21
-1095.275295268436
 31
0.0
 11
-911.3776081060987
 21
-1097.643070283189
 31
0.0
 11
-910.9564809557846
 21
-1099.673892458383
 31
0.0
 11
-910.27362477414
 21
-1101.289720257203
 31
0.0
 11
-909.3552801375002
 21
-1102.428456163749
 31
0.0
 11
-908.2367395700393
 21
-1103.046341611783
 31
0.0
  0
SPLINE
  5
C0
330
47
100
AcDbEntity
  8
0
  6
Continuous
 62
     7
100
AcDbSpline
210
0.0
220
0.0
230
1.0
 70
     8
 71
     3
 72
    11
 73
     7
 74
     5
 42
0.000000001
 43
0.0000000001
 44
0.00000001
 40
0.0
 40
0.0
 40
0.0
 40
0.0
 40
1.906305965253229
 40
3.591364994115793
 40
5.045724469622888
 40
6.288177033406816
 40
6.288177033406816
 40
6.288177033406816
 40
6.288177033406816
 10
-902.9204385235066
 20
-1080.097924862601
 30
0.0
 10
-902.5430188701065
 20
-1079.58516487735
 30
0.0
 10
-901.831983088749
 20
-1078.619156126148
 30
0.0
 10
-900.6281101969387
 20
-1077.440787297748
 30
0.0
 10
-899.4378997069884
 20
-1076.560813744217
 30
0.0
 10
-898.5779245381167
 20
-1076.282096458193
 30
0.0
 10
-898.1817240077404
 20
-1076.153688180674
 30
0.0
 11
-902.9204385235066
 21
-1080.097924862601
 31
0.0
 11
-901.747089611086
 21
-1078.595508558295
 31
0.0
 11
-900.5431942832074
 21
-1077.416500509947
 31
0.0
 11
-899.3432709232042
 21
-1076.594706481297
 31
0.0
 11
-898.1817240077404
 21
-1076.153688180674
 31
0.0
  0
SPLINE
  5
C1
330
47
100
AcDbEntity
  8
0
  6
Continuous
 62
     7
100
AcDbSpline
210
0.0
220
0.0
230
1.0
 70
     8
 71
     3
 72
    23
 73
    19
 74
    17
 42
0.000000001
 43
0.0000000001
 44
0.00000001
 40
0.0
 40
0.0
 40
0.0
 40
0.0
 40
1.277855783447244
 40
2.740755763259609
 40
4.494948468254312
 40
6.568975177402962
 40
8.941077310423037
 40
11.55856910135677
 40
14.34933583869795
 40
17.22953372998309
 40
20.10973162126788
 40
22.90049835860884
 40
25.51799014954299
 40
27.89009228256277
 40
29.96411899171147
 40
31.71831169670622
 40
33.18121167651904
 40
34.45906745996633
 40
34.45906745996633
 40
34.45906745996633
 40
34.45906745996633
 10
-903.0860005889627
 20
-1073.828658388282
 30
0.0
 10
-903.514216167974
 20
-1073.769313846945
 30
0.0
 10
-904.4326565189036
 20
-1073.642031188341
 30
0.0
 10
-905.8718322796344
 20
-1074.223541913182
 30
0.0
 10
-907.3044223730693
 20
-1075.255146004743
 30
0.0
 10
-908.7271127059581
 20
-1076.772756022062
 30
0.0
 10
-910.0890932307499
 20
-1078.698566946517
 30
0.0
 10
-911.3447118095256
 20
-1080.973505582251
 30
0.0
 10
-912.4461932412837
 20
-1083.511146751272
 30
0.0
 10
-913.3520266940303
 20
-1086.217398666711
 30
0.0
 10
-914.0278186388198
 20
-1088.99005784542
 30
0.0
 10
-914.448203099986
 20
-1091.724314774099
 30
0.0
 10
-914.598159472158
 20
-1094.318430596142
 30
0.0
 10
-914.472053602542
 20
-1096.673815060791
 30
0.0
 10
-914.0770318304283
 20
-1098.716153364676
 30
0.0
 10
-913.4146219667155
 20
-1100.352531850843
 30
0.0
 10
-912.5067674370418
 20
-1101.611571860665
 30
0.0
 10
-911.6617917457552
 20
-1101.993343565395
 30
0.0
 10
-911.2678284832848
 20
-1102.171341611783
 30
0.0
 11
-903.0860005889627
 21
-1073.828658388282
 31
0.0
 11
-904.3617530658148
 21
-1073.755370969489
 31
0.0
 11
-905.7456903572913
 21
-1074.22949533056
 31
0.0
 11
-907.1846289244797
 21
-1075.232813744679
 31
0.0
 11
-908.6232710327679
 21
-1076.72676677883
 31
0.0
 11
-910.006330337449
 21
-1078.653944892415
 31
0.0
 11
-911.2806570428845
 21
-1080.940285792914
 31
0.0
 11
-912.3972788433845
 21
-1083.497928208086
 31
0.0
 11
-913.3132854568654
 21
-1086.228582298564
 31
0.0
 11
-913.9934742062596
 21
-1089.027311142697
 31
0.0
 11
-914.4117070245043
 21
-1091.78656109132
 31
0.0
 11
-914.551910151624
 21
-1094.400295268436
 31
0.0
 11
-914.4086970193442
 21
-1096.768070283189
 31
0.0
 11
-913.98756986903
 21
-1098.798892458383
 31
0.0
 11
-913.3047136873855
 21
-1100.414720257203
 31
0.0
 11
-912.3863690507457
 21
-1101.553456163749
 31
0.0
 11
-911.2678284832848
 21
-1102.171341611783
 31
0.0
  0
SPLINE
  5
C2
330
47
100
AcDbEntity
  8
0
  6
Continuous
 62
     7
100
AcDbSpline
210
0.0
220
0.0
230
1.0
 70
     8
 71
     3
 72
    11
 73
     7
 74
     5
 42
0.000000001
 43
0.0000000001
 44
0.00000001
 40
0.0
 40
0.0
 40
0.0
 40
0.0
 40
2.044217672030178
 40
3.853296433826955
 40
5.41387238496297
 40
6.742737137862117
 40
6.742737137862117
 40
6.742737137862117
 40
6.742737137862117
 10
-895.8205080755727
 20
-1082.147498240272
 30
0.0
 10
-895.4248709821005
 20
-1081.591098624734
 30
0.0
 10
-894.6791054776951
 20
-1080.542300022535
 30
0.0
 10
-893.4108282113706
 20
-1079.254667468993
 30
0.0
 10
-892.1548219206923
 20
-1078.285019431614
 30
0.0
 10
-891.240848106435
 20
-1077.964691326732
 30
0.0
 10
-890.8205080755727
 20
-1077.81737122135
 30
0.0
 11
-895.8205080755727
 21
-1082.147498240272
 31
0.0
 11
-894.5894316058705
 21
-1080.515543399012
 31
0.0
 11
-893.3205080755728
 21
-1079.226125294212
 31
0.0
 11
-892.0515845452749
 21
-1078.317703373617
 31
0.0
 11
-890.8205080755727
 21
-1077.81737122135
 31
0.0
  0
SPLINE
  5
C3
330
47
100
AcDbEntity
  8
0
  6
Continuous
 62
     7
100
AcDbSpline
210
0.0
220
0.0
230
1.0
 70
     8
 71
     3
 72
     9
 73
     5
 74
     3
 42
0.000000001
 43
0.0000000001
 44
0.00000001
 40
0.0
 40
0.0
 40
0.0
 40
0.0
 40
0.112866284266625
 40
0.2255806928377762
 40
0.2255806928377762
 40
0.2255806928377762
 40
0.2255806928377762
 10
-900.2739651128707
 20
-1074.649981753727
 30
0.0
 10
-900.3092860349916
 20
-1074.636997636806
 30
0.0
 10
-900.3798803570311
 20
-1074.611046893619
 30
0.0
 10
-900.4519258706277
 20
-1074.589449703508
 30
0.0
 10
-900.4879243776094
 20
-1074.578658388282
 30
0.0
 11
-900.2739651128707
 21
-1074.649981753727
 31
0.0
 11
-900.380291169162
 21
-1074.612119266703
 31
0.0
 11
-900.4879243776094
 21
-1074.578658388282
 31
0.0
  0
SPLINE
  5
C4
330
47
100
AcDbEntity
  8
0
  6
Continuous
 62
     7
100
AcDbSpline
210
0.0
220
0.0
230
1.0
 70
     8
 71
     3
 72
     9
 73
     5
 74
     3
 42
0.000000001
 43
0.0000000001
 44
0.00000001
 40
0.0
 40
0.0
 40
0.0
 40
0.0
 40
1.01279433784
 40
2.124593019047178
 40
2.124593019047178
 40
2.124593019047178
 40
2.124593019047178
 10
-857.8776405304749
 20
-1088.607427716731
 30
0.0
 10
-858.1505973734583
 20
-1088.807076122151
 30
0.0
 10
-858.7231935745601
 20
-1089.225889308891
 30
0.0
 10
-859.2208958974627
 20
-1089.731624197243
 30
0.0
 10
-859.4813433179154
 20
-1089.996275070774
 30
0.0
 11
-857.8776405304749
 21
-1088.607427716731
 31
0.0
 11
-858.6794919241952
 21
-1089.22612531188
 31
0.0
 11
-859.4813433179154
 21
-1089.996275070774
 31
0.0
  0
SPLINE
  5
C5
330
47
100
AcDbEntity
  8
0
  6
Continuous
 62
     7
100
AcDbSpline
210
0.0
220
0.0
230
1.0
 70
     8
 71
     3
 72
     9
 73
     5
 74
     3
 42
0.000000001
 43
0.0000000001
 44
0.00000001
 40
0.0
 40
0.0
 40
0.0
 40
0.0
 40
0.9948343959027067
 40
1.894068612665343
 40
1.894068612665343
 40
1.894068612665343
 40
1.894068612665343
 10
-846.7333395014884
 20
-1092.508031311928
 30
0.0
 10
-846.8436477480965
 20
-1092.194226681485
 30
0.0
 10
-847.0536640148109
 20
-1091.596772979098
 30
0.0
 10
-847.3801753134677
 20
-1091.054399711818
 30
0.0
 10
-847.5351908952086
 20
-1090.796900807789
 30
0.0
 11
-846.7333395014884
 21
-1092.508031311928
 31
0.0
 11
-847.0964021574124
 21
-1091.581812663607
 31
0.0
 11
-847.5351908952086
 21
-1090.796900807789
 31
0.0
  0
SPLINE
  5
C6
330
47
100
AcDbEntity
  8
0
  6
Continuous
 62
     7
100
AcDbSpline
210
0.0
220
0.0
230
1.0
 70
     8
 71
     3
 72
    13
 73
     9
 74
     7
 42
0.000000001
 43
0.0000000001
 44
0.00000001
 40
0.0
 40
0.0
 40
0.0
 40
0.0
 40
2.028976643019795
 40
4.01653534173598
 40
5.932611071448483
 40
7.749437000185175
 40
9.442694145944724
 40
10.99290429956625
 40
10.99290429956625
 40
10.99290429956625
 40
10.99290429956625
 10
-894.5077117598989
 20
-1090.981486037286
 30
0.0
 10
-894.2966745933517
 20
-1090.338703198769
 30
0.0
 10
-893.8789081944135
 20
-1089.066258793227
 30
0.0
 10
-893.1182164690485
 20
-1087.238921326059
 30
0.0
 10
-892.2808048940276
 20
-1085.524182432345
 30
0.0
 10
-891.3683676506988
 20
-1083.961312977153
 30
0.0
 10
-890.4150766725363
 20
-1082.565230472843
 30
0.0
 10
-889.6981715858225
 20
-1081.754748621889
 30
0.0
 10
-889.3555279086081
 20
-1081.367380085809
 30
0.0
 11
-894.5077117598989
 21
-1090.981486037286
 31
0.0
 11
-893.8497857694898
 21
-1089.062142502747
 31
0.0
 11
-893.0906664302038
 21
-1087.225262700596
 31
0.0
 11
-892.2448683333259
 21
-1085.505968722224
 31
0.0
 11
-891.3285636148852
 21
-1083.937134083131
 31
0.0
 11
-890.3592723603301
 21
-1082.548755809004
 31
0.0
 11
-889.3555279086081
 21
-1081.367380085809
 31
0.0
  0
SPLINE
  5
C7
330
47
100
AcDbEntity
  8
0
  6
Continuous
 62
     7
100
AcDbSpline
210
0.0
220
0.0
230
1.0
 70
     8
 71
     3
 72
     9
 73
     5
 74
     3
 42
0.000000001
 43
0.0000000001
 44
0.00000001
 40
0.0
 40
0.0
 40
0.0
 40
0.0
 40
1.606020471536024
 40
3.202902156859475
 40
3.202902156859475
 40
3.202902156859475
 40
3.202902156859475
 10
-859.4314881077685
 20
-1101.099396404836
 30
0.0
 10
-859.5839058913355
 20
-1101.612776888762
 30
0.0
 10
-859.8878741317146
 20
-1102.63661655756
 30
0.0
 10
-860.11840363999
 20
-1103.67944685626
 30
0.0
 10
-860.2333395014884
 20
-1104.199374263018
 30
0.0
 11
-859.4314881077685
 21
-1101.099396404836
 31
0.0
 11
-859.8702768455646
 21
-1102.644312648306
 31
0.0
 11
-860.2333395014884
 21
-1104.199374263018
 31
0.0
  0
SPLINE
  5
C8
330
47
100
AcDbEntity
  8
0
  6
Continuous
 62
     7
100
AcDbSpline
210
0.0
220
0.0
230
1.0
 70
     8
 71
     3
 72
    11
 73
     7
 74
     5
 42
0.000000001
 43
0.0000000001
 44
0.00000001
 40
0.0
 40
0.0
 40
0.0
 40
0.0
 40
1.107869241390807
 40
2.086185653072042
 40
2.961141835450211
 40
3.777389126466748
 40
3.777389126466748
 40
3.777389126466748
 40
3.777389126466748
 10
-858.8649306577674
 20
-1089.390758616509
 30
0.0
 10
-859.0055407694512
 20
-1089.048014332218
 30
0.0
 10
-859.2703182367634
 20
-1088.402605853516
 30
0.0
 10
-859.8414060580001
 20
-1087.590506108944
 30
0.0
 10
-860.5047774260556
 20
-1086.972181276944
 30
0.0
 10
-861.0337181217458
 20
-1086.764745016122
 30
0.0
 10
-861.2890075780207
 20
-1086.664627391177
 30
0.0
 11
-858.8649306577674
 21
-1089.390758616509
 31
0.0
 11
-859.3255564921503
 21
-1088.383188224756
 31
0.0
 11
-859.8900736756568
 21
-1087.584174235232
 31
0.0
 11
-860.5484554313896
 21
-1087.00790885312
 31
0.0
 11
-861.2890075780207
 21
-1086.664627391177
 31
0.0
  0
SPLINE
  5
C9
330
47
100
AcDbEntity
  8
0
  6
Continuous
 62
     7
100
AcDbSpline
210
0.0
220
0.0
230
1.0
 70
     8
 71
     3
 72
    23
 73
    19
 74
    17
 42
0.000000001
 43
0.0000000001
 44
0.00000001
 40
0.0
 40
0.0
 40
0.0
 40
0.0
 40
0.9746357647467538
 40
2.09040693696087
 40
3.428350525922363
 40
5.010235304445295
 40
6.81946574527096
 40
8.815857789662248
 40
10.94440869157736
 40
13.14116979572544
 40
15.33793089987313
 40
17.46648180178826
 40
19.46287384617986
 40
21.27210428700484
 40
22.85398906552796
 40
24.19193265448985
 40
25.30770382670409
 40
26.28233959145068
 40
26.28233959145068
 40
26.28233959145068
 40
26.28233959145068
 10
-862.0544938488115
 20
-1089.316349618189
 30
0.0
 10
-862.3810989506801
 20
-1089.27108683253
 30
0.0
 10
-863.0816043023558
 20
-1089.174006841008
 30
0.0
 10
-864.1792807318884
 20
-1089.617531963542
 30
0.0
 10
-865.2719341929713
 20
-1090.404348645885
 30
0.0
 10
-866.3570369898738
 20
-1091.561847811061
 30
0.0
 10
-867.3958356955394
 20
-1093.030686652203
 30
0.0
 10
-868.3535108831537
 20
-1094.765809340721
 30
0.0
 10
-869.1936238399273
 20
-1096.701298368406
 30
0.0
 10
-869.8845137617652
 20
-1098.765388812934
 30
0.0
 10
-870.3999482960066
 20
-1100.880128865092
 30
0.0
 10
-870.7205805121043
 20
-1102.965579065512
 30
0.0
 10
-870.8349540160852
 20
-1104.944141981056
 30
0.0
 10
-870.7387715731338
 20
-1106.740621658037
 30
0.0
 10
-870.4374837800024
 20
-1108.298337313393
 30
0.0
 10
-869.932255919105
 20
-1109.546422601425
 30
0.0
 10
-869.2398244930881
 20
-1110.506707350099
 30
0.0
 10
-868.5953515100658
 20
-1110.797889160373
 30
0.0
 10
-868.2948710563454
 20
-1110.933650381876
 30
0.0
 11
-862.0544938488115
 21
-1089.316349618189
 31
0.0
 11
-863.027525398953
 21
-1089.260452434364
 31
0.0
 11
-864.0830707907571
 21
-1089.622072709758
 31
0.0
 11
-865.1805663081044
 21
-1090.387315567984
 31
0.0
 11
-866.2778357127307
 21
-1091.526771271997
 31
0.0
 11
-867.3327114535892
 21
-1092.996652884053
 31
0.0
 11
-868.3046555509552
 21
-1094.740472214942
 31
0.0
 11
-869.1563162462518
 21
-1096.691216429903
 31
0.0
 11
-869.8549653582288
 21
-1098.773918702302
 31
0.0
 11
-870.3737533874278
 21
-1100.90854239698
 31
0.0
 11
-870.6927445199872
 21
-1103.013055069659
 31
0.0
 11
-870.7996791084685
 21
-1105.006581136951
 31
0.0
 11
-870.6904487533399
 21
-1106.812511232949
 31
0.0
 11
-870.3692500793716
 21
-1108.361443400469
 31
0.0
 11
-869.8484275679475
 21
-1109.593854433468
 31
0.0
 11
-869.147995217968
 21
-1110.462381819816
 31
0.0
 11
-868.2948710563454
 21
-1110.933650381876
 31
0.0
  0
SPLINE
  5
CA
330
47
100
AcDbEntity
  8
0
  6
Continuous
 62
     7
100
AcDbSpline
210
0.0
220
0.0
230
1.0
 70
     8
 71
     3
 72
     9
 73
     5
 74
     3
 42
0.000000001
 43
0.0000000001
 44
0.00000001
 40
0.0
 40
0.0
 40
0.0
 40
0.0
 40
1.606020471536024
 40
3.2029021568595
 40
3.2029021568595
 40
3.2029021568595
 40
3.2029021568595
 10
-864.627640530475
 20
-1099.599396404836
 30
0.0
 10
-864.7800583140421
 20
-1100.112776888762
 30
0.0
 10
-865.0840265544208
 20
-1101.13661655756
 30
0.0
 10
-865.3145560626967
 20
-1102.17944685626
 30
0.0
 10
-865.4294919241951
 20
-1102.699374263018
 30
0.0
 11
-864.627640530475
 21
-1099.599396404836
 31
0.0
 11
-865.0664292682711
 21
-1101.144312648306
 31
0.0
 11
-865.4294919241951
 21
-1102.699374263018
 31
0.0
  0
SPLINE
  5
CB
330
47
100
AcDbEntity
  8
0
  6
Continuous
 62
     7
100
AcDbSpline
210
0.0
220
0.0
230
1.0
 70
     8
 71
     3
 72
     9
 73
     5
 74
     3
 42
0.000000001
 43
0.0000000001
 44
0.00000001
 40
0.0
 40
0.0
 40
0.0
 40
0.0
 40
1.598600935953862
 40
3.188147269085298
 40
3.188147269085298
 40
3.188147269085298
 40
3.188147269085298
 10
-887.1464958277312
 20
-1093.106486037286
 30
0.0
 10
-887.2981251374005
 20
-1093.617518013547
 30
0.0
 10
-887.600524896978
 20
-1094.63668744555
 30
0.0
 10
-887.8301626232316
 20
-1095.674672567385
 30
0.0
 10
-887.9446553815806
 20
-1096.19219114874
 30
0.0
 11
-887.1464958277312
 21
-1093.106486037286
 31
0.0
 11
-887.5830897669088
 21
-1094.644312648273
 31
0.0
 11
-887.9446553815806
 21
-1096.19219114874
 31
0.0
  0
SPLINE
  5
CC
330
47
100
AcDbEntity
  8
0
  6
Continuous
 62
     7
100
AcDbSpline
210
0.0
220
0.0
230
1.0
 70
     8
 71
     3
 72
     9
 73
     5
 74
     3
 42
0.000000001
 43
0.0000000001
 44
0.00000001
 40
0.0
 40
0.0
 40
0.0
 40
0.0
 40
0.9900145240428913
 40
1.885307724981002
 40
1.885307724981002
 40
1.885307724981002
 40
1.885307724981002
 10
-887.9446553815806
 20
-1106.496558851324
 30
0.0
 10
-887.8347426700642
 20
-1106.808784089377
 30
0.0
 10
-887.6254333143103
 20
-1107.403361876913
 30
0.0
 10
-887.3007033183787
 20
-1107.943371698984
 30
0.0
 10
-887.1464958277312
 20
-1108.199811062965
 30
0.0
 11
-887.9446553815806
 21
-1106.496558851324
 31
0.0
 11
-887.5830897669088
 21
-1107.41818733691
 31
0.0
 11
-887.1464958277312
 21
-1108.199811062965
 31
0.0
  0
SPLINE
  5
CD
330
47
100
AcDbEntity
  8
0
  6
Continuous
 62
     7
100
AcDbSpline
210
0.0
220
0.0
230
1.0
 70
     8
 71
     3
 72
    19
 73
    15
 74
    13
 42
0.000000001
 43
0.0000000001
 44
0.00000001
 40
0.0
 40
0.0
 40
0.0
 40
0.0
 40
1.108784334330434
 40
2.355253840133465
 40
3.825194592417587
 40
5.549368849991633
 40
7.520624537436383
 40
9.70763240382725
 40
12.0633385576074
 40
14.53047164390292
 40
17.04569883437735
 40
19.54320341189432
 40
21.95807528067498
 40
24.22976764930405
 40
24.22976764930405
 40
24.22976764930405
 40
24.22976764930405
 10
-861.2890075780207
 20
-1086.664627391177
 30
0.0
 10
-861.659102692733
 20
-1086.608160244798
 30
0.0
 10
-862.4452501083424
 20
-1086.488214051511
 30
0.0
 10
-863.6877846661525
 20
-1086.920486896947
 30
0.0
 10
-864.9343031281674
 20
-1087.724277333001
 30
0.0
 10
-866.1820456410662
 20
-1088.926219266303
 30
0.0
 10
-867.3946022062123
 20
-1090.471962244198
 30
0.0
 10
-868.5384877371783
 20
-1092.322327732214
 30
0.0
 10
-869.5776022493034
 20
-1094.418416624555
 30
0.0
 10
-870.4786471646423
 20
-1096.695171022965
 30
0.0
 10
-871.2145778771866
 20
-1099.080303153423
 30
0.0
 10
-871.7552194996359
 20
-1101.498108850397
 30
0.0
 10
-872.1078305339441
 20
-1103.871550716071
 30
0.0
 10
-872.1562246443644
 20
-1105.434101400325
 30
0.0
 10
-872.1796824525784
 20
-1106.191507953542
 30
0.0
 11
-861.2890075780207
 21
-1086.664627391177
 31
0.0
 11
-862.3946183270989
 21
-1086.58079664684
 31
0.0
 11
-863.5899604587894
 21
-1086.934128514016
 31
0.0
 11
-864.8364524113412
 21
-1087.71322005144
 31
0.0
 11
-866.0938613240316
 21
-1088.892923274494
 31
0.0
 11
-867.3216020458352
 21
-1090.435162459477
 31
0.0
 11
-868.4800472209303
 21
-1092.290157926532
 31
0.0
 11
-869.5318056607844
 21
-1094.398037350587
 31
0.0
 11
-870.4429304058608
 21
-1096.690764408908
 31
0.0
 11
-871.1840127459488
 21
-1099.094337745611
 31
0.0
 11
-871.7311335472159
 21
-1101.531177490901
 31
0.0
 11
-872.0666328146809
 21
-1103.922630267978
 31
0.0
 11
-872.1796824525784
 21
-1106.191507953542
 31
0.0
  0
SPLINE
  5
CE
330
47
100
AcDbEntity
  8
0
  6
Continuous
 62
     7
100
AcDbSpline
210
0.0
220
0.0
230
1.0
 70
     8
 71
     3
 72
    13
 73
     9
 74
     7
 42
0.000000001
 43
0.0000000001
 44
0.00000001
 40
0.0
 40
0.0
 40
0.0
 40
0.0
 40
0.8085121965035119
 40
1.701895225947748
 40
2.737102006989145
 40
3.939249082362978
 40
5.309986476725338
 40
6.835373181124751
 40
6.835373181124751
 40
6.835373181124751
 40
6.835373181124751
 10
-847.943274067411
 20
-1116.808650381876
 30
0.0
 10
-848.1944960098418
 20
-1116.703141421684
 30
0.0
 10
-848.7233110612434
 20
-1116.481048042209
 30
0.0
 10
-849.3441280574633
 20
-1115.778494528858
 30
0.0
 10
-849.8374798237406
 20
-1114.855302147833
 30
0.0
 10
-850.190104872336
 20
-1113.69842545744
 30
0.0
 10
-850.4104777066132
 20
-1112.346247132851
 30
0.0
 10
-850.4351110828669
 20
-1111.380206092541
 30
0.0
 10
-850.4480854636441
 20
-1110.87139289632
 30
0.0
 11
-847.943274067411
 21
-1116.808650381876
 31
0.0
 11
-848.6647119609335
 21
-1116.443658127339
 31
0.0
 11
-849.28330900783
 21
-1115.799087771068
 31
0.0
 11
-849.7825050024439
 21
-1114.892193928164
 31
0.0
 11
-850.1489366836862
 21
-1113.747254884205
 31
0.0
 11
-850.3727942913031
 21
-1112.394920319301
 31
0.0
 11
-850.4480854636441
 21
-1110.87139289632
 31
0.0
  0
SPLINE
  5
CF
330
47
100
AcDbEntity
  8
0
  6
Continuous
 62
     7
100
AcDbSpline
210
0.0
220
0.0
230
1.0
 70
     8
 71
     3
 72
     9
 73
     5
 74
     3
 42
0.000000001
 43
0.0000000001
 44
0.00000001
 40
0.0
 40
0.0
 40
0.0
 40
0.0
 40
1.01279433783991
 40
2.124593019047246
 40
2.124593019047246
 40
2.124593019047246
 40
2.124593019047246
 10
-854.2851908952086
 20
-1116.892572283334
 30
0.0
 10
-854.0122340522252
 20
-1116.692923877914
 30
0.0
 10
-853.4396378511237
 20
-1116.274110691174
 30
0.0
 10
-852.9419355282209
 20
-1115.768375802822
 30
0.0
 10
-852.6814881077682
 20
-1115.503724929291
 30
0.0
 11
-854.2851908952086
 21
-1116.892572283334
 31
0.0
 11
-853.4833395014884
 21
-1116.273874688185
 31
0.0
 11
-852.6814881077682
 21
-1115.503724929291
 31
0.0
  0
SPLINE
  5
D0
330
47
100
AcDbEntity
  8
0
  6
Continuous
 62
     7
100
AcDbSpline
210
0.0
220
0.0
230
1.0
 70
     8
 71
     3
 72
     9
 73
     5
 74
     3
 42
0.000000001
 43
0.0000000001
 44
0.00000001
 40
0.0
 40
0.0
 40
0.0
 40
0.0
 40
0.9948343959022419
 40
1.894068612665275
 40
1.894068612665275
 40
1.894068612665275
 40
1.894068612665275
 10
-865.4294919241951
 20
-1112.991968688137
 30
0.0
 10
-865.3191836775869
 20
-1113.30577331858
 30
0.0
 10
-865.1091674108725
 20
-1113.903227020966
 30
0.0
 10
-864.7826561122163
 20
-1114.445600288247
 30
0.0
 10
-864.627640530475
 20
-1114.703099192276
 30
0.0
 11
-865.4294919241951
 21
-1112.991968688137
 31
0.0
 11
-865.0664292682712
 21
-1113.918187336458
 31
0.0
 11
-864.627640530475
 21
-1114.703099192276
 31
0.0
  0
SPLINE
  5
D1
330
47
100
AcDbEntity
  8
0
  6
Continuous
 62
     7
100
AcDbSpline
210
0.0
220
0.0
230
1.0
 70
     8
 71
     3
 72
    13
 73
     9
 74
     7
 42
0.000000001
 43
0.0000000001
 44
0.00000001
 40
0.0
 40
0.0
 40
0.0
 40
0.0
 40
1.899614906900343
 40
3.606639875311796
 40
5.103713699902747
 40
6.392891211678918
 40
7.505450879508166
 40
8.512318069462644
 40
8.512318069462644
 40
8.512318069462644
 40
8.512318069462644
 10
-872.1796824525784
 20
-1106.191507953542
 30
0.0
 10
-872.1635250237371
 20
-1106.825149986465
 30
0.0
 10
-872.1328482604478
 20
-1108.028193094637
 30
0.0
 10
-871.8584106233768
 20
-1109.712105833948
 30
0.0
 10
-871.4192748967652
 20
-1111.152802939466
 30
0.0
 10
-870.8048874977362
 20
-1112.302485185327
 30
0.0
 10
-870.0317633998657
 20
-1113.177398497823
 30
0.0
 10
-869.3732123864959
 20
-1113.453978783633
 30
0.0
 10
-869.0603573271362
 20
-1113.585372608888
 30
0.0
 11
-872.1796824525784
 21
-1106.191507953542
 31
0.0
 11
-872.0859198459564
 21
-1108.088807437628
 31
0.0
 11
-871.8071425052708
 21
-1109.772914749122
 31
0.0
 11
-871.3508129182304
 21
-1111.198745505199
 31
0.0
 11
-870.7291475062714
 21
-1112.328130637562
 31
0.0
 11
-869.9587879838695
 21
-1113.130835587905
 31
0.0
 11
-869.0603573271362
 21
-1113.585372608888
 31
0.0
  0
SPLINE
  5
D2
330
47
100
AcDbEntity
  8
0
  6
Continuous
 62
     7
100
AcDbSpline
210
0.0
220
0.0
230
1.0
 70
     8
 71
     3
 72
     9
 73
     5
 74
     3
 42
0.000000001
 43
0.0000000001
 44
0.00000001
 40
0.0
 40
0.0
 40
0.0
 40
0.0
 40
0.9948343959022419
 40
1.89406861266522
 40
1.89406861266522
 40
1.89406861266522
 40
1.89406861266522
 10
-860.2333395014884
 20
-1114.491968688137
 30
0.0
 10
-860.1230312548802
 20
-1114.80577331858
 30
0.0
 10
-859.9130149881661
 20
-1115.403227020967
 30
0.0
 10
-859.5865036895096
 20
-1115.945600288247
 30
0.0
 10
-859.4314881077685
 20
-1116.203099192276
 30
0.0
 11
-860.2333395014884
 21
-1114.491968688137
 31
0.0
 11
-859.8702768455646
 21
-1115.418187336458
 31
0.0
 11
-859.4314881077685
 21
-1116.203099192276
 31
0.0
  0
SPLINE
  5
D3
330
47
100
AcDbEntity
  8
0
  6
Continuous
 62
     7
100
AcDbSpline
210
0.0
220
0.0
230
1.0
 70
     8
 71
     3
 72
    17
 73
    13
 74
    11
 42
0.000000001
 43
0.0000000001
 44
0.00000001
 40
0.0
 40
0.0
 40
0.0
 40
0.0
 40
1.371326299613599
 40
2.837179994284114
 40
4.343977349638553
 40
5.835060574680401
 40
7.254935753756216
 40
8.553640678894526
 40
9.69186361632404
 40
10.64820050948471
 40
11.43155157245985
 40
12.10085384171875
 40
12.10085384171875
 40
12.10085384171875
 40
12.10085384171875
 10
-841.3230854636441
 20
-1102.968911086787
 30
0.0
 10
-841.3401200423291
 20
-1103.426151302154
 30
0.0
 10
-841.3753634190084
 20
-1104.37214992529
 30
0.0
 10
-841.6268393366581
 20
-1105.802188855099
 30
0.0
 10
-842.0075741615261
 20
-1107.24200822821
 30
0.0
 10
-842.5178865553689
 20
-1108.625847504347
 30
0.0
 10
-843.1297815171258
 20
-1109.891681998955
 30
0.0
 10
-843.8161866584464
 20
-1110.98123803788
 30
0.0
 10
-844.5484577197844
 20
-1111.853434592364
 30
0.0
 10
-845.2940725950644
 20
-1112.456168178493
 30
0.0
 10
-846.0502745290264
 20
-1112.812216950588
 30
0.0
 10
-846.5392454211111
 20
-1112.752771593361
 30
0.0
 10
-846.7645361504324
 20
-1112.725382459846
 30
0.0
 11
-841.3230854636441
 21
-1102.968911086787
 31
0.0
 11
-841.4043267241811
 21
-1104.337828779849
 31
0.0
 11
-841.6442778765859
 21
-1105.783909863113
 31
0.0
 11
-842.0318006492063
 21
-1107.240022623585
 31
0.0
 11
-842.5489039347649
 21
-1108.63856950372
 31
0.0
 11
-843.171582862664
 21
-1109.914624548144
 31
0.0
 11
-843.8709299087886
 21
-1111.008949998267
 31
0.0
 11
-844.6144794220581
 21
-1111.870742070206
 31
0.0
 11
-845.3677131057609
 21
-1112.459995214964
 31
0.0
 11
-846.0956632259386
 21
-1112.749352271537
 31
0.0
 11
-846.7645361504324
 21
-1112.725382459846
 31
0.0
  0
SPLINE
  5
D4
330
47
100
AcDbEntity
  8
0
  6
Continuous
 62
     7
100
AcDbSpline
210
0.0
220
0.0
230
1.0
 70
     8
 71
     3
 72
    11
 73
     7
 74
     5
 42
0.000000001
 43
0.0000000001
 44
0.00000001
 40
0.0
 40
0.0
 40
0.0
 40
0.0
 40
1.227704293862885
 40
2.329564796271132
 40
3.309947675066366
 40
4.184257467552192
 40
4.184257467552192
 40
4.184257467552192
 40
4.184257467552192
 10
-887.9446553815806
 20
-1104.597557816523
 30
0.0
 10
-887.8586961944276
 20
-1104.998336298889
 30
0.0
 10
-887.6955889100313
 20
-1105.758812126676
 30
0.0
 10
-887.3008681376659
 20
-1106.791706558013
 30
0.0
 10
-886.8280086057221
 20
-1107.666877324073
 30
0.0
 10
-886.3991574999048
 20
-1108.115525439693
 30
0.0
 10
-886.1969953103305
 20
-1108.32702001139
 30
0.0
 11
-887.9446553815806
 21
-1104.597557816523
 31
0.0
 11
-887.6549210685358
 21
-1105.790584160623
 31
0.0
 11
-887.2626603761005
 21
-1106.820257953543
 31
0.0
 11
-886.7740999635807
 21
-1107.670234022407
 31
0.0
 11
-886.1969953103305
 21
-1108.32702001139
 31
0.0
  0
SPLINE
  5
D5
330
47
100
AcDbEntity
  8
0
  6
Continuous
 62
     7
100
AcDbSpline
210
0.0
220
0.0
230
1.0
 70
     8
 71
     3
 72
     9
 73
     5
 74
     3
 42
0.000000001
 43
0.0000000001
 44
0.00000001
 40
0.0
 40
0.0
 40
0.0
 40
0.0
 40
1.272089739639024
 40
2.409226321313577
 40
2.409226321313577
 40
2.409226321313577
 40
2.409226321313577
 10
-890.2906833219546
 20
-1107.292162314879
 30
0.0
 10
-890.69488571375
 20
-1107.446919390875
 30
0.0
 10
-891.4604095722223
 20
-1107.7400156913
 30
0.0
 10
-892.2673924798069
 20
-1107.608442955888
 30
0.0
 10
-892.6482823019194
 20
-1107.546341611783
 30
0.0
 11
-890.2906833219546
 21
-1107.292162314879
 31
0.0
 11
-891.5148489510343
 21
-1107.63803920451
 31
0.0
 11
-892.6482823019194
 21
-1107.546341611783
 31
0.0
  0
SPLINE
  5
D6
330
47
100
AcDbEntity
  8
0
  6
Continuous
 62
     7
100
AcDbSpline
210
0.0
220
0.0
230
1.0
 70
     8
 71
     3
 72
    11
 73
     7
 74
     5
 42
0.000000001
 43
0.0000000001
 44
0.00000001
 40
0.0
 40
0.0
 40
0.0
 40
0.0
 40
0.8444916323470111
 40
1.753626600400209
 40
2.77572165769062
 40
3.938103386028283
 40
3.938103386028283
 40
3.938103386028283
 40
3.938103386028283
 10
-869.0603573271362
 20
-1113.585372608888
 30
0.0
 10
-868.7813488094996
 20
-1113.63755102012
 30
0.0
 10
-868.2019744961156
 20
-1113.745901930874
 30
0.0
 10
-867.277413681902
 20
-1113.555465553202
 30
0.0
 10
-866.3279501062618
 20
-1113.138106187082
 30
0.0
 10
-865.7415312175194
 20
-1112.702466119068
 30
0.0
 10
-865.4294919241951
 20
-1112.470657718849
 30
0.0
 11
-869.0603573271362
 21
-1113.585372608888
 31
0.0
 11
-868.2222328859531
 21
-1113.688878852089
 31
0.0
 11
-867.326242768226
 21
-1113.53483955388
 31
0.0
 11
-866.3893996297284
 21
-1113.126179248843
 31
0.0
 11
-865.4294919241951
 21
-1112.470657718849
 31
0.0
  0
SPLINE
  5
D7
330
47
100
AcDbEntity
  8
0
  6
Continuous
 62
     7
100
AcDbSpline
210
0.0
220
0.0
230
1.0
 70
     8
 71
     3
 72
    23
 73
    19
 74
    17
 42
0.000000001
 43
0.0000000001
 44
0.00000001
 40
0.0
 40
0.0
 40
0.0
 40
0.0
 40
0.9746357647465268
 40
2.090406936960858
 40
3.428350525922165
 40
5.010235304445176
 40
6.819465745270841
 40
8.815857789662184
 40
10.9444086915773
 40
13.14116979572534
 40
15.33793089987303
 40
17.46648180178818
 40
19.46287384617978
 40
21.27210428700476
 40
22.85398906552786
 40
24.19193265448976
 40
25.30770382670399
 40
26.28233959145069
 40
26.28233959145069
 40
26.28233959145069
 40
26.28233959145069
 10
-850.3631508977217
 20
-1092.691349618189
 30
0.0
 10
-850.6897559995899
 20
-1092.646086832529
 30
0.0
 10
-851.3902613512658
 20
-1092.549006841008
 30
0.0
 10
-852.4879377807988
 20
-1092.992531963542
 30
0.0
 10
-853.5805912418809
 20
-1093.779348645885
 30
0.0
 10
-854.6656940387843
 20
-1094.936847811061
 30
0.0
 10
-855.7044927444492
 20
-1096.405686652202
 30
0.0
 10
-856.6621679320641
 20
-1098.140809340721
 30
0.0
 10
-857.5022808888373
 20
-1100.076298368406
 30
0.0
 10
-858.1931708106754
 20
-1102.140388812934
 30
0.0
 10
-858.7086053449167
 20
-1104.255128865092
 30
0.0
 10
-859.0292375610145
 20
-1106.340579065512
 30
0.0
 10
-859.1436110649956
 20
-1108.319141981056
 30
0.0
 10
-859.0474286220439
 20
-1110.115621658037
 30
0.0
 10
-858.7461408289126
 20
-1111.673337313393
 30
0.0
 10
-858.2409129680151
 20
-1112.921422601425
 30
0.0
 10
-857.5484815419982
 20
-1113.881707350098
 30
0.0
 10
-856.9040085589761
 20
-1114.172889160373
 30
0.0
 10
-856.6035281052555
 20
-1114.308650381876
 30
0.0
 11
-850.3631508977217
 21
-1092.691349618189
 31
0.0
 11
-851.3361824478629
 21
-1092.635452434364
 31
0.0
 11
-852.3917278396673
 21
-1092.997072709758
 31
0.0
 11
-853.4892233570143
 21
-1093.762315567984
 31
0.0
 11
-854.5864927616408
 21
-1094.901771271997
 31
0.0
 11
-855.6413685024993
 21
-1096.371652884053
 31
0.0
 11
-856.6133125998654
 21
-1098.115472214942
 31
0.0
 11
-857.4649732951619
 21
-1100.066216429903
 31
0.0
 11
-858.1636224071389
 21
-1102.148918702302
 31
0.0
 11
-858.6824104363378
 21
-1104.28354239698
 31
0.0
 11
-859.0014015688973
 21
-1106.388055069659
 31
0.0
 11
-859.1083361573786
 21
-1108.381581136951
 31
0.0
 11
-858.9991058022499
 21
-1110.187511232949
 31
0.0
 11
-858.6779071282817
 21
-1111.736443400469
 31
0.0
 11
-858.1570846168577
 21
-1112.968854433468
 31
0.0
 11
-857.4566522668781
 21
-1113.837381819816
 31
0.0
 11
-856.6035281052555
 21
-1114.308650381876
 31
0.0
  0
SPLINE
  5
D8
330
47
100
AcDbEntity
  8
0
  6
Continuous
 62
     7
100
AcDbSpline
210
0.0
220
0.0
230
1.0
 70
     8
 71
     3
 72
    13
 73
     9
 74
     7
 42
0.000000001
 43
0.0000000001
 44
0.00000001
 40
0.0
 40
0.0
 40
0.0
 40
0.0
 40
0.5030742536892748
 40
1.058957024750849
 40
1.703085687812659
 40
2.451088312400224
 40
3.303991580055667
 40
4.253121088575958
 40
4.253121088575958
 40
4.253121088575958
 40
4.253121088575958
 10
-842.8816347768558
 20
-1099.274617540219
 30
0.0
 10
-842.7253189021599
 20
-1099.340267559644
 30
0.0
 10
-842.396278429875
 20
-1099.478459000014
 30
0.0
 10
-842.0099922967042
 20
-1099.915603402364
 30
0.0
 10
-841.7030178634698
 20
-1100.49003421616
 30
0.0
 10
-841.4836067212392
 20
-1101.209868600653
 30
0.0
 10
-841.3464858477867
 20
-1102.051224004023
 30
0.0
 10
-841.3311584117135
 20
-1102.652316207951
 30
0.0
 10
-841.3230854636441
 20
-1102.968911086787
 30
0.0
 11
-842.8816347768558
 21
-1099.274617540219
 31
0.0
 11
-842.4327400875529
 21
-1099.501723831931
 31
0.0
 11
-842.0478352583729
 21
-1099.902789831388
 31
0.0
 11
-841.7372244172798
 21
-1100.467079333639
 31
0.0
 11
-841.5092224822847
 21
-1101.179485849881
 31
0.0
 11
-841.369933304212
 21
-1102.020938468043
 31
0.0
 11
-841.3230854636441
 21
-1102.968911086787
 31
0.0
  0
SPLINE
  5
D9
330
47
100
AcDbEntity
  8
0
  6
Continuous
 62
     7
100
AcDbSpline
210
0.0
220
0.0
230
1.0
 70
     8
 71
     3
 72
     9
 73
     5
 74
     3
 42
0.000000001
 43
0.0000000001
 44
0.00000001
 40
0.0
 40
0.0
 40
0.0
 40
0.0
 40
1.01279433784009
 40
2.124593019047104
 40
2.124593019047104
 40
2.124593019047104
 40
2.124593019047104
 10
-852.6814881077682
 20
-1090.107427716731
 30
0.0
 10
-852.9544449507516
 20
-1090.30707612215
 30
0.0
 10
-853.5270411518536
 20
-1090.725889308891
 30
0.0
 10
-854.024743474756
 20
-1091.231624197243
 30
0.0
 10
-854.2851908952086
 20
-1091.496275070774
 30
0.0
 11
-852.6814881077682
 21
-1090.107427716731
 31
0.0
 11
-853.4833395014887
 21
-1090.72612531188
 31
0.0
 11
-854.2851908952086
 21
-1091.496275070774
 31
0.0
  0
SPLINE
  5
DA
330
47
100
AcDbEntity
  8
0
  6
Continuous
 62
     7
100
AcDbSpline
210
0.0
220
0.0
230
1.0
 70
     8
 71
     3
 72
    11
 73
     7
 74
     5
 42
0.000000001
 43
0.0000000001
 44
0.00000001
 40
0.0
 40
0.0
 40
0.0
 40
0.0
 40
1.754018277225747
 40
3.519165126005956
 40
5.27269142635137
 40
6.992138844726759
 40
6.992138844726759
 40
6.992138844726759
 40
6.992138844726759
 10
-886.1969953103305
 20
-1091.334693950909
 30
0.0
 10
-886.395885729804
 20
-1091.884677188629
 30
0.0
 10
-886.7949284377746
 20
-1092.988133101135
 30
0.0
 10
-887.2747956798345
 20
-1094.680083142215
 30
0.0
 10
-887.6734738096657
 20
-1096.381229976825
 30
0.0
 10
-887.8548548018712
 20
-1097.524945719956
 30
0.0
 10
-887.9446553815806
 20
-1098.091192183541
 30
0.0
 11
-886.1969953103305
 21
-1091.334693950909
 31
0.0
 11
-886.7740999635806
 21
-1092.991054520606
 31
0.0
 11
-887.2626603761005
 21
-1094.687242046522
 31
0.0
 11
-887.6549210685358
 21
-1096.396331288552
 31
0.0
 11
-887.9446553815806
 21
-1098.091192183541
 31
0.0
  0
SPLINE
  5
DB
330
47
100
AcDbEntity
  8
0
  6
Continuous
 62
     7
100
AcDbSpline
210
0.0
220
0.0
230
1.0
 70
     8
 71
     3
 72
    19
 73
    15
 74
    13
 42
0.000000001
 43
0.0000000001
 44
0.00000001
 40
0.0
 40
0.0
 40
0.0
 40
0.0
 40
1.824164109523146
 40
3.763301049088328
 40
5.768791876832585
 40
7.788513924857599
 40
9.769616510230165
 40
11.66124350741057
 40
13.41740614107468
 40
15.00032023706895
 40
16.38482847400947
 40
17.56518775072125
 40
18.56610009547219
 40
19.45645153970411
 40
19.45645153970411
 40
19.45645153970411
 40
19.45645153970411
 10
-850.4480854636441
 20
-1110.87139289632
 30
0.0
 10
-850.4292488938589
 20
-1110.263197055292
 30
0.0
 10
-850.390388526256
 20
-1109.008472201169
 30
0.0
 10
-850.1072426216424
 20
-1107.102603464609
 30
0.0
 10
-849.6731085563698
 20
-1105.161110667275
 30
0.0
 10
-849.0821577701149
 20
-1103.245854673866
 30
0.0
 10
-848.3586206324749
 20
-1101.41762576722
 30
0.0
 10
-847.5242139042628
 20
-1099.734470875067
 30
0.0
 10
-846.6056762722254
 20
-1098.248631350454
 30
0.0
 10
-845.6319959467862
 20
-1097.007403049035
 30
0.0
 10
-844.6300613804467
 20
-1096.042246250663
 30
0.0
 10
-843.6291097244853
 20
-1095.39680425073
 30
0.0
 10
-842.6313571345302
 20
-1095.049690084942
 30
0.0
 10
-842.0000824438405
 20
-1095.146006620662
 30
0.0
 10
-841.7028968598772
 20
-1095.191349618189
 30
0.0
 11
-850.4480854636441
 21
-1110.87139289632
 31
0.0
 11
-850.3573068464887
 21
-1109.049488973222
 31
0.0
 11
-850.087901653128
 21
-1107.129157514113
 31
0.0
 11
-849.6485648212755
 21
-1105.172380416717
 31
0.0
 11
-849.0534772890851
 21
-1103.242316174183
 31
0.0
 11
-848.3218460698054
 21
-1101.401261255831
 31
0.0
 11
-847.4772862947618
 21
-1099.708638591976
 31
0.0
 11
-846.5470572997712
 21
-1098.219081204084
 31
0.0
 11
-845.5611841291579
 21
-1096.980666440981
 31
0.0
 11
-844.5514874647919
 21
-1096.033367279
 31
0.0
 11
-843.5505570960405
 21
-1095.407758442738
 31
0.0
 11
-842.5906999239121
 21
-1095.124033709996
 31
0.0
 11
-841.7028968598772
 21
-1095.191349618189
 31
0.0
  0
SPLINE
  5
DC
330
47
100
AcDbEntity
  8
0
  6
Continuous
 62
     7
100
AcDbSpline
210
0.0
220
0.0
230
1.0
 70
     8
 71
     3
 72
     9
 73
     5
 74
     3
 42
0.000000001
 43
0.0000000001
 44
0.00000001
 40
0.0
 40
0.0
 40
0.0
 40
0.0
 40
0.6313666926665373
 40
1.290834147857365
 40
1.290834147857365
 40
1.290834147857365
 40
1.290834147857365
 10
-885.0818272971483
 20
-1108.960372608888
 30
0.0
 10
-885.2814133978851
 20
-1108.888583914068
 30
0.0
 10
-885.6894687352624
 20
-1108.741811347501
 30
0.0
 10
-886.0253822370734
 20
-1108.467275958174
 30
0.0
 10
-886.1969953103305
 20
-1108.32702001139
 30
0.0
 11
-885.0818272971483
 21
-1108.960372608888
 31
0.0
 11
-885.6633268341207
 21
-1108.714441336894
 31
0.0
 11
-886.1969953103305
 21
-1108.32702001139
 31
0.0
  0
SPLINE
  5
DD
330
47
100
AcDbEntity
  8
0
  6
Continuous
 62
     7
100
AcDbSpline
210
0.0
220
0.0
230
1.0
 70
     8
 71
     3
 72
    11
 73
     7
 74
     5
 42
0.000000001
 43
0.0000000001
 44
0.00000001
 40
0.0
 40
0.0
 40
0.0
 40
0.0
 40
1.457859374834846
 40
3.045066397188238
 40
4.743767115936643
 40
6.531949946702885
 40
6.531949946702885
 40
6.531949946702885
 40
6.531949946702885
 10
-887.9446553815806
 20
-1104.597557816523
 30
0.0
 10
-888.018070164869
 20
-1104.116782220879
 30
0.0
 10
-888.1714133963146
 20
-1103.112574518136
 30
0.0
 10
-888.2188555448105
 20
-1101.528973187826
 30
0.0
 10
-888.1598162888829
 20
-1099.837185939847
 30
0.0
 10
-888.0175922963001
 20
-1098.683062660597
 30
0.0
 10
-887.9446553815806
 20
-1098.091192183541
 30
0.0
 11
-887.9446553815806
 21
-1104.597557816523
 31
0.0
 11
-888.1367319096023
 21
-1103.152407109464
 31
0.0
 11
-888.2011524225907
 21
-1101.566507953542
 31
0.0
 11
-888.1367319096023
 21
-1099.869029196076
 31
0.0
 11
-887.9446553815806
 21
-1098.091192183541
 31
0.0
  0
SPLINE
  5
DE
330
47
100
AcDbEntity
  8
0
  6
Continuous
 62
     7
100
AcDbSpline
210
0.0
220
0.0
230
1.0
 70
     8
 71
     3
 72
    13
 73
     9
 74
     7
 42
0.000000001
 43
0.0000000001
 44
0.00000001
 40
0.0
 40
0.0
 40
0.0
 40
0.0
 40
1.405394099274315
 40
2.966007432848966
 40
4.668510309806776
 40
6.493036480478459
 40
8.414987364414616
 40
10.40640173046114
 40
10.40640173046114
 40
10.40640173046114
 40
10.40640173046114
 10
-895.3058713137483
 20
-1104.371558851324
 30
0.0
 10
-895.4320748798739
 20
-1103.919828201603
 30
0.0
 10
-895.698420593722
 20
-1102.966475351597
 30
0.0
 10
-895.887757297009
 20
-1101.416882839869
 30
0.0
 10
-895.9568013211197
 20
-1099.721354837184
 30
0.0
 10
-895.8797250239818
 20
-1097.904852480742
 30
0.0
 10
-895.6743074712856
 20
-1096.001358313111
 30
0.0
 10
-895.4301281248114
 20
-1094.719498012511
 30
0.0
 10
-895.3058713137483
 20
-1094.06719114874
 30
0.0
 11
-895.3058713137483
 21
-1104.371558851324
 31
0.0
 11
-895.6516897750611
 21
-1103.009375981787
 31
0.0
 11
-895.8618616903303
 21
-1101.462979605731
 31
0.0
 11
-895.9323683118935
 21
-1099.76193731582
 31
0.0
 11
-895.8618616903303
 21
-1097.938773975093
 31
0.0
 11
-895.6516897750611
 21
-1096.028349163467
 31
0.0
 11
-895.3058713137483
 21
-1094.06719114874
 31
0.0
  0
SPLINE
  5
DF
330
47
100
AcDbEntity
  8
0
  6
Continuous
 62
     7
100
AcDbSpline
210
0.0
220
0.0
230
1.0
 70
     8
 71
     3
 72
     9
 73
     5
 74
     3
 42
0.000000001
 43
0.0000000001
 44
0.00000001
 40
0.0
 40
0.0
 40
0.0
 40
0.0
 40
1.137136581675028
 40
2.409226321313786
 40
2.409226321313786
 40
2.409226321313786
 40
2.409226321313786
 10
-892.6482823019194
 20
-1107.546341611783
 30
0.0
 10
-893.0036699000788
 20
-1107.395897972491
 30
0.0
 10
-893.7566217949964
 20
-1107.077156318832
 30
0.0
 10
-894.2481703879045
 20
-1106.421174459309
 30
0.0
 10
-894.5077117598989
 20
-1106.074811062965
 30
0.0
 11
-892.6482823019194
 21
-1107.546341611783
 31
0.0
 11
-893.6562104879099
 21
-1107.019881374636
 31
0.0
 11
-894.5077117598989
 21
-1106.074811062965
 31
0.0
  0
SPLINE
  5
E0
330
47
100
AcDbEntity
  8
0
  6
Continuous
 62
     7
100
AcDbSpline
210
0.0
220
0.0
230
1.0
 70
     8
 71
     3
 72
    21
 73
    17
 74
    15
 42
0.000000001
 43
0.0000000001
 44
0.00000001
 40
0.0
 40
0.0
 40
0.0
 40
0.0
 40
0.6969406570101965
 40
1.520634141214891
 40
2.533445917935214
 40
3.741287390792936
 40
5.116779271186147
 40
6.613205613382855
 40
8.172704907113225
 40
9.732204200843757
 40
11.22863054304048
 40
12.60412242343402
 40
13.81196389629129
 40
14.82477567301173
 40
15.6484691572167
 40
16.34540981422689
 40
16.34540981422689
 40
16.34540981422689
 40
16.34540981422689
 10
-846.7645361504324
 20
-1112.725382459846
 30
0.0
 10
-846.9776893097492
 20
-1112.622801969191
 30
0.0
 10
-847.4427618534032
 20
-1112.398984627654
 30
0.0
 10
-847.8994229049634
 20
-1111.645821293871
 30
0.0
 10
-848.204949091625
 20
-1110.679480634103
 30
0.0
 10
-848.3424867072132
 20
-1109.48019984407
 30
0.0
 10
-848.3129741083135
 20
-1108.118433296904
 30
0.0
 10
-848.1153075477778
 20
-1106.651492538671
 30
0.0
 10
-847.7591463541065
 20
-1105.1524322273
 30
0.0
 10
-847.2616062493956
 20
-1103.694184492102
 30
0.0
 10
-846.6470730544789
 20
-1102.347582765656
 30
0.0
 10
-845.9463071465512
 20
-1101.179590357821
 30
0.0
 10
-845.1907860069373
 20
-1100.238113424148
 30
0.0
 10
-844.4172635043349
 20
-1099.583267289987
 30
0.0
 10
-843.629468103627
 20
-1099.18934759006
 30
0.0
 10
-843.1166642567949
 20
-1099.247818847164
 30
0.0
 10
-842.8816347768558
 20
-1099.274617540219
 30
0.0
 11
-846.7645361504324
 21
-1112.725382459846
 31
0.0
 11
-847.3638797898346
 21
-1112.369695108646
 31
0.0
 11
-847.8358179159522
 21
-1111.694605959979
 31
0.0
 11
-848.1566844359048
 21
-1110.733964316205
 31
0.0
 11
-848.3103910705537
 21
-1109.535942909986
 31
0.0
 11
-848.2892289216103
 21
-1108.160613832684
 31
0.0
 11
-848.0942605807102
 21
-1106.676943001183
 31
0.0
 11
-847.7352611860058
 21
-1105.159327281416
 31
0.0
 11
-847.2302337406016
 21
-1103.68386622884
 31
0.0
 11
-846.604501333096
 21
-1102.324546272245
 31
0.0
 11
-845.8894416625053
 21
-1101.149528155399
 31
0.0
 11
-845.1209102196096
 21
-1100.217733950343
 31
0.0
 11
-844.3374446612243
 21
-1099.575885517921
 31
0.0
 11
-843.5783312606233
 21
-1099.256170334422
 31
0.0
 11
-842.8816347768558
 21
-1099.274617540219
 31
0.0
  0
SPLINE
  5
E1
330
47
100
AcDbEntity
  8
0
  6
Continuous
 62
     7
100
AcDbSpline
210
0.0
220
0.0
230
1.0
 70
     8
 71
     3
 72
    23
 73
    19
 74
    17
 42
0.000000001
 43
0.0000000001
 44
0.00000001
 40
0.0
 40
0.0
 40
0.0
 40
0.0
 40
0.9746357647468936
 40
2.090406936960985
 40
3.428350525922164
 40
5.010235304445088
 40
6.819465745270514
 40
8.815857789662115
 40
10.94440869157724
 40
13.14116979572541
 40
15.33793089987323
 40
17.4664818017883
 40
19.46287384618009
 40
21.27210428700558
 40
22.85398906552851
 40
24.19193265448991
 40
25.30770382670417
 40
26.28233959145068
 40
26.28233959145068
 40
26.28233959145068
 40
26.28233959145068
 10
-841.7028968598772
 20
-1095.191349618189
 30
0.0
 10
-841.4024164061564
 20
-1095.327110839692
 30
0.0
 10
-840.7579434231343
 20
-1095.618292649966
 30
0.0
 10
-840.0655119971177
 20
-1096.57857739864
 30
0.0
 10
-839.5602841362207
 20
-1097.826662686672
 30
0.0
 10
-839.2589963430883
 20
-1099.384378342026
 30
0.0
 10
-839.1628139001373
 20
-1101.180858019009
 30
0.0
 10
-839.2771874041182
 20
-1103.159420934553
 30
0.0
 10
-839.5978196202159
 20
-1105.244871134973
 30
0.0
 10
-840.1132541544575
 20
-1107.359611187131
 30
0.0
 10
-840.8041440762953
 20
-1109.423701631659
 30
0.0
 10
-841.6442570330689
 20
-1111.359190659344
 30
0.0
 10
-842.601932220683
 20
-1113.094313347862
 30
0.0
 10
-843.6407309263489
 20
-1114.563152189004
 30
0.0
 10
-844.7258337232515
 20
-1115.720651354181
 30
0.0
 10
-845.818487184334
 20
-1116.507468036523
 30
0.0
 10
-846.9161636138672
 20
-1116.950993159057
 30
0.0
 10
-847.6166689655429
 20
-1116.853913167536
 30
0.0
 10
-847.943274067411
 20
-1116.808650381876
 30
0.0
 11
-841.7028968598772
 21
-1095.191349618189
 31
0.0
 11
-840.8497726982544
 21
-1095.662618180249
 31
0.0
 11
-840.149340348275
 21
-1096.531145566597
 31
0.0
 11
-839.6285178368512
 21
-1097.763556599596
 31
0.0
 11
-839.3073191628828
 21
-1099.312488767116
 31
0.0
 11
-839.1980888077542
 21
-1101.118418863114
 31
0.0
 11
-839.3050233962354
 21
-1103.111944930406
 31
0.0
 11
-839.6240145287948
 21
-1105.216457603085
 31
0.0
 11
-840.1428025579938
 21
-1107.351081297763
 31
0.0
 11
-840.8414516699708
 21
-1109.433783570161
 31
0.0
 11
-841.6931123652672
 21
-1111.384527785122
 31
0.0
 11
-842.6650564626334
 21
-1113.128347116012
 31
0.0
 11
-843.7199322034919
 21
-1114.598228728068
 31
0.0
 11
-844.8172016081182
 21
-1115.737684432081
 31
0.0
 11
-845.9146971254654
 21
-1116.502927290308
 31
0.0
 11
-846.9702425172698
 21
-1116.864547565701
 31
0.0
 11
-847.943274067411
 21
-1116.808650381876
 31
0.0
  0
SPLINE
  5
E2
330
47
100
AcDbEntity
  8
0
  6
Continuous
 62
     7
100
AcDbSpline
210
0.0
220
0.0
230
1.0
 70
     8
 71
     3
 72
     9
 73
     5
 74
     3
 42
0.000000001
 43
0.0000000001
 44
0.00000001
 40
0.0
 40
0.0
 40
0.0
 40
0.0
 40
1.008344584983926
 40
2.114782586646389
 40
2.114782586646389
 40
2.114782586646389
 40
2.114782586646389
 10
-880.3979928687409
 20
-1082.109927185994
 30
0.0
 10
-880.6696693951009
 20
-1082.308800427581
 30
0.0
 10
-881.2394515737286
 20
-1082.725893641719
 30
0.0
 10
-881.7350294474202
 20
-1083.229104186923
 30
0.0
 10
-881.9943119764403
 20
-1083.492380085809
 30
0.0
 11
-880.3979928687409
 21
-1082.109927185994
 31
0.0
 11
-881.1961524225906
 21
-1082.726125311396
 31
0.0
 11
-881.9943119764403
 21
-1083.492380085809
 31
0.0
  0
SPLINE
  5
E3
330
47
100
AcDbEntity
  8
0
  6
Continuous
 62
     7
100
AcDbSpline
210
0.0
220
0.0
230
1.0
 70
     8
 71
     3
 72
     9
 73
     5
 74
     3
 42
0.000000001
 43
0.0000000001
 44
0.00000001
 40
0.0
 40
0.0
 40
0.0
 40
0.0
 40
1.146321746998405
 40
2.179237783867366
 40
2.179237783867366
 40
2.179237783867366
 40
2.179237783867366
 10
-879.4484923513401
 20
-1082.23713613442
 30
0.0
 10
-879.0816180298909
 20
-1082.106364467253
 30
0.0
 10
-878.3841642924006
 20
-1081.85775840459
 30
0.0
 10
-877.6557375568848
 20
-1081.981144695907
 30
0.0
 10
-877.3104775480328
 20
-1082.039627391177
 30
0.0
 11
-879.4484923513401
 21
-1082.23713613442
 31
0.0
 11
-878.3392992612905
 21
-1081.947750162827
 31
0.0
 11
-877.3104775480328
 21
-1082.039627391177
 31
0.0
  0
SPLINE
  5
E4
330
47
100
AcDbEntity
  8
0
  6
Continuous
 62
     7
100
AcDbSpline
210
0.0
220
0.0
230
1.0
 70
     8
 71
     3
 72
    11
 73
     7
 74
     5
 42
0.000000001
 43
0.0000000001
 44
0.00000001
 40
0.0
 40
0.0
 40
0.0
 40
0.0
 40
1.00344185456517
 40
1.901716853130898
 40
2.718324913100886
 40
3.489532869689643
 40
3.489532869689643
 40
3.489532869689643
 40
3.489532869689643
 10
-887.7592088009085
 20
-1079.984927185994
 30
0.0
 10
-887.4745567387185
 20
-1079.807404658545
 30
0.0
 10
-886.9350858880766
 20
-1079.47096506511
 30
0.0
 10
-886.0755801213776
 20
-1079.16777469468
 30
0.0
 10
-885.2423461611842
 20
-1079.047639293171
 30
0.0
 10
-884.7201075705674
 20
-1079.152652896081
 30
0.0
 10
-884.4664544075972
 20
-1079.203658388282
 30
0.0
 11
-887.7592088009085
 21
-1079.984927185994
 31
0.0
 11
-886.8880376444738
 21
-1079.48697500905
 31
0.0
 11
-886.0408325835446
 21
-1079.18840916776
 31
0.0
 11
-885.2297567193411
 21
-1079.093516223518
 31
0.0
 11
-884.4664544075972
 21
-1079.203658388282
 31
0.0
  0
SPLINE
  5
E5
330
47
100
AcDbEntity
  8
0
  6
Continuous
 62
     7
100
AcDbSpline
210
0.0
220
0.0
230
1.0
 70
     8
 71
     3
 72
     9
 73
     5
 74
     3
 42
0.000000001
 43
0.0000000001
 44
0.00000001
 40
0.0
 40
0.0
 40
0.0
 40
0.0
 40
1.137136581674611
 40
2.409226321313952
 40
2.409226321313952
 40
2.409226321313952
 40
2.409226321313952
 10
-884.4664544075972
 20
-1079.203658388282
 30
0.0
 10
-884.1110668094378
 20
-1079.354102027573
 30
0.0
 10
-883.35811491452
 20
-1079.672843681232
 30
0.0
 10
-882.8665663216123
 20
-1080.328825540755
 30
0.0
 10
-882.6070249496177
 20
-1080.6751889371
 30
0.0
 11
-884.4664544075972
 21
-1079.203658388282
 31
0.0
 11
-883.4585262216068
 21
-1079.730118625429
 31
0.0
 11
-882.6070249496177
 21
-1080.6751889371
 31
0.0
  0
SPLINE
  5
E6
330
47
100
AcDbEntity
  8
0
  6
Continuous
 62
     7
100
AcDbSpline
210
0.0
220
0.0
230
1.0
 70
     8
 71
     3
 72
    11
 73
     7
 74
     5
 42
0.000000001
 43
0.0000000001
 44
0.00000001
 40
0.0
 40
0.0
 40
0.0
 40
0.0
 40
0.9828979578733066
 40
2.087473156998071
 40
3.317888233234479
 40
4.670296938685422
 40
4.670296938685422
 40
4.670296938685422
 40
4.670296938685422
 10
-879.4484923513401
 20
-1082.23713613442
 30
0.0
 10
-879.7430931764662
 20
-1082.382302707054
 30
0.0
 10
-880.3687647452864
 20
-1082.690606671363
 30
0.0
 10
-881.2416112334188
 20
-1083.38018248104
 30
0.0
 10
-882.1244866281684
 20
-1084.237982666272
 30
0.0
 10
-882.6622374097785
 20
-1084.911504918439
 30
0.0
 10
-882.943812493841
 20
-1085.264172172185
 30
0.0
 11
-879.4484923513401
 21
-1082.23713613442
 31
0.0
 11
-880.3153313176351
 21
-1082.700470360016
 31
0.0
 11
-881.1961524225906
 21
-1083.366984093012
 31
0.0
 11
-882.076973527546
 21
-1084.226097266177
 31
0.0
 11
-882.943812493841
 21
-1085.264172172185
 31
0.0
  0
SPLINE
  5
E7
330
47
100
AcDbEntity
  8
0
  6
Continuous
 62
     7
100
AcDbSpline
210
0.0
220
0.0
230
1.0
 70
     8
 71
     3
 72
    11
 73
     7
 74
     5
 42
0.000000001
 43
0.0000000001
 44
0.00000001
 40
0.0
 40
0.0
 40
0.0
 40
0.0
 40
1.850031290893258
 40
3.634237612082681
 40
5.327759132590268
 40
6.9087655067725
 40
6.9087655067725
 40
6.9087655067725
 40
6.9087655067725
 10
-886.1969953103305
 20
-1091.334693950909
 30
0.0
 10
-885.9682023707842
 20
-1090.761762825867
 30
0.0
 10
-885.5187570366617
 20
-1089.636285736225
 30
0.0
 10
-884.7278932393506
 20
-1088.044649002285
 30
0.0
 10
-883.8897598849704
 20
-1086.578679707008
 30
0.0
 10
-883.251821621581
 20
-1085.692187847231
 30
0.0
 10
-882.943812493841
 20
-1085.264172172185
 30
0.0
 11
-886.1969953103305
 21
-1091.334693950909
 31
0.0
 11
-885.4872866444433
 21
-1089.626206495035
 31
0.0
 11
-884.6986524225906
 21
-1088.025753976787
 31
0.0
 11
-883.8455976877499
 21
-1086.562773196732
 31
0.0
 11
-882.943812493841
 21
-1085.264172172185
 31
0.0
  0
SPLINE
  5
E8
330
47
100
AcDbEntity
  8
0
  6
Continuous
 62
     7
100
AcDbSpline
210
0.0
220
0.0
230
1.0
 70
     8
 71
     3
 72
    23
 73
    19
 74
    17
 42
0.000000001
 43
0.0000000001
 44
0.00000001
 40
0.0
 40
0.0
 40
0.0
 40
0.0
 40
1.277855783447244
 40
2.740755763259717
 40
4.494948468254512
 40
6.568975177403004
 40
8.94107731042308
 40
11.55856910135681
 40
14.34933583869795
 40
17.22953372998309
 40
20.1097316212679
 40
22.90049835860886
 40
25.51799014954301
 40
27.89009228256278
 40
29.96411899171146
 40
31.71831169670625
 40
33.18121167651907
 40
34.45906745996636
 40
34.45906745996636
 40
34.45906745996636
 40
34.45906745996636
 10
-900.4879243776094
 20
-1074.578658388282
 30
0.0
 10
-900.9161399566207
 20
-1074.519313846945
 30
0.0
 10
-901.8345803075504
 20
-1074.392031188341
 30
0.0
 10
-903.273756068281
 20
-1074.973541913182
 30
0.0
 10
-904.7063461617163
 20
-1076.005146004743
 30
0.0
 10
-906.1290364946047
 20
-1077.522756022062
 30
0.0
 10
-907.4910170193963
 20
-1079.448566946516
 30
0.0
 10
-908.7466355981726
 20
-1081.723505582252
 30
0.0
 10
-909.84811702993
 20
-1084.261146751272
 30
0.0
 10
-910.7539504826768
 20
-1086.967398666711
 30
0.0
 10
-911.4297424274664
 20
-1089.74005784542
 30
0.0
 10
-911.8501268886325
 20
-1092.474314774099
 30
0.0
 10
-912.0000832608049
 20
-1095.068430596141
 30
0.0
 10
-911.8739773911891
 20
-1097.423815060791
 30
0.0
 10
-911.4789556190749
 20
-1099.466153364676
 30
0.0
 10
-910.8165457553623
 20
-1101.102531850843
 30
0.0
 10
-909.9086912256882
 20
-1102.361571860664
 30
0.0
 10
-909.0637155344021
 20
-1102.743343565395
 30
0.0
 10
-908.6697522719315
 20
-1102.921341611783
 30
0.0
 11
-900.4879243776094
 21
-1074.578658388282
 31
0.0
 11
-901.7636768544614
 21
-1074.505370969489
 31
0.0
 11
-903.1476141459381
 21
-1074.97949533056
 31
0.0
 11
-904.5865527131266
 21
-1075.982813744679
 31
0.0
 11
-906.0251948214145
 21
-1077.47676677883
 31
0.0
 11
-907.4082541260956
 21
-1079.403944892415
 31
0.0
 11
-908.6825808315311
 21
-1081.690285792914
 31
0.0
 11
-909.799202632031
 21
-1084.247928208086
 31
0.0
 11
-910.7152092455119
 21
-1086.978582298564
 31
0.0
 11
-911.3953979949063
 21
-1089.777311142697
 31
0.0
 11
-911.8136308131509
 21
-1092.53656109132
 31
0.0
 11
-911.9538339402707
 21
-1095.150295268436
 31
0.0
 11
-911.810620807991
 21
-1097.518070283189
 31
0.0
 11
-911.3894936576769
 21
-1099.548892458383
 31
0.0
 11
-910.7066374760323
 21
-1101.164720257203
 31
0.0
 11
-909.7882928393924
 21
-1102.303456163749
 31
0.0
 11
-908.6697522719315
 21
-1102.921341611783
 31
0.0
  0
ENDBLK
  5
49
330
47
100
AcDbEntity
  8
0
100
AcDbBlockEnd
  0
BLOCK
  5
4C
330
4A
100
AcDbEntity
  8
0
100
AcDbBlockBegin
  2
Allg1
 70
     0
 10
-875.9999999999404
 20
-1097.000000000016
 30
0.0
  3
Allg1
  1

  0
INSERT
  5
4B
330
4A
100
AcDbEntity
  8
0
100
AcDbBlockReference
  2
WP_GR_HF_IP66_PG16_BK-select__1
 10
-914.599657597745
 20
-1116.986076467991
 30
0.0
  0
MTEXT
  5
EA
330
4A
100
AcDbEntity
  8
1
 62
     6
100
AcDbMText
 10
-875.99999999994
 20
-1130.150452717469
 30
0.0
 40
5.0
 41
0.0
 71
     2
 72
     1
  1
 
  7
CONVERTER_11
 73
     1
 44
1.32052821128451
  0
ENDBLK
  5
4D
330
4A
100
AcDbEntity
  8
0
100
AcDbBlockEnd
  0
BLOCK
  5
4F
330
4E
100
AcDbEntity
  8
0
100
AcDbBlockBegin
  2
WP_GR_HF_IP66_PG16_BK-select__2
 70
     0
 10
-1012.75
 20
-967.75
 30
0.0
  3
WP_GR_HF_IP66_PG16_BK-select__2
  1

  0
LINE
  5
EB
330
4E
100
AcDbEntity
  8
1
  6
DOT_CENTER
 62
     2
100
AcDbLine
 10
-981.775
 20
-953.0
 30
0.0
 11
-1014.225
 21
-953.0
 31
0.0
  0
LINE
  5
EC
330
4E
100
AcDbEntity
  8
1
  6
DOT_CENTER
 62
     2
100
AcDbLine
 10
-998.0
 20
-936.775
 30
0.0
 11
-998.0
 21
-969.225
 31
0.0
  0
CIRCLE
  5
ED
330
4E
100
AcDbEntity
  8
0
  6
Continuous
 62
     7
100
AcDbCircle
 10
-998.0
 20
-953.0
 30
0.0
 40
14.75
  0
CIRCLE
  5
EE
330
4E
100
AcDbEntity
  8
0
  6
Continuous
 62
     7
100
AcDbCircle
 10
-998.0
 20
-953.0
 30
0.0
 40
7.0
  0
CIRCLE
  5
EF
330
4E
100
AcDbEntity
  8
0
  6
Continuous
 62
     7
100
AcDbCircle
 10
-998.0
 20
-953.0
 30
0.0
 40
10.60000000000002
  0
ENDBLK
  5
50
330
4E
100
AcDbEntity
  8
0
100
AcDbBlockEnd
  0
BLOCK
  5
53
330
51
100
AcDbEntity
  8
0
100
AcDbBlockBegin
  2
SA_Links1
 70
     0
 10
-998.0
 20
-953.0
 30
0.0
  3
SA_Links1
  1

  0
INSERT
  5
52
330
51
100
AcDbEntity
  8
0
100
AcDbBlockReference
  2
WP_GR_HF_IP66_PG16_BK-select__2
 10
-1012.75
 20
-967.75
 30
0.0
  0
MTEXT
  5
F0
330
51
100
AcDbEntity
  8
1
 62
     6
100
AcDbMText
 10
-998.0
 20
-972.7380380630493
 30
0.0
 40
5.0
 41
0.0
 71
     2
 72
     1
  1
 
  7
CONVERTER_11
 73
     1
 44
1.32052821128451
  0
ENDBLK
  5
54
330
51
100
AcDbEntity
  8
0
100
AcDbBlockEnd
  0
BLOCK
  5
56
330
55
100
AcDbEntity
  8
0
100
AcDbBlockBegin
  2
WP_GR_HF_IP66_PG16_BK-select__3
 70
     0
 10
-1110.749999999935
 20
-1037.238038
 30
0.0
  3
WP_GR_HF_IP66_PG16_BK-select__3
  1

  0
LINE
  5
F1
330
55
100
AcDbEntity
  8
0
  6
Continuous
 62
     7
100
AcDbLine
 10
-1107.749999999935
 20
-1007.738038
 30
0.0
 11
-1107.749999999935
 21
-1008.738038
 31
0.0
  0
LINE
  5
F2
330
55
100
AcDbEntity
  8
0
  6
Continuous
 62
     7
100
AcDbLine
 10
-1107.249999999935
 20
-1008.738038
 30
0.0
 11
-1107.749999999935
 21
-1008.738038
 31
0.0
  0
LINE
  5
F3
330
55
100
AcDbEntity
  8
0
  6
Continuous
 62
     7
100
AcDbLine
 10
-1080.749999999935
 20
-1008.99103208202
 30
0.0
 11
-1080.749999999935
 21
-1008.478038
 31
0.0
  0
LINE
  5
F4
330
55
100
AcDbEntity
  8
0
  6
Continuous
 62
     7
100
AcDbLine
 10
-1062.249999999935
 20
-1008.478038
 30
0.0
 11
-1062.249999999935
 21
-1011.238038
 31
0.0
  0
LINE
  5
F5
330
55
100
AcDbEntity
  8
0
  6
Continuous
 62
     7
100
AcDbLine
 10
-1107.249999999935
 20
-1007.738038
 30
0.0
 11
-1107.249999999935
 21
-1008.738038
 31
0.0
  0
LINE
  5
F6
330
55
100
AcDbEntity
  8
0
  6
Continuous
 62
     7
100
AcDbLine
 10
-1103.249999999935
 20
-1007.738038
 30
0.0
 11
-1107.249999999935
 21
-1007.738038
 31
0.0
  0
LINE
  5
F7
330
55
100
AcDbEntity
  8
0
  6
Continuous
 62
     7
100
AcDbLine
 10
-1103.249999999935
 20
-1008.611348913622
 30
0.0
 11
-1103.249999999935
 21
-1008.238038
 31
0.0
  0
LINE
  5
F8
330
55
100
AcDbEntity
  8
0
  6
Continuous
 62
     7
100
AcDbLine
 10
-1103.249999999935
 20
-1008.238038
 30
0.0
 11
-1103.249999999935
 21
-1007.738038
 31
0.0
  0
LINE
  5
F9
330
55
100
AcDbEntity
  8
0
  6
Continuous
 62
     7
100
AcDbLine
 10
-1094.749999999935
 20
-1008.238038
 30
0.0
 11
-1094.749999999935
 21
-1007.738038
 31
0.0
  0
LINE
  5
FA
330
55
100
AcDbEntity
  8
0
  6
Continuous
 62
     7
100
AcDbLine
 10
-1089.249999999935
 20
-1008.99103208202
 30
0.0
 11
-1089.249999999935
 21
-1007.738038
 31
0.0
  0
LINE
  5
FB
330
55
100
AcDbEntity
  8
0
  6
Continuous
 62
     7
100
AcDbLine
 10
-1089.249999999935
 20
-1007.738038
 30
0.0
 11
-1094.749999999935
 21
-1007.738038
 31
0.0
  0
LINE
  5
FC
330
55
100
AcDbEntity
  8
0
  6
Continuous
 62
     7
100
AcDbLine
 10
-1094.749999999935
 20
-1008.611348913622
 30
0.0
 11
-1094.749999999935
 21
-1008.238038
 31
0.0
  0
LINE
  5
FD
330
55
100
AcDbEntity
  8
0
  6
Continuous
 62
     7
100
AcDbLine
 10
-1094.749999999935
 20
-1008.611348913622
 30
0.0
 11
-1103.249999999935
 21
-1008.611348913622
 31
0.0
  0
LINE
  5
FE
330
55
100
AcDbEntity
  8
0
  6
Continuous
 62
     7
100
AcDbLine
 10
-1062.249999999935
 20
-1008.478038
 30
0.0
 11
-1080.749999999935
 21
-1008.478038
 31
0.0
  0
LINE
  5
FF
330
55
100
AcDbEntity
  8
0
  6
Continuous
 62
     7
100
AcDbLine
 10
-1094.749999999935
 20
-1008.238038
 30
0.0
 11
-1103.249999999935
 21
-1008.238038
 31
0.0
  0
LINE
  5
100
330
55
100
AcDbEntity
  8
0
  6
Continuous
 62
     7
100
AcDbLine
 10
-1107.749999999935
 20
-1007.738038
 30
0.0
 11
-1110.749999999935
 21
-1007.738038
 31
0.0
  0
LINE
  5
101
330
55
100
AcDbEntity
  8
0
  6
Continuous
 62
     7
100
AcDbLine
 10
-1080.749999999935
 20
-1010.587351189719
 30
0.0
 11
-1080.749999999935
 21
-1020.8917188923
 31
0.0
  0
LINE
  5
102
330
55
100
AcDbEntity
  8
0
  6
Continuous
 62
     7
100
AcDbLine
 10
-1080.749999999935
 20
-1020.8917188923
 30
0.0
 11
-1089.249999999935
 21
-1020.8917188923
 31
0.0
  0
LINE
  5
103
330
55
100
AcDbEntity
  8
0
  6
Continuous
 62
     7
100
AcDbLine
 10
-1080.749999999935
 20
-1020.8917188923
 30
0.0
 11
-1080.749999999935
 21
-1024.084357107699
 31
0.0
  0
LINE
  5
104
330
55
100
AcDbEntity
  8
0
  6
Continuous
 62
     7
100
AcDbLine
 10
-1103.249999999935
 20
-1027.488038
 30
0.0
 11
-1103.249999999935
 21
-1017.488038
 31
0.0
  0
LINE
  5
105
330
55
100
AcDbEntity
  8
0
  6
Continuous
 62
     7
100
AcDbLine
 10
-1089.249999999935
 20
-1034.388724810281
 30
0.0
 11
-1089.249999999935
 21
-1024.084357107699
 31
0.0
  0
LINE
  5
106
330
55
100
AcDbEntity
  8
0
  6
Continuous
 62
     7
100
AcDbLine
 10
-1089.249999999935
 20
-1020.8917188923
 30
0.0
 11
-1089.249999999935
 21
-1010.587351189719
 31
0.0
  0
LINE
  5
107
330
55
100
AcDbEntity
  8
0
  6
Continuous
 62
     7
100
AcDbLine
 10
-1094.749999999935
 20
-1027.488038
 30
0.0
 11
-1094.749999999935
 21
-1017.488038
 31
0.0
  0
LINE
  5
108
330
55
100
AcDbEntity
  8
0
  6
Continuous
 62
     7
100
AcDbLine
 10
-1062.249999999935
 20
-1011.238038
 30
0.0
 11
-1062.249999999935
 21
-1033.738038
 31
0.0
  0
LINE
  5
109
330
55
100
AcDbEntity
  8
0
  6
Continuous
 62
     7
100
AcDbLine
 10
-1054.749999999935
 20
-1034.38433521256
 30
0.0
 11
-1054.749999999935
 21
-1033.738038
 31
0.0
  0
LINE
  5
10A
330
55
100
AcDbEntity
  8
0
  6
Continuous
 62
     7
100
AcDbLine
 10
-1080.749999999935
 20
-1034.388724810281
 30
0.0
 11
-1089.249999999935
 21
-1034.388724810281
 31
0.0
  0
LINE
  5
10B
330
55
100
AcDbEntity
  8
0
  6
Continuous
 62
     7
100
AcDbLine
 10
-1054.749999999935
 20
-1033.738038
 30
0.0
 11
-1062.249999999935
 21
-1033.738038
 31
0.0
  0
LINE
  5
10C
330
55
100
AcDbEntity
  8
0
  6
Continuous
 62
     7
100
AcDbLine
 10
-1054.749999999935
 20
-1033.738038
 30
0.0
 11
-1054.749999999935
 21
-1024.09174078744
 31
0.0
  0
LINE
  5
10D
330
55
100
AcDbEntity
  8
0
  6
Continuous
 62
     7
100
AcDbLine
 10
-1094.749999999935
 20
-1017.488038
 30
0.0
 11
-1103.249999999935
 21
-1017.488038
 31
0.0
  0
LINE
  5
10E
330
55
100
AcDbEntity
  8
0
  6
Continuous
 62
     7
100
AcDbLine
 10
-1048.749999999935
 20
-1020.88433521256
 30
0.0
 11
-1054.749999999935
 21
-1020.88433521256
 31
0.0
  0
LINE
  5
10F
330
55
100
AcDbEntity
  8
0
  6
Continuous
 62
     7
100
AcDbLine
 10
-1107.249999999935
 20
-1008.738038
 30
0.0
 11
-1107.249999999935
 21
-1036.238038
 31
0.0
  0
LINE
  5
110
330
55
100
AcDbEntity
  8
0
  6
Continuous
 62
     7
100
AcDbLine
 10
-1107.749999999935
 20
-1036.238038
 30
0.0
 11
-1107.749999999935
 21
-1037.238038
 31
0.0
  0
LINE
  5
111
330
55
100
AcDbEntity
  8
0
  6
Continuous
 62
     7
100
AcDbLine
 10
-1107.249999999935
 20
-1036.238038
 30
0.0
 11
-1107.749999999935
 21
-1036.238038
 31
0.0
  0
LINE
  5
112
330
55
100
AcDbEntity
  8
0
  6
Continuous
 62
     7
100
AcDbLine
 10
-1094.749999999935
 20
-1036.738038
 30
0.0
 11
-1103.249999999935
 21
-1036.738038
 31
0.0
  0
LINE
  5
113
330
55
100
AcDbEntity
  8
0
  6
Continuous
 62
     7
100
AcDbLine
 10
-1089.249999999935
 20
-1037.238038
 30
0.0
 11
-1094.749999999935
 21
-1037.238038
 31
0.0
  0
LINE
  5
114
330
55
100
AcDbEntity
  8
0
  6
Continuous
 62
     7
100
AcDbLine
 10
-1094.749999999935
 20
-1036.738038
 30
0.0
 11
-1094.749999999935
 21
-1036.364727086378
 31
0.0
  0
LINE
  5
115
330
55
100
AcDbEntity
  8
0
  6
Continuous
 62
     7
100
AcDbLine
 10
-1094.749999999935
 20
-1037.238038
 30
0.0
 11
-1094.749999999935
 21
-1036.738038
 31
0.0
  0
LINE
  5
116
330
55
100
AcDbEntity
  8
0
  6
Continuous
 62
     7
100
AcDbLine
 10
-1103.249999999935
 20
-1037.238038
 30
0.0
 11
-1107.249999999935
 21
-1037.238038
 31
0.0
  0
LINE
  5
117
330
55
100
AcDbEntity
  8
0
  6
Continuous
 62
     7
100
AcDbLine
 10
-1103.249999999935
 20
-1036.738038
 30
0.0
 11
-1103.249999999935
 21
-1036.364727086378
 31
0.0
  0
LINE
  5
118
330
55
100
AcDbEntity
  8
0
  6
Continuous
 62
     7
100
AcDbLine
 10
-1103.249999999935
 20
-1037.238038
 30
0.0
 11
-1103.249999999935
 21
-1036.738038
 31
0.0
  0
LINE
  5
119
330
55
100
AcDbEntity
  8
0
  6
Continuous
 62
     7
100
AcDbLine
 10
-1089.249999999935
 20
-1037.238038
 30
0.0
 11
-1089.249999999935
 21
-1035.98504391798
 31
0.0
  0
LINE
  5
11A
330
55
100
AcDbEntity
  8
0
  6
Continuous
 62
     7
100
AcDbLine
 10
-1094.749999999935
 20
-1036.364727086378
 30
0.0
 11
-1103.249999999935
 21
-1036.364727086378
 31
0.0
  0
LINE
  5
11B
330
55
100
AcDbEntity
  8
0
  6
Continuous
 62
     7
100
AcDbLine
 10
-1107.249999999935
 20
-1036.238038
 30
0.0
 11
-1107.249999999935
 21
-1037.238038
 31
0.0
  0
LINE
  5
11C
330
55
100
AcDbEntity
  8
0
  6
Continuous
 62
     7
100
AcDbLine
 10
-1107.749999999935
 20
-1037.238038
 30
0.0
 11
-1110.749999999935
 21
-1037.238038
 31
0.0
  0
LINE
  5
11D
330
55
100
AcDbEntity
  8
0
  6
Continuous
 62
     7
100
AcDbLine
 10
-1107.749999999935
 20
-1008.738038
 30
0.0
 11
-1107.749999999935
 21
-1036.238038
 31
0.0
  0
LINE
  5
11E
330
55
100
AcDbEntity
  8
0
  6
Continuous
 62
     7
100
AcDbLine
 10
-1062.249999999935
 20
-1033.738038
 30
0.0
 11
-1062.249999999935
 21
-1036.498038
 31
0.0
  0
LINE
  5
11F
330
55
100
AcDbEntity
  8
0
  6
Continuous
 62
     7
100
AcDbLine
 10
-1080.749999999935
 20
-1036.498038
 30
0.0
 11
-1080.749999999935
 21
-1035.98504391798
 31
0.0
  0
LINE
  5
120
330
55
100
AcDbEntity
  8
0
  6
Continuous
 62
     7
100
AcDbLine
 10
-1080.749999999935
 20
-1035.98504391798
 30
0.0
 11
-1089.249999999935
 21
-1035.98504391798
 31
0.0
  0
LINE
  5
121
330
55
100
AcDbEntity
  8
0
  6
Continuous
 62
     7
100
AcDbLine
 10
-1048.749999999935
 20
-1035.988038
 30
0.0
 11
-1054.749999999935
 21
-1035.988038
 31
0.0
  0
LINE
  5
122
330
55
100
AcDbEntity
  8
0
  6
Continuous
 62
     7
100
AcDbLine
 10
-1062.249999999935
 20
-1036.498038
 30
0.0
 11
-1080.749999999935
 21
-1036.498038
 31
0.0
  0
LINE
  5
123
330
55
100
AcDbEntity
  8
0
  6
Continuous
 62
     7
100
AcDbLine
 10
-1038.749999999935
 20
-1033.738038
 30
0.0
 11
-1048.749999999935
 21
-1033.738038
 31
0.0
  0
LINE
  5
124
330
55
100
AcDbEntity
  8
0
  6
Continuous
 62
     7
100
AcDbLine
 10
-1048.749999999935
 20
-1020.88433521256
 30
0.0
 11
-1048.749999999935
 21
-1024.09174078744
 31
0.0
  0
LINE
  5
125
330
55
100
AcDbEntity
  8
0
  6
Continuous
 62
     7
100
AcDbLine
 10
-1080.749999999935
 20
-1024.084357107699
 30
0.0
 11
-1080.749999999935
 21
-1034.388724810281
 31
0.0
  0
LINE
  5
126
330
55
100
AcDbEntity
  8
0
  6
Continuous
 62
     7
100
AcDbLine
 10
-1080.749999999935
 20
-1024.084357107699
 30
0.0
 11
-1089.249999999935
 21
-1024.084357107699
 31
0.0
  0
LINE
  5
127
330
55
100
AcDbEntity
  8
0
  6
Continuous
 62
     7
100
AcDbLine
 10
-1094.749999999935
 20
-1027.488038
 30
0.0
 11
-1103.249999999935
 21
-1027.488038
 31
0.0
  0
LINE
  5
128
330
55
100
AcDbEntity
  8
0
  6
Continuous
 62
     7
100
AcDbLine
 10
-1054.749999999935
 20
-1020.88433521256
 30
0.0
 11
-1054.749999999935
 21
-1024.09174078744
 31
0.0
  0
LINE
  5
129
330
55
100
AcDbEntity
  8
0
  6
Continuous
 62
     7
100
AcDbLine
 10
-1048.749999999935
 20
-1024.09174078744
 30
0.0
 11
-1054.749999999935
 21
-1024.09174078744
 31
0.0
  0
LINE
  5
12A
330
55
100
AcDbEntity
  8
0
  6
Continuous
 62
     7
100
AcDbLine
 10
-1054.749999999935
 20
-1020.88433521256
 30
0.0
 11
-1054.749999999935
 21
-1011.238038
 31
0.0
  0
LINE
  5
12B
330
55
100
AcDbEntity
  8
0
  6
Continuous
 62
     7
100
AcDbLine
 10
-1054.749999999935
 20
-1008.988038
 30
0.0
 11
-1054.749999999935
 21
-1010.59174078744
 31
0.0
  0
LINE
  5
12C
330
55
100
AcDbEntity
  8
0
  6
Continuous
 62
     7
100
AcDbLine
 10
-1048.749999999935
 20
-1008.988038
 30
0.0
 11
-1048.749999999935
 21
-1010.59174078744
 31
0.0
  0
LINE
  5
12D
330
55
100
AcDbEntity
  8
0
  6
Continuous
 62
     7
100
AcDbLine
 10
-1048.749999999935
 20
-1011.238038
 30
0.0
 11
-1048.749999999935
 21
-1010.59174078744
 31
0.0
  0
LINE
  5
12E
330
55
100
AcDbEntity
  8
0
  6
Continuous
 62
     7
100
AcDbLine
 10
-1054.749999999935
 20
-1011.238038
 30
0.0
 11
-1054.749999999935
 21
-1010.59174078744
 31
0.0
  0
LINE
  5
12F
330
55
100
AcDbEntity
  8
0
  6
Continuous
 62
     7
100
AcDbLine
 10
-1080.749999999935
 20
-1008.99103208202
 30
0.0
 11
-1080.749999999935
 21
-1010.587351189719
 31
0.0
  0
LINE
  5
130
330
55
100
AcDbEntity
  8
0
  6
Continuous
 62
     7
100
AcDbLine
 10
-1080.749999999935
 20
-1010.587351189719
 30
0.0
 11
-1089.249999999935
 21
-1010.587351189719
 31
0.0
  0
LINE
  5
131
330
55
100
AcDbEntity
  8
0
  6
Continuous
 62
     7
100
AcDbLine
 10
-1080.749999999935
 20
-1008.99103208202
 30
0.0
 11
-1089.249999999935
 21
-1008.99103208202
 31
0.0
  0
LINE
  5
132
330
55
100
AcDbEntity
  8
0
  6
Continuous
 62
     7
100
AcDbLine
 10
-1054.749999999935
 20
-1011.238038
 30
0.0
 11
-1062.249999999935
 21
-1011.238038
 31
0.0
  0
LINE
  5
133
330
55
100
AcDbEntity
  8
0
  6
Continuous
 62
     7
100
AcDbLine
 10
-1048.749999999935
 20
-1010.59174078744
 30
0.0
 11
-1054.749999999935
 21
-1010.59174078744
 31
0.0
  0
LINE
  5
134
330
55
100
AcDbEntity
  8
0
  6
Continuous
 62
     7
100
AcDbLine
 10
-1048.749999999935
 20
-1008.988038
 30
0.0
 11
-1054.749999999935
 21
-1008.988038
 31
0.0
  0
LINE
  5
135
330
55
100
AcDbEntity
  8
0
  6
Continuous
 62
     7
100
AcDbLine
 10
-1048.749999999935
 20
-1020.88433521256
 30
0.0
 11
-1048.749999999935
 21
-1011.238038
 31
0.0
  0
LINE
  5
136
330
55
100
AcDbEntity
  8
0
  6
Continuous
 62
     7
100
AcDbLine
 10
-1038.749999999935
 20
-1011.238038
 30
0.0
 11
-1048.749999999935
 21
-1011.238038
 31
0.0
  0
LINE
  5
137
330
55
100
AcDbEntity
  8
0
  6
Continuous
 62
     7
100
AcDbLine
 10
-1048.749999999935
 20
-1034.38433521256
 30
0.0
 11
-1048.749999999935
 21
-1033.738038
 31
0.0
  0
LINE
  5
138
330
55
100
AcDbEntity
  8
0
  6
Continuous
 62
     7
100
AcDbLine
 10
-1054.749999999935
 20
-1034.38433521256
 30
0.0
 11
-1054.749999999935
 21
-1035.988038
 31
0.0
  0
LINE
  5
139
330
55
100
AcDbEntity
  8
0
  6
Continuous
 62
     7
100
AcDbLine
 10
-1048.749999999935
 20
-1034.38433521256
 30
0.0
 11
-1048.749999999935
 21
-1035.988038
 31
0.0
  0
LINE
  5
13A
330
55
100
AcDbEntity
  8
0
  6
Continuous
 62
     7
100
AcDbLine
 10
-1080.749999999935
 20
-1034.388724810281
 30
0.0
 11
-1080.749999999935
 21
-1035.98504391798
 31
0.0
  0
LINE
  5
13B
330
55
100
AcDbEntity
  8
0
  6
Continuous
 62
     7
100
AcDbLine
 10
-1048.749999999935
 20
-1034.38433521256
 30
0.0
 11
-1054.749999999935
 21
-1034.38433521256
 31
0.0
  0
LINE
  5
13C
330
55
100
AcDbEntity
  8
0
  6
Continuous
 62
     7
100
AcDbLine
 10
-1048.749999999935
 20
-1033.738038
 30
0.0
 11
-1048.749999999935
 21
-1024.09174078744
 31
0.0
  0
LINE
  5
13D
330
55
100
AcDbEntity
  8
0
  6
Continuous
 62
     7
100
AcDbLine
 10
-1038.749999999935
 20
-1033.738038
 30
0.0
 11
-1038.749999999935
 21
-1011.238038
 31
0.0
  0
LINE
  5
13E
330
55
100
AcDbEntity
  8
0
  6
Continuous
 62
     7
100
AcDbLine
 10
-1110.749999999935
 20
-1007.738038
 30
0.0
 11
-1110.749999999935
 21
-1037.238038
 31
0.0
  0
LINE
  5
13F
330
55
100
AcDbEntity
  8
1
  6
Continuous
 62
     2
100
AcDbLine
 10
-1038.749999999935
 20
-1033.068038
 30
0.0
 11
-1048.749999999935
 21
-1033.068038
 31
0.0
  0
LINE
  5
140
330
55
100
AcDbEntity
  8
1
  6
Continuous
 62
     2
100
AcDbLine
 10
-1038.749999999935
 20
-1011.908038
 30
0.0
 11
-1048.749999999935
 21
-1011.908038
 31
0.0
  0
LINE
  5
141
330
55
100
AcDbEntity
  8
1
  6
DOT_CENTER
 62
     2
100
AcDbLine
 10
-1054.749999999935
 20
-1022.488038
 30
0.0
 11
-1080.749999999935
 21
-1022.488038
 31
0.0
  0
LINE
  5
142
330
55
100
AcDbEntity
  8
1
  6
DOT_CENTER
 62
     2
100
AcDbLine
 10
-1089.249999999935
 20
-1022.488038
 30
0.0
 11
-1110.749999999935
 21
-1022.488038
 31
0.0
  0
LINE
  5
143
330
55
100
AcDbEntity
  8
1
  6
DOT_CENTER
 62
     2
100
AcDbLine
 10
-1038.749999999935
 20
-1022.488038
 30
0.0
 11
-1048.749999999935
 21
-1022.488038
 31
0.0
  0
ENDBLK
  5
57
330
55
100
AcDbEntity
  8
0
100
AcDbBlockEnd
  0
BLOCK
  5
5A
330
58
100
AcDbEntity
  8
0
100
AcDbBlockBegin
  2
Drfsicht1
 70
     0
 10
-1074.75
 20
-1022.488038
 30
0.0
  3
Drfsicht1
  1

  0
INSERT
  5
59
330
58
100
AcDbEntity
  8
0
100
AcDbBlockReference
  2
WP_GR_HF_IP66_PG16_BK-select__3
 10
-1110.749999999935
 20
-1037.238038
 30
0.0
  0
MTEXT
  5
144
330
58
100
AcDbEntity
  8
1
 62
     6
100
AcDbMText
 10
-1074.75
 20
-1042.238038
 30
0.0
 40
5.0
 41
0.0
 71
     2
 72
     1
  1
 
  7
CONVERTER_11
 73
     1
 44
1.32052821128451
  0
ENDBLK
  5
5B
330
58
100
AcDbEntity
  8
0
100
AcDbBlockEnd
  0
BLOCK
  5
5D
330
5C
100
AcDbEntity
  8
0
100
AcDbBlockBegin
  2
WP_GR_HF_IP66_PG16_BK-select__4
 70
     0
 10
-1110.749999999935
 20
-967.75
 30
0.0
  3
WP_GR_HF_IP66_PG16_BK-select__4
  1

  0
LINE
  5
145
330
5C
100
AcDbEntity
  8
0
  6
Continuous
 62
     7
100
AcDbLine
 10
-1038.749999999935
 20
-941.75
 30
0.0
 11
-1048.749999999935
 21
-941.75
 31
0.0
  0
LINE
  5
146
330
5C
100
AcDbEntity
  8
0
  6
Continuous
 62
     7
100
AcDbLine
 10
-1054.749999999935
 20
-944.2798731299113
 30
0.0
 11
-1054.749999999935
 21
-947.0575678379977
 31
0.0
  0
LINE
  5
147
330
5C
100
AcDbEntity
  8
0
  6
Continuous
 62
     7
100
AcDbLine
 10
-1048.749999999935
 20
-944.2798731299113
 30
0.0
 11
-1048.749999999935
 21
-947.0575678379977
 31
0.0
  0
LINE
  5
148
330
5C
100
AcDbEntity
  8
0
  6
Continuous
 62
     7
100
AcDbLine
 10
-1080.749999999935
 20
-947.0507705330847
 30
0.0
 11
-1089.249999999935
 21
-947.0507705330847
 31
0.0
  0
LINE
  5
149
330
5C
100
AcDbEntity
  8
0
  6
Continuous
 62
     7
100
AcDbLine
 10
-1048.749999999935
 20
-947.0575678379977
 30
0.0
 11
-1054.749999999935
 21
-947.0575678379977
 31
0.0
  0
LINE
  5
14A
330
5C
100
AcDbEntity
  8
0
  6
Continuous
 62
     7
100
AcDbLine
 10
-1048.749999999935
 20
-944.2798731299113
 30
0.0
 11
-1054.749999999935
 21
-944.2798731299113
 31
0.0
  0
LINE
  5
14B
330
5C
100
AcDbEntity
  8
0
  6
Continuous
 62
     7
100
AcDbLine
 10
-1038.749999999935
 20
-953.0
 30
0.0
 11
-1038.749999999935
 21
-941.75
 31
0.0
  0
LINE
  5
14C
330
5C
100
AcDbEntity
  8
0
  6
Continuous
 62
     7
100
AcDbLine
 10
-1107.249999999935
 20
-966.75
 30
0.0
 11
-1107.749999999935
 21
-966.75
 31
0.0
  0
LINE
  5
14D
330
5C
100
AcDbEntity
  8
0
  6
Continuous
 62
     7
100
AcDbLine
 10
-1107.249999999935
 20
-939.25
 30
0.0
 11
-1107.749999999935
 21
-939.25
 31
0.0
  0
LINE
  5
14E
330
5C
100
AcDbEntity
  8
0
  6
Continuous
 62
     7
100
AcDbLine
 10
-1107.749999999935
 20
-966.75
 30
0.0
 11
-1107.749999999935
 21
-967.75
 31
0.0
  0
LINE
  5
14F
330
5C
100
AcDbEntity
  8
0
  6
Continuous
 62
     7
100
AcDbLine
 10
-1107.749999999935
 20
-938.25
 30
0.0
 11
-1107.749999999935
 21
-939.25
 31
0.0
  0
LINE
  5
150
330
5C
100
AcDbEntity
  8
0
  6
Continuous
 62
     7
100
AcDbLine
 10
-1107.749999999935
 20
-939.25
 30
0.0
 11
-1107.749999999935
 21
-966.75
 31
0.0
  0
LINE
  5
151
330
5C
100
AcDbEntity
  8
0
  6
Continuous
 62
     7
100
AcDbLine
 10
-1107.749999999935
 20
-967.75
 30
0.0
 11
-1110.749999999935
 21
-967.75
 31
0.0
  0
LINE
  5
152
330
5C
100
AcDbEntity
  8
0
  6
Continuous
 62
     7
100
AcDbLine
 10
-1107.249999999935
 20
-966.75
 30
0.0
 11
-1107.249999999935
 21
-967.75
 31
0.0
  0
LINE
  5
153
330
5C
100
AcDbEntity
  8
0
  6
Continuous
 62
     7
100
AcDbLine
 10
-1107.249999999935
 20
-938.25
 30
0.0
 11
-1107.249999999935
 21
-939.25
 31
0.0
  0
LINE
  5
154
330
5C
100
AcDbEntity
  8
0
  6
Continuous
 62
     7
100
AcDbLine
 10
-1103.249999999935
 20
-967.25
 30
0.0
 11
-1103.249999999935
 21
-966.876689086378
 31
0.0
  0
LINE
  5
155
330
5C
100
AcDbEntity
  8
0
  6
Continuous
 62
     7
100
AcDbLine
 10
-1103.249999999935
 20
-967.75
 30
0.0
 11
-1103.249999999935
 21
-967.25
 31
0.0
  0
LINE
  5
156
330
5C
100
AcDbEntity
  8
0
  6
Continuous
 62
     7
100
AcDbLine
 10
-1103.249999999935
 20
-939.123310913622
 30
0.0
 11
-1103.249999999935
 21
-938.75
 31
0.0
  0
LINE
  5
157
330
5C
100
AcDbEntity
  8
0
  6
Continuous
 62
     7
100
AcDbLine
 10
-1103.249999999935
 20
-938.75
 30
0.0
 11
-1103.249999999935
 21
-938.25
 31
0.0
  0
LINE
  5
158
330
5C
100
AcDbEntity
  8
0
  6
Continuous
 62
     7
100
AcDbLine
 10
-1103.249999999935
 20
-967.75
 30
0.0
 11
-1107.249999999935
 21
-967.75
 31
0.0
  0
LINE
  5
159
330
5C
100
AcDbEntity
  8
0
  6
Continuous
 62
     7
100
AcDbLine
 10
-1110.749999999935
 20
-938.25
 30
0.0
 11
-1110.749999999935
 21
-967.75
 31
0.0
  0
LINE
  5
15A
330
5C
100
AcDbEntity
  8
0
  6
Continuous
 62
     7
100
AcDbLine
 10
-1048.749999999935
 20
-944.2798731299113
 30
0.0
 11
-1048.749999999935
 21
-941.75
 31
0.0
  0
LINE
  5
15B
330
5C
100
AcDbEntity
  8
0
  6
Continuous
 62
     7
100
AcDbLine
 10
-1080.749999999935
 20
-944.2858647334575
 30
0.0
 11
-1080.749999999935
 21
-938.99
 31
0.0
  0
LINE
  5
15C
330
5C
100
AcDbEntity
  8
0
  6
Continuous
 62
     7
100
AcDbLine
 10
-1054.749999999935
 20
-944.2798731299113
 30
0.0
 11
-1054.749999999935
 21
-941.75
 31
0.0
  0
LINE
  5
15D
330
5C
100
AcDbEntity
  8
0
  6
Continuous
 62
     7
100
AcDbLine
 10
-1080.749999999935
 20
-944.2858647334575
 30
0.0
 11
-1089.249999999935
 21
-944.2858647334575
 31
0.0
  0
LINE
  5
15E
330
5C
100
AcDbEntity
  8
0
  6
Continuous
 62
     7
100
AcDbLine
 10
-1054.749999999935
 20
-941.75
 30
0.0
 11
-1062.249999999935
 21
-941.75
 31
0.0
  0
LINE
  5
15F
330
5C
100
AcDbEntity
  8
0
  6
Continuous
 62
     7
100
AcDbLine
 10
-1048.749999999935
 20
-941.75
 30
0.0
 11
-1048.749999999935
 21
-938.337440967909
 31
0.0
  0
LINE
  5
160
330
5C
100
AcDbEntity
  8
0
  6
Continuous
 62
     7
100
AcDbLine
 10
-1094.749999999935
 20
-967.25
 30
0.0
 11
-1094.749999999935
 21
-966.876689086378
 31
0.0
  0
LINE
  5
161
330
5C
100
AcDbEntity
  8
0
  6
Continuous
 62
     7
100
AcDbLine
 10
-1094.749999999935
 20
-938.75
 30
0.0
 11
-1094.749999999935
 21
-938.25
 31
0.0
  0
LINE
  5
162
330
5C
100
AcDbEntity
  8
0
  6
Continuous
 62
     7
100
AcDbLine
 10
-1094.749999999935
 20
-958.0
 30
0.0
 11
-1094.749999999935
 21
-948.0
 31
0.0
  0
LINE
  5
163
330
5C
100
AcDbEntity
  8
0
  6
Continuous
 62
     7
100
AcDbLine
 10
-1094.749999999935
 20
-948.0
 30
0.0
 11
-1103.249999999935
 21
-948.0
 31
0.0
  0
LINE
  5
164
330
5C
100
AcDbEntity
  8
0
  6
Continuous
 62
     7
100
AcDbLine
 10
-1094.749999999935
 20
-958.0
 30
0.0
 11
-1103.249999999935
 21
-958.0
 31
0.0
  0
LINE
  5
165
330
5C
100
AcDbEntity
  8
0
  6
Continuous
 62
     7
100
AcDbLine
 10
-1094.749999999935
 20
-966.876689086378
 30
0.0
 11
-1103.249999999935
 21
-966.876689086378
 31
0.0
  0
LINE
  5
166
330
5C
100
AcDbEntity
  8
0
  6
Continuous
 62
     7
100
AcDbLine
 10
-1094.749999999935
 20
-939.123310913622
 30
0.0
 11
-1103.249999999935
 21
-939.123310913622
 31
0.0
  0
LINE
  5
167
330
5C
100
AcDbEntity
  8
0
  6
Continuous
 62
     7
100
AcDbLine
 10
-1103.249999999935
 20
-958.0
 30
0.0
 11
-1103.249999999935
 21
-948.0
 31
0.0
  0
LINE
  5
168
330
5C
100
AcDbEntity
  8
0
  6
Continuous
 62
     7
100
AcDbLine
 10
-1094.749999999935
 20
-967.25
 30
0.0
 11
-1103.249999999935
 21
-967.25
 31
0.0
  0
LINE
  5
169
330
5C
100
AcDbEntity
  8
0
  6
Continuous
 62
     7
100
AcDbLine
 10
-1089.249999999935
 20
-944.2858647334575
 30
0.0
 11
-1089.249999999935
 21
-938.3366352665429
 31
0.0
  0
LINE
  5
16A
330
5C
100
AcDbEntity
  8
0
  6
Continuous
 62
     7
100
AcDbLine
 10
-1062.249999999935
 20
-941.75
 30
0.0
 11
-1062.249999999935
 21
-953.0
 31
0.0
  0
LINE
  5
16B
330
5C
100
AcDbEntity
  8
0
  6
Continuous
 62
     7
100
AcDbLine
 10
-1080.749999999935
 20
-938.3366352665429
 30
0.0
 11
-1089.249999999935
 21
-938.3366352665429
 31
0.0
  0
LINE
  5
16C
330
5C
100
AcDbEntity
  8
0
  6
Continuous
 62
     7
100
AcDbLine
 10
-1103.249999999935
 20
-938.25
 30
0.0
 11
-1107.249999999935
 21
-938.25
 31
0.0
  0
LINE
  5
16D
330
5C
100
AcDbEntity
  8
0
  6
Continuous
 62
     7
100
AcDbLine
 10
-1107.749999999935
 20
-938.25
 30
0.0
 11
-1110.749999999935
 21
-938.25
 31
0.0
  0
LINE
  5
16E
330
5C
100
AcDbEntity
  8
0
  6
Continuous
 62
     7
100
AcDbLine
 10
-1094.749999999935
 20
-938.75
 30
0.0
 11
-1103.249999999935
 21
-938.75
 31
0.0
  0
LINE
  5
16F
330
5C
100
AcDbEntity
  8
0
  6
Continuous
 62
     7
100
AcDbLine
 10
-1080.749999999935
 20
-967.01
 30
0.0
 11
-1080.749999999935
 21
-961.7141352665425
 31
0.0
  0
LINE
  5
170
330
5C
100
AcDbEntity
  8
0
  6
Continuous
 62
     7
100
AcDbLine
 10
-1080.749999999935
 20
-947.0507705330847
 30
0.0
 11
-1080.749999999935
 21
-958.9492294669153
 31
0.0
  0
LINE
  5
171
330
5C
100
AcDbEntity
  8
0
  6
Continuous
 62
     7
100
AcDbLine
 10
-1094.749999999935
 20
-967.75
 30
0.0
 11
-1094.749999999935
 21
-967.25
 31
0.0
  0
LINE
  5
172
330
5C
100
AcDbEntity
  8
0
  6
Continuous
 62
     7
100
AcDbLine
 10
-1080.749999999935
 20
-958.9492294669153
 30
0.0
 11
-1089.249999999935
 21
-958.9492294669153
 31
0.0
  0
LINE
  5
173
330
5C
100
AcDbEntity
  8
0
  6
Continuous
 62
     7
100
AcDbLine
 10
-1080.749999999935
 20
-958.9492294669153
 30
0.0
 11
-1080.749999999935
 21
-961.7141352665425
 31
0.0
  0
LINE
  5
174
330
5C
100
AcDbEntity
  8
0
  6
Continuous
 62
     7
100
AcDbLine
 10
-1080.749999999935
 20
-961.7141352665425
 30
0.0
 11
-1089.249999999935
 21
-961.7141352665425
 31
0.0
  0
LINE
  5
175
330
5C
100
AcDbEntity
  8
0
  6
Continuous
 62
     7
100
AcDbLine
 10
-1089.249999999935
 20
-967.6633647334571
 30
0.0
 11
-1089.249999999935
 21
-961.7141352665425
 31
0.0
  0
LINE
  5
176
330
5C
100
AcDbEntity
  8
0
  6
Continuous
 62
     7
100
AcDbLine
 10
-1080.749999999935
 20
-967.6633647334571
 30
0.0
 11
-1089.249999999935
 21
-967.6633647334571
 31
0.0
  0
LINE
  5
177
330
5C
100
AcDbEntity
  8
0
  6
Continuous
 62
     7
100
AcDbLine
 10
-1080.749999999935
 20
-967.6633647334571
 30
0.0
 11
-1080.749999999935
 21
-967.75
 31
0.0
  0
LINE
  5
178
330
5C
100
AcDbEntity
  8
0
  6
Continuous
 62
     7
100
AcDbLine
 10
-1089.249999999935
 20
-958.9492294669153
 30
0.0
 11
-1089.249999999935
 21
-947.0507705330847
 31
0.0
  0
LINE
  5
179
330
5C
100
AcDbEntity
  8
0
  6
Continuous
 62
     7
100
AcDbLine
 10
-1080.749999999935
 20
-967.75
 30
0.0
 11
-1094.749999999935
 21
-967.75
 31
0.0
  0
LINE
  5
17A
330
5C
100
AcDbEntity
  8
0
  6
Continuous
 62
     7
100
AcDbLine
 10
-1048.749999999935
 20
-938.25
 30
0.0
 11
-1048.749999999935
 21
-938.337440967909
 31
0.0
  0
LINE
  5
17B
330
5C
100
AcDbEntity
  8
0
  6
Continuous
 62
     7
100
AcDbLine
 10
-1054.749999999935
 20
-938.25
 30
0.0
 11
-1054.749999999935
 21
-938.337440967909
 31
0.0
  0
LINE
  5
17C
330
5C
100
AcDbEntity
  8
0
  6
Continuous
 62
     7
100
AcDbLine
 10
-1054.749999999935
 20
-941.75
 30
0.0
 11
-1054.749999999935
 21
-938.337440967909
 31
0.0
  0
LINE
  5
17D
330
5C
100
AcDbEntity
  8
0
  6
Continuous
 62
     7
100
AcDbLine
 10
-1062.249999999935
 20
-938.99
 30
0.0
 11
-1062.249999999935
 21
-941.75
 31
0.0
  0
LINE
  5
17E
330
5C
100
AcDbEntity
  8
0
  6
Continuous
 62
     7
100
AcDbLine
 10
-1094.749999999935
 20
-939.123310913622
 30
0.0
 11
-1094.749999999935
 21
-938.75
 31
0.0
  0
LINE
  5
17F
330
5C
100
AcDbEntity
  8
0
  6
Continuous
 62
     7
100
AcDbLine
 10
-1080.749999999935
 20
-938.3366352665429
 30
0.0
 11
-1080.749999999935
 21
-938.99
 31
0.0
  0
LINE
  5
180
330
5C
100
AcDbEntity
  8
0
  6
Continuous
 62
     7
100
AcDbLine
 10
-1048.749999999935
 20
-938.25
 30
0.0
 11
-1054.749999999935
 21
-938.25
 31
0.0
  0
LINE
  5
181
330
5C
100
AcDbEntity
  8
0
  6
Continuous
 62
     7
100
AcDbLine
 10
-1080.749999999935
 20
-938.25
 30
0.0
 11
-1080.749999999935
 21
-938.3366352665429
 31
0.0
  0
LINE
  5
182
330
5C
100
AcDbEntity
  8
0
  6
Continuous
 62
     7
100
AcDbLine
 10
-1080.749999999935
 20
-938.25
 30
0.0
 11
-1094.749999999935
 21
-938.25
 31
0.0
  0
LINE
  5
183
330
5C
100
AcDbEntity
  8
0
  6
Continuous
 62
     7
100
AcDbLine
 10
-1048.749999999935
 20
-938.337440967909
 30
0.0
 11
-1054.749999999935
 21
-938.337440967909
 31
0.0
  0
LINE
  5
184
330
5C
100
AcDbEntity
  8
0
  6
Continuous
 62
     7
100
AcDbLine
 10
-1062.249999999935
 20
-938.99
 30
0.0
 11
-1080.749999999935
 21
-938.99
 31
0.0
  0
LINE
  5
185
330
5C
100
AcDbEntity
  8
0
  6
Continuous
 62
     7
100
AcDbLine
 10
-1038.749999999935
 20
-964.25
 30
0.0
 11
-1048.749999999935
 21
-964.25
 31
0.0
  0
LINE
  5
186
330
5C
100
AcDbEntity
  8
0
  6
Continuous
 62
     7
100
AcDbLine
 10
-1080.749999999935
 20
-967.01
 30
0.0
 11
-1080.749999999935
 21
-967.6633647334571
 31
0.0
  0
LINE
  5
187
330
5C
100
AcDbEntity
  8
0
  6
Continuous
 62
     7
100
AcDbLine
 10
-1048.749999999935
 20
-967.75
 30
0.0
 11
-1054.749999999935
 21
-967.75
 31
0.0
  0
LINE
  5
188
330
5C
100
AcDbEntity
  8
0
  6
Continuous
 62
     7
100
AcDbLine
 10
-1048.749999999935
 20
-967.662559032091
 30
0.0
 11
-1048.749999999935
 21
-967.75
 31
0.0
  0
LINE
  5
189
330
5C
100
AcDbEntity
  8
0
  6
Continuous
 62
     7
100
AcDbLine
 10
-1054.749999999935
 20
-967.662559032091
 30
0.0
 11
-1054.749999999935
 21
-967.75
 31
0.0
  0
LINE
  5
18A
330
5C
100
AcDbEntity
  8
0
  6
Continuous
 62
     7
100
AcDbLine
 10
-1062.249999999935
 20
-964.25
 30
0.0
 11
-1062.249999999935
 21
-967.01
 31
0.0
  0
LINE
  5
18B
330
5C
100
AcDbEntity
  8
0
  6
Continuous
 62
     7
100
AcDbLine
 10
-1048.749999999935
 20
-967.662559032091
 30
0.0
 11
-1054.749999999935
 21
-967.662559032091
 31
0.0
  0
LINE
  5
18C
330
5C
100
AcDbEntity
  8
0
  6
Continuous
 62
     7
100
AcDbLine
 10
-1054.749999999935
 20
-967.662559032091
 30
0.0
 11
-1054.749999999935
 21
-964.25
 31
0.0
  0
LINE
  5
18D
330
5C
100
AcDbEntity
  8
0
  6
Continuous
 62
     7
100
AcDbLine
 10
-1048.749999999935
 20
-964.25
 30
0.0
 11
-1048.749999999935
 21
-961.7201268700887
 31
0.0
  0
LINE
  5
18E
330
5C
100
AcDbEntity
  8
0
  6
Continuous
 62
     7
100
AcDbLine
 10
-1048.749999999935
 20
-967.662559032091
 30
0.0
 11
-1048.749999999935
 21
-964.25
 31
0.0
  0
LINE
  5
18F
330
5C
100
AcDbEntity
  8
0
  6
Continuous
 62
     7
100
AcDbLine
 10
-1048.749999999935
 20
-958.9424321620023
 30
0.0
 11
-1054.749999999935
 21
-958.9424321620023
 31
0.0
  0
LINE
  5
190
330
5C
100
AcDbEntity
  8
0
  6
Continuous
 62
     7
100
AcDbLine
 10
-1048.749999999935
 20
-961.7201268700887
 30
0.0
 11
-1054.749999999935
 21
-961.7201268700887
 31
0.0
  0
LINE
  5
191
330
5C
100
AcDbEntity
  8
0
  6
Continuous
 62
     7
100
AcDbLine
 10
-1048.749999999935
 20
-958.9424321620023
 30
0.0
 11
-1048.749999999935
 21
-961.7201268700887
 31
0.0
  0
LINE
  5
192
330
5C
100
AcDbEntity
  8
0
  6
Continuous
 62
     7
100
AcDbLine
 10
-1054.749999999935
 20
-964.25
 30
0.0
 11
-1062.249999999935
 21
-964.25
 31
0.0
  0
LINE
  5
193
330
5C
100
AcDbEntity
  8
0
  6
Continuous
 62
     7
100
AcDbLine
 10
-1054.749999999935
 20
-964.25
 30
0.0
 11
-1054.749999999935
 21
-961.7201268700887
 31
0.0
  0
LINE
  5
194
330
5C
100
AcDbEntity
  8
0
  6
Continuous
 62
     7
100
AcDbLine
 10
-1054.749999999935
 20
-958.9424321620023
 30
0.0
 11
-1054.749999999935
 21
-961.7201268700887
 31
0.0
  0
LINE
  5
195
330
5C
100
AcDbEntity
  8
0
  6
Continuous
 62
     7
100
AcDbLine
 10
-1080.749999999935
 20
-944.2858647334575
 30
0.0
 11
-1080.749999999935
 21
-947.0507705330847
 31
0.0
  0
LINE
  5
196
330
5C
100
AcDbEntity
  8
0
  6
Continuous
 62
     7
100
AcDbLine
 10
-1062.249999999935
 20
-953.0
 30
0.0
 11
-1062.249999999935
 21
-964.25
 31
0.0
  0
LINE
  5
197
330
5C
100
AcDbEntity
  8
0
  6
Continuous
 62
     7
100
AcDbLine
 10
-1054.749999999935
 20
-958.9424321620023
 30
0.0
 11
-1054.749999999935
 21
-947.0575678379977
 31
0.0
  0
LINE
  5
198
330
5C
100
AcDbEntity
  8
0
  6
Continuous
 62
     7
100
AcDbLine
 10
-1048.749999999935
 20
-958.9424321620023
 30
0.0
 11
-1048.749999999935
 21
-947.0575678379977
 31
0.0
  0
LINE
  5
199
330
5C
100
AcDbEntity
  8
0
  6
Continuous
 62
     7
100
AcDbLine
 10
-1062.249999999935
 20
-967.01
 30
0.0
 11
-1080.749999999935
 21
-967.01
 31
0.0
  0
LINE
  5
19A
330
5C
100
AcDbEntity
  8
0
  6
Continuous
 62
     7
100
AcDbLine
 10
-1038.749999999935
 20
-964.25
 30
0.0
 11
-1038.749999999935
 21
-953.0
 31
0.0
  0
LINE
  5
19B
330
5C
100
AcDbEntity
  8
0
  6
Continuous
 62
     7
100
AcDbLine
 10
-1107.249999999935
 20
-939.25
 30
0.0
 11
-1107.249999999935
 21
-966.75
 31
0.0
  0
LINE
  5
19C
330
5C
100
AcDbEntity
  8
1
  6
Continuous
 62
     2
100
AcDbLine
 10
-1038.749999999935
 20
-942.42
 30
0.0
 11
-1048.749999999935
 21
-942.42
 31
0.0
  0
LINE
  5
19D
330
5C
100
AcDbEntity
  8
1
  6
Continuous
 62
     2
100
AcDbLine
 10
-1038.749999999935
 20
-963.58
 30
0.0
 11
-1048.749999999935
 21
-963.58
 31
0.0
  0
LINE
  5
19E
330
5C
100
AcDbEntity
  8
1
  6
DOT_CENTER
 62
     2
100
AcDbLine
 10
-1054.749999999935
 20
-953.0
 30
0.0
 11
-1110.749999999935
 21
-953.0
 31
0.0
  0
LINE
  5
19F
330
5C
100
AcDbEntity
  8
1
  6
DOT_CENTER
 62
     2
100
AcDbLine
 10
-1038.749999999935
 20
-953.0
 30
0.0
 11
-1048.749999999935
 21
-953.0
 31
0.0
  0
ENDBLK
  5
5E
330
5C
100
AcDbEntity
  8
0
100
AcDbBlockEnd
  0
BLOCK
  5
61
330
5F
100
AcDbEntity
  8
0
100
AcDbBlockBegin
  2
Vordans1
 70
     0
 10
-1074.75
 20
-953.0
 30
0.0
  3
Vordans1
  1

  0
INSERT
  5
60
330
5F
100
AcDbEntity
  8
0
100
AcDbBlockReference
  2
WP_GR_HF_IP66_PG16_BK-select__4
 10
-1110.749999999935
 20
-967.75
 30
0.0
  0
MTEXT
  5
1A0
330
5F
100
AcDbEntity
  8
1
 62
     6
100
AcDbMText
 10
-1074.75
 20
-972.7380380630493
 30
0.0
 40
5.0
 41
0.0
 71
     2
 72
     1
  1
 
  7
CONVERTER_11
 73
     1
 44
1.32052821128451
  0
DIMENSION
  5
1AB
330
5F
100
AcDbEntity
  8
1
100
AcDbDimension
  2
*D17
 10
-1110.749999999935
 20
-977.75
 30
0.0
 11
-1074.75
 21
-974.5
 31
0.0
 70
    32
  1
<>
 71
     5
 42
-1.0
 53
0.00013888888889
  3
ME10_DIM_10
100
AcDbAlignedDimension
 13
-1038.749999999935
 23
-964.25
 33
0.0
 14
-1110.749999999935
 24
-967.75
 34
0.0
100
AcDbRotatedDimension
  0
DIMENSION
  5
1B6
330
5F
100
AcDbEntity
  8
1
100
AcDbDimension
  2
*D18
 10
-1120.749999999935
 20
-967.75
 30
0.0
 11
-1124.174999999935
 21
-954.3114243056
 31
0.0
 70
    32
  1
<>
 71
     5
 42
-1.0
 53
90.0
  3
ME10_DIM_11
100
AcDbAlignedDimension
 13
-1110.749999999935
 23
-938.25
 33
0.0
 14
-1110.749999999935
 24
-967.75
 34
0.0
 50
90.0
100
AcDbRotatedDimension
  0
ENDBLK
  5
62
330
5F
100
AcDbEntity
  8
0
100
AcDbBlockEnd
  0
BLOCK
  5
64
330
63
100
AcDbEntity
  8
0
100
AcDbBlockBegin
  2
WP_GR_HF_IP66_PG16_BK-select__5
 70
     0
 10
-1174.25
 20
-967.75
 30
0.0
  3
WP_GR_HF_IP66_PG16_BK-select__5
  1

  0
LINE
  5
1B7
330
63
100
AcDbEntity
  8
0
  6
Continuous
 62
     7
100
AcDbLine
 10
-1147.60370278744
 20
-961.7201268700887
 30
0.0
 11
-1157.89629721256
 21
-967.662559032091
 31
0.0
  0
LINE
  5
1B8
330
63
100
AcDbEntity
  8
0
  6
Continuous
 62
     7
100
AcDbLine
 10
-1161.10370278744
 20
-967.662559032091
 30
0.0
 11
-1171.39629721256
 21
-961.7201268700887
 31
0.0
  0
LINE
  5
1B9
330
63
100
AcDbEntity
  8
0
  6
Continuous
 62
     7
100
AcDbLine
 10
-1157.89629721256
 20
-938.337440967909
 30
0.0
 11
-1147.60370278744
 21
-944.2798731299113
 31
0.0
  0
LINE
  5
1BA
330
63
100
AcDbEntity
  8
0
  6
Continuous
 62
     7
100
AcDbLine
 10
-1171.39629721256
 20
-944.2798731299113
 30
0.0
 11
-1161.10370278744
 21
-938.337440967909
 31
0.0
  0
LINE
  5
1BB
330
63
100
AcDbEntity
  8
0
  6
Continuous
 62
     7
100
AcDbLine
 10
-1146.0
 20
-947.0575678379977
 30
0.0
 11
-1146.0
 21
-958.9424321620023
 31
0.0
  0
LINE
  5
1BC
330
63
100
AcDbEntity
  8
0
  6
Continuous
 62
     7
100
AcDbLine
 10
-1173.0
 20
-958.9424321620023
 30
0.0
 11
-1173.0
 21
-947.0575678379977
 31
0.0
  0
LINE
  5
1BD
330
63
100
AcDbEntity
  8
1
  6
DOT_CENTER
 62
     2
100
AcDbLine
 10
-1143.275
 20
-953.0
 30
0.0
 11
-1175.725
 21
-953.0
 31
0.0
  0
LINE
  5
1BE
330
63
100
AcDbEntity
  8
1
  6
DOT_CENTER
 62
     2
100
AcDbLine
 10
-1159.5
 20
-936.775
 30
0.0
 11
-1159.5
 21
-969.225
 31
0.0
  0
ARC
  5
1BF
330
63
100
AcDbEntity
  8
0
  6
Continuous
 62
     7
100
AcDbCircle
 10
-1159.5
 20
-953.0
 30
0.0
 40
14.74999999999992
100
AcDbArc
 50
263.758142055335
 51
276.241857944665
  0
ARC
  5
1C0
330
63
100
AcDbEntity
  8
0
  6
Continuous
 62
     7
100
AcDbCircle
 10
-1159.5
 20
-953.0
 30
0.0
 40
14.74999999999992
100
AcDbArc
 50
276.241857944665
 51
323.7581420553345
  0
ARC
  5
1C1
330
63
100
AcDbEntity
  8
0
  6
Continuous
 62
     7
100
AcDbCircle
 10
-1159.5
 20
-953.0
 30
0.0
 40
14.75000000000026
100
AcDbArc
 50
216.2418579446654
 51
263.758142055335
  0
ARC
  5
1C2
330
63
100
AcDbEntity
  8
0
  6
Continuous
 62
     7
100
AcDbCircle
 10
-1159.5
 20
-953.0
 30
0.0
 40
14.74999999999998
100
AcDbArc
 50
156.2418579446663
 51
203.7581420553337
  0
ARC
  5
1C3
330
63
100
AcDbEntity
  8
0
  6
Continuous
 62
     7
100
AcDbCircle
 10
-1159.5
 20
-953.0
 30
0.0
 40
14.75000000000026
100
AcDbArc
 50
36.24185794466541
 51
83.75814205533506
  0
ARC
  5
1C4
330
63
100
AcDbEntity
  8
0
  6
Continuous
 62
     7
100
AcDbCircle
 10
-1159.5
 20
-953.0
 30
0.0
 40
14.74999999999992
100
AcDbArc
 50
83.75814205533506
 51
96.24185794466493
  0
ARC
  5
1C5
330
63
100
AcDbEntity
  8
0
  6
Continuous
 62
     7
100
AcDbCircle
 10
-1159.5
 20
-953.0
 30
0.0
 40
14.74999999999992
100
AcDbArc
 50
96.24185794466493
 51
143.7581420553346
  0
ARC
  5
1C6
330
63
100
AcDbEntity
  8
0
  6
Continuous
 62
     7
100
AcDbCircle
 10
-1159.5
 20
-953.0
 30
0.0
 40
14.75000000000026
100
AcDbArc
 50
323.7581420553345
 51
336.2418579446663
  0
ARC
  5
1C7
330
63
100
AcDbEntity
  8
0
  6
Continuous
 62
     7
100
AcDbCircle
 10
-1159.5
 20
-953.0
 30
0.0
 40
14.74999999999998
100
AcDbArc
 50
336.2418579446663
 51
23.75814205533367
  0
ARC
  5
1C8
330
63
100
AcDbEntity
  8
0
  6
Continuous
 62
     7
100
AcDbCircle
 10
-1159.5
 20
-953.0
 30
0.0
 40
14.00999999999995
100
AcDbArc
 50
284.4929215038094
 51
315.5070784961906
  0
ARC
  5
1C9
330
63
100
AcDbEntity
  8
0
  6
Continuous
 62
     7
100
AcDbCircle
 10
-1159.5
 20
-953.0
 30
0.0
 40
14.01
100
AcDbArc
 50
344.4929215038097
 51
15.5070784961903
  0
ARC
  5
1CA
330
63
100
AcDbEntity
  8
0
  6
Continuous
 62
     7
100
AcDbCircle
 10
-1159.5
 20
-953.0
 30
0.0
 40
14.74999999999998
100
AcDbArc
 50
203.7581420553337
 51
216.2418579446654
  0
ARC
  5
1CB
330
63
100
AcDbEntity
  8
0
  6
Continuous
 62
     7
100
AcDbCircle
 10
-1159.5
 20
-953.0
 30
0.0
 40
14.01000000000004
100
AcDbArc
 50
224.4929215038094
 51
255.5070784961906
  0
ARC
  5
1CC
330
63
100
AcDbEntity
  8
0
  6
Continuous
 62
     7
100
AcDbCircle
 10
-1159.5
 20
-953.0
 30
0.0
 40
14.00999999999999
100
AcDbArc
 50
180.0
 51
195.5070784961903
  0
ARC
  5
1CD
330
63
100
AcDbEntity
  8
0
  6
Continuous
 62
     7
100
AcDbCircle
 10
-1159.5
 20
-953.0
 30
0.0
 40
14.74999999999998
100
AcDbArc
 50
23.75814205533367
 51
36.24185794466541
  0
ARC
  5
1CE
330
63
100
AcDbEntity
  8
0
  6
Continuous
 62
     7
100
AcDbCircle
 10
-1159.5
 20
-953.0
 30
0.0
 40
14.01
100
AcDbArc
 50
164.4929215038097
 51
180.0
  0
ARC
  5
1CF
330
63
100
AcDbEntity
  8
0
  6
Continuous
 62
     7
100
AcDbCircle
 10
-1159.5
 20
-953.0
 30
0.0
 40
14.75000000000026
100
AcDbArc
 50
143.7581420553346
 51
156.2418579446663
  0
ARC
  5
1D0
330
63
100
AcDbEntity
  8
0
  6
Continuous
 62
     7
100
AcDbCircle
 10
-1159.5
 20
-953.0
 30
0.0
 40
14.00999999999995
100
AcDbArc
 50
104.4929215038094
 51
135.5070784961906
  0
ARC
  5
1D1
330
63
100
AcDbEntity
  8
0
  6
Continuous
 62
     7
100
AcDbCircle
 10
-1159.5
 20
-953.0
 30
0.0
 40
14.01000000000004
100
AcDbArc
 50
44.49292150380937
 51
75.5070784961906
  0
ARC
  5
1D2
330
63
100
AcDbEntity
  8
1
  6
Continuous
 62
     2
100
AcDbCircle
 10
-1159.5
 20
-953.0
 30
0.0
 40
10.57999999999993
100
AcDbArc
 50
180.0
 51
90.0
  0
CIRCLE
  5
1D3
330
63
100
AcDbEntity
  8
0
  6
Continuous
 62
     7
100
AcDbCircle
 10
-1159.5
 20
-953.0
 30
0.0
 40
7.0
  0
CIRCLE
  5
1D4
330
63
100
AcDbEntity
  8
0
  6
Continuous
 62
     7
100
AcDbCircle
 10
-1159.5
 20
-953.0
 30
0.0
 40
11.25
  0
ENDBLK
  5
65
330
63
100
AcDbEntity
  8
0
100
AcDbBlockEnd
  0
BLOCK
  5
68
330
66
100
AcDbEntity
  8
0
100
AcDbBlockBegin
  2
SA_Rechts1
 70
     0
 10
-1159.5
 20
-953.0
 30
0.0
  3
SA_Rechts1
  1

  0
INSERT
  5
67
330
66
100
AcDbEntity
  8
0
100
AcDbBlockReference
  2
WP_GR_HF_IP66_PG16_BK-select__5
 10
-1174.25
 20
-967.75
 30
0.0
  0
MTEXT
  5
1D5
330
66
100
AcDbEntity
  8
1
 62
     6
100
AcDbMText
 10
-1159.5
 20
-972.7380380630493
 30
0.0
 40
5.0
 41
0.0
 71
     2
 72
     1
  1
 
  7
CONVERTER_11
 73
     1
 44
1.32052821128451
  0
ENDBLK
  5
69
330
66
100
AcDbEntity
  8
0
100
AcDbBlockEnd
  0
BLOCK
  5
6B
330
6A
100
AcDbEntity
  8
0
100
AcDbBlockBegin
  2
WP_GR_HF_IP66_PG16_BK-select__6
 70
     0
 10
-956.2500000000975
 20
-967.7500000000001
 30
0.0
  3
WP_GR_HF_IP66_PG16_BK-select__6
  1

  0
LINE
  5
1D6
330
6A
100
AcDbEntity
  8
0
  6
Continuous
 62
     7
100
AcDbLine
 10
-946.2500000000977
 20
-967.75
 30
0.0
 11
-946.2500000000977
 21
-967.6625590320912
 31
0.0
  0
LINE
  5
1D7
330
6A
100
AcDbEntity
  8
0
  6
Continuous
 62
     7
100
AcDbLine
 10
-940.2500000000977
 20
-967.75
 30
0.0
 11
-940.2500000000977
 21
-967.6625590320912
 31
0.0
  0
LINE
  5
1D8
330
6A
100
AcDbEntity
  8
0
  6
Continuous
 62
     7
100
AcDbLine
 10
-940.2500000000975
 20
-961.7201268700887
 30
0.0
 11
-940.2500000000975
 21
-964.25
 31
0.0
  0
LINE
  5
1D9
330
6A
100
AcDbEntity
  8
0
  6
Continuous
 62
     7
100
AcDbLine
 10
-940.2500000000975
 20
-964.25
 30
0.0
 11
-940.2500000000977
 21
-967.6625590320912
 31
0.0
  0
LINE
  5
1DA
330
6A
100
AcDbEntity
  8
0
  6
Continuous
 62
     7
100
AcDbLine
 10
-946.2500000000975
 20
-961.7201268700887
 30
0.0
 11
-946.2500000000975
 21
-964.25
 31
0.0
  0
LINE
  5
1DB
330
6A
100
AcDbEntity
  8
0
  6
Continuous
 62
     7
100
AcDbLine
 10
-932.7500000000977
 20
-967.0100000000001
 30
0.0
 11
-932.7500000000977
 21
-964.25
 31
0.0
  0
LINE
  5
1DC
330
6A
100
AcDbEntity
  8
0
  6
Continuous
 62
     7
100
AcDbLine
 10
-946.2500000000977
 20
-967.6625590320912
 30
0.0
 11
-940.2500000000977
 21
-967.6625590320912
 31
0.0
  0
LINE
  5
1DD
330
6A
100
AcDbEntity
  8
0
  6
Continuous
 62
     7
100
AcDbLine
 10
-946.2500000000975
 20
-964.25
 30
0.0
 11
-946.2500000000977
 21
-967.6625590320912
 31
0.0
  0
LINE
  5
1DE
330
6A
100
AcDbEntity
  8
0
  6
Continuous
 62
     7
100
AcDbLine
 10
-914.2500000000977
 20
-967.0100000000001
 30
0.0
 11
-914.2500000000977
 21
-961.7141352665426
 31
0.0
  0
LINE
  5
1DF
330
6A
100
AcDbEntity
  8
0
  6
Continuous
 62
     7
100
AcDbLine
 10
-887.7500000000975
 20
-966.7500000000001
 30
0.0
 11
-887.2500000000975
 21
-966.7500000000001
 31
0.0
  0
LINE
  5
1E0
330
6A
100
AcDbEntity
  8
0
  6
Continuous
 62
     7
100
AcDbLine
 10
-932.7500000000977
 20
-967.0100000000001
 30
0.0
 11
-914.2500000000977
 21
-967.0100000000001
 31
0.0
  0
LINE
  5
1E1
330
6A
100
AcDbEntity
  8
0
  6
Continuous
 62
     7
100
AcDbLine
 10
-900.2500000000977
 20
-966.876689086378
 30
0.0
 11
-891.7500000000977
 21
-966.876689086378
 31
0.0
  0
LINE
  5
1E2
330
6A
100
AcDbEntity
  8
0
  6
Continuous
 62
     7
100
AcDbLine
 10
-940.2500000000975
 20
-964.25
 30
0.0
 11
-932.7500000000977
 21
-964.25
 31
0.0
  0
LINE
  5
1E3
330
6A
100
AcDbEntity
  8
0
  6
Continuous
 62
     7
100
AcDbLine
 10
-946.2500000000977
 20
-967.75
 30
0.0
 11
-940.2500000000977
 21
-967.75
 31
0.0
  0
LINE
  5
1E4
330
6A
100
AcDbEntity
  8
0
  6
Continuous
 62
     7
100
AcDbLine
 10
-884.2500000000975
 20
-967.7500000000001
 30
0.0
 11
-884.2500000000975
 21
-953.0000000000001
 31
0.0
  0
LINE
  5
1E5
330
6A
100
AcDbEntity
  8
0
  6
Continuous
 62
     7
100
AcDbLine
 10
-900.2500000000975
 20
-958.0
 30
0.0
 11
-891.7500000000975
 21
-958.0
 31
0.0
  0
LINE
  5
1E6
330
6A
100
AcDbEntity
  8
0
  6
Continuous
 62
     7
100
AcDbLine
 10
-891.7500000000975
 20
-938.7500000000001
 30
0.0
 11
-891.7500000000975
 21
-939.1233109136222
 31
0.0
  0
LINE
  5
1E7
330
6A
100
AcDbEntity
  8
0
  6
Continuous
 62
     7
100
AcDbLine
 10
-900.2500000000975
 20
-938.7500000000001
 30
0.0
 11
-891.7500000000975
 21
-938.7500000000001
 31
0.0
  0
LINE
  5
1E8
330
6A
100
AcDbEntity
  8
0
  6
Continuous
 62
     7
100
AcDbLine
 10
-900.2500000000975
 20
-938.7500000000001
 30
0.0
 11
-900.2500000000975
 21
-939.1233109136222
 31
0.0
  0
LINE
  5
1E9
330
6A
100
AcDbEntity
  8
0
  6
Continuous
 62
     7
100
AcDbLine
 10
-891.7500000000975
 20
-938.2500000000001
 30
0.0
 11
-891.7500000000975
 21
-938.7500000000001
 31
0.0
  0
LINE
  5
1EA
330
6A
100
AcDbEntity
  8
0
  6
Continuous
 62
     7
100
AcDbLine
 10
-900.2500000000975
 20
-938.2500000000001
 30
0.0
 11
-900.2500000000975
 21
-938.7500000000001
 31
0.0
  0
LINE
  5
1EB
330
6A
100
AcDbEntity
  8
0
  6
Continuous
 62
     7
100
AcDbLine
 10
-887.7500000000975
 20
-939.2500000000001
 30
0.0
 11
-887.7500000000975
 21
-938.2500000000001
 31
0.0
  0
LINE
  5
1EC
330
6A
100
AcDbEntity
  8
0
  6
Continuous
 62
     7
100
AcDbLine
 10
-932.7500000000975
 20
-941.75
 30
0.0
 11
-932.7500000000975
 21
-938.99
 31
0.0
  0
LINE
  5
1ED
330
6A
100
AcDbEntity
  8
0
  6
Continuous
 62
     7
100
AcDbLine
 10
-914.2500000000975
 20
-938.99
 30
0.0
 11
-914.2500000000975
 21
-938.336635266543
 31
0.0
  0
LINE
  5
1EE
330
6A
100
AcDbEntity
  8
0
  6
Continuous
 62
     7
100
AcDbLine
 10
-940.2500000000975
 20
-941.75
 30
0.0
 11
-940.2500000000975
 21
-944.2798731299114
 31
0.0
  0
LINE
  5
1EF
330
6A
100
AcDbEntity
  8
0
  6
Continuous
 62
     7
100
AcDbLine
 10
-940.2500000000975
 20
-938.337440967909
 30
0.0
 11
-940.2500000000975
 21
-941.75
 31
0.0
  0
LINE
  5
1F0
330
6A
100
AcDbEntity
  8
0
  6
Continuous
 62
     7
100
AcDbLine
 10
-946.2500000000975
 20
-938.337440967909
 30
0.0
 11
-946.2500000000975
 21
-941.75
 31
0.0
  0
LINE
  5
1F1
330
6A
100
AcDbEntity
  8
0
  6
Continuous
 62
     7
100
AcDbLine
 10
-914.2500000000975
 20
-938.336635266543
 30
0.0
 11
-914.2500000000975
 21
-938.2500000000001
 31
0.0
  0
LINE
  5
1F2
330
6A
100
AcDbEntity
  8
0
  6
Continuous
 62
     7
100
AcDbLine
 10
-946.2500000000975
 20
-938.25
 30
0.0
 11
-940.2500000000975
 21
-938.25
 31
0.0
  0
LINE
  5
1F3
330
6A
100
AcDbEntity
  8
0
  6
Continuous
 62
     7
100
AcDbLine
 10
-946.2500000000975
 20
-938.337440967909
 30
0.0
 11
-946.2500000000975
 21
-938.25
 31
0.0
  0
LINE
  5
1F4
330
6A
100
AcDbEntity
  8
0
  6
Continuous
 62
     7
100
AcDbLine
 10
-940.2500000000975
 20
-938.337440967909
 30
0.0
 11
-940.2500000000975
 21
-938.25
 31
0.0
  0
LINE
  5
1F5
330
6A
100
AcDbEntity
  8
0
  6
Continuous
 62
     7
100
AcDbLine
 10
-891.7500000000975
 20
-938.2500000000001
 30
0.0
 11
-887.7500000000975
 21
-938.2500000000001
 31
0.0
  0
LINE
  5
1F6
330
6A
100
AcDbEntity
  8
0
  6
Continuous
 62
     7
100
AcDbLine
 10
-887.2500000000975
 20
-938.2500000000001
 30
0.0
 11
-884.2500000000975
 21
-938.2500000000001
 31
0.0
  0
LINE
  5
1F7
330
6A
100
AcDbEntity
  8
0
  6
Continuous
 62
     7
100
AcDbLine
 10
-946.2500000000975
 20
-938.337440967909
 30
0.0
 11
-940.2500000000975
 21
-938.337440967909
 31
0.0
  0
LINE
  5
1F8
330
6A
100
AcDbEntity
  8
0
  6
Continuous
 62
     7
100
AcDbLine
 10
-914.2500000000975
 20
-938.336635266543
 30
0.0
 11
-905.7500000000975
 21
-938.336635266543
 31
0.0
  0
LINE
  5
1F9
330
6A
100
AcDbEntity
  8
0
  6
Continuous
 62
     7
100
AcDbLine
 10
-914.2500000000975
 20
-938.2500000000001
 30
0.0
 11
-900.2500000000975
 21
-938.2500000000001
 31
0.0
  0
LINE
  5
1FA
330
6A
100
AcDbEntity
  8
0
  6
Continuous
 62
     7
100
AcDbLine
 10
-914.2500000000975
 20
-944.2858647334576
 30
0.0
 11
-914.2500000000975
 21
-938.99
 31
0.0
  0
LINE
  5
1FB
330
6A
100
AcDbEntity
  8
0
  6
Continuous
 62
     7
100
AcDbLine
 10
-900.2500000000975
 20
-939.1233109136222
 30
0.0
 11
-891.7500000000975
 21
-939.1233109136222
 31
0.0
  0
LINE
  5
1FC
330
6A
100
AcDbEntity
  8
0
  6
Continuous
 62
     7
100
AcDbLine
 10
-887.7500000000975
 20
-939.2500000000001
 30
0.0
 11
-887.2500000000975
 21
-939.2500000000001
 31
0.0
  0
LINE
  5
1FD
330
6A
100
AcDbEntity
  8
0
  6
Continuous
 62
     7
100
AcDbLine
 10
-932.7500000000975
 20
-938.99
 30
0.0
 11
-914.2500000000975
 21
-938.99
 31
0.0
  0
LINE
  5
1FE
330
6A
100
AcDbEntity
  8
0
  6
Continuous
 62
     7
100
AcDbLine
 10
-956.2500000000975
 20
-941.75
 30
0.0
 11
-946.2500000000975
 21
-941.75
 31
0.0
  0
LINE
  5
1FF
330
6A
100
AcDbEntity
  8
0
  6
Continuous
 62
     7
100
AcDbLine
 10
-884.2500000000975
 20
-953.0000000000001
 30
0.0
 11
-884.2500000000975
 21
-938.2500000000001
 31
0.0
  0
LINE
  5
200
330
6A
100
AcDbEntity
  8
0
  6
Continuous
 62
     7
100
AcDbLine
 10
-905.7500000000975
 20
-938.336635266543
 30
0.0
 11
-905.7500000000975
 21
-944.2858647334576
 31
0.0
  0
LINE
  5
201
330
6A
100
AcDbEntity
  8
0
  6
Continuous
 62
     7
100
AcDbLine
 10
-914.2500000000977
 20
-961.7141352665426
 30
0.0
 11
-905.7500000000977
 21
-961.7141352665426
 31
0.0
  0
LINE
  5
202
330
6A
100
AcDbEntity
  8
0
  6
Continuous
 62
     7
100
AcDbLine
 10
-914.2500000000975
 20
-947.0507705330848
 30
0.0
 11
-914.2500000000977
 21
-958.9492294669153
 31
0.0
  0
LINE
  5
203
330
6A
100
AcDbEntity
  8
0
  6
Continuous
 62
     7
100
AcDbLine
 10
-914.2500000000977
 20
-958.9492294669153
 30
0.0
 11
-905.7500000000977
 21
-958.9492294669153
 31
0.0
  0
LINE
  5
204
330
6A
100
AcDbEntity
  8
0
  6
Continuous
 62
     7
100
AcDbLine
 10
-914.2500000000975
 20
-947.0507705330848
 30
0.0
 11
-905.7500000000975
 21
-947.0507705330848
 31
0.0
  0
LINE
  5
205
330
6A
100
AcDbEntity
  8
0
  6
Continuous
 62
     7
100
AcDbLine
 10
-914.2500000000975
 20
-944.2858647334576
 30
0.0
 11
-905.7500000000975
 21
-944.2858647334576
 31
0.0
  0
LINE
  5
206
330
6A
100
AcDbEntity
  8
0
  6
Continuous
 62
     7
100
AcDbLine
 10
-905.7500000000975
 20
-947.0507705330848
 30
0.0
 11
-905.7500000000977
 21
-958.9492294669153
 31
0.0
  0
LINE
  5
207
330
6A
100
AcDbEntity
  8
0
  6
Continuous
 62
     7
100
AcDbLine
 10
-891.7500000000977
 20
-966.876689086378
 30
0.0
 11
-891.7500000000977
 21
-967.2500000000001
 31
0.0
  0
LINE
  5
208
330
6A
100
AcDbEntity
  8
0
  6
Continuous
 62
     7
100
AcDbLine
 10
-891.7500000000977
 20
-967.2500000000001
 30
0.0
 11
-891.7500000000977
 21
-967.7500000000001
 31
0.0
  0
LINE
  5
209
330
6A
100
AcDbEntity
  8
0
  6
Continuous
 62
     7
100
AcDbLine
 10
-900.2500000000977
 20
-966.876689086378
 30
0.0
 11
-900.2500000000977
 21
-967.2500000000001
 31
0.0
  0
LINE
  5
20A
330
6A
100
AcDbEntity
  8
0
  6
Continuous
 62
     7
100
AcDbLine
 10
-900.2500000000977
 20
-967.2500000000001
 30
0.0
 11
-900.2500000000975
 21
-967.7500000000001
 31
0.0
  0
LINE
  5
20B
330
6A
100
AcDbEntity
  8
0
  6
Continuous
 62
     7
100
AcDbLine
 10
-905.7500000000977
 20
-961.7141352665426
 30
0.0
 11
-905.7500000000977
 21
-967.6633647334571
 31
0.0
  0
LINE
  5
20C
330
6A
100
AcDbEntity
  8
0
  6
Continuous
 62
     7
100
AcDbLine
 10
-914.2500000000977
 20
-967.6633647334571
 30
0.0
 11
-905.7500000000977
 21
-967.6633647334571
 31
0.0
  0
LINE
  5
20D
330
6A
100
AcDbEntity
  8
0
  6
Continuous
 62
     7
100
AcDbLine
 10
-914.2500000000977
 20
-967.6633647334571
 30
0.0
 11
-914.2500000000977
 21
-967.0100000000001
 31
0.0
  0
LINE
  5
20E
330
6A
100
AcDbEntity
  8
0
  6
Continuous
 62
     7
100
AcDbLine
 10
-914.2500000000977
 20
-967.7500000000001
 30
0.0
 11
-914.2500000000977
 21
-967.6633647334571
 31
0.0
  0
LINE
  5
20F
330
6A
100
AcDbEntity
  8
0
  6
Continuous
 62
     7
100
AcDbLine
 10
-887.2500000000975
 20
-967.7500000000001
 30
0.0
 11
-884.2500000000975
 21
-967.7500000000001
 31
0.0
  0
LINE
  5
210
330
6A
100
AcDbEntity
  8
0
  6
Continuous
 62
     7
100
AcDbLine
 10
-891.7500000000977
 20
-967.7500000000001
 30
0.0
 11
-887.7500000000975
 21
-967.7500000000001
 31
0.0
  0
LINE
  5
211
330
6A
100
AcDbEntity
  8
0
  6
Continuous
 62
     7
100
AcDbLine
 10
-900.2500000000977
 20
-967.2500000000001
 30
0.0
 11
-891.7500000000977
 21
-967.2500000000001
 31
0.0
  0
LINE
  5
212
330
6A
100
AcDbEntity
  8
0
  6
Continuous
 62
     7
100
AcDbLine
 10
-914.2500000000977
 20
-967.7500000000001
 30
0.0
 11
-900.2500000000975
 21
-967.7500000000001
 31
0.0
  0
LINE
  5
213
330
6A
100
AcDbEntity
  8
0
  6
Continuous
 62
     7
100
AcDbLine
 10
-900.2500000000975
 20
-948.0000000000001
 30
0.0
 11
-891.7500000000975
 21
-948.0000000000001
 31
0.0
  0
LINE
  5
214
330
6A
100
AcDbEntity
  8
0
  6
Continuous
 62
     7
100
AcDbLine
 10
-887.2500000000975
 20
-939.2500000000001
 30
0.0
 11
-887.2500000000975
 21
-938.2500000000001
 31
0.0
  0
LINE
  5
215
330
6A
100
AcDbEntity
  8
0
  6
Continuous
 62
     7
100
AcDbLine
 10
-887.2500000000975
 20
-953.0000000000001
 30
0.0
 11
-887.2500000000975
 21
-939.2500000000001
 31
0.0
  0
LINE
  5
216
330
6A
100
AcDbEntity
  8
0
  6
Continuous
 62
     7
100
AcDbLine
 10
-887.7500000000975
 20
-953.0000000000001
 30
0.0
 11
-887.7500000000975
 21
-939.2500000000001
 31
0.0
  0
LINE
  5
217
330
6A
100
AcDbEntity
  8
0
  6
Continuous
 62
     7
100
AcDbLine
 10
-900.2500000000975
 20
-948.0000000000001
 30
0.0
 11
-900.2500000000975
 21
-958.0
 31
0.0
  0
LINE
  5
218
330
6A
100
AcDbEntity
  8
0
  6
Continuous
 62
     7
100
AcDbLine
 10
-914.2500000000977
 20
-961.7141352665426
 30
0.0
 11
-914.2500000000977
 21
-958.9492294669153
 31
0.0
  0
LINE
  5
219
330
6A
100
AcDbEntity
  8
0
  6
Continuous
 62
     7
100
AcDbLine
 10
-946.2500000000975
 20
-961.7201268700887
 30
0.0
 11
-946.2500000000975
 21
-958.9424321620024
 31
0.0
  0
LINE
  5
21A
330
6A
100
AcDbEntity
  8
0
  6
Continuous
 62
     7
100
AcDbLine
 10
-946.2500000000975
 20
-947.0575678379977
 30
0.0
 11
-946.2500000000975
 21
-958.9424321620024
 31
0.0
  0
LINE
  5
21B
330
6A
100
AcDbEntity
  8
0
  6
Continuous
 62
     7
100
AcDbLine
 10
-946.2500000000975
 20
-961.7201268700887
 30
0.0
 11
-940.2500000000975
 21
-961.7201268700887
 31
0.0
  0
LINE
  5
21C
330
6A
100
AcDbEntity
  8
0
  6
Continuous
 62
     7
100
AcDbLine
 10
-940.2500000000975
 20
-961.7201268700887
 30
0.0
 11
-940.2500000000975
 21
-958.9424321620024
 31
0.0
  0
LINE
  5
21D
330
6A
100
AcDbEntity
  8
0
  6
Continuous
 62
     7
100
AcDbLine
 10
-940.2500000000975
 20
-947.0575678379977
 30
0.0
 11
-940.2500000000975
 21
-958.9424321620024
 31
0.0
  0
LINE
  5
21E
330
6A
100
AcDbEntity
  8
0
  6
Continuous
 62
     7
100
AcDbLine
 10
-946.2500000000975
 20
-958.9424321620024
 30
0.0
 11
-940.2500000000975
 21
-958.9424321620024
 31
0.0
  0
LINE
  5
21F
330
6A
100
AcDbEntity
  8
0
  6
Continuous
 62
     7
100
AcDbLine
 10
-956.2500000000975
 20
-964.25
 30
0.0
 11
-946.2500000000975
 21
-964.25
 31
0.0
  0
LINE
  5
220
330
6A
100
AcDbEntity
  8
0
  6
Continuous
 62
     7
100
AcDbLine
 10
-940.2500000000975
 20
-947.0575678379977
 30
0.0
 11
-940.2500000000975
 21
-944.2798731299114
 31
0.0
  0
LINE
  5
221
330
6A
100
AcDbEntity
  8
0
  6
Continuous
 62
     7
100
AcDbLine
 10
-914.2500000000975
 20
-947.0507705330848
 30
0.0
 11
-914.2500000000975
 21
-944.2858647334576
 31
0.0
  0
LINE
  5
222
330
6A
100
AcDbEntity
  8
0
  6
Continuous
 62
     7
100
AcDbLine
 10
-946.2500000000975
 20
-941.75
 30
0.0
 11
-946.2500000000975
 21
-944.2798731299114
 31
0.0
  0
LINE
  5
223
330
6A
100
AcDbEntity
  8
0
  6
Continuous
 62
     7
100
AcDbLine
 10
-946.2500000000975
 20
-944.2798731299114
 30
0.0
 11
-940.2500000000975
 21
-944.2798731299114
 31
0.0
  0
LINE
  5
224
330
6A
100
AcDbEntity
  8
0
  6
Continuous
 62
     7
100
AcDbLine
 10
-946.2500000000975
 20
-947.0575678379977
 30
0.0
 11
-946.2500000000975
 21
-944.2798731299114
 31
0.0
  0
LINE
  5
225
330
6A
100
AcDbEntity
  8
0
  6
Continuous
 62
     7
100
AcDbLine
 10
-946.2500000000975
 20
-947.0575678379977
 30
0.0
 11
-940.2500000000975
 21
-947.0575678379977
 31
0.0
  0
LINE
  5
226
330
6A
100
AcDbEntity
  8
0
  6
Continuous
 62
     7
100
AcDbLine
 10
-940.2500000000975
 20
-941.75
 30
0.0
 11
-932.7500000000975
 21
-941.75
 31
0.0
  0
LINE
  5
227
330
6A
100
AcDbEntity
  8
0
  6
Continuous
 62
     7
100
AcDbLine
 10
-956.2500000000975
 20
-941.75
 30
0.0
 11
-956.2500000000975
 21
-964.25
 31
0.0
  0
LINE
  5
228
330
6A
100
AcDbEntity
  8
0
  6
Continuous
 62
     7
100
AcDbLine
 10
-887.7500000000975
 20
-967.7500000000001
 30
0.0
 11
-887.7500000000975
 21
-966.7500000000001
 31
0.0
  0
LINE
  5
229
330
6A
100
AcDbEntity
  8
0
  6
Continuous
 62
     7
100
AcDbLine
 10
-887.2500000000975
 20
-967.7500000000001
 30
0.0
 11
-887.2500000000975
 21
-966.7500000000001
 31
0.0
  0
LINE
  5
22A
330
6A
100
AcDbEntity
  8
0
  6
Continuous
 62
     7
100
AcDbLine
 10
-887.2500000000975
 20
-966.7500000000001
 30
0.0
 11
-887.2500000000975
 21
-953.0000000000001
 31
0.0
  0
LINE
  5
22B
330
6A
100
AcDbEntity
  8
0
  6
Continuous
 62
     7
100
AcDbLine
 10
-887.7500000000975
 20
-966.7500000000001
 30
0.0
 11
-887.7500000000975
 21
-953.0000000000001
 31
0.0
  0
LINE
  5
22C
330
6A
100
AcDbEntity
  8
0
  6
Continuous
 62
     7
100
AcDbLine
 10
-891.7500000000975
 20
-948.0000000000001
 30
0.0
 11
-891.7500000000975
 21
-958.0
 31
0.0
  0
LINE
  5
22D
330
6A
100
AcDbEntity
  8
0
  6
Continuous
 62
     7
100
AcDbLine
 10
-932.7500000000977
 20
-964.25
 30
0.0
 11
-932.7500000000975
 21
-941.75
 31
0.0
  0
LINE
  5
22E
330
6A
100
AcDbEntity
  8
1
  6
Continuous
 62
     2
100
AcDbLine
 10
-956.2500000000975
 20
-942.4200000000001
 30
0.0
 11
-946.2500000000975
 21
-942.4200000000001
 31
0.0
  0
LINE
  5
22F
330
6A
100
AcDbEntity
  8
1
  6
Continuous
 62
     2
100
AcDbLine
 10
-956.2500000000975
 20
-963.58
 30
0.0
 11
-946.2500000000975
 21
-963.58
 31
0.0
  0
LINE
  5
230
330
6A
100
AcDbEntity
  8
1
  6
DOT_CENTER
 62
     2
100
AcDbLine
 10
-940.2500000000975
 20
-953.0
 30
0.0
 11
-884.2500000000975
 21
-953.0000000000001
 31
0.0
  0
LINE
  5
231
330
6A
100
AcDbEntity
  8
1
  6
DOT_CENTER
 62
     2
100
AcDbLine
 10
-956.2500000000975
 20
-953.0
 30
0.0
 11
-946.2500000000975
 21
-953.0
 31
0.0
  0
ENDBLK
  5
6C
330
6A
100
AcDbEntity
  8
0
100
AcDbBlockEnd
  0
BLOCK
  5
6F
330
6D
100
AcDbEntity
  8
0
100
AcDbBlockBegin
  2
Rückansicht1
 70
     0
 10
-920.2500000000325
 20
-953.0
 30
0.0
  3
Rückansicht1
  1

  0
INSERT
  5
6E
330
6D
100
AcDbEntity
  8
0
100
AcDbBlockReference
  2
WP_GR_HF_IP66_PG16_BK-select__6
 10
-956.2500000000975
 20
-967.7500000000001
 30
0.0
  0
MTEXT
  5
232
330
6D
100
AcDbEntity
  8
1
 62
     6
100
AcDbMText
 10
-920.2500000000325
 20
-972.7380380630493
 30
0.0
 40
5.0
 41
0.0
 71
     2
 72
     1
  1
 
  7
CONVERTER_11
 73
     1
 44
1.32052821128451
  0
ENDBLK
  5
70
330
6D
100
AcDbEntity
  8
0
100
AcDbBlockEnd
  0
BLOCK
  5
72
330
71
100
AcDbEntity
  8
0
100
AcDbBlockBegin
  2
_rahmen
 70
     0
 10
-812.3749999999984
 20
-1175.875
 30
0.0
  3
_rahmen
  1

  0
LINE
  5
233
330
71
100
AcDbEntity
  8
1
  6
Continuous
 62
     6
100
AcDbLine
 10
-880.7083333333319
 20
-1170.875
 30
0.0
 11
-812.3749999999985
 21
-1170.875000000001
 31
0.0
  0
LINE
  5
234
330
71
100
AcDbEntity
  8
1
  6
Continuous
 62
     6
100
AcDbLine
 10
-812.3749999999989
 20
-1162.375000000001
 30
0.0
 11
-812.3749999999984
 21
-1153.875000000001
 31
0.0
  0
LINE
  5
235
330
71
100
AcDbEntity
  8
1
  6
Continuous
 62
     6
100
AcDbLine
 10
-812.3749999999984
 20
-1153.875000000001
 30
0.0
 11
-812.3749999999994
 21
-1149.625000000001
 31
0.0
  0
LINE
  5
236
330
71
100
AcDbEntity
  8
1
  6
Continuous
 62
     6
100
AcDbLine
 10
-812.3749999999994
 20
-1149.625000000001
 30
0.0
 11
-812.3749999999985
 21
-1113.475
 31
0.0
  0
LINE
  5
237
330
71
100
AcDbEntity
  8
1
  6
Continuous
 62
     2
100
AcDbLine
 10
-1017.374999999998
 20
-1175.875
 30
0.0
 11
-1085.708333333332
 21
-1175.875
 31
0.0
  0
LINE
  5
238
330
71
100
AcDbEntity
  8
1
  6
Continuous
 62
     2
100
AcDbLine
 10
-880.7083333333319
 20
-1175.875
 30
0.0
 11
-812.3749999999984
 21
-1175.875
 31
0.0
  0
LINE
  5
239
330
71
100
AcDbEntity
  8
1
  6
Continuous
 62
     2
100
AcDbLine
 10
-880.7083333333319
 20
-1175.875
 30
0.0
 11
-880.7083333333319
 21
-1170.875
 31
0.0
  0
LINE
  5
23A
330
71
100
AcDbEntity
  8
1
  6
Continuous
 62
     2
100
AcDbLine
 10
-949.041666666665
 20
-1175.875
 30
0.0
 11
-949.041666666665
 21
-1170.875000000003
 31
0.0
  0
LINE
  5
23B
330
71
100
AcDbEntity
  8
1
  6
Continuous
 62
     2
100
AcDbLine
 10
-1017.374999999998
 20
-1175.875
 30
0.0
 11
-1017.374999999998
 21
-1170.875
 31
0.0
  0
LINE
  5
23C
330
71
100
AcDbEntity
  8
1
  6
Continuous
 62
     2
100
AcDbLine
 10
-807.3750000000009
 20
-1113.475
 30
0.0
 11
-807.3750000000009
 21
-1056.075
 31
0.0
  0
LINE
  5
23D
330
71
100
AcDbEntity
  8
1
  6
Continuous
 62
     2
100
AcDbLine
 10
-807.3750000000009
 20
-1113.475
 30
0.0
 11
-812.3749999999985
 21
-1113.475
 31
0.0
  0
LINE
  5
23E
330
71
100
AcDbEntity
  8
1
  6
Continuous
 62
     2
100
AcDbLine
 10
-1207.374999999999
 20
-1175.875
 30
0.0
 11
-1227.374999999999
 21
-1175.875
 31
0.0
  0
LINE
  5
23F
330
71
100
AcDbEntity
  8
1
  6
Continuous
 62
     2
100
AcDbLine
 10
-1154.041666666665
 20
-1175.875
 30
0.0
 11
-1154.041666666665
 21
-1170.875
 31
0.0
  0
LINE
  5
240
330
71
100
AcDbEntity
  8
1
  6
Continuous
 62
     2
100
AcDbLine
 10
-1154.041666666665
 20
-1175.875
 30
0.0
 11
-1085.708333333332
 21
-1175.875
 31
0.0
  0
LINE
  5
241
330
71
100
AcDbEntity
  8
1
  6
Continuous
 62
     6
100
AcDbLine
 10
-1154.041666666665
 20
-1170.875
 30
0.0
 11
-1085.708333333332
 21
-1170.875
 31
0.0
  0
LINE
  5
242
330
71
100
AcDbEntity
  8
1
  6
Continuous
 62
     6
100
AcDbLine
 10
-1154.041666666665
 20
-1170.875
 30
0.0
 11
-1207.374999999998
 21
-1170.875
 31
0.0
  0
LINE
  5
243
330
71
100
AcDbEntity
  8
1
  6
Continuous
 62
     2
100
AcDbLine
 10
-1085.708333333332
 20
-1175.875
 30
0.0
 11
-1085.708333333332
 21
-1170.875
 31
0.0
  0
LINE
  5
244
330
71
100
AcDbEntity
  8
1
  6
Continuous
 62
     2
100
AcDbLine
 10
-1207.374999999999
 20
-1175.875
 30
0.0
 11
-1207.374999999999
 21
-1171.875
 31
0.0
  0
LINE
  5
245
330
71
100
AcDbEntity
  8
1
  6
Continuous
 62
     2
100
AcDbLine
 10
-1207.374999999999
 20
-1175.875
 30
0.0
 11
-1154.041666666665
 21
-1175.875
 31
0.0
  0
LINE
  5
246
330
71
100
AcDbEntity
  8
1
  6
Continuous
 62
     2
100
AcDbLine
 10
-997.3750000000013
 20
-1175.875
 30
0.0
 11
-1017.374999999998
 21
-1175.875
 31
0.0
  0
LINE
  5
247
330
71
100
AcDbEntity
  8
1
  6
Continuous
 62
     2
100
AcDbLine
 10
-997.3750000000013
 20
-1175.875
 30
0.0
 11
-997.3750000000013
 21
-1171.875
 31
0.0
  0
LINE
  5
248
330
71
100
AcDbEntity
  8
1
  6
Continuous
 62
     2
100
AcDbLine
 10
-997.3750000000013
 20
-1175.875
 30
0.0
 11
-949.041666666665
 21
-1175.875
 31
0.0
  0
LINE
  5
249
330
71
100
AcDbEntity
  8
1
  6
Continuous
 62
     2
100
AcDbLine
 10
-949.041666666665
 20
-1175.875
 30
0.0
 11
-880.7083333333319
 21
-1175.875
 31
0.0
  0
LINE
  5
24A
330
71
100
AcDbEntity
  8
1
  6
Continuous
 62
     2
100
AcDbLine
 10
-807.3750000000009
 20
-1175.875
 30
0.0
 11
-812.3749999999984
 21
-1175.875
 31
0.0
  0
LINE
  5
24B
330
71
100
AcDbEntity
  8
1
  6
Continuous
 62
     2
100
AcDbLine
 10
-807.3750000000009
 20
-1170.875
 30
0.0
 11
-807.3750000000009
 21
-1175.875
 31
0.0
  0
LINE
  5
24C
330
71
100
AcDbEntity
  8
1
  6
Continuous
 62
     2
100
AcDbLine
 10
-807.3750000000009
 20
-1170.875
 30
0.0
 11
-807.3750000000009
 21
-1113.475
 31
0.0
  0
LINE
  5
24D
330
71
100
AcDbEntity
  8
1
  6
Continuous
 62
     2
100
AcDbLine
 10
-807.3750000000009
 20
-878.875
 30
0.0
 11
-812.3750000000009
 21
-878.875
 31
0.0
  0
LINE
  5
24E
330
71
100
AcDbEntity
  8
1
  6
Continuous
 62
     6
100
AcDbLine
 10
-812.3750000000009
 20
-883.875
 30
0.0
 11
-812.3750000000005
 21
-941.2750000000001
 31
0.0
  0
LINE
  5
24F
330
71
100
AcDbEntity
  8
1
  6
Continuous
 62
     2
100
AcDbLine
 10
-807.3750000000009
 20
-878.875
 30
0.0
 11
-807.3750000000009
 21
-883.875
 31
0.0
  0
LINE
  5
250
330
71
100
AcDbEntity
  8
1
  6
Continuous
 62
     2
100
AcDbLine
 10
-812.3750000000009
 20
-883.875
 30
0.0
 11
-812.3750000000009
 21
-878.875
 31
0.0
  0
LINE
  5
251
330
71
100
AcDbEntity
  8
1
  6
Continuous
 62
     2
100
AcDbLine
 10
-812.3750000000009
 20
-883.875
 30
0.0
 11
-807.3750000000009
 21
-883.875
 31
0.0
  0
LINE
  5
252
330
71
100
AcDbEntity
  8
1
  6
Continuous
 62
     2
100
AcDbLine
 10
-807.3750000000009
 20
-883.875
 30
0.0
 11
-807.3750000000009
 21
-941.2750000000001
 31
0.0
  0
LINE
  5
253
330
71
100
AcDbEntity
  8
1
  6
Continuous
 62
     2
100
AcDbLine
 10
-812.3750000000005
 20
-941.2750000000001
 30
0.0
 11
-807.3750000000009
 21
-941.2750000000001
 31
0.0
  0
LINE
  5
254
330
71
100
AcDbEntity
  8
1
  6
Continuous
 62
     6
100
AcDbLine
 10
-812.3750000000005
 20
-941.2750000000001
 30
0.0
 11
-812.3749999999984
 21
-998.675
 31
0.0
  0
LINE
  5
255
330
71
100
AcDbEntity
  8
1
  6
Continuous
 62
     2
100
AcDbLine
 10
-807.3750000000009
 20
-941.2750000000001
 30
0.0
 11
-807.3750000000009
 21
-998.675
 31
0.0
  0
LINE
  5
256
330
71
100
AcDbEntity
  8
1
  6
Continuous
 62
     2
100
AcDbLine
 10
-812.3749999999984
 20
-998.675
 30
0.0
 11
-807.3750000000009
 21
-998.675
 31
0.0
  0
LINE
  5
257
330
71
100
AcDbEntity
  8
1
  6
Continuous
 62
     6
100
AcDbLine
 10
-812.3749999999984
 20
-998.675
 30
0.0
 11
-812.3749999999984
 21
-1056.075
 31
0.0
  0
LINE
  5
258
330
71
100
AcDbEntity
  8
1
  6
Continuous
 62
     2
100
AcDbLine
 10
-807.3750000000009
 20
-998.675
 30
0.0
 11
-807.3750000000009
 21
-1056.075
 31
0.0
  0
LINE
  5
259
330
71
100
AcDbEntity
  8
1
  6
Continuous
 62
     2
100
AcDbLine
 10
-812.3749999999984
 20
-1056.075
 30
0.0
 11
-807.3750000000009
 21
-1056.075
 31
0.0
  0
LINE
  5
25A
330
71
100
AcDbEntity
  8
1
  6
Continuous
 62
     6
100
AcDbLine
 10
-812.3749999999984
 20
-1056.075
 30
0.0
 11
-812.3749999999985
 21
-1113.475
 31
0.0
  0
LINE
  5
25B
330
71
100
AcDbEntity
  8
1
  6
Continuous
 62
     6
100
AcDbLine
 10
-1207.374999999999
 20
-883.8749999999998
 30
0.0
 11
-1154.041666666665
 21
-883.8749999999998
 31
0.0
  0
LINE
  5
25C
330
71
100
AcDbEntity
  8
1
  6
Continuous
 62
     2
100
AcDbLine
 10
-812.3750000000009
 20
-878.875
 30
0.0
 11
-880.7083333333319
 21
-878.875
 31
0.0
  0
LINE
  5
25D
330
71
100
AcDbEntity
  8
1
  6
Continuous
 62
     2
100
AcDbLine
 10
-880.7083333333319
 20
-883.875
 30
0.0
 11
-880.7083333333319
 21
-878.875
 31
0.0
  0
LINE
  5
25E
330
71
100
AcDbEntity
  8
1
  6
Continuous
 62
     6
100
AcDbLine
 10
-880.7083333333319
 20
-883.875
 30
0.0
 11
-812.3750000000009
 21
-883.875
 31
0.0
  0
LINE
  5
25F
330
71
100
AcDbEntity
  8
1
  6
Continuous
 62
     2
100
AcDbLine
 10
-880.7083333333319
 20
-878.875
 30
0.0
 11
-949.041666666665
 21
-878.875
 31
0.0
  0
LINE
  5
260
330
71
100
AcDbEntity
  8
1
  6
Continuous
 62
     2
100
AcDbLine
 10
-949.041666666665
 20
-883.875
 30
0.0
 11
-949.041666666665
 21
-878.875
 31
0.0
  0
LINE
  5
261
330
71
100
AcDbEntity
  8
1
  6
Continuous
 62
     6
100
AcDbLine
 10
-949.041666666665
 20
-883.875
 30
0.0
 11
-880.7083333333319
 21
-883.875
 31
0.0
  0
LINE
  5
262
330
71
100
AcDbEntity
  8
1
  6
Continuous
 62
     2
100
AcDbLine
 10
-949.041666666665
 20
-878.875
 30
0.0
 11
-997.3750000000013
 21
-878.875
 31
0.0
  0
LINE
  5
263
330
71
100
AcDbEntity
  8
1
  6
Continuous
 62
     2
100
AcDbLine
 10
-1017.374999999998
 20
-883.875
 30
0.0
 11
-1017.374999999998
 21
-878.875
 31
0.0
  0
LINE
  5
264
330
71
100
AcDbEntity
  8
1
  6
Continuous
 62
     6
100
AcDbLine
 10
-1017.374999999998
 20
-883.875
 30
0.0
 11
-949.041666666665
 21
-883.875
 31
0.0
  0
LINE
  5
265
330
71
100
AcDbEntity
  8
1
  6
Continuous
 62
     2
100
AcDbLine
 10
-1017.374999999998
 20
-878.875
 30
0.0
 11
-1085.708333333332
 21
-878.875
 31
0.0
  0
LINE
  5
266
330
71
100
AcDbEntity
  8
1
  6
Continuous
 62
     2
100
AcDbLine
 10
-1085.708333333332
 20
-883.875
 30
0.0
 11
-1085.708333333332
 21
-878.875
 31
0.0
  0
LINE
  5
267
330
71
100
AcDbEntity
  8
1
  6
Continuous
 62
     6
100
AcDbLine
 10
-1085.708333333332
 20
-883.875
 30
0.0
 11
-1017.374999999998
 21
-883.875
 31
0.0
  0
LINE
  5
268
330
71
100
AcDbEntity
  8
1
  6
Continuous
 62
     2
100
AcDbLine
 10
-1085.708333333332
 20
-878.875
 30
0.0
 11
-1154.041666666665
 21
-878.875
 31
0.0
  0
LINE
  5
269
330
71
100
AcDbEntity
  8
1
  6
Continuous
 62
     2
100
AcDbLine
 10
-1154.041666666665
 20
-883.8749999999998
 30
0.0
 11
-1154.041666666665
 21
-878.875
 31
0.0
  0
LINE
  5
26A
330
71
100
AcDbEntity
  8
1
  6
Continuous
 62
     6
100
AcDbLine
 10
-1154.041666666665
 20
-883.8749999999998
 30
0.0
 11
-1085.708333333332
 21
-883.875
 31
0.0
  0
LINE
  5
26B
330
71
100
AcDbEntity
  8
1
  6
Continuous
 62
     2
100
AcDbLine
 10
-1154.041666666665
 20
-878.875
 30
0.0
 11
-1207.374999999999
 21
-878.875
 31
0.0
  0
LINE
  5
26C
330
71
100
AcDbEntity
  8
1
  6
Continuous
 62
     2
100
AcDbLine
 10
-1207.374999999999
 20
-878.875
 30
0.0
 11
-1207.374999999999
 21
-882.8749999999998
 31
0.0
  0
LINE
  5
26D
330
71
100
AcDbEntity
  8
1
  6
Continuous
 62
     2
100
AcDbLine
 10
-1207.374999999999
 20
-878.875
 30
0.0
 11
-1227.374999999999
 21
-878.875
 31
0.0
  0
LINE
  5
26E
330
71
100
AcDbEntity
  8
1
  6
Continuous
 62
     2
100
AcDbLine
 10
-997.3750000000013
 20
-878.875
 30
0.0
 11
-997.3750000000013
 21
-882.8749999999998
 31
0.0
  0
LINE
  5
26F
330
71
100
AcDbEntity
  8
1
  6
Continuous
 62
     2
100
AcDbLine
 10
-997.3750000000013
 20
-878.875
 30
0.0
 11
-1017.374999999998
 21
-878.875
 31
0.0
  0
LINE
  5
270
330
71
100
AcDbEntity
  8
1
  6
Continuous
 62
     2
100
AcDbLine
 10
-1227.374999999999
 20
-878.875
 30
0.0
 11
-1227.374999999999
 21
-1027.375
 31
0.0
  0
LINE
  5
271
330
71
100
AcDbEntity
  8
1
  6
Continuous
 62
     2
100
AcDbLine
 10
-1227.374999999999
 20
-1027.375
 30
0.0
 11
-1217.374999999999
 21
-1027.375
 31
0.0
  0
LINE
  5
272
330
71
100
AcDbEntity
  8
1
  6
Continuous
 62
     2
100
AcDbLine
 10
-1227.374999999999
 20
-1027.375
 30
0.0
 11
-1227.374999999999
 21
-1175.875
 31
0.0
  0
LINE
  5
273
330
71
100
AcDbEntity
  8
1
  6
Continuous
 62
     6
100
AcDbLine
 10
-1207.374999999998
 20
-1170.875
 30
0.0
 11
-1207.374999999999
 21
-883.8749999999998
 31
0.0
  0
LINE
  5
274
330
71
100
AcDbEntity
  8
1
  6
Continuous
 62
     6
100
AcDbLine
 10
-812.3749999999985
 20
-1170.875000000001
 30
0.0
 11
-812.3749999999989
 21
-1162.375000000001
 31
0.0
  0
LINE
  5
275
330
71
100
AcDbEntity
  8
1
  6
Continuous
 62
     6
100
AcDbLine
 10
-1085.708333333332
 20
-1170.875
 30
0.0
 11
-941.9198045267484
 21
-1170.875000000003
 31
0.0
  0
LINE
  5
276
330
71
100
AcDbEntity
  8
1
  6
Continuous
 62
     2
100
AcDbLine
 10
-949.041666666665
 20
-1170.875000000003
 30
0.0
 11
-949.041666666665
 21
-1170.875
 31
0.0
  0
LINE
  5
277
330
71
100
AcDbEntity
  8
1
  6
Continuous
 62
     6
100
AcDbLine
 10
-812.3749999999967
 20
-1153.875000000001
 30
0.0
 11
-812.3749999999967
 21
-1145.375000000001
 31
0.0
  0
LINE
  5
278
330
71
100
AcDbEntity
  8
1
  6
Continuous
 62
     7
100
AcDbLine
 10
-877.6198045267485
 20
-1162.375000000001
 30
0.0
 11
-877.6198045267485
 21
-1153.875000000001
 31
0.0
  0
LINE
  5
279
330
71
100
AcDbEntity
  8
1
  6
Continuous
 62
     6
100
AcDbLine
 10
-905.5198045267484
 20
-1153.875000000001
 30
0.0
 11
-812.3749999999967
 21
-1153.875000000001
 31
0.0
  0
LINE
  5
27A
330
71
100
AcDbEntity
  8
1
  6
Continuous
 62
     7
100
AcDbLine
 10
-941.9198045267484
 20
-1153.875000000001
 30
0.0
 11
-941.9198045267484
 21
-1145.375000000001
 31
0.0
  0
LINE
  5
27B
330
71
100
AcDbEntity
  8
1
  6
Continuous
 62
     7
100
AcDbLine
 10
-905.5198045267484
 20
-1153.875000000001
 30
0.0
 11
-905.5198045267484
 21
-1145.375000000001
 31
0.0
  0
LINE
  5
27C
330
71
100
AcDbEntity
  8
1
  6
Continuous
 62
     7
100
AcDbLine
 10
-847.7934082816755
 20
-1145.375000000001
 30
0.0
 11
-847.7934082816755
 21
-1153.875000000001
 31
0.0
  0
LINE
  5
27D
330
71
100
AcDbEntity
  8
1
  6
Continuous
 62
     7
100
AcDbLine
 10
-821.2934082816759
 20
-1145.375000000001
 30
0.0
 11
-821.2934082816759
 21
-1153.875000000001
 31
0.0
  0
LINE
  5
27E
330
71
100
AcDbEntity
  8
1
  6
Continuous
 62
     7
100
AcDbLine
 10
-812.3749999999972
 20
-1162.375000000001
 30
0.0
 11
-905.5198045267484
 21
-1162.375000000001
 31
0.0
  0
LINE
  5
27F
102
{ACAD_REACTORS
330
364
330
365
102
}
330
71
100
AcDbEntity
  8
0
  6
Continuous
 62
     2
100
AcDbLine
 10
-928.2123755849809
 20
-1161.574710884337
 30
0.0
 11
-928.2123755849809
 21
-1160.702193877534
 31
0.0
  0
LINE
  5
280
102
{ACAD_REACTORS
330
364
330
365
102
}
330
71
100
AcDbEntity
  8
0
  6
Continuous
 62
     2
100
AcDbLine
 10
-928.2123755849809
 20
-1162.53447959182
 30
0.0
 11
-928.2123755849809
 21
-1163.406996598623
 31
0.0
  0
LINE
  5
281
102
{ACAD_REACTORS
330
366
330
367
102
}
330
71
100
AcDbEntity
  8
0
  6
Continuous
 62
     2
100
AcDbLine
 10
-912.8793314486906
 20
-1161.312955782297
 30
0.0
 11
-911.7756921491225
 21
-1161.312955782297
 31
0.0
  0
LINE
  5
282
102
{ACAD_REACTORS
330
366
330
367
102
}
330
71
100
AcDbEntity
  8
0
  6
Continuous
 62
     2
100
AcDbLine
 10
-912.1096741057291
 20
-1162.534479591821
 30
0.0
 11
-912.1096741057291
 21
-1163.406996598624
 31
0.0
  0
LINE
  5
283
102
{ACAD_REACTORS
330
370
330
371
102
}
330
71
100
AcDbEntity
  8
0
  6
Continuous
 62
     2
100
AcDbLine
 10
-913.970430721109
 20
-1160.22230952381
 30
0.0
 11
-912.5724776741687
 21
-1158.641450530035
 31
0.0
  0
LINE
  5
284
102
{ACAD_REACTORS
330
370
330
371
102
}
330
71
100
AcDbEntity
  8
0
  6
Continuous
 62
     2
100
AcDbLine
 10
-913.8750073049362
 20
-1157.168499999999
 30
0.0
 11
-912.5724776741687
 21
-1158.641450530035
 31
0.0
  0
LINE
  5
285
102
{ACAD_REACTORS
330
370
330
371
102
}
330
71
100
AcDbEntity
  8
0
  6
Continuous
 62
     2
100
AcDbLine
 10
-911.2699480434023
 20
-1157.168499999999
 30
0.0
 11
-909.8672238256551
 21
-1157.168499999999
 31
0.0
  0
LINE
  5
286
102
{ACAD_REACTORS
330
370
330
371
102
}
330
71
100
AcDbEntity
  8
0
  6
Continuous
 62
     2
100
AcDbLine
 10
-912.5677065033609
 20
-1160.22230952381
 30
0.0
 11
-911.8711155652951
 21
-1159.434577738516
 31
0.0
  0
LINE
  5
287
102
{ACAD_REACTORS
330
370
330
371
102
}
330
71
100
AcDbEntity
  8
0
  6
Continuous
 62
     2
100
AcDbLine
 10
-912.5677065033609
 20
-1160.22230952381
 30
0.0
 11
-913.970430721109
 21
-1160.22230952381
 31
0.0
  0
LINE
  5
288
102
{ACAD_REACTORS
330
372
330
373
102
}
330
71
100
AcDbEntity
  8
0
  6
Continuous
 62
     2
100
AcDbLine
 10
-914.0897099913259
 20
-1160.22230952381
 30
0.0
 11
-915.3302144015788
 21
-1160.22230952381
 31
0.0
  0
LINE
  5
289
102
{ACAD_REACTORS
330
374
330
375
102
}
330
71
100
AcDbEntity
  8
0
  6
Continuous
 62
     2
100
AcDbLine
 10
-916.1981940097339
 20
-1162.35997619046
 30
0.0
 11
-916.4983592469241
 21
-1161.592161224473
 31
0.0
  0
LINE
  5
28A
102
{ACAD_REACTORS
330
374
330
375
102
}
330
71
100
AcDbEntity
  8
0
  6
Continuous
 62
     2
100
AcDbLine
 10
-916.7985244841163
 20
-1162.35997619046
 30
0.0
 11
-916.1981940097339
 21
-1162.35997619046
 31
0.0
  0
LINE
  5
28B
102
{ACAD_REACTORS
330
374
330
375
102
}
330
71
100
AcDbEntity
  8
0
  6
Continuous
 62
     2
100
AcDbLine
 10
-918.5165644989902
 20
-1163.581499999984
 30
0.0
 11
-917.2760600887373
 21
-1163.581499999984
 31
0.0
  0
LINE
  5
28C
102
{ACAD_REACTORS
330
374
330
375
102
}
330
71
100
AcDbEntity
  8
0
  6
Continuous
 62
     2
100
AcDbLine
 10
-917.118611452051
 20
-1160.527690476173
 30
0.0
 11
-915.8781070417981
 21
-1160.527690476173
 31
0.0
  0
LINE
  5
28D
102
{ACAD_REACTORS
330
374
330
375
102
}
330
71
100
AcDbEntity
  8
0
  6
Continuous
 62
     2
100
AcDbLine
 10
-915.8781070417981
 20
-1160.527690476173
 30
0.0
 11
-914.4801539948579
 21
-1163.581499999984
 31
0.0
  0
LINE
  5
28E
102
{ACAD_REACTORS
330
374
330
375
102
}
330
71
100
AcDbEntity
  8
0
  6
Continuous
 62
     2
100
AcDbLine
 10
-915.7206584051117
 20
-1163.581499999984
 30
0.0
 11
-915.9321384585876
 21
-1163.040539455767
 31
0.0
  0
LINE
  5
28F
102
{ACAD_REACTORS
330
376
330
377
102
}
330
71
100
AcDbEntity
  8
0
  6
Continuous
 62
     2
100
AcDbLine
 10
-919.8629776006978
 20
-1163.581499999984
 30
0.0
 11
-918.6701848985314
 21
-1163.581499999984
 31
0.0
  0
LINE
  5
290
102
{ACAD_REACTORS
330
376
330
377
102
}
330
71
100
AcDbEntity
  8
0
  6
Continuous
 62
     2
100
AcDbLine
 10
-919.8629776006978
 20
-1161.312955782297
 30
0.0
 11
-919.8629776006978
 21
-1163.581499999984
 31
0.0
  0
LINE
  5
291
102
{ACAD_REACTORS
330
376
330
377
102
}
330
71
100
AcDbEntity
  8
0
  6
Continuous
 62
     2
100
AcDbLine
 10
-920.6740766381724
 20
-1160.527690476173
 30
0.0
 11
-920.6740766381724
 21
-1161.312955782297
 31
0.0
  0
LINE
  5
292
102
{ACAD_REACTORS
330
378
330
379
102
}
330
71
100
AcDbEntity
  8
0
  6
Continuous
 62
     2
100
AcDbLine
 10
-919.1948627565998
 20
-1160.22230952381
 30
0.0
 11
-918.0020700544334
 21
-1160.22230952381
 31
0.0
  0
LINE
  5
293
102
{ACAD_REACTORS
330
378
330
379
102
}
330
71
100
AcDbEntity
  8
0
  6
Continuous
 62
     2
100
AcDbLine
 10
-916.7615656441793
 20
-1158.477275510204
 30
0.0
 11
-918.0020700544334
 21
-1157.168499999999
 31
0.0
  0
LINE
  5
294
102
{ACAD_REACTORS
330
378
330
379
102
}
330
71
100
AcDbEntity
  8
0
  6
Continuous
 62
     2
100
AcDbLine
 10
-915.5687729420126
 20
-1157.168499999999
 30
0.0
 11
-916.7615656441793
 21
-1157.168499999999
 31
0.0
  0
LINE
  5
295
102
{ACAD_REACTORS
330
378
330
379
102
}
330
71
100
AcDbEntity
  8
0
  6
Continuous
 62
     2
100
AcDbLine
 10
-915.5687729420126
 20
-1160.22230952381
 30
0.0
 11
-915.5687729420126
 21
-1157.168499999999
 31
0.0
  0
LINE
  5
296
102
{ACAD_REACTORS
330
378
330
379
102
}
330
71
100
AcDbEntity
  8
0
  6
Continuous
 62
     2
100
AcDbLine
 10
-916.7615656441793
 20
-1160.22230952381
 30
0.0
 11
-915.5687729420126
 21
-1160.22230952381
 31
0.0
  0
LINE
  5
297
102
{ACAD_REACTORS
330
378
330
379
102
}
330
71
100
AcDbEntity
  8
0
  6
Continuous
 62
     2
100
AcDbLine
 10
-918.0020700544334
 20
-1158.913534013605
 30
0.0
 11
-916.7615656441793
 21
-1160.22230952381
 31
0.0
  0
LINE
  5
298
102
{ACAD_REACTORS
330
37A
330
37B
102
}
330
71
100
AcDbEntity
  8
0
  6
Continuous
 62
     2
100
AcDbLine
 10
-922.010004464599
 20
-1161.836465986378
 30
0.0
 11
-923.2505088748519
 21
-1160.527690476173
 31
0.0
  0
LINE
  5
299
102
{ACAD_REACTORS
330
37A
330
37B
102
}
330
71
100
AcDbEntity
  8
0
  6
Continuous
 62
     2
100
AcDbLine
 10
-922.010004464599
 20
-1160.527690476173
 30
0.0
 11
-922.010004464599
 21
-1161.836465986378
 31
0.0
  0
LINE
  5
29A
102
{ACAD_REACTORS
330
37A
330
37B
102
}
330
71
100
AcDbEntity
  8
0
  6
Continuous
 62
     2
100
AcDbLine
 10
-920.8172117624326
 20
-1160.527690476173
 30
0.0
 11
-922.010004464599
 21
-1160.527690476173
 31
0.0
  0
LINE
  5
29B
102
{ACAD_REACTORS
330
37A
330
37B
102
}
330
71
100
AcDbEntity
  8
0
  6
Continuous
 62
     2
100
AcDbLine
 10
-920.8172117624326
 20
-1163.581499999984
 30
0.0
 11
-920.8172117624326
 21
-1160.527690476173
 31
0.0
  0
LINE
  5
29C
102
{ACAD_REACTORS
330
37A
330
37B
102
}
330
71
100
AcDbEntity
  8
0
  6
Continuous
 62
     2
100
AcDbLine
 10
-923.2505088748519
 20
-1162.27272448978
 30
0.0
 11
-922.010004464599
 21
-1163.581499999984
 31
0.0
  0
LINE
  5
29D
102
{ACAD_REACTORS
330
37A
330
37B
102
}
330
71
100
AcDbEntity
  8
0
  6
Continuous
 62
     2
100
AcDbLine
 10
-923.2505088748519
 20
-1163.581499999984
 30
0.0
 11
-923.2505088748519
 21
-1162.27272448978
 31
0.0
  0
LINE
  5
29E
102
{ACAD_REACTORS
330
36A
330
36B
102
}
330
71
100
AcDbEntity
  8
0
  6
Continuous
 62
     2
100
AcDbLine
 10
-920.7693491234604
 20
-1157.866513605442
 30
0.0
 11
-919.4334212970327
 21
-1157.866513605442
 31
0.0
  0
LINE
  5
29F
102
{ACAD_REACTORS
330
36A
330
36B
102
}
330
71
100
AcDbEntity
  8
0
  6
Continuous
 62
     2
100
AcDbLine
 10
-920.7693491234604
 20
-1159.524295918367
 30
0.0
 11
-920.7693491234604
 21
-1159.044411564626
 31
0.0
  0
LINE
  5
2A0
102
{ACAD_REACTORS
330
36A
330
36B
102
}
330
71
100
AcDbEntity
  8
0
  6
Continuous
 62
     2
100
AcDbLine
 10
-919.4334212970327
 20
-1159.524295918367
 30
0.0
 11
-920.7693491234604
 21
-1159.524295918367
 31
0.0
  0
LINE
  5
2A1
102
{ACAD_REACTORS
330
36A
330
36B
102
}
330
71
100
AcDbEntity
  8
0
  6
Continuous
 62
     2
100
AcDbLine
 10
-919.4334212970327
 20
-1160.22230952381
 30
0.0
 11
-919.4334212970327
 21
-1159.524295918367
 31
0.0
  0
LINE
  5
2A2
102
{ACAD_REACTORS
330
36A
330
36B
102
}
330
71
100
AcDbEntity
  8
0
  6
Continuous
 62
     2
100
AcDbLine
 10
-922.5837410208137
 20
-1160.22230952381
 30
0.0
 11
-919.4334212970327
 21
-1160.22230952381
 31
0.0
  0
LINE
  5
2A3
102
{ACAD_REACTORS
330
36A
330
36B
102
}
330
71
100
AcDbEntity
  8
0
  6
Continuous
 62
     2
100
AcDbLine
 10
-922.5837410208137
 20
-1157.168499999999
 30
0.0
 11
-919.4334212970327
 21
-1157.168499999999
 31
0.0
  0
LINE
  5
2A4
102
{ACAD_REACTORS
330
36A
330
36B
102
}
330
71
100
AcDbEntity
  8
0
  6
Continuous
 62
     2
100
AcDbLine
 10
-919.4334212970327
 20
-1157.866513605442
 30
0.0
 11
-919.4334212970327
 21
-1157.168499999999
 31
0.0
  0
LINE
  5
2A5
102
{ACAD_REACTORS
330
37C
330
37D
102
}
330
71
100
AcDbEntity
  8
0
  6
Continuous
 62
     2
100
AcDbLine
 10
-925.4450965159538
 20
-1158.237333333334
 30
0.0
 11
-925.4450965159538
 21
-1157.168499999999
 31
0.0
  0
LINE
  5
2A6
102
{ACAD_REACTORS
330
37C
330
37D
102
}
330
71
100
AcDbEntity
  8
0
  6
Continuous
 62
     2
100
AcDbLine
 10
-925.4450965159538
 20
-1157.168499999999
 30
0.0
 11
-924.2523038137873
 21
-1157.168499999999
 31
0.0
  0
LINE
  5
2A7
102
{ACAD_REACTORS
330
37C
330
37D
102
}
330
71
100
AcDbEntity
  8
0
  6
Continuous
 62
     2
100
AcDbLine
 10
-925.4450965159538
 20
-1159.088037414966
 30
0.0
 11
-926.4947540938612
 21
-1159.088037414966
 31
0.0
  0
LINE
  5
2A8
102
{ACAD_REACTORS
330
37C
330
37D
102
}
330
71
100
AcDbEntity
  8
0
  6
Continuous
 62
     2
100
AcDbLine
 10
-926.4947540938612
 20
-1159.088037414966
 30
0.0
 11
-926.4947540938612
 21
-1160.22230952381
 31
0.0
  0
LINE
  5
2A9
102
{ACAD_REACTORS
330
37C
330
37D
102
}
330
71
100
AcDbEntity
  8
0
  6
Continuous
 62
     2
100
AcDbLine
 10
-927.6875467960277
 20
-1157.168499999999
 30
0.0
 11
-927.6875467960277
 21
-1160.22230952381
 31
0.0
  0
LINE
  5
2AA
102
{ACAD_REACTORS
330
36E
330
36F
102
}
330
71
100
AcDbEntity
  8
0
  6
Continuous
 62
     2
100
AcDbLine
 10
-929.6437268275815
 20
-1158.537333494781
 30
0.0
 11
-929.6437268275815
 21
-1157.831605845439
 31
0.0
  0
LINE
  5
2AB
102
{ACAD_REACTORS
330
36E
330
36F
102
}
330
71
100
AcDbEntity
  8
0
  6
Continuous
 62
     2
100
AcDbLine
 10
-930.8842312378355
 20
-1160.22230952381
 30
0.0
 11
-929.6437268275815
 21
-1160.22230952381
 31
0.0
  0
LINE
  5
2AC
102
{ACAD_REACTORS
330
36E
330
36F
102
}
330
71
100
AcDbEntity
  8
0
  6
Continuous
 62
     2
100
AcDbLine
 10
-929.6437268275815
 20
-1160.22230952381
 30
0.0
 11
-929.6437268275815
 21
-1159.279231282666
 31
0.0
  0
LINE
  5
2AD
102
{ACAD_REACTORS
330
368
330
369
102
}
330
71
100
AcDbEntity
  8
0
  6
Continuous
 62
     2
100
AcDbLine
 10
-935.189177087047
 20
-1162.868944444427
 30
0.0
 11
-936.6650103480565
 21
-1162.868944444427
 31
0.0
  0
LINE
  5
2AE
102
{ACAD_REACTORS
330
368
330
369
102
}
330
71
100
AcDbEntity
  8
0
  6
Continuous
 62
     2
100
AcDbLine
 10
-937.6831496401859
 20
-1157.592744615401
 30
0.0
 11
-937.6831496401859
 21
-1163.157255384601
 31
0.0
  0
LINE
  5
2AF
102
{ACAD_REACTORS
330
368
330
369
102
}
330
71
100
AcDbEntity
  8
0
  6
Continuous
 62
     2
100
AcDbLine
 10
-937.2589050248031
 20
-1157.168500000017
 30
0.0
 11
-931.7855929340861
 21
-1157.168500000017
 31
0.0
  0
LINE
  5
2B0
102
{ACAD_REACTORS
330
368
330
369
102
}
330
71
100
AcDbEntity
  8
0
  6
Continuous
 62
     2
100
AcDbLine
 10
-931.3613483187023
 20
-1157.592744615401
 30
0.0
 11
-931.3613483187023
 21
-1163.157255384601
 31
0.0
  0
LINE
  5
2B1
102
{ACAD_REACTORS
330
368
330
369
102
}
330
71
100
AcDbEntity
  8
0
  6
Continuous
 62
     2
100
AcDbLine
 10
-931.7855929340861
 20
-1163.581499999984
 30
0.0
 11
-937.2589050248031
 21
-1163.581499999984
 31
0.0
  0
LINE
  5
2B2
102
{ACAD_REACTORS
330
368
330
369
102
}
330
71
100
AcDbEntity
  8
0
  6
Continuous
 62
     2
100
AcDbLine
 10
-934.8734601639703
 20
-1162.553227521351
 30
0.0
 11
-934.8734601639703
 21
-1161.022456589819
 31
0.0
  0
LINE
  5
2B3
102
{ACAD_REACTORS
330
368
330
369
102
}
330
71
100
AcDbEntity
  8
0
  6
Continuous
 62
     2
100
AcDbLine
 10
-934.8734601639703
 20
-1158.800797097694
 30
0.0
 11
-934.8734601639703
 21
-1158.196772478633
 31
0.0
  0
LINE
  5
2B4
102
{ACAD_REACTORS
330
368
330
369
102
}
330
71
100
AcDbEntity
  8
0
  6
Continuous
 62
     2
100
AcDbLine
 10
-936.6650103480565
 20
-1157.881055555557
 30
0.0
 11
-935.189177087047
 21
-1157.881055555557
 31
0.0
  0
LINE
  5
2B5
102
{ACAD_REACTORS
330
368
330
369
102
}
330
71
100
AcDbEntity
  8
0
  6
Continuous
 62
     2
100
AcDbLine
 10
-936.9807272711322
 20
-1158.196772478633
 30
0.0
 11
-936.9807272711322
 21
-1162.553227521351
 31
0.0
  0
LINE
  5
2B6
102
{ACAD_REACTORS
330
36E
330
36F
102
}
330
71
100
AcDbEntity
  8
0
  6
Continuous
 62
     2
100
AcDbLine
 10
-929.6437268275815
 20
-1159.279231282666
 30
0.0
 11
-928.8849592398011
 21
-1159.279231282666
 31
0.0
  0
LINE
  5
2B7
102
{ACAD_REACTORS
330
36E
330
36F
102
}
330
71
100
AcDbEntity
  8
0
  6
Continuous
 62
     2
100
AcDbLine
 10
-930.8842312378355
 20
-1157.168499999999
 30
0.0
 11
-928.8849592398011
 21
-1157.168499999999
 31
0.0
  0
LINE
  5
2B8
102
{ACAD_REACTORS
330
36E
330
36F
102
}
330
71
100
AcDbEntity
  8
0
  6
Continuous
 62
     2
100
AcDbLine
 10
-930.8842312378355
 20
-1157.168499999999
 30
0.0
 11
-930.8842312378355
 21
-1160.22230952381
 31
0.0
  0
LINE
  5
2B9
102
{ACAD_REACTORS
330
36E
330
36F
102
}
330
71
100
AcDbEntity
  8
0
  6
Continuous
 62
     2
100
AcDbLine
 10
-929.6437268275815
 20
-1158.537333494781
 30
0.0
 11
-929.3264317660395
 21
-1158.537333494781
 31
0.0
  0
LINE
  5
2BA
102
{ACAD_REACTORS
330
36E
330
36F
102
}
330
71
100
AcDbEntity
  8
0
  6
Continuous
 62
     2
100
AcDbLine
 10
-929.6437268275815
 20
-1157.831605845439
 30
0.0
 11
-929.3264317660395
 21
-1157.831605845439
 31
0.0
  0
LINE
  5
2BB
102
{ACAD_REACTORS
330
37C
330
37D
102
}
330
71
100
AcDbEntity
  8
0
  6
Continuous
 62
     2
100
AcDbLine
 10
-926.4947540938612
 20
-1158.237333333334
 30
0.0
 11
-925.4450965159538
 21
-1158.237333333334
 31
0.0
  0
LINE
  5
2BC
102
{ACAD_REACTORS
330
37C
330
37D
102
}
330
71
100
AcDbEntity
  8
0
  6
Continuous
 62
     2
100
AcDbLine
 10
-926.4947540938612
 20
-1157.168499999999
 30
0.0
 11
-926.4947540938612
 21
-1158.237333333334
 31
0.0
  0
LINE
  5
2BD
102
{ACAD_REACTORS
330
37C
330
37D
102
}
330
71
100
AcDbEntity
  8
0
  6
Continuous
 62
     2
100
AcDbLine
 10
-927.6875467960277
 20
-1157.168499999999
 30
0.0
 11
-926.4947540938612
 21
-1157.168499999999
 31
0.0
  0
LINE
  5
2BE
102
{ACAD_REACTORS
330
37C
330
37D
102
}
330
71
100
AcDbEntity
  8
0
  6
Continuous
 62
     2
100
AcDbLine
 10
-926.4947540938612
 20
-1160.22230952381
 30
0.0
 11
-927.6875467960277
 21
-1160.22230952381
 31
0.0
  0
LINE
  5
2BF
102
{ACAD_REACTORS
330
37C
330
37D
102
}
330
71
100
AcDbEntity
  8
0
  6
Continuous
 62
     2
100
AcDbLine
 10
-925.4450965159538
 20
-1160.22230952381
 30
0.0
 11
-925.4450965159538
 21
-1159.088037414966
 31
0.0
  0
LINE
  5
2C0
102
{ACAD_REACTORS
330
37C
330
37D
102
}
330
71
100
AcDbEntity
  8
0
  6
Continuous
 62
     2
100
AcDbLine
 10
-924.2523038137873
 20
-1160.22230952381
 30
0.0
 11
-925.4450965159538
 21
-1160.22230952381
 31
0.0
  0
LINE
  5
2C1
102
{ACAD_REACTORS
330
37C
330
37D
102
}
330
71
100
AcDbEntity
  8
0
  6
Continuous
 62
     2
100
AcDbLine
 10
-924.2523038137873
 20
-1157.168499999999
 30
0.0
 11
-924.2523038137873
 21
-1160.22230952381
 31
0.0
  0
LINE
  5
2C2
102
{ACAD_REACTORS
330
36A
330
36B
102
}
330
71
100
AcDbEntity
  8
0
  6
Continuous
 62
     2
100
AcDbLine
 10
-920.7693491234604
 20
-1159.044411564626
 30
0.0
 11
-919.4334212970327
 21
-1159.044411564626
 31
0.0
  0
LINE
  5
2C3
102
{ACAD_REACTORS
330
36A
330
36B
102
}
330
71
100
AcDbEntity
  8
0
  6
Continuous
 62
     2
100
AcDbLine
 10
-919.4334212970327
 20
-1159.044411564626
 30
0.0
 11
-919.4334212970327
 21
-1158.346397959183
 31
0.0
  0
LINE
  5
2C4
102
{ACAD_REACTORS
330
36A
330
36B
102
}
330
71
100
AcDbEntity
  8
0
  6
Continuous
 62
     2
100
AcDbLine
 10
-919.4334212970327
 20
-1158.346397959183
 30
0.0
 11
-920.7693491234604
 21
-1158.346397959183
 31
0.0
  0
LINE
  5
2C5
102
{ACAD_REACTORS
330
36A
330
36B
102
}
330
71
100
AcDbEntity
  8
0
  6
Continuous
 62
     2
100
AcDbLine
 10
-920.7693491234604
 20
-1158.346397959183
 30
0.0
 11
-920.7693491234604
 21
-1157.866513605442
 31
0.0
  0
LINE
  5
2C6
102
{ACAD_REACTORS
330
37A
330
37B
102
}
330
71
100
AcDbEntity
  8
0
  6
Continuous
 62
     2
100
AcDbLine
 10
-924.4433015770195
 20
-1163.581499999984
 30
0.0
 11
-923.2505088748519
 21
-1163.581499999984
 31
0.0
  0
LINE
  5
2C7
102
{ACAD_REACTORS
330
37A
330
37B
102
}
330
71
100
AcDbEntity
  8
0
  6
Continuous
 62
     2
100
AcDbLine
 10
-922.010004464599
 20
-1163.581499999984
 30
0.0
 11
-920.8172117624326
 21
-1163.581499999984
 31
0.0
  0
LINE
  5
2C8
102
{ACAD_REACTORS
330
37A
330
37B
102
}
330
71
100
AcDbEntity
  8
0
  6
Continuous
 62
     2
100
AcDbLine
 10
-923.2505088748519
 20
-1160.527690476173
 30
0.0
 11
-924.4433015770195
 21
-1160.527690476173
 31
0.0
  0
LINE
  5
2C9
102
{ACAD_REACTORS
330
37A
330
37B
102
}
330
71
100
AcDbEntity
  8
0
  6
Continuous
 62
     2
100
AcDbLine
 10
-924.4433015770195
 20
-1160.527690476173
 30
0.0
 11
-924.4433015770195
 21
-1163.581499999984
 31
0.0
  0
LINE
  5
2CA
102
{ACAD_REACTORS
330
378
330
379
102
}
330
71
100
AcDbEntity
  8
0
  6
Continuous
 62
     2
100
AcDbLine
 10
-916.7615656441793
 20
-1157.168499999999
 30
0.0
 11
-916.7615656441793
 21
-1158.477275510204
 31
0.0
  0
LINE
  5
2CB
102
{ACAD_REACTORS
330
378
330
379
102
}
330
71
100
AcDbEntity
  8
0
  6
Continuous
 62
     2
100
AcDbLine
 10
-918.0020700544334
 20
-1157.168499999999
 30
0.0
 11
-919.1948627565998
 21
-1157.168499999999
 31
0.0
  0
LINE
  5
2CC
102
{ACAD_REACTORS
330
378
330
379
102
}
330
71
100
AcDbEntity
  8
0
  6
Continuous
 62
     2
100
AcDbLine
 10
-919.1948627565998
 20
-1157.168499999999
 30
0.0
 11
-919.1948627565998
 21
-1160.22230952381
 31
0.0
  0
LINE
  5
2CD
102
{ACAD_REACTORS
330
378
330
379
102
}
330
71
100
AcDbEntity
  8
0
  6
Continuous
 62
     2
100
AcDbLine
 10
-918.0020700544334
 20
-1160.22230952381
 30
0.0
 11
-918.0020700544334
 21
-1158.913534013605
 31
0.0
  0
LINE
  5
2CE
102
{ACAD_REACTORS
330
376
330
377
102
}
330
71
100
AcDbEntity
  8
0
  6
Continuous
 62
     2
100
AcDbLine
 10
-918.6701848985314
 20
-1163.581499999984
 30
0.0
 11
-918.6701848985314
 21
-1161.312955782297
 31
0.0
  0
LINE
  5
2CF
102
{ACAD_REACTORS
330
376
330
377
102
}
330
71
100
AcDbEntity
  8
0
  6
Continuous
 62
     2
100
AcDbLine
 10
-918.6701848985314
 20
-1161.312955782297
 30
0.0
 11
-917.8590858610587
 21
-1161.312955782297
 31
0.0
  0
LINE
  5
2D0
102
{ACAD_REACTORS
330
376
330
377
102
}
330
71
100
AcDbEntity
  8
0
  6
Continuous
 62
     2
100
AcDbLine
 10
-917.8590858610587
 20
-1161.312955782297
 30
0.0
 11
-917.8590858610587
 21
-1160.527690476173
 31
0.0
  0
LINE
  5
2D1
102
{ACAD_REACTORS
330
376
330
377
102
}
330
71
100
AcDbEntity
  8
0
  6
Continuous
 62
     2
100
AcDbLine
 10
-917.8590858610587
 20
-1160.527690476173
 30
0.0
 11
-920.6740766381724
 21
-1160.527690476173
 31
0.0
  0
LINE
  5
2D2
102
{ACAD_REACTORS
330
376
330
377
102
}
330
71
100
AcDbEntity
  8
0
  6
Continuous
 62
     2
100
AcDbLine
 10
-920.6740766381724
 20
-1161.312955782297
 30
0.0
 11
-919.8629776006978
 21
-1161.312955782297
 31
0.0
  0
LINE
  5
2D3
102
{ACAD_REACTORS
330
374
330
375
102
}
330
71
100
AcDbEntity
  8
0
  6
Continuous
 62
     2
100
AcDbLine
 10
-917.0645800352615
 20
-1163.040539455767
 30
0.0
 11
-915.9321384585876
 21
-1163.040539455767
 31
0.0
  0
LINE
  5
2D4
102
{ACAD_REACTORS
330
374
330
375
102
}
330
71
100
AcDbEntity
  8
0
  6
Continuous
 62
     2
100
AcDbLine
 10
-914.4801539948579
 20
-1163.581499999984
 30
0.0
 11
-915.7206584051117
 21
-1163.581499999984
 31
0.0
  0
LINE
  5
2D5
102
{ACAD_REACTORS
330
374
330
375
102
}
330
71
100
AcDbEntity
  8
0
  6
Continuous
 62
     2
100
AcDbLine
 10
-917.118611452051
 20
-1160.527690476173
 30
0.0
 11
-918.5165644989902
 21
-1163.581499999984
 31
0.0
  0
LINE
  5
2D6
102
{ACAD_REACTORS
330
374
330
375
102
}
330
71
100
AcDbEntity
  8
0
  6
Continuous
 62
     2
100
AcDbLine
 10
-917.2760600887373
 20
-1163.581499999984
 30
0.0
 11
-917.0645800352615
 21
-1163.040539455767
 31
0.0
  0
LINE
  5
2D7
102
{ACAD_REACTORS
330
374
330
375
102
}
330
71
100
AcDbEntity
  8
0
  6
Continuous
 62
     2
100
AcDbLine
 10
-916.7985244841163
 20
-1162.35997619046
 30
0.0
 11
-916.4983592469241
 21
-1161.592161224473
 31
0.0
  0
LINE
  5
2D8
102
{ACAD_REACTORS
330
372
330
373
102
}
330
71
100
AcDbEntity
  8
0
  6
Continuous
 62
     2
100
AcDbLine
 10
-915.3302144015788
 20
-1160.22230952381
 30
0.0
 11
-915.3302144015788
 21
-1157.168499999999
 31
0.0
  0
LINE
  5
2D9
102
{ACAD_REACTORS
330
372
330
373
102
}
330
71
100
AcDbEntity
  8
0
  6
Continuous
 62
     2
100
AcDbLine
 10
-914.0897099913259
 20
-1157.168499999999
 30
0.0
 11
-914.0897099913259
 21
-1160.22230952381
 31
0.0
  0
LINE
  5
2DA
102
{ACAD_REACTORS
330
372
330
373
102
}
330
71
100
AcDbEntity
  8
0
  6
Continuous
 62
     2
100
AcDbLine
 10
-915.3302144015788
 20
-1157.168499999999
 30
0.0
 11
-914.0897099913259
 21
-1157.168499999999
 31
0.0
  0
LINE
  5
2DB
102
{ACAD_REACTORS
330
370
330
371
102
}
330
71
100
AcDbEntity
  8
0
  6
Continuous
 62
     2
100
AcDbLine
 10
-911.8711155652951
 20
-1159.434577738516
 30
0.0
 11
-911.1745246272296
 21
-1160.22230952381
 31
0.0
  0
LINE
  5
2DC
102
{ACAD_REACTORS
330
370
330
371
102
}
330
71
100
AcDbEntity
  8
0
  6
Continuous
 62
     2
100
AcDbLine
 10
-911.1745246272296
 20
-1160.22230952381
 30
0.0
 11
-909.7718004094813
 21
-1160.22230952381
 31
0.0
  0
LINE
  5
2DD
102
{ACAD_REACTORS
330
370
330
371
102
}
330
71
100
AcDbEntity
  8
0
  6
Continuous
 62
     2
100
AcDbLine
 10
-911.1697534564216
 20
-1158.641450530035
 30
0.0
 11
-909.7718004094813
 21
-1160.22230952381
 31
0.0
  0
LINE
  5
2DE
102
{ACAD_REACTORS
330
370
330
371
102
}
330
71
100
AcDbEntity
  8
0
  6
Continuous
 62
     2
100
AcDbLine
 10
-911.1697534564216
 20
-1158.641450530035
 30
0.0
 11
-909.8672238256551
 21
-1157.168499999999
 31
0.0
  0
LINE
  5
2DF
102
{ACAD_REACTORS
330
370
330
371
102
}
330
71
100
AcDbEntity
  8
0
  6
Continuous
 62
     2
100
AcDbLine
 10
-911.8711155652951
 20
-1157.848323321554
 30
0.0
 11
-911.2699480434023
 21
-1157.168499999999
 31
0.0
  0
LINE
  5
2E0
102
{ACAD_REACTORS
330
370
330
371
102
}
330
71
100
AcDbEntity
  8
0
  6
Continuous
 62
     2
100
AcDbLine
 10
-912.472283087187
 20
-1157.168499999999
 30
0.0
 11
-911.8711155652951
 21
-1157.848323321554
 31
0.0
  0
LINE
  5
2E1
102
{ACAD_REACTORS
330
370
330
371
102
}
330
71
100
AcDbEntity
  8
0
  6
Continuous
 62
     2
100
AcDbLine
 10
-912.472283087187
 20
-1157.168499999999
 30
0.0
 11
-913.8750073049362
 21
-1157.168499999999
 31
0.0
  0
LINE
  5
2E2
102
{ACAD_REACTORS
330
366
330
367
102
}
330
71
100
AcDbEntity
  8
0
  6
Continuous
 62
     2
100
AcDbLine
 10
-911.7756921491225
 20
-1163.581499999984
 30
0.0
 11
-910.5828994469548
 21
-1163.581499999984
 31
0.0
  0
LINE
  5
2E3
102
{ACAD_REACTORS
330
366
330
367
102
}
330
71
100
AcDbEntity
  8
0
  6
Continuous
 62
     2
100
AcDbLine
 10
-910.5828994469548
 20
-1163.581499999984
 30
0.0
 11
-910.5828994469548
 21
-1161.312955782297
 31
0.0
  0
LINE
  5
2E4
102
{ACAD_REACTORS
330
366
330
367
102
}
330
71
100
AcDbEntity
  8
0
  6
Continuous
 62
     2
100
AcDbLine
 10
-910.5828994469548
 20
-1161.312955782297
 30
0.0
 11
-909.7718004094813
 21
-1161.312955782297
 31
0.0
  0
LINE
  5
2E5
102
{ACAD_REACTORS
330
366
330
367
102
}
330
71
100
AcDbEntity
  8
0
  6
Continuous
 62
     2
100
AcDbLine
 10
-909.7718004094813
 20
-1161.312955782297
 30
0.0
 11
-909.7718004094813
 21
-1160.527690476173
 31
0.0
  0
LINE
  5
2E6
102
{ACAD_REACTORS
330
366
330
367
102
}
330
71
100
AcDbEntity
  8
0
  6
Continuous
 62
     2
100
AcDbLine
 10
-913.15674592811
 20
-1160.527690476174
 30
0.0
 11
-909.7718004094813
 21
-1160.527690476173
 31
0.0
  0
LINE
  5
2E7
102
{ACAD_REACTORS
330
366
330
367
102
}
330
71
100
AcDbEntity
  8
0
  6
Continuous
 62
     2
100
AcDbLine
 10
-911.7756921491225
 20
-1161.312955782297
 30
0.0
 11
-911.7756921491225
 21
-1163.581499999984
 31
0.0
  0
LINE
  5
2E8
102
{ACAD_REACTORS
330
368
330
369
102
}
330
71
100
AcDbEntity
  8
0
  6
Continuous
 62
     2
100
AcDbLine
 10
-934.4051785846016
 20
-1161.60261985042
 30
0.0
 11
-934.4051785846016
 21
-1161.020768443725
 31
0.0
  0
LINE
  5
2E9
102
{ACAD_REACTORS
330
368
330
369
102
}
330
71
100
AcDbEntity
  8
0
  6
Continuous
 62
     2
100
AcDbLine
 10
-934.4051785846016
 20
-1158.802485243788
 30
0.0
 11
-934.4051785846016
 21
-1158.196949955282
 31
0.0
  0
LINE
  5
2EA
330
71
100
AcDbEntity
  8
1
  6
Continuous
 62
     6
100
AcDbLine
 10
-855.8749999999984
 20
-1170.875000000001
 30
0.0
 11
-812.3749999999985
 21
-1170.875000000001
 31
0.0
  0
LINE
  5
2EB
330
71
100
AcDbEntity
  8
1
  6
Continuous
 62
     6
100
AcDbLine
 10
-905.8749999999984
 20
-1170.875000000001
 30
0.0
 11
-923.7198045267485
 21
-1170.875000000001
 31
0.0
  0
LINE
  5
2EC
330
71
100
AcDbEntity
  8
1
  6
Continuous
 62
     6
100
AcDbLine
 10
-941.9198045267484
 20
-1153.875000000001
 30
0.0
 11
-905.5198045267484
 21
-1153.875000000001
 31
0.0
  0
LINE
  5
2ED
330
71
100
AcDbEntity
  8
1
  6
Continuous
 62
     6
100
AcDbLine
 10
-812.3749999999985
 20
-1170.875000000001
 30
0.0
 11
-812.3749999999972
 21
-1162.375000000001
 31
0.0
  0
LINE
  5
2EE
330
71
100
AcDbEntity
  8
1
  6
Continuous
 62
     6
100
AcDbLine
 10
-905.5198045267484
 20
-1170.875000000001
 30
0.0
 11
-855.8749999999984
 21
-1170.875000000001
 31
0.0
  0
LINE
  5
2EF
330
71
100
AcDbEntity
  8
1
  6
Continuous
 62
     7
100
AcDbLine
 10
-941.9198045267484
 20
-1153.875000000001
 30
0.0
 11
-941.9198045267484
 21
-1166.625000000001
 31
0.0
  0
LINE
  5
2F0
330
71
100
AcDbEntity
  8
1
  6
Continuous
 62
     7
100
AcDbLine
 10
-905.5198045267484
 20
-1153.875000000001
 30
0.0
 11
-905.5198045267484
 21
-1166.625000000001
 31
0.0
  0
LINE
  5
2F1
330
71
100
AcDbEntity
  8
1
  6
Continuous
 62
     6
100
AcDbLine
 10
-905.5198045267484
 20
-1170.875000000001
 30
0.0
 11
-905.8749999999984
 21
-1170.875000000001
 31
0.0
  0
LINE
  5
2F2
330
71
100
AcDbEntity
  8
1
  6
Continuous
 62
     6
100
AcDbLine
 10
-812.3749999999967
 20
-1153.875000000001
 30
0.0
 11
-812.3749999999972
 21
-1162.375000000001
 31
0.0
  0
LINE
  5
2F3
330
71
100
AcDbEntity
  8
1
  6
Continuous
 62
     2
100
AcDbLine
 10
-937.6831496401859
 20
-1148.500000000001
 30
0.0
 11
-932.6831496401859
 21
-1147.250000000001
 31
0.0
  0
LINE
  5
2F4
330
71
100
AcDbEntity
  8
1
  6
Continuous
 62
     2
100
AcDbLine
 10
-937.6831496401859
 20
-1151.000000000001
 30
0.0
 11
-937.6831496401859
 21
-1148.500000000001
 31
0.0
  0
LINE
  5
2F5
330
71
100
AcDbEntity
  8
1
  6
Continuous
 62
     2
100
AcDbLine
 10
-932.6831496401859
 20
-1152.250000000001
 30
0.0
 11
-937.6831496401859
 21
-1151.000000000001
 31
0.0
  0
LINE
  5
2F6
330
71
100
AcDbEntity
  8
1
  6
Continuous
 62
     2
100
AcDbLine
 10
-932.6831496401859
 20
-1147.250000000001
 30
0.0
 11
-932.6831496401859
 21
-1152.250000000001
 31
0.0
  0
LINE
  5
2F7
330
71
100
AcDbEntity
  8
1
  6
Continuous
 62
     7
100
AcDbLine
 10
-941.9198045267484
 20
-1166.625000000001
 30
0.0
 11
-923.7198045267485
 21
-1166.625000000001
 31
0.0
  0
LINE
  5
2F8
330
71
100
AcDbEntity
  8
1
  6
Continuous
 62
     7
100
AcDbLine
 10
-941.9198045267484
 20
-1166.625000000001
 30
0.0
 11
-941.9198045267484
 21
-1170.875000000001
 31
0.0
  0
LINE
  5
2F9
330
71
100
AcDbEntity
  8
1
  6
Continuous
 62
     7
100
AcDbLine
 10
-905.5198045267484
 20
-1166.625000000001
 30
0.0
 11
-905.5198045267484
 21
-1170.875000000001
 31
0.0
  0
LINE
  5
2FA
330
71
100
AcDbEntity
  8
1
  6
Continuous
 62
     7
100
AcDbLine
 10
-923.7198045267485
 20
-1166.625000000001
 30
0.0
 11
-923.7198045267485
 21
-1170.875000000001
 31
0.0
  0
LINE
  5
2FB
330
71
100
AcDbEntity
  8
1
  6
Continuous
 62
     6
100
AcDbLine
 10
-923.7198045267485
 20
-1170.875000000001
 30
0.0
 11
-941.9198045267484
 21
-1170.875000000001
 31
0.0
  0
LINE
  5
2FC
330
71
100
AcDbEntity
  8
1
  6
Continuous
 62
     7
100
AcDbLine
 10
-923.7198045267485
 20
-1166.625000000001
 30
0.0
 11
-905.5198045267484
 21
-1166.625000000001
 31
0.0
  0
LINE
  5
2FD
330
71
100
AcDbEntity
  8
1
  6
Continuous
 62
     6
100
AcDbLine
 10
-941.9198045267484
 20
-1145.375000000001
 30
0.0
 11
-812.3749999999967
 21
-1145.375000000001
 31
0.0
  0
LINE
  5
2FE
330
71
100
AcDbEntity
  8
1
  6
PHANTOM
 62
     2
100
AcDbLine
 10
-926.4331496401859
 20
-1149.750000000001
 30
0.0
 11
-931.9331496401859
 21
-1149.750000000001
 31
0.0
  0
LINE
  5
2FF
330
71
100
AcDbEntity
  8
1
  6
PHANTOM
 62
     2
100
AcDbLine
 10
-929.1831496401859
 20
-1147.000000000001
 30
0.0
 11
-929.1831496401859
 21
-1152.500000000001
 31
0.0
  0
LINE
  5
300
330
71
100
AcDbEntity
  8
1
  6
DOT_CENTER
 62
     2
100
AcDbLine
 10
-937.9331496401859
 20
-1149.750000000001
 30
0.0
 11
-932.4331496401859
 21
-1149.750000000001
 31
0.0
  0
ARC
  5
301
102
{ACAD_REACTORS
330
36C
330
36D
102
}
330
71
100
AcDbEntity
  8
0
  6
Continuous
 62
     2
100
AcDbCircle
 10
-926.5281565277884
 20
-1162.054595238079
 30
0.0
 40
0.7717997786795957
100
AcDbArc
 50
321.8795802028306
 51
38.1204197971694
  0
ARC
  5
302
102
{ACAD_REACTORS
330
36C
330
36D
102
}
330
71
100
AcDbEntity
  8
0
  6
Continuous
 62
     2
100
AcDbCircle
 10
-926.328416491442
 20
-1162.211326416199
 30
0.0
 40
0.5179085730138424
100
AcDbArc
 50
218.1204197971879
 51
321.8795802027889
  0
ARC
  5
303
102
{ACAD_REACTORS
330
36C
330
36D
102
}
330
71
100
AcDbEntity
  8
0
  6
Continuous
 62
     2
100
AcDbCircle
 10
-926.128676455096
 20
-1162.054595238079
 30
0.0
 40
0.7717997786795957
100
AcDbArc
 50
141.8795802028306
 51
218.1204197971694
  0
ARC
  5
304
102
{ACAD_REACTORS
330
36C
330
36D
102
}
330
71
100
AcDbEntity
  8
0
  6
Continuous
 62
     2
100
AcDbCircle
 10
-926.328416491442
 20
-1161.897864059959
 30
0.0
 40
0.517908573013574
100
AcDbArc
 50
38.12041979721116
 51
141.8795802028121
  0
ARC
  5
305
102
{ACAD_REACTORS
330
364
330
365
102
}
330
71
100
AcDbEntity
  8
0
  6
Continuous
 62
     2
100
AcDbCircle
 10
-929.390430627006
 20
-1163.465061603487
 30
0.0
 40
2.227384008973574
100
AcDbArc
 50
58.06909105003538
 51
71.55192388186074
  0
ARC
  5
306
102
{ACAD_REACTORS
330
364
330
365
102
}
330
71
100
AcDbEntity
  8
0
  6
Continuous
 62
     2
100
AcDbCircle
 10
-929.1287029260471
 20
-1161.84952380874
 30
0.0
 40
0.5115800601953623
100
AcDbArc
 50
113.3722778881722
 51
151.4785267422724
  0
ARC
  5
307
102
{ACAD_REACTORS
330
364
330
365
102
}
330
71
100
AcDbEntity
  8
0
  6
Continuous
 62
     2
100
AcDbCircle
 10
-928.7513456679668
 20
-1162.054595238079
 30
0.0
 40
0.941059735333413
100
AcDbArc
 50
151.4785267422564
 51
208.521473257695
  0
ARC
  5
308
102
{ACAD_REACTORS
330
364
330
365
102
}
330
71
100
AcDbEntity
  8
0
  6
Continuous
 62
     2
100
AcDbCircle
 10
-929.5483035020987
 20
-1158.741914292823
 30
0.0
 40
4.852596863497932
100
AcDbArc
 50
275.1581447696242
 51
285.9799912583556
  0
ARC
  5
309
102
{ACAD_REACTORS
330
364
330
365
102
}
330
71
100
AcDbEntity
  8
0
  6
Continuous
 62
     2
100
AcDbCircle
 10
-929.2594474073628
 20
-1161.941804876044
 30
0.0
 40
1.639695123939652
100
AcDbArc
 50
195.0618917771087
 51
275.1581447696346
  0
ARC
  5
30A
102
{ACAD_REACTORS
330
364
330
365
102
}
330
71
100
AcDbEntity
  8
0
  6
Continuous
 62
     2
100
AcDbCircle
 10
-929.6785752508257
 20
-1162.054595238079
 30
0.0
 40
1.205656168390927
100
AcDbArc
 50
164.9381082228846
 51
195.0618917771153
  0
ARC
  5
30B
102
{ACAD_REACTORS
330
364
330
365
102
}
330
71
100
AcDbEntity
  8
0
  6
Continuous
 62
     2
100
AcDbCircle
 10
-929.2594474073628
 20
-1162.167385600114
 30
0.0
 40
1.639695123940213
100
AcDbArc
 50
84.84185523036543
 51
164.9381082228913
  0
ARC
  5
30C
102
{ACAD_REACTORS
330
368
330
369
102
}
330
71
100
AcDbEntity
  8
0
  6
Continuous
 62
     2
100
AcDbCircle
 10
-934.0894616615248
 20
-1161.020768443725
 30
0.0
 40
0.3157169230770072
100
AcDbArc
 50
115.3740086783167
 51
180.0
  0
ARC
  5
30D
102
{ACAD_REACTORS
330
368
330
369
102
}
330
71
100
AcDbEntity
  8
0
  6
Continuous
 62
     2
100
AcDbCircle
 10
-934.0894616615248
 20
-1158.802485243788
 30
0.0
 40
0.3157169230768204
100
AcDbArc
 50
180.0
 51
244.6259913216833
  0
ARC
  5
30E
102
{ACAD_REACTORS
330
368
330
369
102
}
330
71
100
AcDbEntity
  8
0
  6
Continuous
 62
     2
100
AcDbCircle
 10
-934.0838455262148
 20
-1159.899784902851
 30
0.0
 40
2.018561131933152
100
AcDbArc
 50
269.811032957581
 51
90.18896704241901
  0
ARC
  5
30F
102
{ACAD_REACTORS
330
368
330
369
102
}
330
71
100
AcDbEntity
  8
0
  6
Continuous
 62
     2
100
AcDbCircle
 10
-934.0894616615248
 20
-1161.60261985042
 30
0.0
 40
0.3157169230768204
100
AcDbArc
 50
180.0
 51
269.8110329574179
  0
ARC
  5
310
102
{ACAD_REACTORS
330
366
330
367
102
}
330
71
100
AcDbEntity
  8
0
  6
Continuous
 62
     2
100
AcDbCircle
 10
-913.0260014467942
 20
-1161.84952380874
 30
0.0
 40
0.5115800601948339
100
AcDbArc
 50
109.3371432194654
 51
151.4785267424227
  0
ARC
  5
311
102
{ACAD_REACTORS
330
366
330
367
102
}
330
71
100
AcDbEntity
  8
0
  6
Continuous
 62
     2
100
AcDbCircle
 10
-913.0260014467942
 20
-1162.259666667418
 30
0.0
 40
0.5115800601959901
100
AcDbArc
 50
208.5214732576668
 51
246.6277221118294
  0
ARC
  5
312
102
{ACAD_REACTORS
330
366
330
367
102
}
330
71
100
AcDbEntity
  8
0
  6
Continuous
 62
     2
100
AcDbCircle
 10
-913.5758737715717
 20
-1162.054595238079
 30
0.0
 40
1.205656168392903
100
AcDbArc
 50
164.9381082229099
 51
195.0618917770901
  0
ARC
  5
313
102
{ACAD_REACTORS
330
366
330
367
102
}
330
71
100
AcDbEntity
  8
0
  6
Continuous
 62
     2
100
AcDbCircle
 10
-913.15674592811
 20
-1162.167385600114
 30
0.0
 40
1.639695123939873
100
AcDbArc
 50
90.0
 51
164.9381082228985
  0
ARC
  5
314
102
{ACAD_REACTORS
330
36A
330
36B
102
}
330
71
100
AcDbEntity
  8
0
  6
Continuous
 62
     2
100
AcDbCircle
 10
-922.5837410208137
 20
-1158.695404761905
 30
0.0
 40
1.526904761905826
100
AcDbArc
 50
90.0
 51
270.0
  0
ARC
  5
315
102
{ACAD_REACTORS
330
36E
330
36F
102
}
330
71
100
AcDbEntity
  8
0
  6
Continuous
 62
     2
100
AcDbCircle
 10
-929.3264317660395
 20
-1158.18446967011
 30
0.0
 40
0.3528638246709761
100
AcDbArc
 50
270.0
 51
90.0
  0
ARC
  5
316
102
{ACAD_REACTORS
330
368
330
369
102
}
330
71
100
AcDbEntity
  8
0
  6
Continuous
 62
     2
100
AcDbCircle
 10
-936.6650103480565
 20
-1158.196772478633
 30
0.0
 40
0.3157169230760246
100
AcDbArc
 50
90.0
 51
180.0
  0
ARC
  5
317
102
{ACAD_REACTORS
330
368
330
369
102
}
330
71
100
AcDbEntity
  8
0
  6
Continuous
 62
     2
100
AcDbCircle
 10
-934.666592639472
 20
-1159.911626843756
 30
0.0
 40
0.9118975235571412
100
AcDbArc
 50
115.1944106485363
 51
244.805589351488
  0
ARC
  5
318
102
{ACAD_REACTORS
330
368
330
369
102
}
330
71
100
AcDbEntity
  8
0
  6
Continuous
 62
     2
100
AcDbCircle
 10
-935.189177087047
 20
-1161.022456589819
 30
0.0
 40
0.3157169230767067
100
AcDbArc
 50
0.0
 51
64.80558935147235
  0
ARC
  5
319
102
{ACAD_REACTORS
330
368
330
369
102
}
330
71
100
AcDbEntity
  8
0
  6
Continuous
 62
     2
100
AcDbCircle
 10
-937.2589050248031
 20
-1163.157255384601
 30
0.0
 40
0.4242446153828041
100
AcDbArc
 50
180.0
 51
270.0
  0
ARC
  5
31A
102
{ACAD_REACTORS
330
36A
330
36B
102
}
330
71
100
AcDbEntity
  8
0
  6
Continuous
 62
     2
100
AcDbCircle
 10
-922.3674690106485
 20
-1158.538673583784
 30
0.0
 40
0.5179085730130512
100
AcDbArc
 50
38.12041979709668
 51
141.8795802029111
  0
ARC
  5
31B
102
{ACAD_REACTORS
330
36A
330
36B
102
}
330
71
100
AcDbEntity
  8
0
  6
Continuous
 62
     2
100
AcDbCircle
 10
-922.1677289743022
 20
-1158.695404761905
 30
0.0
 40
0.7717997786796342
100
AcDbArc
 50
141.8795802028543
 51
218.120419797159
  0
ARC
  5
31C
102
{ACAD_REACTORS
330
36C
330
36D
102
}
330
71
100
AcDbEntity
  8
0
  6
Continuous
 62
     2
100
AcDbCircle
 10
-926.328416491442
 20
-1161.516020227776
 30
0.0
 40
2.065479772208775
100
AcDbArc
 50
242.4518518243414
 51
297.5481481756838
  0
ARC
  5
31D
102
{ACAD_REACTORS
330
36C
330
36D
102
}
330
71
100
AcDbEntity
  8
0
  6
Continuous
 62
     2
100
AcDbCircle
 10
-926.328416491442
 20
-1162.593170248382
 30
0.0
 40
2.065479772209248
100
AcDbArc
 50
62.45185182431621
 51
117.5481481756586
  0
ARC
  5
31E
102
{ACAD_REACTORS
330
36C
330
36D
102
}
330
71
100
AcDbEntity
  8
0
  6
Continuous
 62
     2
100
AcDbCircle
 10
-926.6093563832753
 20
-1162.054595238079
 30
0.0
 40
1.458034083651995
100
AcDbArc
 50
117.5481481756546
 51
242.4518518243454
  0
ARC
  5
31F
102
{ACAD_REACTORS
330
36C
330
36D
102
}
330
71
100
AcDbEntity
  8
0
  6
Continuous
 62
     2
100
AcDbCircle
 10
-926.0474765996088
 20
-1162.054595238079
 30
0.0
 40
1.458034083652521
100
AcDbArc
 50
297.5481481756942
 51
62.4518518243058
  0
ARC
  5
320
102
{ACAD_REACTORS
330
36A
330
36B
102
}
330
71
100
AcDbEntity
  8
0
  6
Continuous
 62
     2
100
AcDbCircle
 10
-922.3674690106485
 20
-1158.852135940025
 30
0.0
 40
0.5179085730138424
100
AcDbArc
 50
218.1204197971879
 51
321.8795802028044
  0
ARC
  5
321
102
{ACAD_REACTORS
330
36A
330
36B
102
}
330
71
100
AcDbEntity
  8
0
  6
Continuous
 62
     2
100
AcDbCircle
 10
-922.5672090469947
 20
-1158.695404761905
 30
0.0
 40
0.7717997786795957
100
AcDbArc
 50
321.8795802028306
 51
38.12041979715612
  0
ARC
  5
322
102
{ACAD_REACTORS
330
368
330
369
102
}
330
71
100
AcDbEntity
  8
0
  6
Continuous
 62
     2
100
AcDbCircle
 10
-931.7855929340861
 20
-1163.157255384601
 30
0.0
 40
0.4242446153830315
100
AcDbArc
 50
270.0
 51
0.0
  0
ARC
  5
323
102
{ACAD_REACTORS
330
368
330
369
102
}
330
71
100
AcDbEntity
  8
0
  6
Continuous
 62
     2
100
AcDbCircle
 10
-931.7855929340861
 20
-1157.592744615401
 30
0.0
 40
0.4242446153838273
100
AcDbArc
 50
0.0
 51
90.0
  0
ARC
  5
324
102
{ACAD_REACTORS
330
368
330
369
102
}
330
71
100
AcDbEntity
  8
0
  6
Continuous
 62
     2
100
AcDbCircle
 10
-937.2589050248031
 20
-1157.592744615401
 30
0.0
 40
0.424244615383941
100
AcDbArc
 50
90.0
 51
180.0
  0
ARC
  5
325
102
{ACAD_REACTORS
330
368
330
369
102
}
330
71
100
AcDbEntity
  8
0
  6
Continuous
 62
     2
100
AcDbCircle
 10
-935.189177087047
 20
-1162.553227521351
 30
0.0
 40
0.3157169230760246
100
AcDbArc
 50
270.0
 51
0.0
  0
ARC
  5
326
102
{ACAD_REACTORS
330
368
330
369
102
}
330
71
100
AcDbEntity
  8
0
  6
Continuous
 62
     2
100
AcDbCircle
 10
-935.189177087047
 20
-1158.800797097694
 30
0.0
 40
0.3157169230765287
100
AcDbArc
 50
295.1944106485277
 51
0.0
  0
ARC
  5
327
102
{ACAD_REACTORS
330
368
330
369
102
}
330
71
100
AcDbEntity
  8
0
  6
Continuous
 62
     2
100
AcDbCircle
 10
-935.189177087047
 20
-1158.196772478633
 30
0.0
 40
0.3157169230767067
100
AcDbArc
 50
0.0
 51
90.0
  0
ARC
  5
328
102
{ACAD_REACTORS
330
368
330
369
102
}
330
71
100
AcDbEntity
  8
0
  6
Continuous
 62
     2
100
AcDbCircle
 10
-936.6650103480565
 20
-1162.553227521351
 30
0.0
 40
0.3157169230756836
100
AcDbArc
 50
180.0
 51
270.0
  0
ARC
  5
329
102
{ACAD_REACTORS
330
36E
330
36F
102
}
330
71
100
AcDbEntity
  8
0
  6
Continuous
 62
     2
100
AcDbCircle
 10
-928.8849592398011
 20
-1158.223865641332
 30
0.0
 40
1.055365641333992
100
AcDbArc
 50
270.0
 51
90.0
  0
ARC
  5
32A
102
{ACAD_REACTORS
330
366
330
367
102
}
330
71
100
AcDbEntity
  8
0
  6
Continuous
 62
     2
100
AcDbCircle
 10
-913.15674592811
 20
-1161.941804876044
 30
0.0
 40
1.639695123940421
100
AcDbArc
 50
195.0618917771015
 51
275.1581447696781
  0
ARC
  5
32B
102
{ACAD_REACTORS
330
366
330
367
102
}
330
71
100
AcDbEntity
  8
0
  6
Continuous
 62
     2
100
AcDbCircle
 10
-913.4456020228458
 20
-1158.741914292823
 30
0.0
 40
4.852596863498034
100
AcDbArc
 50
275.1581447696375
 51
285.9799912583397
  0
ARC
  5
32C
102
{ACAD_REACTORS
330
366
330
367
102
}
330
71
100
AcDbEntity
  8
0
  6
Continuous
 62
     2
100
AcDbCircle
 10
-913.2877291477531
 20
-1160.644128872671
 30
0.0
 40
2.227384008972611
100
AcDbArc
 50
288.4480761181346
 51
301.9309089499367
  0
ARC
  5
32D
102
{ACAD_REACTORS
330
366
330
367
102
}
330
71
100
AcDbEntity
  8
0
  6
Continuous
 62
     2
100
AcDbCircle
 10
-912.8695614140911
 20
-1161.897674648707
 30
0.0
 40
0.9059297849860852
100
AcDbArc
 50
246.6277221118363
 51
288.4480761180647
  0
ARC
  5
32E
102
{ACAD_REACTORS
330
366
330
367
102
}
330
71
100
AcDbEntity
  8
0
  6
Continuous
 62
     2
100
AcDbCircle
 10
-912.6486441887128
 20
-1162.054595238079
 30
0.0
 40
0.9410597353349766
100
AcDbArc
 50
151.4785267423711
 51
208.5214732576897
  0
ARC
  5
32F
102
{ACAD_REACTORS
330
366
330
367
102
}
330
71
100
AcDbEntity
  8
0
  6
Continuous
 62
     2
100
AcDbCircle
 10
-912.8793314486906
 20
-1162.267478789123
 30
0.0
 40
0.9545230068260935
100
AcDbArc
 50
90.0
 51
109.3371432194175
  0
ARC
  5
330
102
{ACAD_REACTORS
330
368
330
369
102
}
330
71
100
AcDbEntity
  8
0
  6
Continuous
 62
     2
100
AcDbCircle
 10
-934.0894616615248
 20
-1158.196949955282
 30
0.0
 40
0.3157169230760149
100
AcDbArc
 50
90.18896704258206
 51
180.0
  0
ARC
  5
331
102
{ACAD_REACTORS
330
368
330
369
102
}
330
71
100
AcDbEntity
  8
0
  6
Continuous
 62
     2
100
AcDbCircle
 10
-934.6155043596127
 20
-1159.911626843756
 30
0.0
 40
0.9118481501445603
100
AcDbArc
 50
295.3740086781774
 51
64.62599132179812
  0
ARC
  5
332
102
{ACAD_REACTORS
330
364
330
365
102
}
330
71
100
AcDbEntity
  8
0
  6
Continuous
 62
     2
100
AcDbCircle
 10
-929.390430627006
 20
-1160.64412887267
 30
0.0
 40
2.22738400897351
100
AcDbArc
 50
288.44807611813
 51
301.9309089499646
  0
ARC
  5
333
102
{ACAD_REACTORS
330
364
330
365
102
}
330
71
100
AcDbEntity
  8
0
  6
Continuous
 62
     2
100
AcDbCircle
 10
-928.972262893345
 20
-1161.897674648707
 30
0.0
 40
0.9059297849857245
100
AcDbArc
 50
246.6277221118892
 51
288.4480761181329
  0
ARC
  5
334
102
{ACAD_REACTORS
330
364
330
365
102
}
330
71
100
AcDbEntity
  8
0
  6
Continuous
 62
     2
100
AcDbCircle
 10
-929.1287029260471
 20
-1162.259666667418
 30
0.0
 40
0.5115800601944485
100
AcDbArc
 50
208.5214732576157
 51
246.6277221118177
  0
ARC
  5
335
102
{ACAD_REACTORS
330
364
330
365
102
}
330
71
100
AcDbEntity
  8
0
  6
Continuous
 62
     2
100
AcDbCircle
 10
-928.972262893345
 20
-1162.211515827451
 30
0.0
 40
0.9059297849855745
100
AcDbArc
 50
71.55192388186258
 51
113.3722778881109
  0
ARC
  5
336
102
{ACAD_REACTORS
330
364
330
365
102
}
330
71
100
AcDbEntity
  8
0
  6
Continuous
 62
     2
100
AcDbCircle
 10
-929.5483035020987
 20
-1165.367276183335
 30
0.0
 40
4.852596863498158
100
AcDbArc
 50
74.02000874164733
 51
84.84185523037584
  0
CIRCLE
  5
337
102
{ACAD_REACTORS
330
368
330
369
102
}
330
71
100
AcDbEntity
  8
0
  6
Continuous
 62
     2
100
AcDbCircle
 10
-934.6393193742855
 20
-1159.911626843756
 30
0.0
 40
0.4709789327785074
  0
CIRCLE
  5
338
330
71
100
AcDbEntity
  8
1
  6
Continuous
 62
     2
100
AcDbCircle
 10
-929.1831496401859
 20
-1149.750000000001
 30
0.0
 40
1.25
  0
CIRCLE
  5
339
330
71
100
AcDbEntity
  8
1
  6
Continuous
 62
     2
100
AcDbCircle
 10
-929.1831496401859
 20
-1149.750000000001
 30
0.0
 40
2.5
  0
TEXT
  5
33A
330
71
100
AcDbEntity
  8
1
 62
     7
100
AcDbText
 10
-847.7083333333319
 20
-1174.875
 30
0.0
 40
2.5
  1
6
 41
0.9
  7
CONVERTER_11
100
AcDbText
  0
TEXT
  5
33B
330
71
100
AcDbEntity
  8
1
 62
     7
100
AcDbText
 10
-916.0416666666653
 20
-1174.875
 30
0.0
 40
2.5
  1
5
 41
0.9
  7
CONVERTER_11
100
AcDbText
  0
TEXT
  5
33C
330
71
100
AcDbEntity
  8
1
 62
     7
100
AcDbText
 10
-984.3749999999984
 20
-1174.875
 30
0.0
 40
2.5
  1
4
 41
0.9
  7
CONVERTER_11
100
AcDbText
  0
TEXT
  5
33D
330
71
100
AcDbEntity
  8
1
 62
     7
100
AcDbText
 10
-1052.708333333332
 20
-1174.875
 30
0.0
 40
2.5
  1
3
 41
0.9
  7
CONVERTER_11
100
AcDbText
  0
TEXT
  5
33E
330
71
100
AcDbEntity
  8
1
 62
     7
100
AcDbText
 10
-811.3749999999984
 20
-1143.375
 30
0.0
 40
2.5
  1
E
 41
0.9
  7
CONVERTER_11
100
AcDbText
  0
TEXT
  5
33F
330
71
100
AcDbEntity
  8
1
 62
     7
100
AcDbText
 10
-1189.374999999998
 20
-1174.875
 30
0.0
 40
2.5
  1
1
 41
0.9
  7
CONVERTER_11
100
AcDbText
  0
TEXT
  5
340
330
71
100
AcDbEntity
  8
1
 62
     7
100
AcDbText
 10
-1121.041666666665
 20
-1174.875
 30
0.0
 40
2.5
  1
2
 41
0.9
  7
CONVERTER_11
100
AcDbText
  0
TEXT
  5
341
330
71
100
AcDbEntity
  8
1
 62
     7
100
AcDbText
 10
-811.3749999999984
 20
-1085.975
 30
0.0
 40
2.5
  1
D
 41
0.9
  7
CONVERTER_11
100
AcDbText
  0
TEXT
  5
342
330
71
100
AcDbEntity
  8
1
 62
     7
100
AcDbText
 10
-811.3749999999984
 20
-1028.575
 30
0.0
 40
2.5
  1
C
 41
0.9
  7
CONVERTER_11
100
AcDbText
  0
TEXT
  5
343
330
71
100
AcDbEntity
  8
1
 62
     7
100
AcDbText
 10
-811.3749999999984
 20
-971.175
 30
0.0
 40
2.5
  1
B
 41
0.9
  7
CONVERTER_11
100
AcDbText
  0
TEXT
  5
344
330
71
100
AcDbEntity
  8
1
 62
     7
100
AcDbText
 10
-811.3749999999984
 20
-913.7750000000001
 30
0.0
 40
2.5
  1
A
 41
0.9
  7
CONVERTER_11
100
AcDbText
  0
TEXT
  5
345
330
71
100
AcDbEntity
  8
1
 62
     7
100
AcDbText
 10
-847.7083333333319
 20
-882.8749999999998
 30
0.0
 40
2.5
  1
6
 41
0.9
  7
CONVERTER_11
100
AcDbText
  0
TEXT
  5
346
330
71
100
AcDbEntity
  8
1
 62
     7
100
AcDbText
 10
-916.041666666665
 20
-882.8749999999998
 30
0.0
 40
2.5
  1
5
 41
0.9
  7
CONVERTER_11
100
AcDbText
  0
TEXT
  5
347
330
71
100
AcDbEntity
  8
1
 62
     7
100
AcDbText
 10
-984.3749999999984
 20
-882.8749999999998
 30
0.0
 40
2.5
  1
4
 41
0.9
  7
CONVERTER_11
100
AcDbText
  0
TEXT
  5
348
330
71
100
AcDbEntity
  8
1
 62
     7
100
AcDbText
 10
-1052.708333333332
 20
-882.8749999999998
 30
0.0
 40
2.5
  1
3
 41
0.9
  7
CONVERTER_11
100
AcDbText
  0
TEXT
  5
349
330
71
100
AcDbEntity
  8
1
 62
     7
100
AcDbText
 10
-1121.041666666665
 20
-882.8749999999998
 30
0.0
 40
2.5
  1
2
 41
0.9
  7
CONVERTER_11
100
AcDbText
  0
TEXT
  5
34A
330
71
100
AcDbEntity
  8
1
 62
     7
100
AcDbText
 10
-1189.374999999998
 20
-882.8749999999998
 30
0.0
 40
2.5
  1
1
 41
0.9
  7
CONVERTER_11
100
AcDbText
  0
TEXT
  5
34B
330
71
100
AcDbEntity
  8
1
 62
     7
100
AcDbText
 10
-886.5462568047346
 20
-1152.575000000001
 30
0.0
 40
2.5
  1
/
 41
0.9
  7
CONVERTER_11
100
AcDbText
  0
TEXT
  5
34D
330
71
100
AcDbEntity
  8
1
 62
     7
100
AcDbText
 10
-884.3898923076927
 20
-1152.575000000001
 30
0.0
 40
2.5
  1
00
 41
0.81
  7
CONVERTER_12
100
AcDbText
  0
TEXT
  5
34E
330
71
100
AcDbEntity
  8
1
 62
     3
100
AcDbText
 10
-846.7934082816755
 20
-1152.575000000001
 30
0.0
 40
2.5
  1
31.01.2019
 41
0.81
  7
CONVERTER_12
100
AcDbText
  0
MTEXT
  5
34F
330
71
100
AcDbEntity
  8
1
 62
     2
100
AcDbMText
 10
-846.7934082816755
 20
-1146.375000000001
 30
0.0
 40
1.8
 41
0.0
 71
     1
 72
     1
  1
date
  7
CONVERTER_11
 73
     1
 44
1.32052821128451
  0
MTEXT
  5
350
330
71
100
AcDbEntity
  8
1
 62
     2
100
AcDbMText
 10
-876.6198045267485
 20
-1154.875000000001
 30
0.0
 40
1.8
 41
0.0
 71
     1
 72
     1
  1
document-type
  7
CONVERTER_11
 73
     1
 44
1.20048019207683
  0
TEXT
  5
351
330
71
100
AcDbEntity
  8
1
 62
     3
100
AcDbText
 10
-876.6198045267485
 20
-1161.075000000001
 30
0.0
 40
2.5
  1
TECDOC 2D_Productdrawing
 41
0.81
  7
CONVERTER_12
100
AcDbText
  0
MTEXT
  5
353
330
71
100
AcDbEntity
  8
1
 62
     2
100
AcDbMText
 10
-904.4198045267485
 20
-1146.375000000001
 30
0.0
 40
1.8
 41
0.0
 71
     1
 72
     1
  1
document-No. / RI
  7
CONVERTER_13
 73
     1
 44
1.32052821128451
  0
TEXT
  5
354
330
71
100
AcDbEntity
  8
1
 62
     7
100
AcDbText
 10
-904.4198045267485
 20
-1152.575000000001
 30
0.0
 40
2.5
  1
01188802
 41
0.81
  7
CONVERTER_12
100
AcDbText
  0
MTEXT
  5
356
330
71
100
AcDbEntity
  8
1
 62
     3
100
AcDbMText
 10
-816.8342041408362
 20
-1152.575000000001
 30
0.0
 40
2.5
 41
0.0
 71
     8
 72
     1
  1
1:1
  7
CONVERTER_14
 73
     1
 44
1.32052821128451
  0
MTEXT
  5
357
330
71
100
AcDbEntity
  8
1
 62
     2
100
AcDbMText
 10
-820.1934082816757
 20
-1146.375000000001
 30
0.0
 40
1.8
 41
0.0
 71
     1
 72
     1
  1
scale
  7
CONVERTER_11
 73
     1
 44
1.20048019207683
  0
MTEXT
  5
358
330
71
100
AcDbEntity
  8
1
 62
     2
100
AcDbMText
 10
-904.4198045267485
 20
-1154.875000000001
 30
0.0
 40
1.8
 41
0.0
 71
     1
 72
     1
  1
ident.-No.
  7
CONVERTER_11
 73
     1
 44
1.20048019207683
  0
TEXT
  5
359
330
71
100
AcDbEntity
  8
1
 62
     7
100
AcDbText
 10
-904.0198045267487
 20
-1161.075000000001
 30
0.0
 40
2.5
  1
3240947
 41
0.81
  7
CONVERTER_12
100
AcDbText
  0
MTEXT
  5
35A
330
71
100
AcDbEntity
  8
1
 62
     2
100
AcDbMText
 10
-976.3308277959579
 20
-1158.125000000002
 30
0.0
 40
2.0
 41
0.0
 71
     5
 72
     1
  1
General Information\P- Simplified representation\P- Document excluded from change process\P- Linear dimensions [mm]
  7
CONVERTER_11
 73
     1
 44
1.20048019207683
  0
MTEXT
  5
35B
330
71
100
AcDbEntity
  8
1
 62
     3
100
AcDbMText
 10
-915.7198045267485
 20
-1149.750000000001
 30
0.0
 40
2.5
 41
0.0
 71
     5
 72
     1
  1
DIN A3
  7
CONVERTER_11
 73
     1
 44
1.20048019207683
  0
MTEXT
  5
35C
330
71
100
AcDbEntity
  8
1
 62
     2
100
AcDbMText
 10
-904.5198045267484
 20
-1163.375000000001
 30
0.0
 40
1.8
 41
0.0
 71
     1
 72
     1
  1
description
  7
CONVERTER_11
 73
     1
 44
1.20048019207683
  0
MTEXT
  5
35D
330
71
100
AcDbEntity
  8
1
 62
     7
100
AcDbMText
 10
-858.947402263373
 20
-1167.625000000001
 30
0.0
 40
3.0
 41
0.0
 71
     5
 72
     1
  1
WP-GR HF IP66 PG16 BK
  7
CONVERTER_12
 73
     1
 44
1.20048019207683
  0
TEXT
  5
35E
330
71
100
AcDbEntity
  8
1
 62
     2
100
AcDbText
 10
-917.4844957169348
 20
-1169.625000000001
 30
0.0
 40
1.8
  1
1
 41
0.9
  7
CONVERTER_11
100
AcDbText
  0
TEXT
  5
35F
330
71
100
AcDbEntity
  8
1
 62
     2
100
AcDbText
 10
-932.2735395564064
 20
-1169.674248653802
 30
0.0
 40
1.8
  1
1
 41
0.9
  7
CONVERTER_11
100
AcDbText
  0
TEXT
  5
360
330
71
100
AcDbEntity
  8
1
 62
     2
100
AcDbText
 10
-940.9198045267484
 20
-1169.634017214992
 30
0.0
 40
1.8
  1
page
 41
0.9
  7
CONVERTER_11
100
AcDbText
  0
TEXT
  5
361
330
71
100
AcDbEntity
  8
1
 62
     2
100
AcDbText
 10
-922.7198045267486
 20
-1169.634017214992
 30
0.0
 40
1.8
  1
of
 41
0.9
  7
CONVERTER_11
100
AcDbText
  0
MTEXT
  5
362
330
71
100
AcDbEntity
  8
1
 62
     3
100
AcDbMText
 10
-1209.106532999739
 20
-997.8887158863463
 30
0.0
 40
1.8
 41
0.0
 71
     7
 72
     1
  3
Transfer or duplication of this document as well as the utilisation or\Pcommunication of its content are not permitted unless express consent\Pis granted. Violations give rise to claims for damages. All rights reserved\Pin case of patent, utility mo
  1
del or design patent registrations.
  7
CONVERTER_11
 11
0.0
 21
1.0
 31
0.0
 73
     1
 44
0.99639855942377
  0
MTEXT
  5
363
330
71
100
AcDbEntity
  8
1
 62
     3
100
AcDbMText
 10
-1208.952326688645
 20
-1170.848085900499
 30
0.0
 40
1.8
 41
0.0
 71
     7
 72
     1
  3
Weitergabe sowie Vervielf\U+00e4ltigung dieses Dokuments, Verwertung und \PMitteilung seines Inhalts sind verboten, soweit nicht ausdr\U+00fccklich gestattet. \PZuwiderhandlungen verpflichten zu Schadenersatz. Alle Rechte f\U+00fcr den Fall\Pder Pat
  1
ent-, Gebrauchsmuster- oder Designeintragung vorbehalten.
  7
CONVERTER_11
 11
0.0
 21
1.0
 31
0.0
 73
     1
 44
0.99639855942377
  0
HATCH
  5
364
330
71
100
AcDbEntity
  8
1
  6
Continuous
 62
     2
100
AcDbHatch
 10
0.0
 20
0.0
 30
0.0
210
0.0
220
0.0
230
1.0
  2
CUSTOM0
 70
     0
 71
     1
 91
        1
 92
        1
 93
       14
 72
     2
 10
-929.6785752508257
 20
-1162.054595238079
 40
1.205656168390927
 50
164.9381082228846
 51
195.0618917771153
 73
     1
 72
     2
 10
-929.2594474073628
 20
-1161.941804876044
 40
1.639695123939652
 50
195.0618917771087
 51
275.1581447696346
 73
     1
 72
     2
 10
-929.5483035020987
 20
-1158.741914292823
 40
4.852596863497932
 50
275.1581447696242
 51
285.9799912583556
 73
     1
 72
     1
 10
-928.2123755849809
 20
-1163.406996598623
 11
-928.2123755849809
 21
-1162.53447959182
 72
     2
 10
-929.390430627006
 20
-1160.64412887267
 40
2.22738400897351
 50
58.06909105003535
 51
71.55192388186998
 73
     0
 72
     2
 10
-928.972262893345
 20
-1161.897674648707
 40
0.9059297849857245
 50
71.55192388186713
 51
113.3722778881109
 73
     0
 72
     2
 10
-929.1287029260471
 20
-1162.259666667418
 40
0.5115800601944485
 50
113.3722778881823
 51
151.4785267423843
 73
     0
 72
     2
 10
-928.7513456679668
 20
-1162.054595238079
 40
0.941059735333413
 50
151.478526742305
 51
208.5214732577436
 73
     0
 72
     2
 10
-929.1287029260471
 20
-1161.84952380874
 40
0.5115800601953623
 50
208.5214732577276
 51
246.6277221118278
 73
     0
 72
     2
 10
-928.972262893345
 20
-1162.211515827451
 40
0.9059297849855745
 50
246.6277221118892
 51
288.4480761181375
 73
     0
 72
     2
 10
-929.390430627006
 20
-1163.465061603487
 40
2.227384008973574
 50
288.4480761181393
 51
301.9309089499646
 73
     0
 72
     1
 10
-928.2123755849809
 20
-1161.574710884337
 11
-928.2123755849809
 21
-1160.702193877534
 72
     2
 10
-929.5483035020987
 20
-1165.367276183335
 40
4.852596863498158
 50
74.02000874164733
 51
84.84185523037584
 73
     1
 72
     2
 10
-929.2594474073628
 20
-1162.167385600114
 40
1.639695123940213
 50
84.84185523036543
 51
164.9381082228913
 73
     1
 97
       14
330
336
330
27F
330
305
330
335
330
306
330
307
330
334
330
333
330
332
330
280
330
308
330
309
330
30A
330
30B
 75
     1
 76
     2
 52
45.0
 41
0.1
 77
     0
 78
     1
 53
45.0
 43
62.7811309658083
 44
-72.3161373035813
 45
-0.1414213562373095
 46
0.0
 79
     0
 98
        1
 10
0.0
 20
0.0
  0
HATCH
  5
365
330
71
100
AcDbEntity
  8
1
  6
Continuous
 62
     2
100
AcDbHatch
 10
0.0
 20
0.0
 30
0.0
210
0.0
220
0.0
230
1.0
  2
CUSTOM1
 70
     0
 71
     1
 91
        1
 92
        1
 93
       14
 72
     2
 10
-929.6785752508257
 20
-1162.054595238079
 40
1.205656168390927
 50
164.9381082228846
 51
195.0618917771153
 73
     1
 72
     2
 10
-929.2594474073628
 20
-1161.941804876044
 40
1.639695123939652
 50
195.0618917771087
 51
275.1581447696346
 73
     1
 72
     2
 10
-929.5483035020987
 20
-1158.741914292823
 40
4.852596863497932
 50
275.1581447696242
 51
285.9799912583556
 73
     1
 72
     1
 10
-928.2123755849809
 20
-1163.406996598623
 11
-928.2123755849809
 21
-1162.53447959182
 72
     2
 10
-929.390430627006
 20
-1160.64412887267
 40
2.22738400897351
 50
58.06909105003535
 51
71.55192388186998
 73
     0
 72
     2
 10
-928.972262893345
 20
-1161.897674648707
 40
0.9059297849857245
 50
71.55192388186713
 51
113.3722778881109
 73
     0
 72
     2
 10
-929.1287029260471
 20
-1162.259666667418
 40
0.5115800601944485
 50
113.3722778881823
 51
151.4785267423843
 73
     0
 72
     2
 10
-928.7513456679668
 20
-1162.054595238079
 40
0.941059735333413
 50
151.478526742305
 51
208.5214732577436
 73
     0
 72
     2
 10
-929.1287029260471
 20
-1161.84952380874
 40
0.5115800601953623
 50
208.5214732577276
 51
246.6277221118278
 73
     0
 72
     2
 10
-928.972262893345
 20
-1162.211515827451
 40
0.9059297849855745
 50
246.6277221118892
 51
288.4480761181375
 73
     0
 72
     2
 10
-929.390430627006
 20
-1163.465061603487
 40
2.227384008973574
 50
288.4480761181393
 51
301.9309089499646
 73
     0
 72
     1
 10
-928.2123755849809
 20
-1161.574710884337
 11
-928.2123755849809
 21
-1160.702193877534
 72
     2
 10
-929.5483035020987
 20
-1165.367276183335
 40
4.852596863498158
 50
74.02000874164733
 51
84.84185523037584
 73
     1
 72
     2
 10
-929.2594474073628
 20
-1162.167385600114
 40
1.639695123940213
 50
84.84185523036543
 51
164.9381082228913
 73
     1
 97
       14
330
336
330
27F
330
305
330
335
330
306
330
307
330
334
330
333
330
332
330
280
330
308
330
309
330
30A
330
30B
 75
     1
 76
     2
 52
45.0
 41
0.1
 77
     0
 78
     1
 53
45.0
 43
62.7811309658083
 44
-72.3161373035813
 45
-0.1414213562373095
 46
0.0
 79
     0
 98
        1
 10
0.0
 20
0.0
  0
HATCH
  5
366
330
71
100
AcDbEntity
  8
1
  6
Continuous
 62
     2
100
AcDbHatch
 10
0.0
 20
0.0
 30
0.0
210
0.0
220
0.0
230
1.0
  2
CUSTOM2
 70
     0
 71
     1
 91
        1
 92
        1
 93
       18
 72
     2
 10
-913.15674592811
 20
-1162.167385600114
 40
1.639695123939873
 50
90.0
 51
164.9381082228985
 73
     1
 72
     2
 10
-913.5758737715717
 20
-1162.054595238079
 40
1.205656168392903
 50
164.9381082229099
 51
195.0618917770901
 73
     1
 72
     2
 10
-913.15674592811
 20
-1161.941804876044
 40
1.639695123940421
 50
195.0618917771015
 51
275.1581447696781
 73
     1
 72
     2
 10
-913.4456020228458
 20
-1158.741914292823
 40
4.852596863498034
 50
275.1581447696375
 51
285.9799912583397
 73
     1
 72
     1
 10
-912.1096741057291
 20
-1163.406996598624
 11
-912.1096741057291
 21
-1162.534479591821
 72
     2
 10
-913.2877291477531
 20
-1160.644128872671
 40
2.227384008972611
 50
58.06909105006329
 51
71.5519238818654
 73
     0
 72
     2
 10
-912.8695614140911
 20
-1161.897674648707
 40
0.9059297849860852
 50
71.55192388193531
 51
113.3722778881637
 73
     0
 72
     2
 10
-913.0260014467942
 20
-1162.259666667418
 40
0.5115800601959901
 50
113.3722778881707
 51
151.4785267423332
 73
     0
 72
     2
 10
-912.6486441887128
 20
-1162.054595238079
 40
0.9410597353349766
 50
151.4785267423103
 51
208.5214732576289
 73
     0
 72
     2
 10
-913.0260014467942
 20
-1161.84952380874
 40
0.5115800601948339
 50
208.5214732575773
 51
250.6628567805346
 73
     0
 72
     2
 10
-912.8793314486906
 20
-1162.267478789123
 40
0.9545230068260935
 50
250.6628567805825
 51
270.0
 73
     0
 72
     1
 10
-912.8793314486906
 20
-1161.312955782297
 11
-911.7756921491225
 21
-1161.312955782297
 72
     1
 10
-911.7756921491225
 20
-1161.312955782297
 11
-911.7756921491225
 21
-1163.581499999984
 72
     1
 10
-911.7756921491225
 20
-1163.581499999984
 11
-910.5828994469548
 21
-1163.581499999984
 72
     1
 10
-910.5828994469548
 20
-1163.581499999984
 11
-910.5828994469548
 21
-1161.312955782297
 72
     1
 10
-910.5828994469548
 20
-1161.312955782297
 11
-909.7718004094813
 21
-1161.312955782297
 72
     1
 10
-909.7718004094813
 20
-1161.312955782297
 11
-909.7718004094813
 21
-1160.527690476173
 72
     1
 10
-909.7718004094813
 20
-1160.527690476173
 11
-913.15674592811
 21
-1160.527690476174
 97
       18
330
2E5
330
2E4
330
2E3
330
2E2
330
2E7
330
281
330
32F
330
310
330
32E
330
311
330
32D
330
32C
330
282
330
32B
330
32A
330
312
330
313
330
2E6
 75
     1
 76
     2
 52
45.0
 41
0.1
 77
     0
 78
     1
 53
45.0
 43
62.7811309658083
 44
-72.3161373035813
 45
-0.1414213562373095
 46
0.0
 79
     0
 98
        1
 10
0.0
 20
0.0
  0
HATCH
  5
367
330
71
100
AcDbEntity
  8
1
  6
Continuous
 62
     2
100
AcDbHatch
 10
0.0
 20
0.0
 30
0.0
210
0.0
220
0.0
230
1.0
  2
CUSTOM3
 70
     0
 71
     1
 91
        1
 92
        1
 93
       18
 72
     2
 10
-913.15674592811
 20
-1162.167385600114
 40
1.639695123939873
 50
90.0
 51
164.9381082228985
 73
     1
 72
     2
 10
-913.5758737715717
 20
-1162.054595238079
 40
1.205656168392903
 50
164.9381082229099
 51
195.0618917770901
 73
     1
 72
     2
 10
-913.15674592811
 20
-1161.941804876044
 40
1.639695123940421
 50
195.0618917771015
 51
275.1581447696781
 73
     1
 72
     2
 10
-913.4456020228458
 20
-1158.741914292823
 40
4.852596863498034
 50
275.1581447696375
 51
285.9799912583397
 73
     1
 72
     1
 10
-912.1096741057291
 20
-1163.406996598624
 11
-912.1096741057291
 21
-1162.534479591821
 72
     2
 10
-913.2877291477531
 20
-1160.644128872671
 40
2.227384008972611
 50
58.06909105006329
 51
71.5519238818654
 73
     0
 72
     2
 10
-912.8695614140911
 20
-1161.897674648707
 40
0.9059297849860852
 50
71.55192388193531
 51
113.3722778881637
 73
     0
 72
     2
 10
-913.0260014467942
 20
-1162.259666667418
 40
0.5115800601959901
 50
113.3722778881707
 51
151.4785267423332
 73
     0
 72
     2
 10
-912.6486441887128
 20
-1162.054595238079
 40
0.9410597353349766
 50
151.4785267423103
 51
208.5214732576289
 73
     0
 72
     2
 10
-913.0260014467942
 20
-1161.84952380874
 40
0.5115800601948339
 50
208.5214732575773
 51
250.6628567805346
 73
     0
 72
     2
 10
-912.8793314486906
 20
-1162.267478789123
 40
0.9545230068260935
 50
250.6628567805825
 51
270.0
 73
     0
 72
     1
 10
-912.8793314486906
 20
-1161.312955782297
 11
-911.7756921491225
 21
-1161.312955782297
 72
     1
 10
-911.7756921491225
 20
-1161.312955782297
 11
-911.7756921491225
 21
-1163.581499999984
 72
     1
 10
-911.7756921491225
 20
-1163.581499999984
 11
-910.5828994469548
 21
-1163.581499999984
 72
     1
 10
-910.5828994469548
 20
-1163.581499999984
 11
-910.5828994469548
 21
-1161.312955782297
 72
     1
 10
-910.5828994469548
 20
-1161.312955782297
 11
-909.7718004094813
 21
-1161.312955782297
 72
     1
 10
-909.7718004094813
 20
-1161.312955782297
 11
-909.7718004094813
 21
-1160.527690476173
 72
     1
 10
-909.7718004094813
 20
-1160.527690476173
 11
-913.15674592811
 21
-1160.527690476174
 97
       18
330
2E5
330
2E4
330
2E3
330
2E2
330
2E7
330
281
330
32F
330
310
330
32E
330
311
330
32D
330
32C
330
282
330
32B
330
32A
330
312
330
313
330
2E6
 75
     1
 76
     2
 52
45.0
 41
0.1
 77
     0
 78
     1
 53
45.0
 43
62.7811309658083
 44
-72.3161373035813
 45
-0.1414213562373095
 46
0.0
 79
     0
 98
        1
 10
0.0
 20
0.0
  0
HATCH
  5
368
330
71
100
AcDbEntity
  8
1
  6
Continuous
 62
     2
100
AcDbHatch
 10
0.0
 20
0.0
 30
0.0
210
0.0
220
0.0
230
1.0
  2
CUSTOM4
 70
     0
 71
     1
 91
        4
 92
        1
 93
        8
 72
     2
 10
-937.2589050248031
 20
-1157.592744615401
 40
0.424244615383941
 50
90.0
 51
180.0
 73
     1
 72
     1
 10
-937.6831496401859
 20
-1157.592744615401
 11
-937.6831496401859
 21
-1163.157255384601
 72
     2
 10
-937.2589050248031
 20
-1163.157255384601
 40
0.4242446153828041
 50
180.0
 51
270.0
 73
     1
 72
     1
 10
-937.2589050248031
 20
-1163.581499999984
 11
-931.7855929340861
 21
-1163.581499999984
 72
     2
 10
-931.7855929340861
 20
-1163.157255384601
 40
0.4242446153830315
 50
270.0
 51
360.0
 73
     1
 72
     1
 10
-931.3613483187023
 20
-1163.157255384601
 11
-931.3613483187023
 21
-1157.592744615401
 72
     2
 10
-931.7855929340861
 20
-1157.592744615401
 40
0.4242446153838273
 50
0.0
 51
90.0
 73
     1
 72
     1
 10
-931.7855929340861
 20
-1157.168500000017
 11
-937.2589050248031
 21
-1157.168500000017
 97
        8
330
323
330
2B0
330
322
330
2B1
330
319
330
2AE
330
324
330
2AF
 92
       16
 93
       12
 72
     1
 10
-936.6650103480565
 20
-1162.868944444427
 11
-935.189177087047
 21
-1162.868944444427
 72
     2
 10
-935.189177087047
 20
-1162.553227521351
 40
0.3157169230760246
 50
270.0
 51
360.0
 73
     1
 72
     1
 10
-934.8734601639703
 20
-1162.553227521351
 11
-934.8734601639703
 21
-1161.022456589819
 72
     2
 10
-935.189177087047
 20
-1161.022456589819
 40
0.3157169230767067
 50
0.0
 51
64.80558935147235
 73
     1
 72
     2
 10
-934.666592639472
 20
-1159.911626843756
 40
0.9118975235571412
 50
115.194410648512
 51
244.8055893514637
 73
     0
 72
     2
 10
-935.189177087047
 20
-1158.800797097694
 40
0.3157169230765287
 50
295.1944106485277
 51
360.0
 73
     1
 72
     1
 10
-934.8734601639703
 20
-1158.800797097694
 11
-934.8734601639703
 21
-1158.196772478633
 72
     2
 10
-935.189177087047
 20
-1158.196772478633
 40
0.3157169230767067
 50
0.0
 51
90.0
 73
     1
 72
     1
 10
-935.189177087047
 20
-1157.881055555557
 11
-936.6650103480565
 21
-1157.881055555557
 72
     2
 10
-936.6650103480565
 20
-1158.196772478633
 40
0.3157169230760246
 50
90.0
 51
180.0
 73
     1
 72
     1
 10
-936.9807272711322
 20
-1158.196772478633
 11
-936.9807272711322
 21
-1162.553227521351
 72
     2
 10
-936.6650103480565
 20
-1162.553227521351
 40
0.3157169230756836
 50
180.0
 51
270.0
 73
     1
 97
       12
330
2B5
330
316
330
2B4
330
327
330
2B3
330
326
330
317
330
318
330
2B2
330
325
330
2AD
330
328
 92
       16
 93
        8
 72
     2
 10
-934.6155043596127
 20
-1159.911626843756
 40
0.9118481501445603
 50
295.3740086781774
 51
424.6259913217981
 73
     1
 72
     2
 10
-934.0894616615248
 20
-1158.802485243788
 40
0.3157169230768204
 50
115.3740086783167
 51
180.0
 73
     0
 72
     1
 10
-934.4051785846016
 20
-1158.802485243788
 11
-934.4051785846016
 21
-1158.196949955282
 72
     2
 10
-934.0894616615248
 20
-1158.196949955282
 40
0.3157169230760149
 50
180.0
 51
269.8110329574179
 73
     0
 72
     2
 10
-934.0838455262148
 20
-1159.899784902851
 40
2.018561131933152
 50
269.811032957581
 51
450.188967042419
 73
     0
 72
     2
 10
-934.0894616615248
 20
-1161.60261985042
 40
0.3157169230768204
 50
90.18896704258208
 51
180.0
 73
     0
 72
     1
 10
-934.4051785846016
 20
-1161.60261985042
 11
-934.4051785846016
 21
-1161.020768443725
 72
     2
 10
-934.0894616615248
 20
-1161.020768443725
 40
0.3157169230770072
 50
180.0
 51
244.6259913216833
 73
     0
 97
        8
330
331
330
30D
330
2E9
330
330
330
30E
330
30F
330
2E8
330
30C
 92
       16
 93
        1
 72
     2
 10
-934.6393193742855
 20
-1159.911626843756
 40
0.4709789327785074
 50
0.0
 51
360.0
 73
     1
 97
        1
330
337
 75
     1
 76
     2
 52
45.0
 41
0.1
 77
     0
 78
     1
 53
45.0
 43
62.7811309658083
 44
-72.3161373035813
 45
-0.1414213562373095
 46
0.0
 79
     0
 98
        1
 10
0.0
 20
0.0
  0
HATCH
  5
369
330
71
100
AcDbEntity
  8
1
  6
Continuous
 62
     2
100
AcDbHatch
 10
0.0
 20
0.0
 30
0.0
210
0.0
220
0.0
230
1.0
  2
CUSTOM5
 70
     0
 71
     1
 91
        4
 92
        1
 93
        8
 72
     2
 10
-937.2589050248031
 20
-1157.592744615401
 40
0.424244615383941
 50
90.0
 51
180.0
 73
     1
 72
     1
 10
-937.6831496401859
 20
-1157.592744615401
 11
-937.6831496401859
 21
-1163.157255384601
 72
     2
 10
-937.2589050248031
 20
-1163.157255384601
 40
0.4242446153828041
 50
180.0
 51
270.0
 73
     1
 72
     1
 10
-937.2589050248031
 20
-1163.581499999984
 11
-931.7855929340861
 21
-1163.581499999984
 72
     2
 10
-931.7855929340861
 20
-1163.157255384601
 40
0.4242446153830315
 50
270.0
 51
360.0
 73
     1
 72
     1
 10
-931.3613483187023
 20
-1163.157255384601
 11
-931.3613483187023
 21
-1157.592744615401
 72
     2
 10
-931.7855929340861
 20
-1157.592744615401
 40
0.4242446153838273
 50
0.0
 51
90.0
 73
     1
 72
     1
 10
-931.7855929340861
 20
-1157.168500000017
 11
-937.2589050248031
 21
-1157.168500000017
 97
        8
330
323
330
2B0
330
322
330
2B1
330
319
330
2AE
330
324
330
2AF
 92
       16
 93
       12
 72
     1
 10
-936.6650103480565
 20
-1162.868944444427
 11
-935.189177087047
 21
-1162.868944444427
 72
     2
 10
-935.189177087047
 20
-1162.553227521351
 40
0.3157169230760246
 50
270.0
 51
360.0
 73
     1
 72
     1
 10
-934.8734601639703
 20
-1162.553227521351
 11
-934.8734601639703
 21
-1161.022456589819
 72
     2
 10
-935.189177087047
 20
-1161.022456589819
 40
0.3157169230767067
 50
0.0
 51
64.80558935147235
 73
     1
 72
     2
 10
-934.666592639472
 20
-1159.911626843756
 40
0.9118975235571412
 50
115.194410648512
 51
244.8055893514637
 73
     0
 72
     2
 10
-935.189177087047
 20
-1158.800797097694
 40
0.3157169230765287
 50
295.1944106485277
 51
360.0
 73
     1
 72
     1
 10
-934.8734601639703
 20
-1158.800797097694
 11
-934.8734601639703
 21
-1158.196772478633
 72
     2
 10
-935.189177087047
 20
-1158.196772478633
 40
0.3157169230767067
 50
0.0
 51
90.0
 73
     1
 72
     1
 10
-935.189177087047
 20
-1157.881055555557
 11
-936.6650103480565
 21
-1157.881055555557
 72
     2
 10
-936.6650103480565
 20
-1158.196772478633
 40
0.3157169230760246
 50
90.0
 51
180.0
 73
     1
 72
     1
 10
-936.9807272711322
 20
-1158.196772478633
 11
-936.9807272711322
 21
-1162.553227521351
 72
     2
 10
-936.6650103480565
 20
-1162.553227521351
 40
0.3157169230756836
 50
180.0
 51
270.0
 73
     1
 97
       12
330
2B5
330
316
330
2B4
330
327
330
2B3
330
326
330
317
330
318
330
2B2
330
325
330
2AD
330
328
 92
       16
 93
        8
 72
     2
 10
-934.6155043596127
 20
-1159.911626843756
 40
0.9118481501445603
 50
295.3740086781774
 51
424.6259913217981
 73
     1
 72
     2
 10
-934.0894616615248
 20
-1158.802485243788
 40
0.3157169230768204
 50
115.3740086783167
 51
180.0
 73
     0
 72
     1
 10
-934.4051785846016
 20
-1158.802485243788
 11
-934.4051785846016
 21
-1158.196949955282
 72
     2
 10
-934.0894616615248
 20
-1158.196949955282
 40
0.3157169230760149
 50
180.0
 51
269.8110329574179
 73
     0
 72
     2
 10
-934.0838455262148
 20
-1159.899784902851
 40
2.018561131933152
 50
269.811032957581
 51
450.188967042419
 73
     0
 72
     2
 10
-934.0894616615248
 20
-1161.60261985042
 40
0.3157169230768204
 50
90.18896704258208
 51
180.0
 73
     0
 72
     1
 10
-934.4051785846016
 20
-1161.60261985042
 11
-934.4051785846016
 21
-1161.020768443725
 72
     2
 10
-934.0894616615248
 20
-1161.020768443725
 40
0.3157169230770072
 50
180.0
 51
244.6259913216833
 73
     0
 97
        8
330
331
330
30D
330
2E9
330
330
330
30E
330
30F
330
2E8
330
30C
 92
       16
 93
        1
 72
     2
 10
-934.6393193742855
 20
-1159.911626843756
 40
0.4709789327785074
 50
0.0
 51
360.0
 73
     1
 97
        1
330
337
 75
     1
 76
     2
 52
45.0
 41
0.1
 77
     0
 78
     1
 53
45.0
 43
62.7811309658083
 44
-72.3161373035813
 45
-0.1414213562373095
 46
0.0
 79
     0
 98
        1
 10
0.0
 20
0.0
  0
HATCH
  5
36A
330
71
100
AcDbEntity
  8
1
  6
Continuous
 62
     2
100
AcDbHatch
 10
0.0
 20
0.0
 30
0.0
210
0.0
220
0.0
230
1.0
  2
CUSTOM6
 70
     0
 71
     1
 91
        2
 92
        1
 93
       12
 72
     2
 10
-922.5837410208137
 20
-1158.695404761905
 40
1.526904761905826
 50
90.0
 51
270.0
 73
     1
 72
     1
 10
-922.5837410208137
 20
-1160.22230952381
 11
-919.4334212970327
 21
-1160.22230952381
 72
     1
 10
-919.4334212970327
 20
-1160.22230952381
 11
-919.4334212970327
 21
-1159.524295918367
 72
     1
 10
-919.4334212970327
 20
-1159.524295918367
 11
-920.7693491234604
 21
-1159.524295918367
 72
     1
 10
-920.7693491234604
 20
-1159.524295918367
 11
-920.7693491234604
 21
-1159.044411564626
 72
     1
 10
-920.7693491234604
 20
-1159.044411564626
 11
-919.4334212970327
 21
-1159.044411564626
 72
     1
 10
-919.4334212970327
 20
-1159.044411564626
 11
-919.4334212970327
 21
-1158.346397959183
 72
     1
 10
-919.4334212970327
 20
-1158.346397959183
 11
-920.7693491234604
 21
-1158.346397959183
 72
     1
 10
-920.7693491234604
 20
-1158.346397959183
 11
-920.7693491234604
 21
-1157.866513605442
 72
     1
 10
-920.7693491234604
 20
-1157.866513605442
 11
-919.4334212970327
 21
-1157.866513605442
 72
     1
 10
-919.4334212970327
 20
-1157.866513605442
 11
-919.4334212970327
 21
-1157.168499999999
 72
     1
 10
-919.4334212970327
 20
-1157.168499999999
 11
-922.5837410208137
 21
-1157.168499999999
 97
       12
330
2A4
330
29E
330
2C5
330
2C4
330
2C3
330
2C2
330
29F
330
2A0
330
2A1
330
2A2
330
314
330
2A3
 92
       16
 93
        4
 72
     2
 10
-922.1677289743022
 20
-1158.695404761905
 40
0.7717997786796342
 50
141.8795802028543
 51
218.120419797159
 73
     1
 72
     2
 10
-922.3674690106485
 20
-1158.852135940025
 40
0.5179085730138424
 50
218.1204197971879
 51
321.8795802028044
 73
     1
 72
     2
 10
-922.5672090469947
 20
-1158.695404761905
 40
0.7717997786795957
 50
321.8795802028306
 51
398.1204197971562
 73
     1
 72
     2
 10
-922.3674690106485
 20
-1158.538673583784
 40
0.5179085730130512
 50
38.12041979709668
 51
141.8795802029111
 73
     1
 97
        4
330
321
330
320
330
31B
330
31A
 75
     1
 76
     2
 52
45.0
 41
0.1
 77
     0
 78
     1
 53
45.0
 43
62.7811309658083
 44
-72.3161373035813
 45
-0.1414213562373095
 46
0.0
 79
     0
 98
        1
 10
0.0
 20
0.0
  0
HATCH
  5
36B
330
71
100
AcDbEntity
  8
1
  6
Continuous
 62
     2
100
AcDbHatch
 10
0.0
 20
0.0
 30
0.0
210
0.0
220
0.0
230
1.0
  2
CUSTOM7
 70
     0
 71
     1
 91
        2
 92
        1
 93
       12
 72
     2
 10
-922.5837410208137
 20
-1158.695404761905
 40
1.526904761905826
 50
90.0
 51
270.0
 73
     1
 72
     1
 10
-922.5837410208137
 20
-1160.22230952381
 11
-919.4334212970327
 21
-1160.22230952381
 72
     1
 10
-919.4334212970327
 20
-1160.22230952381
 11
-919.4334212970327
 21
-1159.524295918367
 72
     1
 10
-919.4334212970327
 20
-1159.524295918367
 11
-920.7693491234604
 21
-1159.524295918367
 72
     1
 10
-920.7693491234604
 20
-1159.524295918367
 11
-920.7693491234604
 21
-1159.044411564626
 72
     1
 10
-920.7693491234604
 20
-1159.044411564626
 11
-919.4334212970327
 21
-1159.044411564626
 72
     1
 10
-919.4334212970327
 20
-1159.044411564626
 11
-919.4334212970327
 21
-1158.346397959183
 72
     1
 10
-919.4334212970327
 20
-1158.346397959183
 11
-920.7693491234604
 21
-1158.346397959183
 72
     1
 10
-920.7693491234604
 20
-1158.346397959183
 11
-920.7693491234604
 21
-1157.866513605442
 72
     1
 10
-920.7693491234604
 20
-1157.866513605442
 11
-919.4334212970327
 21
-1157.866513605442
 72
     1
 10
-919.4334212970327
 20
-1157.866513605442
 11
-919.4334212970327
 21
-1157.168499999999
 72
     1
 10
-919.4334212970327
 20
-1157.168499999999
 11
-922.5837410208137
 21
-1157.168499999999
 97
       12
330
2A4
330
29E
330
2C5
330
2C4
330
2C3
330
2C2
330
29F
330
2A0
330
2A1
330
2A2
330
314
330
2A3
 92
       16
 93
        4
 72
     2
 10
-922.1677289743022
 20
-1158.695404761905
 40
0.7717997786796342
 50
141.8795802028543
 51
218.120419797159
 73
     1
 72
     2
 10
-922.3674690106485
 20
-1158.852135940025
 40
0.5179085730138424
 50
218.1204197971879
 51
321.8795802028044
 73
     1
 72
     2
 10
-922.5672090469947
 20
-1158.695404761905
 40
0.7717997786795957
 50
321.8795802028306
 51
398.1204197971562
 73
     1
 72
     2
 10
-922.3674690106485
 20
-1158.538673583784
 40
0.5179085730130512
 50
38.12041979709668
 51
141.8795802029111
 73
     1
 97
        4
330
321
330
320
330
31B
330
31A
 75
     1
 76
     2
 52
45.0
 41
0.1
 77
     0
 78
     1
 53
45.0
 43
62.7811309658083
 44
-72.3161373035813
 45
-0.1414213562373095
 46
0.0
 79
     0
 98
        1
 10
0.0
 20
0.0
  0
HATCH
  5
36C
330
71
100
AcDbEntity
  8
1
  6
Continuous
 62
     2
100
AcDbHatch
 10
0.0
 20
0.0
 30
0.0
210
0.0
220
0.0
230
1.0
  2
CUSTOM8
 70
     0
 71
     1
 91
        2
 92
        1
 93
        4
 72
     2
 10
-926.6093563832753
 20
-1162.054595238079
 40
1.458034083651995
 50
117.5481481756546
 51
242.4518518243454
 73
     1
 72
     2
 10
-926.328416491442
 20
-1161.516020227776
 40
2.065479772208775
 50
242.4518518243414
 51
297.5481481756838
 73
     1
 72
     2
 10
-926.0474765996088
 20
-1162.054595238079
 40
1.458034083652521
 50
297.5481481756942
 51
422.4518518243058
 73
     1
 72
     2
 10
-926.328416491442
 20
-1162.593170248382
 40
2.065479772209248
 50
62.45185182431621
 51
117.5481481756586
 73
     1
 97
        4
330
31F
330
31C
330
31E
330
31D
 92
       16
 93
        4
 72
     2
 10
-926.328416491442
 20
-1161.897864059959
 40
0.517908573013574
 50
38.12041979721116
 51
141.8795802028121
 73
     1
 72
     2
 10
-926.128676455096
 20
-1162.054595238079
 40
0.7717997786795957
 50
141.8795802028306
 51
218.1204197971694
 73
     1
 72
     2
 10
-926.328416491442
 20
-1162.211326416199
 40
0.5179085730138424
 50
218.1204197971879
 51
321.8795802027889
 73
     1
 72
     2
 10
-926.5281565277884
 20
-1162.054595238079
 40
0.7717997786795957
 50
321.8795802028306
 51
398.1204197971695
 73
     1
 97
        4
330
302
330
303
330
304
330
301
 75
     1
 76
     2
 52
45.0
 41
0.1
 77
     0
 78
     1
 53
45.0
 43
62.7811309658083
 44
-72.3161373035813
 45
-0.1414213562373095
 46
0.0
 79
     0
 98
        1
 10
0.0
 20
0.0
  0
HATCH
  5
36D
330
71
100
AcDbEntity
  8
1
  6
Continuous
 62
     2
100
AcDbHatch
 10
0.0
 20
0.0
 30
0.0
210
0.0
220
0.0
230
1.0
  2
CUSTOM9
 70
     0
 71
     1
 91
        2
 92
        1
 93
        4
 72
     2
 10
-926.6093563832753
 20
-1162.054595238079
 40
1.458034083651995
 50
117.5481481756546
 51
242.4518518243454
 73
     1
 72
     2
 10
-926.328416491442
 20
-1161.516020227776
 40
2.065479772208775
 50
242.4518518243414
 51
297.5481481756838
 73
     1
 72
     2
 10
-926.0474765996088
 20
-1162.054595238079
 40
1.458034083652521
 50
297.5481481756942
 51
422.4518518243058
 73
     1
 72
     2
 10
-926.328416491442
 20
-1162.593170248382
 40
2.065479772209248
 50
62.45185182431621
 51
117.5481481756586
 73
     1
 97
        4
330
31F
330
31C
330
31E
330
31D
 92
       16
 93
        4
 72
     2
 10
-926.328416491442
 20
-1161.897864059959
 40
0.517908573013574
 50
38.12041979721116
 51
141.8795802028121
 73
     1
 72
     2
 10
-926.128676455096
 20
-1162.054595238079
 40
0.7717997786795957
 50
141.8795802028306
 51
218.1204197971694
 73
     1
 72
     2
 10
-926.328416491442
 20
-1162.211326416199
 40
0.5179085730138424
 50
218.1204197971879
 51
321.8795802027889
 73
     1
 72
     2
 10
-926.5281565277884
 20
-1162.054595238079
 40
0.7717997786795957
 50
321.8795802028306
 51
398.1204197971695
 73
     1
 97
        4
330
302
330
303
330
304
330
301
 75
     1
 76
     2
 52
45.0
 41
0.1
 77
     0
 78
     1
 53
45.0
 43
62.7811309658083
 44
-72.3161373035813
 45
-0.1414213562373095
 46
0.0
 79
     0
 98
        1
 10
0.0
 20
0.0
  0
HATCH
  5
36E
330
71
100
AcDbEntity
  8
1
  6
Continuous
 62
     2
100
AcDbHatch
 10
0.0
 20
0.0
 30
0.0
210
0.0
220
0.0
230
1.0
  2
CUSTOM10
 70
     0
 71
     1
 91
        2
 92
        1
 93
        6
 72
     1
 10
-930.8842312378355
 20
-1157.168499999999
 11
-930.8842312378355
 21
-1160.22230952381
 72
     1
 10
-930.8842312378355
 20
-1160.22230952381
 11
-929.6437268275815
 21
-1160.22230952381
 72
     1
 10
-929.6437268275815
 20
-1160.22230952381
 11
-929.6437268275815
 21
-1159.279231282666
 72
     1
 10
-929.6437268275815
 20
-1159.279231282666
 11
-928.8849592398011
 21
-1159.279231282666
 72
     2
 10
-928.8849592398011
 20
-1158.223865641332
 40
1.055365641333992
 50
270.0
 51
450.0
 73
     1
 72
     1
 10
-928.8849592398011
 20
-1157.168499999999
 11
-930.8842312378355
 21
-1157.168499999999
 97
        6
330
329
330
2B6
330
2AC
330
2AB
330
2B8
330
2B7
 92
       16
 93
        4
 72
     1
 10
-929.3264317660395
 20
-1157.831605845439
 11
-929.6437268275815
 21
-1157.831605845439
 72
     1
 10
-929.6437268275815
 20
-1157.831605845439
 11
-929.6437268275815
 21
-1158.537333494781
 72
     1
 10
-929.6437268275815
 20
-1158.537333494781
 11
-929.3264317660395
 21
-1158.537333494781
 72
     2
 10
-929.3264317660395
 20
-1158.18446967011
 40
0.3528638246709761
 50
270.0
 51
450.0
 73
     1
 97
        4
330
2B9
330
2AA
330
2BA
330
315
 75
     1
 76
     2
 52
45.0
 41
0.1
 77
     0
 78
     1
 53
45.0
 43
62.7811309658083
 44
-72.3161373035813
 45
-0.1414213562373095
 46
0.0
 79
     0
 98
        1
 10
0.0
 20
0.0
  0
HATCH
  5
36F
330
71
100
AcDbEntity
  8
1
  6
Continuous
 62
     2
100
AcDbHatch
 10
0.0
 20
0.0
 30
0.0
210
0.0
220
0.0
230
1.0
  2
CUSTOM11
 70
     0
 71
     1
 91
        2
 92
        1
 93
        6
 72
     1
 10
-930.8842312378355
 20
-1157.168499999999
 11
-930.8842312378355
 21
-1160.22230952381
 72
     1
 10
-930.8842312378355
 20
-1160.22230952381
 11
-929.6437268275815
 21
-1160.22230952381
 72
     1
 10
-929.6437268275815
 20
-1160.22230952381
 11
-929.6437268275815
 21
-1159.279231282666
 72
     1
 10
-929.6437268275815
 20
-1159.279231282666
 11
-928.8849592398011
 21
-1159.279231282666
 72
     2
 10
-928.8849592398011
 20
-1158.223865641332
 40
1.055365641333992
 50
270.0
 51
450.0
 73
     1
 72
     1
 10
-928.8849592398011
 20
-1157.168499999999
 11
-930.8842312378355
 21
-1157.168499999999
 97
        6
330
329
330
2B6
330
2AC
330
2AB
330
2B8
330
2B7
 92
       16
 93
        4
 72
     1
 10
-929.3264317660395
 20
-1157.831605845439
 11
-929.6437268275815
 21
-1157.831605845439
 72
     1
 10
-929.6437268275815
 20
-1157.831605845439
 11
-929.6437268275815
 21
-1158.537333494781
 72
     1
 10
-929.6437268275815
 20
-1158.537333494781
 11
-929.3264317660395
 21
-1158.537333494781
 72
     2
 10
-929.3264317660395
 20
-1158.18446967011
 40
0.3528638246709761
 50
270.0
 51
450.0
 73
     1
 97
        4
330
2B9
330
2AA
330
2BA
330
315
 75
     1
 76
     2
 52
45.0
 41
0.1
 77
     0
 78
     1
 53
45.0
 43
62.7811309658083
 44
-72.3161373035813
 45
-0.1414213562373095
 46
0.0
 79
     0
 98
        1
 10
0.0
 20
0.0
  0
HATCH
  5
370
330
71
100
AcDbEntity
  8
1
  6
Continuous
 62
     2
100
AcDbHatch
 10
0.0
 20
0.0
 30
0.0
210
0.0
220
0.0
230
1.0
  2
CUSTOM12
 70
     0
 71
     1
 91
        1
 92
        1
 93
       12
 72
     1
 10
-911.2699480434023
 20
-1157.168499999999
 11
-909.8672238256551
 21
-1157.168499999999
 72
     1
 10
-909.8672238256551
 20
-1157.168499999999
 11
-911.1697534564216
 21
-1158.641450530035
 72
     1
 10
-911.1697534564216
 20
-1158.641450530035
 11
-909.7718004094813
 21
-1160.22230952381
 72
     1
 10
-909.7718004094813
 20
-1160.22230952381
 11
-911.1745246272296
 21
-1160.22230952381
 72
     1
 10
-911.1745246272296
 20
-1160.22230952381
 11
-911.8711155652951
 21
-1159.434577738516
 72
     1
 10
-911.8711155652951
 20
-1159.434577738516
 11
-912.5677065033609
 21
-1160.22230952381
 72
     1
 10
-912.5677065033609
 20
-1160.22230952381
 11
-913.970430721109
 21
-1160.22230952381
 72
     1
 10
-913.970430721109
 20
-1160.22230952381
 11
-912.5724776741687
 21
-1158.641450530035
 72
     1
 10
-912.5724776741687
 20
-1158.641450530035
 11
-913.8750073049362
 21
-1157.168499999999
 72
     1
 10
-913.8750073049362
 20
-1157.168499999999
 11
-912.472283087187
 21
-1157.168499999999
 72
     1
 10
-912.472283087187
 20
-1157.168499999999
 11
-911.8711155652951
 21
-1157.848323321554
 72
     1
 10
-911.8711155652951
 20
-1157.848323321554
 11
-911.2699480434023
 21
-1157.168499999999
 97
       12
330
285
330
2DE
330
2DD
330
2DC
330
2DB
330
286
330
287
330
283
330
284
330
2E1
330
2E0
330
2DF
 75
     1
 76
     2
 52
45.0
 41
0.1
 77
     0
 78
     1
 53
45.0
 43
62.7811309658083
 44
-72.3161373035813
 45
-0.1414213562373095
 46
0.0
 79
     0
 98
        1
 10
0.0
 20
0.0
  0
HATCH
  5
371
330
71
100
AcDbEntity
  8
1
  6
Continuous
 62
     2
100
AcDbHatch
 10
0.0
 20
0.0
 30
0.0
210
0.0
220
0.0
230
1.0
  2
CUSTOM13
 70
     0
 71
     1
 91
        1
 92
        1
 93
       12
 72
     1
 10
-911.2699480434023
 20
-1157.168499999999
 11
-909.8672238256551
 21
-1157.168499999999
 72
     1
 10
-909.8672238256551
 20
-1157.168499999999
 11
-911.1697534564216
 21
-1158.641450530035
 72
     1
 10
-911.1697534564216
 20
-1158.641450530035
 11
-909.7718004094813
 21
-1160.22230952381
 72
     1
 10
-909.7718004094813
 20
-1160.22230952381
 11
-911.1745246272296
 21
-1160.22230952381
 72
     1
 10
-911.1745246272296
 20
-1160.22230952381
 11
-911.8711155652951
 21
-1159.434577738516
 72
     1
 10
-911.8711155652951
 20
-1159.434577738516
 11
-912.5677065033609
 21
-1160.22230952381
 72
     1
 10
-912.5677065033609
 20
-1160.22230952381
 11
-913.970430721109
 21
-1160.22230952381
 72
     1
 10
-913.970430721109
 20
-1160.22230952381
 11
-912.5724776741687
 21
-1158.641450530035
 72
     1
 10
-912.5724776741687
 20
-1158.641450530035
 11
-913.8750073049362
 21
-1157.168499999999
 72
     1
 10
-913.8750073049362
 20
-1157.168499999999
 11
-912.472283087187
 21
-1157.168499999999
 72
     1
 10
-912.472283087187
 20
-1157.168499999999
 11
-911.8711155652951
 21
-1157.848323321554
 72
     1
 10
-911.8711155652951
 20
-1157.848323321554
 11
-911.2699480434023
 21
-1157.168499999999
 97
       12
330
285
330
2DE
330
2DD
330
2DC
330
2DB
330
286
330
287
330
283
330
284
330
2E1
330
2E0
330
2DF
 75
     1
 76
     2
 52
45.0
 41
0.1
 77
     0
 78
     1
 53
45.0
 43
62.7811309658083
 44
-72.3161373035813
 45
-0.1414213562373095
 46
0.0
 79
     0
 98
        1
 10
0.0
 20
0.0
  0
HATCH
  5
372
330
71
100
AcDbEntity
  8
1
  6
Continuous
 62
     2
100
AcDbHatch
 10
0.0
 20
0.0
 30
0.0
210
0.0
220
0.0
230
1.0
  2
CUSTOM14
 70
     0
 71
     1
 91
        1
 92
        1
 93
        4
 72
     1
 10
-914.0897099913259
 20
-1157.168499999999
 11
-914.0897099913259
 21
-1160.22230952381
 72
     1
 10
-914.0897099913259
 20
-1160.22230952381
 11
-915.3302144015788
 21
-1160.22230952381
 72
     1
 10
-915.3302144015788
 20
-1160.22230952381
 11
-915.3302144015788
 21
-1157.168499999999
 72
     1
 10
-915.3302144015788
 20
-1157.168499999999
 11
-914.0897099913259
 21
-1157.168499999999
 97
        4
330
2D9
330
288
330
2D8
330
2DA
 75
     1
 76
     2
 52
45.0
 41
0.1
 77
     0
 78
     1
 53
45.0
 43
62.7811309658083
 44
-72.3161373035813
 45
-0.1414213562373095
 46
0.0
 79
     0
 98
        1
 10
0.0
 20
0.0
  0
HATCH
  5
373
330
71
100
AcDbEntity
  8
1
  6
Continuous
 62
     2
100
AcDbHatch
 10
0.0
 20
0.0
 30
0.0
210
0.0
220
0.0
230
1.0
  2
CUSTOM15
 70
     0
 71
     1
 91
        1
 92
        1
 93
        4
 72
     1
 10
-914.0897099913259
 20
-1157.168499999999
 11
-914.0897099913259
 21
-1160.22230952381
 72
     1
 10
-914.0897099913259
 20
-1160.22230952381
 11
-915.3302144015788
 21
-1160.22230952381
 72
     1
 10
-915.3302144015788
 20
-1160.22230952381
 11
-915.3302144015788
 21
-1157.168499999999
 72
     1
 10
-915.3302144015788
 20
-1157.168499999999
 11
-914.0897099913259
 21
-1157.168499999999
 97
        4
330
2D9
330
288
330
2D8
330
2DA
 75
     1
 76
     2
 52
45.0
 41
0.1
 77
     0
 78
     1
 53
45.0
 43
62.7811309658083
 44
-72.3161373035813
 45
-0.1414213562373095
 46
0.0
 79
     0
 98
        1
 10
0.0
 20
0.0
  0
HATCH
  5
374
330
71
100
AcDbEntity
  8
1
  6
Continuous
 62
     2
100
AcDbHatch
 10
0.0
 20
0.0
 30
0.0
210
0.0
220
0.0
230
1.0
  2
CUSTOM16
 70
     0
 71
     1
 91
        2
 92
        1
 93
        8
 72
     1
 10
-914.4801539948579
 20
-1163.581499999984
 11
-915.7206584051117
 21
-1163.581499999984
 72
     1
 10
-915.7206584051117
 20
-1163.581499999984
 11
-915.9321384585876
 21
-1163.040539455767
 72
     1
 10
-915.9321384585876
 20
-1163.040539455767
 11
-917.0645800352615
 21
-1163.040539455767
 72
     1
 10
-917.0645800352615
 20
-1163.040539455767
 11
-917.2760600887373
 21
-1163.581499999984
 72
     1
 10
-917.2760600887373
 20
-1163.581499999984
 11
-918.5165644989902
 21
-1163.581499999984
 72
     1
 10
-918.5165644989902
 20
-1163.581499999984
 11
-917.118611452051
 21
-1160.527690476173
 72
     1
 10
-917.118611452051
 20
-1160.527690476173
 11
-915.8781070417981
 21
-1160.527690476173
 72
     1
 10
-915.8781070417981
 20
-1160.527690476173
 11
-914.4801539948579
 21
-1163.581499999984
 97
        8
330
2D4
330
28E
330
2D3
330
2D6
330
28B
330
2D5
330
28C
330
28D
 92
       16
 93
        3
 72
     1
 10
-916.7985244841163
 20
-1162.35997619046
 11
-916.1981940097339
 21
-1162.35997619046
 72
     1
 10
-916.1981940097339
 20
-1162.35997619046
 11
-916.4983592469241
 21
-1161.592161224473
 72
     1
 10
-916.4983592469241
 20
-1161.592161224473
 11
-916.7985244841163
 21
-1162.35997619046
 97
        3
330
28A
330
289
330
2D7
 75
     1
 76
     2
 52
45.0
 41
0.1
 77
     0
 78
     1
 53
45.0
 43
62.7811309658083
 44
-72.3161373035813
 45
-0.1414213562373095
 46
0.0
 79
     0
 98
        1
 10
0.0
 20
0.0
  0
HATCH
  5
375
330
71
100
AcDbEntity
  8
1
  6
Continuous
 62
     2
100
AcDbHatch
 10
0.0
 20
0.0
 30
0.0
210
0.0
220
0.0
230
1.0
  2
CUSTOM17
 70
     0
 71
     1
 91
        2
 92
        1
 93
        8
 72
     1
 10
-914.4801539948579
 20
-1163.581499999984
 11
-915.7206584051117
 21
-1163.581499999984
 72
     1
 10
-915.7206584051117
 20
-1163.581499999984
 11
-915.9321384585876
 21
-1163.040539455767
 72
     1
 10
-915.9321384585876
 20
-1163.040539455767
 11
-917.0645800352615
 21
-1163.040539455767
 72
     1
 10
-917.0645800352615
 20
-1163.040539455767
 11
-917.2760600887373
 21
-1163.581499999984
 72
     1
 10
-917.2760600887373
 20
-1163.581499999984
 11
-918.5165644989902
 21
-1163.581499999984
 72
     1
 10
-918.5165644989902
 20
-1163.581499999984
 11
-917.118611452051
 21
-1160.527690476173
 72
     1
 10
-917.118611452051
 20
-1160.527690476173
 11
-915.8781070417981
 21
-1160.527690476173
 72
     1
 10
-915.8781070417981
 20
-1160.527690476173
 11
-914.4801539948579
 21
-1163.581499999984
 97
        8
330
2D4
330
28E
330
2D3
330
2D6
330
28B
330
2D5
330
28C
330
28D
 92
       16
 93
        3
 72
     1
 10
-916.7985244841163
 20
-1162.35997619046
 11
-916.1981940097339
 21
-1162.35997619046
 72
     1
 10
-916.1981940097339
 20
-1162.35997619046
 11
-916.4983592469241
 21
-1161.592161224473
 72
     1
 10
-916.4983592469241
 20
-1161.592161224473
 11
-916.7985244841163
 21
-1162.35997619046
 97
        3
330
28A
330
289
330
2D7
 75
     1
 76
     2
 52
45.0
 41
0.1
 77
     0
 78
     1
 53
45.0
 43
62.7811309658083
 44
-72.3161373035813
 45
-0.1414213562373095
 46
0.0
 79
     0
 98
        1
 10
0.0
 20
0.0
  0
HATCH
  5
376
330
71
100
AcDbEntity
  8
1
  6
Continuous
 62
     2
100
AcDbHatch
 10
0.0
 20
0.0
 30
0.0
210
0.0
220
0.0
230
1.0
  2
CUSTOM18
 70
     0
 71
     1
 91
        1
 92
        1
 93
        8
 72
     1
 10
-920.6740766381724
 20
-1160.527690476173
 11
-920.6740766381724
 21
-1161.312955782297
 72
     1
 10
-920.6740766381724
 20
-1161.312955782297
 11
-919.8629776006978
 21
-1161.312955782297
 72
     1
 10
-919.8629776006978
 20
-1161.312955782297
 11
-919.8629776006978
 21
-1163.581499999984
 72
     1
 10
-919.8629776006978
 20
-1163.581499999984
 11
-918.6701848985314
 21
-1163.581499999984
 72
     1
 10
-918.6701848985314
 20
-1163.581499999984
 11
-918.6701848985314
 21
-1161.312955782297
 72
     1
 10
-918.6701848985314
 20
-1161.312955782297
 11
-917.8590858610587
 21
-1161.312955782297
 72
     1
 10
-917.8590858610587
 20
-1161.312955782297
 11
-917.8590858610587
 21
-1160.527690476173
 72
     1
 10
-917.8590858610587
 20
-1160.527690476173
 11
-920.6740766381724
 21
-1160.527690476173
 97
        8
330
2D0
330
2CF
330
2CE
330
28F
330
290
330
2D2
330
291
330
2D1
 75
     1
 76
     2
 52
45.0
 41
0.1
 77
     0
 78
     1
 53
45.0
 43
62.7811309658083
 44
-72.3161373035813
 45
-0.1414213562373095
 46
0.0
 79
     0
 98
        1
 10
0.0
 20
0.0
  0
HATCH
  5
377
330
71
100
AcDbEntity
  8
1
  6
Continuous
 62
     2
100
AcDbHatch
 10
0.0
 20
0.0
 30
0.0
210
0.0
220
0.0
230
1.0
  2
CUSTOM19
 70
     0
 71
     1
 91
        1
 92
        1
 93
        8
 72
     1
 10
-920.6740766381724
 20
-1160.527690476173
 11
-920.6740766381724
 21
-1161.312955782297
 72
     1
 10
-920.6740766381724
 20
-1161.312955782297
 11
-919.8629776006978
 21
-1161.312955782297
 72
     1
 10
-919.8629776006978
 20
-1161.312955782297
 11
-919.8629776006978
 21
-1163.581499999984
 72
     1
 10
-919.8629776006978
 20
-1163.581499999984
 11
-918.6701848985314
 21
-1163.581499999984
 72
     1
 10
-918.6701848985314
 20
-1163.581499999984
 11
-918.6701848985314
 21
-1161.312955782297
 72
     1
 10
-918.6701848985314
 20
-1161.312955782297
 11
-917.8590858610587
 21
-1161.312955782297
 72
     1
 10
-917.8590858610587
 20
-1161.312955782297
 11
-917.8590858610587
 21
-1160.527690476173
 72
     1
 10
-917.8590858610587
 20
-1160.527690476173
 11
-920.6740766381724
 21
-1160.527690476173
 97
        8
330
2D0
330
2CF
330
2CE
330
28F
330
290
330
2D2
330
291
330
2D1
 75
     1
 76
     2
 52
45.0
 41
0.1
 77
     0
 78
     1
 53
45.0
 43
62.7811309658083
 44
-72.3161373035813
 45
-0.1414213562373095
 46
0.0
 79
     0
 98
        1
 10
0.0
 20
0.0
  0
HATCH
  5
378
330
71
100
AcDbEntity
  8
1
  6
Continuous
 62
     2
100
AcDbHatch
 10
0.0
 20
0.0
 30
0.0
210
0.0
220
0.0
230
1.0
  2
CUSTOM20
 70
     0
 71
     1
 91
        1
 92
        1
 93
       10
 72
     1
 10
-918.0020700544334
 20
-1157.168499999999
 11
-919.1948627565998
 21
-1157.168499999999
 72
     1
 10
-919.1948627565998
 20
-1157.168499999999
 11
-919.1948627565998
 21
-1160.22230952381
 72
     1
 10
-919.1948627565998
 20
-1160.22230952381
 11
-918.0020700544334
 21
-1160.22230952381
 72
     1
 10
-918.0020700544334
 20
-1160.22230952381
 11
-918.0020700544334
 21
-1158.913534013605
 72
     1
 10
-918.0020700544334
 20
-1158.913534013605
 11
-916.7615656441793
 21
-1160.22230952381
 72
     1
 10
-916.7615656441793
 20
-1160.22230952381
 11
-915.5687729420126
 21
-1160.22230952381
 72
     1
 10
-915.5687729420126
 20
-1160.22230952381
 11
-915.5687729420126
 21
-1157.168499999999
 72
     1
 10
-915.5687729420126
 20
-1157.168499999999
 11
-916.7615656441793
 21
-1157.168499999999
 72
     1
 10
-916.7615656441793
 20
-1157.168499999999
 11
-916.7615656441793
 21
-1158.477275510204
 72
     1
 10
-916.7615656441793
 20
-1158.477275510204
 11
-918.0020700544334
 21
-1157.168499999999
 97
       10
330
2CA
330
294
330
295
330
296
330
297
330
2CD
330
292
330
2CC
330
2CB
330
293
 75
     1
 76
     2
 52
45.0
 41
0.1
 77
     0
 78
     1
 53
45.0
 43
62.7811309658083
 44
-72.3161373035813
 45
-0.1414213562373095
 46
0.0
 79
     0
 98
        1
 10
0.0
 20
0.0
  0
HATCH
  5
379
330
71
100
AcDbEntity
  8
1
  6
Continuous
 62
     2
100
AcDbHatch
 10
0.0
 20
0.0
 30
0.0
210
0.0
220
0.0
230
1.0
  2
CUSTOM21
 70
     0
 71
     1
 91
        1
 92
        1
 93
       10
 72
     1
 10
-918.0020700544334
 20
-1157.168499999999
 11
-919.1948627565998
 21
-1157.168499999999
 72
     1
 10
-919.1948627565998
 20
-1157.168499999999
 11
-919.1948627565998
 21
-1160.22230952381
 72
     1
 10
-919.1948627565998
 20
-1160.22230952381
 11
-918.0020700544334
 21
-1160.22230952381
 72
     1
 10
-918.0020700544334
 20
-1160.22230952381
 11
-918.0020700544334
 21
-1158.913534013605
 72
     1
 10
-918.0020700544334
 20
-1158.913534013605
 11
-916.7615656441793
 21
-1160.22230952381
 72
     1
 10
-916.7615656441793
 20
-1160.22230952381
 11
-915.5687729420126
 21
-1160.22230952381
 72
     1
 10
-915.5687729420126
 20
-1160.22230952381
 11
-915.5687729420126
 21
-1157.168499999999
 72
     1
 10
-915.5687729420126
 20
-1157.168499999999
 11
-916.7615656441793
 21
-1157.168499999999
 72
     1
 10
-916.7615656441793
 20
-1157.168499999999
 11
-916.7615656441793
 21
-1158.477275510204
 72
     1
 10
-916.7615656441793
 20
-1158.477275510204
 11
-918.0020700544334
 21
-1157.168499999999
 97
       10
330
2CA
330
294
330
295
330
296
330
297
330
2CD
330
292
330
2CC
330
2CB
330
293
 75
     1
 76
     2
 52
45.0
 41
0.1
 77
     0
 78
     1
 53
45.0
 43
62.7811309658083
 44
-72.3161373035813
 45
-0.1414213562373095
 46
0.0
 79
     0
 98
        1
 10
0.0
 20
0.0
  0
HATCH
  5
37A
330
71
100
AcDbEntity
  8
1
  6
Continuous
 62
     2
100
AcDbHatch
 10
0.0
 20
0.0
 30
0.0
210
0.0
220
0.0
230
1.0
  2
CUSTOM22
 70
     0
 71
     1
 91
        1
 92
        1
 93
       10
 72
     1
 10
-923.2505088748519
 20
-1160.527690476173
 11
-924.4433015770195
 21
-1160.527690476173
 72
     1
 10
-924.4433015770195
 20
-1160.527690476173
 11
-924.4433015770195
 21
-1163.581499999984
 72
     1
 10
-924.4433015770195
 20
-1163.581499999984
 11
-923.2505088748519
 21
-1163.581499999984
 72
     1
 10
-923.2505088748519
 20
-1163.581499999984
 11
-923.2505088748519
 21
-1162.27272448978
 72
     1
 10
-923.2505088748519
 20
-1162.27272448978
 11
-922.010004464599
 21
-1163.581499999984
 72
     1
 10
-922.010004464599
 20
-1163.581499999984
 11
-920.8172117624326
 21
-1163.581499999984
 72
     1
 10
-920.8172117624326
 20
-1163.581499999984
 11
-920.8172117624326
 21
-1160.527690476173
 72
     1
 10
-920.8172117624326
 20
-1160.527690476173
 11
-922.010004464599
 21
-1160.527690476173
 72
     1
 10
-922.010004464599
 20
-1160.527690476173
 11
-922.010004464599
 21
-1161.836465986378
 72
     1
 10
-922.010004464599
 20
-1161.836465986378
 11
-923.2505088748519
 21
-1160.527690476173
 97
       10
330
299
330
29A
330
29B
330
2C7
330
29C
330
29D
330
2C6
330
2C9
330
2C8
330
298
 75
     1
 76
     2
 52
45.0
 41
0.1
 77
     0
 78
     1
 53
45.0
 43
62.7811309658083
 44
-72.3161373035813
 45
-0.1414213562373095
 46
0.0
 79
     0
 98
        1
 10
0.0
 20
0.0
  0
HATCH
  5
37B
330
71
100
AcDbEntity
  8
1
  6
Continuous
 62
     2
100
AcDbHatch
 10
0.0
 20
0.0
 30
0.0
210
0.0
220
0.0
230
1.0
  2
CUSTOM23
 70
     0
 71
     1
 91
        1
 92
        1
 93
       10
 72
     1
 10
-923.2505088748519
 20
-1160.527690476173
 11
-924.4433015770195
 21
-1160.527690476173
 72
     1
 10
-924.4433015770195
 20
-1160.527690476173
 11
-924.4433015770195
 21
-1163.581499999984
 72
     1
 10
-924.4433015770195
 20
-1163.581499999984
 11
-923.2505088748519
 21
-1163.581499999984
 72
     1
 10
-923.2505088748519
 20
-1163.581499999984
 11
-923.2505088748519
 21
-1162.27272448978
 72
     1
 10
-923.2505088748519
 20
-1162.27272448978
 11
-922.010004464599
 21
-1163.581499999984
 72
     1
 10
-922.010004464599
 20
-1163.581499999984
 11
-920.8172117624326
 21
-1163.581499999984
 72
     1
 10
-920.8172117624326
 20
-1163.581499999984
 11
-920.8172117624326
 21
-1160.527690476173
 72
     1
 10
-920.8172117624326
 20
-1160.527690476173
 11
-922.010004464599
 21
-1160.527690476173
 72
     1
 10
-922.010004464599
 20
-1160.527690476173
 11
-922.010004464599
 21
-1161.836465986378
 72
     1
 10
-922.010004464599
 20
-1161.836465986378
 11
-923.2505088748519
 21
-1160.527690476173
 97
       10
330
299
330
29A
330
29B
330
2C7
330
29C
330
29D
330
2C6
330
2C9
330
2C8
330
298
 75
     1
 76
     2
 52
45.0
 41
0.1
 77
     0
 78
     1
 53
45.0
 43
62.7811309658083
 44
-72.3161373035813
 45
-0.1414213562373095
 46
0.0
 79
     0
 98
        1
 10
0.0
 20
0.0
  0
HATCH
  5
37C
330
71
100
AcDbEntity
  8
1
  6
Continuous
 62
     2
100
AcDbHatch
 10
0.0
 20
0.0
 30
0.0
210
0.0
220
0.0
230
1.0
  2
CUSTOM24
 70
     0
 71
     1
 91
        1
 92
        1
 93
       12
 72
     1
 10
-924.2523038137873
 20
-1157.168499999999
 11
-924.2523038137873
 21
-1160.22230952381
 72
     1
 10
-924.2523038137873
 20
-1160.22230952381
 11
-925.4450965159538
 21
-1160.22230952381
 72
     1
 10
-925.4450965159538
 20
-1160.22230952381
 11
-925.4450965159538
 21
-1159.088037414966
 72
     1
 10
-925.4450965159538
 20
-1159.088037414966
 11
-926.4947540938612
 21
-1159.088037414966
 72
     1
 10
-926.4947540938612
 20
-1159.088037414966
 11
-926.4947540938612
 21
-1160.22230952381
 72
     1
 10
-926.4947540938612
 20
-1160.22230952381
 11
-927.6875467960277
 21
-1160.22230952381
 72
     1
 10
-927.6875467960277
 20
-1160.22230952381
 11
-927.6875467960277
 21
-1157.168499999999
 72
     1
 10
-927.6875467960277
 20
-1157.168499999999
 11
-926.4947540938612
 21
-1157.168499999999
 72
     1
 10
-926.4947540938612
 20
-1157.168499999999
 11
-926.4947540938612
 21
-1158.237333333334
 72
     1
 10
-926.4947540938612
 20
-1158.237333333334
 11
-925.4450965159538
 21
-1158.237333333334
 72
     1
 10
-925.4450965159538
 20
-1158.237333333334
 11
-925.4450965159538
 21
-1157.168499999999
 72
     1
 10
-925.4450965159538
 20
-1157.168499999999
 11
-924.2523038137873
 21
-1157.168499999999
 97
       12
330
2C1
330
2C0
330
2BF
330
2A7
330
2A8
330
2BE
330
2A9
330
2BD
330
2BC
330
2BB
330
2A5
330
2A6
 75
     1
 76
     2
 52
45.0
 41
0.1
 77
     0
 78
     1
 53
45.0
 43
62.7811309658083
 44
-72.3161373035813
 45
-0.1414213562373095
 46
0.0
 79
     0
 98
        1
 10
0.0
 20
0.0
  0
HATCH
  5
37D
330
71
100
AcDbEntity
  8
1
  6
Continuous
 62
     2
100
AcDbHatch
 10
0.0
 20
0.0
 30
0.0
210
0.0
220
0.0
230
1.0
  2
CUSTOM25
 70
     0
 71
     1
 91
        1
 92
        1
 93
       12
 72
     1
 10
-924.2523038137873
 20
-1157.168499999999
 11
-924.2523038137873
 21
-1160.22230952381
 72
     1
 10
-924.2523038137873
 20
-1160.22230952381
 11
-925.4450965159538
 21
-1160.22230952381
 72
     1
 10
-925.4450965159538
 20
-1160.22230952381
 11
-925.4450965159538
 21
-1159.088037414966
 72
     1
 10
-925.4450965159538
 20
-1159.088037414966
 11
-926.4947540938612
 21
-1159.088037414966
 72
     1
 10
-926.4947540938612
 20
-1159.088037414966
 11
-926.4947540938612
 21
-1160.22230952381
 72
     1
 10
-926.4947540938612
 20
-1160.22230952381
 11
-927.6875467960277
 21
-1160.22230952381
 72
     1
 10
-927.6875467960277
 20
-1160.22230952381
 11
-927.6875467960277
 21
-1157.168499999999
 72
     1
 10
-927.6875467960277
 20
-1157.168499999999
 11
-926.4947540938612
 21
-1157.168499999999
 72
     1
 10
-926.4947540938612
 20
-1157.168499999999
 11
-926.4947540938612
 21
-1158.237333333334
 72
     1
 10
-926.4947540938612
 20
-1158.237333333334
 11
-925.4450965159538
 21
-1158.237333333334
 72
     1
 10
-925.4450965159538
 20
-1158.237333333334
 11
-925.4450965159538
 21
-1157.168499999999
 72
     1
 10
-925.4450965159538
 20
-1157.168499999999
 11
-924.2523038137873
 21
-1157.168499999999
 97
       12
330
2C1
330
2C0
330
2BF
330
2A7
330
2A8
330
2BE
330
2A9
330
2BD
330
2BC
330
2BB
330
2A5
330
2A6
 75
     1
 76
     2
 52
45.0
 41
0.1
 77
     0
 78
     1
 53
45.0
 43
62.7811309658083
 44
-72.3161373035813
 45
-0.1414213562373095
 46
0.0
 79
     0
 98
        1
 10
0.0
 20
0.0
  0
ENDBLK
  5
73
330
71
100
AcDbEntity
  8
0
100
AcDbBlockEnd
  0
BLOCK
  5
75
330
74
100
AcDbEntity
  8
0
100
AcDbBlockBegin
  2
_punkt
 70
     0
 10
-812.3749999999985
 20
-1170.875000000001
 30
0.0
  3
_punkt
  1

  0
LINE
  5
37E
330
74
100
AcDbEntity
  8
1
  6
Continuous
 62
     2
100
AcDbLine
 10
-812.3749999999984
 20
-1170.875000000001
 30
0.0
 11
-812.3749999999984
 21
-1175.875
 31
0.0
  0
LINE
  5
37F
330
74
100
AcDbEntity
  8
1
  6
Continuous
 62
     2
100
AcDbLine
 10
-812.3749999999984
 20
-1170.875000000001
 30
0.0
 11
-807.3750000000009
 21
-1170.875000000001
 31
0.0
  0
ENDBLK
  5
76
330
74
100
AcDbEntity
  8
0
100
AcDbBlockEnd
  0
BLOCK
  5
7A
330
77
100
AcDbEntity
  8
0
100
AcDbBlockBegin
  2
A3I_CS
 70
     0
 10
-812.3749999999984
 20
-1175.875
 30
0.0
  3
A3I_CS
  1

  0
INSERT
  5
78
330
77
100
AcDbEntity
  8
1
100
AcDbBlockReference
  2
_rahmen
 10
-812.3749999999984
 20
-1175.875
 30
0.0
  0
INSERT
  5
79
330
77
100
AcDbEntity
  8
1
100
AcDbBlockReference
  2
_punkt
 10
-812.3749999999985
 20
-1170.875000000001
 30
0.0
  0
ENDBLK
  5
7B
330
77
100
AcDbEntity
  8
0
100
AcDbBlockEnd
  0
BLOCK
  5
84
330
7C
100
AcDbEntity
  8
0
100
AcDbBlockBegin
  2
1
 70
     0
 10
0.0
 20
0.0
 30
0.0
  3
1
  1

  0
INSERT
  5
7D
330
7C
100
AcDbEntity
  8
0
100
AcDbBlockReference
  2
Allg1
 10
-875.9999999999404
 20
-1097.000000000016
 30
0.0
  0
INSERT
  5
7E
330
7C
100
AcDbEntity
  8
0
100
AcDbBlockReference
  2
SA_Links1
 10
-998.0
 20
-953.0
 30
0.0
  0
INSERT
  5
7F
330
7C
100
AcDbEntity
  8
0
100
AcDbBlockReference
  2
Drfsicht1
 10
-1074.75
 20
-1022.488038
 30
0.0
  0
INSERT
  5
80
330
7C
100
AcDbEntity
  8
0
100
AcDbBlockReference
  2
Vordans1
 10
-1074.75
 20
-953.0
 30
0.0
  0
INSERT
  5
81
330
7C
100
AcDbEntity
  8
0
100
AcDbBlockReference
  2
SA_Rechts1
 10
-1159.5
 20
-953.0
 30
0.0
  0
INSERT
  5
82
330
7C
100
AcDbEntity
  8
0
100
AcDbBlockReference
  2
Rückansicht1
 10
-920.2500000000325
 20
-953.0
 30
0.0
  0
INSERT
  5
83
330
7C
100
AcDbEntity
  8
0
100
AcDbBlockReference
  2
A3I_CS
 10
-812.3749999999984
 20
-1175.875
 30
0.0
  0
ENDBLK
  5
85
330
7C
100
AcDbEntity
  8
0
100
AcDbBlockEnd
  0
BLOCK
  5
1A8
330
1A1
100
AcDbEntity
  8
0
100
AcDbBlockBegin
  2
*D17
 70
     1
 10
0.0
 20
0.0
 30
0.0
  3
*D17
  1

  0
LINE
  5
1A2
330
1A1
100
AcDbEntity
  8
1
  6
Continuous
 62
     2
100
AcDbLine
 10
-1110.749999999935
 20
-977.75
 30
0.0
 11
-1038.749999999935
 21
-977.75
 31
0.0
  0
LINE
  5
1A3
330
1A1
100
AcDbEntity
  8
1
  6
Continuous
 62
     2
100
AcDbLine
 10
-1110.749999999935
 20
-967.75
 30
0.0
 11
-1110.749999999935
 21
-979.25
 31
0.0
  0
LINE
  5
1A4
330
1A1
100
AcDbEntity
  8
1
  6
Continuous
 62
     2
100
AcDbLine
 10
-1038.749999999935
 20
-964.25
 30
0.0
 11
-1038.749999999935
 21
-979.25
 31
0.0
  0
SOLID
  5
1A5
330
1A1
100
AcDbEntity
  8
1
 62
     2
100
AcDbTrace
 10
-1107.249999999935
 20
-977.2892162584441
 30
0.0
 11
-1107.249999999935
 21
-978.2107837415559
 31
0.0
 12
-1110.749999999935
 22
-977.75
 32
0.0
 13
-1110.749999999935
 23
-977.75
 33
0.0
  0
SOLID
  5
1A6
330
1A1
100
AcDbEntity
  8
1
 62
     2
100
AcDbTrace
 10
-1042.249999999935
 20
-978.2107837415559
 30
0.0
 11
-1042.249999999935
 21
-977.2892162584441
 31
0.0
 12
-1038.749999999935
 22
-977.75
 32
0.0
 13
-1038.749999999935
 23
-977.75
 33
0.0
  0
MTEXT
  5
1A7
330
1A1
100
AcDbEntity
  8
1
 62
     3
100
AcDbMText
 10
-1077.375
 20
-976.25
 30
0.0
 40
3.5
 41
0.0
 71
     7
 72
     1
  1
72
  7
CONVERTER_11
 11
0.9999999999970619
 21
2.424068405545306E-6
 31
0.0
 73
     1
 44
0.60024009603842
  0
ENDBLK
  5
1A9
330
1A1
100
AcDbEntity
  8
0
100
AcDbBlockEnd
  0
BLOCK
  5
1B3
330
1AC
100
AcDbEntity
  8
0
100
AcDbBlockBegin
  2
*D18
 70
     1
 10
0.0
 20
0.0
 30
0.0
  3
*D18
  1

  0
LINE
  5
1AD
330
1AC
100
AcDbEntity
  8
1
  6
Continuous
 62
     2
100
AcDbLine
 10
-1120.749999999935
 20
-967.75
 30
0.0
 11
-1120.749999999935
 21
-938.25
 31
0.0
  0
LINE
  5
1AE
330
1AC
100
AcDbEntity
  8
1
  6
Continuous
 62
     2
100
AcDbLine
 10
-1110.749999999935
 20
-967.75
 30
0.0
 11
-1122.249999999935
 21
-967.75
 31
0.0
  0
LINE
  5
1AF
330
1AC
100
AcDbEntity
  8
1
  6
Continuous
 62
     2
100
AcDbLine
 10
-1110.749999999935
 20
-938.25
 30
0.0
 11
-1122.249999999935
 21
-938.25
 31
0.0
  0
SOLID
  5
1B0
330
1AC
100
AcDbEntity
  8
1
 62
     2
100
AcDbTrace
 10
-1121.210783741491
 20
-964.25
 30
0.0
 11
-1120.289216258379
 21
-964.25
 31
0.0
 12
-1120.749999999935
 22
-967.75
 32
0.0
 13
-1120.749999999935
 23
-967.75
 33
0.0
  0
SOLID
  5
1B1
330
1AC
100
AcDbEntity
  8
1
 62
     2
100
AcDbTrace
 10
-1120.289216258379
 20
-941.75
 30
0.0
 11
-1121.210783741491
 21
-941.75
 31
0.0
 12
-1120.749999999935
 22
-938.25
 32
0.0
 13
-1120.749999999935
 23
-938.25
 33
0.0
  0
MTEXT
  5
1B2
330
1AC
100
AcDbEntity
  8
1
 62
     3
100
AcDbMText
 10
-1122.599999999935
 20
-961.3639243056
 30
0.0
 40
3.5
 41
0.0
 71
     7
 72
     1
  1
\C3; {\Fgdt;n}\C3;29,5
  7
CONVERTER_11
 11
0.0
 21
1.0
 31
0.0
 73
     1
 44
0.60024009603842
  0
ENDBLK
  5
1B4
330
1AC
100
AcDbEntity
  8
0
100
AcDbBlockEnd
  0
ENDSEC
  0
SECTION
  2
ENTITIES
  0
INSERT
  5
86
330
1F
100
AcDbEntity
  8
1
100
AcDbBlockReference
  2
1
 10
0.0
 20
0.0
 30
0.0
  0
ENDSEC
  0
SECTION
  2
OBJECTS
  0
DICTIONARY
  5
C
330
0
100
AcDbDictionary
281
     1
  3
ACAD_GROUP
350
D
  3
ACAD_LAYOUT
350
1A
  3
ACAD_MATERIAL
350
3B
  3
ACAD_MLEADERSTYLE
350
3A7
  3
ACAD_MLINESTYLE
350
17
  3
ACAD_PLOTSETTINGS
350
19
  3
ACAD_PLOTSTYLENAME
350
E
  3
ACAD_TABLESTYLE
350
3A6
  3
ACAD_VISUALSTYLE
350
2A
  0
DICTIONARY
  5
D
102
{ACAD_REACTORS
330
C
102
}
330
C
100
AcDbDictionary
281
     1
  0
DICTIONARY
  5
1A
102
{ACAD_REACTORS
330
C
102
}
330
C
100
AcDbDictionary
281
     1
  3
Layout1
350
1E
  3
Layout2
350
26
  3
Model
350
22
  0
DICTIONARY
  5
3B
102
{ACAD_REACTORS
330
C
102
}
330
C
100
AcDbDictionary
281
     1
  3
ByBlock
350
3D
  3
ByLayer
350
3C
  3
Global
350
3E
  0
DICTIONARY
  5
3A7
102
{ACAD_REACTORS
330
C
102
}
330
C
100
AcDbDictionary
281
     1
  0
DICTIONARY
  5
17
102
{ACAD_REACTORS
330
C
102
}
330
C
100
AcDbDictionary
281
     1
  3
Standard
350
18
  0
DICTIONARY
  5
19
102
{ACAD_REACTORS
330
C
102
}
330
C
100
AcDbDictionary
281
     1
  0
ACDBDICTIONARYWDFLT
  5
E
102
{ACAD_REACTORS
330
C
102
}
330
C
100
AcDbDictionary
281
     1
  3
Normal
350
F
100
AcDbDictionaryWithDefault
340
F
  0
DICTIONARY
  5
3A6
102
{ACAD_REACTORS
330
C
102
}
330
C
100
AcDbDictionary
281
     1
  0
DICTIONARY
  5
2A
102
{ACAD_REACTORS
330
C
102
}
330
C
100
AcDbDictionary
281
     1
  3
2dWireframe
350
2F
  3
3D Hidden
350
31
  3
3dWireframe
350
30
  3
Basic
350
32
  3
Brighten
350
36
  3
ColorChange
350
3A
  3
Conceptual
350
34
  3
Dim
350
35
  3
Facepattern
350
39
  3
Flat
350
2B
  3
FlatWithEdges
350
2C
  3
Gouraud
350
2D
  3
GouraudWithEdges
350
2E
  3
Linepattern
350
38
  3
Realistic
350
33
  3
Thicken
350
37
  0
LAYOUT
  5
1E
102
{ACAD_REACTORS
330
1A
102
}
330
1A
100
AcDbPlotSettings
  1

  2
none_device
  4

  6

 40
0.0
 41
0.0
 42
0.0
 43
0.0
 44
0.0
 45
0.0
 46
0.0
 47
0.0
 48
0.0
 49
0.0
140
0.0
141
0.0
142
1.0
143
1.0
 70
   688
 72
     0
 73
     0
 74
     5
  7

 75
    16
 76
     0
 77
     2
 78
   300
147
1.0
148
0.0
149
0.0
100
AcDbLayout
  1
Layout1
 70
     1
 71
     1
 10
0.0
 20
0.0
 11
12.0
 21
9.0
 12
0.0
 22
0.0
 32
0.0
 14
1.00000000000000E+20
 24
1.00000000000000E+20
 34
1.00000000000000E+20
 15
-1.00000000000000E+20
 25
-1.00000000000000E+20
 35
-1.00000000000000E+20
146
0.0
 13
0.0
 23
0.0
 33
0.0
 16
1.0
 26
0.0
 36
0.0
 17
0.0
 27
1.0
 37
0.0
 76
     0
330
1B
  0
LAYOUT
  5
26
102
{ACAD_REACTORS
330
1A
102
}
330
1A
100
AcDbPlotSettings
  1

  2
none_device
  4

  6

 40
0.0
 41
0.0
 42
0.0
 43
0.0
 44
0.0
 45
0.0
 46
0.0
 47
0.0
 48
0.0
 49
0.0
140
0.0
141
0.0
142
1.0
143
1.0
 70
   688
 72
     0
 73
     0
 74
     5
  7

 75
    16
 76
     0
 77
     2
 78
   300
147
1.0
148
0.0
149
0.0
100
AcDbLayout
  1
Layout2
 70
     1
 71
     2
 10
0.0
 20
0.0
 11
0.0
 21
0.0
 12
0.0
 22
0.0
 32
0.0
 14
0.0
 24
0.0
 34
0.0
 15
0.0
 25
0.0
 35
0.0
146
0.0
 13
0.0
 23
0.0
 33
0.0
 16
1.0
 26
0.0
 36
0.0
 17
0.0
 27
1.0
 37
0.0
 76
     0
330
23
  0
LAYOUT
  5
22
102
{ACAD_REACTORS
330
1A
102
}
330
1A
100
AcDbPlotSettings
  1

  2
none_device
  4

  6

 40
0.0
 41
0.0
 42
0.0
 43
0.0
 44
0.0
 45
0.0
 46
0.0
 47
0.0
 48
0.0
 49
0.0
140
0.0
141
0.0
142
1.0
143
1.0
 70
  1712
 72
     0
 73
     0
 74
     0
  7

 75
     0
 76
     0
 77
     2
 78
   300
147
1.0
148
0.0
149
0.0
100
AcDbLayout
  1
Model
 70
     1
 71
     0
 10
0.0
 20
0.0
 11
12.0
 21
9.0
 12
0.0
 22
0.0
 32
0.0
 14
-1227.374999999999
 24
-1175.875
 34
0.0
 15
-807.3750000000009
 25
-878.875
 35
0.0
146
0.0
 13
0.0
 23
0.0
 33
0.0
 16
1.0
 26
0.0
 36
0.0
 17
0.0
 27
1.0
 37
0.0
 76
     0
330
1F
331
29
  0
MATERIAL
  5
3D
102
{ACAD_REACTORS
330
3B
102
}
102
{ACAD_XDICTIONARY
360
3A2
102
}
330
3B
100
AcDbMaterial
  1
ByBlock
  0
MATERIAL
  5
3C
102
{ACAD_REACTORS
330
3B
102
}
102
{ACAD_XDICTIONARY
360
3A0
102
}
330
3B
100
AcDbMaterial
  1
ByLayer
  0
MATERIAL
  5
3E
102
{ACAD_REACTORS
330
3B
102
}
102
{ACAD_XDICTIONARY
360
3A4
102
}
330
3B
100
AcDbMaterial
  1
Global
  0
MLINESTYLE
  5
18
102
{ACAD_REACTORS
330
17
102
}
330
17
100
AcDbMlineStyle
  2
Standard
 70
     0
  3

 62
   256
 51
90.0
 52
90.0
 71
     2
 49
0.5
 62
   256
  6
BYLAYER
 49
-0.5
 62
   256
  6
BYLAYER
  0
ACDBPLACEHOLDER
  5
F
102
{ACAD_REACTORS
330
E
102
}
330
E
  0
VISUALSTYLE
  5
2F
102
{ACAD_REACTORS
330
2A
102
}
102
{ACAD_XDICTIONARY
360
388
102
}
330
2A
100
AcDbVisualStyle
  2
2dWireframe
 70
     4
 71
     0
 72
     2
 73
     0
 90
        0
 40
-0.6
 41
-30.0
 62
     5
 63
     7
421
 16777215
 74
     1
 91
        4
 64
     7
 65
   257
 75
     1
175
     1
 42
1.0
 92
        0
 66
   257
 43
1.0
 76
     1
 77
     6
 78
     2
 67
     7
 79
     5
170
     0
171
     0
290
     0
174
     0
 93
        1
 44
0.0
173
     0
291
     0
 45
0.0
1001
ACAD
1000
AcDbSavedByObjectVersion
1070
     0
  0
VISUALSTYLE
  5
31
102
{ACAD_REACTORS
330
2A
102
}
102
{ACAD_XDICTIONARY
360
38C
102
}
330
2A
100
AcDbVisualStyle
  2
3D Hidden
 70
     6
 71
     1
 72
     2
 73
     2
 90
        0
 40
-0.6
 41
-30.0
 62
     5
 63
     7
421
 16777215
 74
     2
 91
        2
 64
     7
 65
   257
 75
     2
175
     1
 42
40.0
 92
        0
 66
   257
 43
1.0
 76
     1
 77
     6
 78
     2
 67
     7
 79
     3
170
     0
171
     0
290
     0
174
     0
 93
        1
 44
0.0
173
     0
291
     0
 45
0.0
1001
ACAD
1000
AcDbSavedByObjectVersion
1070
     0
  0
VISUALSTYLE
  5
30
102
{ACAD_REACTORS
330
2A
102
}
102
{ACAD_XDICTIONARY
360
38A
102
}
330
2A
100
AcDbVisualStyle
  2
3dWireframe
 70
     5
 71
     0
 72
     2
 73
     0
 90
        0
 40
-0.6
 41
-30.0
 62
     5
 63
     7
421
 16777215
 74
     1
 91
        4
 64
     7
 65
   257
 75
     1
175
     1
 42
1.0
 92
        0
 66
   257
 43
1.0
 76
     1
 77
     6
 78
     2
 67
     7
 79
     5
170
     0
171
     0
290
     0
174
     0
 93
        1
 44
0.0
173
     0
291
     0
 45
0.0
1001
ACAD
1000
AcDbSavedByObjectVersion
1070
     0
  0
VISUALSTYLE
  5
32
102
{ACAD_REACTORS
330
2A
102
}
102
{ACAD_XDICTIONARY
360
38E
102
}
330
2A
100
AcDbVisualStyle
  2
Basic
 70
     7
 71
     1
 72
     0
 73
     1
 90
        0
 40
-0.6
 41
-30.0
 62
     5
 63
     7
421
 16777215
 74
     0
 91
        4
 64
     7
 65
   257
 75
     1
175
     1
 42
1.0
 92
        8
 66
     7
 43
1.0
 76
     1
 77
     6
 78
     2
 67
     7
 79
     5
170
     0
171
     0
290
     0
174
     0
 93
        1
 44
0.0
173
     0
291
     1
 45
0.0
1001
ACAD
1000
AcDbSavedByObjectVersion
1070
     0
  0
VISUALSTYLE
  5
36
102
{ACAD_REACTORS
330
2A
102
}
102
{ACAD_XDICTIONARY
360
396
102
}
330
2A
100
AcDbVisualStyle
  2
Brighten
 70
    12
 71
     2
 72
     2
 73
     0
 90
        0
 40
-0.6
 41
-30.0
 62
     5
 63
     7
421
 16777215
 74
     1
 91
        4
 64
     7
 65
   257
 75
     1
175
     1
 42
1.0
 92
        8
 66
     7
 43
1.0
 76
     1
 77
     6
 78
     2
 67
     7
 79
     5
170
     0
171
     0
290
     0
174
     0
 93
        1
 44
50.0
173
     0
291
     1
 45
0.0
1001
ACAD
1000
AcDbSavedByObjectVersion
1070
     0
  0
VISUALSTYLE
  5
3A
102
{ACAD_REACTORS
330
2A
102
}
102
{ACAD_XDICTIONARY
360
39E
102
}
330
2A
100
AcDbVisualStyle
  2
ColorChange
 70
    16
 71
     2
 72
     2
 73
     3
 90
        0
 40
-0.6
 41
-30.0
 62
     5
 63
     8
421
  8421504
 74
     1
 91
        4
 64
     7
 65
   257
 75
     1
175
     1
 42
1.0
 92
        8
 66
     8
424
  8421504
 43
1.0
 76
     1
 77
     6
 78
     2
 67
     7
 79
     5
170
     0
171
     0
290
     0
174
     0
 93
        1
 44
0.0
173
     0
291
     1
 45
0.0
1001
ACAD
1000
AcDbSavedByObjectVersion
1070
     0
  0
VISUALSTYLE
  5
34
102
{ACAD_REACTORS
330
2A
102
}
102
{ACAD_XDICTIONARY
360
392
102
}
330
2A
100
AcDbVisualStyle
  2
Conceptual
 70
     9
 71
     3
 72
     2
 73
     0
 90
        0
 40
-0.6
 41
-30.0
 62
     5
 63
     7
421
 16777215
 74
     2
 91
        2
 64
     7
 65
   257
 75
     1
175
     1
 42
40.0
 92
        8
 66
     7
 43
1.0
 76
     1
 77
     6
 78
     2
 67
     7
 79
     3
170
     0
171
     0
290
     0
174
     0
 93
        1
 44
0.0
173
     0
291
     0
 45
0.0
1001
ACAD
1000
AcDbSavedByObjectVersion
1070
     0
  0
VISUALSTYLE
  5
35
102
{ACAD_REACTORS
330
2A
102
}
102
{ACAD_XDICTIONARY
360
394
102
}
330
2A
100
AcDbVisualStyle
  2
Dim
 70
    11
 71
     2
 72
     2
 73
     0
 90
        0
 40
-0.6
 41
-30.0
 62
     5
 63
     7
421
 16777215
 74
     1
 91
        4
 64
     7
 65
   257
 75
     1
175
     1
 42
1.0
 92
        8
 66
     7
 43
1.0
 76
     1
 77
     6
 78
     2
 67
     7
 79
     5
170
     0
171
     0
290
     0
174
     0
 93
        1
 44
-50.0
173
     0
291
     1
 45
0.0
1001
ACAD
1000
AcDbSavedByObjectVersion
1070
     0
  0
VISUALSTYLE
  5
39
102
{ACAD_REACTORS
330
2A
102
}
102
{ACAD_XDICTIONARY
360
39C
102
}
330
2A
100
AcDbVisualStyle
  2
Facepattern
 70
    15
 71
     2
 72
     2
 73
     0
 90
        0
 40
-0.6
 41
-30.0
 62
     5
 63
     7
421
 16777215
 74
     1
 91
        4
 64
     7
 65
   257
 75
     1
175
     1
 42
1.0
 92
        8
 66
     7
 43
1.0
 76
     1
 77
     6
 78
     2
 67
     7
 79
     5
170
     0
171
     0
290
     0
174
     0
 93
        1
 44
0.0
173
     0
291
     1
 45
0.0
1001
ACAD
1000
AcDbSavedByObjectVersion
1070
     0
  0
VISUALSTYLE
  5
2B
102
{ACAD_REACTORS
330
2A
102
}
102
{ACAD_XDICTIONARY
360
380
102
}
330
2A
100
AcDbVisualStyle
  2
Flat
 70
     0
 71
     2
 72
     1
 73
     1
 90
        2
 40
-0.6
 41
30.0
 62
     5
 63
     7
421
 16777215
 74
     0
 91
        4
 64
     7
 65
   257
 75
     1
175
     1
 42
1.0
 92
        8
 66
     7
 43
1.0
 76
     1
 77
     6
 78
     2
 67
     7
 79
     5
170
     0
171
     0
290
     0
174
     0
 93
       13
 44
0.0
173
     0
291
     1
 45
0.0
1001
ACAD
1000
AcDbSavedByObjectVersion
1070
     0
  0
VISUALSTYLE
  5
2C
102
{ACAD_REACTORS
330
2A
102
}
102
{ACAD_XDICTIONARY
360
382
102
}
330
2A
100
AcDbVisualStyle
  2
FlatWithEdges
 70
     1
 71
     2
 72
     1
 73
     1
 90
        2
 40
-0.6
 41
30.0
 62
     5
 63
     7
421
 16777215
 74
     1
 91
        4
 64
     7
 65
   257
 75
     1
175
     1
 42
1.0
 92
        0
 66
   257
 43
1.0
 76
     1
 77
     6
 78
     2
 67
     7
 79
     5
170
     0
171
     0
290
     0
174
     0
 93
       13
 44
0.0
173
     0
291
     1
 45
0.0
1001
ACAD
1000
AcDbSavedByObjectVersion
1070
     0
  0
VISUALSTYLE
  5
2D
102
{ACAD_REACTORS
330
2A
102
}
102
{ACAD_XDICTIONARY
360
384
102
}
330
2A
100
AcDbVisualStyle
  2
Gouraud
 70
     2
 71
     2
 72
     2
 73
     1
 90
        2
 40
-0.6
 41
30.0
 62
     5
 63
     7
421
 16777215
 74
     0
 91
        4
 64
     7
 65
   257
 75
     1
175
     1
 42
1.0
 92
        0
 66
     7
 43
1.0
 76
     1
 77
     6
 78
     2
 67
     7
 79
     5
170
     0
171
     0
290
     0
174
     0
 93
       13
 44
0.0
173
     0
291
     1
 45
0.0
1001
ACAD
1000
AcDbSavedByObjectVersion
1070
     0
  0
VISUALSTYLE
  5
2E
102
{ACAD_REACTORS
330
2A
102
}
102
{ACAD_XDICTIONARY
360
386
102
}
330
2A
100
AcDbVisualStyle
  2
GouraudWithEdges
 70
     3
 71
     2
 72
     2
 73
     1
 90
        2
 40
-0.6
 41
30.0
 62
     5
 63
     7
421
 16777215
 74
     1
 91
        4
 64
     7
 65
   257
 75
     1
175
     1
 42
1.0
 92
        0
 66
   257
 43
1.0
 76
     1
 77
     6
 78
     2
 67
     7
 79
     5
170
     0
171
     0
290
     0
174
     0
 93
       13
 44
0.0
173
     0
291
     1
 45
0.0
1001
ACAD
1000
AcDbSavedByObjectVersion
1070
     0
  0
VISUALSTYLE
  5
38
102
{ACAD_REACTORS
330
2A
102
}
102
{ACAD_XDICTIONARY
360
39A
102
}
330
2A
100
AcDbVisualStyle
  2
Linepattern
 70
    14
 71
     2
 72
     2
 73
     0
 90
        0
 40
-0.6
 41
-30.0
 62
     5
 63
     7
421
 16777215
 74
     1
 91
        4
 64
     7
 65
   257
 75
     7
175
     7
 42
1.0
 92
        8
 66
     7
 43
1.0
 76
     1
 77
     6
 78
     2
 67
     7
 79
     5
170
     0
171
     0
290
     0
174
     0
 93
        1
 44
0.0
173
     0
291
     1
 45
0.0
1001
ACAD
1000
AcDbSavedByObjectVersion
1070
     0
  0
VISUALSTYLE
  5
33
102
{ACAD_REACTORS
330
2A
102
}
102
{ACAD_XDICTIONARY
360
390
102
}
330
2A
100
AcDbVisualStyle
  2
Realistic
 70
     8
 71
     2
 72
     2
 73
     0
 90
        0
 40
-0.6
 41
-30.0
 62
     5
 63
     7
421
 16777215
 74
     1
 91
        0
 64
     7
 65
   257
 75
     1
175
     1
 42
1.0
 92
        8
 66
     8
424
  7895160
 43
1.0
 76
     1
 77
     6
 78
     2
 67
     7
 79
     5
170
     0
171
     0
290
     0
174
     0
 93
       13
 44
0.0
173
     0
291
     0
 45
0.0
1001
ACAD
1000
AcDbSavedByObjectVersion
1070
     0
  0
VISUALSTYLE
  5
37
102
{ACAD_REACTORS
330
2A
102
}
102
{ACAD_XDICTIONARY
360
398
102
}
330
2A
100
AcDbVisualStyle
  2
Thicken
 70
    13
 71
     2
 72
     2
 73
     0
 90
        0
 40
-0.6
 41
-30.0
 62
     5
 63
     7
421
 16777215
 74
     1
 91
        4
 64
     7
 65
   257
 75
     1
175
     1
 42
1.0
 92
       12
 66
     7
 43
1.0
 76
     1
 77
     6
 78
     2
 67
     7
 79
     5
170
     0
171
     0
290
     0
174
     0
 93
        1
 44
0.0
173
     0
291
     1
 45
0.0
1001
ACAD
1000
AcDbSavedByObjectVersion
1070
     0
  0
DICTIONARY
  5
3A2
330
3D
100
AcDbDictionary
280
     1
281
     1
  3
ACAD_XREC_ROUNDTRIP
360
3A3
  0
DICTIONARY
  5
3A0
330
3C
100
AcDbDictionary
280
     1
281
     1
  3
ACAD_XREC_ROUNDTRIP
360
3A1
  0
DICTIONARY
  5
3A4
330
3E
100
AcDbDictionary
280
     1
281
     1
  3
ACAD_XREC_ROUNDTRIP
360
3A5
  0
DICTIONARY
  5
388
330
2F
100
AcDbDictionary
280
     1
281
     1
  3
ACAD_XREC_ROUNDTRIP
360
389
  0
DICTIONARY
  5
38C
330
31
100
AcDbDictionary
280
     1
281
     1
  3
ACAD_XREC_ROUNDTRIP
360
38D
  0
DICTIONARY
  5
38A
330
30
100
AcDbDictionary
280
     1
281
     1
  3
ACAD_XREC_ROUNDTRIP
360
38B
  0
DICTIONARY
  5
38E
330
32
100
AcDbDictionary
280
     1
281
     1
  3
ACAD_XREC_ROUNDTRIP
360
38F
  0
DICTIONARY
  5
396
330
36
100
AcDbDictionary
280
     1
281
     1
  3
ACAD_XREC_ROUNDTRIP
360
397
  0
DICTIONARY
  5
39E
330
3A
100
AcDbDictionary
280
     1
281
     1
  3
ACAD_XREC_ROUNDTRIP
360
39F
  0
DICTIONARY
  5
392
330
34
100
AcDbDictionary
280
     1
281
     1
  3
ACAD_XREC_ROUNDTRIP
360
393
  0
DICTIONARY
  5
394
330
35
100
AcDbDictionary
280
     1
281
     1
  3
ACAD_XREC_ROUNDTRIP
360
395
  0
DICTIONARY
  5
39C
330
39
100
AcDbDictionary
280
     1
281
     1
  3
ACAD_XREC_ROUNDTRIP
360
39D
  0
DICTIONARY
  5
380
330
2B
100
AcDbDictionary
280
     1
281
     1
  3
ACAD_XREC_ROUNDTRIP
360
381
  0
DICTIONARY
  5
382
330
2C
100
AcDbDictionary
280
     1
281
     1
  3
ACAD_XREC_ROUNDTRIP
360
383
  0
DICTIONARY
  5
384
330
2D
100
AcDbDictionary
280
     1
281
     1
  3
ACAD_XREC_ROUNDTRIP
360
385
  0
DICTIONARY
  5
386
330
2E
100
AcDbDictionary
280
     1
281
     1
  3
ACAD_XREC_ROUNDTRIP
360
387
  0
DICTIONARY
  5
39A
330
38
100
AcDbDictionary
280
     1
281
     1
  3
ACAD_XREC_ROUNDTRIP
360
39B
  0
DICTIONARY
  5
390
330
33
100
AcDbDictionary
280
     1
281
     1
  3
ACAD_XREC_ROUNDTRIP
360
391
  0
DICTIONARY
  5
398
330
37
100
AcDbDictionary
280
     1
281
     1
  3
ACAD_XREC_ROUNDTRIP
360
399
  0
XRECORD
  5
3A3
102
{ACAD_REACTORS
330
3A2
102
}
330
3A2
100
AcDbXrecord
280
     1
102
MATERIAL
148
0.0
149
0.0
149
0.0
 93
        0
 94
      127
282
     0
 72
     1
 77
     1
171
     1
175
     1
179
     1
273
     0
  0
XRECORD
  5
3A1
102
{ACAD_REACTORS
330
3A0
102
}
330
3A0
100
AcDbXrecord
280
     1
102
MATERIAL
148
0.0
149
0.0
149
0.0
 93
        0
 94
      127
282
     0
 72
     1
 77
     1
171
     1
175
     1
179
     1
273
     0
  0
XRECORD
  5
3A5
102
{ACAD_REACTORS
330
3A4
102
}
330
3A4
100
AcDbXrecord
280
     1
102
MATERIAL
148
0.0
149
0.0
149
0.0
 93
        0
 94
      127
282
     0
 72
     1
 77
     1
171
     1
175
     1
179
     1
273
     0
  0
XRECORD
  5
389
102
{ACAD_REACTORS
330
388
102
}
330
388
100
AcDbXrecord
280
     1
102
RTVSPropertyOp0
 70
     1
102
RTVSPropertyOp1
 70
     1
102
RTVSPropertyOp2
 70
     1
102
RTVSPropertyOp3
 70
     1
102
RTVSPropertyOp4
 70
     1
102
RTVSPropertyOp5
 70
     1
102
RTVSPropertyOp6
 70
     1
102
RTVSPropertyOp7
 70
     1
102
RTVSPropertyOp8
 70
     1
102
RTVSPropertyOp9
 70
     1
102
RTVSPropertyOp10
 70
     1
102
RTVSPropertyOp11
 70
     1
102
RTVSPropertyOp12
 70
     1
102
RTVSPropertyOp13
 70
     1
102
RTVSPropertyOp14
 70
     1
102
RTVSPropertyOp15
 70
     1
102
RTVSPropertyOp16
 70
     1
102
RTVSPropertyOp17
 70
     1
102
RTVSPropertyOp18
 70
     1
102
RTVSPropertyOp19
 70
     1
102
RTVSPropertyOp20
 70
     1
102
RTVSPropertyOp21
 70
     1
102
RTVSPropertyOp22
 70
     1
102
RTVSPropertyOp23
 70
     1
102
RTVSPropertyOp24
 70
     1
102
RTVSPropertyOp25
 70
     1
102
RTVSPropertyOp26
 70
     1
102
RTVSPropertyOp27
 70
     1
102
RTVSPropertyOp28
 70
     1
102
RTVSPropertyOp29
 70
     1
102
RTVSPropertyOp30
 70
     1
102
RTVSPropertyOp31
 70
     1
102
RTVSPropertyOp32
 70
     1
  0
XRECORD
  5
38D
102
{ACAD_REACTORS
330
38C
102
}
330
38C
100
AcDbXrecord
280
     1
102
RTVSPropertyOp0
 70
     1
102
RTVSPropertyOp1
 70
     1
102
RTVSPropertyOp2
 70
     1
102
RTVSPropertyOp3
 70
     1
102
RTVSPropertyOp4
 70
     1
102
RTVSPropertyOp5
 70
     1
102
RTVSPropertyOp6
 70
     1
102
RTVSPropertyOp7
 70
     1
102
RTVSPropertyOp8
 70
     1
102
RTVSPropertyOp9
 70
     1
102
RTVSPropertyOp10
 70
     1
102
RTVSPropertyOp11
 70
     1
102
RTVSPropertyOp12
 70
     1
102
RTVSPropertyOp13
 70
     1
102
RTVSPropertyOp14
 70
     1
102
RTVSPropertyOp15
 70
     1
102
RTVSPropertyOp16
 70
     1
102
RTVSPropertyOp17
 70
     1
102
RTVSPropertyOp18
 70
     1
102
RTVSPropertyOp19
 70
     1
102
RTVSPropertyOp20
 70
     1
102
RTVSPropertyOp21
 70
     1
102
RTVSPropertyOp22
 70
     1
102
RTVSPropertyOp23
 70
     1
102
RTVSPropertyOp24
 70
     1
102
RTVSPropertyOp25
 70
     1
102
RTVSPropertyOp26
 70
     1
102
RTVSPropertyOp27
 70
     1
102
RTVSPropertyOp28
 70
     1
102
RTVSPropertyOp29
 70
     1
102
RTVSPropertyOp30
 70
     1
102
RTVSPropertyOp31
 70
     1
102
RTVSPropertyOp32
 70
     1
  0
XRECORD
  5
38B
102
{ACAD_REACTORS
330
38A
102
}
330
38A
100
AcDbXrecord
280
     1
102
RTVSPropertyOp0
 70
     1
102
RTVSPropertyOp1
 70
     1
102
RTVSPropertyOp2
 70
     1
102
RTVSPropertyOp3
 70
     1
102
RTVSPropertyOp4
 70
     1
102
RTVSPropertyOp5
 70
     1
102
RTVSPropertyOp6
 70
     1
102
RTVSPropertyOp7
 70
     1
102
RTVSPropertyOp8
 70
     1
102
RTVSPropertyOp9
 70
     1
102
RTVSPropertyOp10
 70
     1
102
RTVSPropertyOp11
 70
     1
102
RTVSPropertyOp12
 70
     1
102
RTVSPropertyOp13
 70
     1
102
RTVSPropertyOp14
 70
     1
102
RTVSPropertyOp15
 70
     1
102
RTVSPropertyOp16
 70
     1
102
RTVSPropertyOp17
 70
     1
102
RTVSPropertyOp18
 70
     1
102
RTVSPropertyOp19
 70
     1
102
RTVSPropertyOp20
 70
     1
102
RTVSPropertyOp21
 70
     1
102
RTVSPropertyOp22
 70
     1
102
RTVSPropertyOp23
 70
     1
102
RTVSPropertyOp24
 70
     1
102
RTVSPropertyOp25
 70
     1
102
RTVSPropertyOp26
 70
     1
102
RTVSPropertyOp27
 70
     1
102
RTVSPropertyOp28
 70
     1
102
RTVSPropertyOp29
 70
     1
102
RTVSPropertyOp30
 70
     1
102
RTVSPropertyOp31
 70
     1
102
RTVSPropertyOp32
 70
     1
  0
XRECORD
  5
38F
102
{ACAD_REACTORS
330
38E
102
}
330
38E
100
AcDbXrecord
280
     1
102
RTVSPropertyOp0
 70
     1
102
RTVSPropertyOp1
 70
     1
102
RTVSPropertyOp2
 70
     1
102
RTVSPropertyOp3
 70
     1
102
RTVSPropertyOp4
 70
     1
102
RTVSPropertyOp5
 70
     1
102
RTVSPropertyOp6
 70
     1
102
RTVSPropertyOp7
 70
     1
102
RTVSPropertyOp8
 70
     1
102
RTVSPropertyOp9
 70
     1
102
RTVSPropertyOp10
 70
     1
102
RTVSPropertyOp11
 70
     1
102
RTVSPropertyOp12
 70
     1
102
RTVSPropertyOp13
 70
     1
102
RTVSPropertyOp14
 70
     1
102
RTVSPropertyOp15
 70
     1
102
RTVSPropertyOp16
 70
     1
102
RTVSPropertyOp17
 70
     1
102
RTVSPropertyOp18
 70
     1
102
RTVSPropertyOp19
 70
     1
102
RTVSPropertyOp20
 70
     1
102
RTVSPropertyOp21
 70
     1
102
RTVSPropertyOp22
 70
     1
102
RTVSPropertyOp23
 70
     1
102
RTVSPropertyOp24
 70
     1
102
RTVSPropertyOp25
 70
     1
102
RTVSPropertyOp26
 70
     1
102
RTVSPropertyOp27
 70
     1
102
RTVSPropertyOp28
 70
     1
102
RTVSPropertyOp29
 70
     1
102
RTVSPropertyOp30
 70
     1
102
RTVSPropertyOp31
 70
     1
102
RTVSPropertyOp32
 70
     1
  0
XRECORD
  5
397
102
{ACAD_REACTORS
330
396
102
}
330
396
100
AcDbXrecord
280
     1
102
RTVSPropertyOp0
 70
     1
102
RTVSPropertyOp1
 70
     1
102
RTVSPropertyOp2
 70
     1
102
RTVSPropertyOp3
 70
     1
102
RTVSPropertyOp4
 70
     1
102
RTVSPropertyOp5
 70
     1
102
RTVSPropertyOp6
 70
     1
102
RTVSPropertyOp7
 70
     1
102
RTVSPropertyOp8
 70
     1
102
RTVSPropertyOp9
 70
     1
102
RTVSPropertyOp10
 70
     1
102
RTVSPropertyOp11
 70
     1
102
RTVSPropertyOp12
 70
     1
102
RTVSPropertyOp13
 70
     1
102
RTVSPropertyOp14
 70
     1
102
RTVSPropertyOp15
 70
     1
102
RTVSPropertyOp16
 70
     1
102
RTVSPropertyOp17
 70
     1
102
RTVSPropertyOp18
 70
     1
102
RTVSPropertyOp19
 70
     1
102
RTVSPropertyOp20
 70
     1
102
RTVSPropertyOp21
 70
     1
102
RTVSPropertyOp22
 70
     1
102
RTVSPropertyOp23
 70
     1
102
RTVSPropertyOp24
 70
     1
102
RTVSPropertyOp25
 70
     1
102
RTVSPropertyOp26
 70
     1
102
RTVSPropertyOp27
 70
     1
102
RTVSPropertyOp28
 70
     1
102
RTVSPropertyOp29
 70
     1
102
RTVSPropertyOp30
 70
     1
102
RTVSPropertyOp31
 70
     1
102
RTVSPropertyOp32
 70
     1
  0
XRECORD
  5
39F
102
{ACAD_REACTORS
330
39E
102
}
330
39E
100
AcDbXrecord
280
     1
102
RTVSPropertyOp0
 70
     1
102
RTVSPropertyOp1
 70
     1
102
RTVSPropertyOp2
 70
     1
102
RTVSPropertyOp3
 70
     1
102
RTVSPropertyOp4
 70
     1
102
RTVSPropertyOp5
 70
     1
102
RTVSPropertyOp6
 70
     1
102
RTVSPropertyOp7
 70
     1
102
RTVSPropertyOp8
 70
     1
102
RTVSPropertyOp9
 70
     1
102
RTVSPropertyOp10
 70
     1
102
RTVSPropertyOp11
 70
     1
102
RTVSPropertyOp12
 70
     1
102
RTVSPropertyOp13
 70
     1
102
RTVSPropertyOp14
 70
     1
102
RTVSPropertyOp15
 70
     1
102
RTVSPropertyOp16
 70
     1
102
RTVSPropertyOp17
 70
     1
102
RTVSPropertyOp18
 70
     1
102
RTVSPropertyOp19
 70
     1
102
RTVSPropertyOp20
 70
     1
102
RTVSPropertyOp21
 70
     1
102
RTVSPropertyOp22
 70
     1
102
RTVSPropertyOp23
 70
     1
102
RTVSPropertyOp24
 70
     1
102
RTVSPropertyOp25
 70
     1
102
RTVSPropertyOp26
 70
     1
102
RTVSPropertyOp27
 70
     1
102
RTVSPropertyOp28
 70
     1
102
RTVSPropertyOp29
 70
     1
102
RTVSPropertyOp30
 70
     1
102
RTVSPropertyOp31
 70
     1
102
RTVSPropertyOp32
 70
     1
  0
XRECORD
  5
393
102
{ACAD_REACTORS
330
392
102
}
330
392
100
AcDbXrecord
280
     1
102
RTVSPropertyOp0
 70
     1
102
RTVSPropertyOp1
 70
     1
102
RTVSPropertyOp2
 70
     1
102
RTVSPropertyOp3
 70
     1
102
RTVSPropertyOp4
 70
     1
102
RTVSPropertyOp5
 70
     1
102
RTVSPropertyOp6
 70
     1
102
RTVSPropertyOp7
 70
     1
102
RTVSPropertyOp8
 70
     1
102
RTVSPropertyOp9
 70
     1
102
RTVSPropertyOp10
 70
     1
102
RTVSPropertyOp11
 70
     1
102
RTVSPropertyOp12
 70
     1
102
RTVSPropertyOp13
 70
     1
102
RTVSPropertyOp14
 70
     1
102
RTVSPropertyOp15
 70
     1
102
RTVSPropertyOp16
 70
     1
102
RTVSPropertyOp17
 70
     1
102
RTVSPropertyOp18
 70
     1
102
RTVSPropertyOp19
 70
     1
102
RTVSPropertyOp20
 70
     1
102
RTVSPropertyOp21
 70
     1
102
RTVSPropertyOp22
 70
     1
102
RTVSPropertyOp23
 70
     1
102
RTVSPropertyOp24
 70
     1
102
RTVSPropertyOp25
 70
     1
102
RTVSPropertyOp26
 70
     1
102
RTVSPropertyOp27
 70
     1
102
RTVSPropertyOp28
 70
     1
102
RTVSPropertyOp29
 70
     1
102
RTVSPropertyOp30
 70
     1
102
RTVSPropertyOp31
 70
     1
102
RTVSPropertyOp32
 70
     1
  0
XRECORD
  5
395
102
{ACAD_REACTORS
330
394
102
}
330
394
100
AcDbXrecord
280
     1
102
RTVSPropertyOp0
 70
     1
102
RTVSPropertyOp1
 70
     1
102
RTVSPropertyOp2
 70
     1
102
RTVSPropertyOp3
 70
     1
102
RTVSPropertyOp4
 70
     1
102
RTVSPropertyOp5
 70
     1
102
RTVSPropertyOp6
 70
     1
102
RTVSPropertyOp7
 70
     1
102
RTVSPropertyOp8
 70
     1
102
RTVSPropertyOp9
 70
     1
102
RTVSPropertyOp10
 70
     1
102
RTVSPropertyOp11
 70
     1
102
RTVSPropertyOp12
 70
     1
102
RTVSPropertyOp13
 70
     1
102
RTVSPropertyOp14
 70
     1
102
RTVSPropertyOp15
 70
     1
102
RTVSPropertyOp16
 70
     1
102
RTVSPropertyOp17
 70
     1
102
RTVSPropertyOp18
 70
     1
102
RTVSPropertyOp19
 70
     1
102
RTVSPropertyOp20
 70
     1
102
RTVSPropertyOp21
 70
     1
102
RTVSPropertyOp22
 70
     1
102
RTVSPropertyOp23
 70
     1
102
RTVSPropertyOp24
 70
     1
102
RTVSPropertyOp25
 70
     1
102
RTVSPropertyOp26
 70
     1
102
RTVSPropertyOp27
 70
     1
102
RTVSPropertyOp28
 70
     1
102
RTVSPropertyOp29
 70
     1
102
RTVSPropertyOp30
 70
     1
102
RTVSPropertyOp31
 70
     1
102
RTVSPropertyOp32
 70
     1
  0
XRECORD
  5
39D
102
{ACAD_REACTORS
330
39C
102
}
330
39C
100
AcDbXrecord
280
     1
102
RTVSPropertyOp0
 70
     1
102
RTVSPropertyOp1
 70
     1
102
RTVSPropertyOp2
 70
     1
102
RTVSPropertyOp3
 70
     1
102
RTVSPropertyOp4
 70
     1
102
RTVSPropertyOp5
 70
     1
102
RTVSPropertyOp6
 70
     1
102
RTVSPropertyOp7
 70
     1
102
RTVSPropertyOp8
 70
     1
102
RTVSPropertyOp9
 70
     1
102
RTVSPropertyOp10
 70
     1
102
RTVSPropertyOp11
 70
     1
102
RTVSPropertyOp12
 70
     1
102
RTVSPropertyOp13
 70
     1
102
RTVSPropertyOp14
 70
     1
102
RTVSPropertyOp15
 70
     1
102
RTVSPropertyOp16
 70
     1
102
RTVSPropertyOp17
 70
     1
102
RTVSPropertyOp18
 70
     1
102
RTVSPropertyOp19
 70
     1
102
RTVSPropertyOp20
 70
     1
102
RTVSPropertyOp21
 70
     1
102
RTVSPropertyOp22
 70
     1
102
RTVSPropertyOp23
 70
     1
102
RTVSPropertyOp24
 70
     1
102
RTVSPropertyOp25
 70
     1
102
RTVSPropertyOp26
 70
     1
102
RTVSPropertyOp27
 70
     1
102
RTVSPropertyOp28
 70
     1
102
RTVSPropertyOp29
 70
     1
102
RTVSPropertyOp30
 70
     1
102
RTVSPropertyOp31
 70
     1
102
RTVSPropertyOp32
 70
     1
  0
XRECORD
  5
381
102
{ACAD_REACTORS
330
380
102
}
330
380
100
AcDbXrecord
280
     1
102
RTVSPropertyOp0
 70
     1
102
RTVSPropertyOp1
 70
     1
102
RTVSPropertyOp2
 70
     1
102
RTVSPropertyOp3
 70
     1
102
RTVSPropertyOp4
 70
     1
102
RTVSPropertyOp5
 70
     1
102
RTVSPropertyOp6
 70
     1
102
RTVSPropertyOp7
 70
     1
102
RTVSPropertyOp8
 70
     1
102
RTVSPropertyOp9
 70
     1
102
RTVSPropertyOp10
 70
     1
102
RTVSPropertyOp11
 70
     1
102
RTVSPropertyOp12
 70
     1
102
RTVSPropertyOp13
 70
     1
102
RTVSPropertyOp14
 70
     1
102
RTVSPropertyOp15
 70
     1
102
RTVSPropertyOp16
 70
     1
102
RTVSPropertyOp17
 70
     1
102
RTVSPropertyOp18
 70
     1
102
RTVSPropertyOp19
 70
     1
102
RTVSPropertyOp20
 70
     1
102
RTVSPropertyOp21
 70
     1
102
RTVSPropertyOp22
 70
     1
102
RTVSPropertyOp23
 70
     1
102
RTVSPropertyOp24
 70
     1
102
RTVSPropertyOp25
 70
     1
102
RTVSPropertyOp26
 70
     1
102
RTVSPropertyOp27
 70
     1
102
RTVSPropertyOp28
 70
     1
102
RTVSPropertyOp29
 70
     1
102
RTVSPropertyOp30
 70
     1
102
RTVSPropertyOp31
 70
     1
102
RTVSPropertyOp32
 70
     1
  0
XRECORD
  5
383
102
{ACAD_REACTORS
330
382
102
}
330
382
100
AcDbXrecord
280
     1
102
RTVSPropertyOp0
 70
     1
102
RTVSPropertyOp1
 70
     1
102
RTVSPropertyOp2
 70
     1
102
RTVSPropertyOp3
 70
     1
102
RTVSPropertyOp4
 70
     1
102
RTVSPropertyOp5
 70
     1
102
RTVSPropertyOp6
 70
     1
102
RTVSPropertyOp7
 70
     1
102
RTVSPropertyOp8
 70
     1
102
RTVSPropertyOp9
 70
     1
102
RTVSPropertyOp10
 70
     1
102
RTVSPropertyOp11
 70
     1
102
RTVSPropertyOp12
 70
     1
102
RTVSPropertyOp13
 70
     1
102
RTVSPropertyOp14
 70
     1
102
RTVSPropertyOp15
 70
     1
102
RTVSPropertyOp16
 70
     1
102
RTVSPropertyOp17
 70
     1
102
RTVSPropertyOp18
 70
     1
102
RTVSPropertyOp19
 70
     1
102
RTVSPropertyOp20
 70
     1
102
RTVSPropertyOp21
 70
     1
102
RTVSPropertyOp22
 70
     1
102
RTVSPropertyOp23
 70
     1
102
RTVSPropertyOp24
 70
     1
102
RTVSPropertyOp25
 70
     1
102
RTVSPropertyOp26
 70
     1
102
RTVSPropertyOp27
 70
     1
102
RTVSPropertyOp28
 70
     1
102
RTVSPropertyOp29
 70
     1
102
RTVSPropertyOp30
 70
     1
102
RTVSPropertyOp31
 70
     1
102
RTVSPropertyOp32
 70
     1
  0
XRECORD
  5
385
102
{ACAD_REACTORS
330
384
102
}
330
384
100
AcDbXrecord
280
     1
102
RTVSPropertyOp0
 70
     1
102
RTVSPropertyOp1
 70
     1
102
RTVSPropertyOp2
 70
     1
102
RTVSPropertyOp3
 70
     1
102
RTVSPropertyOp4
 70
     1
102
RTVSPropertyOp5
 70
     1
102
RTVSPropertyOp6
 70
     1
102
RTVSPropertyOp7
 70
     1
102
RTVSPropertyOp8
 70
     1
102
RTVSPropertyOp9
 70
     1
102
RTVSPropertyOp10
 70
     1
102
RTVSPropertyOp11
 70
     1
102
RTVSPropertyOp12
 70
     1
102
RTVSPropertyOp13
 70
     1
102
RTVSPropertyOp14
 70
     1
102
RTVSPropertyOp15
 70
     1
102
RTVSPropertyOp16
 70
     1
102
RTVSPropertyOp17
 70
     1
102
RTVSPropertyOp18
 70
     1
102
RTVSPropertyOp19
 70
     1
102
RTVSPropertyOp20
 70
     1
102
RTVSPropertyOp21
 70
     1
102
RTVSPropertyOp22
 70
     1
102
RTVSPropertyOp23
 70
     1
102
RTVSPropertyOp24
 70
     1
102
RTVSPropertyOp25
 70
     1
102
RTVSPropertyOp26
 70
     1
102
RTVSPropertyOp27
 70
     1
102
RTVSPropertyOp28
 70
     1
102
RTVSPropertyOp29
 70
     1
102
RTVSPropertyOp30
 70
     1
102
RTVSPropertyOp31
 70
     1
102
RTVSPropertyOp32
 70
     1
  0
XRECORD
  5
387
102
{ACAD_REACTORS
330
386
102
}
330
386
100
AcDbXrecord
280
     1
102
RTVSPropertyOp0
 70
     1
102
RTVSPropertyOp1
 70
     1
102
RTVSPropertyOp2
 70
     1
102
RTVSPropertyOp3
 70
     1
102
RTVSPropertyOp4
 70
     1
102
RTVSPropertyOp5
 70
     1
102
RTVSPropertyOp6
 70
     1
102
RTVSPropertyOp7
 70
     1
102
RTVSPropertyOp8
 70
     1
102
RTVSPropertyOp9
 70
     1
102
RTVSPropertyOp10
 70
     1
102
RTVSPropertyOp11
 70
     1
102
RTVSPropertyOp12
 70
     1
102
RTVSPropertyOp13
 70
     1
102
RTVSPropertyOp14
 70
     1
102
RTVSPropertyOp15
 70
     1
102
RTVSPropertyOp16
 70
     1
102
RTVSPropertyOp17
 70
     1
102
RTVSPropertyOp18
 70
     1
102
RTVSPropertyOp19
 70
     1
102
RTVSPropertyOp20
 70
     1
102
RTVSPropertyOp21
 70
     1
102
RTVSPropertyOp22
 70
     1
102
RTVSPropertyOp23
 70
     1
102
RTVSPropertyOp24
 70
     1
102
RTVSPropertyOp25
 70
     1
102
RTVSPropertyOp26
 70
     1
102
RTVSPropertyOp27
 70
     1
102
RTVSPropertyOp28
 70
     1
102
RTVSPropertyOp29
 70
     1
102
RTVSPropertyOp30
 70
     1
102
RTVSPropertyOp31
 70
     1
102
RTVSPropertyOp32
 70
     1
  0
XRECORD
  5
39B
102
{ACAD_REACTORS
330
39A
102
}
330
39A
100
AcDbXrecord
280
     1
102
RTVSPropertyOp0
 70
     1
102
RTVSPropertyOp1
 70
     1
102
RTVSPropertyOp2
 70
     1
102
RTVSPropertyOp3
 70
     1
102
RTVSPropertyOp4
 70
     1
102
RTVSPropertyOp5
 70
     1
102
RTVSPropertyOp6
 70
     1
102
RTVSPropertyOp7
 70
     1
102
RTVSPropertyOp8
 70
     1
102
RTVSPropertyOp9
 70
     1
102
RTVSPropertyOp10
 70
     1
102
RTVSPropertyOp11
 70
     1
102
RTVSPropertyOp12
 70
     1
102
RTVSPropertyOp13
 70
     1
102
RTVSPropertyOp14
 70
     1
102
RTVSPropertyOp15
 70
     1
102
RTVSPropertyOp16
 70
     1
102
RTVSPropertyOp17
 70
     1
102
RTVSPropertyOp18
 70
     1
102
RTVSPropertyOp19
 70
     1
102
RTVSPropertyOp20
 70
     1
102
RTVSPropertyOp21
 70
     1
102
RTVSPropertyOp22
 70
     1
102
RTVSPropertyOp23
 70
     1
102
RTVSPropertyOp24
 70
     1
102
RTVSPropertyOp25
 70
     1
102
RTVSPropertyOp26
 70
     1
102
RTVSPropertyOp27
 70
     1
102
RTVSPropertyOp28
 70
     1
102
RTVSPropertyOp29
 70
     1
102
RTVSPropertyOp30
 70
     1
102
RTVSPropertyOp31
 70
     1
102
RTVSPropertyOp32
 70
     1
  0
XRECORD
  5
391
102
{ACAD_REACTORS
330
390
102
}
330
390
100
AcDbXrecord
280
     1
102
RTVSPropertyOp0
 70
     1
102
RTVSPropertyOp1
 70
     1
102
RTVSPropertyOp2
 70
     1
102
RTVSPropertyOp3
 70
     1
102
RTVSPropertyOp4
 70
     1
102
RTVSPropertyOp5
 70
     1
102
RTVSPropertyOp6
 70
     1
102
RTVSPropertyOp7
 70
     1
102
RTVSPropertyOp8
 70
     1
102
RTVSPropertyOp9
 70
     1
102
RTVSPropertyOp10
 70
     1
102
RTVSPropertyOp11
 70
     1
102
RTVSPropertyOp12
 70
     1
102
RTVSPropertyOp13
 70
     1
102
RTVSPropertyOp14
 70
     1
102
RTVSPropertyOp15
 70
     1
102
RTVSPropertyOp16
 70
     1
102
RTVSPropertyOp17
 70
     1
102
RTVSPropertyOp18
 70
     1
102
RTVSPropertyOp19
 70
     1
102
RTVSPropertyOp20
 70
     1
102
RTVSPropertyOp21
 70
     1
102
RTVSPropertyOp22
 70
     1
102
RTVSPropertyOp23
 70
     1
102
RTVSPropertyOp24
 70
     1
102
RTVSPropertyOp25
 70
     1
102
RTVSPropertyOp26
 70
     1
102
RTVSPropertyOp27
 70
     1
102
RTVSPropertyOp28
 70
     1
102
RTVSPropertyOp29
 70
     1
102
RTVSPropertyOp30
 70
     1
102
RTVSPropertyOp31
 70
     1
102
RTVSPropertyOp32
 70
     1
  0
XRECORD
  5
399
102
{ACAD_REACTORS
330
398
102
}
330
398
100
AcDbXrecord
280
     1
102
RTVSPropertyOp0
 70
     1
102
RTVSPropertyOp1
 70
     1
102
RTVSPropertyOp2
 70
     1
102
RTVSPropertyOp3
 70
     1
102
RTVSPropertyOp4
 70
     1
102
RTVSPropertyOp5
 70
     1
102
RTVSPropertyOp6
 70
     1
102
RTVSPropertyOp7
 70
     1
102
RTVSPropertyOp8
 70
     1
102
RTVSPropertyOp9
 70
     1
102
RTVSPropertyOp10
 70
     1
102
RTVSPropertyOp11
 70
     1
102
RTVSPropertyOp12
 70
     1
102
RTVSPropertyOp13
 70
     1
102
RTVSPropertyOp14
 70
     1
102
RTVSPropertyOp15
 70
     1
102
RTVSPropertyOp16
 70
     1
102
RTVSPropertyOp17
 70
     1
102
RTVSPropertyOp18
 70
     1
102
RTVSPropertyOp19
 70
     1
102
RTVSPropertyOp20
 70
     1
102
RTVSPropertyOp21
 70
     1
102
RTVSPropertyOp22
 70
     1
102
RTVSPropertyOp23
 70
     1
102
RTVSPropertyOp24
 70
     1
102
RTVSPropertyOp25
 70
     1
102
RTVSPropertyOp26
 70
     1
102
RTVSPropertyOp27
 70
     1
102
RTVSPropertyOp28
 70
     1
102
RTVSPropertyOp29
 70
     1
102
RTVSPropertyOp30
 70
     1
102
RTVSPropertyOp31
 70
     1
102
RTVSPropertyOp32
 70
     1
  0
ENDSEC
  0
EOF
