  0
SECTION
  2
HEADER
  9
$ACADVER
  1
AC1018
  9
$ACADMAINTVER
 70
     0
  9
$DWGCODEPAGE
  3
ANSI_1252
  9
$INSBASE
 10
0.0
 20
0.0
 30
0.0
  9
$EXTMIN
 10
-402.90912279599
 20
-276.3092917697931
 30
0.0
  9
$EXTMAX
 10
-105.909122795992
 20
-66.30929176979294
 30
0.0
  9
$LIMMIN
 10
0.0
 20
0.0
  9
$LIMMAX
 10
12.0
 20
9.0
  9
$ORTHOMODE
 70
     0
  9
$REGENMODE
 70
     1
  9
$FILLMODE
 70
     1
  9
$QTEXTMODE
 70
     0
  9
$MIRRTEXT
 70
     1
  9
$LTSCALE
 40
1.0
  9
$ATTMODE
 70
     1
  9
$TEXTSIZE
 40
0.2
  9
$TRACEWID
 40
0.05
  9
$TEXTSTYLE
  7
Standard
  9
$CLAYER
  8
0
  9
$CELTYPE
  6
ByLayer
  9
$CECOLOR
 62
   256
  9
$CELTSCALE
 40
1.0
  9
$DISPSILH
 70
     0
  9
$DIMSCALE
 40
1.0
  9
$DIMASZ
 40
0.18
  9
$DIMEXO
 40
0.0625
  9
$DIMDLI
 40
0.38
  9
$DIMRND
 40
0.0
  9
$DIMDLE
 40
0.0
  9
$DIMEXE
 40
0.18
  9
$DIMTP
 40
0.0
  9
$DIMTM
 40
0.0
  9
$DIMTXT
 40
0.18
  9
$DIMCEN
 40
0.09
  9
$DIMTSZ
 40
0.0
  9
$DIMTOL
 70
     0
  9
$DIMLIM
 70
     0
  9
$DIMTIH
 70
     1
  9
$DIMTOH
 70
     1
  9
$DIMSE1
 70
     0
  9
$DIMSE2
 70
     0
  9
$DIMTAD
 70
     0
  9
$DIMZIN
 70
     0
  9
$DIMBLK
  1

  9
$DIMASO
 70
     1
  9
$DIMSHO
 70
     1
  9
$DIMPOST
  1

  9
$DIMAPOST
  1

  9
$DIMALT
 70
     0
  9
$DIMALTD
 70
     2
  9
$DIMALTF
 40
25.4
  9
$DIMLFAC
 40
1.0
  9
$DIMTOFL
 70
     0
  9
$DIMTVP
 40
0.0
  9
$DIMTIX
 70
     0
  9
$DIMSOXD
 70
     0
  9
$DIMSAH
 70
     0
  9
$DIMBLK1
  1

  9
$DIMBLK2
  1

  9
$DIMSTYLE
  2
Standard
  9
$DIMCLRD
 70
     0
  9
$DIMCLRE
 70
     0
  9
$DIMCLRT
 70
     0
  9
$DIMTFAC
 40
1.0
  9
$DIMGAP
 40
0.09
  9
$DIMJUST
 70
     0
  9
$DIMSD1
 70
     0
  9
$DIMSD2
 70
     0
  9
$DIMTOLJ
 70
     1
  9
$DIMTZIN
 70
     0
  9
$DIMALTZ
 70
     0
  9
$DIMALTTZ
 70
     0
  9
$DIMUPT
 70
     0
  9
$DIMDEC
 70
     4
  9
$DIMTDEC
 70
     4
  9
$DIMALTU
 70
     2
  9
$DIMALTTD
 70
     2
  9
$DIMTXSTY
  7
Standard
  9
$DIMAUNIT
 70
     0
  9
$DIMADEC
 70
     0
  9
$DIMALTRND
 40
0.0
  9
$DIMAZIN
 70
     0
  9
$DIMDSEP
 70
    46
  9
$DIMATFIT
 70
     3
  9
$DIMFRAC
 70
     0
  9
$DIMLDRBLK
  1

  9
$DIMLUNIT
 70
     2
  9
$DIMLWD
 70
    -2
  9
$DIMLWE
 70
    -2
  9
$DIMTMOVE
 70
     0
  9
$LUNITS
 70
     2
  9
$LUPREC
 70
     4
  9
$SKETCHINC
 40
0.1
  9
$FILLETRAD
 40
0.5
  9
$AUNITS
 70
     0
  9
$AUPREC
 70
     0
  9
$MENU
  1
.
  9
$ELEVATION
 40
0.0
  9
$PELEVATION
 40
0.0
  9
$THICKNESS
 40
0.0
  9
$LIMCHECK
 70
     0
  9
$CHAMFERA
 40
0.0
  9
$CHAMFERB
 40
0.0
  9
$CHAMFERC
 40
0.0
  9
$CHAMFERD
 40
0.0
  9
$SKPOLY
 70
     0
  9
$TDCREATE
 40
2459145.426604352
  9
$TDUCREATE
 40
2459145.343271018
  9
$TDUPDATE
 40
2459145.426604711
  9
$TDUUPDATE
 40
2459145.343271377
  9
$TDINDWG
 40
0.0000000116
  9
$TDUSRTIMER
 40
0.0000000116
  9
$USRTIMER
 70
     1
  9
$ANGBASE
 50
0.0
  9
$ANGDIR
 70
     0
  9
$PDMODE
 70
     0
  9
$PDSIZE
 40
0.0
  9
$PLINEWID
 40
0.0
  9
$SPLFRAME
 70
     0
  9
$SPLINETYPE
 70
     6
  9
$SPLINESEGS
 70
     8
  9
$HANDSEED
  5
314
  9
$SURFTAB1
 70
     6
  9
$SURFTAB2
 70
     6
  9
$SURFTYPE
 70
     6
  9
$SURFU
 70
     6
  9
$SURFV
 70
     6
  9
$UCSBASE
  2

  9
$UCSNAME
  2

  9
$UCSORG
 10
0.0
 20
0.0
 30
0.0
  9
$UCSXDIR
 10
1.0
 20
0.0
 30
0.0
  9
$UCSYDIR
 10
0.0
 20
1.0
 30
0.0
  9
$UCSORTHOREF
  2

  9
$UCSORTHOVIEW
 70
     0
  9
$UCSORGTOP
 10
0.0
 20
0.0
 30
0.0
  9
$UCSORGBOTTOM
 10
0.0
 20
0.0
 30
0.0
  9
$UCSORGLEFT
 10
0.0
 20
0.0
 30
0.0
  9
$UCSORGRIGHT
 10
0.0
 20
0.0
 30
0.0
  9
$UCSORGFRONT
 10
0.0
 20
0.0
 30
0.0
  9
$UCSORGBACK
 10
0.0
 20
0.0
 30
0.0
  9
$PUCSBASE
  2

  9
$PUCSNAME
  2

  9
$PUCSORG
 10
0.0
 20
0.0
 30
0.0
  9
$PUCSXDIR
 10
1.0
 20
0.0
 30
0.0
  9
$PUCSYDIR
 10
0.0
 20
1.0
 30
0.0
  9
$PUCSORTHOREF
  2

  9
$PUCSORTHOVIEW
 70
     0
  9
$PUCSORGTOP
 10
0.0
 20
0.0
 30
0.0
  9
$PUCSORGBOTTOM
 10
0.0
 20
0.0
 30
0.0
  9
$PUCSORGLEFT
 10
0.0
 20
0.0
 30
0.0
  9
$PUCSORGRIGHT
 10
0.0
 20
0.0
 30
0.0
  9
$PUCSORGFRONT
 10
0.0
 20
0.0
 30
0.0
  9
$PUCSORGBACK
 10
0.0
 20
0.0
 30
0.0
  9
$USERI1
 70
     0
  9
$USERI2
 70
     0
  9
$USERI3
 70
     0
  9
$USERI4
 70
     0
  9
$USERI5
 70
     0
  9
$USERR1
 40
20.1
  9
$USERR2
 40
0.0
  9
$USERR3
 40
0.0
  9
$USERR4
 40
0.0
  9
$USERR5
 40
0.0
  9
$WORLDVIEW
 70
     1
  9
$SHADEDGE
 70
     3
  9
$SHADEDIF
 70
    70
  9
$TILEMODE
 70
     1
  9
$MAXACTVP
 70
    64
  9
$PINSBASE
 10
0.0
 20
0.0
 30
0.0
  9
$PLIMCHECK
 70
     0
  9
$PEXTMIN
 10
1.00000000000000E+20
 20
1.00000000000000E+20
 30
1.00000000000000E+20
  9
$PEXTMAX
 10
-1.00000000000000E+20
 20
-1.00000000000000E+20
 30
-1.00000000000000E+20
  9
$PLIMMIN
 10
0.0
 20
0.0
  9
$PLIMMAX
 10
12.0
 20
9.0
  9
$UNITMODE
 70
     0
  9
$VISRETAIN
 70
     1
  9
$PLINEGEN
 70
     0
  9
$PSLTSCALE
 70
     1
  9
$TREEDEPTH
 70
  3020
  9
$CMLSTYLE
  2
Standard
  9
$CMLJUST
 70
     0
  9
$CMLSCALE
 40
1.0
  9
$PROXYGRAPHICS
 70
     1
  9
$MEASUREMENT
 70
     1
  9
$CELWEIGHT
370
    -1
  9
$ENDCAPS
280
     0
  9
$JOINSTYLE
280
     0
  9
$LWDISPLAY
290
     0
  9
$INSUNITS
 70
     4
  9
$HYPERLINKBASE
  1

  9
$STYLESHEET
  1

  9
$XEDIT
290
     1
  9
$CEPSNTYPE
380
     0
  9
$PSTYLEMODE
290
     1
  9
$FINGERPRINTGUID
  2
{fe51fa61-d8e4-4a69-a36c-5e511f6098e4}
  9
$VERSIONGUID
  2
{FAEB1C32-E019-11D5-929B-00C0DF256EC4}
  9
$EXTNAMES
290
     1
  9
$PSVPSCALE
 40
0.0
  9
$OLESTARTUP
290
     0
  9
$SORTENTS
280
   127
  9
$INDEXCTL
280
     0
  9
$HIDETEXT
280
     1
  9
$XCLIPFRAME
290
     0
  9
$HALOGAP
280
     0
  9
$OBSCOLOR
 70
   257
  9
$OBSLTYPE
280
     0
  9
$INTERSECTIONDISPLAY
280
     0
  9
$INTERSECTIONCOLOR
 70
   257
  9
$DIMASSOC
280
     2
  9
$PROJECTNAME
  1

  0
ENDSEC
  0
SECTION
  2
CLASSES
  0
CLASS
  1
ACDBDICTIONARYWDFLT
  2
AcDbDictionaryWithDefault
  3
ObjectDBX Classes
 90
        0
 91
        3
280
     0
281
     0
  0
CLASS
  1
VISUALSTYLE
  2
AcDbVisualStyle
  3
ObjectDBX Classes
 90
     4095
 91
        3
280
     0
281
     0
  0
CLASS
  1
MATERIAL
  2
AcDbMaterial
  3
ObjectDBX Classes
 90
     1153
 91
        3
280
     0
281
     0
  0
CLASS
  1
SCALE
  2
AcDbScale
  3
ObjectDBX Classes
 90
     1153
 91
        3
280
     0
281
     0
  0
CLASS
  1
TABLESTYLE
  2
AcDbTableStyle
  3
ObjectDBX Classes
 90
     4095
 91
        3
280
     0
281
     0
  0
CLASS
  1
MLEADERSTYLE
  2
AcDbMLeaderStyle
  3
ACDB_MLEADERSTYLE_CLASS
 90
     4095
 91
        3
280
     0
281
     0
  0
CLASS
  1
SUN
  2
AcDbSun
  3
SCENEOE
 90
     1153
 91
        3
280
     0
281
     0
  0
CLASS
  1
DICTIONARYVAR
  2
AcDbDictionaryVar
  3
ObjectDBX Classes
 90
        0
 91
        3
280
     0
281
     0
  0
CLASS
  1
CELLSTYLEMAP
  2
AcDbCellStyleMap
  3
ObjectDBX Classes
 90
     1152
 91
        3
280
     0
281
     0
  0
ENDSEC
  0
SECTION
  2
TABLES
  0
TABLE
  2
VPORT
  5
8
102
{ACAD_XDICTIONARY
360
2CD
102
}
330
0
100
AcDbSymbolTable
 70
     1
  0
VPORT
  5
29
330
8
100
AcDbSymbolTableRecord
100
AcDbViewportTableRecord
  2
*Active
 70
     0
 10
0.0
 20
0.0
 11
1.0
 21
1.0
 12
-254.409122795991
 22
-171.309291769793
 13
0.0
 23
0.0
 14
0.5
 24
0.5
 15
0.5
 25
0.5
 16
0.0
 26
0.0
 36
1.0
 17
0.0
 27
0.0
 37
0.0
 40
231.0000000000002
 41
1.60267857142857
 42
50.0
 43
0.0
 44
0.0
 50
0.0
 51
0.0
 71
     0
 72
   100
 73
     1
 74
     3
 75
     0
 76
     0
 77
     0
 78
     0
281
     0
 65
     1
110
0.0
120
0.0
130
0.0
111
1.0
121
0.0
131
0.0
112
0.0
122
1.0
132
0.0
 79
     0
146
0.0
  0
ENDTAB
  0
TABLE
  2
LTYPE
  5
5
330
0
100
AcDbSymbolTable
 70
     8
  0
LTYPE
  5
14
330
5
100
AcDbSymbolTableRecord
100
AcDbLinetypeTableRecord
  2
ByBlock
 70
     0
  3

 72
    65
 73
     0
 40
0.0
  0
LTYPE
  5
15
330
5
100
AcDbSymbolTableRecord
100
AcDbLinetypeTableRecord
  2
ByLayer
 70
     0
  3

 72
    65
 73
     0
 40
0.0
  0
LTYPE
  5
16
330
5
100
AcDbSymbolTableRecord
100
AcDbLinetypeTableRecord
  2
Continuous
 70
     0
  3
Solid line
 72
    65
 73
     0
 40
0.0
  0
LTYPE
  5
6E
330
5
100
AcDbSymbolTableRecord
100
AcDbLinetypeTableRecord
  2
DASHED
 70
     0
  3
Dashed
 72
    65
 73
     2
 40
15.0
 49
7.0
 74
     0
 49
-8.0
 74
     0
  0
LTYPE
  5
6F
330
5
100
AcDbSymbolTableRecord
100
AcDbLinetypeTableRecord
  2
DOTTED
 70
     0
  3
Dotted
 72
    65
 73
     2
 40
1.0
 49
0.0
 74
     0
 49
-1.0
 74
     0
  0
LTYPE
  5
70
330
5
100
AcDbSymbolTableRecord
100
AcDbLinetypeTableRecord
  2
DOT_CENTER
 70
     0
  3
Dot_Center
 72
    65
 73
     4
 40
14.0
 49
12.0
 74
     0
 49
-1.0
 74
     0
 49
0.0
 74
     0
 49
-1.0
 74
     0
  0
LTYPE
  5
71
330
5
100
AcDbSymbolTableRecord
100
AcDbLinetypeTableRecord
  2
LONG_DASHED
 70
     0
  3
Long_Dashed
 72
    65
 73
     2
 40
15.0
 49
10.0
 74
     0
 49
-5.0
 74
     0
  0
LTYPE
  5
72
330
5
100
AcDbSymbolTableRecord
100
AcDbLinetypeTableRecord
  2
DASH_CENTER
 70
     0
  3
Dash_Center
 72
    65
 73
     4
 40
14.0
 49
11.0
 74
     0
 49
-1.0
 74
     0
 49
1.0
 74
     0
 49
-1.0
 74
     0
  0
LTYPE
  5
73
330
5
100
AcDbSymbolTableRecord
100
AcDbLinetypeTableRecord
  2
PHANTOM
 70
     0
  3
Phantom
 72
    65
 73
     6
 40
13.0
 49
10.0
 74
     0
 49
-1.0
 74
     0
 49
0.0
 74
     0
 49
-1.0
 74
     0
 49
0.0
 74
     0
 49
-1.0
 74
     0
  0
LTYPE
  5
74
330
5
100
AcDbSymbolTableRecord
100
AcDbLinetypeTableRecord
  2
CENTER_DASH_DASH
 70
     0
  3
Center_Dash_Dash
 72
    65
 73
     6
 40
14.0
 49
9.0
 74
     0
 49
-1.0
 74
     0
 49
1.0
 74
     0
 49
-1.0
 74
     0
 49
1.0
 74
     0
 49
-1.0
 74
     0
  0
ENDTAB
  0
TABLE
  2
LAYER
  5
2
330
0
100
AcDbSymbolTable
 70
     2
  0
LAYER
  5
10
330
2
100
AcDbSymbolTableRecord
100
AcDbLayerTableRecord
  2
0
 70
     0
 62
     7
  6
Continuous
370
    -3
390
F
  0
LAYER
  5
75
330
2
100
AcDbSymbolTableRecord
100
AcDbLayerTableRecord
  2
1
 70
     0
 62
     7
  6
Continuous
370
    -3
390
F
  0
ENDTAB
  0
TABLE
  2
STYLE
  5
3
330
0
100
AcDbSymbolTable
 70
     5
  0
STYLE
  5
11
330
3
100
AcDbSymbolTableRecord
100
AcDbTextStyleTableRecord
  2
Standard
 70
     0
 40
0.0
 41
1.0
 50
0.0
 71
     0
 42
0.2
  3
txt
  4

  0
STYLE
  5
183
330
3
100
AcDbSymbolTableRecord
100
AcDbTextStyleTableRecord
  2
CONVERTER_11
 70
     0
 40
0.0
 41
0.9
 50
0.0
 71
     0
 42
0.2
  3
txt.shx
  4

  0
STYLE
  5
290
330
3
100
AcDbSymbolTableRecord
100
AcDbTextStyleTableRecord
  2
CONVERTER_12
 70
     0
 40
0.0
 41
0.81
 50
0.0
 71
     0
 42
0.2
  3
txt.shx
  4

  0
STYLE
  5
2A6
330
3
100
AcDbSymbolTableRecord
100
AcDbTextStyleTableRecord
  2
CONVERTER_13
 70
     0
 40
0.0
 41
0.72
 50
0.0
 71
     0
 42
0.2
  3
txt.shx
  4

  0
STYLE
  5
2A9
330
3
100
AcDbSymbolTableRecord
100
AcDbTextStyleTableRecord
  2
CONVERTER_14
 70
     0
 40
0.0
 41
0.855
 50
0.0
 71
     0
 42
0.2
  3
txt.shx
  4

  0
ENDTAB
  0
TABLE
  2
VIEW
  5
6
330
0
100
AcDbSymbolTable
 70
     0
  0
ENDTAB
  0
TABLE
  2
UCS
  5
7
330
0
100
AcDbSymbolTable
 70
     0
  0
ENDTAB
  0
TABLE
  2
APPID
  5
9
330
0
100
AcDbSymbolTable
 70
     2
  0
APPID
  5
12
330
9
100
AcDbSymbolTableRecord
100
AcDbRegAppTableRecord
  2
ACAD
 70
     0
  0
APPID
  5
30C
330
9
100
AcDbSymbolTableRecord
100
AcDbRegAppTableRecord
  2
ACAD_MLEADERVER
 70
     0
  0
ENDTAB
  0
TABLE
  2
DIMSTYLE
  5
A
330
0
100
AcDbSymbolTable
 70
     3
100
AcDbDimStyleTable
  0
DIMSTYLE
105
27
330
A
100
AcDbSymbolTableRecord
100
AcDbDimStyleTableRecord
  2
Standard
 70
     0
178
     0
340
11
  0
DIMSTYLE
105
187
102
{ACAD_REACTORS
330
188
102
}
330
A
100
AcDbSymbolTableRecord
100
AcDbDimStyleTableRecord
  2
ME10_DIM_10
 70
     0
 41
1.75
 42
0.0
 44
0.75
 73
     0
 74
     0
 77
     1
 78
     8
140
1.75
147
0.75
172
     1
173
     1
174
     1
175
     1
176
     2
177
     2
271
     1
178
     3
271
     1
340
183
  0
DIMSTYLE
105
192
102
{ACAD_REACTORS
330
193
102
}
330
A
100
AcDbSymbolTableRecord
100
AcDbDimStyleTableRecord
  2
ME10_DIM_11
 70
     0
  3
 {\Fgdt;n}<>
 41
1.75
 42
0.0
 44
0.75
 73
     0
 74
     0
 77
     1
 78
     8
140
1.75
147
0.75
172
     1
173
     1
174
     1
175
     1
176
     2
177
     2
178
     3
340
183
  0
ENDTAB
  0
TABLE
  2
BLOCK_RECORD
  5
1
330
0
100
AcDbSymbolTable
 70
    19
  0
BLOCK_RECORD
  5
1F
330
1
100
AcDbSymbolTableRecord
100
AcDbBlockTableRecord
  2
*Model_Space
340
22
  0
BLOCK_RECORD
  5
1B
330
1
100
AcDbSymbolTableRecord
100
AcDbBlockTableRecord
  2
*Paper_Space
340
1E
  0
BLOCK_RECORD
  5
23
330
1
100
AcDbSymbolTableRecord
100
AcDbBlockTableRecord
  2
*Paper_Space0
340
26
  0
BLOCK_RECORD
  5
76
330
1
100
AcDbSymbolTableRecord
100
AcDbBlockTableRecord
  2
WP_G_HF_IP69K_PG9_BK-select__1
340
0
102
{BLKREFS
331
7A
102
}
  0
BLOCK_RECORD
  5
79
330
1
100
AcDbSymbolTableRecord
100
AcDbBlockTableRecord
  2
Allg1
340
0
102
{BLKREFS
331
AC
102
}
  0
BLOCK_RECORD
  5
7D
330
1
100
AcDbSymbolTableRecord
100
AcDbBlockTableRecord
  2
WP_G_HF_IP69K_PG9_BK-select__2
340
0
102
{BLKREFS
331
81
102
}
  0
BLOCK_RECORD
  5
80
330
1
100
AcDbSymbolTableRecord
100
AcDbBlockTableRecord
  2
Drfsicht1
340
0
102
{BLKREFS
331
AD
102
}
  0
BLOCK_RECORD
  5
84
330
1
100
AcDbSymbolTableRecord
100
AcDbBlockTableRecord
  2
WP_G_HF_IP69K_PG9_BK-select__3
340
0
102
{BLKREFS
331
88
102
}
  0
BLOCK_RECORD
  5
87
330
1
100
AcDbSymbolTableRecord
100
AcDbBlockTableRecord
  2
Rückansicht1
340
0
102
{BLKREFS
331
AE
102
}
  0
BLOCK_RECORD
  5
8B
330
1
100
AcDbSymbolTableRecord
100
AcDbBlockTableRecord
  2
WP_G_HF_IP69K_PG9_BK-select__4
340
0
102
{BLKREFS
331
8F
102
}
  0
BLOCK_RECORD
  5
8E
330
1
100
AcDbSymbolTableRecord
100
AcDbBlockTableRecord
  2
SA_Links1
340
0
102
{BLKREFS
331
AF
102
}
  0
BLOCK_RECORD
  5
92
330
1
100
AcDbSymbolTableRecord
100
AcDbBlockTableRecord
  2
WP_G_HF_IP69K_PG9_BK-select__5
340
0
102
{BLKREFS
331
96
102
}
  0
BLOCK_RECORD
  5
95
330
1
100
AcDbSymbolTableRecord
100
AcDbBlockTableRecord
  2
SA_Rechts1
340
0
102
{BLKREFS
331
B0
102
}
  0
BLOCK_RECORD
  5
99
330
1
100
AcDbSymbolTableRecord
100
AcDbBlockTableRecord
  2
WP_G_HF_IP69K_PG9_BK-select__6
340
0
102
{BLKREFS
331
9D
102
}
  0
BLOCK_RECORD
  5
9C
330
1
100
AcDbSymbolTableRecord
100
AcDbBlockTableRecord
  2
Vordans1
340
0
102
{BLKREFS
331
B1
102
}
  0
BLOCK_RECORD
  5
A0
330
1
100
AcDbSymbolTableRecord
100
AcDbBlockTableRecord
  2
_rahmen
340
0
102
{BLKREFS
331
A7
102
}
  0
BLOCK_RECORD
  5
A3
330
1
100
AcDbSymbolTableRecord
100
AcDbBlockTableRecord
  2
_punkt
340
0
102
{BLKREFS
331
A8
102
}
  0
BLOCK_RECORD
  5
A6
330
1
100
AcDbSymbolTableRecord
100
AcDbBlockTableRecord
  2
A4I_CS
340
0
102
{BLKREFS
331
B2
102
}
  0
BLOCK_RECORD
  5
AB
330
1
100
AcDbSymbolTableRecord
100
AcDbBlockTableRecord
  2
1
340
0
102
{BLKREFS
331
B5
102
}
  0
BLOCK_RECORD
  5
17D
330
1
100
AcDbSymbolTableRecord
100
AcDbBlockTableRecord
  2
*D17
340
0
  0
BLOCK_RECORD
  5
189
330
1
100
AcDbSymbolTableRecord
100
AcDbBlockTableRecord
  2
*D18
340
0
  0
ENDTAB
  0
ENDSEC
  0
SECTION
  2
BLOCKS
  0
BLOCK
  5
20
330
1F
100
AcDbEntity
  8
0
100
AcDbBlockBegin
  2
*Model_Space
 70
     0
 10
0.0
 20
0.0
 30
0.0
  3
*Model_Space
  1

  0
ENDBLK
  5
21
330
1F
100
AcDbEntity
  8
0
100
AcDbBlockEnd
  0
BLOCK
  5
1C
330
1B
100
AcDbEntity
 67
     1
  8
0
100
AcDbBlockBegin
  2
*Paper_Space
 70
     0
 10
0.0
 20
0.0
 30
0.0
  3
*Paper_Space
  1

  0
ENDBLK
  5
1D
330
1B
100
AcDbEntity
 67
     1
  8
0
100
AcDbBlockEnd
  0
BLOCK
  5
24
330
23
100
AcDbEntity
  8
0
100
AcDbBlockBegin
  2
*Paper_Space0
 70
     0
 10
0.0
 20
0.0
 30
0.0
  3
*Paper_Space0
  1

  0
ENDBLK
  5
25
330
23
100
AcDbEntity
  8
0
100
AcDbBlockEnd
  0
BLOCK
  5
77
330
76
100
AcDbEntity
  8
0
100
AcDbBlockBegin
  2
WP_G_HF_IP69K_PG9_BK-select__1
 70
     0
 10
-102.6554445661673
 20
-117.3087159916906
 30
0.0
  3
WP_G_HF_IP69K_PG9_BK-select__1
  1

  0
LINE
  5
B6
330
76
100
AcDbEntity
  8
0
  6
Continuous
 62
     7
100
AcDbLine
 10
-80.5925244225979
 20
-95.64231077171253
 30
0.0
 11
-92.28386737368783
 21
-92.26731077171253
 31
0.0
  0
LINE
  5
B7
330
76
100
AcDbEntity
  8
0
  6
Continuous
 62
     7
100
AcDbLine
 10
-86.13952638485019
 20
-114.857689228323
 30
0.0
 11
-97.83086933594011
 21
-111.482689228323
 31
0.0
  0
LINE
  5
B8
330
76
100
AcDbEntity
  8
0
  6
Continuous
 62
     7
100
AcDbLine
 10
-73.23130849043017
 20
-97.76731077171253
 30
0.0
 11
-74.53034659610682
 21
-97.39231077171253
 31
0.0
  0
LINE
  5
B9
330
76
100
AcDbEntity
  8
0
  6
Continuous
 62
     7
100
AcDbLine
 10
-83.00576657696483
 20
-96.3002615855456
 30
0.0
 11
-79.22728225782309
 21
-96.80648249650945
 31
0.0
  0
LINE
  5
BA
330
76
100
AcDbEntity
  8
0
  6
Continuous
 62
     7
100
AcDbLine
 10
-77.66410640399218
 20
-98.6742481773677
 30
0.0
 11
-83.72628423048326
 21
-96.9242481773677
 31
0.0
  0
LINE
  5
BB
330
76
100
AcDbEntity
  8
0
  6
Continuous
 62
     7
100
AcDbLine
 10
-76.30598368201885
 20
-97.64978875607137
 30
0.0
 11
-79.22728225782309
 21
-96.80648249650945
 31
0.0
  0
LINE
  5
BC
330
76
100
AcDbEntity
  8
0
  6
Continuous
 62
     7
100
AcDbLine
 10
-76.94358875047377
 20
-98.0502615855456
 30
0.0
 11
-83.00576657696483
 21
-96.3002615855456
 31
0.0
  0
LINE
  5
BD
330
76
100
AcDbEntity
  8
0
  6
Continuous
 62
     7
100
AcDbLine
 10
-65.23669468805606
 20
-102.5731561865058
 30
0.0
 11
-73.89694872590044
 21
-100.0731561865058
 31
0.0
  0
LINE
  5
BE
330
76
100
AcDbEntity
  8
0
  6
Continuous
 62
     7
100
AcDbLine
 10
-87.504768549625
 20
-103.9749959046874
 30
0.0
 11
-83.72628423048326
 21
-96.9242481773677
 31
0.0
  0
LINE
  5
BF
330
76
100
AcDbEntity
  8
0
  6
Continuous
 62
     7
100
AcDbLine
 10
-78.77831045268246
 20
-116.982689228323
 30
0.0
 11
-80.07734855835912
 21
-116.607689228323
 31
0.0
  0
LINE
  5
C0
330
76
100
AcDbEntity
  8
0
  6
Continuous
 62
     7
100
AcDbLine
 10
-81.80284954989312
 20
-114.6747343191595
 30
0.0
 11
-87.86502737638419
 21
-112.9247343191595
 31
0.0
  0
LINE
  5
C1
330
76
100
AcDbEntity
  8
0
  6
Continuous
 62
     7
100
AcDbLine
 10
-69.4524161793678
 20
-117.1768438135297
 30
0.0
 11
-78.11267021721218
 21
-114.6768438135297
 31
0.0
  0
LINE
  5
C2
330
76
100
AcDbEntity
  8
0
  6
Continuous
 62
     7
100
AcDbLine
 10
-90.76663727880802
 20
-111.97724803887
 30
0.0
 11
-96.57291281143674
 21
-110.3011206679938
 31
0.0
  0
LINE
  5
C3
330
76
100
AcDbEntity
  8
0
  6
Continuous
 62
     7
100
AcDbLine
 10
-90.6238382129122
 20
-112.3490709366629
 30
0.0
 11
-96.85922112016016
 21
-110.5490709366629
 31
0.0
  0
LINE
  5
C4
330
76
100
AcDbEntity
  8
0
  6
Continuous
 62
     7
100
AcDbLine
 10
-87.86502737638419
 20
-112.9247343191595
 30
0.0
 11
-87.86502737638419
 21
-105.367765680876
 31
0.0
  0
LINE
  5
C5
330
76
100
AcDbEntity
  8
0
  6
Continuous
 62
     7
100
AcDbLine
 10
-81.44259072313393
 20
-115.4435175035261
 30
0.0
 11
-87.504768549625
 21
-113.6935175035261
 31
0.0
  0
LINE
  5
C6
330
76
100
AcDbEntity
  8
0
  6
Continuous
 62
     7
100
AcDbLine
 10
-81.44259072313393
 20
-105.7249959046874
 30
0.0
 11
-87.504768549625
 21
-103.9749959046874
 31
0.0
  0
LINE
  5
C7
330
76
100
AcDbEntity
  8
0
  6
Continuous
 62
     7
100
AcDbLine
 10
-81.80284954989312
 20
-107.117765680876
 30
0.0
 11
-87.86502737638419
 21
-105.367765680876
 31
0.0
  0
LINE
  5
C8
330
76
100
AcDbEntity
  8
0
  6
Continuous
 62
     7
100
AcDbLine
 10
-90.6238382129122
 20
-104.1218296007107
 30
0.0
 11
-96.85922112016016
 21
-102.3218296007107
 31
0.0
  0
LINE
  5
C9
330
76
100
AcDbEntity
  8
0
  6
Continuous
 62
     7
100
AcDbLine
 10
-92.71688007558004
 20
-92.14231077171253
 30
0.0
 11
-94.88194358504113
 21
-91.51731077171253
 31
0.0
  0
LINE
  5
CA
330
76
100
AcDbEntity
  8
0
  6
Continuous
 62
     7
100
AcDbLine
 10
-96.85922112016016
 20
-110.5490709366629
 30
0.0
 11
-96.57291281143674
 21
-110.3011206679938
 31
0.0
  0
LINE
  5
CB
330
76
100
AcDbEntity
  8
0
  6
Continuous
 62
     7
100
AcDbLine
 10
-98.26388203783233
 20
-111.357689228323
 30
0.0
 11
-100.4289455472934
 21
-110.732689228323
 31
0.0
  0
SPLINE
  5
CC
330
76
100
AcDbEntity
  8
0
  6
Continuous
 62
     7
100
AcDbSpline
210
0.0
220
0.0
230
1.0
 70
  1064
 71
     3
 72
    11
 73
     7
 74
     5
 42
0.000000001
 43
0.0000000001
 44
0.00000001
 40
0.0
 40
0.0
 40
0.0
 40
0.0
 40
0.753842089668451
 40
1.422396453945316
 40
2.02350852346562
 40
2.586585986062611
 40
2.586585986062611
 40
2.586585986062611
 40
2.586585986062611
 10
-83.00576657696483
 20
-96.3002615855456
 30
0.0
 10
-82.79771245814163
 20
-96.15796064684363
 30
0.0
 10
-82.40514291284525
 20
-95.88945833829024
 30
0.0
 10
-81.7745061696991
 20
-95.6392555143205
 30
0.0
 10
-81.16191467567182
 20
-95.53182893292106
 30
0.0
 10
-80.7781418279551
 20
-95.60629442802235
 30
0.0
 10
-80.5925244225979
 20
-95.64231077171253
 30
0.0
 11
-83.00576657696483
 21
-96.3002615855456
 31
0.0
 11
-82.3673559073545
 21
-95.89937542748561
 31
0.0
 11
-81.74553388471436
 21
-95.65381013438503
 31
0.0
 11
-81.15062946221339
 21
-95.56764487431914
 31
0.0
 11
-80.5925244225979
 21
-95.64231077171253
 31
0.0
  0
SPLINE
  5
CD
330
76
100
AcDbEntity
  8
0
  6
Continuous
 62
     7
100
AcDbSpline
210
0.0
220
0.0
230
1.0
 70
  1064
 71
     3
 72
     9
 73
     5
 74
     3
 42
0.000000001
 43
0.0000000001
 44
0.00000001
 40
0.0
 40
0.0
 40
0.0
 40
0.0
 40
0.8535035787838657
 40
1.827538834134056
 40
1.827538834134056
 40
1.827538834134056
 40
1.827538834134056
 10
-80.5925244225979
 20
-95.64231077171253
 30
0.0
 10
-80.32688762976643
 20
-95.75962825047412
 30
0.0
 10
-79.75810085772814
 20
-96.01083078501594
 30
0.0
 10
-79.41183422779808
 20
-96.52985485551034
 30
0.0
 10
-79.22728225782309
 20
-96.80648249650945
 30
0.0
 11
-80.5925244225979
 21
-95.64231077171253
 31
0.0
 11
-79.84414812679744
 21
-96.05267802446693
 31
0.0
 11
-79.22728225782309
 21
-96.80648249650945
 31
0.0
  0
SPLINE
  5
CE
330
76
100
AcDbEntity
  8
0
  6
Continuous
 62
     7
100
AcDbSpline
210
0.0
220
0.0
230
1.0
 70
  1064
 71
     3
 72
    11
 73
     7
 74
     5
 42
0.000000001
 43
0.0000000001
 44
0.00000001
 40
0.0
 40
0.0
 40
0.0
 40
0.0
 40
0.5476073646149042
 40
1.210858309978883
 40
2.039606151733524
 40
3.030665241208709
 40
3.030665241208709
 40
3.030665241208709
 40
3.030665241208709
 10
-68.731305924275
 20
-114.6788446141704
 30
0.0
 10
-68.8976694783152
 20
-114.5948811304567
 30
0.0
 10
-69.26552919003034
 20
-114.4092227637705
 30
0.0
 10
-69.5987138855439
 20
-113.7799286464145
 30
0.0
 10
-69.81117270928128
 20
-112.9809322546396
 30
0.0
 10
-69.83278530851601
 20
-112.3717963335227
 30
0.0
 10
-69.84455543371193
 20
-112.0400635094789
 30
0.0
 11
-68.731305924275
 21
-114.6788446141704
 31
0.0
 11
-69.19561522110871
 21
-114.3885159950746
 31
0.0
 11
-69.54874193063179
 21
-113.8270862534677
 31
0.0
 11
-69.76947419090989
 21
-113.028274473805
 31
0.0
 11
-69.84455543371193
 21
-112.0400635094789
 31
0.0
  0
SPLINE
  5
CF
330
76
100
AcDbEntity
  8
0
  6
Continuous
 62
     7
100
AcDbSpline
210
0.0
220
0.0
230
1.0
 70
  1064
 71
     3
 72
    17
 73
    13
 74
    11
 42
0.000000001
 43
0.0000000001
 44
0.00000001
 40
0.0
 40
0.0
 40
0.0
 40
0.0
 40
0.9795187882742682
 40
2.026557141538609
 40
3.102840966753182
 40
4.167900413224049
 40
5.182096969757882
 40
6.109743344952175
 40
6.922759728999815
 40
7.605857510179908
 40
8.165393984501302
 40
8.64346703112069
 40
8.64346703112069
 40
8.64346703112069
 40
8.64346703112069
 10
-69.84455543371193
 20
-112.0400635094789
 30
0.0
 10
-69.83238787747315
 20
-111.7134633546996
 30
0.0
 10
-69.80721403623039
 20
-111.0377500516046
 30
0.0
 10
-69.62758838201324
 20
-110.0162936720695
 30
0.0
 10
-69.35563493546196
 20
-108.9878512627525
 30
0.0
 10
-68.99112608276482
 20
-107.9993946369148
 30
0.0
 10
-68.55405825279578
 20
-107.0952271408183
 30
0.0
 10
-68.06376886604531
 20
-106.316972827078
 30
0.0
 10
-67.54071810743133
 20
-105.6939752887439
 30
0.0
 10
-67.00813605374991
 20
-105.2634512968468
 30
0.0
 10
-66.46799181349482
 20
-105.0091307513498
 30
0.0
 10
-66.11872689170441
 20
-105.0515917191856
 30
0.0
 10
-65.95780494314886
 20
-105.0711553858651
 30
0.0
 11
-69.84455543371193
 21
-112.0400635094789
 31
0.0
 11
-69.7865259618998
 21
-111.0622651572916
 31
0.0
 11
-69.61513228161064
 21
-110.0293500978169
 31
0.0
 11
-69.33833030116755
 21
-108.9892695546226
 31
0.0
 11
-68.96897081148285
 21
-107.9903074973836
 31
0.0
 11
-68.5242001486977
 21
-107.0788396085094
 31
0.0
 11
-68.02466654432305
 21
-106.297178572707
 31
0.0
 11
-67.49355974913053
 21
-105.6816128070366
 31
0.0
 11
-66.95553568934284
 21
-105.2607177036378
 31
0.0
 11
-66.43557131778732
 21
-105.0540340917998
 31
0.0
 11
-65.95780494314886
 21
-105.0711553858651
 31
0.0
  0
SPLINE
  5
D0
330
76
100
AcDbEntity
  8
0
  6
Continuous
 62
     7
100
AcDbSpline
210
0.0
220
0.0
230
1.0
 70
  1064
 71
     3
 72
    17
 73
    13
 74
    11
 42
0.000000001
 43
0.0000000001
 44
0.00000001
 40
0.0
 40
0.0
 40
0.0
 40
0.0
 40
0.9561461032181329
 40
2.075219049174303
 40
3.441414610306538
 40
5.067447377808416
 40
6.922740127862848
 40
8.951133240752005
 40
11.08125213364994
 40
13.23381978421378
 40
15.32789649099373
 40
17.28693405761735
 40
17.28693405761735
 40
17.28693405761735
 40
17.28693405761735
 10
-73.23130849043017
 20
-97.76731077171253
 30
0.0
 10
-73.55315239090042
 20
-97.7281834379452
 30
0.0
 10
-74.25168223842526
 20
-97.64326149662975
 30
0.0
 10
-75.33197071294927
 20
-98.15190260862181
 30
0.0
 10
-76.39713482062544
 20
-99.01295058609885
 30
0.0
 10
-77.44323633605116
 20
-100.258945664807
 30
0.0
 10
-78.42381510922581
 20
-101.8154542915101
 30
0.0
 10
-79.29795076866445
 20
-103.6237892838853
 30
0.0
 10
-80.02696847422673
 20
-105.6007025354728
 30
0.0
 10
-80.57087536656883
 20
-107.6575873542739
 30
0.0
 10
-80.93012667936807
 20
-109.7005001094942
 30
0.0
 10
-80.98047435920205
 20
-111.0519267126906
 30
0.0
 10
-81.00480947155631
 20
-111.70512701894
 30
0.0
 11
-73.23130849043017
 21
-97.76731077171253
 31
0.0
 11
-74.1868412397071
 21
-97.73306818358186
 31
0.0
 11
-75.22676998281811
 21
-98.14643540725787
 31
0.0
 11
-76.3028181023935
 21
-98.98822561405552
 31
0.0
 11
-77.36503169277854
 21
-100.2193571453963
 31
0.0
 11
-78.36409890152785
 21
-101.782679217001
 31
0.0
 11
-79.25364022709815
 21
-103.6056149947493
 31
0.0
 11
-79.99235920646754
 21
-105.6035391092275
 31
0.0
 11
-80.54596316735373
 21
-107.683700195616
 31
0.0
 11
-80.88875052793203
 21
-109.7495303145654
 31
0.0
 11
-81.00480947155631
 21
-111.70512701894
 31
0.0
  0
SPLINE
  5
D1
330
76
100
AcDbEntity
  8
0
  6
Continuous
 62
     7
100
AcDbSpline
210
0.0
220
0.0
230
1.0
 70
  1064
 71
     3
 72
    13
 73
     9
 74
     7
 42
0.000000001
 43
0.0000000001
 44
0.00000001
 40
0.0
 40
0.0
 40
0.0
 40
0.0
 40
1.499328764954722
 40
2.969805298413873
 40
4.385036925050221
 40
5.720723714758282
 40
6.955839631466606
 40
8.074090299963553
 40
8.074090299963553
 40
8.074090299963553
 40
8.074090299963553
 10
-81.44259072313393
 20
-105.7249959046874
 30
0.0
 10
-81.2934200954542
 20
-105.2478060426633
 30
0.0
 10
-80.99794938121236
 20
-104.302609093927
 30
0.0
 10
-80.44645713151611
 20
-102.9472856605731
 30
0.0
 10
-79.83264946639814
 20
-101.679644299247
 30
0.0
 10
-79.15870268122828
 20
-100.5336259252092
 30
0.0
 10
-78.4535663719351
 20
-99.52200906805602
 30
0.0
 10
-77.91840118506857
 20
-98.94732239674369
 30
0.0
 10
-77.66410640399218
 20
-98.6742481773677
 30
0.0
 11
-81.44259072313393
 21
-105.7249959046874
 31
0.0
 11
-80.97518986483924
 21
-104.3003825614656
 31
0.0
 11
-80.4247947773577
 21
-102.9367966711099
 31
0.0
 11
-79.80384755319731
 21
-101.6650635607703
 31
0.0
 11
-79.12638542121351
 21
-100.5139318280334
 31
0.0
 11
-78.40772299623347
 21
-99.50942416127239
 31
0.0
 11
-77.66410640399218
 21
-98.6742481773677
 31
0.0
  0
SPLINE
  5
D2
330
76
100
AcDbEntity
  8
0
  6
Continuous
 62
     7
100
AcDbSpline
210
0.0
220
0.0
230
1.0
 70
  1064
 71
     3
 72
    17
 73
    13
 74
    11
 42
0.000000001
 43
0.0000000001
 44
0.00000001
 40
0.0
 40
0.0
 40
0.0
 40
0.0
 40
1.488868553015887
 40
3.080366850108295
 40
4.716318264504491
 40
6.335208623117448
 40
7.876787388956019
 40
9.286809879077584
 40
10.52259478252146
 40
11.56090340927665
 40
12.41139884884812
 40
13.13806988489886
 40
13.13806988489886
 40
13.13806988489886
 40
13.13806988489886
 10
-79.80480947155633
 20
-110.6658965343986
 30
0.0
 10
-79.7863147861375
 20
-110.1694643008549
 30
0.0
 10
-79.74805054882728
 20
-109.1423800817071
 30
0.0
 10
-79.47501955214746
 20
-107.5897663868158
 30
0.0
 10
-79.06165031378497
 20
-106.0265339245671
 30
0.0
 10
-78.50759685759793
 20
-104.5240798533395
 30
0.0
 10
-77.8432537563047
 20
-103.149745259178
 30
0.0
 10
-77.0980138886136
 20
-101.9667987026971
 30
0.0
 10
-76.30297673645765
 20
-101.0198424433685
 30
0.0
 10
-75.49345201469885
 20
-100.3654459789698
 30
0.0
 10
-74.67243277262395
 20
-99.97887873889539
 30
0.0
 10
-74.14155008945166
 20
-100.0434194129406
 30
0.0
 10
-73.89694872590044
 20
-100.0731561865058
 30
0.0
 11
-79.80480947155633
 21
-110.6658965343986
 31
0.0
 11
-79.71660467440186
 21
-109.179643039074
 31
0.0
 11
-79.45608628036236
 21
-107.6096121486725
 31
0.0
 11
-79.03534727008885
 21
-106.0286897230172
 31
0.0
 11
-78.4739208457681
 21
-104.5102673960137
 31
0.0
 11
-77.79786943833469
 21
-103.124836204925
 31
0.0
 11
-77.0385783596852
 21
-101.9367114305055
 31
0.0
 11
-76.23129603099258
 21
-101.0010514666864
 31
0.0
 11
-75.41349946011529
 21
-100.3612909095202
 31
0.0
 11
-74.62315361535092
 21
-100.0471318195265
 31
0.0
 11
-73.89694872590044
 21
-100.0731561865058
 31
0.0
  0
SPLINE
  5
D3
330
76
100
AcDbEntity
  8
0
  6
Continuous
 62
     7
100
AcDbSpline
210
0.0
220
0.0
230
1.0
 70
  1064
 71
     3
 72
    13
 73
     9
 74
     7
 42
0.000000001
 43
0.0000000001
 44
0.00000001
 40
0.0
 40
0.0
 40
0.0
 40
0.0
 40
0.5461949044395636
 40
1.149724770802048
 40
1.849064462284544
 40
2.661181597571627
 40
3.587190859585585
 40
4.617674325170978
 40
4.617674325170978
 40
4.617674325170978
 40
4.617674325170978
 10
-65.23669468805606
 20
-102.5731561865058
 30
0.0
 10
-65.06698030967988
 20
-102.6444333505103
 30
0.0
 10
-64.70973636740248
 20
-102.7944697705181
 30
0.0
 10
-64.29033999474176
 20
-103.2690836944209
 30
0.0
 10
-63.95705346743121
 20
-103.8927514353562
 30
0.0
 10
-63.71883565606657
 20
-104.6742859100933
 30
0.0
 10
-63.56996156461512
 20
-105.587757490577
 30
0.0
 10
-63.55332034875186
 20
-106.2403718831695
 30
0.0
 10
-63.54455543371198
 20
-106.5841034656369
 30
0.0
 11
-65.23669468805606
 21
-102.5731561865058
 31
0.0
 11
-64.7493233110987
 21
-102.8197287317929
 31
0.0
 11
-64.33142663941746
 21
-103.255171816918
 31
0.0
 11
-63.994192011945
 21
-103.8678289907906
 31
0.0
 11
-63.74664705395026
 21
-104.6412989227101
 31
0.0
 11
-63.59541880347131
 21
-105.5548760510006
 31
0.0
 11
-63.54455543371198
 21
-106.5841034656369
 31
0.0
  0
SPLINE
  5
D4
330
76
100
AcDbEntity
  8
0
  6
Continuous
 62
     7
100
AcDbSpline
210
0.0
220
0.0
230
1.0
 70
  1064
 71
     3
 72
    11
 73
     7
 74
     5
 42
0.000000001
 43
0.0000000001
 44
0.00000001
 40
0.0
 40
0.0
 40
0.0
 40
0.0
 40
0.753842089668451
 40
1.422396453945316
 40
2.023508523465634
 40
2.586585986062626
 40
2.586585986062626
 40
2.586585986062626
 40
2.586585986062626
 10
-76.94358875047377
 20
-98.0502615855456
 30
0.0
 10
-76.7355346316506
 20
-97.90796064684363
 30
0.0
 10
-76.34296508635418
 20
-97.63945833829023
 30
0.0
 10
-75.71232834320799
 20
-97.38925551432047
 30
0.0
 10
-75.0997368491808
 20
-97.28182893292109
 30
0.0
 10
-74.715964001464
 20
-97.35629442802234
 30
0.0
 10
-74.53034659610682
 20
-97.39231077171253
 30
0.0
 11
-76.94358875047377
 21
-98.0502615855456
 31
0.0
 11
-76.30517808086343
 21
-97.64937542748561
 31
0.0
 11
-75.6833560582233
 21
-97.40381013438503
 31
0.0
 11
-75.08845163572231
 21
-97.31764487431914
 31
0.0
 11
-74.53034659610682
 21
-97.39231077171253
 31
0.0
  0
SPLINE
  5
D5
330
76
100
AcDbEntity
  8
0
  6
Continuous
 62
     7
100
AcDbSpline
210
0.0
220
0.0
230
1.0
 70
  1064
 71
     3
 72
    13
 73
     9
 74
     7
 42
0.000000001
 43
0.0000000001
 44
0.00000001
 40
0.0
 40
0.0
 40
0.0
 40
0.0
 40
1.499328764954722
 40
2.969805298413868
 40
4.385036925050209
 40
5.720723714758263
 40
6.955839631466597
 40
8.074090299963544
 40
8.074090299963544
 40
8.074090299963544
 40
8.074090299963544
 10
-87.504768549625
 20
-103.9749959046874
 30
0.0
 10
-87.35559792194526
 20
-103.4978060426633
 30
0.0
 10
-87.06012720770343
 20
-102.552609093927
 30
0.0
 10
-86.5086349580072
 20
-101.1972856605731
 30
0.0
 10
-85.89482729288919
 20
-99.92964429924706
 30
0.0
 10
-85.22088050771936
 20
-98.78362592520915
 30
0.0
 10
-84.51574419842619
 20
-97.77200906805604
 30
0.0
 10
-83.98057901155961
 20
-97.19732239674364
 30
0.0
 10
-83.72628423048326
 20
-96.9242481773677
 30
0.0
 11
-87.504768549625
 21
-103.9749959046874
 31
0.0
 11
-87.0373676913303
 21
-102.5503825614656
 31
0.0
 11
-86.48697260384878
 21
-101.1867966711099
 31
0.0
 11
-85.86602537968838
 21
-99.91506356077035
 31
0.0
 11
-85.1885632477046
 21
-98.76393182803344
 31
0.0
 11
-84.46990082272455
 21
-97.75942416127239
 31
0.0
 11
-83.72628423048326
 21
-96.9242481773677
 31
0.0
  0
SPLINE
  5
D6
330
76
100
AcDbEntity
  8
0
  6
Continuous
 62
     7
100
AcDbSpline
210
0.0
220
0.0
230
1.0
 70
  1064
 71
     3
 72
     9
 73
     5
 74
     3
 42
0.000000001
 43
0.0000000001
 44
0.00000001
 40
0.0
 40
0.0
 40
0.0
 40
0.0
 40
0.8535035787838476
 40
1.827538834134034
 40
1.827538834134034
 40
1.827538834134034
 40
1.827538834134034
 10
-80.07734855835912
 20
-116.607689228323
 30
0.0
 10
-80.34298535119056
 20
-116.4903717495614
 30
0.0
 10
-80.91177212322886
 20
-116.2391692150196
 30
0.0
 10
-81.25803875315891
 20
-115.7201451445252
 30
0.0
 10
-81.44259072313393
 20
-115.4435175035261
 30
0.0
 11
-80.07734855835912
 21
-116.607689228323
 31
0.0
 11
-80.82572485415956
 21
-116.1973219755686
 31
0.0
 11
-81.44259072313393
 21
-115.4435175035261
 31
0.0
  0
SPLINE
  5
D7
330
76
100
AcDbEntity
  8
0
  6
Continuous
 62
     7
100
AcDbSpline
210
0.0
220
0.0
230
1.0
 70
  1064
 71
     3
 72
    13
 73
     9
 74
     7
 42
0.000000001
 43
0.0000000001
 44
0.00000001
 40
0.0
 40
0.0
 40
0.0
 40
0.0
 40
1.355899293846803
 40
2.574332533295016
 40
3.642907711379247
 40
4.563091516544248
 40
5.357209764111054
 40
6.075887271551487
 40
6.075887271551487
 40
6.075887271551487
 40
6.075887271551487
 10
-81.00480947155631
 20
-111.70512701894
 30
0.0
 10
-80.9932766886344
 20
-112.1574054159307
 30
0.0
 10
-80.97138035361006
 20
-113.0161085631859
 30
0.0
 10
-80.77549339016383
 20
-114.2180448521233
 30
0.0
 10
-80.4620489022636
 20
-115.246379687839
 30
0.0
 10
-80.02351399864658
 20
-116.0669951373271
 30
0.0
 10
-79.471676668029
 20
-116.6914871474423
 30
0.0
 10
-79.00161884577948
 20
-116.8889034860031
 30
0.0
 10
-78.77831045268246
 20
-116.982689228323
 30
0.0
 11
-81.00480947155631
 21
-111.70512701894
 31
0.0
 11
-80.93788398503087
 21
-113.0593736171456
 31
0.0
 11
-80.73889944492699
 21
-114.2614487859489
 31
0.0
 11
-80.41318239493388
 21
-115.2791723805798
 31
0.0
 11
-79.96945262194379
 21
-116.0853002409385
 31
0.0
 11
-79.41958858025794
 21
-116.6582516687347
 31
0.0
 11
-78.77831045268246
 21
-116.982689228323
 31
0.0
  0
SPLINE
  5
D8
330
76
100
AcDbEntity
  8
0
  6
Continuous
 62
     7
100
AcDbSpline
210
0.0
220
0.0
230
1.0
 70
  1064
 71
     3
 72
    13
 73
     9
 74
     7
 42
0.000000001
 43
0.0000000001
 44
0.00000001
 40
0.0
 40
0.0
 40
0.0
 40
0.0
 40
0.5461949044395508
 40
1.149724770802065
 40
1.849064462284514
 40
2.661181597571594
 40
3.587190859585611
 40
4.617674325171017
 40
4.617674325171017
 40
4.617674325171017
 40
4.617674325171017
 10
-78.11267021721218
 20
-114.6768438135297
 30
0.0
 10
-78.28238459558838
 20
-114.6055666495252
 30
0.0
 10
-78.63962853786575
 20
-114.4555302295174
 30
0.0
 10
-79.05902491052646
 20
-113.9809163056146
 30
0.0
 10
-79.39231143783711
 20
-113.3572485646794
 30
0.0
 10
-79.63052924920173
 20
-112.5757140899422
 30
0.0
 10
-79.77940334065319
 20
-111.6622425094585
 30
0.0
 10
-79.79604455651645
 20
-111.009628116866
 30
0.0
 10
-79.80480947155633
 20
-110.6658965343986
 30
0.0
 11
-78.11267021721218
 21
-114.6768438135297
 31
0.0
 11
-78.60004159416954
 21
-114.4302712682426
 31
0.0
 11
-79.0179382658508
 21
-113.9948281831175
 31
0.0
 11
-79.35517289332327
 21
-113.3821710092449
 31
0.0
 11
-79.60271785131803
 21
-112.6087010773255
 31
0.0
 11
-79.753946101797
 21
-111.695123949035
 31
0.0
 11
-79.80480947155633
 21
-110.6658965343986
 31
0.0
  0
SPLINE
  5
D9
330
76
100
AcDbEntity
  8
0
  6
Continuous
 62
     7
100
AcDbSpline
210
0.0
220
0.0
230
1.0
 70
  1064
 71
     3
 72
    17
 73
    13
 74
    11
 42
0.000000001
 43
0.0000000001
 44
0.00000001
 40
0.0
 40
0.0
 40
0.0
 40
0.0
 40
1.488868553015885
 40
3.080366850108288
 40
4.716318264504472
 40
6.335208623117443
 40
7.876787388956013
 40
9.286809879077579
 40
10.52259478252144
 40
11.56090340927667
 40
12.41139884884814
 40
13.13806988489888
 40
13.13806988489888
 40
13.13806988489888
 40
13.13806988489888
 10
-63.54455543371198
 20
-106.5841034656369
 30
0.0
 10
-63.56305011913078
 20
-107.0805356991806
 30
0.0
 10
-63.60131435644098
 20
-108.1076199183283
 30
0.0
 10
-63.87434535312076
 20
-109.6602336132197
 30
0.0
 10
-64.28771459148331
 20
-111.2234660754685
 30
0.0
 10
-64.8417680476703
 20
-112.725920146696
 30
0.0
 10
-65.50611114896356
 20
-114.1002547408575
 30
0.0
 10
-66.25135101665461
 20
-115.2832012973384
 30
0.0
 10
-67.04638816881067
 20
-116.230157556667
 30
0.0
 10
-67.85591289056934
 20
-116.8845540210657
 30
0.0
 10
-68.6769321326443
 20
-117.2711212611402
 30
0.0
 10
-69.20781481581659
 20
-117.2065805870948
 30
0.0
 10
-69.4524161793678
 20
-117.1768438135297
 30
0.0
 11
-63.54455543371198
 21
-106.5841034656369
 31
0.0
 11
-63.6327602308664
 21
-108.0703569609615
 31
0.0
 11
-63.89327862490588
 21
-109.640387851363
 31
0.0
 11
-64.3140176351794
 21
-111.2213102770183
 31
0.0
 11
-64.87544405950014
 21
-112.7397326040218
 31
0.0
 11
-65.55149546693356
 21
-114.1251637951105
 31
0.0
 11
-66.31078654558304
 21
-115.31328856953
 31
0.0
 11
-67.11806887427566
 21
-116.248948533349
 31
0.0
 11
-67.93586544515296
 21
-116.8887090905153
 31
0.0
 11
-68.72621128991733
 21
-117.202868180509
 31
0.0
 11
-69.4524161793678
 21
-117.1768438135297
 31
0.0
  0
SPLINE
  5
DA
330
76
100
AcDbEntity
  8
0
  6
Continuous
 62
     7
100
AcDbSpline
210
0.0
220
0.0
230
1.0
 70
  1064
 71
     3
 72
    11
 73
     7
 74
     5
 42
0.000000001
 43
0.0000000001
 44
0.00000001
 40
0.0
 40
0.0
 40
0.0
 40
0.0
 40
1.199425575775372
 40
2.223746444970204
 40
3.09514104280865
 40
3.872835919401295
 40
3.872835919401295
 40
3.872835919401295
 40
3.872835919401295
 10
-71.19310530758473
 20
-100.8536885492114
 30
0.0
 10
-71.28232696146718
 20
-100.4624178664498
 30
0.0
 10
-71.447744770264
 20
-99.73699829659013
 30
0.0
 10
-71.90073314925255
 20
-98.80519510948116
 30
0.0
 10
-72.4792519900063
 20
-98.09240801154863
 30
0.0
 10
-72.99030211814359
 20
-97.87149244224923
 30
0.0
 10
-73.23130849043017
 20
-97.76731077171253
 30
0.0
 11
-71.19310530758473
 21
-100.8536885492114
 31
0.0
 11
-71.50732876404406
 21
-99.69615439291891
 31
0.0
 11
-71.96188154495857
 21
-98.77821375280095
 31
0.0
 11
-72.54258120582541
 21
-98.12850885232335
 31
0.0
 11
-73.23130849043017
 21
-97.76731077171253
 31
0.0
  0
SPLINE
  5
DB
330
76
100
AcDbEntity
  8
0
  6
Continuous
 62
     7
100
AcDbSpline
210
0.0
220
0.0
230
1.0
 70
  1064
 71
     3
 72
    11
 73
     7
 74
     5
 42
0.000000001
 43
0.0000000001
 44
0.00000001
 40
0.0
 40
0.0
 40
0.0
 40
0.0
 40
0.7776948765926138
 40
1.649089474431093
 40
2.673410343625924
 40
3.872835919401274
 40
3.872835919401274
 40
3.872835919401274
 40
3.872835919401274
 10
-78.77831045268246
 20
-116.982689228323
 30
0.0
 10
-78.51885953872093
 20
-117.0229771322529
 30
0.0
 10
-77.96869804869412
 20
-117.1084069696606
 30
0.0
 10
-77.09931027002592
 20
-116.8135945099704
 30
0.0
 10
-76.21941842235029
 20
-116.2665607016925
 30
0.0
 10
-75.69284533742939
 20
-115.7409016962152
 30
0.0
 10
-75.40882679889647
 20
-115.4573761762353
 30
0.0
 11
-78.77831045268246
 21
-116.982689228323
 31
0.0
 11
-78.00304477272022
 21
-117.0441095138044
 31
0.0
 11
-77.1654306296625
 21
-116.8038365415724
 31
0.0
 11
-76.29160294519126
 21
-116.2693663110928
 31
0.0
 11
-75.40882679889647
 21
-115.4573761762353
 31
0.0
  0
SPLINE
  5
DC
330
76
100
AcDbEntity
  8
0
  6
Continuous
 62
     7
100
AcDbSpline
210
0.0
220
0.0
230
1.0
 70
  1064
 71
     3
 72
    13
 73
     9
 74
     7
 42
0.000000001
 43
0.0000000001
 44
0.00000001
 40
0.0
 40
0.0
 40
0.0
 40
0.0
 40
1.073537818440877
 40
2.299198990189419
 40
3.664451273179281
 40
5.147172860925935
 40
6.718731816024881
 40
8.346195601603569
 40
8.346195601603569
 40
8.346195601603569
 40
8.346195601603569
 10
-90.6238382129122
 20
-112.3490709366629
 30
0.0
 10
-90.74460651828511
 20
-112.0114344846622
 30
0.0
 10
-91.00325632588884
 20
-111.2883175332347
 30
0.0
 10
-91.1816743678647
 20
-110.0733411066887
 30
0.0
 10
-91.24745995721364
 20
-108.71613607524
 30
0.0
 10
-91.1726069172264
 20
-107.2427021017417
 30
0.0
 10
-90.97558138058125
 20
-105.6925232539725
 30
0.0
 10
-90.74244401159633
 20
-104.6514585597043
 30
0.0
 10
-90.6238382129122
 20
-104.1218296007107
 30
0.0
 11
-90.6238382129122
 21
-112.3490709366629
 31
0.0
 11
-90.95415972443851
 21
-111.3276155285572
 31
0.0
 11
-91.15601085904717
 21
-110.118689790735
 31
0.0
 11
-91.223909152749
 21
-108.7551269466583
 31
0.0
 11
-91.15601085904717
 21
-107.2739608081427
 31
0.0
 11
-90.95415972443851
 21
-105.715418649613
 31
0.0
 11
-90.6238382129122
 21
-104.1218296007107
 31
0.0
  0
SPLINE
  5
DD
330
76
100
AcDbEntity
  8
0
  6
Continuous
 62
     7
100
AcDbSpline
210
0.0
220
0.0
230
1.0
 70
  1064
 71
     3
 72
     9
 73
     5
 74
     3
 42
0.000000001
 43
0.0000000001
 44
0.00000001
 40
0.0
 40
0.0
 40
0.0
 40
0.0
 40
0.1127625840378589
 40
0.2258554024206704
 40
0.2258554024206704
 40
0.2258554024206704
 40
0.2258554024206704
 10
-98.26388203783233
 20
-111.357689228323
 30
0.0
 10
-98.22759542431953
 20
-111.3675728696442
 30
0.0
 10
-98.1549159243387
 20
-111.3873690778993
 30
0.0
 10
-98.08075302714387
 20
-111.4005632650345
 30
0.0
 10
-98.04361735788038
 20
-111.4071699947436
 30
0.0
 11
-98.26388203783233
 21
-111.357689228323
 31
0.0
 11
-98.1546524291973
 21
-111.3856944604038
 31
0.0
 11
-98.04361735788038
 21
-111.4071699947436
 31
0.0
  0
SPLINE
  5
DE
330
76
100
AcDbEntity
  8
0
  6
Continuous
 62
     7
100
AcDbSpline
210
0.0
220
0.0
230
1.0
 70
  1064
 71
     3
 72
    13
 73
     9
 74
     7
 42
0.000000001
 43
0.0000000001
 44
0.00000001
 40
0.0
 40
0.0
 40
0.0
 40
0.0
 40
1.355899293846805
 40
2.574332533295022
 40
3.642907711379253
 40
4.563091516544247
 40
5.357209764111063
 40
6.075887271551483
 40
6.075887271551483
 40
6.075887271551483
 40
6.075887271551483
 10
-100.057368354814
 20
-106.20512701894
 30
0.0
 10
-100.0458355718921
 20
-106.6574054159307
 30
0.0
 10
-100.0239392368677
 20
-107.516108563186
 30
0.0
 10
-99.82805227342143
 20
-108.7180448521232
 30
0.0
 10
-99.51460778552126
 20
-109.746379687839
 30
0.0
 10
-99.07607288190427
 20
-110.5669951373272
 30
0.0
 10
-98.52423555128662
 20
-111.1914871474422
 30
0.0
 10
-98.05417772903712
 20
-111.3889034860031
 30
0.0
 10
-97.83086933594011
 20
-111.482689228323
 30
0.0
 11
-100.057368354814
 21
-106.20512701894
 31
0.0
 11
-99.99044286828853
 21
-107.5593736171456
 31
0.0
 11
-99.79145832818462
 21
-108.7614487859489
 31
0.0
 11
-99.46574127819152
 21
-109.7791723805798
 31
0.0
 11
-99.02201150520143
 21
-110.5853002409385
 31
0.0
 11
-98.47214746351557
 21
-111.1582516687347
 31
0.0
 11
-97.83086933594011
 21
-111.482689228323
 31
0.0
  0
SPLINE
  5
DF
330
76
100
AcDbEntity
  8
0
  6
Continuous
 62
     7
100
AcDbSpline
210
0.0
220
0.0
230
1.0
 70
  1064
 71
     3
 72
    13
 73
     9
 74
     7
 42
0.000000001
 43
0.0000000001
 44
0.00000001
 40
0.0
 40
0.0
 40
0.0
 40
0.0
 40
1.010299537454928
 40
2.146165965786715
 40
3.396909439271301
 40
4.745446882679976
 40
6.170199504594908
 40
7.646497016457811
 40
7.646497016457811
 40
7.646497016457811
 40
7.646497016457811
 10
-87.86502737638419
 20
-112.9247343191595
 30
0.0
 10
-87.96591496621522
 20
-112.6028879078847
 30
0.0
 10
-88.18022912643808
 20
-111.9191938224623
 30
0.0
 10
-88.33054488449713
 20
-110.7922847158852
 30
0.0
 10
-88.38561716466143
 20
-109.5476278351467
 30
0.0
 10
-88.32359524957874
 20
-108.206113684917
 30
0.0
 10
-88.15920596800115
 20
-106.7975211806121
 30
0.0
 10
-87.96424159891158
 20
-105.8499628134486
 30
0.0
 10
-87.86502737638419
 20
-105.367765680876
 30
0.0
 11
-87.86502737638419
 21
-112.9247343191595
 31
0.0
 11
-88.14124311033078
 21
-111.9529267111462
 31
0.0
 11
-88.3095104478293
 21
-110.8295929875856
 31
0.0
 11
-88.36602535565271
 21
-109.580126977309
 31
0.0
 11
-88.3095104478293
 21
-108.2327742752971
 31
0.0
 11
-88.14124311033078
 21
-106.8179929739347
 31
0.0
 11
-87.86502737638419
 21
-105.367765680876
 31
0.0
  0
SPLINE
  5
E0
330
76
100
AcDbEntity
  8
0
  6
Continuous
 62
     7
100
AcDbSpline
210
0.0
220
0.0
230
1.0
 70
  1064
 71
     3
 72
    13
 73
     9
 74
     7
 42
0.000000001
 43
0.0000000001
 44
0.00000001
 40
0.0
 40
0.0
 40
0.0
 40
0.0
 40
1.010299537454928
 40
2.146165965786715
 40
3.396909439271301
 40
4.745446882679976
 40
6.170199504594907
 40
7.646497016457811
 40
7.646497016457811
 40
7.646497016457811
 40
7.646497016457811
 10
-81.80284954989312
 20
-114.6747343191595
 30
0.0
 10
-81.90373713972416
 20
-114.3528879078847
 30
0.0
 10
-82.11805129994701
 20
-113.6691938224623
 30
0.0
 10
-82.26836705800608
 20
-112.5422847158852
 30
0.0
 10
-82.32343933817037
 20
-111.2976278351467
 30
0.0
 10
-82.26141742308768
 20
-109.956113684917
 30
0.0
 10
-82.0970281415101
 20
-108.5475211806121
 30
0.0
 10
-81.90206377242052
 20
-107.5999628134486
 30
0.0
 10
-81.80284954989312
 20
-107.117765680876
 30
0.0
 11
-81.80284954989312
 21
-114.6747343191595
 31
0.0
 11
-82.07906528383971
 21
-113.7029267111462
 31
0.0
 11
-82.24733262133823
 21
-112.5795929875856
 31
0.0
 11
-82.30384752916164
 21
-111.330126977309
 31
0.0
 11
-82.24733262133823
 21
-109.9827742752971
 31
0.0
 11
-82.07906528383972
 21
-108.5679929739347
 31
0.0
 11
-81.80284954989312
 21
-107.117765680876
 31
0.0
  0
SPLINE
  5
E1
330
76
100
AcDbEntity
  8
0
  6
Continuous
 62
     7
100
AcDbSpline
210
0.0
220
0.0
230
1.0
 70
  1064
 71
     3
 72
     9
 73
     5
 74
     3
 42
0.000000001
 43
0.0000000001
 44
0.00000001
 40
0.0
 40
0.0
 40
0.0
 40
0.0
 40
0.9740352553502236
 40
1.827538834134062
 40
1.827538834134062
 40
1.827538834134062
 40
1.827538834134062
 10
-84.36388929893816
 20
-114.6002112439641
 30
0.0
 10
-84.66747423629803
 20
-114.7359258975376
 30
0.0
 10
-85.23707709560732
 20
-114.9905612199546
 30
0.0
 10
-85.85223376512172
 20
-114.8999887221535
 30
0.0
 10
-86.13952638485019
 20
-114.857689228323
 30
0.0
 11
-84.36388929893816
 21
-114.6002112439641
 31
0.0
 11
-85.2875843094704
 21
-114.9092940967636
 31
0.0
 11
-86.13952638485019
 21
-114.857689228323
 31
0.0
  0
SPLINE
  5
E2
330
76
100
AcDbEntity
  8
0
  6
Continuous
 62
     7
100
AcDbSpline
210
0.0
220
0.0
230
1.0
 70
  1064
 71
     3
 72
     9
 73
     5
 74
     3
 42
0.000000001
 43
0.0000000001
 44
0.00000001
 40
0.0
 40
0.0
 40
0.0
 40
0.0
 40
0.8535035787838476
 40
1.827538834134034
 40
1.827538834134034
 40
1.827538834134034
 40
1.827538834134034
 10
-86.13952638485019
 20
-114.857689228323
 30
0.0
 10
-86.40516317768162
 20
-114.7403717495614
 30
0.0
 10
-86.97394994971992
 20
-114.4891692150196
 30
0.0
 10
-87.32021657964998
 20
-113.9701451445252
 30
0.0
 10
-87.504768549625
 20
-113.6935175035261
 30
0.0
 11
-86.13952638485019
 21
-114.857689228323
 31
0.0
 11
-86.88790268065063
 21
-114.4473219755686
 31
0.0
 11
-87.504768549625
 21
-113.6935175035261
 31
0.0
  0
SPLINE
  5
E3
330
76
100
AcDbEntity
  8
0
  6
Continuous
 62
     7
100
AcDbSpline
210
0.0
220
0.0
230
1.0
 70
  1064
 71
     3
 72
    21
 73
    17
 74
    15
 42
0.000000001
 43
0.0000000001
 44
0.00000001
 40
0.0
 40
0.0
 40
0.0
 40
0.0
 40
0.4978147528545857
 40
1.086167241986906
 40
1.809604225878322
 40
2.672348135566076
 40
3.654842336429392
 40
4.723718295849706
 40
5.83764636361209
 40
6.951574431374478
 40
8.020450390794782
 40
9.00294459165807
 40
9.865688501345835
 40
10.58912548523727
 40
11.17747797436959
 40
11.67529272722416
 40
11.67529272722416
 40
11.67529272722416
 40
11.67529272722416
 10
-65.95780494314886
 20
-105.0711553858651
 30
0.0
 10
-65.80555268715231
 20
-105.1444271645879
 30
0.0
 10
-65.47335801661097
 20
-105.3042966975871
 30
0.0
 10
-65.1471715430348
 20
-105.8422705005266
 30
0.0
 10
-64.92893855508234
 20
-106.5325138316004
 30
0.0
 10
-64.83069739978163
 20
-107.3891429670565
 30
0.0
 10
-64.85177782767018
 20
-108.3618333587523
 30
0.0
 10
-64.99296822785038
 20
-109.409648186711
 30
0.0
 10
-65.24736908060655
 20
-110.4804055527709
 30
0.0
 10
-65.60275486999582
 20
-111.5220110786562
 30
0.0
 10
-66.04170715259663
 20
-112.4838694551298
 30
0.0
 10
-66.54225423006054
 20
-113.3181497472258
 30
0.0
 10
-67.08191218788537
 20
-113.9906332703424
 30
0.0
 10
-67.63442826046219
 20
-114.4583805126291
 30
0.0
 10
-68.19713926420577
 20
-114.7397517166623
 30
0.0
 10
-68.56342772504446
 20
-114.6979865376982
 30
0.0
 10
-68.731305924275
 20
-114.6788446141704
 30
0.0
 11
-65.95780494314886
 21
-105.0711553858651
 31
0.0
 11
-65.52970234357583
 21
-105.3252177795793
 31
0.0
 11
-65.19260368206326
 21
-105.8074243143415
 31
0.0
 11
-64.96341331066861
 21
-106.4935969170373
 31
0.0
 11
-64.85362285734797
 21
-107.3493264929082
 31
0.0
 11
-64.86873867802183
 21
-108.3317044052669
 31
0.0
 11
-65.00800177866479
 21
-109.3914692849108
 31
0.0
 11
-65.26442991773936
 21
-110.4754805133152
 31
0.0
 11
-65.62516380731374
 21
-111.5293812651552
 31
0.0
 11
-66.07211552696053
 21
-112.5003240912948
 31
0.0
 11
-66.58287243452531
 21
-113.3396227461845
 31
0.0
 11
-67.13182346516517
 21
-114.00519003551
 31
0.0
 11
-67.69144172115475
 21
-114.4636532015261
 31
0.0
 11
-68.23366557872689
 21
-114.6920211897393
 31
0.0
 11
-68.731305924275
 21
-114.6788446141704
 31
0.0
  0
SPLINE
  5
E4
330
76
100
AcDbEntity
  8
0
  6
Continuous
 62
     7
100
AcDbSpline
210
0.0
220
0.0
230
1.0
 70
  1064
 71
     3
 72
    13
 73
     9
 74
     7
 42
0.000000001
 43
0.0000000001
 44
0.00000001
 40
0.0
 40
0.0
 40
0.0
 40
0.0
 40
0.718677507440459
 40
1.512795755007264
 40
2.432979560172266
 40
3.501554738256496
 40
4.719987977704709
 40
6.075887271551514
 40
6.075887271551514
 40
6.075887271551514
 40
6.075887271551514
 10
-100.4289455472934
 20
-110.732689228323
 30
0.0
 10
-100.6522539403904
 20
-110.6389034860031
 30
0.0
 10
-101.12231176264
 20
-110.4414871474422
 30
0.0
 10
-101.6741490932576
 20
-109.8169951373272
 30
0.0
 10
-102.1126839968746
 20
-108.996379687839
 30
0.0
 10
-102.4261284847747
 20
-107.9680448521232
 30
0.0
 10
-102.622015448221
 20
-106.766108563186
 30
0.0
 10
-102.6439117832454
 20
-105.9074054159307
 30
0.0
 10
-102.6554445661673
 20
-105.45512701894
 30
0.0
 11
-100.4289455472934
 21
-110.732689228323
 31
0.0
 11
-101.0702236748689
 21
-110.4082516687347
 31
0.0
 11
-101.6200877165547
 21
-109.8353002409385
 31
0.0
 11
-102.0638174895448
 21
-109.0291723805798
 31
0.0
 11
-102.3895345395379
 21
-108.0114487859489
 31
0.0
 11
-102.5885190796418
 21
-106.8093736171456
 31
0.0
 11
-102.6554445661673
 21
-105.45512701894
 31
0.0
  0
SPLINE
  5
E5
330
76
100
AcDbEntity
  8
0
  6
Continuous
 62
     7
100
AcDbSpline
210
0.0
220
0.0
230
1.0
 70
  1064
 71
     3
 72
    17
 73
    13
 74
    11
 42
0.000000001
 43
0.0000000001
 44
0.00000001
 40
0.0
 40
0.0
 40
0.0
 40
0.0
 40
1.959037566623621
 40
4.053114273403578
 40
6.205681923967411
 40
8.3358008168653
 40
10.36419392975448
 40
12.21948667980892
 40
13.8455194473108
 40
15.21171500844305
 40
16.33078795439922
 40
17.28693405761735
 40
17.28693405761735
 40
17.28693405761735
 40
17.28693405761735
 10
-102.6554445661673
 20
-105.45512701894
 30
0.0
 10
-102.6311094538131
 20
-104.8019267126907
 30
0.0
 10
-102.580761773979
 20
-103.4505001094942
 30
0.0
 10
-102.2215104611798
 20
-101.407587354274
 30
0.0
 10
-101.6776035688377
 20
-99.35070253547283
 30
0.0
 10
-100.9485858632755
 20
-97.37378928388527
 30
0.0
 10
-100.0744502038368
 20
-95.56545429151011
 30
0.0
 10
-99.09387143066209
 20
-94.00894566480699
 30
0.0
 10
-98.04776991523642
 20
-92.76295058609884
 30
0.0
 10
-96.98260580756025
 20
-91.90190260862187
 30
0.0
 10
-95.90231733303622
 20
-91.39326149662972
 30
0.0
 10
-95.20378748551136
 20
-91.4781834379452
 30
0.0
 10
-94.88194358504113
 20
-91.51731077171253
 30
0.0
 11
-102.6554445661673
 21
-105.45512701894
 31
0.0
 11
-102.539385622543
 21
-103.4995303145654
 31
0.0
 11
-102.1965982619647
 21
-101.433700195616
 31
0.0
 11
-101.6429943010785
 21
-99.3535391092275
 31
0.0
 11
-100.9042753217092
 21
-97.35561499474935
 31
0.0
 11
-100.0147339961388
 21
-95.53267921700102
 31
0.0
 11
-99.0156667873895
 21
-93.96935714539629
 31
0.0
 11
-97.95345319700448
 21
-92.73822561405554
 31
0.0
 11
-96.87740507742907
 21
-91.89643540725788
 31
0.0
 11
-95.83747633431807
 21
-91.48306818358188
 31
0.0
 11
-94.88194358504113
 21
-91.51731077171253
 31
0.0
  0
SPLINE
  5
E6
330
76
100
AcDbEntity
  8
0
  6
Continuous
 62
     7
100
AcDbSpline
210
0.0
220
0.0
230
1.0
 70
  1064
 71
     3
 72
     9
 73
     5
 74
     3
 42
0.000000001
 43
0.0000000001
 44
0.00000001
 40
0.0
 40
0.0
 40
0.0
 40
0.0
 40
0.1130928183828359
 40
0.2258554024206899
 40
0.2258554024206899
 40
0.2258554024206899
 40
0.2258554024206899
 10
-92.50413205363976
 20
-92.21783000529192
 30
0.0
 10
-92.5390755250252
 20
-92.20362927937275
 30
0.0
 10
-92.60886043880014
 20
-92.17526931280159
 30
0.0
 10
-92.68090864293623
 20
-92.15328623159111
 30
0.0
 10
-92.71688007558004
 20
-92.14231077171253
 30
0.0
 11
-92.50413205363976
 21
-92.21783000529192
 31
0.0
 11
-92.60952994986064
 21
-92.176826723597
 31
0.0
 11
-92.71688007558004
 21
-92.14231077171253
 31
0.0
  0
SPLINE
  5
E7
330
76
100
AcDbEntity
  8
0
  6
Continuous
 62
     7
100
AcDbSpline
210
0.0
220
0.0
230
1.0
 70
  1064
 71
     3
 72
    13
 73
     9
 74
     7
 42
0.000000001
 43
0.0000000001
 44
0.00000001
 40
0.0
 40
0.0
 40
0.0
 40
0.0
 40
1.073537818440882
 40
2.299198990189423
 40
3.664451273179285
 40
5.14717286092594
 40
6.718731816024945
 40
8.346195601603576
 40
8.346195601603576
 40
8.346195601603576
 40
8.346195601603576
 10
-96.85922112016016
 20
-110.5490709366629
 30
0.0
 10
-96.97998942553306
 20
-110.2114344846622
 30
0.0
 10
-97.23863923313682
 20
-109.4883175332347
 30
0.0
 10
-97.41705727511271
 20
-108.2733411066888
 30
0.0
 10
-97.4828428644616
 20
-106.91613607524
 30
0.0
 10
-97.40798982447437
 20
-105.4427021017417
 30
0.0
 10
-97.21096428782921
 20
-103.8925232539725
 30
0.0
 10
-96.97782691884429
 20
-102.8514585597043
 30
0.0
 10
-96.85922112016016
 20
-102.3218296007107
 30
0.0
 11
-96.85922112016016
 21
-110.5490709366629
 31
0.0
 11
-97.18954263168648
 21
-109.5276155285572
 31
0.0
 11
-97.39139376629514
 21
-108.318689790735
 31
0.0
 11
-97.45929205999697
 21
-106.9551269466583
 31
0.0
 11
-97.39139376629514
 21
-105.4739608081427
 31
0.0
 11
-97.18954263168646
 21
-103.9154186496129
 31
0.0
 11
-96.85922112016016
 21
-102.3218296007107
 31
0.0
  0
SPLINE
  5
E8
330
76
100
AcDbEntity
  8
0
  6
Continuous
 62
     7
100
AcDbSpline
210
0.0
220
0.0
230
1.0
 70
  1064
 71
     3
 72
    13
 73
     9
 74
     7
 42
0.000000001
 43
0.0000000001
 44
0.00000001
 40
0.0
 40
0.0
 40
0.0
 40
0.0
 40
1.020048065936019
 40
2.192368666208143
 40
3.505875347812685
 40
4.938949225721112
 40
6.462892592711746
 40
8.044354135822745
 40
8.044354135822745
 40
8.044354135822745
 40
8.044354135822745
 10
-96.57291281143674
 20
-110.3011206679938
 30
0.0
 10
-96.69722143082903
 20
-109.9837809393874
 30
0.0
 10
-96.96439541651402
 20
-109.3017290773479
 30
0.0
 10
-97.15407625771888
 20
-108.1414130817834
 30
0.0
 10
-97.23267061988551
 20
-106.8366039525922
 30
0.0
 10
-97.17113881523005
 20
-105.4121391641194
 30
0.0
 10
-96.98783654794582
 20
-103.9083413682071
 30
0.0
 10
-96.7641645370273
 20
-102.8971252333996
 30
0.0
 10
-96.65025710318005
 20
-102.3821523164379
 30
0.0
 11
-96.57291281143674
 21
-110.3011206679938
 31
0.0
 11
-96.91367894660245
 21
-109.3396756606411
 31
0.0
 11
-97.1276132337961
 21
-108.187040538867
 31
0.0
 11
-97.2086238673687
 21
-106.8760344019664
 31
0.0
 11
-97.15440454768472
 21
-105.4439865655413
 31
0.0
 11
-96.96649873068095
 21
-103.9316721864884
 31
0.0
 11
-96.65025710318005
 21
-102.3821523164379
 31
0.0
  0
SPLINE
  5
E9
330
76
100
AcDbEntity
  8
0
  6
Continuous
 62
     7
100
AcDbSpline
210
0.0
220
0.0
230
1.0
 70
  1064
 71
     3
 72
    13
 73
     9
 74
     7
 42
0.000000001
 43
0.0000000001
 44
0.00000001
 40
0.0
 40
0.0
 40
0.0
 40
0.0
 40
1.355899293846903
 40
2.574332533295116
 40
3.642907711379346
 40
4.563091516544348
 40
5.357209764111163
 40
6.075887271551584
 40
6.075887271551584
 40
6.075887271551584
 40
6.075887271551584
 10
-100.4903810567062
 20
-106.0801270189399
 30
0.0
 10
-100.4788482737843
 20
-106.5324054159306
 30
0.0
 10
-100.45695193876
 20
-107.391108563186
 30
0.0
 10
-100.2610649753136
 20
-108.5930448521232
 30
0.0
 10
-99.9476204874135
 20
-109.621379687839
 30
0.0
 10
-99.50908558379649
 20
-110.4419951373272
 30
0.0
 10
-98.95724825317885
 20
-111.0664871474422
 30
0.0
 10
-98.48719043092935
 20
-111.2639034860031
 30
0.0
 10
-98.26388203783233
 20
-111.357689228323
 30
0.0
 11
-100.4903810567062
 21
-106.0801270189399
 31
0.0
 11
-100.4234555701807
 21
-107.4343736171456
 31
0.0
 11
-100.2244710300769
 21
-108.6364487859489
 31
0.0
 11
-99.89875398008375
 21
-109.6541723805798
 31
0.0
 11
-99.45502420709366
 21
-110.4603002409385
 31
0.0
 11
-98.90516016540779
 21
-111.0332516687347
 31
0.0
 11
-98.26388203783233
 21
-111.357689228323
 31
0.0
  0
SPLINE
  5
EA
330
76
100
AcDbEntity
  8
0
  6
Continuous
 62
     7
100
AcDbSpline
210
0.0
220
0.0
230
1.0
 70
  1064
 71
     3
 72
    17
 73
    13
 74
    11
 42
0.000000001
 43
0.0000000001
 44
0.00000001
 40
0.0
 40
0.0
 40
0.0
 40
0.0
 40
0.9561461032181191
 40
2.075219049174303
 40
3.441414610306555
 40
5.067447377808435
 40
6.922740127862887
 40
8.951133240752043
 40
11.08125213364995
 40
13.23381978421378
 40
15.32789649099373
 40
17.28693405761725
 40
17.28693405761725
 40
17.28693405761725
 40
17.28693405761725
 10
-92.71688007558004
 20
-92.14231077171253
 30
0.0
 10
-93.03872397605025
 20
-92.10318343794518
 30
0.0
 10
-93.73725382357512
 20
-92.0182614966297
 30
0.0
 10
-94.81754229809917
 20
-92.52690260862184
 30
0.0
 10
-95.8827064057753
 20
-93.38795058609882
 30
0.0
 10
-96.92880792120098
 20
-94.63394566480702
 30
0.0
 10
-97.9093866943757
 20
-96.1904542915101
 30
0.0
 10
-98.7835223538143
 20
-97.99878928388532
 30
0.0
 10
-99.51254005937663
 20
-99.9757025354728
 30
0.0
 10
-100.0564469517187
 20
-102.032587354274
 30
0.0
 10
-100.415698264518
 20
-104.0755001094941
 30
0.0
 10
-100.4660459443519
 20
-105.4269267126906
 30
0.0
 10
-100.4903810567062
 20
-106.0801270189399
 30
0.0
 11
-92.71688007558004
 21
-92.14231077171253
 31
0.0
 11
-93.67241282485696
 21
-92.10806818358185
 31
0.0
 11
-94.71234156796798
 21
-92.52143540725785
 31
0.0
 11
-95.78838968754337
 21
-93.36322561405554
 31
0.0
 11
-96.8506032779284
 21
-94.59435714539629
 31
0.0
 11
-97.84967048667772
 21
-96.15767921700103
 31
0.0
 11
-98.73921181224802
 21
-97.98061499474935
 31
0.0
 11
-99.47793079161741
 21
-99.97853910922751
 31
0.0
 11
-100.0315347525036
 21
-102.058700195616
 31
0.0
 11
-100.3743221130819
 21
-104.1245303145654
 31
0.0
 11
-100.4903810567062
 21
-106.0801270189399
 31
0.0
  0
SPLINE
  5
EB
330
76
100
AcDbEntity
  8
0
  6
Continuous
 62
     7
100
AcDbSpline
210
0.0
220
0.0
230
1.0
 70
  1064
 71
     3
 72
    17
 73
    13
 74
    11
 42
0.000000001
 43
0.0000000001
 44
0.00000001
 40
0.0
 40
0.0
 40
0.0
 40
0.0
 40
0.9561461032181187
 40
2.075219049174295
 40
3.441414610306518
 40
5.067447377808416
 40
6.922740127862861
 40
8.951133240752018
 40
11.08125213364993
 40
13.23381978421375
 40
15.32789649099371
 40
17.28693405761733
 40
17.28693405761733
 40
17.28693405761733
 40
17.28693405761733
 10
-92.28386737368783
 20
-92.26731077171253
 30
0.0
 10
-92.60571127415807
 20
-92.2281834379452
 30
0.0
 10
-93.3042411216829
 20
-92.1432614966297
 30
0.0
 10
-94.38452959620695
 20
-92.65190260862185
 30
0.0
 10
-95.44969370388307
 20
-93.51295058609887
 30
0.0
 10
-96.49579521930877
 20
-94.75894566480697
 30
0.0
 10
-97.47637399248346
 20
-96.31545429151012
 30
0.0
 10
-98.3505096519221
 20
-98.12378928388527
 30
0.0
 10
-99.07952735748438
 20
-100.1007025354728
 30
0.0
 10
-99.62343424982649
 20
-102.1575873542739
 30
0.0
 10
-99.98268556262579
 20
-104.2005001094942
 30
0.0
 10
-100.0330332424597
 20
-105.5519267126906
 30
0.0
 10
-100.057368354814
 20
-106.20512701894
 30
0.0
 11
-92.28386737368783
 21
-92.26731077171253
 31
0.0
 11
-93.23940012296475
 21
-92.23306818358186
 31
0.0
 11
-94.27932886607576
 21
-92.64643540725788
 31
0.0
 11
-95.35537698565113
 21
-93.48822561405554
 31
0.0
 11
-96.41759057603619
 21
-94.71935714539629
 31
0.0
 11
-97.4166577847855
 21
-96.28267921700103
 31
0.0
 11
-98.30619911035579
 21
-98.10561499474935
 31
0.0
 11
-99.04491808972519
 21
-100.1035391092275
 31
0.0
 11
-99.5985220506114
 21
-102.183700195616
 31
0.0
 11
-99.9413094111897
 21
-104.2495303145654
 31
0.0
 11
-100.057368354814
 21
-106.20512701894
 31
0.0
  0
SPLINE
  5
EC
330
76
100
AcDbEntity
  8
0
  6
Continuous
 62
     7
100
AcDbSpline
210
0.0
220
0.0
230
1.0
 70
  1064
 71
     3
 72
    21
 73
    17
 74
    15
 42
0.000000001
 43
0.0000000001
 44
0.00000001
 40
0.0
 40
0.0
 40
0.0
 40
0.0
 40
0.7566784282567486
 40
1.650974210983423
 40
2.750598425552602
 40
4.06196916736097
 40
5.555360351613234
 40
7.180051808642991
 40
8.873222470163798
 40
10.56639313168463
 40
12.19108458871435
 40
13.68447577296663
 40
14.99584651477506
 40
16.09547072934424
 40
16.9897665120709
 40
17.74644494032766
 40
17.74644494032766
 40
17.74644494032766
 40
17.74644494032766
 10
-69.4524161793678
 20
-117.1768438135297
 30
0.0
 10
-69.68383960968076
 20
-117.0654707092944
 30
0.0
 10
-70.1887755152683
 20
-116.8224690251966
 30
0.0
 10
-70.68457894022409
 20
-116.0047488321607
 30
0.0
 10
-71.01629308649797
 20
-114.9555789737836
 30
0.0
 10
-71.16561964017276
 20
-113.6535026873787
 30
0.0
 10
-71.13357738996959
 20
-112.1750132935714
 30
0.0
 10
-70.91896798132689
 20
-110.5823347562561
 30
0.0
 10
-70.53227868538127
 20
-108.9547835612911
 30
0.0
 10
-69.99209228607411
 20
-107.371543163299
 30
0.0
 10
-69.32488481746265
 20
-105.9095184318624
 30
0.0
 10
-68.56405326039578
 20
-104.6414123893053
 30
0.0
 10
-67.74377316624512
 20
-103.6192374324654
 30
0.0
 10
-66.90394873463526
 20
-102.9082616307418
 30
0.0
 10
-66.0486280148378
 20
-102.480577382047
 30
0.0
 10
-65.49186955220772
 20
-102.5440604625929
 30
0.0
 10
-65.23669468805606
 20
-102.5731561865058
 30
0.0
 11
-69.4524161793678
 21
-117.1768438135297
 31
0.0
 11
-70.1031321307188
 21
-116.7906689750841
 31
0.0
 11
-70.61552209621789
 21
-116.0577150422455
 31
0.0
 11
-70.96389146073778
 21
-115.014732686148
 31
0.0
 11
-71.13077294978515
 21
-113.7140237308243
 31
0.0
 11
-71.10779690236087
 21
-112.2208093040391
 31
0.0
 11
-70.89611698938359
 21
-110.6099666869805
 31
0.0
 11
-70.50634621799024
 21
-108.9622696198056
 31
0.0
 11
-69.95803070583719
 21
-107.3603404770088
 31
0.0
 11
-69.27866409197406
 21
-105.8845073812766
 31
0.0
 11
-68.50231359247559
 21
-104.6087734258443
 31
0.0
 11
-67.667908025903
 21
-103.5971111460696
 31
0.0
 11
-66.81728827679885
 21
-102.9002471337252
 31
0.0
 11
-65.99310801328922
 21
-102.5531277916411
 31
0.0
 11
-65.23669468805606
 21
-102.5731561865058
 31
0.0
  0
ENDBLK
  5
78
330
76
100
AcDbEntity
  8
0
100
AcDbBlockEnd
  0
BLOCK
  5
7B
330
79
100
AcDbEntity
  8
0
100
AcDbBlockBegin
  2
Allg1
 70
     0
 10
-82.49999999996996
 20
-105.500000000009
 30
0.0
  3
Allg1
  1

  0
INSERT
  5
7A
330
79
100
AcDbEntity
  8
0
100
AcDbBlockReference
  2
WP_G_HF_IP69K_PG9_BK-select__1
 10
-102.6554445661673
 20
-117.3087159916906
 30
0.0
  0
ENDBLK
  5
7C
330
79
100
AcDbEntity
  8
0
100
AcDbBlockEnd
  0
BLOCK
  5
7E
330
7D
100
AcDbEntity
  8
0
100
AcDbBlockBegin
  2
WP_G_HF_IP69K_PG9_BK-select__2
 70
     0
 10
-162.2499999998948
 20
-106.9870045601804
 30
0.0
  3
WP_G_HF_IP69K_PG9_BK-select__2
  1

  0
LINE
  5
ED
330
7D
100
AcDbEntity
  8
0
  6
Continuous
 62
     7
100
AcDbLine
 10
-127.2499999998948
 20
-104.5870045601804
 30
0.0
 11
-137.2499999998948
 21
-104.5870045601804
 31
0.0
  0
LINE
  5
EE
330
7D
100
AcDbEntity
  8
0
  6
Continuous
 62
     7
100
AcDbLine
 10
-127.2499999998948
 20
-89.38700456018042
 30
0.0
 11
-137.2499999998948
 21
-89.38700456018042
 31
0.0
  0
LINE
  5
EF
330
7D
100
AcDbEntity
  8
0
  6
Continuous
 62
     7
100
AcDbLine
 10
-137.2499999998948
 20
-104.5870045601804
 30
0.0
 11
-137.2499999998948
 21
-106.9870045601804
 31
0.0
  0
LINE
  5
F0
330
7D
100
AcDbEntity
  8
0
  6
Continuous
 62
     7
100
AcDbLine
 10
-138.7499999998948
 20
-87.98900061486013
 30
0.0
 11
-138.7499999998948
 21
-86.98700456018042
 31
0.0
  0
LINE
  5
F1
330
7D
100
AcDbEntity
  8
0
  6
Continuous
 62
     7
100
AcDbLine
 10
-137.2499999998948
 20
-86.98700456018042
 30
0.0
 11
-138.7499999998948
 21
-86.98700456018042
 31
0.0
  0
LINE
  5
F2
330
7D
100
AcDbEntity
  8
0
  6
Continuous
 62
     7
100
AcDbLine
 10
-137.2499999998948
 20
-86.98700456018042
 30
0.0
 11
-137.2499999998948
 21
-89.38700456018042
 31
0.0
  0
LINE
  5
F3
330
7D
100
AcDbEntity
  8
0
  6
Continuous
 62
     7
100
AcDbLine
 10
-138.7499999998948
 20
-96.26648690666201
 30
0.0
 11
-138.7499999998948
 21
-88.70951826837852
 31
0.0
  0
LINE
  5
F4
330
7D
100
AcDbEntity
  8
0
  6
Continuous
 62
     7
100
AcDbLine
 10
-138.7499999998948
 20
-88.70951826837852
 30
0.0
 11
-145.7499999998948
 21
-88.70951826837852
 31
0.0
  0
LINE
  5
F5
330
7D
100
AcDbEntity
  8
0
  6
Continuous
 62
     7
100
AcDbLine
 10
-145.7499999998948
 20
-106.9870045601804
 30
0.0
 11
-145.7499999998948
 21
-105.9850085055007
 31
0.0
  0
LINE
  5
F6
330
7D
100
AcDbEntity
  8
0
  6
Continuous
 62
     7
100
AcDbLine
 10
-138.7499999998948
 20
-106.9870045601804
 30
0.0
 11
-138.7499999998948
 21
-105.9850085055007
 31
0.0
  0
LINE
  5
F7
330
7D
100
AcDbEntity
  8
0
  6
Continuous
 62
     7
100
AcDbLine
 10
-138.7499999998948
 20
-105.2644908519823
 30
0.0
 11
-145.7499999998948
 21
-105.2644908519823
 31
0.0
  0
LINE
  5
F8
330
7D
100
AcDbEntity
  8
0
  6
Continuous
 62
     7
100
AcDbLine
 10
-145.7499999998948
 20
-87.98900061486013
 30
0.0
 11
-145.7499999998948
 21
-86.98700456018042
 31
0.0
  0
LINE
  5
F9
330
7D
100
AcDbEntity
  8
0
  6
Continuous
 62
     7
100
AcDbLine
 10
-138.7499999998948
 20
-87.98900061486013
 30
0.0
 11
-145.7499999998948
 21
-87.98900061486013
 31
0.0
  0
LINE
  5
FA
330
7D
100
AcDbEntity
  8
0
  6
Continuous
 62
     7
100
AcDbLine
 10
-145.7499999998948
 20
-96.26648690666201
 30
0.0
 11
-145.7499999998948
 21
-88.70951826837852
 31
0.0
  0
LINE
  5
FB
330
7D
100
AcDbEntity
  8
0
  6
Continuous
 62
     7
100
AcDbLine
 10
-145.7499999998948
 20
-105.2644908519823
 30
0.0
 11
-145.7499999998948
 21
-97.70752221369885
 31
0.0
  0
LINE
  5
FC
330
7D
100
AcDbEntity
  8
0
  6
Continuous
 62
     7
100
AcDbLine
 10
-138.7499999998948
 20
-96.26648690666201
 30
0.0
 11
-145.7499999998948
 21
-96.26648690666201
 31
0.0
  0
LINE
  5
FD
330
7D
100
AcDbEntity
  8
0
  6
Continuous
 62
     7
100
AcDbLine
 10
-138.7499999998948
 20
-97.70752221369885
 30
0.0
 11
-145.7499999998948
 21
-97.70752221369885
 31
0.0
  0
LINE
  5
FE
330
7D
100
AcDbEntity
  8
0
  6
Continuous
 62
     7
100
AcDbLine
 10
-138.7499999998948
 20
-105.2644908519823
 30
0.0
 11
-138.7499999998948
 21
-97.70752221369885
 31
0.0
  0
LINE
  5
FF
330
7D
100
AcDbEntity
  8
0
  6
Continuous
 62
     7
100
AcDbLine
 10
-137.2499999998948
 20
-89.38700456018042
 30
0.0
 11
-137.2499999998948
 21
-104.5870045601804
 31
0.0
  0
LINE
  5
100
330
7D
100
AcDbEntity
  8
0
  6
Continuous
 62
     7
100
AcDbLine
 10
-127.2499999998948
 20
-104.5870045601804
 30
0.0
 11
-127.2499999998948
 21
-89.38700456018042
 31
0.0
  0
LINE
  5
101
330
7D
100
AcDbEntity
  8
0
  6
Continuous
 62
     7
100
AcDbLine
 10
-159.2499999998948
 20
-104.6370045601804
 30
0.0
 11
-159.7499999998948
 21
-104.6370045601804
 31
0.0
  0
LINE
  5
102
330
7D
100
AcDbEntity
  8
0
  6
Continuous
 62
     7
100
AcDbLine
 10
-159.2499999998948
 20
-89.33700456018043
 30
0.0
 11
-159.7499999998948
 21
-89.33700456018043
 31
0.0
  0
LINE
  5
103
330
7D
100
AcDbEntity
  8
0
  6
Continuous
 62
     7
100
AcDbLine
 10
-159.2499999998948
 20
-104.6370045601804
 30
0.0
 11
-159.2499999998948
 21
-106.9870045601804
 31
0.0
  0
LINE
  5
104
330
7D
100
AcDbEntity
  8
0
  6
Continuous
 62
     7
100
AcDbLine
 10
-159.2499999998948
 20
-86.98700456018042
 30
0.0
 11
-159.2499999998948
 21
-89.33700456018043
 31
0.0
  0
LINE
  5
105
330
7D
100
AcDbEntity
  8
0
  6
Continuous
 62
     7
100
AcDbLine
 10
-159.2499999998948
 20
-89.33700456018043
 30
0.0
 11
-159.2499999998948
 21
-104.6370045601804
 31
0.0
  0
LINE
  5
106
330
7D
100
AcDbEntity
  8
0
  6
Continuous
 62
     7
100
AcDbLine
 10
-159.7499999998948
 20
-86.98700456018042
 30
0.0
 11
-159.7499999998948
 21
-89.33700456018043
 31
0.0
  0
LINE
  5
107
330
7D
100
AcDbEntity
  8
0
  6
Continuous
 62
     7
100
AcDbLine
 10
-159.7499999998948
 20
-104.6370045601804
 30
0.0
 11
-159.7499999998948
 21
-106.9870045601804
 31
0.0
  0
LINE
  5
108
330
7D
100
AcDbEntity
  8
0
  6
Continuous
 62
     7
100
AcDbLine
 10
-159.7499999998948
 20
-89.33700456018043
 30
0.0
 11
-159.7499999998948
 21
-104.6370045601804
 31
0.0
  0
LINE
  5
109
330
7D
100
AcDbEntity
  8
0
  6
Continuous
 62
     7
100
AcDbLine
 10
-149.0499999998949
 20
-87.48700456018042
 30
0.0
 11
-149.0499999998949
 21
-86.98700456018042
 31
0.0
  0
LINE
  5
10A
330
7D
100
AcDbEntity
  8
0
  6
Continuous
 62
     7
100
AcDbLine
 10
-149.0499999998949
 20
-106.9870045601804
 30
0.0
 11
-149.0499999998949
 21
-106.4870045601804
 31
0.0
  0
LINE
  5
10B
330
7D
100
AcDbEntity
  8
0
  6
Continuous
 62
     7
100
AcDbLine
 10
-149.0499999998949
 20
-106.4870045601804
 30
0.0
 11
-149.0499999998949
 21
-105.7868625135794
 31
0.0
  0
LINE
  5
10C
330
7D
100
AcDbEntity
  8
0
  6
Continuous
 62
     7
100
AcDbLine
 10
-149.0499999998949
 20
-88.18714660678141
 30
0.0
 11
-149.0499999998949
 21
-87.48700456018042
 31
0.0
  0
LINE
  5
10D
330
7D
100
AcDbEntity
  8
0
  6
Continuous
 62
     7
100
AcDbLine
 10
-138.7499999998948
 20
-105.9850085055007
 30
0.0
 11
-145.7499999998948
 21
-105.9850085055007
 31
0.0
  0
LINE
  5
10E
330
7D
100
AcDbEntity
  8
0
  6
Continuous
 62
     7
100
AcDbLine
 10
-149.0499999998949
 20
-105.7868625135794
 30
0.0
 11
-156.2499999998948
 21
-105.7868625135794
 31
0.0
  0
LINE
  5
10F
330
7D
100
AcDbEntity
  8
0
  6
Continuous
 62
     7
100
AcDbLine
 10
-156.2499999998948
 20
-106.9870045601804
 30
0.0
 11
-156.2499999998948
 21
-106.4870045601804
 31
0.0
  0
LINE
  5
110
330
7D
100
AcDbEntity
  8
0
  6
Continuous
 62
     7
100
AcDbLine
 10
-156.2499999998948
 20
-106.4870045601804
 30
0.0
 11
-156.2499999998948
 21
-105.7868625135794
 31
0.0
  0
LINE
  5
111
330
7D
100
AcDbEntity
  8
0
  6
Continuous
 62
     7
100
AcDbLine
 10
-156.2499999998948
 20
-106.9870045601804
 30
0.0
 11
-159.2499999998948
 21
-106.9870045601804
 31
0.0
  0
LINE
  5
112
330
7D
100
AcDbEntity
  8
0
  6
Continuous
 62
     7
100
AcDbLine
 10
-145.7499999998948
 20
-106.9870045601804
 30
0.0
 11
-149.0499999998949
 21
-106.9870045601804
 31
0.0
  0
LINE
  5
113
330
7D
100
AcDbEntity
  8
0
  6
Continuous
 62
     7
100
AcDbLine
 10
-137.2499999998948
 20
-106.9870045601804
 30
0.0
 11
-138.7499999998948
 21
-106.9870045601804
 31
0.0
  0
LINE
  5
114
330
7D
100
AcDbEntity
  8
0
  6
Continuous
 62
     7
100
AcDbLine
 10
-159.7499999998948
 20
-106.9870045601804
 30
0.0
 11
-162.2499999998948
 21
-106.9870045601804
 31
0.0
  0
LINE
  5
115
330
7D
100
AcDbEntity
  8
0
  6
Continuous
 62
     7
100
AcDbLine
 10
-149.0499999998949
 20
-87.48700456018042
 30
0.0
 11
-156.2499999998948
 21
-87.48700456018042
 31
0.0
  0
LINE
  5
116
330
7D
100
AcDbEntity
  8
0
  6
Continuous
 62
     7
100
AcDbLine
 10
-156.2499999998948
 20
-87.48700456018042
 30
0.0
 11
-156.2499999998948
 21
-86.98700456018042
 31
0.0
  0
LINE
  5
117
330
7D
100
AcDbEntity
  8
0
  6
Continuous
 62
     7
100
AcDbLine
 10
-156.2499999998948
 20
-88.18714660678141
 30
0.0
 11
-156.2499999998948
 21
-87.48700456018042
 31
0.0
  0
LINE
  5
118
330
7D
100
AcDbEntity
  8
0
  6
Continuous
 62
     7
100
AcDbLine
 10
-156.2499999998948
 20
-86.98700456018042
 30
0.0
 11
-159.2499999998948
 21
-86.98700456018042
 31
0.0
  0
LINE
  5
119
330
7D
100
AcDbEntity
  8
0
  6
Continuous
 62
     7
100
AcDbLine
 10
-159.7499999998948
 20
-86.98700456018042
 30
0.0
 11
-162.2499999998948
 21
-86.98700456018042
 31
0.0
  0
LINE
  5
11A
330
7D
100
AcDbEntity
  8
0
  6
Continuous
 62
     7
100
AcDbLine
 10
-145.7499999998948
 20
-86.98700456018042
 30
0.0
 11
-149.0499999998949
 21
-86.98700456018042
 31
0.0
  0
LINE
  5
11B
330
7D
100
AcDbEntity
  8
0
  6
Continuous
 62
     7
100
AcDbLine
 10
-149.0499999998949
 20
-88.18714660678141
 30
0.0
 11
-156.2499999998948
 21
-88.18714660678141
 31
0.0
  0
LINE
  5
11C
330
7D
100
AcDbEntity
  8
0
  6
Continuous
 62
     7
100
AcDbLine
 10
-149.0499999998949
 20
-106.4870045601804
 30
0.0
 11
-156.2499999998948
 21
-106.4870045601804
 31
0.0
  0
LINE
  5
11D
330
7D
100
AcDbEntity
  8
0
  6
Continuous
 62
     7
100
AcDbLine
 10
-162.2499999998948
 20
-106.9870045601804
 30
0.0
 11
-162.2499999998948
 21
-86.98700456018042
 31
0.0
  0
LINE
  5
11E
330
7D
100
AcDbEntity
  8
1
  6
Continuous
 62
     2
100
AcDbLine
 10
-127.2499999998948
 20
-103.9170045601804
 30
0.0
 11
-137.2499999998948
 21
-103.9170045601804
 31
0.0
  0
LINE
  5
11F
330
7D
100
AcDbEntity
  8
1
  6
Continuous
 62
     2
100
AcDbLine
 10
-127.2499999998948
 20
-90.05700456018042
 30
0.0
 11
-137.2499999998948
 21
-90.05700456018042
 31
0.0
  0
LINE
  5
120
330
7D
100
AcDbEntity
  8
1
  6
DOT_CENTER
 62
     2
100
AcDbLine
 10
-127.249999999895
 20
-96.9870045601805
 30
0.0
 11
-162.249999999895
 21
-96.9870045601805
 31
0.0
  0
ENDBLK
  5
7F
330
7D
100
AcDbEntity
  8
0
100
AcDbBlockEnd
  0
BLOCK
  5
82
330
80
100
AcDbEntity
  8
0
100
AcDbBlockBegin
  2
Drfsicht1
 70
     0
 10
-144.7499999999299
 20
-96.98700456018042
 30
0.0
  3
Drfsicht1
  1

  0
INSERT
  5
81
330
80
100
AcDbEntity
  8
0
100
AcDbBlockReference
  2
WP_G_HF_IP69K_PG9_BK-select__2
 10
-162.2499999998948
 20
-106.9870045601804
 30
0.0
  0
ENDBLK
  5
83
330
80
100
AcDbEntity
  8
0
100
AcDbBlockEnd
  0
BLOCK
  5
85
330
84
100
AcDbEntity
  8
0
100
AcDbBlockBegin
  2
WP_G_HF_IP69K_PG9_BK-select__3
 70
     0
 10
-97.75000000003533
 20
-73.49999999999994
 30
0.0
  3
WP_G_HF_IP69K_PG9_BK-select__3
  1

  0
LINE
  5
121
330
84
100
AcDbEntity
  8
0
  6
Continuous
 62
     7
100
AcDbLine
 10
-65.75000000003533
 20
-73.49999999999994
 30
0.0
 11
-65.75000000003533
 21
-71.14999999999992
 31
0.0
  0
LINE
  5
122
330
84
100
AcDbEntity
  8
0
  6
Continuous
 62
     7
100
AcDbLine
 10
-86.25000000003533
 20
-73.4740089387852
 30
0.0
 11
-79.25000000003533
 21
-73.4740089387852
 31
0.0
  0
LINE
  5
123
330
84
100
AcDbEntity
  8
0
  6
Continuous
 62
     7
100
AcDbLine
 10
-65.25000000003533
 20
-73.49999999999994
 30
0.0
 11
-62.75000000003533
 21
-73.49999999999994
 31
0.0
  0
LINE
  5
124
330
84
100
AcDbEntity
  8
0
  6
Continuous
 62
     7
100
AcDbLine
 10
-65.25000000003533
 20
-73.49999999999994
 30
0.0
 11
-65.25000000003533
 21
-71.14999999999992
 31
0.0
  0
LINE
  5
125
330
84
100
AcDbEntity
  8
0
  6
Continuous
 62
     7
100
AcDbLine
 10
-79.25000000003533
 20
-69.11099106121465
 30
0.0
 11
-79.25000000003533
 21
-73.4740089387852
 31
0.0
  0
LINE
  5
126
330
84
100
AcDbEntity
  8
0
  6
Continuous
 62
     7
100
AcDbLine
 10
-79.25000000003533
 20
-53.52599106121467
 30
0.0
 11
-79.25000000003533
 21
-57.8890089387852
 31
0.0
  0
LINE
  5
127
330
84
100
AcDbEntity
  8
0
  6
Continuous
 62
     7
100
AcDbLine
 10
-87.75000000003533
 20
-53.49999999999994
 30
0.0
 11
-65.75000000003533
 21
-53.49999999999994
 31
0.0
  0
LINE
  5
128
330
84
100
AcDbEntity
  8
0
  6
Continuous
 62
     7
100
AcDbLine
 10
-86.25000000003533
 20
-53.52599106121467
 30
0.0
 11
-86.25000000003533
 21
-57.8890089387852
 31
0.0
  0
LINE
  5
129
330
84
100
AcDbEntity
  8
0
  6
Continuous
 62
     7
100
AcDbLine
 10
-62.75000000003533
 20
-53.49999999999994
 30
0.0
 11
-62.75000000003533
 21
-73.49999999999994
 31
0.0
  0
LINE
  5
12A
330
84
100
AcDbEntity
  8
0
  6
Continuous
 62
     7
100
AcDbLine
 10
-86.25000000003533
 20
-67.86301787757048
 30
0.0
 11
-79.25000000003533
 21
-67.86301787757048
 31
0.0
  0
LINE
  5
12B
330
84
100
AcDbEntity
  8
0
  6
Continuous
 62
     7
100
AcDbLine
 10
-75.95000000003533
 20
-68.24999999999994
 30
0.0
 11
-68.75000000003533
 21
-68.24999999999994
 31
0.0
  0
LINE
  5
12C
330
84
100
AcDbEntity
  8
0
  6
Continuous
 62
     7
100
AcDbLine
 10
-75.95000000003533
 20
-58.74999999999994
 30
0.0
 11
-68.75000000003533
 21
-58.74999999999994
 31
0.0
  0
LINE
  5
12D
330
84
100
AcDbEntity
  8
0
  6
Continuous
 62
     7
100
AcDbLine
 10
-75.95000000003533
 20
-58.74999999999994
 30
0.0
 11
-75.95000000003533
 21
-68.24999999999994
 31
0.0
  0
LINE
  5
12E
330
84
100
AcDbEntity
  8
0
  6
Continuous
 62
     7
100
AcDbLine
 10
-79.25000000003533
 20
-59.13698212242937
 30
0.0
 11
-79.25000000003533
 21
-67.86301787757048
 31
0.0
  0
LINE
  5
12F
330
84
100
AcDbEntity
  8
0
  6
Continuous
 62
     7
100
AcDbLine
 10
-86.25000000003533
 20
-59.13698212242937
 30
0.0
 11
-86.25000000003533
 21
-67.86301787757048
 31
0.0
  0
LINE
  5
130
330
84
100
AcDbEntity
  8
0
  6
Continuous
 62
     7
100
AcDbLine
 10
-65.75000000003533
 20
-71.14999999999992
 30
0.0
 11
-65.75000000003533
 21
-55.84999999999994
 31
0.0
  0
LINE
  5
131
330
84
100
AcDbEntity
  8
0
  6
Continuous
 62
     7
100
AcDbLine
 10
-86.25000000003533
 20
-57.8890089387852
 30
0.0
 11
-79.25000000003533
 21
-57.8890089387852
 31
0.0
  0
LINE
  5
132
330
84
100
AcDbEntity
  8
0
  6
Continuous
 62
     7
100
AcDbLine
 10
-86.25000000003533
 20
-69.11099106121465
 30
0.0
 11
-79.25000000003533
 21
-69.11099106121465
 31
0.0
  0
LINE
  5
133
330
84
100
AcDbEntity
  8
0
  6
Continuous
 62
     7
100
AcDbLine
 10
-86.25000000003533
 20
-59.13698212242937
 30
0.0
 11
-79.25000000003533
 21
-59.13698212242937
 31
0.0
  0
LINE
  5
134
330
84
100
AcDbEntity
  8
0
  6
Continuous
 62
     7
100
AcDbLine
 10
-68.75000000003533
 20
-58.74999999999994
 30
0.0
 11
-68.75000000003533
 21
-68.24999999999994
 31
0.0
  0
LINE
  5
135
330
84
100
AcDbEntity
  8
0
  6
Continuous
 62
     7
100
AcDbLine
 10
-65.25000000003533
 20
-71.14999999999992
 30
0.0
 11
-65.25000000003533
 21
-55.84999999999994
 31
0.0
  0
LINE
  5
136
330
84
100
AcDbEntity
  8
0
  6
Continuous
 62
     7
100
AcDbLine
 10
-65.75000000003533
 20
-55.84999999999994
 30
0.0
 11
-65.25000000003533
 21
-55.84999999999994
 31
0.0
  0
LINE
  5
137
330
84
100
AcDbEntity
  8
0
  6
Continuous
 62
     7
100
AcDbLine
 10
-97.75000000003533
 20
-55.89999999999992
 30
0.0
 11
-87.75000000003533
 21
-55.89999999999992
 31
0.0
  0
LINE
  5
138
330
84
100
AcDbEntity
  8
0
  6
Continuous
 62
     7
100
AcDbLine
 10
-97.75000000003533
 20
-55.89999999999992
 30
0.0
 11
-97.75000000003533
 21
-63.49999999999994
 31
0.0
  0
LINE
  5
139
330
84
100
AcDbEntity
  8
0
  6
Continuous
 62
     7
100
AcDbLine
 10
-87.75000000003533
 20
-73.49999999999994
 30
0.0
 11
-87.75000000003533
 21
-71.09999999999994
 31
0.0
  0
LINE
  5
13A
330
84
100
AcDbEntity
  8
0
  6
Continuous
 62
     7
100
AcDbLine
 10
-87.75000000003533
 20
-55.89999999999992
 30
0.0
 11
-87.75000000003533
 21
-53.49999999999994
 31
0.0
  0
LINE
  5
13B
330
84
100
AcDbEntity
  8
0
  6
Continuous
 62
     7
100
AcDbLine
 10
-87.75000000003533
 20
-71.09999999999994
 30
0.0
 11
-87.75000000003533
 21
-55.89999999999992
 31
0.0
  0
LINE
  5
13C
330
84
100
AcDbEntity
  8
0
  6
Continuous
 62
     7
100
AcDbLine
 10
-86.25000000003533
 20
-69.11099106121465
 30
0.0
 11
-86.25000000003533
 21
-73.4740089387852
 31
0.0
  0
LINE
  5
13D
330
84
100
AcDbEntity
  8
0
  6
Continuous
 62
     7
100
AcDbLine
 10
-65.75000000003533
 20
-71.14999999999992
 30
0.0
 11
-65.25000000003533
 21
-71.14999999999992
 31
0.0
  0
LINE
  5
13E
330
84
100
AcDbEntity
  8
0
  6
Continuous
 62
     7
100
AcDbLine
 10
-97.75000000003533
 20
-71.09999999999994
 30
0.0
 11
-87.75000000003533
 21
-71.09999999999994
 31
0.0
  0
LINE
  5
13F
330
84
100
AcDbEntity
  8
0
  6
Continuous
 62
     7
100
AcDbLine
 10
-65.75000000003533
 20
-55.84999999999994
 30
0.0
 11
-65.75000000003533
 21
-53.49999999999994
 31
0.0
  0
LINE
  5
140
330
84
100
AcDbEntity
  8
0
  6
Continuous
 62
     7
100
AcDbLine
 10
-86.25000000003533
 20
-53.52599106121467
 30
0.0
 11
-79.25000000003533
 21
-53.52599106121467
 31
0.0
  0
LINE
  5
141
330
84
100
AcDbEntity
  8
0
  6
Continuous
 62
     7
100
AcDbLine
 10
-65.25000000003533
 20
-53.49999999999994
 30
0.0
 11
-62.75000000003533
 21
-53.49999999999994
 31
0.0
  0
LINE
  5
142
330
84
100
AcDbEntity
  8
0
  6
Continuous
 62
     7
100
AcDbLine
 10
-65.25000000003533
 20
-55.84999999999994
 30
0.0
 11
-65.25000000003533
 21
-53.49999999999994
 31
0.0
  0
LINE
  5
143
330
84
100
AcDbEntity
  8
0
  6
Continuous
 62
     7
100
AcDbLine
 10
-97.75000000003533
 20
-63.49999999999994
 30
0.0
 11
-97.75000000003533
 21
-71.09999999999994
 31
0.0
  0
LINE
  5
144
330
84
100
AcDbEntity
  8
0
  6
Continuous
 62
     7
100
AcDbLine
 10
-87.75000000003533
 20
-73.49999999999994
 30
0.0
 11
-65.75000000003533
 21
-73.49999999999994
 31
0.0
  0
LINE
  5
145
330
84
100
AcDbEntity
  8
1
  6
Continuous
 62
     2
100
AcDbLine
 10
-97.75000000003533
 20
-56.56999999999992
 30
0.0
 11
-87.75000000003533
 21
-56.56999999999992
 31
0.0
  0
LINE
  5
146
330
84
100
AcDbEntity
  8
1
  6
Continuous
 62
     2
100
AcDbLine
 10
-97.75000000003533
 20
-70.42999999999994
 30
0.0
 11
-87.75000000003533
 21
-70.42999999999994
 31
0.0
  0
LINE
  5
147
330
84
100
AcDbEntity
  8
1
  6
DOT_CENTER
 62
     2
100
AcDbLine
 10
-97.75000000003533
 20
-63.49999999999994
 30
0.0
 11
-62.75000000003499
 21
-63.5
 31
0.0
  0
ENDBLK
  5
86
330
84
100
AcDbEntity
  8
0
100
AcDbBlockEnd
  0
BLOCK
  5
89
330
87
100
AcDbEntity
  8
0
100
AcDbBlockBegin
  2
Rückansicht1
 70
     0
 10
-80.25000000000028
 20
-63.49999999999994
 30
0.0
  3
Rückansicht1
  1

  0
INSERT
  5
88
330
87
100
AcDbEntity
  8
0
100
AcDbBlockReference
  2
WP_G_HF_IP69K_PG9_BK-select__3
 10
-97.75000000003533
 20
-73.49999999999994
 30
0.0
  0
ENDBLK
  5
8A
330
87
100
AcDbEntity
  8
0
100
AcDbBlockEnd
  0
BLOCK
  5
8C
330
8B
100
AcDbEntity
  8
0
100
AcDbBlockBegin
  2
WP_G_HF_IP69K_PG9_BK-select__4
 70
     0
 10
-122.5
 20
-73.49999999999994
 30
0.0
  3
WP_G_HF_IP69K_PG9_BK-select__4
  1

  0
LINE
  5
148
330
8B
100
AcDbEntity
  8
1
  6
DOT_CENTER
 62
     2
100
AcDbLine
 10
-101.5
 20
-63.49999999999994
 30
0.0
 11
-123.5
 21
-63.49999999999994
 31
0.0
  0
LINE
  5
149
330
8B
100
AcDbEntity
  8
1
  6
DOT_CENTER
 62
     2
100
AcDbLine
 10
-112.5
 20
-52.49999999999994
 30
0.0
 11
-112.5
 21
-74.49999999999994
 31
0.0
  0
CIRCLE
  5
14A
330
8B
100
AcDbEntity
  8
0
  6
Continuous
 62
     7
100
AcDbCircle
 10
-112.5
 20
-63.49999999999994
 30
0.0
 40
5.0
  0
CIRCLE
  5
14B
330
8B
100
AcDbEntity
  8
0
  6
Continuous
 62
     7
100
AcDbCircle
 10
-112.5
 20
-63.49999999999994
 30
0.0
 40
6.5
  0
CIRCLE
  5
14C
330
8B
100
AcDbEntity
  8
0
  6
Continuous
 62
     7
100
AcDbCircle
 10
-112.5
 20
-63.49999999999994
 30
0.0
 40
10.0
  0
ENDBLK
  5
8D
330
8B
100
AcDbEntity
  8
0
100
AcDbBlockEnd
  0
BLOCK
  5
90
330
8E
100
AcDbEntity
  8
0
100
AcDbBlockBegin
  2
SA_Links1
 70
     0
 10
-112.5
 20
-63.49999999999994
 30
0.0
  3
SA_Links1
  1

  0
INSERT
  5
8F
330
8E
100
AcDbEntity
  8
0
100
AcDbBlockReference
  2
WP_G_HF_IP69K_PG9_BK-select__4
 10
-122.5
 20
-73.49999999999994
 30
0.0
  0
ENDBLK
  5
91
330
8E
100
AcDbEntity
  8
0
100
AcDbBlockEnd
  0
BLOCK
  5
93
330
92
100
AcDbEntity
  8
0
100
AcDbBlockBegin
  2
WP_G_HF_IP69K_PG9_BK-select__5
 70
     0
 10
-194.99999999993
 20
-73.5
 30
0.0
  3
WP_G_HF_IP69K_PG9_BK-select__5
  1

  0
LINE
  5
14D
330
92
100
AcDbEntity
  8
1
  6
DOT_CENTER
 62
     2
100
AcDbLine
 10
-173.99999999993
 20
-63.5
 30
0.0
 11
-195.99999999993
 21
-63.5
 31
0.0
  0
LINE
  5
14E
330
92
100
AcDbEntity
  8
1
  6
DOT_CENTER
 62
     2
100
AcDbLine
 10
-184.99999999993
 20
-52.5
 30
0.0
 11
-184.99999999993
 21
-74.5
 31
0.0
  0
ARC
  5
14F
330
92
100
AcDbEntity
  8
1
  6
Continuous
 62
     2
100
AcDbCircle
 10
-184.99999999993
 20
-63.5
 30
0.0
 40
6.930000000000007
100
AcDbArc
 50
180.0
 51
90.0
  0
CIRCLE
  5
150
330
92
100
AcDbEntity
  8
0
  6
Continuous
 62
     7
100
AcDbCircle
 10
-184.99999999993
 20
-63.5
 30
0.0
 40
7.599999999999994
  0
CIRCLE
  5
151
330
92
100
AcDbEntity
  8
0
  6
Continuous
 62
     7
100
AcDbCircle
 10
-184.99999999993
 20
-63.5
 30
0.0
 40
5.0
  0
CIRCLE
  5
152
330
92
100
AcDbEntity
  8
0
  6
Continuous
 62
     7
100
AcDbCircle
 10
-184.99999999993
 20
-63.5
 30
0.0
 40
10.0
  0
ENDBLK
  5
94
330
92
100
AcDbEntity
  8
0
100
AcDbBlockEnd
  0
BLOCK
  5
97
330
95
100
AcDbEntity
  8
0
100
AcDbBlockBegin
  2
SA_Rechts1
 70
     0
 10
-184.99999999993
 20
-63.5
 30
0.0
  3
SA_Rechts1
  1

  0
INSERT
  5
96
330
95
100
AcDbEntity
  8
0
100
AcDbBlockReference
  2
WP_G_HF_IP69K_PG9_BK-select__5
 10
-194.99999999993
 20
-73.5
 30
0.0
  0
ENDBLK
  5
98
330
95
100
AcDbEntity
  8
0
100
AcDbBlockEnd
  0
BLOCK
  5
9A
330
99
100
AcDbEntity
  8
0
100
AcDbBlockBegin
  2
WP_G_HF_IP69K_PG9_BK-select__6
 70
     0
 10
-162.2499999998948
 20
-73.5
 30
0.0
  3
WP_G_HF_IP69K_PG9_BK-select__6
  1

  0
LINE
  5
153
330
99
100
AcDbEntity
  8
0
  6
Continuous
 62
     7
100
AcDbLine
 10
-159.2499999998948
 20
-55.85
 30
0.0
 11
-159.7499999998948
 21
-55.85
 31
0.0
  0
LINE
  5
154
330
99
100
AcDbEntity
  8
0
  6
Continuous
 62
     7
100
AcDbLine
 10
-159.7499999998948
 20
-55.85
 30
0.0
 11
-159.7499999998948
 21
-63.5
 31
0.0
  0
LINE
  5
155
330
99
100
AcDbEntity
  8
0
  6
Continuous
 62
     7
100
AcDbLine
 10
-159.7499999998948
 20
-53.5
 30
0.0
 11
-159.7499999998948
 21
-55.85
 31
0.0
  0
LINE
  5
156
330
99
100
AcDbEntity
  8
0
  6
Continuous
 62
     7
100
AcDbLine
 10
-138.7499999998948
 20
-69.11099106121472
 30
0.0
 11
-145.7499999998948
 21
-69.11099106121472
 31
0.0
  0
LINE
  5
157
330
99
100
AcDbEntity
  8
0
  6
Continuous
 62
     7
100
AcDbLine
 10
-138.7499999998948
 20
-67.86301787757056
 30
0.0
 11
-145.7499999998948
 21
-67.86301787757056
 31
0.0
  0
LINE
  5
158
330
99
100
AcDbEntity
  8
0
  6
Continuous
 62
     7
100
AcDbLine
 10
-145.7499999998948
 20
-73.47400893878526
 30
0.0
 11
-145.7499999998948
 21
-69.11099106121472
 31
0.0
  0
LINE
  5
159
330
99
100
AcDbEntity
  8
0
  6
Continuous
 62
     7
100
AcDbLine
 10
-137.2499999998948
 20
-71.1
 30
0.0
 11
-137.2499999998948
 21
-73.5
 31
0.0
  0
LINE
  5
15A
330
99
100
AcDbEntity
  8
0
  6
Continuous
 62
     7
100
AcDbLine
 10
-138.7499999998948
 20
-73.47400893878526
 30
0.0
 11
-138.7499999998948
 21
-69.11099106121472
 31
0.0
  0
LINE
  5
15B
330
99
100
AcDbEntity
  8
0
  6
Continuous
 62
     7
100
AcDbLine
 10
-137.2499999998948
 20
-63.5
 30
0.0
 11
-137.2499999998948
 21
-71.1
 31
0.0
  0
LINE
  5
15C
330
99
100
AcDbEntity
  8
0
  6
Continuous
 62
     7
100
AcDbLine
 10
-162.2499999998948
 20
-63.5
 30
0.0
 11
-162.2499999998948
 21
-53.5
 31
0.0
  0
LINE
  5
15D
330
99
100
AcDbEntity
  8
0
  6
Continuous
 62
     7
100
AcDbLine
 10
-159.7499999998948
 20
-53.5
 30
0.0
 11
-162.2499999998948
 21
-53.5
 31
0.0
  0
LINE
  5
15E
330
99
100
AcDbEntity
  8
0
  6
Continuous
 62
     7
100
AcDbLine
 10
-137.2499999998948
 20
-53.5
 30
0.0
 11
-159.2499999998948
 21
-53.5
 31
0.0
  0
LINE
  5
15F
330
99
100
AcDbEntity
  8
0
  6
Continuous
 62
     7
100
AcDbLine
 10
-159.2499999998948
 20
-53.5
 30
0.0
 11
-159.2499999998948
 21
-55.85
 31
0.0
  0
LINE
  5
160
330
99
100
AcDbEntity
  8
0
  6
Continuous
 62
     7
100
AcDbLine
 10
-159.2499999998948
 20
-55.85
 30
0.0
 11
-159.2499999998948
 21
-63.5
 31
0.0
  0
LINE
  5
161
330
99
100
AcDbEntity
  8
0
  6
Continuous
 62
     7
100
AcDbLine
 10
-149.0499999998949
 20
-58.75
 30
0.0
 11
-156.2499999998948
 21
-58.75
 31
0.0
  0
LINE
  5
162
330
99
100
AcDbEntity
  8
0
  6
Continuous
 62
     7
100
AcDbLine
 10
-159.7499999998948
 20
-71.15
 30
0.0
 11
-159.7499999998948
 21
-73.5
 31
0.0
  0
LINE
  5
163
330
99
100
AcDbEntity
  8
0
  6
Continuous
 62
     7
100
AcDbLine
 10
-159.7499999998948
 20
-63.5
 30
0.0
 11
-159.7499999998948
 21
-71.15
 31
0.0
  0
LINE
  5
164
330
99
100
AcDbEntity
  8
0
  6
Continuous
 62
     7
100
AcDbLine
 10
-159.2499999998948
 20
-71.15
 30
0.0
 11
-159.7499999998948
 21
-71.15
 31
0.0
  0
LINE
  5
165
330
99
100
AcDbEntity
  8
0
  6
Continuous
 62
     7
100
AcDbLine
 10
-159.7499999998948
 20
-73.5
 30
0.0
 11
-162.2499999998948
 21
-73.5
 31
0.0
  0
LINE
  5
166
330
99
100
AcDbEntity
  8
0
  6
Continuous
 62
     7
100
AcDbLine
 10
-138.7499999998948
 20
-73.47400893878526
 30
0.0
 11
-145.7499999998948
 21
-73.47400893878526
 31
0.0
  0
LINE
  5
167
330
99
100
AcDbEntity
  8
0
  6
Continuous
 62
     7
100
AcDbLine
 10
-127.2499999998948
 20
-71.1
 30
0.0
 11
-137.2499999998948
 21
-71.1
 31
0.0
  0
LINE
  5
168
330
99
100
AcDbEntity
  8
0
  6
Continuous
 62
     7
100
AcDbLine
 10
-162.2499999998948
 20
-73.5
 30
0.0
 11
-162.2499999998948
 21
-63.5
 31
0.0
  0
LINE
  5
169
330
99
100
AcDbEntity
  8
0
  6
Continuous
 62
     7
100
AcDbLine
 10
-127.2499999998948
 20
-55.9
 30
0.0
 11
-137.2499999998948
 21
-55.9
 31
0.0
  0
LINE
  5
16A
330
99
100
AcDbEntity
  8
0
  6
Continuous
 62
     7
100
AcDbLine
 10
-145.7499999998948
 20
-67.86301787757056
 30
0.0
 11
-145.7499999998948
 21
-59.13698212242944
 31
0.0
  0
LINE
  5
16B
330
99
100
AcDbEntity
  8
0
  6
Continuous
 62
     7
100
AcDbLine
 10
-138.7499999998948
 20
-59.13698212242944
 30
0.0
 11
-145.7499999998948
 21
-59.13698212242944
 31
0.0
  0
LINE
  5
16C
330
99
100
AcDbEntity
  8
0
  6
Continuous
 62
     7
100
AcDbLine
 10
-138.7499999998948
 20
-53.52599106121474
 30
0.0
 11
-145.7499999998948
 21
-53.52599106121474
 31
0.0
  0
LINE
  5
16D
330
99
100
AcDbEntity
  8
0
  6
Continuous
 62
     7
100
AcDbLine
 10
-145.7499999998948
 20
-57.88900893878528
 30
0.0
 11
-145.7499999998948
 21
-53.52599106121474
 31
0.0
  0
LINE
  5
16E
330
99
100
AcDbEntity
  8
0
  6
Continuous
 62
     7
100
AcDbLine
 10
-137.2499999998948
 20
-53.5
 30
0.0
 11
-137.2499999998948
 21
-55.9
 31
0.0
  0
LINE
  5
16F
330
99
100
AcDbEntity
  8
0
  6
Continuous
 62
     7
100
AcDbLine
 10
-137.2499999998948
 20
-55.9
 30
0.0
 11
-137.2499999998948
 21
-63.5
 31
0.0
  0
LINE
  5
170
330
99
100
AcDbEntity
  8
0
  6
Continuous
 62
     7
100
AcDbLine
 10
-138.7499999998948
 20
-57.88900893878528
 30
0.0
 11
-138.7499999998948
 21
-53.52599106121474
 31
0.0
  0
LINE
  5
171
330
99
100
AcDbEntity
  8
0
  6
Continuous
 62
     7
100
AcDbLine
 10
-138.7499999998948
 20
-57.88900893878528
 30
0.0
 11
-145.7499999998948
 21
-57.88900893878528
 31
0.0
  0
LINE
  5
172
330
99
100
AcDbEntity
  8
0
  6
Continuous
 62
     7
100
AcDbLine
 10
-138.7499999998948
 20
-67.86301787757056
 30
0.0
 11
-138.7499999998948
 21
-59.13698212242944
 31
0.0
  0
LINE
  5
173
330
99
100
AcDbEntity
  8
0
  6
Continuous
 62
     7
100
AcDbLine
 10
-127.2499999998948
 20
-71.1
 30
0.0
 11
-127.2499999998948
 21
-55.9
 31
0.0
  0
LINE
  5
174
330
99
100
AcDbEntity
  8
0
  6
Continuous
 62
     7
100
AcDbLine
 10
-149.0499999998949
 20
-68.25
 30
0.0
 11
-156.2499999998948
 21
-68.25
 31
0.0
  0
LINE
  5
175
330
99
100
AcDbEntity
  8
0
  6
Continuous
 62
     7
100
AcDbLine
 10
-159.2499999998948
 20
-71.15
 30
0.0
 11
-159.2499999998948
 21
-73.5
 31
0.0
  0
LINE
  5
176
330
99
100
AcDbEntity
  8
0
  6
Continuous
 62
     7
100
AcDbLine
 10
-159.2499999998948
 20
-63.5
 30
0.0
 11
-159.2499999998948
 21
-71.15
 31
0.0
  0
LINE
  5
177
330
99
100
AcDbEntity
  8
0
  6
Continuous
 62
     7
100
AcDbLine
 10
-156.2499999998948
 20
-68.25
 30
0.0
 11
-156.2499999998948
 21
-58.75
 31
0.0
  0
LINE
  5
178
330
99
100
AcDbEntity
  8
0
  6
Continuous
 62
     7
100
AcDbLine
 10
-149.0499999998949
 20
-68.25
 30
0.0
 11
-149.0499999998949
 21
-58.75
 31
0.0
  0
LINE
  5
179
330
99
100
AcDbEntity
  8
0
  6
Continuous
 62
     7
100
AcDbLine
 10
-137.2499999998948
 20
-73.5
 30
0.0
 11
-159.2499999998948
 21
-73.5
 31
0.0
  0
LINE
  5
17A
330
99
100
AcDbEntity
  8
1
  6
Continuous
 62
     2
100
AcDbLine
 10
-127.2499999998948
 20
-70.43
 30
0.0
 11
-137.2499999998948
 21
-70.43
 31
0.0
  0
LINE
  5
17B
330
99
100
AcDbEntity
  8
1
  6
Continuous
 62
     2
100
AcDbLine
 10
-127.2499999998948
 20
-56.57
 30
0.0
 11
-137.2499999998948
 21
-56.57
 31
0.0
  0
LINE
  5
17C
330
99
100
AcDbEntity
  8
1
  6
DOT_CENTER
 62
     2
100
AcDbLine
 10
-127.249999999895
 20
-63.5
 30
0.0
 11
-162.2499999998948
 21
-63.5
 31
0.0
  0
ENDBLK
  5
9B
330
99
100
AcDbEntity
  8
0
100
AcDbBlockEnd
  0
BLOCK
  5
9E
330
9C
100
AcDbEntity
  8
0
100
AcDbBlockBegin
  2
Vordans1
 70
     0
 10
-144.7499999999299
 20
-63.5
 30
0.0
  3
Vordans1
  1

  0
INSERT
  5
9D
330
9C
100
AcDbEntity
  8
0
100
AcDbBlockReference
  2
WP_G_HF_IP69K_PG9_BK-select__6
 10
-162.2499999998948
 20
-73.5
 30
0.0
  0
DIMENSION
  5
188
330
9C
100
AcDbEntity
  8
1
100
AcDbDimension
  2
*D17
 10
-162.2499999998949
 20
-78.5
 30
0.0
 11
-144.7499999999299
 21
-76.875
 31
0.0
 70
    32
  1
<>
 71
     5
 42
-1.0
 53
0.00013888888889
  3
ME10_DIM_10
100
AcDbAlignedDimension
 13
-127.2499999998948
 23
-71.1
 33
0.0
 14
-162.2499999998948
 24
-73.5
 34
0.0
100
AcDbRotatedDimension
  0
DIMENSION
  5
193
330
9C
100
AcDbEntity
  8
1
100
AcDbDimension
  2
*D18
 10
-167.2499999998948
 20
-73.5
 30
0.0
 11
-168.8749999998948
 21
-63.451086288819
 31
0.0
 70
    32
  1
<>
 71
     5
 42
-1.0
 53
90.0
  3
ME10_DIM_11
100
AcDbAlignedDimension
 13
-162.2499999998948
 23
-53.5
 33
0.0
 14
-162.2499999998948
 24
-73.5
 34
0.0
 50
90.0
100
AcDbRotatedDimension
  0
ENDBLK
  5
9F
330
9C
100
AcDbEntity
  8
0
100
AcDbBlockEnd
  0
BLOCK
  5
A1
330
A0
100
AcDbEntity
  8
0
100
AcDbBlockBegin
  2
_rahmen
 70
     0
 10
-110.909122795991
 20
-276.3092917697931
 30
0.0
  3
_rahmen
  1

  0
LINE
  5
194
330
A0
100
AcDbEntity
  8
1
  6
Continuous
 62
     6
100
AcDbLine
 10
-240.453927322741
 20
-245.8092917697929
 30
0.0
 11
-110.9091227959893
 21
-245.8092917697929
 31
0.0
  0
LINE
  5
195
330
A0
100
AcDbEntity
  8
1
  6
Continuous
 62
     7
100
AcDbLine
 10
-222.253927322741
 20
-267.0592917697929
 30
0.0
 11
-204.0539273227411
 21
-267.0592917697929
 31
0.0
  0
LINE
  5
196
330
A0
100
AcDbEntity
  8
1
  6
Continuous
 62
     6
100
AcDbLine
 10
-222.253927322741
 20
-271.3092917697929
 30
0.0
 11
-240.453927322741
 21
-271.3092917697931
 31
0.0
  0
LINE
  5
197
330
A0
100
AcDbEntity
  8
1
  6
Continuous
 62
     7
100
AcDbLine
 10
-222.253927322741
 20
-267.0592917697929
 30
0.0
 11
-222.253927322741
 21
-271.3092917697929
 31
0.0
  0
LINE
  5
198
330
A0
100
AcDbEntity
  8
1
  6
Continuous
 62
     7
100
AcDbLine
 10
-204.0539273227411
 20
-267.0592917697929
 30
0.0
 11
-204.0539273227411
 21
-271.3092917697931
 31
0.0
  0
LINE
  5
199
330
A0
100
AcDbEntity
  8
1
  6
Continuous
 62
     7
100
AcDbLine
 10
-240.453927322741
 20
-267.0592917697931
 30
0.0
 11
-240.453927322741
 21
-271.3092917697931
 31
0.0
  0
LINE
  5
19A
330
A0
100
AcDbEntity
  8
1
  6
Continuous
 62
     7
100
AcDbLine
 10
-240.453927322741
 20
-267.0592917697931
 30
0.0
 11
-222.253927322741
 21
-267.0592917697929
 31
0.0
  0
LINE
  5
19B
330
A0
100
AcDbEntity
  8
1
  6
Continuous
 62
     2
100
AcDbLine
 10
-231.2172724361784
 20
-247.684291769793
 30
0.0
 11
-231.2172724361784
 21
-252.684291769793
 31
0.0
  0
LINE
  5
19C
330
A0
100
AcDbEntity
  8
1
  6
Continuous
 62
     2
100
AcDbLine
 10
-231.2172724361784
 20
-252.684291769793
 30
0.0
 11
-236.2172724361784
 21
-251.434291769793
 31
0.0
  0
LINE
  5
19D
330
A0
100
AcDbEntity
  8
1
  6
Continuous
 62
     2
100
AcDbLine
 10
-236.2172724361784
 20
-251.434291769793
 30
0.0
 11
-236.2172724361784
 21
-248.934291769793
 31
0.0
  0
LINE
  5
19E
330
A0
100
AcDbEntity
  8
1
  6
Continuous
 62
     2
100
AcDbLine
 10
-236.2172724361784
 20
-248.934291769793
 30
0.0
 11
-231.2172724361784
 21
-247.684291769793
 31
0.0
  0
LINE
  5
19F
330
A0
100
AcDbEntity
  8
1
  6
Continuous
 62
     6
100
AcDbLine
 10
-362.9091227959892
 20
-271.3092917697929
 30
0.0
 11
-397.9091227959891
 21
-271.3092917697929
 31
0.0
  0
LINE
  5
1A0
330
A0
100
AcDbEntity
  8
1
  6
Continuous
 62
     6
100
AcDbLine
 10
-110.9091227959893
 20
-254.3092917697929
 30
0.0
 11
-110.9091227959897
 21
-262.8092917697929
 31
0.0
  0
LINE
  5
1A1
330
A0
100
AcDbEntity
  8
1
  6
Continuous
 62
     6
100
AcDbLine
 10
-204.0539273227411
 20
-271.3092917697931
 30
0.0
 11
-204.409122795991
 21
-271.3092917697929
 31
0.0
  0
LINE
  5
1A2
330
A0
100
AcDbEntity
  8
1
  6
Continuous
 62
     6
100
AcDbLine
 10
-356.7091227959912
 20
-271.3092917697931
 30
0.0
 11
-362.9091227959892
 21
-271.3092917697929
 31
0.0
  0
LINE
  5
1A3
330
A0
100
AcDbEntity
  8
1
  6
Continuous
 62
     7
100
AcDbLine
 10
-204.0539273227411
 20
-254.3092917697929
 30
0.0
 11
-204.0539273227411
 21
-267.0592917697929
 31
0.0
  0
LINE
  5
1A4
330
A0
100
AcDbEntity
  8
1
  6
Continuous
 62
     7
100
AcDbLine
 10
-240.453927322741
 20
-254.3092917697929
 30
0.0
 11
-240.453927322741
 21
-267.0592917697931
 31
0.0
  0
LINE
  5
1A5
330
A0
100
AcDbEntity
  8
1
  6
Continuous
 62
     6
100
AcDbLine
 10
-254.409122795991
 20
-271.3092917697929
 30
0.0
 11
-304.4091227959912
 21
-271.3092917697929
 31
0.0
  0
LINE
  5
1A6
330
A0
100
AcDbEntity
  8
1
  6
Continuous
 62
     6
100
AcDbLine
 10
-356.7091227959912
 20
-271.3092917697931
 30
0.0
 11
-354.4091227959909
 21
-271.3092917697929
 31
0.0
  0
LINE
  5
1A7
330
A0
100
AcDbEntity
  8
1
  6
Continuous
 62
     6
100
AcDbLine
 10
-204.0539273227411
 20
-271.3092917697931
 30
0.0
 11
-154.409122795991
 21
-271.3092917697929
 31
0.0
  0
LINE
  5
1A8
330
A0
100
AcDbEntity
  8
1
  6
Continuous
 62
     6
100
AcDbLine
 10
-110.909122795991
 20
-271.3092917697929
 30
0.0
 11
-110.9091227959897
 21
-262.8092917697929
 31
0.0
  0
LINE
  5
1A9
330
A0
100
AcDbEntity
  8
1
  6
Continuous
 62
     2
100
AcDbLine
 10
-402.90912279599
 20
-271.3092917697929
 30
0.0
 11
-402.90912279599
 21
-276.3092917697931
 31
0.0
  0
LINE
  5
1AA
330
A0
100
AcDbEntity
  8
1
  6
Continuous
 62
     2
100
AcDbLine
 10
-397.9091227959891
 20
-271.3092917697929
 30
0.0
 11
-402.90912279599
 21
-271.3092917697929
 31
0.0
  0
LINE
  5
1AB
330
A0
100
AcDbEntity
  8
1
  6
Continuous
 62
     2
100
AcDbLine
 10
-397.9091227959891
 20
-276.3092917697931
 30
0.0
 11
-354.4091227959909
 21
-276.3092917697931
 31
0.0
  0
LINE
  5
1AC
330
A0
100
AcDbEntity
  8
1
  6
Continuous
 62
     2
100
AcDbLine
 10
-397.9091227959891
 20
-271.3092917697929
 30
0.0
 11
-397.9091227959891
 21
-276.3092917697931
 31
0.0
  0
LINE
  5
1AD
330
A0
100
AcDbEntity
  8
1
  6
Continuous
 62
     2
100
AcDbLine
 10
-154.409122795991
 20
-276.3092917697931
 30
0.0
 11
-204.409122795991
 21
-276.3092917697931
 31
0.0
  0
LINE
  5
1AE
330
A0
100
AcDbEntity
  8
1
  6
Continuous
 62
     2
100
AcDbLine
 10
-154.409122795991
 20
-276.3092917697931
 30
0.0
 11
-154.409122795991
 21
-271.3092917697929
 31
0.0
  0
LINE
  5
1AF
330
A0
100
AcDbEntity
  8
1
  6
Continuous
 62
     2
100
AcDbLine
 10
-204.409122795991
 20
-276.3092917697931
 30
0.0
 11
-204.409122795991
 21
-271.3092917697929
 31
0.0
  0
LINE
  5
1B0
330
A0
100
AcDbEntity
  8
1
  6
Continuous
 62
     2
100
AcDbLine
 10
-254.409122795991
 20
-276.3092917697931
 30
0.0
 11
-204.409122795991
 21
-276.3092917697931
 31
0.0
  0
LINE
  5
1B1
330
A0
100
AcDbEntity
  8
1
  6
Continuous
 62
     2
100
AcDbLine
 10
-254.409122795991
 20
-276.3092917697931
 30
0.0
 11
-254.409122795991
 21
-271.3092917697929
 31
0.0
  0
LINE
  5
1B2
330
A0
100
AcDbEntity
  8
1
  6
Continuous
 62
     2
100
AcDbLine
 10
-304.4091227959912
 20
-276.3092917697931
 30
0.0
 11
-254.409122795991
 21
-276.3092917697931
 31
0.0
  0
LINE
  5
1B3
330
A0
100
AcDbEntity
  8
1
  6
Continuous
 62
     2
100
AcDbLine
 10
-304.4091227959912
 20
-276.3092917697931
 30
0.0
 11
-304.4091227959912
 21
-271.3092917697929
 31
0.0
  0
LINE
  5
1B4
330
A0
100
AcDbEntity
  8
1
  6
Continuous
 62
     2
100
AcDbLine
 10
-354.4091227959909
 20
-276.3092917697931
 30
0.0
 11
-304.4091227959912
 21
-276.3092917697931
 31
0.0
  0
LINE
  5
1B5
330
A0
100
AcDbEntity
  8
1
  6
Continuous
 62
     2
100
AcDbLine
 10
-354.4091227959909
 20
-276.3092917697931
 30
0.0
 11
-354.4091227959909
 21
-271.3092917697929
 31
0.0
  0
LINE
  5
1B6
330
A0
100
AcDbEntity
  8
1
  6
Continuous
 62
     6
100
AcDbLine
 10
-397.9091227959892
 20
-221.3092917697928
 30
0.0
 11
-397.9091227959891
 21
-271.3092917697929
 31
0.0
  0
LINE
  5
1B7
330
A0
100
AcDbEntity
  8
1
  6
Continuous
 62
     2
100
AcDbLine
 10
-402.90912279599
 20
-221.3092917697928
 30
0.0
 11
-402.90912279599
 21
-271.3092917697929
 31
0.0
  0
LINE
  5
1B8
330
A0
100
AcDbEntity
  8
1
  6
Continuous
 62
     2
100
AcDbLine
 10
-402.90912279599
 20
-221.3092917697928
 30
0.0
 11
-397.9091227959892
 21
-221.3092917697928
 31
0.0
  0
LINE
  5
1B9
330
A0
100
AcDbEntity
  8
1
  6
Continuous
 62
     6
100
AcDbLine
 10
-397.9091227959895
 20
-171.309291769793
 30
0.0
 11
-397.9091227959892
 21
-221.3092917697928
 31
0.0
  0
LINE
  5
1BA
330
A0
100
AcDbEntity
  8
1
  6
Continuous
 62
     2
100
AcDbLine
 10
-402.90912279599
 20
-171.309291769793
 30
0.0
 11
-402.90912279599
 21
-221.3092917697928
 31
0.0
  0
LINE
  5
1BB
330
A0
100
AcDbEntity
  8
1
  6
Continuous
 62
     2
100
AcDbLine
 10
-402.90912279599
 20
-171.309291769793
 30
0.0
 11
-397.9091227959895
 21
-171.309291769793
 31
0.0
  0
LINE
  5
1BC
330
A0
100
AcDbEntity
  8
1
  6
Continuous
 62
     6
100
AcDbLine
 10
-397.90912279599
 20
-121.3092917697929
 30
0.0
 11
-397.9091227959895
 21
-171.309291769793
 31
0.0
  0
LINE
  5
1BD
330
A0
100
AcDbEntity
  8
1
  6
Continuous
 62
     2
100
AcDbLine
 10
-402.90912279599
 20
-121.3092917697929
 30
0.0
 11
-402.90912279599
 21
-171.309291769793
 31
0.0
  0
LINE
  5
1BE
330
A0
100
AcDbEntity
  8
1
  6
Continuous
 62
     2
100
AcDbLine
 10
-402.90912279599
 20
-121.3092917697929
 30
0.0
 11
-397.90912279599
 21
-121.3092917697929
 31
0.0
  0
LINE
  5
1BF
330
A0
100
AcDbEntity
  8
1
  6
Continuous
 62
     6
100
AcDbLine
 10
-397.90912279599
 20
-86.30929176979294
 30
0.0
 11
-397.90912279599
 21
-121.3092917697929
 31
0.0
  0
LINE
  5
1C0
330
A0
100
AcDbEntity
  8
1
  6
Continuous
 62
     2
100
AcDbLine
 10
-402.90912279599
 20
-66.30929176979294
 30
0.0
 11
-402.90912279599
 21
-121.3092917697929
 31
0.0
  0
LINE
  5
1C1
330
A0
100
AcDbEntity
  8
1
  6
Continuous
 62
     2
100
AcDbLine
 10
-402.90912279599
 20
-276.3092917697931
 30
0.0
 11
-397.9091227959891
 21
-276.3092917697931
 31
0.0
  0
LINE
  5
1C2
330
A0
100
AcDbEntity
  8
1
  6
Continuous
 62
     2
100
AcDbLine
 10
-254.409122795991
 20
-66.30929176979294
 30
0.0
 11
-254.409122795991
 21
-75.51798361449426
 31
0.0
  0
LINE
  5
1C3
330
A0
100
AcDbEntity
  8
1
  6
Continuous
 62
     2
100
AcDbLine
 10
-254.409122795991
 20
-66.30929176979294
 30
0.0
 11
-402.90912279599
 21
-66.30929176979294
 31
0.0
  0
LINE
  5
1C4
330
A0
100
AcDbEntity
  8
1
  6
Continuous
 62
     2
100
AcDbLine
 10
-105.909122795992
 20
-271.3092917697929
 30
0.0
 11
-105.909122795992
 21
-221.3092917697928
 31
0.0
  0
LINE
  5
1C5
330
A0
100
AcDbEntity
  8
1
  6
Continuous
 62
     2
100
AcDbLine
 10
-105.909122795992
 20
-121.3092917697929
 30
0.0
 11
-105.909122795992
 21
-66.30929176979294
 31
0.0
  0
LINE
  5
1C6
330
A0
100
AcDbEntity
  8
1
  6
Continuous
 62
     6
100
AcDbLine
 10
-110.9091227959918
 20
-121.3092917697929
 30
0.0
 11
-110.909122795992
 21
-86.30929176979294
 31
0.0
  0
LINE
  5
1C7
330
A0
100
AcDbEntity
  8
1
  6
Continuous
 62
     2
100
AcDbLine
 10
-110.9091227959918
 20
-121.3092917697929
 30
0.0
 11
-105.909122795992
 21
-121.3092917697929
 31
0.0
  0
LINE
  5
1C8
330
A0
100
AcDbEntity
  8
1
  6
Continuous
 62
     2
100
AcDbLine
 10
-105.909122795992
 20
-171.309291769793
 30
0.0
 11
-105.909122795992
 21
-121.3092917697929
 31
0.0
  0
LINE
  5
1C9
330
A0
100
AcDbEntity
  8
1
  6
Continuous
 62
     6
100
AcDbLine
 10
-110.9091227959906
 20
-171.309291769793
 30
0.0
 11
-110.9091227959918
 21
-121.3092917697929
 31
0.0
  0
LINE
  5
1CA
330
A0
100
AcDbEntity
  8
1
  6
Continuous
 62
     2
100
AcDbLine
 10
-110.9091227959906
 20
-171.309291769793
 30
0.0
 11
-105.909122795992
 21
-171.309291769793
 31
0.0
  0
LINE
  5
1CB
330
A0
100
AcDbEntity
  8
1
  6
Continuous
 62
     2
100
AcDbLine
 10
-105.909122795992
 20
-221.3092917697928
 30
0.0
 11
-105.909122795992
 21
-171.309291769793
 31
0.0
  0
LINE
  5
1CC
330
A0
100
AcDbEntity
  8
1
  6
Continuous
 62
     6
100
AcDbLine
 10
-110.9091227959901
 20
-221.3092917697928
 30
0.0
 11
-110.9091227959906
 21
-171.309291769793
 31
0.0
  0
LINE
  5
1CD
330
A0
100
AcDbEntity
  8
1
  6
Continuous
 62
     2
100
AcDbLine
 10
-110.9091227959901
 20
-221.3092917697928
 30
0.0
 11
-105.909122795992
 21
-221.3092917697928
 31
0.0
  0
LINE
  5
1CE
330
A0
100
AcDbEntity
  8
1
  6
Continuous
 62
     6
100
AcDbLine
 10
-110.909122795992
 20
-86.30929176979294
 30
0.0
 11
-397.90912279599
 21
-86.30929176979294
 31
0.0
  0
LINE
  5
1CF
330
A0
100
AcDbEntity
  8
1
  6
Continuous
 62
     2
100
AcDbLine
 10
-105.909122795992
 20
-66.30929176979294
 30
0.0
 11
-254.409122795991
 21
-66.30929176979294
 31
0.0
  0
LINE
  5
1D0
330
A0
100
AcDbEntity
  8
1
  6
Continuous
 62
     6
100
AcDbLine
 10
-110.9091227959893
 20
-254.3092917697929
 30
0.0
 11
-110.9091227959901
 21
-221.3092917697928
 31
0.0
  0
LINE
  5
1D1
330
A0
100
AcDbEntity
  8
1
  6
Continuous
 62
     2
100
AcDbLine
 10
-110.909122795991
 20
-276.3092917697931
 30
0.0
 11
-154.409122795991
 21
-276.3092917697931
 31
0.0
  0
LINE
  5
1D2
330
A0
100
AcDbEntity
  8
1
  6
Continuous
 62
     2
100
AcDbLine
 10
-105.909122795992
 20
-276.3092917697931
 30
0.0
 11
-110.909122795991
 21
-276.3092917697931
 31
0.0
  0
LINE
  5
1D3
330
A0
100
AcDbEntity
  8
1
  6
Continuous
 62
     2
100
AcDbLine
 10
-105.909122795992
 20
-276.3092917697931
 30
0.0
 11
-105.909122795992
 21
-271.3092917697929
 31
0.0
  0
LINE
  5
1D4
330
A0
100
AcDbEntity
  8
1
  6
Continuous
 62
     6
100
AcDbLine
 10
-240.453927322741
 20
-254.3092917697929
 30
0.0
 11
-204.0539273227411
 21
-254.3092917697929
 31
0.0
  0
LINE
  5
1D5
330
A0
100
AcDbEntity
  8
1
  6
Continuous
 62
     2
100
AcDbLine
 10
-110.909122795991
 20
-271.3092917697929
 30
0.0
 11
-110.909122795991
 21
-276.3092917697931
 31
0.0
  0
LINE
  5
1D6
330
A0
100
AcDbEntity
  8
1
  6
Continuous
 62
     2
100
AcDbLine
 10
-110.909122795991
 20
-271.3092917697929
 30
0.0
 11
-105.909122795992
 21
-271.3092917697929
 31
0.0
  0
LINE
  5
1D7
330
A0
100
AcDbEntity
  8
1
  6
Continuous
 62
     6
100
AcDbLine
 10
-204.409122795991
 20
-271.3092917697929
 30
0.0
 11
-222.253927322741
 21
-271.3092917697929
 31
0.0
  0
LINE
  5
1D8
330
A0
100
AcDbEntity
  8
1
  6
Continuous
 62
     6
100
AcDbLine
 10
-154.409122795991
 20
-271.3092917697929
 30
0.0
 11
-110.909122795991
 21
-271.3092917697929
 31
0.0
  0
LINE
  5
1D9
330
A0
100
AcDbEntity
  8
1
  6
Continuous
 62
     6
100
AcDbLine
 10
-304.4091227959912
 20
-271.3092917697929
 30
0.0
 11
-309.4539273227409
 21
-271.3092917697929
 31
0.0
  0
LINE
  5
1DA
330
A0
100
AcDbEntity
  8
1
  6
Continuous
 62
     6
100
AcDbLine
 10
-254.409122795991
 20
-271.3092917697929
 30
0.0
 11
-240.453927322741
 21
-271.3092917697931
 31
0.0
  0
LINE
  5
1DB
102
{ACAD_REACTORS
330
2C5
330
2C6
102
}
330
A0
100
AcDbEntity
  8
0
  6
Continuous
 62
     2
100
AcDbLine
 10
-232.9393013805942
 20
-259.2367770135808
 30
0.0
 11
-232.9393013805942
 21
-258.631241725074
 31
0.0
  0
LINE
  5
1DC
102
{ACAD_REACTORS
330
2C5
330
2C6
102
}
330
A0
100
AcDbEntity
  8
0
  6
Continuous
 62
     2
100
AcDbLine
 10
-232.9393013805942
 20
-262.0369116202121
 30
0.0
 11
-232.9393013805942
 21
-261.4550602135171
 31
0.0
  0
LINE
  5
1DD
102
{ACAD_REACTORS
330
2C7
330
2C8
102
}
330
A0
100
AcDbEntity
  8
0
  6
Continuous
 62
     2
100
AcDbLine
 10
-210.309814945115
 20
-261.7472475520891
 30
0.0
 11
-210.309814945115
 21
-264.0157917697766
 31
0.0
  0
LINE
  5
1DE
102
{ACAD_REACTORS
330
2C7
330
2C8
102
}
330
A0
100
AcDbEntity
  8
0
  6
Continuous
 62
     2
100
AcDbLine
 10
-211.6908687241026
 20
-260.9619822459661
 30
0.0
 11
-208.3059232054739
 21
-260.9619822459655
 31
0.0
  0
LINE
  5
1DF
102
{ACAD_REACTORS
330
2C7
330
2C8
102
}
330
A0
100
AcDbEntity
  8
0
  6
Continuous
 62
     2
100
AcDbLine
 10
-208.3059232054739
 20
-261.7472475520891
 30
0.0
 11
-208.3059232054739
 21
-260.9619822459655
 31
0.0
  0
LINE
  5
1E0
102
{ACAD_REACTORS
330
2C7
330
2C8
102
}
330
A0
100
AcDbEntity
  8
0
  6
Continuous
 62
     2
100
AcDbLine
 10
-209.1170222429473
 20
-261.7472475520891
 30
0.0
 11
-208.3059232054739
 21
-261.7472475520891
 31
0.0
  0
LINE
  5
1E1
102
{ACAD_REACTORS
330
2C7
330
2C8
102
}
330
A0
100
AcDbEntity
  8
0
  6
Continuous
 62
     2
100
AcDbLine
 10
-209.1170222429473
 20
-264.0157917697766
 30
0.0
 11
-209.1170222429473
 21
-261.7472475520891
 31
0.0
  0
LINE
  5
1E2
102
{ACAD_REACTORS
330
2C7
330
2C8
102
}
330
A0
100
AcDbEntity
  8
0
  6
Continuous
 62
     2
100
AcDbLine
 10
-210.309814945115
 20
-264.0157917697766
 30
0.0
 11
-209.1170222429473
 21
-264.0157917697766
 31
0.0
  0
LINE
  5
1E3
102
{ACAD_REACTORS
330
2BD
330
2BE
102
}
330
A0
100
AcDbEntity
  8
0
  6
Continuous
 62
     2
100
AcDbLine
 10
-211.0064058831795
 20
-257.6027917697911
 30
0.0
 11
-212.4091301009288
 21
-257.6027917697911
 31
0.0
  0
LINE
  5
1E4
102
{ACAD_REACTORS
330
2BD
330
2BE
102
}
330
A0
100
AcDbEntity
  8
0
  6
Continuous
 62
     2
100
AcDbLine
 10
-211.0064058831795
 20
-257.6027917697911
 30
0.0
 11
-210.4052383612877
 21
-258.2826150913467
 31
0.0
  0
LINE
  5
1E5
102
{ACAD_REACTORS
330
2BD
330
2BE
102
}
330
A0
100
AcDbEntity
  8
0
  6
Continuous
 62
     2
100
AcDbLine
 10
-210.4052383612877
 20
-258.2826150913467
 30
0.0
 11
-209.8040708393949
 21
-257.6027917697911
 31
0.0
  0
LINE
  5
1E6
102
{ACAD_REACTORS
330
2BD
330
2BE
102
}
330
A0
100
AcDbEntity
  8
0
  6
Continuous
 62
     2
100
AcDbLine
 10
-209.7038762524142
 20
-259.0757422998273
 30
0.0
 11
-208.4013466216477
 21
-257.6027917697911
 31
0.0
  0
LINE
  5
1E7
102
{ACAD_REACTORS
330
2BD
330
2BE
102
}
330
A0
100
AcDbEntity
  8
0
  6
Continuous
 62
     2
100
AcDbLine
 10
-209.7038762524142
 20
-259.0757422998273
 30
0.0
 11
-208.3059232054739
 21
-260.6566012936023
 31
0.0
  0
LINE
  5
1E8
102
{ACAD_REACTORS
330
2BD
330
2BE
102
}
330
A0
100
AcDbEntity
  8
0
  6
Continuous
 62
     2
100
AcDbLine
 10
-209.7086474232222
 20
-260.6566012936023
 30
0.0
 11
-208.3059232054739
 21
-260.6566012936023
 31
0.0
  0
LINE
  5
1E9
102
{ACAD_REACTORS
330
2BD
330
2BE
102
}
330
A0
100
AcDbEntity
  8
0
  6
Continuous
 62
     2
100
AcDbLine
 10
-210.4052383612877
 20
-259.8688695083087
 30
0.0
 11
-209.7086474232222
 21
-260.6566012936023
 31
0.0
  0
LINE
  5
1EA
102
{ACAD_REACTORS
330
2BB
330
2BC
102
}
330
A0
100
AcDbEntity
  8
0
  6
Continuous
 62
     2
100
AcDbLine
 10
-213.8643371975714
 20
-257.6027917697911
 30
0.0
 11
-212.6238327873185
 21
-257.6027917697911
 31
0.0
  0
LINE
  5
1EB
102
{ACAD_REACTORS
330
2BB
330
2BC
102
}
330
A0
100
AcDbEntity
  8
0
  6
Continuous
 62
     2
100
AcDbLine
 10
-212.6238327873185
 20
-257.6027917697911
 30
0.0
 11
-212.6238327873185
 21
-260.6566012936023
 31
0.0
  0
LINE
  5
1EC
102
{ACAD_REACTORS
330
2BB
330
2BC
102
}
330
A0
100
AcDbEntity
  8
0
  6
Continuous
 62
     2
100
AcDbLine
 10
-213.8643371975714
 20
-260.6566012936023
 30
0.0
 11
-213.8643371975714
 21
-257.6027917697911
 31
0.0
  0
LINE
  5
1ED
102
{ACAD_REACTORS
330
2B9
330
2BA
102
}
330
A0
100
AcDbEntity
  8
0
  6
Continuous
 62
     2
100
AcDbLine
 10
-215.332647280109
 20
-262.7942679602521
 30
0.0
 11
-215.0324820429166
 21
-262.0264529942655
 31
0.0
  0
LINE
  5
1EE
102
{ACAD_REACTORS
330
2B9
330
2BA
102
}
330
A0
100
AcDbEntity
  8
0
  6
Continuous
 62
     2
100
AcDbLine
 10
-215.8101828847298
 20
-264.0157917697766
 30
0.0
 11
-215.598702831254
 21
-263.4748312255588
 31
0.0
  0
LINE
  5
1EF
102
{ACAD_REACTORS
330
2B9
330
2BA
102
}
330
A0
100
AcDbEntity
  8
0
  6
Continuous
 62
     2
100
AcDbLine
 10
-215.6527342480435
 20
-260.9619822459655
 30
0.0
 11
-217.0506872949828
 21
-264.0157917697766
 31
0.0
  0
LINE
  5
1F0
102
{ACAD_REACTORS
330
2B9
330
2BA
102
}
330
A0
100
AcDbEntity
  8
0
  6
Continuous
 62
     2
100
AcDbLine
 10
-213.0142767908505
 20
-264.0157917697766
 30
0.0
 11
-214.2547812011044
 21
-264.0157917697766
 31
0.0
  0
LINE
  5
1F1
102
{ACAD_REACTORS
330
2B9
330
2BA
102
}
330
A0
100
AcDbEntity
  8
0
  6
Continuous
 62
     2
100
AcDbLine
 10
-215.598702831254
 20
-263.4748312255588
 30
0.0
 11
-214.4662612545802
 21
-263.4748312255588
 31
0.0
  0
LINE
  5
1F2
102
{ACAD_REACTORS
330
2B7
330
2B8
102
}
330
A0
100
AcDbEntity
  8
0
  6
Continuous
 62
     2
100
AcDbLine
 10
-219.208199434165
 20
-261.7472475520891
 30
0.0
 11
-218.3971003966904
 21
-261.7472475520891
 31
0.0
  0
LINE
  5
1F3
102
{ACAD_REACTORS
330
2B7
330
2B8
102
}
330
A0
100
AcDbEntity
  8
0
  6
Continuous
 62
     2
100
AcDbLine
 10
-216.3932086570514
 20
-260.9619822459655
 30
0.0
 11
-219.208199434165
 21
-260.9619822459655
 31
0.0
  0
LINE
  5
1F4
102
{ACAD_REACTORS
330
2B7
330
2B8
102
}
330
A0
100
AcDbEntity
  8
0
  6
Continuous
 62
     2
100
AcDbLine
 10
-216.3932086570514
 20
-261.7472475520891
 30
0.0
 11
-216.3932086570514
 21
-260.9619822459655
 31
0.0
  0
LINE
  5
1F5
102
{ACAD_REACTORS
330
2B7
330
2B8
102
}
330
A0
100
AcDbEntity
  8
0
  6
Continuous
 62
     2
100
AcDbLine
 10
-217.2043076945239
 20
-261.7472475520891
 30
0.0
 11
-216.3932086570514
 21
-261.7472475520891
 31
0.0
  0
LINE
  5
1F6
102
{ACAD_REACTORS
330
2B7
330
2B8
102
}
330
A0
100
AcDbEntity
  8
0
  6
Continuous
 62
     2
100
AcDbLine
 10
-217.2043076945239
 20
-264.0157917697766
 30
0.0
 11
-217.2043076945239
 21
-261.7472475520891
 31
0.0
  0
LINE
  5
1F7
102
{ACAD_REACTORS
330
2B5
330
2B6
102
}
330
A0
100
AcDbEntity
  8
0
  6
Continuous
 62
     2
100
AcDbLine
 10
-216.5361928504259
 20
-260.6566012936023
 30
0.0
 11
-216.5361928504259
 21
-259.3478257833976
 31
0.0
  0
LINE
  5
1F8
102
{ACAD_REACTORS
330
2B5
330
2B6
102
}
330
A0
100
AcDbEntity
  8
0
  6
Continuous
 62
     2
100
AcDbLine
 10
-217.7289855525924
 20
-257.6027917697911
 30
0.0
 11
-217.7289855525924
 21
-260.6566012936023
 31
0.0
  0
LINE
  5
1F9
102
{ACAD_REACTORS
330
2B5
330
2B6
102
}
330
A0
100
AcDbEntity
  8
0
  6
Continuous
 62
     2
100
AcDbLine
 10
-216.5361928504259
 20
-257.6027917697911
 30
0.0
 11
-217.7289855525924
 21
-257.6027917697911
 31
0.0
  0
LINE
  5
1FA
102
{ACAD_REACTORS
330
2B5
330
2B6
102
}
330
A0
100
AcDbEntity
  8
0
  6
Continuous
 62
     2
100
AcDbLine
 10
-215.2956884401719
 20
-257.6027917697911
 30
0.0
 11
-215.2956884401719
 21
-258.9115672799964
 31
0.0
  0
LINE
  5
1FB
102
{ACAD_REACTORS
330
2B3
330
2B4
102
}
330
A0
100
AcDbEntity
  8
0
  6
Continuous
 62
     2
100
AcDbLine
 10
-222.9774243730121
 20
-260.9619822459655
 30
0.0
 11
-222.9774243730121
 21
-264.0157917697766
 31
0.0
  0
LINE
  5
1FC
102
{ACAD_REACTORS
330
2B3
330
2B4
102
}
330
A0
100
AcDbEntity
  8
0
  6
Continuous
 62
     2
100
AcDbLine
 10
-221.7846316708445
 20
-260.9619822459655
 30
0.0
 11
-222.9774243730121
 21
-260.9619822459655
 31
0.0
  0
LINE
  5
1FD
102
{ACAD_REACTORS
330
2B3
330
2B4
102
}
330
A0
100
AcDbEntity
  8
0
  6
Continuous
 62
     2
100
AcDbLine
 10
-220.5441272605916
 20
-264.0157917697766
 30
0.0
 11
-219.3513345584252
 21
-264.0157917697766
 31
0.0
  0
LINE
  5
1FE
102
{ACAD_REACTORS
330
2B3
330
2B4
102
}
330
A0
100
AcDbEntity
  8
0
  6
Continuous
 62
     2
100
AcDbLine
 10
-222.9774243730121
 20
-264.0157917697766
 30
0.0
 11
-221.7846316708445
 21
-264.0157917697766
 31
0.0
  0
LINE
  5
1FF
102
{ACAD_REACTORS
330
2C3
330
2C4
102
}
330
A0
100
AcDbEntity
  8
0
  6
Continuous
 62
     2
100
AcDbLine
 10
-219.303471919453
 20
-258.7806897289759
 30
0.0
 11
-219.303471919453
 21
-258.3008053752341
 31
0.0
  0
LINE
  5
200
102
{ACAD_REACTORS
330
2C3
330
2C4
102
}
330
A0
100
AcDbEntity
  8
0
  6
Continuous
 62
     2
100
AcDbLine
 10
-217.9675440930253
 20
-258.7806897289759
 30
0.0
 11
-219.303471919453
 21
-258.7806897289759
 31
0.0
  0
LINE
  5
201
102
{ACAD_REACTORS
330
2C3
330
2C4
102
}
330
A0
100
AcDbEntity
  8
0
  6
Continuous
 62
     2
100
AcDbLine
 10
-217.9675440930253
 20
-259.4787033344181
 30
0.0
 11
-217.9675440930253
 21
-258.7806897289759
 31
0.0
  0
LINE
  5
202
102
{ACAD_REACTORS
330
2C3
330
2C4
102
}
330
A0
100
AcDbEntity
  8
0
  6
Continuous
 62
     2
100
AcDbLine
 10
-219.303471919453
 20
-259.4787033344181
 30
0.0
 11
-217.9675440930253
 21
-259.4787033344181
 31
0.0
  0
LINE
  5
203
102
{ACAD_REACTORS
330
2B1
330
2B2
102
}
330
A0
100
AcDbEntity
  8
0
  6
Continuous
 62
     2
100
AcDbLine
 10
-222.7864266097799
 20
-257.6027917697911
 30
0.0
 11
-222.7864266097799
 21
-260.6566012936023
 31
0.0
  0
LINE
  5
204
102
{ACAD_REACTORS
330
2B1
330
2B2
102
}
330
A0
100
AcDbEntity
  8
0
  6
Continuous
 62
     2
100
AcDbLine
 10
-222.7864266097799
 20
-260.6566012936023
 30
0.0
 11
-223.9792193119463
 21
-260.6566012936023
 31
0.0
  0
LINE
  5
205
102
{ACAD_REACTORS
330
2B1
330
2B2
102
}
330
A0
100
AcDbEntity
  8
0
  6
Continuous
 62
     2
100
AcDbLine
 10
-223.9792193119463
 20
-260.6566012936023
 30
0.0
 11
-223.9792193119463
 21
-259.5223291847585
 31
0.0
  0
LINE
  5
206
102
{ACAD_REACTORS
330
2B1
330
2B2
102
}
330
A0
100
AcDbEntity
  8
0
  6
Continuous
 62
     2
100
AcDbLine
 10
-225.0288768898538
 20
-260.6566012936023
 30
0.0
 11
-226.2216695920204
 21
-260.6566012936023
 31
0.0
  0
LINE
  5
207
102
{ACAD_REACTORS
330
2B1
330
2B2
102
}
330
A0
100
AcDbEntity
  8
0
  6
Continuous
 62
     2
100
AcDbLine
 10
-226.2216695920204
 20
-257.6027917697911
 30
0.0
 11
-225.0288768898538
 21
-257.6027917697911
 31
0.0
  0
LINE
  5
208
102
{ACAD_REACTORS
330
2B1
330
2B2
102
}
330
A0
100
AcDbEntity
  8
0
  6
Continuous
 62
     2
100
AcDbLine
 10
-225.0288768898538
 20
-257.6027917697911
 30
0.0
 11
-225.0288768898538
 21
-258.6716251031257
 31
0.0
  0
LINE
  5
209
102
{ACAD_REACTORS
330
2B1
330
2B2
102
}
330
A0
100
AcDbEntity
  8
0
  6
Continuous
 62
     2
100
AcDbLine
 10
-225.0288768898538
 20
-258.6716251031257
 30
0.0
 11
-223.9792193119463
 21
-258.6716251031257
 31
0.0
  0
LINE
  5
20A
102
{ACAD_REACTORS
330
2BF
330
2C0
102
}
330
A0
100
AcDbEntity
  8
0
  6
Continuous
 62
     2
100
AcDbLine
 10
-228.177849623574
 20
-258.2658976152312
 30
0.0
 11
-227.8605545620321
 21
-258.2658976152312
 31
0.0
  0
LINE
  5
20B
102
{ACAD_REACTORS
330
2BF
330
2C0
102
}
330
A0
100
AcDbEntity
  8
0
  6
Continuous
 62
     2
100
AcDbLine
 10
-228.177849623574
 20
-258.9716252645735
 30
0.0
 11
-227.8605545620321
 21
-258.9716252645735
 31
0.0
  0
LINE
  5
20C
102
{ACAD_REACTORS
330
2BF
330
2C0
102
}
330
A0
100
AcDbEntity
  8
0
  6
Continuous
 62
     2
100
AcDbLine
 10
-229.4183540338281
 20
-257.6027917697911
 30
0.0
 11
-229.4183540338281
 21
-260.6566012936023
 31
0.0
  0
LINE
  5
20D
102
{ACAD_REACTORS
330
2BF
330
2C0
102
}
330
A0
100
AcDbEntity
  8
0
  6
Continuous
 62
     2
100
AcDbLine
 10
-229.4183540338281
 20
-257.6027917697911
 30
0.0
 11
-227.4190820357937
 21
-257.6027917697911
 31
0.0
  0
LINE
  5
20E
102
{ACAD_REACTORS
330
2BF
330
2C0
102
}
330
A0
100
AcDbEntity
  8
0
  6
Continuous
 62
     2
100
AcDbLine
 10
-228.177849623574
 20
-259.7135230524585
 30
0.0
 11
-227.4190820357937
 21
-259.7135230524585
 31
0.0
  0
LINE
  5
20F
102
{ACAD_REACTORS
330
2C5
330
2C6
102
}
330
A0
100
AcDbEntity
  8
0
  6
Continuous
 62
     2
100
AcDbLine
 10
-235.5148500671248
 20
-258.6310642484259
 30
0.0
 11
-235.5148500671248
 21
-262.987519291143
 31
0.0
  0
LINE
  5
210
102
{ACAD_REACTORS
330
2C5
330
2C6
102
}
330
A0
100
AcDbEntity
  8
0
  6
Continuous
 62
     2
100
AcDbLine
 10
-235.1991331440491
 20
-258.3153473253498
 30
0.0
 11
-233.7232998830395
 21
-258.3153473253498
 31
0.0
  0
LINE
  5
211
102
{ACAD_REACTORS
330
2C5
330
2C6
102
}
330
A0
100
AcDbEntity
  8
0
  6
Continuous
 62
     2
100
AcDbLine
 10
-233.4075829599629
 20
-259.2350888674864
 30
0.0
 11
-233.4075829599629
 21
-258.6310642484259
 31
0.0
  0
LINE
  5
212
102
{ACAD_REACTORS
330
2C5
330
2C6
102
}
330
A0
100
AcDbEntity
  8
0
  6
Continuous
 62
     2
100
AcDbLine
 10
-233.4075829599629
 20
-262.987519291143
 30
0.0
 11
-233.4075829599629
 21
-261.4567483596114
 31
0.0
  0
LINE
  5
213
102
{ACAD_REACTORS
330
2C5
330
2C6
102
}
330
A0
100
AcDbEntity
  8
0
  6
Continuous
 62
     2
100
AcDbLine
 10
-230.3197157300788
 20
-264.0157917697766
 30
0.0
 11
-235.7930278207956
 21
-264.0157917697766
 31
0.0
  0
LINE
  5
214
102
{ACAD_REACTORS
330
2C5
330
2C6
102
}
330
A0
100
AcDbEntity
  8
0
  6
Continuous
 62
     2
100
AcDbLine
 10
-229.8954711146949
 20
-258.0270363851931
 30
0.0
 11
-229.8954711146949
 21
-263.5915471543933
 31
0.0
  0
LINE
  5
215
102
{ACAD_REACTORS
330
2C5
330
2C6
102
}
330
A0
100
AcDbEntity
  8
0
  6
Continuous
 62
     2
100
AcDbLine
 10
-235.7930278207956
 20
-257.6027917698093
 30
0.0
 11
-230.3197157300788
 21
-257.6027917698093
 31
0.0
  0
LINE
  5
216
102
{ACAD_REACTORS
330
2C5
330
2C6
102
}
330
A0
100
AcDbEntity
  8
0
  6
Continuous
 62
     2
100
AcDbLine
 10
-236.2172724361784
 20
-258.0270363851931
 30
0.0
 11
-236.2172724361784
 21
-263.5915471543933
 31
0.0
  0
LINE
  5
217
102
{ACAD_REACTORS
330
2C5
330
2C6
102
}
330
A0
100
AcDbEntity
  8
0
  6
Continuous
 62
     2
100
AcDbLine
 10
-233.7232998830395
 20
-263.3032362142197
 30
0.0
 11
-235.1991331440491
 21
-263.3032362142197
 31
0.0
  0
LINE
  5
218
102
{ACAD_REACTORS
330
2BF
330
2C0
102
}
330
A0
100
AcDbEntity
  8
0
  6
Continuous
 62
     2
100
AcDbLine
 10
-228.177849623574
 20
-260.6566012936023
 30
0.0
 11
-228.177849623574
 21
-259.7135230524585
 31
0.0
  0
LINE
  5
219
102
{ACAD_REACTORS
330
2BF
330
2C0
102
}
330
A0
100
AcDbEntity
  8
0
  6
Continuous
 62
     2
100
AcDbLine
 10
-229.4183540338281
 20
-260.6566012936023
 30
0.0
 11
-228.177849623574
 21
-260.6566012936023
 31
0.0
  0
LINE
  5
21A
102
{ACAD_REACTORS
330
2BF
330
2C0
102
}
330
A0
100
AcDbEntity
  8
0
  6
Continuous
 62
     2
100
AcDbLine
 10
-228.177849623574
 20
-258.9716252645735
 30
0.0
 11
-228.177849623574
 21
-258.2658976152312
 31
0.0
  0
LINE
  5
21B
102
{ACAD_REACTORS
330
2B1
330
2B2
102
}
330
A0
100
AcDbEntity
  8
0
  6
Continuous
 62
     2
100
AcDbLine
 10
-226.2216695920204
 20
-257.6027917697911
 30
0.0
 11
-226.2216695920204
 21
-260.6566012936023
 31
0.0
  0
LINE
  5
21C
102
{ACAD_REACTORS
330
2B1
330
2B2
102
}
330
A0
100
AcDbEntity
  8
0
  6
Continuous
 62
     2
100
AcDbLine
 10
-225.0288768898538
 20
-259.5223291847585
 30
0.0
 11
-225.0288768898538
 21
-260.6566012936023
 31
0.0
  0
LINE
  5
21D
102
{ACAD_REACTORS
330
2B1
330
2B2
102
}
330
A0
100
AcDbEntity
  8
0
  6
Continuous
 62
     2
100
AcDbLine
 10
-223.9792193119463
 20
-259.5223291847585
 30
0.0
 11
-225.0288768898538
 21
-259.5223291847585
 31
0.0
  0
LINE
  5
21E
102
{ACAD_REACTORS
330
2B1
330
2B2
102
}
330
A0
100
AcDbEntity
  8
0
  6
Continuous
 62
     2
100
AcDbLine
 10
-223.9792193119463
 20
-257.6027917697911
 30
0.0
 11
-222.7864266097799
 21
-257.6027917697911
 31
0.0
  0
LINE
  5
21F
102
{ACAD_REACTORS
330
2B1
330
2B2
102
}
330
A0
100
AcDbEntity
  8
0
  6
Continuous
 62
     2
100
AcDbLine
 10
-223.9792193119463
 20
-258.6716251031257
 30
0.0
 11
-223.9792193119463
 21
-257.6027917697911
 31
0.0
  0
LINE
  5
220
102
{ACAD_REACTORS
330
2C3
330
2C4
102
}
330
A0
100
AcDbEntity
  8
0
  6
Continuous
 62
     2
100
AcDbLine
 10
-217.9675440930253
 20
-258.3008053752341
 30
0.0
 11
-217.9675440930253
 21
-257.6027917697911
 31
0.0
  0
LINE
  5
221
102
{ACAD_REACTORS
330
2C3
330
2C4
102
}
330
A0
100
AcDbEntity
  8
0
  6
Continuous
 62
     2
100
AcDbLine
 10
-221.1178638168063
 20
-257.6027917697911
 30
0.0
 11
-217.9675440930253
 21
-257.6027917697911
 31
0.0
  0
LINE
  5
222
102
{ACAD_REACTORS
330
2C3
330
2C4
102
}
330
A0
100
AcDbEntity
  8
0
  6
Continuous
 62
     2
100
AcDbLine
 10
-221.1178638168063
 20
-260.6566012936023
 30
0.0
 11
-217.9675440930253
 21
-260.6566012936023
 31
0.0
  0
LINE
  5
223
102
{ACAD_REACTORS
330
2C3
330
2C4
102
}
330
A0
100
AcDbEntity
  8
0
  6
Continuous
 62
     2
100
AcDbLine
 10
-217.9675440930253
 20
-260.6566012936023
 30
0.0
 11
-217.9675440930253
 21
-259.9585876881598
 31
0.0
  0
LINE
  5
224
102
{ACAD_REACTORS
330
2C3
330
2C4
102
}
330
A0
100
AcDbEntity
  8
0
  6
Continuous
 62
     2
100
AcDbLine
 10
-217.9675440930253
 20
-259.9585876881598
 30
0.0
 11
-219.303471919453
 21
-259.9585876881598
 31
0.0
  0
LINE
  5
225
102
{ACAD_REACTORS
330
2C3
330
2C4
102
}
330
A0
100
AcDbEntity
  8
0
  6
Continuous
 62
     2
100
AcDbLine
 10
-219.303471919453
 20
-259.9585876881598
 30
0.0
 11
-219.303471919453
 21
-259.4787033344181
 31
0.0
  0
LINE
  5
226
102
{ACAD_REACTORS
330
2C3
330
2C4
102
}
330
A0
100
AcDbEntity
  8
0
  6
Continuous
 62
     2
100
AcDbLine
 10
-219.303471919453
 20
-258.3008053752341
 30
0.0
 11
-217.9675440930253
 21
-258.3008053752341
 31
0.0
  0
LINE
  5
227
102
{ACAD_REACTORS
330
2B3
330
2B4
102
}
330
A0
100
AcDbEntity
  8
0
  6
Continuous
 62
     2
100
AcDbLine
 10
-221.7846316708445
 20
-264.0157917697766
 30
0.0
 11
-221.7846316708445
 21
-262.707016259572
 31
0.0
  0
LINE
  5
228
102
{ACAD_REACTORS
330
2B3
330
2B4
102
}
330
A0
100
AcDbEntity
  8
0
  6
Continuous
 62
     2
100
AcDbLine
 10
-221.7846316708445
 20
-262.707016259572
 30
0.0
 11
-220.5441272605916
 21
-264.0157917697766
 31
0.0
  0
LINE
  5
229
102
{ACAD_REACTORS
330
2B3
330
2B4
102
}
330
A0
100
AcDbEntity
  8
0
  6
Continuous
 62
     2
100
AcDbLine
 10
-219.3513345584252
 20
-264.0157917697766
 30
0.0
 11
-219.3513345584252
 21
-260.9619822459655
 31
0.0
  0
LINE
  5
22A
102
{ACAD_REACTORS
330
2B3
330
2B4
102
}
330
A0
100
AcDbEntity
  8
0
  6
Continuous
 62
     2
100
AcDbLine
 10
-219.3513345584252
 20
-260.9619822459655
 30
0.0
 11
-220.5441272605916
 21
-260.9619822459655
 31
0.0
  0
LINE
  5
22B
102
{ACAD_REACTORS
330
2B3
330
2B4
102
}
330
A0
100
AcDbEntity
  8
0
  6
Continuous
 62
     2
100
AcDbLine
 10
-220.5441272605916
 20
-260.9619822459655
 30
0.0
 11
-220.5441272605916
 21
-262.2707577561706
 31
0.0
  0
LINE
  5
22C
102
{ACAD_REACTORS
330
2B3
330
2B4
102
}
330
A0
100
AcDbEntity
  8
0
  6
Continuous
 62
     2
100
AcDbLine
 10
-220.5441272605916
 20
-262.2707577561706
 30
0.0
 11
-221.7846316708445
 21
-260.9619822459655
 31
0.0
  0
LINE
  5
22D
102
{ACAD_REACTORS
330
2B5
330
2B6
102
}
330
A0
100
AcDbEntity
  8
0
  6
Continuous
 62
     2
100
AcDbLine
 10
-216.5361928504259
 20
-259.3478257833976
 30
0.0
 11
-215.2956884401719
 21
-260.6566012936023
 31
0.0
  0
LINE
  5
22E
102
{ACAD_REACTORS
330
2B5
330
2B6
102
}
330
A0
100
AcDbEntity
  8
0
  6
Continuous
 62
     2
100
AcDbLine
 10
-215.2956884401719
 20
-260.6566012936023
 30
0.0
 11
-214.1028957380053
 21
-260.6566012936023
 31
0.0
  0
LINE
  5
22F
102
{ACAD_REACTORS
330
2B5
330
2B6
102
}
330
A0
100
AcDbEntity
  8
0
  6
Continuous
 62
     2
100
AcDbLine
 10
-214.1028957380053
 20
-260.6566012936023
 30
0.0
 11
-214.1028957380053
 21
-257.6027917697911
 31
0.0
  0
LINE
  5
230
102
{ACAD_REACTORS
330
2B5
330
2B6
102
}
330
A0
100
AcDbEntity
  8
0
  6
Continuous
 62
     2
100
AcDbLine
 10
-214.1028957380053
 20
-257.6027917697911
 30
0.0
 11
-215.2956884401719
 21
-257.6027917697911
 31
0.0
  0
LINE
  5
231
102
{ACAD_REACTORS
330
2B5
330
2B6
102
}
330
A0
100
AcDbEntity
  8
0
  6
Continuous
 62
     2
100
AcDbLine
 10
-215.2956884401719
 20
-258.9115672799964
 30
0.0
 11
-216.5361928504259
 21
-257.6027917697911
 31
0.0
  0
LINE
  5
232
102
{ACAD_REACTORS
330
2B5
330
2B6
102
}
330
A0
100
AcDbEntity
  8
0
  6
Continuous
 62
     2
100
AcDbLine
 10
-217.7289855525924
 20
-260.6566012936023
 30
0.0
 11
-216.5361928504259
 21
-260.6566012936023
 31
0.0
  0
LINE
  5
233
102
{ACAD_REACTORS
330
2B7
330
2B8
102
}
330
A0
100
AcDbEntity
  8
0
  6
Continuous
 62
     2
100
AcDbLine
 10
-219.208199434165
 20
-260.9619822459655
 30
0.0
 11
-219.208199434165
 21
-261.7472475520891
 31
0.0
  0
LINE
  5
234
102
{ACAD_REACTORS
330
2B7
330
2B8
102
}
330
A0
100
AcDbEntity
  8
0
  6
Continuous
 62
     2
100
AcDbLine
 10
-218.3971003966904
 20
-261.7472475520891
 30
0.0
 11
-218.3971003966904
 21
-264.0157917697766
 31
0.0
  0
LINE
  5
235
102
{ACAD_REACTORS
330
2B7
330
2B8
102
}
330
A0
100
AcDbEntity
  8
0
  6
Continuous
 62
     2
100
AcDbLine
 10
-218.3971003966904
 20
-264.0157917697766
 30
0.0
 11
-217.2043076945239
 21
-264.0157917697766
 31
0.0
  0
LINE
  5
236
102
{ACAD_REACTORS
330
2B9
330
2BA
102
}
330
A0
100
AcDbEntity
  8
0
  6
Continuous
 62
     2
100
AcDbLine
 10
-214.2547812011044
 20
-264.0157917697766
 30
0.0
 11
-214.4662612545802
 21
-263.4748312255588
 31
0.0
  0
LINE
  5
237
102
{ACAD_REACTORS
330
2B9
330
2BA
102
}
330
A0
100
AcDbEntity
  8
0
  6
Continuous
 62
     2
100
AcDbLine
 10
-214.4122298377908
 20
-260.9619822459655
 30
0.0
 11
-213.0142767908505
 21
-264.0157917697766
 31
0.0
  0
LINE
  5
238
102
{ACAD_REACTORS
330
2B9
330
2BA
102
}
330
A0
100
AcDbEntity
  8
0
  6
Continuous
 62
     2
100
AcDbLine
 10
-215.6527342480435
 20
-260.9619822459655
 30
0.0
 11
-214.4122298377908
 21
-260.9619822459655
 31
0.0
  0
LINE
  5
239
102
{ACAD_REACTORS
330
2B9
330
2BA
102
}
330
A0
100
AcDbEntity
  8
0
  6
Continuous
 62
     2
100
AcDbLine
 10
-217.0506872949828
 20
-264.0157917697766
 30
0.0
 11
-215.8101828847298
 21
-264.0157917697766
 31
0.0
  0
LINE
  5
23A
102
{ACAD_REACTORS
330
2B9
330
2BA
102
}
330
A0
100
AcDbEntity
  8
0
  6
Continuous
 62
     2
100
AcDbLine
 10
-215.332647280109
 20
-262.7942679602521
 30
0.0
 11
-214.7323168057265
 21
-262.7942679602521
 31
0.0
  0
LINE
  5
23B
102
{ACAD_REACTORS
330
2B9
330
2BA
102
}
330
A0
100
AcDbEntity
  8
0
  6
Continuous
 62
     2
100
AcDbLine
 10
-214.7323168057265
 20
-262.7942679602521
 30
0.0
 11
-215.0324820429166
 21
-262.0264529942655
 31
0.0
  0
LINE
  5
23C
102
{ACAD_REACTORS
330
2BB
330
2BC
102
}
330
A0
100
AcDbEntity
  8
0
  6
Continuous
 62
     2
100
AcDbLine
 10
-212.6238327873185
 20
-260.6566012936023
 30
0.0
 11
-213.8643371975714
 21
-260.6566012936023
 31
0.0
  0
LINE
  5
23D
102
{ACAD_REACTORS
330
2BD
330
2BE
102
}
330
A0
100
AcDbEntity
  8
0
  6
Continuous
 62
     2
100
AcDbLine
 10
-211.1018292993534
 20
-260.6566012936023
 30
0.0
 11
-212.5045535171016
 21
-260.6566012936023
 31
0.0
  0
LINE
  5
23E
102
{ACAD_REACTORS
330
2BD
330
2BE
102
}
330
A0
100
AcDbEntity
  8
0
  6
Continuous
 62
     2
100
AcDbLine
 10
-211.1018292993534
 20
-260.6566012936023
 30
0.0
 11
-210.4052383612877
 21
-259.8688695083087
 31
0.0
  0
LINE
  5
23F
102
{ACAD_REACTORS
330
2BD
330
2BE
102
}
330
A0
100
AcDbEntity
  8
0
  6
Continuous
 62
     2
100
AcDbLine
 10
-209.8040708393949
 20
-257.6027917697911
 30
0.0
 11
-208.4013466216477
 21
-257.6027917697911
 31
0.0
  0
LINE
  5
240
102
{ACAD_REACTORS
330
2BD
330
2BE
102
}
330
A0
100
AcDbEntity
  8
0
  6
Continuous
 62
     2
100
AcDbLine
 10
-212.4091301009288
 20
-257.6027917697911
 30
0.0
 11
-211.1066004701613
 21
-259.0757422998273
 31
0.0
  0
LINE
  5
241
102
{ACAD_REACTORS
330
2BD
330
2BE
102
}
330
A0
100
AcDbEntity
  8
0
  6
Continuous
 62
     2
100
AcDbLine
 10
-212.5045535171016
 20
-260.6566012936023
 30
0.0
 11
-211.1066004701613
 21
-259.0757422998273
 31
0.0
  0
LINE
  5
242
102
{ACAD_REACTORS
330
2C7
330
2C8
102
}
330
A0
100
AcDbEntity
  8
0
  6
Continuous
 62
     2
100
AcDbLine
 10
-210.6437969017217
 20
-262.968771361613
 30
0.0
 11
-210.6437969017217
 21
-263.8412883684164
 31
0.0
  0
LINE
  5
243
102
{ACAD_REACTORS
330
2C7
330
2C8
102
}
330
A0
100
AcDbEntity
  8
0
  6
Continuous
 62
     2
100
AcDbLine
 10
-211.4134542446831
 20
-261.7472475520891
 30
0.0
 11
-210.309814945115
 21
-261.7472475520891
 31
0.0
  0
LINE
  5
244
102
{ACAD_REACTORS
330
2C9
330
2CA
102
}
330
A0
100
AcDbEntity
  8
0
  6
Continuous
 62
     2
100
AcDbLine
 10
-226.7464983809736
 20
-262.9687713616125
 30
0.0
 11
-226.7464983809736
 21
-263.8412883684158
 31
0.0
  0
LINE
  5
245
102
{ACAD_REACTORS
330
2C9
330
2CA
102
}
330
A0
100
AcDbEntity
  8
0
  6
Continuous
 62
     2
100
AcDbLine
 10
-226.7464983809736
 20
-262.0090026541296
 30
0.0
 11
-226.7464983809736
 21
-261.1364856473264
 31
0.0
  0
LINE
  5
246
330
A0
100
AcDbEntity
  8
1
  6
Continuous
 62
     7
100
AcDbLine
 10
-110.9091227959897
 20
-262.8092917697929
 30
0.0
 11
-204.0539273227411
 21
-262.8092917697929
 31
0.0
  0
LINE
  5
247
330
A0
100
AcDbEntity
  8
1
  6
Continuous
 62
     6
100
AcDbLine
 10
-309.4539273227409
 20
-271.3092917697929
 30
0.0
 11
-354.4091227959909
 21
-271.3092917697929
 31
0.0
  0
LINE
  5
248
330
A0
100
AcDbEntity
  8
1
  6
Continuous
 62
     7
100
AcDbLine
 10
-119.8275310776685
 20
-245.8092917697929
 30
0.0
 11
-119.8275310776685
 21
-254.3092917697929
 31
0.0
  0
LINE
  5
249
330
A0
100
AcDbEntity
  8
1
  6
Continuous
 62
     7
100
AcDbLine
 10
-146.3275310776681
 20
-245.8092917697929
 30
0.0
 11
-146.3275310776681
 21
-254.3092917697929
 31
0.0
  0
LINE
  5
24A
330
A0
100
AcDbEntity
  8
1
  6
Continuous
 62
     7
100
AcDbLine
 10
-204.0539273227411
 20
-254.3092917697929
 30
0.0
 11
-204.0539273227411
 21
-245.8092917697929
 31
0.0
  0
LINE
  5
24B
330
A0
100
AcDbEntity
  8
1
  6
Continuous
 62
     7
100
AcDbLine
 10
-240.453927322741
 20
-254.3092917697929
 30
0.0
 11
-240.453927322741
 21
-245.8092917697929
 31
0.0
  0
LINE
  5
24C
330
A0
100
AcDbEntity
  8
1
  6
Continuous
 62
     6
100
AcDbLine
 10
-204.0539273227411
 20
-254.3092917697929
 30
0.0
 11
-110.9091227959893
 21
-254.3092917697929
 31
0.0
  0
LINE
  5
24D
330
A0
100
AcDbEntity
  8
1
  6
Continuous
 62
     7
100
AcDbLine
 10
-176.153927322741
 20
-262.8092917697931
 30
0.0
 11
-176.153927322741
 21
-254.3092917697929
 31
0.0
  0
LINE
  5
24E
330
A0
100
AcDbEntity
  8
1
  6
PHANTOM
 62
     2
100
AcDbLine
 10
-224.9672724361784
 20
-250.184291769793
 30
0.0
 11
-230.4672724361784
 21
-250.184291769793
 31
0.0
  0
LINE
  5
24F
330
A0
100
AcDbEntity
  8
1
  6
PHANTOM
 62
     2
100
AcDbLine
 10
-227.7172724361784
 20
-247.434291769793
 30
0.0
 11
-227.7172724361784
 21
-252.934291769793
 31
0.0
  0
LINE
  5
250
330
A0
100
AcDbEntity
  8
1
  6
DOT_CENTER
 62
     2
100
AcDbLine
 10
-236.4672724361784
 20
-250.184291769793
 30
0.0
 11
-230.9672724361784
 21
-250.184291769793
 31
0.0
  0
ARC
  5
251
102
{ACAD_REACTORS
330
2C9
330
2CA
102
}
330
A0
100
AcDbEntity
  8
0
  6
Continuous
 62
     2
100
AcDbCircle
 10
-228.0824262980914
 20
-265.8015679531272
 30
0.0
 40
4.852596863497931
100
AcDbArc
 50
74.02000874164692
 51
84.84185523037502
  0
ARC
  5
252
102
{ACAD_REACTORS
330
2C9
330
2CA
102
}
330
A0
100
AcDbEntity
  8
0
  6
Continuous
 62
     2
100
AcDbCircle
 10
-227.5063856893377
 20
-262.6458075972429
 30
0.0
 40
0.9059297849853228
100
AcDbArc
 50
71.55192388185348
 51
113.372277888129
  0
ARC
  5
253
102
{ACAD_REACTORS
330
2C9
330
2CA
102
}
330
A0
100
AcDbEntity
  8
0
  6
Continuous
 62
     2
100
AcDbCircle
 10
-227.6628257220397
 20
-262.6939584372099
 30
0.0
 40
0.5115800601948034
100
AcDbArc
 50
208.5214732576956
 51
246.6277221118223
  0
ARC
  5
254
102
{ACAD_REACTORS
330
2C9
330
2CA
102
}
330
A0
100
AcDbEntity
  8
0
  6
Continuous
 62
     2
100
AcDbCircle
 10
-227.5063856893377
 20
-262.3319664184999
 30
0.0
 40
0.9059297849848149
100
AcDbArc
 50
246.6277221118682
 51
288.4480761181601
  0
ARC
  5
255
102
{ACAD_REACTORS
330
2C9
330
2CA
102
}
330
A0
100
AcDbEntity
  8
0
  6
Continuous
 62
     2
100
AcDbCircle
 10
-227.9245534229985
 20
-261.0784206424627
 30
0.0
 40
2.227384008972719
100
AcDbArc
 50
288.4480761181337
 51
301.9309089499611
  0
ARC
  5
256
102
{ACAD_REACTORS
330
2C5
330
2C6
102
}
330
A0
100
AcDbEntity
  8
0
  6
Continuous
 62
     2
100
AcDbCircle
 10
-233.1496271556053
 20
-260.3459186135486
 30
0.0
 40
0.9118481501444847
100
AcDbArc
 50
295.3740086781757
 51
64.62599132180748
  0
ARC
  5
257
102
{ACAD_REACTORS
330
2C5
330
2C6
102
}
330
A0
100
AcDbEntity
  8
0
  6
Continuous
 62
     2
100
AcDbCircle
 10
-232.6235844575174
 20
-258.631241725074
 30
0.0
 40
0.3157169230759573
100
AcDbArc
 50
90.188967042546
 51
180.0
  0
ARC
  5
258
102
{ACAD_REACTORS
330
2C7
330
2C8
102
}
330
A0
100
AcDbEntity
  8
0
  6
Continuous
 62
     2
100
AcDbCircle
 10
-211.4134542446831
 20
-262.7017705589152
 30
0.0
 40
0.9545230068260935
100
AcDbArc
 50
90.0
 51
109.337143219432
  0
ARC
  5
259
102
{ACAD_REACTORS
330
2C7
330
2C8
102
}
330
A0
100
AcDbEntity
  8
0
  6
Continuous
 62
     2
100
AcDbCircle
 10
-211.1827669847054
 20
-262.4888870078713
 30
0.0
 40
0.941059735334906
100
AcDbArc
 50
151.4785267423609
 51
208.5214732576695
  0
ARC
  5
25A
102
{ACAD_REACTORS
330
2C7
330
2C8
102
}
330
A0
100
AcDbEntity
  8
0
  6
Continuous
 62
     2
100
AcDbCircle
 10
-211.4036842100837
 20
-262.3319664184999
 30
0.0
 40
0.9059297849851757
100
AcDbArc
 50
246.6277221118154
 51
288.448076118084
  0
ARC
  5
25B
102
{ACAD_REACTORS
330
2C7
330
2C8
102
}
330
A0
100
AcDbEntity
  8
0
  6
Continuous
 62
     2
100
AcDbCircle
 10
-211.8218519437456
 20
-261.0784206424632
 30
0.0
 40
2.227384008972773
100
AcDbArc
 50
288.4480761181333
 51
301.9309089499394
  0
ARC
  5
25C
102
{ACAD_REACTORS
330
2C7
330
2C8
102
}
330
A0
100
AcDbEntity
  8
0
  6
Continuous
 62
     2
100
AcDbCircle
 10
-211.9797248188384
 20
-259.1762060626149
 30
0.0
 40
4.852596863498881
100
AcDbArc
 50
275.1581447696363
 51
285.9799912583384
  0
ARC
  5
25D
102
{ACAD_REACTORS
330
2C7
330
2C8
102
}
330
A0
100
AcDbEntity
  8
0
  6
Continuous
 62
     2
100
AcDbCircle
 10
-211.6908687241026
 20
-262.3760966458365
 30
0.0
 40
1.639695123940434
100
AcDbArc
 50
195.0618917770993
 51
275.1581447696762
  0
ARC
  5
25E
102
{ACAD_REACTORS
330
2BF
330
2C0
102
}
330
A0
100
AcDbEntity
  8
0
  6
Continuous
 62
     2
100
AcDbCircle
 10
-227.4190820357937
 20
-258.6581574111248
 30
0.0
 40
1.055365641333708
100
AcDbArc
 50
270.0
 51
90.0
  0
ARC
  5
25F
102
{ACAD_REACTORS
330
2C5
330
2C6
102
}
330
A0
100
AcDbEntity
  8
0
  6
Continuous
 62
     2
100
AcDbCircle
 10
-235.1991331440491
 20
-262.987519291143
 30
0.0
 40
0.3157169230756836
100
AcDbArc
 50
180.0
 51
270.0
  0
ARC
  5
260
102
{ACAD_REACTORS
330
2C5
330
2C6
102
}
330
A0
100
AcDbEntity
  8
0
  6
Continuous
 62
     2
100
AcDbCircle
 10
-233.7232998830395
 20
-258.6310642484259
 30
0.0
 40
0.315716923076593
100
AcDbArc
 50
0.0
 51
90.0
  0
ARC
  5
261
102
{ACAD_REACTORS
330
2C5
330
2C6
102
}
330
A0
100
AcDbEntity
  8
0
  6
Continuous
 62
     2
100
AcDbCircle
 10
-233.7232998830395
 20
-259.2350888674864
 30
0.0
 40
0.3157169230762231
100
AcDbArc
 50
295.1944106485309
 51
0.0
  0
ARC
  5
262
102
{ACAD_REACTORS
330
2C5
330
2C6
102
}
330
A0
100
AcDbEntity
  8
0
  6
Continuous
 62
     2
100
AcDbCircle
 10
-233.7232998830395
 20
-262.987519291143
 30
0.0
 40
0.3157169230767067
100
AcDbArc
 50
270.0
 51
0.0
  0
ARC
  5
263
102
{ACAD_REACTORS
330
2C5
330
2C6
102
}
330
A0
100
AcDbEntity
  8
0
  6
Continuous
 62
     2
100
AcDbCircle
 10
-235.7930278207956
 20
-258.0270363851931
 30
0.0
 40
0.4242446153838273
100
AcDbArc
 50
90.0
 51
180.0
  0
ARC
  5
264
102
{ACAD_REACTORS
330
2C5
330
2C6
102
}
330
A0
100
AcDbEntity
  8
0
  6
Continuous
 62
     2
100
AcDbCircle
 10
-230.3197157300788
 20
-258.0270363851931
 30
0.0
 40
0.4242446153838841
100
AcDbArc
 50
0.0
 51
90.0
  0
ARC
  5
265
102
{ACAD_REACTORS
330
2C5
330
2C6
102
}
330
A0
100
AcDbEntity
  8
0
  6
Continuous
 62
     2
100
AcDbCircle
 10
-230.3197157300788
 20
-263.5915471543933
 30
0.0
 40
0.4242446153833157
100
AcDbArc
 50
270.0
 51
0.0
  0
ARC
  5
266
102
{ACAD_REACTORS
330
2C3
330
2C4
102
}
330
A0
100
AcDbEntity
  8
0
  6
Continuous
 62
     2
100
AcDbCircle
 10
-221.1013318429873
 20
-259.1296965316971
 30
0.0
 40
0.7717997786796023
100
AcDbArc
 50
321.8795802028471
 51
38.12041979716621
  0
ARC
  5
267
102
{ACAD_REACTORS
330
2C3
330
2C4
102
}
330
A0
100
AcDbEntity
  8
0
  6
Continuous
 62
     2
100
AcDbCircle
 10
-220.9015918066411
 20
-259.2864277098174
 30
0.0
 40
0.5179085730134722
100
AcDbArc
 50
218.120419797156
 51
321.8795802028517
  0
ARC
  5
268
102
{ACAD_REACTORS
330
2C1
330
2C2
102
}
330
A0
100
AcDbEntity
  8
0
  6
Continuous
 62
     2
100
AcDbCircle
 10
-224.5815993956013
 20
-262.4888870078713
 30
0.0
 40
1.458034083651977
100
AcDbArc
 50
297.5481481757016
 51
62.45185182429947
  0
ARC
  5
269
102
{ACAD_REACTORS
330
2C1
330
2C2
102
}
330
A0
100
AcDbEntity
  8
0
  6
Continuous
 62
     2
100
AcDbCircle
 10
-225.1434791792679
 20
-262.4888870078713
 30
0.0
 40
1.458034083651515
100
AcDbArc
 50
117.5481481756619
 51
242.451851824337
  0
ARC
  5
26A
102
{ACAD_REACTORS
330
2C1
330
2C2
102
}
330
A0
100
AcDbEntity
  8
0
  6
Continuous
 62
     2
100
AcDbCircle
 10
-224.8625392874346
 20
-263.0274620181741
 30
0.0
 40
2.065479772208593
100
AcDbArc
 50
62.45185182430674
 51
117.548148175666
  0
ARC
  5
26B
102
{ACAD_REACTORS
330
2C1
330
2C2
102
}
330
A0
100
AcDbEntity
  8
0
  6
Continuous
 62
     2
100
AcDbCircle
 10
-224.8625392874346
 20
-261.9503119975681
 30
0.0
 40
2.065479772208382
100
AcDbArc
 50
242.4518518243383
 51
297.5481481756889
  0
ARC
  5
26C
102
{ACAD_REACTORS
330
2C3
330
2C4
102
}
330
A0
100
AcDbEntity
  8
0
  6
Continuous
 62
     2
100
AcDbCircle
 10
-220.7018517702948
 20
-259.1296965316971
 30
0.0
 40
0.7717997786797426
100
AcDbArc
 50
141.8795802028338
 51
218.1204197971529
  0
ARC
  5
26D
102
{ACAD_REACTORS
330
2C3
330
2C4
102
}
330
A0
100
AcDbEntity
  8
0
  6
Continuous
 62
     2
100
AcDbCircle
 10
-220.9015918066411
 20
-258.9729653535766
 30
0.0
 40
0.5179085730135967
100
AcDbArc
 50
38.12041979715324
 51
141.879580202839
  0
ARC
  5
26E
102
{ACAD_REACTORS
330
2C5
330
2C6
102
}
330
A0
100
AcDbEntity
  8
0
  6
Continuous
 62
     2
100
AcDbCircle
 10
-235.7930278207956
 20
-263.5915471543933
 30
0.0
 40
0.4242446153828041
100
AcDbArc
 50
180.0
 51
270.0
  0
ARC
  5
26F
102
{ACAD_REACTORS
330
2C5
330
2C6
102
}
330
A0
100
AcDbEntity
  8
0
  6
Continuous
 62
     2
100
AcDbCircle
 10
-233.7232998830395
 20
-261.4567483596114
 30
0.0
 40
0.315716923076593
100
AcDbArc
 50
0.0
 51
64.80558935146468
  0
ARC
  5
270
102
{ACAD_REACTORS
330
2C5
330
2C6
102
}
330
A0
100
AcDbEntity
  8
0
  6
Continuous
 62
     2
100
AcDbCircle
 10
-233.2007154354645
 20
-260.3459186135486
 30
0.0
 40
0.911897523557486
100
AcDbArc
 50
115.194410648532
 51
244.8055893514878
  0
ARC
  5
271
102
{ACAD_REACTORS
330
2C5
330
2C6
102
}
330
A0
100
AcDbEntity
  8
0
  6
Continuous
 62
     2
100
AcDbCircle
 10
-235.1991331440491
 20
-258.6310642484259
 30
0.0
 40
0.3157169230760815
100
AcDbArc
 50
90.0
 51
180.0
  0
ARC
  5
272
102
{ACAD_REACTORS
330
2BF
330
2C0
102
}
330
A0
100
AcDbEntity
  8
0
  6
Continuous
 62
     2
100
AcDbCircle
 10
-227.8605545620321
 20
-258.6187614399023
 30
0.0
 40
0.3528638246712035
100
AcDbArc
 50
270.0
 51
90.0
  0
ARC
  5
273
102
{ACAD_REACTORS
330
2C3
330
2C4
102
}
330
A0
100
AcDbEntity
  8
0
  6
Continuous
 62
     2
100
AcDbCircle
 10
-221.1178638168063
 20
-259.1296965316971
 30
0.0
 40
1.526904761905996
100
AcDbArc
 50
90.0
 51
270.0
  0
ARC
  5
274
102
{ACAD_REACTORS
330
2C7
330
2C8
102
}
330
A0
100
AcDbEntity
  8
0
  6
Continuous
 62
     2
100
AcDbCircle
 10
-211.6908687241026
 20
-262.6016773699063
 30
0.0
 40
1.639695123940214
100
AcDbArc
 50
90.0
 51
164.938108222895
  0
ARC
  5
275
102
{ACAD_REACTORS
330
2C7
330
2C8
102
}
330
A0
100
AcDbEntity
  8
0
  6
Continuous
 62
     2
100
AcDbCircle
 10
-212.1099965675642
 20
-262.4888870078713
 30
0.0
 40
1.205656168392973
100
AcDbArc
 50
164.938108222908
 51
195.0618917770946
  0
ARC
  5
276
102
{ACAD_REACTORS
330
2C7
330
2C8
102
}
330
A0
100
AcDbEntity
  8
0
  6
Continuous
 62
     2
100
AcDbCircle
 10
-211.5601242427868
 20
-262.6939584372099
 30
0.0
 40
0.5115800601959674
100
AcDbArc
 50
208.5214732576754
 51
246.6277221118399
  0
ARC
  5
277
102
{ACAD_REACTORS
330
2C7
330
2C8
102
}
330
A0
100
AcDbEntity
  8
0
  6
Continuous
 62
     2
100
AcDbCircle
 10
-211.5601242427868
 20
-262.2838155785323
 30
0.0
 40
0.5115800601944143
100
AcDbArc
 50
109.3371432194853
 51
151.4785267424197
  0
ARC
  5
278
102
{ACAD_REACTORS
330
2C5
330
2C6
102
}
330
A0
100
AcDbEntity
  8
0
  6
Continuous
 62
     2
100
AcDbCircle
 10
-232.6235844575174
 20
-262.0369116202121
 30
0.0
 40
0.315716923076792
100
AcDbArc
 50
180.0
 51
269.8110329574542
  0
ARC
  5
279
102
{ACAD_REACTORS
330
2C5
330
2C6
102
}
330
A0
100
AcDbEntity
  8
0
  6
Continuous
 62
     2
100
AcDbCircle
 10
-232.6179683222074
 20
-260.3340766726432
 30
0.0
 40
2.018561131933209
100
AcDbArc
 50
269.8110329575858
 51
90.18896704241416
  0
ARC
  5
27A
102
{ACAD_REACTORS
330
2C5
330
2C6
102
}
330
A0
100
AcDbEntity
  8
0
  6
Continuous
 62
     2
100
AcDbCircle
 10
-232.6235844575174
 20
-259.2367770135808
 30
0.0
 40
0.315716923076792
100
AcDbArc
 50
180.0
 51
244.6259913216437
  0
ARC
  5
27B
102
{ACAD_REACTORS
330
2C5
330
2C6
102
}
330
A0
100
AcDbEntity
  8
0
  6
Continuous
 62
     2
100
AcDbCircle
 10
-232.6235844575174
 20
-261.4550602135171
 30
0.0
 40
0.3157169230765842
100
AcDbArc
 50
115.3740086783474
 51
180.0
  0
ARC
  5
27C
102
{ACAD_REACTORS
330
2C9
330
2CA
102
}
330
A0
100
AcDbEntity
  8
0
  6
Continuous
 62
     2
100
AcDbCircle
 10
-227.7935702033555
 20
-262.6016773699063
 30
0.0
 40
1.63969512394062
100
AcDbArc
 50
84.84185523036271
 51
164.9381082228864
  0
ARC
  5
27D
102
{ACAD_REACTORS
330
2C9
330
2CA
102
}
330
A0
100
AcDbEntity
  8
0
  6
Continuous
 62
     2
100
AcDbCircle
 10
-228.2126980468183
 20
-262.4888870078713
 30
0.0
 40
1.205656168390914
100
AcDbArc
 50
164.9381082228817
 51
195.0618917770948
  0
ARC
  5
27E
102
{ACAD_REACTORS
330
2C9
330
2CA
102
}
330
A0
100
AcDbEntity
  8
0
  6
Continuous
 62
     2
100
AcDbCircle
 10
-227.7935702033555
 20
-262.3760966458365
 30
0.0
 40
1.63969512393938
100
AcDbArc
 50
195.0618917770886
 51
275.1581447696393
  0
ARC
  5
27F
102
{ACAD_REACTORS
330
2C9
330
2CA
102
}
330
A0
100
AcDbEntity
  8
0
  6
Continuous
 62
     2
100
AcDbCircle
 10
-228.0824262980914
 20
-259.1762060626149
 30
0.0
 40
4.852596863498279
100
AcDbArc
 50
275.1581447696248
 51
285.9799912583526
  0
ARC
  5
280
102
{ACAD_REACTORS
330
2C9
330
2CA
102
}
330
A0
100
AcDbEntity
  8
0
  6
Continuous
 62
     2
100
AcDbCircle
 10
-227.2854684639594
 20
-262.4888870078713
 30
0.0
 40
0.9410597353332545
100
AcDbArc
 50
151.4785267422669
 51
208.5214732577118
  0
ARC
  5
281
102
{ACAD_REACTORS
330
2C9
330
2CA
102
}
330
A0
100
AcDbEntity
  8
0
  6
Continuous
 62
     2
100
AcDbCircle
 10
-227.6628257220397
 20
-262.2838155785323
 30
0.0
 40
0.511580060194904
100
AcDbArc
 50
113.3722778881979
 51
151.4785267423044
  0
ARC
  5
282
102
{ACAD_REACTORS
330
2C9
330
2CA
102
}
330
A0
100
AcDbEntity
  8
0
  6
Continuous
 62
     2
100
AcDbCircle
 10
-227.9245534229985
 20
-263.8993533732795
 30
0.0
 40
2.227384008973517
100
AcDbArc
 50
58.06909105004049
 51
71.55192388186676
  0
ARC
  5
283
102
{ACAD_REACTORS
330
2C1
330
2C2
102
}
330
A0
100
AcDbEntity
  8
0
  6
Continuous
 62
     2
100
AcDbCircle
 10
-224.8625392874346
 20
-262.3321558297508
 30
0.0
 40
0.5179085730132297
100
AcDbArc
 50
38.12041979713714
 51
141.8795802028687
  0
ARC
  5
284
102
{ACAD_REACTORS
330
2C1
330
2C2
102
}
330
A0
100
AcDbEntity
  8
0
  6
Continuous
 62
     2
100
AcDbCircle
 10
-224.6627992510885
 20
-262.4888870078713
 30
0.0
 40
0.7717997786794106
100
AcDbArc
 50
141.8795802028413
 51
218.1204197971753
  0
ARC
  5
285
102
{ACAD_REACTORS
330
2C1
330
2C2
102
}
330
A0
100
AcDbEntity
  8
0
  6
Continuous
 62
     2
100
AcDbCircle
 10
-224.8625392874346
 20
-262.6456181859913
 30
0.0
 40
0.5179085730138231
100
AcDbArc
 50
218.1204197972055
 51
321.8795802027886
  0
ARC
  5
286
102
{ACAD_REACTORS
330
2C1
330
2C2
102
}
330
A0
100
AcDbEntity
  8
0
  6
Continuous
 62
     2
100
AcDbCircle
 10
-225.062279323781
 20
-262.4888870078713
 30
0.0
 40
0.7717997786797649
100
AcDbArc
 50
321.8795802028351
 51
38.12041979714831
  0
CIRCLE
  5
287
330
A0
100
AcDbEntity
  8
1
  6
Continuous
 62
     2
100
AcDbCircle
 10
-227.7172724361784
 20
-250.184291769793
 30
0.0
 40
2.5
  0
CIRCLE
  5
288
330
A0
100
AcDbEntity
  8
1
  6
Continuous
 62
     2
100
AcDbCircle
 10
-227.7172724361784
 20
-250.184291769793
 30
0.0
 40
1.249999999999915
  0
CIRCLE
  5
289
102
{ACAD_REACTORS
330
2C5
330
2C6
102
}
330
A0
100
AcDbEntity
  8
0
  6
Continuous
 62
     2
100
AcDbCircle
 10
-233.1734421702781
 20
-260.3459186135486
 30
0.0
 40
0.4709789327785074
  0
MTEXT
  5
28A
330
A0
100
AcDbEntity
  8
1
 62
     3
100
AcDbMText
 10
-397.9040550099192
 20
-84.51798361449414
 30
0.0
 40
1.8
 41
0.0
 71
     7
 72
     1
  3
Weitergabe sowie Vervielfältigung dieses Dokuments, Verwertung und \PMitteilung seines Inhalts sind verboten, soweit nicht ausdrücklich gestattet. \PZuwiderhandlungen verpflichten zu Schadenersatz. Alle Rechte für den Fall\Pder Patent-, Gebrauchsmus
  1
ter- oder Designeintragung vorbehalten.
  7
CONVERTER_11
 73
     1
 44
0.99639855942377
  0
MTEXT
  5
28B
330
A0
100
AcDbEntity
  8
1
 62
     3
100
AcDbMText
 10
-215.0509451711311
 20
-84.51798361449414
 30
0.0
 40
1.8
 41
0.0
 71
     7
 72
     1
  3
Transfer or duplication of this document as well as the utilisation or\Pcommunication of its content are not permitted unless express consent\Pis granted. Violations give rise to claims for damages. All rights reserved\Pin case of patent, utility mo
  1
del or design patent registrations.
  7
CONVERTER_11
 73
     1
 44
0.99639855942377
  0
TEXT
  5
28C
330
A0
100
AcDbEntity
  8
1
 62
     2
100
AcDbText
 10
-221.2539273227412
 20
-270.0683089847846
 30
0.0
 40
1.8
  1
of
 41
0.9
  7
CONVERTER_11
100
AcDbText
  0
TEXT
  5
28D
330
A0
100
AcDbEntity
  8
1
 62
     2
100
AcDbText
 10
-239.453927322741
 20
-270.0683089847846
 30
0.0
 40
1.8
  1
page
 41
0.9
  7
CONVERTER_11
100
AcDbText
  0
TEXT
  5
28E
330
A0
100
AcDbEntity
  8
1
 62
     2
100
AcDbText
 10
-230.807662352399
 20
-270.108540423595
 30
0.0
 40
1.8
  1
1
 41
0.9
  7
CONVERTER_11
100
AcDbText
  0
TEXT
  5
28F
330
A0
100
AcDbEntity
  8
1
 62
     2
100
AcDbText
 10
-216.0186185129275
 20
-270.0592917697931
 30
0.0
 40
1.8
  1
1
 41
0.9
  7
CONVERTER_11
100
AcDbText
  0
MTEXT
  5
291
330
A0
100
AcDbEntity
  8
1
 62
     7
100
AcDbMText
 10
-157.4815250593655
 20
-268.0592917697927
 30
0.0
 40
3.0
 41
0.0
 71
     5
 72
     1
  1
WP-G HF IP69K PG9 BK
  7
CONVERTER_12
 73
     1
 44
1.20048019207683
  0
MTEXT
  5
292
330
A0
100
AcDbEntity
  8
1
 62
     2
100
AcDbMText
 10
-203.0539273227411
 20
-263.8092917697929
 30
0.0
 40
1.8
 41
0.0
 71
     1
 72
     1
  1
description
  7
CONVERTER_11
 73
     1
 44
1.20048019207683
  0
MTEXT
  5
293
330
A0
100
AcDbEntity
  8
1
 62
     3
100
AcDbMText
 10
-214.2539273227411
 20
-250.1842917697929
 30
0.0
 40
2.5
 41
0.0
 71
     5
 72
     1
  1
DIN A4
  7
CONVERTER_11
 73
     1
 44
1.20048019207683
  0
MTEXT
  5
294
330
A0
100
AcDbEntity
  8
1
 62
     7
100
AcDbMText
 10
-400.40912279599
 20
-248.8092917697929
 30
0.0
 40
3.5
 41
0.0
 71
     5
 72
     1
  1
D
  7
CONVERTER_11
 73
     1
 44
1.20048019207683
  0
MTEXT
  5
295
330
A0
100
AcDbEntity
  8
1
 62
     7
100
AcDbMText
 10
-400.40912279599
 20
-196.3092917697929
 30
0.0
 40
3.5
 41
0.0
 71
     5
 72
     1
  1
C
  7
CONVERTER_11
 73
     1
 44
1.20048019207683
  0
MTEXT
  5
296
330
A0
100
AcDbEntity
  8
1
 62
     7
100
AcDbMText
 10
-400.40912279599
 20
-146.3092917697929
 30
0.0
 40
3.5
 41
0.0
 71
     5
 72
     1
  1
B
  7
CONVERTER_11
 73
     1
 44
1.20048019207683
  0
MTEXT
  5
297
330
A0
100
AcDbEntity
  8
1
 62
     7
100
AcDbMText
 10
-400.40912279599
 20
-93.80929176979294
 30
0.0
 40
3.5
 41
0.0
 71
     5
 72
     1
  1
A
  7
CONVERTER_11
 73
     1
 44
1.20048019207683
  0
MTEXT
  5
298
330
A0
100
AcDbEntity
  8
1
 62
     7
100
AcDbMText
 10
-130.1591227959918
 20
-273.8092917697931
 30
0.0
 40
3.5
 41
0.0
 71
     5
 72
     1
  1
6
  7
CONVERTER_11
 73
     1
 44
1.20048019207683
  0
MTEXT
  5
299
330
A0
100
AcDbEntity
  8
1
 62
     7
100
AcDbMText
 10
-179.409122795991
 20
-273.8092917697931
 30
0.0
 40
3.5
 41
0.0
 71
     5
 72
     1
  1
5
  7
CONVERTER_11
 73
     1
 44
1.20048019207683
  0
MTEXT
  5
29A
330
A0
100
AcDbEntity
  8
1
 62
     7
100
AcDbMText
 10
-229.4091227959911
 20
-273.8092917697931
 30
0.0
 40
3.5
 41
0.0
 71
     5
 72
     1
  1
4
  7
CONVERTER_11
 73
     1
 44
1.20048019207683
  0
MTEXT
  5
29B
330
A0
100
AcDbEntity
  8
1
 62
     7
100
AcDbMText
 10
-279.4091227959909
 20
-273.8092917697931
 30
0.0
 40
3.5
 41
0.0
 71
     5
 72
     1
  1
3
  7
CONVERTER_11
 73
     1
 44
1.20048019207683
  0
MTEXT
  5
29C
330
A0
100
AcDbEntity
  8
1
 62
     7
100
AcDbMText
 10
-329.4091227959909
 20
-273.8092917697931
 30
0.0
 40
3.5
 41
0.0
 71
     5
 72
     1
  1
2
  7
CONVERTER_11
 73
     1
 44
1.20048019207683
  0
MTEXT
  5
29D
330
A0
100
AcDbEntity
  8
1
 62
     7
100
AcDbMText
 10
-378.6591227959906
 20
-273.8092917697931
 30
0.0
 40
3.5
 41
0.0
 71
     5
 72
     1
  1
1
  7
CONVERTER_11
 73
     1
 44
1.20048019207683
  0
MTEXT
  5
29E
330
A0
100
AcDbEntity
  8
1
 62
     7
100
AcDbMText
 10
-108.409122795992
 20
-248.8092917697929
 30
0.0
 40
3.5
 41
0.0
 71
     5
 72
     1
  1
D
  7
CONVERTER_11
 73
     1
 44
1.20048019207683
  0
MTEXT
  5
29F
330
A0
100
AcDbEntity
  8
1
 62
     7
100
AcDbMText
 10
-108.409122795992
 20
-146.309291769791
 30
0.0
 40
3.5
 41
0.0
 71
     5
 72
     1
  1
B
  7
CONVERTER_11
 73
     1
 44
1.20048019207683
  0
MTEXT
  5
2A0
330
A0
100
AcDbEntity
  8
1
 62
     7
100
AcDbMText
 10
-108.409122795992
 20
-93.80929176979294
 30
0.0
 40
3.5
 41
0.0
 71
     5
 72
     1
  1
A
  7
CONVERTER_11
 73
     1
 44
1.20048019207683
  0
MTEXT
  5
2A1
330
A0
100
AcDbEntity
  8
1
 62
     7
100
AcDbMText
 10
-108.409122795992
 20
-196.309291769791
 30
0.0
 40
3.5
 41
0.0
 71
     5
 72
     1
  1
C
  7
CONVERTER_11
 73
     1
 44
1.20048019207683
  0
MTEXT
  5
2A2
330
A0
100
AcDbEntity
  8
1
 62
     2
100
AcDbMText
 10
-274.8919420477885
 20
-258.5592917697931
 30
0.0
 40
2.0
 41
0.0
 71
     5
 72
     1
  1
General Information\P- Simplified representation\P- Document excluded from change process\P- Linear dimensions [mm]
  7
CONVERTER_11
 73
     1
 44
1.20048019207683
  0
TEXT
  5
2A3
330
A0
100
AcDbEntity
  8
1
 62
     7
100
AcDbText
 10
-202.5539273227413
 20
-261.509291769793
 30
0.0
 40
2.5
  1
3240875
 41
0.81
  7
CONVERTER_12
100
AcDbText
  0
MTEXT
  5
2A4
330
A0
100
AcDbEntity
  8
1
 62
     2
100
AcDbMText
 10
-202.953927322741
 20
-255.3092917697929
 30
0.0
 40
1.8
 41
0.0
 71
     1
 72
     1
  1
ident.-No.
  7
CONVERTER_11
 73
     1
 44
1.20048019207683
  0
MTEXT
  5
2A5
330
A0
100
AcDbEntity
  8
1
 62
     2
100
AcDbMText
 10
-118.7275310776683
 20
-246.8092917697929
 30
0.0
 40
1.8
 41
0.0
 71
     1
 72
     1
  1
scale
  7
CONVERTER_11
 73
     1
 44
1.20048019207683
  0
MTEXT
  5
2A7
330
A0
100
AcDbEntity
  8
1
 62
     3
100
AcDbMText
 10
-115.3683269368287
 20
-253.0092917697928
 30
0.0
 40
2.5
 41
0.0
 71
     8
 72
     1
  1
1:1
  7
CONVERTER_13
 73
     1
 44
1.32052821128451
  0
TEXT
  5
2A8
330
A0
100
AcDbEntity
  8
1
 62
     7
100
AcDbText
 10
-202.953927322741
 20
-253.009291769793
 30
0.0
 40
2.5
  1
01209033
 41
0.81
  7
CONVERTER_12
100
AcDbText
  0
MTEXT
  5
2AA
330
A0
100
AcDbEntity
  8
1
 62
     2
100
AcDbMText
 10
-202.953927322741
 20
-246.8092917697929
 30
0.0
 40
1.8
 41
0.0
 71
     1
 72
     1
  1
document-No. / RI
  7
CONVERTER_14
 73
     1
 44
1.32052821128451
  0
TEXT
  5
2AB
330
A0
100
AcDbEntity
  8
1
 62
     3
100
AcDbText
 10
-175.153927322741
 20
-261.509291769793
 30
0.0
 40
2.5
  1
TECDOC 2D_Productdrawing
 41
0.81
  7
CONVERTER_12
100
AcDbText
  0
MTEXT
  5
2AC
330
A0
100
AcDbEntity
  8
1
 62
     2
100
AcDbMText
 10
-175.153927322741
 20
-255.309291769793
 30
0.0
 40
1.8
 41
0.0
 71
     1
 72
     1
  1
document-type
  7
CONVERTER_11
 73
     1
 44
1.20048019207683
  0
MTEXT
  5
2AD
330
A0
100
AcDbEntity
  8
1
 62
     2
100
AcDbMText
 10
-145.3275310776681
 20
-246.809291769793
 30
0.0
 40
1.8
 41
0.0
 71
     1
 72
     1
  1
date
  7
CONVERTER_11
 73
     1
 44
1.32052821128451
  0
TEXT
  5
2AE
330
A0
100
AcDbEntity
  8
1
 62
     3
100
AcDbText
 10
-145.3275310776681
 20
-253.009291769793
 30
0.0
 40
2.5
  1
22.10.2020
 41
0.81
  7
CONVERTER_12
100
AcDbText
  0
TEXT
  5
2AF
330
A0
100
AcDbEntity
  8
1
 62
     7
100
AcDbText
 10
-182.9240151036852
 20
-253.009291769793
 30
0.0
 40
2.5
  1
01
 41
0.81
  7
CONVERTER_12
100
AcDbText
  0
TEXT
  5
2B0
330
A0
100
AcDbEntity
  8
1
 62
     7
100
AcDbText
 10
-185.0803796007272
 20
-253.009291769793
 30
0.0
 40
2.5
  1
/
 41
0.9
  7
CONVERTER_11
100
AcDbText
  0
HATCH
  5
2B1
330
A0
100
AcDbEntity
  8
1
  6
Continuous
 62
     2
100
AcDbHatch
 10
0.0
 20
0.0
 30
0.0
210
0.0
220
0.0
230
1.0
  2
_USER
 70
     0
 71
     1
 91
        1
 92
        1
 93
       12
 72
     1
 10
-222.7864266097799
 20
-260.6566012936023
 11
-223.9792193119463
 21
-260.6566012936023
 72
     1
 10
-223.9792193119463
 20
-260.6566012936023
 11
-223.9792193119463
 21
-259.5223291847585
 72
     1
 10
-223.9792193119463
 20
-259.5223291847585
 11
-225.0288768898538
 21
-259.5223291847585
 72
     1
 10
-225.0288768898538
 20
-259.5223291847585
 11
-225.0288768898538
 21
-260.6566012936023
 72
     1
 10
-225.0288768898538
 20
-260.6566012936023
 11
-226.2216695920204
 21
-260.6566012936023
 72
     1
 10
-226.2216695920204
 20
-260.6566012936023
 11
-226.2216695920204
 21
-257.6027917697911
 72
     1
 10
-226.2216695920204
 20
-257.6027917697911
 11
-225.0288768898538
 21
-257.6027917697911
 72
     1
 10
-225.0288768898538
 20
-257.6027917697911
 11
-225.0288768898538
 21
-258.6716251031257
 72
     1
 10
-225.0288768898538
 20
-258.6716251031257
 11
-223.9792193119463
 21
-258.6716251031257
 72
     1
 10
-223.9792193119463
 20
-258.6716251031257
 11
-223.9792193119463
 21
-257.6027917697911
 72
     1
 10
-223.9792193119463
 20
-257.6027917697911
 11
-222.7864266097799
 21
-257.6027917697911
 72
     1
 10
-222.7864266097799
 20
-257.6027917697911
 11
-222.7864266097799
 21
-260.6566012936023
 97
       12
330
21E
330
21F
330
209
330
208
330
207
330
21B
330
206
330
21C
330
21D
330
205
330
204
330
203
 75
     1
 76
     0
 52
45.0
 41
0.1
 77
     0
 78
     1
 53
45.0
 43
0.0
 44
0.0
 45
-0.0707106781186548
 46
0.0707106781186548
 79
     0
 98
        1
 10
0.0
 20
0.0
  0
HATCH
  5
2B2
330
A0
100
AcDbEntity
  8
1
  6
Continuous
 62
     2
100
AcDbHatch
 10
0.0
 20
0.0
 30
0.0
210
0.0
220
0.0
230
1.0
  2
_USER
 70
     0
 71
     1
 91
        1
 92
        1
 93
       12
 72
     1
 10
-222.7864266097799
 20
-260.6566012936023
 11
-223.9792193119463
 21
-260.6566012936023
 72
     1
 10
-223.9792193119463
 20
-260.6566012936023
 11
-223.9792193119463
 21
-259.5223291847585
 72
     1
 10
-223.9792193119463
 20
-259.5223291847585
 11
-225.0288768898538
 21
-259.5223291847585
 72
     1
 10
-225.0288768898538
 20
-259.5223291847585
 11
-225.0288768898538
 21
-260.6566012936023
 72
     1
 10
-225.0288768898538
 20
-260.6566012936023
 11
-226.2216695920204
 21
-260.6566012936023
 72
     1
 10
-226.2216695920204
 20
-260.6566012936023
 11
-226.2216695920204
 21
-257.6027917697911
 72
     1
 10
-226.2216695920204
 20
-257.6027917697911
 11
-225.0288768898538
 21
-257.6027917697911
 72
     1
 10
-225.0288768898538
 20
-257.6027917697911
 11
-225.0288768898538
 21
-258.6716251031257
 72
     1
 10
-225.0288768898538
 20
-258.6716251031257
 11
-223.9792193119463
 21
-258.6716251031257
 72
     1
 10
-223.9792193119463
 20
-258.6716251031257
 11
-223.9792193119463
 21
-257.6027917697911
 72
     1
 10
-223.9792193119463
 20
-257.6027917697911
 11
-222.7864266097799
 21
-257.6027917697911
 72
     1
 10
-222.7864266097799
 20
-257.6027917697911
 11
-222.7864266097799
 21
-260.6566012936023
 97
       12
330
21E
330
21F
330
209
330
208
330
207
330
21B
330
206
330
21C
330
21D
330
205
330
204
330
203
 75
     1
 76
     0
 52
45.0
 41
0.1
 77
     0
 78
     1
 53
45.0
 43
0.0
 44
0.0
 45
-0.0707106781186548
 46
0.0707106781186548
 79
     0
 98
        1
 10
0.0
 20
0.0
  0
HATCH
  5
2B3
330
A0
100
AcDbEntity
  8
1
  6
Continuous
 62
     2
100
AcDbHatch
 10
0.0
 20
0.0
 30
0.0
210
0.0
220
0.0
230
1.0
  2
_USER
 70
     0
 71
     1
 91
        1
 92
        1
 93
       10
 72
     1
 10
-220.5441272605916
 20
-262.2707577561706
 11
-221.7846316708445
 21
-260.9619822459655
 72
     1
 10
-221.7846316708445
 20
-260.9619822459655
 11
-222.9774243730121
 21
-260.9619822459655
 72
     1
 10
-222.9774243730121
 20
-260.9619822459655
 11
-222.9774243730121
 21
-264.0157917697766
 72
     1
 10
-222.9774243730121
 20
-264.0157917697766
 11
-221.7846316708445
 21
-264.0157917697766
 72
     1
 10
-221.7846316708445
 20
-264.0157917697766
 11
-221.7846316708445
 21
-262.707016259572
 72
     1
 10
-221.7846316708445
 20
-262.707016259572
 11
-220.5441272605916
 21
-264.0157917697766
 72
     1
 10
-220.5441272605916
 20
-264.0157917697766
 11
-219.3513345584252
 21
-264.0157917697766
 72
     1
 10
-219.3513345584252
 20
-264.0157917697766
 11
-219.3513345584252
 21
-260.9619822459655
 72
     1
 10
-219.3513345584252
 20
-260.9619822459655
 11
-220.5441272605916
 21
-260.9619822459655
 72
     1
 10
-220.5441272605916
 20
-260.9619822459655
 11
-220.5441272605916
 21
-262.2707577561706
 97
       10
330
22C
330
1FC
330
1FB
330
1FE
330
227
330
228
330
1FD
330
229
330
22A
330
22B
 75
     1
 76
     0
 52
45.0
 41
0.1
 77
     0
 78
     1
 53
45.0
 43
0.0
 44
0.0
 45
-0.0707106781186548
 46
0.0707106781186548
 79
     0
 98
        1
 10
0.0
 20
0.0
  0
HATCH
  5
2B4
330
A0
100
AcDbEntity
  8
1
  6
Continuous
 62
     2
100
AcDbHatch
 10
0.0
 20
0.0
 30
0.0
210
0.0
220
0.0
230
1.0
  2
_USER
 70
     0
 71
     1
 91
        1
 92
        1
 93
       10
 72
     1
 10
-220.5441272605916
 20
-262.2707577561706
 11
-221.7846316708445
 21
-260.9619822459655
 72
     1
 10
-221.7846316708445
 20
-260.9619822459655
 11
-222.9774243730121
 21
-260.9619822459655
 72
     1
 10
-222.9774243730121
 20
-260.9619822459655
 11
-222.9774243730121
 21
-264.0157917697766
 72
     1
 10
-222.9774243730121
 20
-264.0157917697766
 11
-221.7846316708445
 21
-264.0157917697766
 72
     1
 10
-221.7846316708445
 20
-264.0157917697766
 11
-221.7846316708445
 21
-262.707016259572
 72
     1
 10
-221.7846316708445
 20
-262.707016259572
 11
-220.5441272605916
 21
-264.0157917697766
 72
     1
 10
-220.5441272605916
 20
-264.0157917697766
 11
-219.3513345584252
 21
-264.0157917697766
 72
     1
 10
-219.3513345584252
 20
-264.0157917697766
 11
-219.3513345584252
 21
-260.9619822459655
 72
     1
 10
-219.3513345584252
 20
-260.9619822459655
 11
-220.5441272605916
 21
-260.9619822459655
 72
     1
 10
-220.5441272605916
 20
-260.9619822459655
 11
-220.5441272605916
 21
-262.2707577561706
 97
       10
330
22C
330
1FC
330
1FB
330
1FE
330
227
330
228
330
1FD
330
229
330
22A
330
22B
 75
     1
 76
     0
 52
45.0
 41
0.1
 77
     0
 78
     1
 53
45.0
 43
0.0
 44
0.0
 45
-0.0707106781186548
 46
0.0707106781186548
 79
     0
 98
        1
 10
0.0
 20
0.0
  0
HATCH
  5
2B5
330
A0
100
AcDbEntity
  8
1
  6
Continuous
 62
     2
100
AcDbHatch
 10
0.0
 20
0.0
 30
0.0
210
0.0
220
0.0
230
1.0
  2
_USER
 70
     0
 71
     1
 91
        1
 92
        1
 93
       10
 72
     1
 10
-215.2956884401719
 20
-258.9115672799964
 11
-216.5361928504259
 21
-257.6027917697911
 72
     1
 10
-216.5361928504259
 20
-257.6027917697911
 11
-217.7289855525924
 21
-257.6027917697911
 72
     1
 10
-217.7289855525924
 20
-257.6027917697911
 11
-217.7289855525924
 21
-260.6566012936023
 72
     1
 10
-217.7289855525924
 20
-260.6566012936023
 11
-216.5361928504259
 21
-260.6566012936023
 72
     1
 10
-216.5361928504259
 20
-260.6566012936023
 11
-216.5361928504259
 21
-259.3478257833976
 72
     1
 10
-216.5361928504259
 20
-259.3478257833976
 11
-215.2956884401719
 21
-260.6566012936023
 72
     1
 10
-215.2956884401719
 20
-260.6566012936023
 11
-214.1028957380053
 21
-260.6566012936023
 72
     1
 10
-214.1028957380053
 20
-260.6566012936023
 11
-214.1028957380053
 21
-257.6027917697911
 72
     1
 10
-214.1028957380053
 20
-257.6027917697911
 11
-215.2956884401719
 21
-257.6027917697911
 72
     1
 10
-215.2956884401719
 20
-257.6027917697911
 11
-215.2956884401719
 21
-258.9115672799964
 97
       10
330
231
330
1F9
330
1F8
330
232
330
1F7
330
22D
330
22E
330
22F
330
230
330
1FA
 75
     1
 76
     0
 52
45.0
 41
0.1
 77
     0
 78
     1
 53
45.0
 43
0.0
 44
0.0
 45
-0.0707106781186548
 46
0.0707106781186548
 79
     0
 98
        1
 10
0.0
 20
0.0
  0
HATCH
  5
2B6
330
A0
100
AcDbEntity
  8
1
  6
Continuous
 62
     2
100
AcDbHatch
 10
0.0
 20
0.0
 30
0.0
210
0.0
220
0.0
230
1.0
  2
_USER
 70
     0
 71
     1
 91
        1
 92
        1
 93
       10
 72
     1
 10
-215.2956884401719
 20
-258.9115672799964
 11
-216.5361928504259
 21
-257.6027917697911
 72
     1
 10
-216.5361928504259
 20
-257.6027917697911
 11
-217.7289855525924
 21
-257.6027917697911
 72
     1
 10
-217.7289855525924
 20
-257.6027917697911
 11
-217.7289855525924
 21
-260.6566012936023
 72
     1
 10
-217.7289855525924
 20
-260.6566012936023
 11
-216.5361928504259
 21
-260.6566012936023
 72
     1
 10
-216.5361928504259
 20
-260.6566012936023
 11
-216.5361928504259
 21
-259.3478257833976
 72
     1
 10
-216.5361928504259
 20
-259.3478257833976
 11
-215.2956884401719
 21
-260.6566012936023
 72
     1
 10
-215.2956884401719
 20
-260.6566012936023
 11
-214.1028957380053
 21
-260.6566012936023
 72
     1
 10
-214.1028957380053
 20
-260.6566012936023
 11
-214.1028957380053
 21
-257.6027917697911
 72
     1
 10
-214.1028957380053
 20
-257.6027917697911
 11
-215.2956884401719
 21
-257.6027917697911
 72
     1
 10
-215.2956884401719
 20
-257.6027917697911
 11
-215.2956884401719
 21
-258.9115672799964
 97
       10
330
231
330
1F9
330
1F8
330
232
330
1F7
330
22D
330
22E
330
22F
330
230
330
1FA
 75
     1
 76
     0
 52
45.0
 41
0.1
 77
     0
 78
     1
 53
45.0
 43
0.0
 44
0.0
 45
-0.0707106781186548
 46
0.0707106781186548
 79
     0
 98
        1
 10
0.0
 20
0.0
  0
HATCH
  5
2B7
330
A0
100
AcDbEntity
  8
1
  6
Continuous
 62
     2
100
AcDbHatch
 10
0.0
 20
0.0
 30
0.0
210
0.0
220
0.0
230
1.0
  2
_USER
 70
     0
 71
     1
 91
        1
 92
        1
 93
        8
 72
     1
 10
-216.3932086570514
 20
-260.9619822459655
 11
-219.208199434165
 21
-260.9619822459655
 72
     1
 10
-219.208199434165
 20
-260.9619822459655
 11
-219.208199434165
 21
-261.7472475520891
 72
     1
 10
-219.208199434165
 20
-261.7472475520891
 11
-218.3971003966904
 21
-261.7472475520891
 72
     1
 10
-218.3971003966904
 20
-261.7472475520891
 11
-218.3971003966904
 21
-264.0157917697766
 72
     1
 10
-218.3971003966904
 20
-264.0157917697766
 11
-217.2043076945239
 21
-264.0157917697766
 72
     1
 10
-217.2043076945239
 20
-264.0157917697766
 11
-217.2043076945239
 21
-261.7472475520891
 72
     1
 10
-217.2043076945239
 20
-261.7472475520891
 11
-216.3932086570514
 21
-261.7472475520891
 72
     1
 10
-216.3932086570514
 20
-261.7472475520891
 11
-216.3932086570514
 21
-260.9619822459655
 97
        8
330
1F3
330
233
330
1F2
330
234
330
235
330
1F6
330
1F5
330
1F4
 75
     1
 76
     0
 52
45.0
 41
0.1
 77
     0
 78
     1
 53
45.0
 43
0.0
 44
0.0
 45
-0.0707106781186548
 46
0.0707106781186548
 79
     0
 98
        1
 10
0.0
 20
0.0
  0
HATCH
  5
2B8
330
A0
100
AcDbEntity
  8
1
  6
Continuous
 62
     2
100
AcDbHatch
 10
0.0
 20
0.0
 30
0.0
210
0.0
220
0.0
230
1.0
  2
_USER
 70
     0
 71
     1
 91
        1
 92
        1
 93
        8
 72
     1
 10
-216.3932086570514
 20
-260.9619822459655
 11
-219.208199434165
 21
-260.9619822459655
 72
     1
 10
-219.208199434165
 20
-260.9619822459655
 11
-219.208199434165
 21
-261.7472475520891
 72
     1
 10
-219.208199434165
 20
-261.7472475520891
 11
-218.3971003966904
 21
-261.7472475520891
 72
     1
 10
-218.3971003966904
 20
-261.7472475520891
 11
-218.3971003966904
 21
-264.0157917697766
 72
     1
 10
-218.3971003966904
 20
-264.0157917697766
 11
-217.2043076945239
 21
-264.0157917697766
 72
     1
 10
-217.2043076945239
 20
-264.0157917697766
 11
-217.2043076945239
 21
-261.7472475520891
 72
     1
 10
-217.2043076945239
 20
-261.7472475520891
 11
-216.3932086570514
 21
-261.7472475520891
 72
     1
 10
-216.3932086570514
 20
-261.7472475520891
 11
-216.3932086570514
 21
-260.9619822459655
 97
        8
330
1F3
330
233
330
1F2
330
234
330
235
330
1F6
330
1F5
330
1F4
 75
     1
 76
     0
 52
45.0
 41
0.1
 77
     0
 78
     1
 53
45.0
 43
0.0
 44
0.0
 45
-0.0707106781186548
 46
0.0707106781186548
 79
     0
 98
        1
 10
0.0
 20
0.0
  0
HATCH
  5
2B9
330
A0
100
AcDbEntity
  8
1
  6
Continuous
 62
     2
100
AcDbHatch
 10
0.0
 20
0.0
 30
0.0
210
0.0
220
0.0
230
1.0
  2
_USER
 70
     0
 71
     1
 91
        2
 92
        1
 93
        8
 72
     1
 10
-214.2547812011044
 20
-264.0157917697766
 11
-214.4662612545802
 21
-263.4748312255588
 72
     1
 10
-214.4662612545802
 20
-263.4748312255588
 11
-215.598702831254
 21
-263.4748312255588
 72
     1
 10
-215.598702831254
 20
-263.4748312255588
 11
-215.8101828847298
 21
-264.0157917697766
 72
     1
 10
-215.8101828847298
 20
-264.0157917697766
 11
-217.0506872949828
 21
-264.0157917697766
 72
     1
 10
-217.0506872949828
 20
-264.0157917697766
 11
-215.6527342480435
 21
-260.9619822459655
 72
     1
 10
-215.6527342480435
 20
-260.9619822459655
 11
-214.4122298377908
 21
-260.9619822459655
 72
     1
 10
-214.4122298377908
 20
-260.9619822459655
 11
-213.0142767908505
 21
-264.0157917697766
 72
     1
 10
-213.0142767908505
 20
-264.0157917697766
 11
-214.2547812011044
 21
-264.0157917697766
 97
        8
330
237
330
238
330
1EF
330
239
330
1EE
330
1F1
330
236
330
1F0
 92
       16
 93
        3
 72
     1
 10
-215.332647280109
 20
-262.7942679602521
 11
-215.0324820429166
 21
-262.0264529942655
 72
     1
 10
-215.0324820429166
 20
-262.0264529942655
 11
-214.7323168057265
 21
-262.7942679602521
 72
     1
 10
-214.7323168057265
 20
-262.7942679602521
 11
-215.332647280109
 21
-262.7942679602521
 97
        3
330
1ED
330
23B
330
23A
 75
     1
 76
     0
 52
45.0
 41
0.1
 77
     0
 78
     1
 53
45.0
 43
0.0
 44
0.0
 45
-0.0707106781186548
 46
0.0707106781186548
 79
     0
 98
        1
 10
0.0
 20
0.0
  0
HATCH
  5
2BA
330
A0
100
AcDbEntity
  8
1
  6
Continuous
 62
     2
100
AcDbHatch
 10
0.0
 20
0.0
 30
0.0
210
0.0
220
0.0
230
1.0
  2
_USER
 70
     0
 71
     1
 91
        2
 92
        1
 93
        8
 72
     1
 10
-214.2547812011044
 20
-264.0157917697766
 11
-214.4662612545802
 21
-263.4748312255588
 72
     1
 10
-214.4662612545802
 20
-263.4748312255588
 11
-215.598702831254
 21
-263.4748312255588
 72
     1
 10
-215.598702831254
 20
-263.4748312255588
 11
-215.8101828847298
 21
-264.0157917697766
 72
     1
 10
-215.8101828847298
 20
-264.0157917697766
 11
-217.0506872949828
 21
-264.0157917697766
 72
     1
 10
-217.0506872949828
 20
-264.0157917697766
 11
-215.6527342480435
 21
-260.9619822459655
 72
     1
 10
-215.6527342480435
 20
-260.9619822459655
 11
-214.4122298377908
 21
-260.9619822459655
 72
     1
 10
-214.4122298377908
 20
-260.9619822459655
 11
-213.0142767908505
 21
-264.0157917697766
 72
     1
 10
-213.0142767908505
 20
-264.0157917697766
 11
-214.2547812011044
 21
-264.0157917697766
 97
        8
330
237
330
238
330
1EF
330
239
330
1EE
330
1F1
330
236
330
1F0
 92
       16
 93
        3
 72
     1
 10
-215.332647280109
 20
-262.7942679602521
 11
-215.0324820429166
 21
-262.0264529942655
 72
     1
 10
-215.0324820429166
 20
-262.0264529942655
 11
-214.7323168057265
 21
-262.7942679602521
 72
     1
 10
-214.7323168057265
 20
-262.7942679602521
 11
-215.332647280109
 21
-262.7942679602521
 97
        3
330
1ED
330
23B
330
23A
 75
     1
 76
     0
 52
45.0
 41
0.1
 77
     0
 78
     1
 53
45.0
 43
0.0
 44
0.0
 45
-0.0707106781186548
 46
0.0707106781186548
 79
     0
 98
        1
 10
0.0
 20
0.0
  0
HATCH
  5
2BB
330
A0
100
AcDbEntity
  8
1
  6
Continuous
 62
     2
100
AcDbHatch
 10
0.0
 20
0.0
 30
0.0
210
0.0
220
0.0
230
1.0
  2
_USER
 70
     0
 71
     1
 91
        1
 92
        1
 93
        4
 72
     1
 10
-212.6238327873185
 20
-260.6566012936023
 11
-213.8643371975714
 21
-260.6566012936023
 72
     1
 10
-213.8643371975714
 20
-260.6566012936023
 11
-213.8643371975714
 21
-257.6027917697911
 72
     1
 10
-213.8643371975714
 20
-257.6027917697911
 11
-212.6238327873185
 21
-257.6027917697911
 72
     1
 10
-212.6238327873185
 20
-257.6027917697911
 11
-212.6238327873185
 21
-260.6566012936023
 97
        4
330
1EA
330
1EC
330
23C
330
1EB
 75
     1
 76
     0
 52
45.0
 41
0.1
 77
     0
 78
     1
 53
45.0
 43
0.0
 44
0.0
 45
-0.0707106781186548
 46
0.0707106781186548
 79
     0
 98
        1
 10
0.0
 20
0.0
  0
HATCH
  5
2BC
330
A0
100
AcDbEntity
  8
1
  6
Continuous
 62
     2
100
AcDbHatch
 10
0.0
 20
0.0
 30
0.0
210
0.0
220
0.0
230
1.0
  2
_USER
 70
     0
 71
     1
 91
        1
 92
        1
 93
        4
 72
     1
 10
-212.6238327873185
 20
-260.6566012936023
 11
-213.8643371975714
 21
-260.6566012936023
 72
     1
 10
-213.8643371975714
 20
-260.6566012936023
 11
-213.8643371975714
 21
-257.6027917697911
 72
     1
 10
-213.8643371975714
 20
-257.6027917697911
 11
-212.6238327873185
 21
-257.6027917697911
 72
     1
 10
-212.6238327873185
 20
-257.6027917697911
 11
-212.6238327873185
 21
-260.6566012936023
 97
        4
330
1EA
330
1EC
330
23C
330
1EB
 75
     1
 76
     0
 52
45.0
 41
0.1
 77
     0
 78
     1
 53
45.0
 43
0.0
 44
0.0
 45
-0.0707106781186548
 46
0.0707106781186548
 79
     0
 98
        1
 10
0.0
 20
0.0
  0
HATCH
  5
2BD
330
A0
100
AcDbEntity
  8
1
  6
Continuous
 62
     2
100
AcDbHatch
 10
0.0
 20
0.0
 30
0.0
210
0.0
220
0.0
230
1.0
  2
_USER
 70
     0
 71
     1
 91
        1
 92
        1
 93
       12
 72
     1
 10
-208.4013466216477
 20
-257.6027917697911
 11
-209.7038762524142
 21
-259.0757422998273
 72
     1
 10
-209.7038762524142
 20
-259.0757422998273
 11
-208.3059232054739
 21
-260.6566012936023
 72
     1
 10
-208.3059232054739
 20
-260.6566012936023
 11
-209.7086474232222
 21
-260.6566012936023
 72
     1
 10
-209.7086474232222
 20
-260.6566012936023
 11
-210.4052383612877
 21
-259.8688695083087
 72
     1
 10
-210.4052383612877
 20
-259.8688695083087
 11
-211.1018292993534
 21
-260.6566012936023
 72
     1
 10
-211.1018292993534
 20
-260.6566012936023
 11
-212.5045535171016
 21
-260.6566012936023
 72
     1
 10
-212.5045535171016
 20
-260.6566012936023
 11
-211.1066004701613
 21
-259.0757422998273
 72
     1
 10
-211.1066004701613
 20
-259.0757422998273
 11
-212.4091301009288
 21
-257.6027917697911
 72
     1
 10
-212.4091301009288
 20
-257.6027917697911
 11
-211.0064058831795
 21
-257.6027917697911
 72
     1
 10
-211.0064058831795
 20
-257.6027917697911
 11
-210.4052383612877
 21
-258.2826150913467
 72
     1
 10
-210.4052383612877
 20
-258.2826150913467
 11
-209.8040708393949
 21
-257.6027917697911
 72
     1
 10
-209.8040708393949
 20
-257.6027917697911
 11
-208.4013466216477
 21
-257.6027917697911
 97
       12
330
1E5
330
1E4
330
1E3
330
240
330
241
330
23D
330
23E
330
1E9
330
1E8
330
1E7
330
1E6
330
23F
 75
     1
 76
     0
 52
45.0
 41
0.1
 77
     0
 78
     1
 53
45.0
 43
0.0
 44
0.0
 45
-0.0707106781186548
 46
0.0707106781186548
 79
     0
 98
        1
 10
0.0
 20
0.0
  0
HATCH
  5
2BE
330
A0
100
AcDbEntity
  8
1
  6
Continuous
 62
     2
100
AcDbHatch
 10
0.0
 20
0.0
 30
0.0
210
0.0
220
0.0
230
1.0
  2
_USER
 70
     0
 71
     1
 91
        1
 92
        1
 93
       12
 72
     1
 10
-208.4013466216477
 20
-257.6027917697911
 11
-209.7038762524142
 21
-259.0757422998273
 72
     1
 10
-209.7038762524142
 20
-259.0757422998273
 11
-208.3059232054739
 21
-260.6566012936023
 72
     1
 10
-208.3059232054739
 20
-260.6566012936023
 11
-209.7086474232222
 21
-260.6566012936023
 72
     1
 10
-209.7086474232222
 20
-260.6566012936023
 11
-210.4052383612877
 21
-259.8688695083087
 72
     1
 10
-210.4052383612877
 20
-259.8688695083087
 11
-211.1018292993534
 21
-260.6566012936023
 72
     1
 10
-211.1018292993534
 20
-260.6566012936023
 11
-212.5045535171016
 21
-260.6566012936023
 72
     1
 10
-212.5045535171016
 20
-260.6566012936023
 11
-211.1066004701613
 21
-259.0757422998273
 72
     1
 10
-211.1066004701613
 20
-259.0757422998273
 11
-212.4091301009288
 21
-257.6027917697911
 72
     1
 10
-212.4091301009288
 20
-257.6027917697911
 11
-211.0064058831795
 21
-257.6027917697911
 72
     1
 10
-211.0064058831795
 20
-257.6027917697911
 11
-210.4052383612877
 21
-258.2826150913467
 72
     1
 10
-210.4052383612877
 20
-258.2826150913467
 11
-209.8040708393949
 21
-257.6027917697911
 72
     1
 10
-209.8040708393949
 20
-257.6027917697911
 11
-208.4013466216477
 21
-257.6027917697911
 97
       12
330
1E5
330
1E4
330
1E3
330
240
330
241
330
23D
330
23E
330
1E9
330
1E8
330
1E7
330
1E6
330
23F
 75
     1
 76
     0
 52
45.0
 41
0.1
 77
     0
 78
     1
 53
45.0
 43
0.0
 44
0.0
 45
-0.0707106781186548
 46
0.0707106781186548
 79
     0
 98
        1
 10
0.0
 20
0.0
  0
HATCH
  5
2BF
330
A0
100
AcDbEntity
  8
1
  6
Continuous
 62
     2
100
AcDbHatch
 10
0.0
 20
0.0
 30
0.0
210
0.0
220
0.0
230
1.0
  2
_USER
 70
     0
 71
     1
 91
        2
 92
        1
 93
        6
 72
     1
 10
-227.4190820357937
 20
-259.7135230524585
 11
-228.177849623574
 21
-259.7135230524585
 72
     1
 10
-228.177849623574
 20
-259.7135230524585
 11
-228.177849623574
 21
-260.6566012936023
 72
     1
 10
-228.177849623574
 20
-260.6566012936023
 11
-229.4183540338281
 21
-260.6566012936023
 72
     1
 10
-229.4183540338281
 20
-260.6566012936023
 11
-229.4183540338281
 21
-257.6027917697911
 72
     1
 10
-229.4183540338281
 20
-257.6027917697911
 11
-227.4190820357937
 21
-257.6027917697911
 72
     2
 10
-227.4190820357937
 20
-258.6581574111248
 40
1.055365641333708
 50
270.0
 51
450.0
 73
     0
 97
        6
330
20D
330
20C
330
219
330
218
330
20E
330
25E
 92
       16
 93
        4
 72
     2
 10
-227.8605545620321
 20
-258.6187614399023
 40
0.3528638246712035
 50
270.0
 51
450.0
 73
     1
 72
     1
 10
-227.8605545620321
 20
-258.2658976152312
 11
-228.177849623574
 21
-258.2658976152312
 72
     1
 10
-228.177849623574
 20
-258.2658976152312
 11
-228.177849623574
 21
-258.9716252645735
 72
     1
 10
-228.177849623574
 20
-258.9716252645735
 11
-227.8605545620321
 21
-258.9716252645735
 97
        4
330
272
330
20A
330
21A
330
20B
 75
     1
 76
     0
 52
45.0
 41
0.1
 77
     0
 78
     1
 53
45.0
 43
0.0
 44
0.0
 45
-0.0707106781186548
 46
0.0707106781186548
 79
     0
 98
        1
 10
0.0
 20
0.0
  0
HATCH
  5
2C0
330
A0
100
AcDbEntity
  8
1
  6
Continuous
 62
     2
100
AcDbHatch
 10
0.0
 20
0.0
 30
0.0
210
0.0
220
0.0
230
1.0
  2
_USER
 70
     0
 71
     1
 91
        2
 92
        1
 93
        6
 72
     1
 10
-227.4190820357937
 20
-259.7135230524585
 11
-228.177849623574
 21
-259.7135230524585
 72
     1
 10
-228.177849623574
 20
-259.7135230524585
 11
-228.177849623574
 21
-260.6566012936023
 72
     1
 10
-228.177849623574
 20
-260.6566012936023
 11
-229.4183540338281
 21
-260.6566012936023
 72
     1
 10
-229.4183540338281
 20
-260.6566012936023
 11
-229.4183540338281
 21
-257.6027917697911
 72
     1
 10
-229.4183540338281
 20
-257.6027917697911
 11
-227.4190820357937
 21
-257.6027917697911
 72
     2
 10
-227.4190820357937
 20
-258.6581574111248
 40
1.055365641333708
 50
270.0
 51
450.0
 73
     0
 97
        6
330
20D
330
20C
330
219
330
218
330
20E
330
25E
 92
       16
 93
        4
 72
     2
 10
-227.8605545620321
 20
-258.6187614399023
 40
0.3528638246712035
 50
270.0
 51
450.0
 73
     1
 72
     1
 10
-227.8605545620321
 20
-258.2658976152312
 11
-228.177849623574
 21
-258.2658976152312
 72
     1
 10
-228.177849623574
 20
-258.2658976152312
 11
-228.177849623574
 21
-258.9716252645735
 72
     1
 10
-228.177849623574
 20
-258.9716252645735
 11
-227.8605545620321
 21
-258.9716252645735
 97
        4
330
272
330
20A
330
21A
330
20B
 75
     1
 76
     0
 52
45.0
 41
0.1
 77
     0
 78
     1
 53
45.0
 43
0.0
 44
0.0
 45
-0.0707106781186548
 46
0.0707106781186548
 79
     0
 98
        1
 10
0.0
 20
0.0
  0
HATCH
  5
2C1
330
A0
100
AcDbEntity
  8
1
  6
Continuous
 62
     2
100
AcDbHatch
 10
0.0
 20
0.0
 30
0.0
210
0.0
220
0.0
230
1.0
  2
_USER
 70
     0
 71
     1
 91
        2
 92
        1
 93
        4
 72
     2
 10
-224.8625392874346
 20
-263.0274620181741
 40
2.065479772208593
 50
62.45185182430674
 51
117.548148175666
 73
     1
 72
     2
 10
-225.1434791792679
 20
-262.4888870078713
 40
1.458034083651515
 50
117.5481481756619
 51
242.451851824337
 73
     1
 72
     2
 10
-224.8625392874346
 20
-261.9503119975681
 40
2.065479772208382
 50
242.4518518243383
 51
297.5481481756889
 73
     1
 72
     2
 10
-224.5815993956013
 20
-262.4888870078713
 40
1.458034083651977
 50
297.5481481757016
 51
422.4518518242994
 73
     1
 97
        4
330
26A
330
269
330
26B
330
268
 92
       16
 93
        4
 72
     2
 10
-225.062279323781
 20
-262.4888870078713
 40
0.7717997786797649
 50
321.8795802028351
 51
398.1204197971483
 73
     1
 72
     2
 10
-224.8625392874346
 20
-262.3321558297508
 40
0.5179085730132297
 50
38.12041979713714
 51
141.8795802028687
 73
     1
 72
     2
 10
-224.6627992510885
 20
-262.4888870078713
 40
0.7717997786794106
 50
141.8795802028413
 51
218.1204197971753
 73
     1
 72
     2
 10
-224.8625392874346
 20
-262.6456181859913
 40
0.5179085730138231
 50
218.1204197972055
 51
321.8795802027886
 73
     1
 97
        4
330
286
330
283
330
284
330
285
 75
     1
 76
     0
 52
45.0
 41
0.1
 77
     0
 78
     1
 53
45.0
 43
0.0
 44
0.0
 45
-0.0707106781186548
 46
0.0707106781186548
 79
     0
 98
        1
 10
0.0
 20
0.0
  0
HATCH
  5
2C2
330
A0
100
AcDbEntity
  8
1
  6
Continuous
 62
     2
100
AcDbHatch
 10
0.0
 20
0.0
 30
0.0
210
0.0
220
0.0
230
1.0
  2
_USER
 70
     0
 71
     1
 91
        2
 92
        1
 93
        4
 72
     2
 10
-224.8625392874346
 20
-263.0274620181741
 40
2.065479772208593
 50
62.45185182430674
 51
117.548148175666
 73
     1
 72
     2
 10
-225.1434791792679
 20
-262.4888870078713
 40
1.458034083651515
 50
117.5481481756619
 51
242.451851824337
 73
     1
 72
     2
 10
-224.8625392874346
 20
-261.9503119975681
 40
2.065479772208382
 50
242.4518518243383
 51
297.5481481756889
 73
     1
 72
     2
 10
-224.5815993956013
 20
-262.4888870078713
 40
1.458034083651977
 50
297.5481481757016
 51
422.4518518242994
 73
     1
 97
        4
330
26A
330
269
330
26B
330
268
 92
       16
 93
        4
 72
     2
 10
-225.062279323781
 20
-262.4888870078713
 40
0.7717997786797649
 50
321.8795802028351
 51
398.1204197971483
 73
     1
 72
     2
 10
-224.8625392874346
 20
-262.3321558297508
 40
0.5179085730132297
 50
38.12041979713714
 51
141.8795802028687
 73
     1
 72
     2
 10
-224.6627992510885
 20
-262.4888870078713
 40
0.7717997786794106
 50
141.8795802028413
 51
218.1204197971753
 73
     1
 72
     2
 10
-224.8625392874346
 20
-262.6456181859913
 40
0.5179085730138231
 50
218.1204197972055
 51
321.8795802027886
 73
     1
 97
        4
330
286
330
283
330
284
330
285
 75
     1
 76
     0
 52
45.0
 41
0.1
 77
     0
 78
     1
 53
45.0
 43
0.0
 44
0.0
 45
-0.0707106781186548
 46
0.0707106781186548
 79
     0
 98
        1
 10
0.0
 20
0.0
  0
HATCH
  5
2C3
330
A0
100
AcDbEntity
  8
1
  6
Continuous
 62
     2
100
AcDbHatch
 10
0.0
 20
0.0
 30
0.0
210
0.0
220
0.0
230
1.0
  2
_USER
 70
     0
 71
     1
 91
        2
 92
        1
 93
       12
 72
     1
 10
-217.9675440930253
 20
-258.3008053752341
 11
-219.303471919453
 21
-258.3008053752341
 72
     1
 10
-219.303471919453
 20
-258.3008053752341
 11
-219.303471919453
 21
-258.7806897289759
 72
     1
 10
-219.303471919453
 20
-258.7806897289759
 11
-217.9675440930253
 21
-258.7806897289759
 72
     1
 10
-217.9675440930253
 20
-258.7806897289759
 11
-217.9675440930253
 21
-259.4787033344181
 72
     1
 10
-217.9675440930253
 20
-259.4787033344181
 11
-219.303471919453
 21
-259.4787033344181
 72
     1
 10
-219.303471919453
 20
-259.4787033344181
 11
-219.303471919453
 21
-259.9585876881598
 72
     1
 10
-219.303471919453
 20
-259.9585876881598
 11
-217.9675440930253
 21
-259.9585876881598
 72
     1
 10
-217.9675440930253
 20
-259.9585876881598
 11
-217.9675440930253
 21
-260.6566012936023
 72
     1
 10
-217.9675440930253
 20
-260.6566012936023
 11
-221.1178638168063
 21
-260.6566012936023
 72
     2
 10
-221.1178638168063
 20
-259.1296965316971
 40
1.526904761905996
 50
90.0
 51
270.0
 73
     0
 72
     1
 10
-221.1178638168063
 20
-257.6027917697911
 11
-217.9675440930253
 21
-257.6027917697911
 72
     1
 10
-217.9675440930253
 20
-257.6027917697911
 11
-217.9675440930253
 21
-258.3008053752341
 97
       12
330
221
330
273
330
222
330
223
330
224
330
225
330
202
330
201
330
200
330
1FF
330
226
330
220
 92
       16
 93
        4
 72
     2
 10
-220.9015918066411
 20
-258.9729653535766
 40
0.5179085730135967
 50
38.12041979715324
 51
141.879580202839
 73
     1
 72
     2
 10
-220.7018517702948
 20
-259.1296965316971
 40
0.7717997786797426
 50
141.8795802028338
 51
218.1204197971529
 73
     1
 72
     2
 10
-220.9015918066411
 20
-259.2864277098174
 40
0.5179085730134722
 50
218.120419797156
 51
321.8795802028517
 73
     1
 72
     2
 10
-221.1013318429873
 20
-259.1296965316971
 40
0.7717997786796023
 50
321.8795802028471
 51
398.1204197971662
 73
     1
 97
        4
330
26D
330
26C
330
267
330
266
 75
     1
 76
     0
 52
45.0
 41
0.1
 77
     0
 78
     1
 53
45.0
 43
0.0
 44
0.0
 45
-0.0707106781186548
 46
0.0707106781186548
 79
     0
 98
        1
 10
0.0
 20
0.0
  0
HATCH
  5
2C4
330
A0
100
AcDbEntity
  8
1
  6
Continuous
 62
     2
100
AcDbHatch
 10
0.0
 20
0.0
 30
0.0
210
0.0
220
0.0
230
1.0
  2
_USER
 70
     0
 71
     1
 91
        2
 92
        1
 93
       12
 72
     1
 10
-217.9675440930253
 20
-258.3008053752341
 11
-219.303471919453
 21
-258.3008053752341
 72
     1
 10
-219.303471919453
 20
-258.3008053752341
 11
-219.303471919453
 21
-258.7806897289759
 72
     1
 10
-219.303471919453
 20
-258.7806897289759
 11
-217.9675440930253
 21
-258.7806897289759
 72
     1
 10
-217.9675440930253
 20
-258.7806897289759
 11
-217.9675440930253
 21
-259.4787033344181
 72
     1
 10
-217.9675440930253
 20
-259.4787033344181
 11
-219.303471919453
 21
-259.4787033344181
 72
     1
 10
-219.303471919453
 20
-259.4787033344181
 11
-219.303471919453
 21
-259.9585876881598
 72
     1
 10
-219.303471919453
 20
-259.9585876881598
 11
-217.9675440930253
 21
-259.9585876881598
 72
     1
 10
-217.9675440930253
 20
-259.9585876881598
 11
-217.9675440930253
 21
-260.6566012936023
 72
     1
 10
-217.9675440930253
 20
-260.6566012936023
 11
-221.1178638168063
 21
-260.6566012936023
 72
     2
 10
-221.1178638168063
 20
-259.1296965316971
 40
1.526904761905996
 50
90.0
 51
270.0
 73
     0
 72
     1
 10
-221.1178638168063
 20
-257.6027917697911
 11
-217.9675440930253
 21
-257.6027917697911
 72
     1
 10
-217.9675440930253
 20
-257.6027917697911
 11
-217.9675440930253
 21
-258.3008053752341
 97
       12
330
221
330
273
330
222
330
223
330
224
330
225
330
202
330
201
330
200
330
1FF
330
226
330
220
 92
       16
 93
        4
 72
     2
 10
-220.9015918066411
 20
-258.9729653535766
 40
0.5179085730135967
 50
38.12041979715324
 51
141.879580202839
 73
     1
 72
     2
 10
-220.7018517702948
 20
-259.1296965316971
 40
0.7717997786797426
 50
141.8795802028338
 51
218.1204197971529
 73
     1
 72
     2
 10
-220.9015918066411
 20
-259.2864277098174
 40
0.5179085730134722
 50
218.120419797156
 51
321.8795802028517
 73
     1
 72
     2
 10
-221.1013318429873
 20
-259.1296965316971
 40
0.7717997786796023
 50
321.8795802028471
 51
398.1204197971662
 73
     1
 97
        4
330
26D
330
26C
330
267
330
266
 75
     1
 76
     0
 52
45.0
 41
0.1
 77
     0
 78
     1
 53
45.0
 43
0.0
 44
0.0
 45
-0.0707106781186548
 46
0.0707106781186548
 79
     0
 98
        1
 10
0.0
 20
0.0
  0
HATCH
  5
2C5
330
A0
100
AcDbEntity
  8
1
  6
Continuous
 62
     2
100
AcDbHatch
 10
0.0
 20
0.0
 30
0.0
210
0.0
220
0.0
230
1.0
  2
_USER
 70
     0
 71
     1
 91
        4
 92
        1
 93
        8
 72
     1
 10
-229.8954711146949
 20
-258.0270363851931
 11
-229.8954711146949
 21
-263.5915471543933
 72
     2
 10
-230.3197157300788
 20
-263.5915471543933
 40
0.4242446153833157
 50
0.0
 51
90.0
 73
     0
 72
     1
 10
-230.3197157300788
 20
-264.0157917697766
 11
-235.7930278207956
 21
-264.0157917697766
 72
     2
 10
-235.7930278207956
 20
-263.5915471543933
 40
0.4242446153828041
 50
90.0
 51
180.0
 73
     0
 72
     1
 10
-236.2172724361784
 20
-263.5915471543933
 11
-236.2172724361784
 21
-258.0270363851931
 72
     2
 10
-235.7930278207956
 20
-258.0270363851931
 40
0.4242446153838273
 50
180.0
 51
270.0
 73
     0
 72
     1
 10
-235.7930278207956
 20
-257.6027917698093
 11
-230.3197157300788
 21
-257.6027917698093
 72
     2
 10
-230.3197157300788
 20
-258.0270363851931
 40
0.4242446153838841
 50
270.0
 51
360.0
 73
     0
 97
        8
330
215
330
263
330
216
330
26E
330
213
330
265
330
214
330
264
 92
       16
 93
        1
 72
     2
 10
-233.1734421702781
 20
-260.3459186135486
 40
0.4709789327785074
 50
0.0
 51
360.0
 73
     1
 97
        1
330
289
 92
       16
 93
        8
 72
     2
 10
-232.6235844575174
 20
-261.4550602135171
 40
0.3157169230765842
 50
115.3740086783474
 51
180.0
 73
     1
 72
     1
 10
-232.9393013805942
 20
-261.4550602135171
 11
-232.9393013805942
 21
-262.0369116202121
 72
     2
 10
-232.6235844575174
 20
-262.0369116202121
 40
0.315716923076792
 50
180.0
 51
269.8110329574542
 73
     1
 72
     2
 10
-232.6179683222074
 20
-260.3340766726432
 40
2.018561131933209
 50
269.8110329575858
 51
450.1889670424142
 73
     1
 72
     2
 10
-232.6235844575174
 20
-258.631241725074
 40
0.3157169230759573
 50
90.188967042546
 51
180.0
 73
     1
 72
     1
 10
-232.9393013805942
 20
-258.631241725074
 11
-232.9393013805942
 21
-259.2367770135808
 72
     2
 10
-232.6235844575174
 20
-259.2367770135808
 40
0.315716923076792
 50
180.0
 51
244.6259913216437
 73
     1
 72
     2
 10
-233.1496271556053
 20
-260.3459186135486
 40
0.9118481501444847
 50
295.3740086781925
 51
424.6259913218244
 73
     0
 97
        8
330
27B
330
1DC
330
278
330
279
330
257
330
1DB
330
27A
330
256
 92
       16
 93
       12
 72
     2
 10
-235.1991331440491
 20
-262.987519291143
 40
0.3157169230756836
 50
180.0
 51
270.0
 73
     1
 72
     1
 10
-235.1991331440491
 20
-263.3032362142197
 11
-233.7232998830395
 21
-263.3032362142197
 72
     2
 10
-233.7232998830395
 20
-262.987519291143
 40
0.3157169230767067
 50
270.0
 51
360.0
 73
     1
 72
     1
 10
-233.4075829599629
 20
-262.987519291143
 11
-233.4075829599629
 21
-261.4567483596114
 72
     2
 10
-233.7232998830395
 20
-261.4567483596114
 40
0.315716923076593
 50
0.0
 51
64.80558935146468
 73
     1
 72
     2
 10
-233.2007154354645
 20
-260.3459186135486
 40
0.911897523557486
 50
115.1944106485122
 51
244.805589351468
 73
     0
 72
     2
 10
-233.7232998830395
 20
-259.2350888674864
 40
0.3157169230762231
 50
295.1944106485309
 51
360.0
 73
     1
 72
     1
 10
-233.4075829599629
 20
-259.2350888674864
 11
-233.4075829599629
 21
-258.6310642484259
 72
     2
 10
-233.7232998830395
 20
-258.6310642484259
 40
0.315716923076593
 50
0.0
 51
90.0
 73
     1
 72
     1
 10
-233.7232998830395
 20
-258.3153473253498
 11
-235.1991331440491
 21
-258.3153473253498
 72
     2
 10
-235.1991331440491
 20
-258.6310642484259
 40
0.3157169230760815
 50
90.0
 51
180.0
 73
     1
 72
     1
 10
-235.5148500671248
 20
-258.6310642484259
 11
-235.5148500671248
 21
-262.987519291143
 97
       12
330
25F
330
217
330
262
330
212
330
26F
330
270
330
261
330
211
330
260
330
210
330
271
330
20F
 75
     1
 76
     0
 52
45.0
 41
0.1
 77
     0
 78
     1
 53
45.0
 43
0.0
 44
0.0
 45
-0.0707106781186548
 46
0.0707106781186548
 79
     0
 98
        1
 10
0.0
 20
0.0
  0
HATCH
  5
2C6
330
A0
100
AcDbEntity
  8
1
  6
Continuous
 62
     2
100
AcDbHatch
 10
0.0
 20
0.0
 30
0.0
210
0.0
220
0.0
230
1.0
  2
_USER
 70
     0
 71
     1
 91
        4
 92
        1
 93
        8
 72
     1
 10
-229.8954711146949
 20
-258.0270363851931
 11
-229.8954711146949
 21
-263.5915471543933
 72
     2
 10
-230.3197157300788
 20
-263.5915471543933
 40
0.4242446153833157
 50
0.0
 51
90.0
 73
     0
 72
     1
 10
-230.3197157300788
 20
-264.0157917697766
 11
-235.7930278207956
 21
-264.0157917697766
 72
     2
 10
-235.7930278207956
 20
-263.5915471543933
 40
0.4242446153828041
 50
90.0
 51
180.0
 73
     0
 72
     1
 10
-236.2172724361784
 20
-263.5915471543933
 11
-236.2172724361784
 21
-258.0270363851931
 72
     2
 10
-235.7930278207956
 20
-258.0270363851931
 40
0.4242446153838273
 50
180.0
 51
270.0
 73
     0
 72
     1
 10
-235.7930278207956
 20
-257.6027917698093
 11
-230.3197157300788
 21
-257.6027917698093
 72
     2
 10
-230.3197157300788
 20
-258.0270363851931
 40
0.4242446153838841
 50
270.0
 51
360.0
 73
     0
 97
        8
330
215
330
263
330
216
330
26E
330
213
330
265
330
214
330
264
 92
       16
 93
        1
 72
     2
 10
-233.1734421702781
 20
-260.3459186135486
 40
0.4709789327785074
 50
0.0
 51
360.0
 73
     1
 97
        1
330
289
 92
       16
 93
        8
 72
     2
 10
-232.6235844575174
 20
-261.4550602135171
 40
0.3157169230765842
 50
115.3740086783474
 51
180.0
 73
     1
 72
     1
 10
-232.9393013805942
 20
-261.4550602135171
 11
-232.9393013805942
 21
-262.0369116202121
 72
     2
 10
-232.6235844575174
 20
-262.0369116202121
 40
0.315716923076792
 50
180.0
 51
269.8110329574542
 73
     1
 72
     2
 10
-232.6179683222074
 20
-260.3340766726432
 40
2.018561131933209
 50
269.8110329575858
 51
450.1889670424142
 73
     1
 72
     2
 10
-232.6235844575174
 20
-258.631241725074
 40
0.3157169230759573
 50
90.188967042546
 51
180.0
 73
     1
 72
     1
 10
-232.9393013805942
 20
-258.631241725074
 11
-232.9393013805942
 21
-259.2367770135808
 72
     2
 10
-232.6235844575174
 20
-259.2367770135808
 40
0.315716923076792
 50
180.0
 51
244.6259913216437
 73
     1
 72
     2
 10
-233.1496271556053
 20
-260.3459186135486
 40
0.9118481501444847
 50
295.3740086781925
 51
424.6259913218244
 73
     0
 97
        8
330
27B
330
1DC
330
278
330
279
330
257
330
1DB
330
27A
330
256
 92
       16
 93
       12
 72
     2
 10
-235.1991331440491
 20
-262.987519291143
 40
0.3157169230756836
 50
180.0
 51
270.0
 73
     1
 72
     1
 10
-235.1991331440491
 20
-263.3032362142197
 11
-233.7232998830395
 21
-263.3032362142197
 72
     2
 10
-233.7232998830395
 20
-262.987519291143
 40
0.3157169230767067
 50
270.0
 51
360.0
 73
     1
 72
     1
 10
-233.4075829599629
 20
-262.987519291143
 11
-233.4075829599629
 21
-261.4567483596114
 72
     2
 10
-233.7232998830395
 20
-261.4567483596114
 40
0.315716923076593
 50
0.0
 51
64.80558935146468
 73
     1
 72
     2
 10
-233.2007154354645
 20
-260.3459186135486
 40
0.911897523557486
 50
115.1944106485122
 51
244.805589351468
 73
     0
 72
     2
 10
-233.7232998830395
 20
-259.2350888674864
 40
0.3157169230762231
 50
295.1944106485309
 51
360.0
 73
     1
 72
     1
 10
-233.4075829599629
 20
-259.2350888674864
 11
-233.4075829599629
 21
-258.6310642484259
 72
     2
 10
-233.7232998830395
 20
-258.6310642484259
 40
0.315716923076593
 50
0.0
 51
90.0
 73
     1
 72
     1
 10
-233.7232998830395
 20
-258.3153473253498
 11
-235.1991331440491
 21
-258.3153473253498
 72
     2
 10
-235.1991331440491
 20
-258.6310642484259
 40
0.3157169230760815
 50
90.0
 51
180.0
 73
     1
 72
     1
 10
-235.5148500671248
 20
-258.6310642484259
 11
-235.5148500671248
 21
-262.987519291143
 97
       12
330
25F
330
217
330
262
330
212
330
26F
330
270
330
261
330
211
330
260
330
210
330
271
330
20F
 75
     1
 76
     0
 52
45.0
 41
0.1
 77
     0
 78
     1
 53
45.0
 43
0.0
 44
0.0
 45
-0.0707106781186548
 46
0.0707106781186548
 79
     0
 98
        1
 10
0.0
 20
0.0
  0
HATCH
  5
2C7
330
A0
100
AcDbEntity
  8
1
  6
Continuous
 62
     2
100
AcDbHatch
 10
0.0
 20
0.0
 30
0.0
210
0.0
220
0.0
230
1.0
  2
_USER
 70
     0
 71
     1
 91
        1
 92
        1
 93
       18
 72
     1
 10
-208.3059232054739
 20
-261.7472475520891
 11
-209.1170222429473
 21
-261.7472475520891
 72
     1
 10
-209.1170222429473
 20
-261.7472475520891
 11
-209.1170222429473
 21
-264.0157917697766
 72
     1
 10
-209.1170222429473
 20
-264.0157917697766
 11
-210.309814945115
 21
-264.0157917697766
 72
     1
 10
-210.309814945115
 20
-264.0157917697766
 11
-210.309814945115
 21
-261.7472475520891
 72
     1
 10
-210.309814945115
 20
-261.7472475520891
 11
-211.4134542446831
 21
-261.7472475520891
 72
     2
 10
-211.4134542446831
 20
-262.7017705589152
 40
0.9545230068260935
 50
90.0
 51
109.337143219432
 73
     1
 72
     2
 10
-211.5601242427868
 20
-262.2838155785323
 40
0.5115800601944143
 50
109.3371432194853
 51
151.4785267424197
 73
     1
 72
     2
 10
-211.1827669847054
 20
-262.4888870078713
 40
0.941059735334906
 50
151.4785267423609
 51
208.5214732576695
 73
     1
 72
     2
 10
-211.5601242427868
 20
-262.6939584372099
 40
0.5115800601959674
 50
208.5214732576754
 51
246.6277221118399
 73
     1
 72
     2
 10
-211.4036842100837
 20
-262.3319664184999
 40
0.9059297849851757
 50
246.6277221118154
 51
288.448076118084
 73
     1
 72
     2
 10
-211.8218519437456
 20
-261.0784206424632
 40
2.227384008972773
 50
288.4480761181333
 51
301.9309089499394
 73
     1
 72
     1
 10
-210.6437969017217
 20
-262.968771361613
 11
-210.6437969017217
 21
-263.8412883684164
 72
     2
 10
-211.9797248188384
 20
-259.1762060626149
 40
4.852596863498881
 50
74.0200087416616
 51
84.8418552303637
 73
     0
 72
     2
 10
-211.6908687241026
 20
-262.3760966458365
 40
1.639695123940434
 50
84.8418552303238
 51
164.9381082229007
 73
     0
 72
     2
 10
-212.1099965675642
 20
-262.4888870078713
 40
1.205656168392973
 50
164.9381082229054
 51
195.061891777092
 73
     0
 72
     2
 10
-211.6908687241026
 20
-262.6016773699063
 40
1.639695123940214
 50
195.061891777105
 51
270.0
 73
     0
 72
     1
 10
-211.6908687241026
 20
-260.9619822459661
 11
-208.3059232054739
 21
-260.9619822459655
 72
     1
 10
-208.3059232054739
 20
-260.9619822459655
 11
-208.3059232054739
 21
-261.7472475520891
 97
       18
330
1DE
330
274
330
275
330
25D
330
25C
330
242
330
25B
330
25A
330
276
330
259
330
277
330
258
330
243
330
1DD
330
1E2
330
1E1
330
1E0
330
1DF
 75
     1
 76
     0
 52
45.0
 41
0.1
 77
     0
 78
     1
 53
45.0
 43
0.0
 44
0.0
 45
-0.0707106781186548
 46
0.0707106781186548
 79
     0
 98
        1
 10
0.0
 20
0.0
  0
HATCH
  5
2C8
330
A0
100
AcDbEntity
  8
1
  6
Continuous
 62
     2
100
AcDbHatch
 10
0.0
 20
0.0
 30
0.0
210
0.0
220
0.0
230
1.0
  2
_USER
 70
     0
 71
     1
 91
        1
 92
        1
 93
       18
 72
     1
 10
-208.3059232054739
 20
-261.7472475520891
 11
-209.1170222429473
 21
-261.7472475520891
 72
     1
 10
-209.1170222429473
 20
-261.7472475520891
 11
-209.1170222429473
 21
-264.0157917697766
 72
     1
 10
-209.1170222429473
 20
-264.0157917697766
 11
-210.309814945115
 21
-264.0157917697766
 72
     1
 10
-210.309814945115
 20
-264.0157917697766
 11
-210.309814945115
 21
-261.7472475520891
 72
     1
 10
-210.309814945115
 20
-261.7472475520891
 11
-211.4134542446831
 21
-261.7472475520891
 72
     2
 10
-211.4134542446831
 20
-262.7017705589152
 40
0.9545230068260935
 50
90.0
 51
109.337143219432
 73
     1
 72
     2
 10
-211.5601242427868
 20
-262.2838155785323
 40
0.5115800601944143
 50
109.3371432194853
 51
151.4785267424197
 73
     1
 72
     2
 10
-211.1827669847054
 20
-262.4888870078713
 40
0.941059735334906
 50
151.4785267423609
 51
208.5214732576695
 73
     1
 72
     2
 10
-211.5601242427868
 20
-262.6939584372099
 40
0.5115800601959674
 50
208.5214732576754
 51
246.6277221118399
 73
     1
 72
     2
 10
-211.4036842100837
 20
-262.3319664184999
 40
0.9059297849851757
 50
246.6277221118154
 51
288.448076118084
 73
     1
 72
     2
 10
-211.8218519437456
 20
-261.0784206424632
 40
2.227384008972773
 50
288.4480761181333
 51
301.9309089499394
 73
     1
 72
     1
 10
-210.6437969017217
 20
-262.968771361613
 11
-210.6437969017217
 21
-263.8412883684164
 72
     2
 10
-211.9797248188384
 20
-259.1762060626149
 40
4.852596863498881
 50
74.0200087416616
 51
84.8418552303637
 73
     0
 72
     2
 10
-211.6908687241026
 20
-262.3760966458365
 40
1.639695123940434
 50
84.8418552303238
 51
164.9381082229007
 73
     0
 72
     2
 10
-212.1099965675642
 20
-262.4888870078713
 40
1.205656168392973
 50
164.9381082229054
 51
195.061891777092
 73
     0
 72
     2
 10
-211.6908687241026
 20
-262.6016773699063
 40
1.639695123940214
 50
195.061891777105
 51
270.0
 73
     0
 72
     1
 10
-211.6908687241026
 20
-260.9619822459661
 11
-208.3059232054739
 21
-260.9619822459655
 72
     1
 10
-208.3059232054739
 20
-260.9619822459655
 11
-208.3059232054739
 21
-261.7472475520891
 97
       18
330
1DE
330
274
330
275
330
25D
330
25C
330
242
330
25B
330
25A
330
276
330
259
330
277
330
258
330
243
330
1DD
330
1E2
330
1E1
330
1E0
330
1DF
 75
     1
 76
     0
 52
45.0
 41
0.1
 77
     0
 78
     1
 53
45.0
 43
0.0
 44
0.0
 45
-0.0707106781186548
 46
0.0707106781186548
 79
     0
 98
        1
 10
0.0
 20
0.0
  0
HATCH
  5
2C9
330
A0
100
AcDbEntity
  8
1
  6
Continuous
 62
     2
100
AcDbHatch
 10
0.0
 20
0.0
 30
0.0
210
0.0
220
0.0
230
1.0
  2
_USER
 70
     0
 71
     1
 91
        1
 92
        1
 93
       14
 72
     2
 10
-227.7935702033555
 20
-262.6016773699063
 40
1.63969512394062
 50
84.84185523036271
 51
164.9381082228864
 73
     1
 72
     2
 10
-228.2126980468183
 20
-262.4888870078713
 40
1.205656168390914
 50
164.9381082228817
 51
195.0618917770948
 73
     1
 72
     2
 10
-227.7935702033555
 20
-262.3760966458365
 40
1.63969512393938
 50
195.0618917770886
 51
275.1581447696393
 73
     1
 72
     2
 10
-228.0824262980914
 20
-259.1762060626149
 40
4.852596863498279
 50
275.1581447696248
 51
285.9799912583526
 73
     1
 72
     1
 10
-226.7464983809736
 20
-263.8412883684158
 11
-226.7464983809736
 21
-262.9687713616125
 72
     2
 10
-227.9245534229985
 20
-261.0784206424627
 40
2.227384008972719
 50
58.06909105003893
 51
71.55192388186632
 73
     0
 72
     2
 10
-227.5063856893377
 20
-262.3319664184999
 40
0.9059297849848149
 50
71.55192388183985
 51
113.3722778881318
 73
     0
 72
     2
 10
-227.6628257220397
 20
-262.6939584372099
 40
0.5115800601948034
 50
113.3722778881777
 51
151.4785267423044
 73
     0
 72
     2
 10
-227.2854684639594
 20
-262.4888870078713
 40
0.9410597353332545
 50
151.4785267422882
 51
208.5214732577331
 73
     0
 72
     2
 10
-227.6628257220397
 20
-262.2838155785323
 40
0.511580060194904
 50
208.5214732576956
 51
246.6277221118021
 73
     0
 72
     2
 10
-227.5063856893377
 20
-262.6458075972429
 40
0.9059297849853228
 50
246.627722111871
 51
288.4480761181465
 73
     0
 72
     2
 10
-227.9245534229985
 20
-263.8993533732795
 40
2.227384008973517
 50
288.4480761181333
 51
301.9309089499595
 73
     0
 72
     1
 10
-226.7464983809736
 20
-262.0090026541296
 11
-226.7464983809736
 21
-261.1364856473264
 72
     2
 10
-228.0824262980914
 20
-265.8015679531272
 40
4.852596863497931
 50
74.02000874164692
 51
84.84185523037502
 73
     1
 97
       14
330
27C
330
27D
330
27E
330
27F
330
244
330
255
330
254
330
253
330
280
330
281
330
252
330
282
330
245
330
251
 75
     1
 76
     0
 52
45.0
 41
0.1
 77
     0
 78
     1
 53
45.0
 43
0.0
 44
0.0
 45
-0.0707106781186548
 46
0.0707106781186548
 79
     0
 98
        1
 10
0.0
 20
0.0
  0
HATCH
  5
2CA
330
A0
100
AcDbEntity
  8
1
  6
Continuous
 62
     2
100
AcDbHatch
 10
0.0
 20
0.0
 30
0.0
210
0.0
220
0.0
230
1.0
  2
_USER
 70
     0
 71
     1
 91
        1
 92
        1
 93
       14
 72
     2
 10
-227.7935702033555
 20
-262.6016773699063
 40
1.63969512394062
 50
84.84185523036271
 51
164.9381082228864
 73
     1
 72
     2
 10
-228.2126980468183
 20
-262.4888870078713
 40
1.205656168390914
 50
164.9381082228817
 51
195.0618917770948
 73
     1
 72
     2
 10
-227.7935702033555
 20
-262.3760966458365
 40
1.63969512393938
 50
195.0618917770886
 51
275.1581447696393
 73
     1
 72
     2
 10
-228.0824262980914
 20
-259.1762060626149
 40
4.852596863498279
 50
275.1581447696248
 51
285.9799912583526
 73
     1
 72
     1
 10
-226.7464983809736
 20
-263.8412883684158
 11
-226.7464983809736
 21
-262.9687713616125
 72
     2
 10
-227.9245534229985
 20
-261.0784206424627
 40
2.227384008972719
 50
58.06909105003893
 51
71.55192388186632
 73
     0
 72
     2
 10
-227.5063856893377
 20
-262.3319664184999
 40
0.9059297849848149
 50
71.55192388183985
 51
113.3722778881318
 73
     0
 72
     2
 10
-227.6628257220397
 20
-262.6939584372099
 40
0.5115800601948034
 50
113.3722778881777
 51
151.4785267423044
 73
     0
 72
     2
 10
-227.2854684639594
 20
-262.4888870078713
 40
0.9410597353332545
 50
151.4785267422882
 51
208.5214732577331
 73
     0
 72
     2
 10
-227.6628257220397
 20
-262.2838155785323
 40
0.511580060194904
 50
208.5214732576956
 51
246.6277221118021
 73
     0
 72
     2
 10
-227.5063856893377
 20
-262.6458075972429
 40
0.9059297849853228
 50
246.627722111871
 51
288.4480761181465
 73
     0
 72
     2
 10
-227.9245534229985
 20
-263.8993533732795
 40
2.227384008973517
 50
288.4480761181333
 51
301.9309089499595
 73
     0
 72
     1
 10
-226.7464983809736
 20
-262.0090026541296
 11
-226.7464983809736
 21
-261.1364856473264
 72
     2
 10
-228.0824262980914
 20
-265.8015679531272
 40
4.852596863497931
 50
74.02000874164692
 51
84.84185523037502
 73
     1
 97
       14
330
27C
330
27D
330
27E
330
27F
330
244
330
255
330
254
330
253
330
280
330
281
330
252
330
282
330
245
330
251
 75
     1
 76
     0
 52
45.0
 41
0.1
 77
     0
 78
     1
 53
45.0
 43
0.0
 44
0.0
 45
-0.0707106781186548
 46
0.0707106781186548
 79
     0
 98
        1
 10
0.0
 20
0.0
  0
ENDBLK
  5
A2
330
A0
100
AcDbEntity
  8
0
100
AcDbBlockEnd
  0
BLOCK
  5
A4
330
A3
100
AcDbEntity
  8
0
100
AcDbBlockBegin
  2
_punkt
 70
     0
 10
-110.909122795991
 20
-271.3092917697929
 30
0.0
  3
_punkt
  1

  0
LINE
  5
2CB
330
A3
100
AcDbEntity
  8
1
  6
Continuous
 62
     2
100
AcDbLine
 10
-110.909122795991
 20
-271.3092917697929
 30
0.0
 11
-105.909122795992
 21
-271.3092917697929
 31
0.0
  0
LINE
  5
2CC
330
A3
100
AcDbEntity
  8
1
  6
Continuous
 62
     2
100
AcDbLine
 10
-110.909122795991
 20
-271.3092917697929
 30
0.0
 11
-110.909122795991
 21
-276.3092917697931
 31
0.0
  0
ENDBLK
  5
A5
330
A3
100
AcDbEntity
  8
0
100
AcDbBlockEnd
  0
BLOCK
  5
A9
330
A6
100
AcDbEntity
  8
0
100
AcDbBlockBegin
  2
A4I_CS
 70
     0
 10
-110.909122795991
 20
-276.3092917697931
 30
0.0
  3
A4I_CS
  1

  0
INSERT
  5
A7
330
A6
100
AcDbEntity
  8
1
100
AcDbBlockReference
  2
_rahmen
 10
-110.909122795991
 20
-276.3092917697931
 30
0.0
  0
INSERT
  5
A8
330
A6
100
AcDbEntity
  8
1
100
AcDbBlockReference
  2
_punkt
 10
-110.909122795991
 20
-271.3092917697929
 30
0.0
  0
ENDBLK
  5
AA
330
A6
100
AcDbEntity
  8
0
100
AcDbBlockEnd
  0
BLOCK
  5
B3
330
AB
100
AcDbEntity
  8
0
100
AcDbBlockBegin
  2
1
 70
     0
 10
0.0
 20
0.0
 30
0.0
  3
1
  1

  0
INSERT
  5
AC
330
AB
100
AcDbEntity
  8
0
100
AcDbBlockReference
  2
Allg1
 10
-164.9999999999399
 20
-211.000000000018
 30
0.0
 41
2.0
 42
2.0
 43
2.0
  0
INSERT
  5
AD
330
AB
100
AcDbEntity
  8
0
100
AcDbBlockReference
  2
Drfsicht1
 10
-289.4999999998598
 20
-193.9740091203608
 30
0.0
 41
2.0
 42
2.0
 43
2.0
  0
INSERT
  5
AE
330
AB
100
AcDbEntity
  8
0
100
AcDbBlockReference
  2
Rückansicht1
 10
-160.5000000000006
 20
-126.9999999999999
 30
0.0
 41
2.0
 42
2.0
 43
2.0
  0
INSERT
  5
AF
330
AB
100
AcDbEntity
  8
0
100
AcDbBlockReference
  2
SA_Links1
 10
-225.0
 20
-126.9999999999999
 30
0.0
 41
2.0
 42
2.0
 43
2.0
  0
INSERT
  5
B0
330
AB
100
AcDbEntity
  8
0
100
AcDbBlockReference
  2
SA_Rechts1
 10
-369.99999999986
 20
-127.0
 30
0.0
 41
2.0
 42
2.0
 43
2.0
  0
INSERT
  5
B1
330
AB
100
AcDbEntity
  8
0
100
AcDbBlockReference
  2
Vordans1
 10
-289.4999999998598
 20
-127.0
 30
0.0
 41
2.0
 42
2.0
 43
2.0
  0
INSERT
  5
B2
330
AB
100
AcDbEntity
  8
0
100
AcDbBlockReference
  2
A4I_CS
 10
-110.909122795991
 20
-276.3092917697931
 30
0.0
  0
ENDBLK
  5
B4
330
AB
100
AcDbEntity
  8
0
100
AcDbBlockEnd
  0
BLOCK
  5
185
330
17D
100
AcDbEntity
  8
0
100
AcDbBlockBegin
  2
*D17
 70
     1
 10
0.0
 20
0.0
 30
0.0
  3
*D17
  1

  0
LINE
  5
17E
330
17D
100
AcDbEntity
  8
1
  6
Continuous
 62
     2
100
AcDbLine
 10
-162.2499999998949
 20
-78.5
 30
0.0
 11
-127.2499999998949
 21
-78.5
 31
0.0
  0
LINE
  5
17F
330
17D
100
AcDbEntity
  8
1
  6
Continuous
 62
     2
100
AcDbLine
 10
-162.2499999998949
 20
-73.5
 30
0.0
 11
-162.2499999998949
 21
-79.25
 31
0.0
  0
LINE
  5
180
330
17D
100
AcDbEntity
  8
1
  6
Continuous
 62
     2
100
AcDbLine
 10
-127.2499999998949
 20
-71.1
 30
0.0
 11
-127.2499999998949
 21
-79.25
 31
0.0
  0
SOLID
  5
181
330
17D
100
AcDbEntity
  8
1
 62
     2
100
AcDbTrace
 10
-160.4999999998949
 20
-78.26960812922206
 30
0.0
 11
-160.4999999998949
 21
-78.73039187077794
 31
0.0
 12
-162.2499999998949
 22
-78.5
 32
0.0
 13
-162.2499999998949
 23
-78.5
 33
0.0
  0
SOLID
  5
182
330
17D
100
AcDbEntity
  8
1
 62
     2
100
AcDbTrace
 10
-128.9999999998949
 20
-78.73039187077794
 30
0.0
 11
-128.9999999998949
 21
-78.26960812922206
 31
0.0
 12
-127.2499999998949
 22
-78.5
 32
0.0
 13
-127.2499999998949
 23
-78.5
 33
0.0
  0
MTEXT
  5
184
330
17D
100
AcDbEntity
  8
1
 62
     3
100
AcDbMText
 10
-146.0624999999299
 20
-77.75
 30
0.0
 40
1.75
 41
0.0
 71
     7
 72
     1
  1
35
  7
CONVERTER_11
 11
0.9999999999970619
 21
2.424068405545306E-6
 31
0.0
 73
     1
 44
0.60024009603842
  0
ENDBLK
  5
186
330
17D
100
AcDbEntity
  8
0
100
AcDbBlockEnd
  0
BLOCK
  5
190
330
189
100
AcDbEntity
  8
0
100
AcDbBlockBegin
  2
*D18
 70
     1
 10
0.0
 20
0.0
 30
0.0
  3
*D18
  1

  0
LINE
  5
18A
330
189
100
AcDbEntity
  8
1
  6
Continuous
 62
     2
100
AcDbLine
 10
-167.2499999998948
 20
-73.5
 30
0.0
 11
-167.2499999998948
 21
-53.5
 31
0.0
  0
LINE
  5
18B
330
189
100
AcDbEntity
  8
1
  6
Continuous
 62
     2
100
AcDbLine
 10
-162.2499999998948
 20
-73.5
 30
0.0
 11
-167.9999999998948
 21
-73.5
 31
0.0
  0
LINE
  5
18C
330
189
100
AcDbEntity
  8
1
  6
Continuous
 62
     2
100
AcDbLine
 10
-162.2499999998948
 20
-53.5
 30
0.0
 11
-167.9999999998948
 21
-53.5
 31
0.0
  0
SOLID
  5
18D
330
189
100
AcDbEntity
  8
1
 62
     2
100
AcDbTrace
 10
-167.4803918706727
 20
-71.75
 30
0.0
 11
-167.0196081291169
 21
-71.75
 31
0.0
 12
-167.2499999998948
 22
-73.5
 32
0.0
 13
-167.2499999998948
 23
-73.5
 33
0.0
  0
SOLID
  5
18E
330
189
100
AcDbEntity
  8
1
 62
     2
100
AcDbTrace
 10
-167.0196081291169
 20
-55.25
 30
0.0
 11
-167.4803918706727
 21
-55.25
 31
0.0
 12
-167.2499999998948
 22
-53.5
 32
0.0
 13
-167.2499999998948
 23
-53.5
 33
0.0
  0
MTEXT
  5
18F
330
189
100
AcDbEntity
  8
1
 62
     3
100
AcDbMText
 10
-167.9999999998948
 20
-65.883586288819
 30
0.0
 40
1.75
 41
0.0
 71
     7
 72
     1
  1
\C3; {\Fgdt;n}\C3;20
  7
CONVERTER_11
 11
0.0
 21
1.0
 31
0.0
 73
     1
 44
0.60024009603842
  0
ENDBLK
  5
191
330
189
100
AcDbEntity
  8
0
100
AcDbBlockEnd
  0
ENDSEC
  0
SECTION
  2
ENTITIES
  0
INSERT
  5
B5
330
1F
100
AcDbEntity
  8
1
100
AcDbBlockReference
  2
1
 10
0.0
 20
0.0
 30
0.0
  0
ENDSEC
  0
SECTION
  2
OBJECTS
  0
DICTIONARY
  5
C
330
0
100
AcDbDictionary
281
     1
  3
ACAD_DETAILVIEWSTYLE
350
312
  3
ACAD_GROUP
350
D
  3
ACAD_LAYOUT
350
1A
  3
ACAD_MATERIAL
350
43
  3
ACAD_MLEADERSTYLE
350
6B
  3
ACAD_MLINESTYLE
350
17
  3
ACAD_PLOTSETTINGS
350
19
  3
ACAD_PLOTSTYLENAME
350
E
  3
ACAD_SCALELIST
350
47
  3
ACAD_SECTIONVIEWSTYLE
350
313
  3
ACAD_TABLESTYLE
350
69
  3
ACAD_VISUALSTYLE
350
2A
  3
ACDB_RECOMPOSE_DATA
350
30F
  3
AcDbVariableDictionary
350
2CF
  0
DICTIONARY
  5
2CD
330
8
100
AcDbDictionary
280
     1
281
     1
  3
ACAD_XREC_ROUNDTRIP
360
2CE
  0
DICTIONARY
  5
312
102
{ACAD_REACTORS
330
C
102
}
330
C
100
AcDbDictionary
281
     1
  0
DICTIONARY
  5
D
102
{ACAD_REACTORS
330
C
102
}
330
C
100
AcDbDictionary
281
     1
  0
DICTIONARY
  5
1A
102
{ACAD_REACTORS
330
C
102
}
330
C
100
AcDbDictionary
281
     1
  3
Layout1
350
1E
  3
Layout2
350
26
  3
Model
350
22
  0
DICTIONARY
  5
43
102
{ACAD_REACTORS
330
C
102
}
330
C
100
AcDbDictionary
281
     1
  3
ByBlock
350
45
  3
ByLayer
350
44
  3
Global
350
46
  0
DICTIONARY
  5
6B
102
{ACAD_REACTORS
330
C
102
}
330
C
100
AcDbDictionary
281
     1
  3
Standard
350
6C
  0
DICTIONARY
  5
17
102
{ACAD_REACTORS
330
C
102
}
330
C
100
AcDbDictionary
281
     1
  3
Standard
350
18
  0
DICTIONARY
  5
19
102
{ACAD_REACTORS
330
C
102
}
330
C
100
AcDbDictionary
281
     1
  0
ACDBDICTIONARYWDFLT
  5
E
102
{ACAD_REACTORS
330
C
102
}
330
C
100
AcDbDictionary
281
     1
  3
Normal
350
F
100
AcDbDictionaryWithDefault
340
F
  0
DICTIONARY
  5
47
102
{ACAD_REACTORS
330
C
102
}
330
C
100
AcDbDictionary
281
     1
  3
A0
350
48
  3
A1
350
49
  3
A2
350
4A
  3
A3
350
4B
  3
A4
350
4C
  3
A5
350
4D
  3
A6
350
4E
  3
A7
350
4F
  3
A8
350
50
  3
A9
350
51
  3
B0
350
52
  3
B1
350
53
  3
B2
350
54
  3
B3
350
55
  3
B4
350
56
  3
B5
350
57
  3
B6
350
58
  3
B7
350
59
  3
B8
350
5A
  3
B9
350
5B
  3
C0
350
5C
  3
C1
350
5D
  3
C2
350
5E
  3
C3
350
5F
  3
C4
350
60
  3
C5
350
61
  3
C6
350
62
  3
C7
350
63
  3
C8
350
64
  3
C9
350
65
  3
D0
350
66
  3
D1
350
67
  3
D2
350
68
  0
DICTIONARY
  5
313
102
{ACAD_REACTORS
330
C
102
}
330
C
100
AcDbDictionary
281
     1
  0
DICTIONARY
  5
69
102
{ACAD_REACTORS
330
C
102
}
330
C
100
AcDbDictionary
281
     1
  3
Standard
350
6A
  0
DICTIONARY
  5
2A
102
{ACAD_REACTORS
330
C
102
}
330
C
100
AcDbDictionary
281
     1
  3
2dWireframe
350
2F
  3
Basic
350
32
  3
Brighten
350
36
  3
ColorChange
350
3A
  3
Conceptual
350
34
  3
Dim
350
35
  3
EdgeColorOff
350
3D
  3
Facepattern
350
39
  3
Flat
350
2B
  3
FlatWithEdges
350
2C
  3
Gouraud
350
2D
  3
GouraudWithEdges
350
2E
  3
Hidden
350
31
  3
JitterOff
350
3B
  3
Linepattern
350
38
  3
OverhangOff
350
3C
  3
Realistic
350
33
  3
Shaded
350
42
  3
Shaded with edges
350
41
  3
Shades of Gray
350
3E
  3
Sketchy
350
3F
  3
Thicken
350
37
  3
Wireframe
350
30
  3
X-Ray
350
40
  0
XRECORD
  5
30F
102
{ACAD_REACTORS
330
C
102
}
330
C
100
AcDbXrecord
280
     1
 90
        1
330
6A
  0
DICTIONARY
  5
2CF
102
{ACAD_REACTORS
330
C
102
}
330
C
100
AcDbDictionary
281
     1
  3
CANNOSCALE
350
2D0
  3
CMLEADERSTYLE
350
311
  3
CTABLESTYLE
350
310
  3
MSLTSCALE
350
2D1
  3
XCLIPFRAME
350
2D2
  0
XRECORD
  5
2CE
102
{ACAD_REACTORS
330
2CD
102
}
330
2CD
100
AcDbXrecord
280
     1
102
VTR_0.000_0.000_1.000_1.000_VISUALSTYLE
340
2F
102
VTR_0.000_0.000_1.000_1.000_GRIDDISPLAY
 70
     3
102
VTR_0.000_0.000_1.000_1.000_GRIDMAJOR
 70
     5
102
VTR_0.000_0.000_1.000_1.000_DEFAULTLIGHTING
280
     1
102
VTR_0.000_0.000_1.000_1.000_DEFAULTLIGHTINGTYPE
 70
     1
102
VTR_0.000_0.000_1.000_1.000_BRIGHTNESS
141
0.0
102
VTR_0.000_0.000_1.000_1.000_CONTRAST
142
0.0
  0
LAYOUT
  5
1E
102
{ACAD_REACTORS
330
1A
102
}
330
1A
100
AcDbPlotSettings
  1

  2
none_device
  4

  6

 40
0.0
 41
0.0
 42
0.0
 43
0.0
 44
0.0
 45
0.0
 46
0.0
 47
0.0
 48
0.0
 49
0.0
140
0.0
141
0.0
142
1.0
143
1.0
 70
   688
 72
     0
 73
     0
 74
     5
  7

 75
    16
 76
     0
 77
     2
 78
   300
147
1.0
148
0.0
149
0.0
100
AcDbLayout
  1
Layout1
 70
     1
 71
     1
 10
0.0
 20
0.0
 11
12.0
 21
9.0
 12
0.0
 22
0.0
 32
0.0
 14
1.00000000000000E+20
 24
1.00000000000000E+20
 34
1.00000000000000E+20
 15
-1.00000000000000E+20
 25
-1.00000000000000E+20
 35
-1.00000000000000E+20
146
0.0
 13
0.0
 23
0.0
 33
0.0
 16
1.0
 26
0.0
 36
0.0
 17
0.0
 27
1.0
 37
0.0
 76
     0
330
1B
  0
LAYOUT
  5
26
102
{ACAD_REACTORS
330
1A
102
}
330
1A
100
AcDbPlotSettings
  1

  2
none_device
  4

  6

 40
0.0
 41
0.0
 42
0.0
 43
0.0
 44
0.0
 45
0.0
 46
0.0
 47
0.0
 48
0.0
 49
0.0
140
0.0
141
0.0
142
1.0
143
1.0
 70
   688
 72
     0
 73
     0
 74
     5
  7

 75
    16
 76
     0
 77
     2
 78
   300
147
1.0
148
0.0
149
0.0
100
AcDbLayout
  1
Layout2
 70
     1
 71
     2
 10
0.0
 20
0.0
 11
0.0
 21
0.0
 12
0.0
 22
0.0
 32
0.0
 14
0.0
 24
0.0
 34
0.0
 15
0.0
 25
0.0
 35
0.0
146
0.0
 13
0.0
 23
0.0
 33
0.0
 16
1.0
 26
0.0
 36
0.0
 17
0.0
 27
1.0
 37
0.0
 76
     0
330
23
  0
LAYOUT
  5
22
102
{ACAD_REACTORS
330
1A
102
}
330
1A
100
AcDbPlotSettings
  1

  2
none_device
  4
Letter_(8.50_x_11.00_Inches)
  6

 40
6.35
 41
6.35
 42
6.35000508
 43
6.35000508
 44
215.9
 45
279.4
 46
0.0
 47
0.0
 48
0.0
 49
0.0
140
0.0
141
0.0
142
1.0
143
1.0
 70
  1712
 72
     0
 73
     0
 74
     0
  7

 75
     0
 76
     0
 77
     2
 78
   300
147
1.0
148
0.0
149
0.0
100
AcDbLayout
  1
Model
 70
     1
 71
     0
 10
0.0
 20
0.0
 11
12.0
 21
9.0
 12
0.0
 22
0.0
 32
0.0
 14
-402.90912279599
 24
-276.3092917697931
 34
0.0
 15
-105.909122795992
 25
-66.30929176979294
 35
0.0
146
0.0
 13
0.0
 23
0.0
 33
0.0
 16
1.0
 26
0.0
 36
0.0
 17
0.0
 27
1.0
 37
0.0
 76
     0
330
1F
331
29
  0
MATERIAL
  5
45
102
{ACAD_REACTORS
330
43
102
}
102
{ACAD_XDICTIONARY
360
305
102
}
330
43
100
AcDbMaterial
  1
ByBlock
  0
MATERIAL
  5
44
102
{ACAD_REACTORS
330
43
102
}
102
{ACAD_XDICTIONARY
360
303
102
}
330
43
100
AcDbMaterial
  1
ByLayer
  0
MATERIAL
  5
46
102
{ACAD_REACTORS
330
43
102
}
102
{ACAD_XDICTIONARY
360
307
102
}
330
43
100
AcDbMaterial
  1
Global
  0
MLEADERSTYLE
  5
6C
102
{ACAD_REACTORS
330
6B
102
}
102
{ACAD_XDICTIONARY
360
30D
102
}
330
6B
100
AcDbMLeaderStyle
170
     2
171
     1
172
     0
 90
        2
 40
0.0
 41
0.0
173
     1
 91
-1056964608
340
14
 92
       -2
290
     1
 42
0.09
291
     1
 43
0.36
  3
Standard
341
0
 44
0.18
300

342
11
174
     1
178
     6
175
     1
176
     0
 93
-1056964608
 45
0.18
292
     0
297
     0
 46
0.18
343
0
 94
-1056964608
 47
1.0
 49
1.0
140
1.0
293
     1
141
0.0
294
     1
177
     0
142
1.0
295
     0
296
     0
143
0.125
1001
ACAD_MLEADERVER
1070
     2
  0
MLINESTYLE
  5
18
102
{ACAD_REACTORS
330
17
102
}
330
17
100
AcDbMlineStyle
  2
Standard
 70
     0
  3

 62
   256
 51
90.0
 52
90.0
 71
     2
 49
0.5
 62
   256
  6
BYLAYER
 49
-0.5
 62
   256
  6
BYLAYER
  0
ACDBPLACEHOLDER
  5
F
102
{ACAD_REACTORS
330
E
102
}
330
E
  0
SCALE
  5
48
102
{ACAD_REACTORS
330
47
102
}
330
47
100
AcDbScale
 70
     0
300
1:1
140
1.0
141
1.0
290
     1
  0
SCALE
  5
49
102
{ACAD_REACTORS
330
47
102
}
330
47
100
AcDbScale
 70
     0
300
1:2
140
1.0
141
2.0
290
     0
  0
SCALE
  5
4A
102
{ACAD_REACTORS
330
47
102
}
330
47
100
AcDbScale
 70
     0
300
1:4
140
1.0
141
4.0
290
     0
  0
SCALE
  5
4B
102
{ACAD_REACTORS
330
47
102
}
330
47
100
AcDbScale
 70
     0
300
1:5
140
1.0
141
5.0
290
     0
  0
SCALE
  5
4C
102
{ACAD_REACTORS
330
47
102
}
330
47
100
AcDbScale
 70
     0
300
1:8
140
1.0
141
8.0
290
     0
  0
SCALE
  5
4D
102
{ACAD_REACTORS
330
47
102
}
330
47
100
AcDbScale
 70
     0
300
1:10
140
1.0
141
10.0
290
     0
  0
SCALE
  5
4E
102
{ACAD_REACTORS
330
47
102
}
330
47
100
AcDbScale
 70
     0
300
1:16
140
1.0
141
16.0
290
     0
  0
SCALE
  5
4F
102
{ACAD_REACTORS
330
47
102
}
330
47
100
AcDbScale
 70
     0
300
1:20
140
1.0
141
20.0
290
     0
  0
SCALE
  5
50
102
{ACAD_REACTORS
330
47
102
}
330
47
100
AcDbScale
 70
     0
300
1:30
140
1.0
141
30.0
290
     0
  0
SCALE
  5
51
102
{ACAD_REACTORS
330
47
102
}
330
47
100
AcDbScale
 70
     0
300
1:40
140
1.0
141
40.0
290
     0
  0
SCALE
  5
52
102
{ACAD_REACTORS
330
47
102
}
330
47
100
AcDbScale
 70
     0
300
1:50
140
1.0
141
50.0
290
     0
  0
SCALE
  5
53
102
{ACAD_REACTORS
330
47
102
}
330
47
100
AcDbScale
 70
     0
300
1:100
140
1.0
141
100.0
290
     0
  0
SCALE
  5
54
102
{ACAD_REACTORS
330
47
102
}
330
47
100
AcDbScale
 70
     0
300
2:1
140
2.0
141
1.0
290
     0
  0
SCALE
  5
55
102
{ACAD_REACTORS
330
47
102
}
330
47
100
AcDbScale
 70
     0
300
4:1
140
4.0
141
1.0
290
     0
  0
SCALE
  5
56
102
{ACAD_REACTORS
330
47
102
}
330
47
100
AcDbScale
 70
     0
300
8:1
140
8.0
141
1.0
290
     0
  0
SCALE
  5
57
102
{ACAD_REACTORS
330
47
102
}
330
47
100
AcDbScale
 70
     0
300
10:1
140
10.0
141
1.0
290
     0
  0
SCALE
  5
58
102
{ACAD_REACTORS
330
47
102
}
330
47
100
AcDbScale
 70
     0
300
100:1
140
100.0
141
1.0
290
     0
  0
SCALE
  5
59
102
{ACAD_REACTORS
330
47
102
}
330
47
100
AcDbScale
 70
     0
300
1/128" = 1'-0"
140
0.0078125
141
12.0
290
     0
  0
SCALE
  5
5A
102
{ACAD_REACTORS
330
47
102
}
330
47
100
AcDbScale
 70
     0
300
1/64" = 1'-0"
140
0.015625
141
12.0
290
     0
  0
SCALE
  5
5B
102
{ACAD_REACTORS
330
47
102
}
330
47
100
AcDbScale
 70
     0
300
1/32" = 1'-0"
140
0.03125
141
12.0
290
     0
  0
SCALE
  5
5C
102
{ACAD_REACTORS
330
47
102
}
330
47
100
AcDbScale
 70
     0
300
1/16" = 1'-0"
140
0.0625
141
12.0
290
     0
  0
SCALE
  5
5D
102
{ACAD_REACTORS
330
47
102
}
330
47
100
AcDbScale
 70
     0
300
3/32" = 1'-0"
140
0.09375
141
12.0
290
     0
  0
SCALE
  5
5E
102
{ACAD_REACTORS
330
47
102
}
330
47
100
AcDbScale
 70
     0
300
1/8" = 1'-0"
140
0.125
141
12.0
290
     0
  0
SCALE
  5
5F
102
{ACAD_REACTORS
330
47
102
}
330
47
100
AcDbScale
 70
     0
300
3/16" = 1'-0"
140
0.1875
141
12.0
290
     0
  0
SCALE
  5
60
102
{ACAD_REACTORS
330
47
102
}
330
47
100
AcDbScale
 70
     0
300
1/4" = 1'-0"
140
0.25
141
12.0
290
     0
  0
SCALE
  5
61
102
{ACAD_REACTORS
330
47
102
}
330
47
100
AcDbScale
 70
     0
300
3/8" = 1'-0"
140
0.375
141
12.0
290
     0
  0
SCALE
  5
62
102
{ACAD_REACTORS
330
47
102
}
330
47
100
AcDbScale
 70
     0
300
1/2" = 1'-0"
140
0.5
141
12.0
290
     0
  0
SCALE
  5
63
102
{ACAD_REACTORS
330
47
102
}
330
47
100
AcDbScale
 70
     0
300
3/4" = 1'-0"
140
0.75
141
12.0
290
     0
  0
SCALE
  5
64
102
{ACAD_REACTORS
330
47
102
}
330
47
100
AcDbScale
 70
     0
300
1" = 1'-0"
140
1.0
141
12.0
290
     0
  0
SCALE
  5
65
102
{ACAD_REACTORS
330
47
102
}
330
47
100
AcDbScale
 70
     0
300
1-1/2" = 1'-0"
140
1.5
141
12.0
290
     0
  0
SCALE
  5
66
102
{ACAD_REACTORS
330
47
102
}
330
47
100
AcDbScale
 70
     0
300
3" = 1'-0"
140
3.0
141
12.0
290
     0
  0
SCALE
  5
67
102
{ACAD_REACTORS
330
47
102
}
330
47
100
AcDbScale
 70
     0
300
6" = 1'-0"
140
6.0
141
12.0
290
     0
  0
SCALE
  5
68
102
{ACAD_REACTORS
330
47
102
}
330
47
100
AcDbScale
 70
     0
300
1'-0" = 1'-0"
140
12.0
141
12.0
290
     0
  0
TABLESTYLE
  5
6A
102
{ACAD_REACTORS
330
69
102
}
102
{ACAD_XDICTIONARY
360
309
102
}
330
69
100
AcDbTableStyle
  3
Standard
 70
     0
 71
     0
 40
0.06
 41
0.06
280
     0
281
     0
  7
Standard
140
0.18
170
     2
 62
     0
 63
   257
283
     0
274
    -2
284
     1
 64
     0
275
    -2
285
     1
 65
     0
276
    -2
286
     1
 66
     0
277
    -2
287
     1
 67
     0
278
    -2
288
     1
 68
     0
279
    -2
289
     1
 69
     0
  7
Standard
140
0.25
170
     5
 62
     0
 63
   257
283
     0
274
    -2
284
     1
 64
     0
275
    -2
285
     1
 65
     0
276
    -2
286
     1
 66
     0
277
    -2
287
     1
 67
     0
278
    -2
288
     1
 68
     0
279
    -2
289
     1
 69
     0
  7
Standard
140
0.18
170
     5
 62
     0
 63
   257
283
     0
274
    -2
284
     1
 64
     0
275
    -2
285
     1
 65
     0
276
    -2
286
     1
 66
     0
277
    -2
287
     1
 67
     0
278
    -2
288
     1
 68
     0
279
    -2
289
     1
 69
     0
  0
VISUALSTYLE
  5
2F
102
{ACAD_REACTORS
330
2A
102
}
102
{ACAD_XDICTIONARY
360
2DB
102
}
330
2A
100
AcDbVisualStyle
  2
2dWireframe
 70
     4
 71
     0
 72
     2
 73
     0
 90
        0
 40
0.6
 41
30.0
 62
     5
 63
     7
421
 16777215
 74
     1
 91
        4
 64
     7
 65
   257
 75
     1
175
     1
 42
1.0
 92
        0
 66
   257
 43
1.0
 76
     1
 77
     6
 78
     2
 67
     7
 79
     5
170
     0
171
     0
290
     0
174
     0
 93
        1
 44
0.0
173
     0
291
     0
 45
0.0
1001
ACAD
1000
AcDbSavedByObjectVersion
1070
     0
  0
VISUALSTYLE
  5
32
102
{ACAD_REACTORS
330
2A
102
}
102
{ACAD_XDICTIONARY
360
2E1
102
}
330
2A
100
AcDbVisualStyle
  2
Basic
 70
     7
 71
     1
 72
     0
 73
     1
 90
        0
 40
0.6
 41
30.0
 62
     5
 63
     7
421
 16777215
 74
     0
 91
        4
 64
     7
 65
   257
 75
     1
175
     1
 42
1.0
 92
        8
 66
     7
 43
1.0
 76
     1
 77
     6
 78
     2
 67
     7
 79
     5
170
     0
171
     0
290
     0
174
     0
 93
        1
 44
0.0
173
     0
291
     1
 45
0.0
1001
ACAD
1000
AcDbSavedByObjectVersion
1070
     0
  0
VISUALSTYLE
  5
36
102
{ACAD_REACTORS
330
2A
102
}
102
{ACAD_XDICTIONARY
360
2E9
102
}
330
2A
100
AcDbVisualStyle
  2
Brighten
 70
    12
 71
     2
 72
     2
 73
     0
 90
        0
 40
0.6
 41
30.0
 62
     5
 63
     7
421
 16777215
 74
     1
 91
        4
 64
     7
 65
   257
 75
     1
175
     1
 42
1.0
 92
        8
 66
     7
 43
1.0
 76
     1
 77
     6
 78
     2
 67
     7
 79
     5
170
     0
171
     0
290
     0
174
     0
 93
        1
 44
50.0
173
     0
291
     1
 45
0.0
1001
ACAD
1000
AcDbSavedByObjectVersion
1070
     0
  0
VISUALSTYLE
  5
3A
102
{ACAD_REACTORS
330
2A
102
}
102
{ACAD_XDICTIONARY
360
2F1
102
}
330
2A
100
AcDbVisualStyle
  2
ColorChange
 70
    16
 71
     2
 72
     2
 73
     3
 90
        0
 40
0.6
 41
30.0
 62
     5
 63
     8
421
  8421504
 74
     1
 91
        4
 64
     7
 65
   257
 75
     1
175
     1
 42
1.0
 92
        8
 66
     8
424
  8421504
 43
1.0
 76
     1
 77
     6
 78
     2
 67
     7
 79
     5
170
     0
171
     0
290
     0
174
     0
 93
        1
 44
0.0
173
     0
291
     1
 45
0.0
1001
ACAD
1000
AcDbSavedByObjectVersion
1070
     0
  0
VISUALSTYLE
  5
34
102
{ACAD_REACTORS
330
2A
102
}
102
{ACAD_XDICTIONARY
360
2E5
102
}
330
2A
100
AcDbVisualStyle
  2
Conceptual
 70
     9
 71
     3
 72
     2
 73
     0
 90
        0
 40
0.6
 41
30.0
 62
     5
 63
     7
421
 16777215
 74
     2
 91
        2
 64
     7
 65
   257
 75
     1
175
     1
 42
179.0
 92
        8
 66
     7
 43
1.0
 76
     1
 77
     6
 78
     2
 67
     7
 79
     3
170
     0
171
     0
290
     0
174
     0
 93
        1
 44
0.0
173
     0
291
     0
 45
0.0
1001
ACAD
1000
AcDbSavedByObjectVersion
1070
     0
  0
VISUALSTYLE
  5
35
102
{ACAD_REACTORS
330
2A
102
}
102
{ACAD_XDICTIONARY
360
2E7
102
}
330
2A
100
AcDbVisualStyle
  2
Dim
 70
    11
 71
     2
 72
     2
 73
     0
 90
        0
 40
0.6
 41
30.0
 62
     5
 63
     7
421
 16777215
 74
     1
 91
        4
 64
     7
 65
   257
 75
     1
175
     1
 42
1.0
 92
        8
 66
     7
 43
1.0
 76
     1
 77
     6
 78
     2
 67
     7
 79
     5
170
     0
171
     0
290
     0
174
     0
 93
        1
 44
-50.0
173
     0
291
     1
 45
0.0
1001
ACAD
1000
AcDbSavedByObjectVersion
1070
     0
  0
VISUALSTYLE
  5
3D
102
{ACAD_REACTORS
330
2A
102
}
102
{ACAD_XDICTIONARY
360
2F7
102
}
330
2A
100
AcDbVisualStyle
  2
EdgeColorOff
 70
    22
 71
     2
 72
     2
 73
     0
 90
        0
 40
0.6
 41
30.0
 62
     5
 63
     7
421
 16777215
 74
     1
 91
        4
 64
     7
 65
   257
 75
     1
175
     1
 42
1.0
 92
        8
 66
     7
 43
1.0
 76
     1
 77
     6
 78
     2
 67
     7
 79
     5
170
     0
171
     0
290
     0
174
     0
 93
        1
 44
0.0
173
     0
291
     1
 45
0.0
1001
ACAD
1000
AcDbSavedByObjectVersion
1070
     0
  0
VISUALSTYLE
  5
39
102
{ACAD_REACTORS
330
2A
102
}
102
{ACAD_XDICTIONARY
360
2EF
102
}
330
2A
100
AcDbVisualStyle
  2
Facepattern
 70
    15
 71
     2
 72
     2
 73
     0
 90
        0
 40
0.6
 41
30.0
 62
     5
 63
     7
421
 16777215
 74
     1
 91
        4
 64
     7
 65
   257
 75
     1
175
     1
 42
1.0
 92
        8
 66
     7
 43
1.0
 76
     1
 77
     6
 78
     2
 67
     7
 79
     5
170
     0
171
     0
290
     0
174
     0
 93
        1
 44
0.0
173
     0
291
     1
 45
0.0
1001
ACAD
1000
AcDbSavedByObjectVersion
1070
     0
  0
VISUALSTYLE
  5
2B
102
{ACAD_REACTORS
330
2A
102
}
102
{ACAD_XDICTIONARY
360
2D3
102
}
330
2A
100
AcDbVisualStyle
  2
Flat
 70
     0
 71
     2
 72
     1
 73
     1
 90
        2
 40
0.6
 41
30.0
 62
     5
 63
     7
421
 16777215
 74
     0
 91
        0
 64
     7
 65
   257
 75
     1
175
     1
 42
1.0
 92
        8
 66
     7
 43
1.0
 76
     1
 77
     6
 78
     2
 67
     7
 79
     5
170
     0
171
     0
290
     0
174
     0
 93
       13
 44
0.0
173
     0
291
     1
 45
0.0
1001
ACAD
1000
AcDbSavedByObjectVersion
1070
     0
  0
VISUALSTYLE
  5
2C
102
{ACAD_REACTORS
330
2A
102
}
102
{ACAD_XDICTIONARY
360
2D5
102
}
330
2A
100
AcDbVisualStyle
  2
FlatWithEdges
 70
     1
 71
     2
 72
     1
 73
     1
 90
        2
 40
0.6
 41
30.0
 62
     5
 63
     7
421
 16777215
 74
     1
 91
        0
 64
     7
 65
   257
 75
     1
175
     1
 42
1.0
 92
        0
 66
   257
 43
1.0
 76
     1
 77
     6
 78
     2
 67
     7
 79
     5
170
     0
171
     0
290
     0
174
     0
 93
       13
 44
0.0
173
     0
291
     1
 45
0.0
1001
ACAD
1000
AcDbSavedByObjectVersion
1070
     0
  0
VISUALSTYLE
  5
2D
102
{ACAD_REACTORS
330
2A
102
}
102
{ACAD_XDICTIONARY
360
2D7
102
}
330
2A
100
AcDbVisualStyle
  2
Gouraud
 70
     2
 71
     2
 72
     2
 73
     1
 90
        2
 40
0.6
 41
30.0
 62
     5
 63
     7
421
 16777215
 74
     0
 91
        0
 64
     7
 65
   257
 75
     1
175
     1
 42
1.0
 92
        0
 66
     7
 43
1.0
 76
     1
 77
     6
 78
     2
 67
     7
 79
     5
170
     0
171
     0
290
     0
174
     0
 93
       13
 44
0.0
173
     0
291
     1
 45
0.0
1001
ACAD
1000
AcDbSavedByObjectVersion
1070
     0
  0
VISUALSTYLE
  5
2E
102
{ACAD_REACTORS
330
2A
102
}
102
{ACAD_XDICTIONARY
360
2D9
102
}
330
2A
100
AcDbVisualStyle
  2
GouraudWithEdges
 70
     3
 71
     2
 72
     2
 73
     1
 90
        2
 40
0.6
 41
30.0
 62
     5
 63
     7
421
 16777215
 74
     1
 91
        0
 64
     7
 65
   257
 75
     1
175
     1
 42
1.0
 92
        0
 66
   257
 43
1.0
 76
     1
 77
     6
 78
     2
 67
     7
 79
     5
170
     0
171
     0
290
     0
174
     0
 93
       13
 44
0.0
173
     0
291
     1
 45
0.0
1001
ACAD
1000
AcDbSavedByObjectVersion
1070
     0
  0
VISUALSTYLE
  5
31
102
{ACAD_REACTORS
330
2A
102
}
102
{ACAD_XDICTIONARY
360
2DF
102
}
330
2A
100
AcDbVisualStyle
  2
Hidden
 70
     6
 71
     1
 72
     2
 73
     2
 90
        0
 40
0.6
 41
30.0
 62
     5
 63
     7
421
 16777215
 74
     2
 91
        2
 64
     7
 65
   257
 75
     2
175
     1
 42
40.0
 92
        0
 66
   257
 43
1.0
 76
     1
 77
     6
 78
     2
 67
     7
 79
     3
170
     0
171
     0
290
     0
174
     0
 93
        1
 44
0.0
173
     0
291
     0
 45
0.0
1001
ACAD
1000
AcDbSavedByObjectVersion
1070
     0
  0
VISUALSTYLE
  5
3B
102
{ACAD_REACTORS
330
2A
102
}
102
{ACAD_XDICTIONARY
360
2F3
102
}
330
2A
100
AcDbVisualStyle
  2
JitterOff
 70
    20
 71
     2
 72
     2
 73
     0
 90
        0
 40
0.6
 41
30.0
 62
     5
 63
     7
421
 16777215
 74
     1
 91
        4
 64
     7
 65
   257
 75
     1
175
     1
 42
1.0
 92
       10
 66
     7
 43
1.0
 76
     1
 77
     6
 78
     2
 67
     7
 79
     5
170
     0
171
     0
290
     0
174
     0
 93
        1
 44
0.0
173
     0
291
     1
 45
0.0
1001
ACAD
1000
AcDbSavedByObjectVersion
1070
     0
  0
VISUALSTYLE
  5
38
102
{ACAD_REACTORS
330
2A
102
}
102
{ACAD_XDICTIONARY
360
2ED
102
}
330
2A
100
AcDbVisualStyle
  2
Linepattern
 70
    14
 71
     2
 72
     2
 73
     0
 90
        0
 40
0.6
 41
30.0
 62
     5
 63
     7
421
 16777215
 74
     1
 91
        4
 64
     7
 65
   257
 75
     7
175
     7
 42
1.0
 92
        8
 66
     7
 43
1.0
 76
     1
 77
     6
 78
     2
 67
     7
 79
     5
170
     0
171
     0
290
     0
174
     0
 93
        1
 44
0.0
173
     0
291
     1
 45
0.0
1001
ACAD
1000
AcDbSavedByObjectVersion
1070
     0
  0
VISUALSTYLE
  5
3C
102
{ACAD_REACTORS
330
2A
102
}
102
{ACAD_XDICTIONARY
360
2F5
102
}
330
2A
100
AcDbVisualStyle
  2
OverhangOff
 70
    21
 71
     2
 72
     2
 73
     0
 90
        0
 40
0.6
 41
30.0
 62
     5
 63
     7
421
 16777215
 74
     1
 91
        4
 64
     7
 65
   257
 75
     1
175
     1
 42
1.0
 92
        9
 66
     7
 43
1.0
 76
     1
 77
     6
 78
     2
 67
     7
 79
     5
170
     0
171
     0
290
     0
174
     0
 93
        1
 44
0.0
173
     0
291
     1
 45
0.0
1001
ACAD
1000
AcDbSavedByObjectVersion
1070
     0
  0
VISUALSTYLE
  5
33
102
{ACAD_REACTORS
330
2A
102
}
102
{ACAD_XDICTIONARY
360
2E3
102
}
330
2A
100
AcDbVisualStyle
  2
Realistic
 70
     8
 71
     2
 72
     3
 73
     0
 90
        2
 40
0.6
 41
30.0
 62
     5
 63
     7
421
 16777215
 74
     0
 91
        0
 64
     7
 65
   257
 75
     1
175
     1
 42
1.0
 92
        8
 66
   257
 43
1.0
 76
     1
 77
     6
 78
     2
 67
     7
 79
     3
170
     0
171
     0
290
     0
174
     0
 93
       13
 44
0.0
173
     0
291
     0
 45
0.0
1001
ACAD
1000
AcDbSavedByObjectVersion
1070
     0
  0
VISUALSTYLE
  5
42
102
{ACAD_REACTORS
330
2A
102
}
102
{ACAD_XDICTIONARY
360
301
102
}
330
2A
100
AcDbVisualStyle
  2
Shaded
 70
    27
 71
     2
 72
     2
 73
     1
 90
        2
 40
0.6
 41
30.0
 62
     5
 63
     7
421
 16777215
 74
     0
 91
        4
 64
     7
 65
   257
 75
     1
175
     1
 42
1.0
 92
        8
 66
   257
 43
1.0
 76
     1
 77
     6
 78
     2
 67
     8
425
  7895160
 79
     3
170
     0
171
     0
290
     0
174
     0
 93
        5
 44
0.0
173
     0
291
     0
 45
0.0
1001
ACAD
1000
AcDbSavedByObjectVersion
1070
     0
  0
VISUALSTYLE
  5
41
102
{ACAD_REACTORS
330
2A
102
}
102
{ACAD_XDICTIONARY
360
2FF
102
}
330
2A
100
AcDbVisualStyle
  2
Shaded with edges
 70
    26
 71
     2
 72
     2
 73
     1
 90
        2
 40
0.6
 41
30.0
 62
     5
 63
     7
421
 16777215
 74
     1
 91
       10
 64
     7
 65
   257
 75
     2
175
     1
 42
1.0
 92
        8
 66
   257
 43
1.0
 76
     1
 77
     6
 78
     2
 67
     7
 79
     3
170
     0
171
     0
290
     0
174
     0
 93
        5
 44
0.0
173
     0
291
     0
 45
0.0
1001
ACAD
1000
AcDbSavedByObjectVersion
1070
     0
  0
VISUALSTYLE
  5
3E
102
{ACAD_REACTORS
330
2A
102
}
102
{ACAD_XDICTIONARY
360
2F9
102
}
330
2A
100
AcDbVisualStyle
  2
Shades of Gray
 70
    23
 71
     2
 72
     2
 73
     3
 90
        0
 40
0.6
 41
30.0
 62
     5
 63
     7
421
 16777215
 74
     2
 91
        2
 64
     7
 65
     7
 75
     1
175
     1
 42
40.0
 92
        8
 66
     7
 43
1.0
 76
     1
 77
     6
 78
     2
 67
     7
 79
     3
170
     0
171
     0
290
     0
174
     0
 93
        1
 44
0.0
173
     0
291
     0
 45
0.0
1001
ACAD
1000
AcDbSavedByObjectVersion
1070
     0
  0
VISUALSTYLE
  5
3F
102
{ACAD_REACTORS
330
2A
102
}
102
{ACAD_XDICTIONARY
360
2FB
102
}
330
2A
100
AcDbVisualStyle
  2
Sketchy
 70
    24
 71
     1
 72
     2
 73
     2
 90
        0
 40
0.6
 41
30.0
 62
     5
 63
     7
421
 16777215
 74
     2
 91
        2
 64
     7
 65
     7
 75
     1
175
     1
 42
40.0
 92
       11
 66
     7
 43
1.0
 76
     1
 77
     6
 78
     2
 67
     7
 79
     6
170
     0
171
     0
290
     0
174
     0
 93
        1
 44
0.0
173
     0
291
     0
 45
0.0
1001
ACAD
1000
AcDbSavedByObjectVersion
1070
     0
  0
VISUALSTYLE
  5
37
102
{ACAD_REACTORS
330
2A
102
}
102
{ACAD_XDICTIONARY
360
2EB
102
}
330
2A
100
AcDbVisualStyle
  2
Thicken
 70
    13
 71
     2
 72
     2
 73
     0
 90
        0
 40
0.6
 41
30.0
 62
     5
 63
     7
421
 16777215
 74
     1
 91
        4
 64
     7
 65
   257
 75
     1
175
     1
 42
1.0
 92
       12
 66
     7
 43
1.0
 76
     1
 77
     6
 78
     2
 67
     7
 79
     5
170
     0
171
     0
290
     0
174
     0
 93
        1
 44
0.0
173
     0
291
     1
 45
0.0
1001
ACAD
1000
AcDbSavedByObjectVersion
1070
     0
  0
VISUALSTYLE
  5
30
102
{ACAD_REACTORS
330
2A
102
}
102
{ACAD_XDICTIONARY
360
2DD
102
}
330
2A
100
AcDbVisualStyle
  2
Wireframe
 70
     5
 71
     0
 72
     2
 73
     0
 90
        0
 40
0.6
 41
30.0
 62
     5
 63
     7
421
 16777215
 74
     1
 91
        4
 64
     7
 65
   257
 75
     1
175
     1
 42
1.0
 92
        0
 66
   257
 43
1.0
 76
     1
 77
     6
 78
     2
 67
     7
 79
     3
170
     0
171
     0
290
     0
174
     0
 93
        1
 44
0.0
173
     0
291
     0
 45
0.0
1001
ACAD
1000
AcDbSavedByObjectVersion
1070
     0
  0
VISUALSTYLE
  5
40
102
{ACAD_REACTORS
330
2A
102
}
102
{ACAD_XDICTIONARY
360
2FD
102
}
330
2A
100
AcDbVisualStyle
  2
X-Ray
 70
    25
 71
     2
 72
     2
 73
     1
 90
        1
 40
0.5
 41
30.0
 62
     5
 63
     7
421
 16777215
 74
     1
 91
        0
 64
     7
 65
   257
 75
     1
175
     1
 42
1.0
 92
        8
 66
     7
 43
1.0
 76
     1
 77
     6
 78
     2
 67
     7
 79
     3
170
     0
171
     0
290
     0
174
     0
 93
       13
 44
0.0
173
     0
291
     0
 45
0.0
1001
ACAD
1000
AcDbSavedByObjectVersion
1070
     0
  0
DICTIONARYVAR
  5
2D0
102
{ACAD_REACTORS
330
2CF
102
}
330
2CF
100
DictionaryVariables
280
     0
  1
1:1
  0
DICTIONARYVAR
  5
311
102
{ACAD_REACTORS
330
2CF
102
}
330
2CF
100
DictionaryVariables
280
     0
  1
Standard
  0
DICTIONARYVAR
  5
310
102
{ACAD_REACTORS
330
2CF
102
}
330
2CF
100
DictionaryVariables
280
     0
  1
Standard
  0
DICTIONARYVAR
  5
2D1
102
{ACAD_REACTORS
330
2CF
102
}
330
2CF
100
DictionaryVariables
280
     0
  1
1
  0
DICTIONARYVAR
  5
2D2
102
{ACAD_REACTORS
330
2CF
102
}
330
2CF
100
DictionaryVariables
280
     0
  1
2
  0
DICTIONARY
  5
305
330
45
100
AcDbDictionary
280
     1
281
     1
  3
ACAD_XREC_ROUNDTRIP
360
306
  0
DICTIONARY
  5
303
330
44
100
AcDbDictionary
280
     1
281
     1
  3
ACAD_XREC_ROUNDTRIP
360
304
  0
DICTIONARY
  5
307
330
46
100
AcDbDictionary
280
     1
281
     1
  3
ACAD_XREC_ROUNDTRIP
360
308
  0
DICTIONARY
  5
30D
330
6C
100
AcDbDictionary
280
     1
281
     1
  3
ACAD_XREC_ROUNDTRIP
360
30E
  0
DICTIONARY
  5
309
330
6A
100
AcDbDictionary
280
     1
281
     1
  3
ACAD_ROUNDTRIP_2008_TABLESTYLE_CELLSTYLEMAP
360
30B
  3
ACAD_XREC_ROUNDTRIP
360
30A
  0
DICTIONARY
  5
2DB
330
2F
100
AcDbDictionary
280
     1
281
     1
  3
ACAD_XREC_ROUNDTRIP
360
2DC
  0
DICTIONARY
  5
2E1
330
32
100
AcDbDictionary
280
     1
281
     1
  3
ACAD_XREC_ROUNDTRIP
360
2E2
  0
DICTIONARY
  5
2E9
330
36
100
AcDbDictionary
280
     1
281
     1
  3
ACAD_XREC_ROUNDTRIP
360
2EA
  0
DICTIONARY
  5
2F1
330
3A
100
AcDbDictionary
280
     1
281
     1
  3
ACAD_XREC_ROUNDTRIP
360
2F2
  0
DICTIONARY
  5
2E5
330
34
100
AcDbDictionary
280
     1
281
     1
  3
ACAD_XREC_ROUNDTRIP
360
2E6
  0
DICTIONARY
  5
2E7
330
35
100
AcDbDictionary
280
     1
281
     1
  3
ACAD_XREC_ROUNDTRIP
360
2E8
  0
DICTIONARY
  5
2F7
330
3D
100
AcDbDictionary
280
     1
281
     1
  3
ACAD_XREC_ROUNDTRIP
360
2F8
  0
DICTIONARY
  5
2EF
330
39
100
AcDbDictionary
280
     1
281
     1
  3
ACAD_XREC_ROUNDTRIP
360
2F0
  0
DICTIONARY
  5
2D3
330
2B
100
AcDbDictionary
280
     1
281
     1
  3
ACAD_XREC_ROUNDTRIP
360
2D4
  0
DICTIONARY
  5
2D5
330
2C
100
AcDbDictionary
280
     1
281
     1
  3
ACAD_XREC_ROUNDTRIP
360
2D6
  0
DICTIONARY
  5
2D7
330
2D
100
AcDbDictionary
280
     1
281
     1
  3
ACAD_XREC_ROUNDTRIP
360
2D8
  0
DICTIONARY
  5
2D9
330
2E
100
AcDbDictionary
280
     1
281
     1
  3
ACAD_XREC_ROUNDTRIP
360
2DA
  0
DICTIONARY
  5
2DF
330
31
100
AcDbDictionary
280
     1
281
     1
  3
ACAD_XREC_ROUNDTRIP
360
2E0
  0
DICTIONARY
  5
2F3
330
3B
100
AcDbDictionary
280
     1
281
     1
  3
ACAD_XREC_ROUNDTRIP
360
2F4
  0
DICTIONARY
  5
2ED
330
38
100
AcDbDictionary
280
     1
281
     1
  3
ACAD_XREC_ROUNDTRIP
360
2EE
  0
DICTIONARY
  5
2F5
330
3C
100
AcDbDictionary
280
     1
281
     1
  3
ACAD_XREC_ROUNDTRIP
360
2F6
  0
DICTIONARY
  5
2E3
330
33
100
AcDbDictionary
280
     1
281
     1
  3
ACAD_XREC_ROUNDTRIP
360
2E4
  0
DICTIONARY
  5
301
330
42
100
AcDbDictionary
280
     1
281
     1
  3
ACAD_XREC_ROUNDTRIP
360
302
  0
DICTIONARY
  5
2FF
330
41
100
AcDbDictionary
280
     1
281
     1
  3
ACAD_XREC_ROUNDTRIP
360
300
  0
DICTIONARY
  5
2F9
330
3E
100
AcDbDictionary
280
     1
281
     1
  3
ACAD_XREC_ROUNDTRIP
360
2FA
  0
DICTIONARY
  5
2FB
330
3F
100
AcDbDictionary
280
     1
281
     1
  3
ACAD_XREC_ROUNDTRIP
360
2FC
  0
DICTIONARY
  5
2EB
330
37
100
AcDbDictionary
280
     1
281
     1
  3
ACAD_XREC_ROUNDTRIP
360
2EC
  0
DICTIONARY
  5
2DD
330
30
100
AcDbDictionary
280
     1
281
     1
  3
ACAD_XREC_ROUNDTRIP
360
2DE
  0
DICTIONARY
  5
2FD
330
40
100
AcDbDictionary
280
     1
281
     1
  3
ACAD_XREC_ROUNDTRIP
360
2FE
  0
XRECORD
  5
306
102
{ACAD_REACTORS
330
305
102
}
330
305
100
AcDbXrecord
280
     1
102
MATERIAL
148
0.0
149
0.0
149
0.0
 93
        0
 94
      127
282
     0
 72
     1
 77
     1
171
     1
175
     1
179
     1
273
     0
  0
XRECORD
  5
304
102
{ACAD_REACTORS
330
303
102
}
330
303
100
AcDbXrecord
280
     1
102
MATERIAL
148
0.0
149
0.0
149
0.0
 93
        0
 94
      127
282
     0
 72
     1
 77
     1
171
     1
175
     1
179
     1
273
     0
  0
XRECORD
  5
308
102
{ACAD_REACTORS
330
307
102
}
330
307
100
AcDbXrecord
280
     1
102
MATERIAL
148
0.0
149
0.0
149
0.0
 93
        0
 94
      127
282
     0
 72
     1
 77
     1
171
     1
175
     1
179
     1
273
     0
  0
XRECORD
  5
30E
102
{ACAD_REACTORS
330
30D
102
}
330
30D
100
AcDbXrecord
280
     1
102
ACAD_ROUNDTRIP_2010_MLEADER_STYLE
  0
CELLSTYLEMAP
  5
30B
102
{ACAD_REACTORS
330
309
102
}
330
309
100
AcDbCellStyleMap
 90
        3
300
CELLSTYLE
  1
TABLEFORMAT_BEGIN
 90
        5
170
     1
 91
        0
 92
    32768
 62
   257
 93
        1
300
CONTENTFORMAT
  1
CONTENTFORMAT_BEGIN
 90
        0
 91
        0
 92
        4
 93
        0
300

 40
0.0
140
1.0
 94
        5
 62
     0
340
11
144
0.25
309
CONTENTFORMAT_END
171
     1
301
MARGIN
  1
CELLMARGIN_BEGIN
 40
0.06
 40
0.06
 40
0.06
 40
0.06
 40
0.06
 40
0.06
309
CELLMARGIN_END
 94
        6
 95
        1
302
GRIDFORMAT
  1
GRIDFORMAT_BEGIN
 90
        0
 91
        1
 62
     0
 92
       -2
340
14
 93
        0
 40
0.045
309
GRIDFORMAT_END
 95
        2
302
GRIDFORMAT
  1
GRIDFORMAT_BEGIN
 90
        0
 91
        1
 62
     0
 92
       -2
340
14
 93
        0
 40
0.045
309
GRIDFORMAT_END
 95
        4
302
GRIDFORMAT
  1
GRIDFORMAT_BEGIN
 90
        0
 91
        1
 62
     0
 92
       -2
340
14
 93
        0
 40
0.045
309
GRIDFORMAT_END
 95
        8
302
GRIDFORMAT
  1
GRIDFORMAT_BEGIN
 90
        0
 91
        1
 62
     0
 92
       -2
340
14
 93
        0
 40
0.045
309
GRIDFORMAT_END
 95
       16
302
GRIDFORMAT
  1
GRIDFORMAT_BEGIN
 90
        0
 91
        1
 62
     0
 92
       -2
340
14
 93
        0
 40
0.045
309
GRIDFORMAT_END
 95
       32
302
GRIDFORMAT
  1
GRIDFORMAT_BEGIN
 90
        0
 91
        1
 62
     0
 92
       -2
340
14
 93
        0
 40
0.045
309
GRIDFORMAT_END
309
TABLEFORMAT_END
  1
CELLSTYLE_BEGIN
 90
        1
 91
        1
300
_TITLE
309
CELLSTYLE_END
300
CELLSTYLE
  1
TABLEFORMAT_BEGIN
 90
        5
170
     1
 91
        0
 92
        0
 62
   257
 93
        1
300
CONTENTFORMAT
  1
CONTENTFORMAT_BEGIN
 90
        0
 91
        0
 92
        4
 93
        0
300

 40
0.0
140
1.0
 94
        5
 62
     0
340
11
144
0.18
309
CONTENTFORMAT_END
171
     1
301
MARGIN
  1
CELLMARGIN_BEGIN
 40
0.06
 40
0.06
 40
0.06
 40
0.06
 40
0.06
 40
0.06
309
CELLMARGIN_END
 94
        6
 95
        1
302
GRIDFORMAT
  1
GRIDFORMAT_BEGIN
 90
        0
 91
        1
 62
     0
 92
       -2
340
14
 93
        0
 40
0.045
309
GRIDFORMAT_END
 95
        2
302
GRIDFORMAT
  1
GRIDFORMAT_BEGIN
 90
        0
 91
        1
 62
     0
 92
       -2
340
14
 93
        0
 40
0.045
309
GRIDFORMAT_END
 95
        4
302
GRIDFORMAT
  1
GRIDFORMAT_BEGIN
 90
        0
 91
        1
 62
     0
 92
       -2
340
14
 93
        0
 40
0.045
309
GRIDFORMAT_END
 95
        8
302
GRIDFORMAT
  1
GRIDFORMAT_BEGIN
 90
        0
 91
        1
 62
     0
 92
       -2
340
14
 93
        0
 40
0.045
309
GRIDFORMAT_END
 95
       16
302
GRIDFORMAT
  1
GRIDFORMAT_BEGIN
 90
        0
 91
        1
 62
     0
 92
       -2
340
14
 93
        0
 40
0.045
309
GRIDFORMAT_END
 95
       32
302
GRIDFORMAT
  1
GRIDFORMAT_BEGIN
 90
        0
 91
        1
 62
     0
 92
       -2
340
14
 93
        0
 40
0.045
309
GRIDFORMAT_END
309
TABLEFORMAT_END
  1
CELLSTYLE_BEGIN
 90
        2
 91
        1
300
_HEADER
309
CELLSTYLE_END
300
CELLSTYLE
  1
TABLEFORMAT_BEGIN
 90
        5
170
     1
 91
        0
 92
        0
 62
   257
 93
        1
300
CONTENTFORMAT
  1
CONTENTFORMAT_BEGIN
 90
        0
 91
        0
 92
        4
 93
        0
300

 40
0.0
140
1.0
 94
        2
 62
     0
340
11
144
0.18
309
CONTENTFORMAT_END
171
     1
301
MARGIN
  1
CELLMARGIN_BEGIN
 40
0.06
 40
0.06
 40
0.06
 40
0.06
 40
0.06
 40
0.06
309
CELLMARGIN_END
 94
        6
 95
        1
302
GRIDFORMAT
  1
GRIDFORMAT_BEGIN
 90
        0
 91
        1
 62
     0
 92
       -2
340
14
 93
        0
 40
0.045
309
GRIDFORMAT_END
 95
        2
302
GRIDFORMAT
  1
GRIDFORMAT_BEGIN
 90
        0
 91
        1
 62
     0
 92
       -2
340
14
 93
        0
 40
0.045
309
GRIDFORMAT_END
 95
        4
302
GRIDFORMAT
  1
GRIDFORMAT_BEGIN
 90
        0
 91
        1
 62
     0
 92
       -2
340
14
 93
        0
 40
0.045
309
GRIDFORMAT_END
 95
        8
302
GRIDFORMAT
  1
GRIDFORMAT_BEGIN
 90
        0
 91
        1
 62
     0
 92
       -2
340
14
 93
        0
 40
0.045
309
GRIDFORMAT_END
 95
       16
302
GRIDFORMAT
  1
GRIDFORMAT_BEGIN
 90
        0
 91
        1
 62
     0
 92
       -2
340
14
 93
        0
 40
0.045
309
GRIDFORMAT_END
 95
       32
302
GRIDFORMAT
  1
GRIDFORMAT_BEGIN
 90
        0
 91
        1
 62
     0
 92
       -2
340
14
 93
        0
 40
0.045
309
GRIDFORMAT_END
309
TABLEFORMAT_END
  1
CELLSTYLE_BEGIN
 90
        3
 91
        2
300
_DATA
309
CELLSTYLE_END
  0
XRECORD
  5
30A
102
{ACAD_REACTORS
330
309
102
}
330
309
100
AcDbXrecord
280
     1
102
ACAD_ROUNDTRIP_PRE2007_TABLESTYLE
 90
        4
 91
        0
  1

 92
        4
 93
        0
  2

 94
        4
 95
        0
  3

  0
XRECORD
  5
2DC
102
{ACAD_REACTORS
330
2DB
102
}
330
2DB
100
AcDbXrecord
280
     1
102
RTVSPropertyOp0
 70
     1
102
RTVSPropertyOp1
 70
     1
102
RTVSPropertyOp2
 70
     1
102
RTVSPropertyOp3
 70
     1
102
RTVSPropertyOp4
 70
     1
102
RTVSPropertyOp5
 70
     1
102
RTVSPropertyOp6
 70
     1
102
RTVSPropertyOp7
 70
     1
102
RTVSPropertyOp8
 70
     1
102
RTVSPropertyOp9
 70
     1
102
RTVSPropertyOp10
 70
     1
102
RTVSPropertyOp11
 70
     1
102
RTVSPropertyOp12
 70
     1
102
RTVSPropertyOp13
 70
     1
102
RTVSPropertyOp14
 70
     1
102
RTVSPropertyOp15
 70
     1
102
RTVSPropertyOp16
 70
     1
102
RTVSPropertyOp17
 70
     1
102
RTVSPropertyOp18
 70
     1
102
RTVSPropertyOp19
 70
     1
102
RTVSPropertyOp20
 70
     1
102
RTVSPropertyOp21
 70
     1
102
RTVSPropertyOp22
 70
     1
102
RTVSPropertyOp23
 70
     1
102
RTVSPropertyOp24
 70
     1
102
RTVSPropertyOp25
 70
     1
102
RTVSPropertyOp26
 70
     1
102
RTVSPropertyOp27
 70
     1
102
RTVSPropertyOp28
 70
     1
102
RTVSPropertyOp29
 70
     1
102
RTVSPropertyOp30
 70
     1
102
RTVSPropertyOp31
 70
     1
102
RTVSPropertyOp32
 70
     1
102
RTVSPropertyOp33
 70
     1
102
RTVSPropertyOp34
 70
     1
102
RTVSPropertyOp35
 70
     1
102
RTVSPropertyOp36
 70
     1
102
RTVSPropertyOp37
 70
     1
102
RTVSPropertyOp38
 70
     1
102
RTVSPropertyOp39
 70
     1
102
RTVSPropertyOp40
 70
     1
102
RTVSPropertyOp41
 70
     1
102
RTVSPropertyOp42
 70
     1
102
RTVSPropertyOp43
 70
     1
102
RTVSPropertyOp44
 70
     1
102
RTVSPropertyOp45
 70
     1
102
RTVSPropertyOp46
 70
     1
102
RTVSPropertyOp47
 70
     1
102
RTVSPropertyOp48
 70
     1
102
RTVSPropertyOp49
 70
     1
102
RTVSPropertyOp50
 70
     1
102
RTVSPropertyOp51
 70
     0
102
RTVSPropertyOp52
 70
     0
102
RTVSPropertyOp53
 70
     1
102
RTVSPropertyOp54
 70
     1
102
RTVSPropertyOp55
 70
     1
102
RTVSPropertyOp56
 70
     1
102
RTVSPropertyOp57
 70
     1
102
RTVSPost2010Prop28
280
     1
102
RTVSPost2010PropOp28
 70
     1
102
RTVSPost2010Prop29
280
     1
102
RTVSPost2010PropOp29
 70
     1
102
RTVSPost2010Prop30
280
     0
102
RTVSPost2010PropOp30
 70
     1
102
RTVSPost2010Prop31
280
     0
102
RTVSPost2010PropOp31
 70
     1
102
RTVSPost2010Prop32
280
     0
102
RTVSPost2010PropOp32
 70
     1
102
RTVSPost2010Prop33
280
     0
102
RTVSPost2010PropOp33
 70
     1
102
RTVSPost2010Prop34
280
     0
102
RTVSPost2010PropOp34
 70
     1
102
RTVSPost2010Prop35
280
     0
102
RTVSPost2010PropOp35
 70
     1
102
RTVSPost2010Prop36
280
     0
102
RTVSPost2010PropOp36
 70
     1
102
RTVSPost2010Prop37
 90
       50
102
RTVSPost2010PropOp37
 70
     1
102
RTVSPost2010Prop38
140
0.0
102
RTVSPost2010PropOp38
 70
     1
102
RTVSPost2010Prop39
140
1.0
102
RTVSPost2010PropOp39
 70
     1
102
RTVSPost2010Prop40
 90
        0
102
RTVSPost2010PropOp40
 70
     1
102
RTVSPost2010Prop41ColorIndex
 90
       18
102
RTVSPost2010Prop41ColorRGB
 90
        0
102
RTVSPost2010PropOp41
 70
     1
102
RTVSPost2010Prop42
 90
       50
102
RTVSPost2010PropOp42
 70
     1
102
RTVSPost2010Prop43
 90
        3
102
RTVSPost2010PropOp43
 70
     1
102
RTVSPost2010Prop44ColorIndex
 90
        5
102
RTVSPost2010Prop44ColorRGB
 90
      255
102
RTVSPost2010PropOp44
 70
     1
102
RTVSPost2010Prop45
280
     0
102
RTVSPost2010PropOp45
 70
     1
102
RTVSPost2010Prop46
 90
       50
102
RTVSPost2010PropOp46
 70
     1
102
RTVSPost2010Prop47
 90
       50
102
RTVSPost2010PropOp47
 70
     1
102
RTVSPost2010Prop48
 90
       50
102
RTVSPost2010PropOp48
 70
     1
102
RTVSPost2010Prop49
280
     0
102
RTVSPost2010PropOp49
 70
     1
102
RTVSPost2010Prop50
 90
       50
102
RTVSPost2010PropOp50
 70
     1
102
RTVSPost2010Prop51ColorIndex
 90
      256
102
RTVSPost2010Prop51ColorRGB
 90
-16777216
102
RTVSPost2010PropOp51
 70
     0
102
RTVSPost2010Prop52
140
1.0
102
RTVSPost2010PropOp52
 70
     0
102
RTVSPost2010Prop53
 90
        2
102
RTVSPost2010PropOp53
 70
     1
102
RTVSPost2010Prop54
  1
strokes_ogs.tif
102
RTVSPost2010PropOp54
 70
     1
102
RTVSPost2010Prop55
280
     0
102
RTVSPost2010PropOp55
 70
     1
102
RTVSPost2010Prop56
140
1.0
102
RTVSPost2010PropOp56
 70
     1
102
RTVSPost2010Prop57
140
1.0
102
RTVSPost2010PropOp57
 70
     1
  0
XRECORD
  5
2E2
102
{ACAD_REACTORS
330
2E1
102
}
330
2E1
100
AcDbXrecord
280
     1
102
RTVSPropertyOp0
 70
     1
102
RTVSPropertyOp1
 70
     1
102
RTVSPropertyOp2
 70
     1
102
RTVSPropertyOp3
 70
     1
102
RTVSPropertyOp4
 70
     1
102
RTVSPropertyOp5
 70
     1
102
RTVSPropertyOp6
 70
     1
102
RTVSPropertyOp7
 70
     1
102
RTVSPropertyOp8
 70
     1
102
RTVSPropertyOp9
 70
     1
102
RTVSPropertyOp10
 70
     1
102
RTVSPropertyOp11
 70
     1
102
RTVSPropertyOp12
 70
     1
102
RTVSPropertyOp13
 70
     1
102
RTVSPropertyOp14
 70
     1
102
RTVSPropertyOp15
 70
     1
102
RTVSPropertyOp16
 70
     1
102
RTVSPropertyOp17
 70
     1
102
RTVSPropertyOp18
 70
     1
102
RTVSPropertyOp19
 70
     1
102
RTVSPropertyOp20
 70
     1
102
RTVSPropertyOp21
 70
     1
102
RTVSPropertyOp22
 70
     1
102
RTVSPropertyOp23
 70
     1
102
RTVSPropertyOp24
 70
     1
102
RTVSPropertyOp25
 70
     1
102
RTVSPropertyOp26
 70
     1
102
RTVSPropertyOp27
 70
     1
102
RTVSPropertyOp28
 70
     1
102
RTVSPropertyOp29
 70
     1
102
RTVSPropertyOp30
 70
     1
102
RTVSPropertyOp31
 70
     1
102
RTVSPropertyOp32
 70
     1
102
RTVSPropertyOp33
 70
     1
102
RTVSPropertyOp34
 70
     1
102
RTVSPropertyOp35
 70
     1
102
RTVSPropertyOp36
 70
     1
102
RTVSPropertyOp37
 70
     1
102
RTVSPropertyOp38
 70
     1
102
RTVSPropertyOp39
 70
     1
102
RTVSPropertyOp40
 70
     1
102
RTVSPropertyOp41
 70
     1
102
RTVSPropertyOp42
 70
     1
102
RTVSPropertyOp43
 70
     1
102
RTVSPropertyOp44
 70
     1
102
RTVSPropertyOp45
 70
     1
102
RTVSPropertyOp46
 70
     1
102
RTVSPropertyOp47
 70
     1
102
RTVSPropertyOp48
 70
     1
102
RTVSPropertyOp49
 70
     1
102
RTVSPropertyOp50
 70
     1
102
RTVSPropertyOp51
 70
     0
102
RTVSPropertyOp52
 70
     0
102
RTVSPropertyOp53
 70
     1
102
RTVSPropertyOp54
 70
     1
102
RTVSPropertyOp55
 70
     1
102
RTVSPropertyOp56
 70
     1
102
RTVSPropertyOp57
 70
     1
102
RTVSPost2010Prop28
280
     0
102
RTVSPost2010PropOp28
 70
     1
102
RTVSPost2010Prop29
280
     1
102
RTVSPost2010PropOp29
 70
     1
102
RTVSPost2010Prop30
280
     1
102
RTVSPost2010PropOp30
 70
     1
102
RTVSPost2010Prop31
280
     0
102
RTVSPost2010PropOp31
 70
     1
102
RTVSPost2010Prop32
280
     0
102
RTVSPost2010PropOp32
 70
     1
102
RTVSPost2010Prop33
280
     0
102
RTVSPost2010PropOp33
 70
     1
102
RTVSPost2010Prop34
280
     0
102
RTVSPost2010PropOp34
 70
     1
102
RTVSPost2010Prop35
280
     0
102
RTVSPost2010PropOp35
 70
     1
102
RTVSPost2010Prop36
280
     0
102
RTVSPost2010PropOp36
 70
     1
102
RTVSPost2010Prop37
 90
       50
102
RTVSPost2010PropOp37
 70
     1
102
RTVSPost2010Prop38
140
0.0
102
RTVSPost2010PropOp38
 70
     1
102
RTVSPost2010Prop39
140
1.0
102
RTVSPost2010PropOp39
 70
     1
102
RTVSPost2010Prop40
 90
        0
102
RTVSPost2010PropOp40
 70
     1
102
RTVSPost2010Prop41ColorIndex
 90
       18
102
RTVSPost2010Prop41ColorRGB
 90
        0
102
RTVSPost2010PropOp41
 70
     1
102
RTVSPost2010Prop42
 90
       50
102
RTVSPost2010PropOp42
 70
     1
102
RTVSPost2010Prop43
 90
        3
102
RTVSPost2010PropOp43
 70
     1
102
RTVSPost2010Prop44ColorIndex
 90
        5
102
RTVSPost2010Prop44ColorRGB
 90
      255
102
RTVSPost2010PropOp44
 70
     1
102
RTVSPost2010Prop45
280
     0
102
RTVSPost2010PropOp45
 70
     1
102
RTVSPost2010Prop46
 90
       50
102
RTVSPost2010PropOp46
 70
     1
102
RTVSPost2010Prop47
 90
       50
102
RTVSPost2010PropOp47
 70
     1
102
RTVSPost2010Prop48
 90
       50
102
RTVSPost2010PropOp48
 70
     1
102
RTVSPost2010Prop49
280
     0
102
RTVSPost2010PropOp49
 70
     1
102
RTVSPost2010Prop50
 90
       50
102
RTVSPost2010PropOp50
 70
     1
102
RTVSPost2010Prop51ColorIndex
 90
      256
102
RTVSPost2010Prop51ColorRGB
 90
-16777216
102
RTVSPost2010PropOp51
 70
     0
102
RTVSPost2010Prop52
140
1.0
102
RTVSPost2010PropOp52
 70
     0
102
RTVSPost2010Prop53
 90
        2
102
RTVSPost2010PropOp53
 70
     1
102
RTVSPost2010Prop54
  1
strokes_ogs.tif
102
RTVSPost2010PropOp54
 70
     1
102
RTVSPost2010Prop55
280
     0
102
RTVSPost2010PropOp55
 70
     1
102
RTVSPost2010Prop56
140
1.0
102
RTVSPost2010PropOp56
 70
     1
102
RTVSPost2010Prop57
140
1.0
102
RTVSPost2010PropOp57
 70
     1
  0
XRECORD
  5
2EA
102
{ACAD_REACTORS
330
2E9
102
}
330
2E9
100
AcDbXrecord
280
     1
102
RTVSPropertyOp0
 70
     1
102
RTVSPropertyOp1
 70
     1
102
RTVSPropertyOp2
 70
     1
102
RTVSPropertyOp3
 70
     1
102
RTVSPropertyOp4
 70
     1
102
RTVSPropertyOp5
 70
     1
102
RTVSPropertyOp6
 70
     1
102
RTVSPropertyOp7
 70
     1
102
RTVSPropertyOp8
 70
     1
102
RTVSPropertyOp9
 70
     1
102
RTVSPropertyOp10
 70
     1
102
RTVSPropertyOp11
 70
     1
102
RTVSPropertyOp12
 70
     1
102
RTVSPropertyOp13
 70
     1
102
RTVSPropertyOp14
 70
     1
102
RTVSPropertyOp15
 70
     1
102
RTVSPropertyOp16
 70
     1
102
RTVSPropertyOp17
 70
     1
102
RTVSPropertyOp18
 70
     1
102
RTVSPropertyOp19
 70
     1
102
RTVSPropertyOp20
 70
     1
102
RTVSPropertyOp21
 70
     1
102
RTVSPropertyOp22
 70
     1
102
RTVSPropertyOp23
 70
     1
102
RTVSPropertyOp24
 70
     1
102
RTVSPropertyOp25
 70
     1
102
RTVSPropertyOp26
 70
     1
102
RTVSPropertyOp27
 70
     1
102
RTVSPropertyOp28
 70
     1
102
RTVSPropertyOp29
 70
     1
102
RTVSPropertyOp30
 70
     1
102
RTVSPropertyOp31
 70
     1
102
RTVSPropertyOp32
 70
     1
102
RTVSPropertyOp33
 70
     1
102
RTVSPropertyOp34
 70
     1
102
RTVSPropertyOp35
 70
     1
102
RTVSPropertyOp36
 70
     1
102
RTVSPropertyOp37
 70
     1
102
RTVSPropertyOp38
 70
     1
102
RTVSPropertyOp39
 70
     1
102
RTVSPropertyOp40
 70
     1
102
RTVSPropertyOp41
 70
     1
102
RTVSPropertyOp42
 70
     1
102
RTVSPropertyOp43
 70
     1
102
RTVSPropertyOp44
 70
     1
102
RTVSPropertyOp45
 70
     1
102
RTVSPropertyOp46
 70
     1
102
RTVSPropertyOp47
 70
     1
102
RTVSPropertyOp48
 70
     1
102
RTVSPropertyOp49
 70
     1
102
RTVSPropertyOp50
 70
     1
102
RTVSPropertyOp51
 70
     0
102
RTVSPropertyOp52
 70
     0
102
RTVSPropertyOp53
 70
     1
102
RTVSPropertyOp54
 70
     1
102
RTVSPropertyOp55
 70
     1
102
RTVSPropertyOp56
 70
     1
102
RTVSPropertyOp57
 70
     1
102
RTVSPost2010Prop28
280
     0
102
RTVSPost2010PropOp28
 70
     1
102
RTVSPost2010Prop29
280
     1
102
RTVSPost2010PropOp29
 70
     1
102
RTVSPost2010Prop30
280
     1
102
RTVSPost2010PropOp30
 70
     1
102
RTVSPost2010Prop31
280
     0
102
RTVSPost2010PropOp31
 70
     1
102
RTVSPost2010Prop32
280
     0
102
RTVSPost2010PropOp32
 70
     1
102
RTVSPost2010Prop33
280
     0
102
RTVSPost2010PropOp33
 70
     1
102
RTVSPost2010Prop34
280
     0
102
RTVSPost2010PropOp34
 70
     1
102
RTVSPost2010Prop35
280
     0
102
RTVSPost2010PropOp35
 70
     1
102
RTVSPost2010Prop36
280
     0
102
RTVSPost2010PropOp36
 70
     1
102
RTVSPost2010Prop37
 90
       50
102
RTVSPost2010PropOp37
 70
     1
102
RTVSPost2010Prop38
140
0.0
102
RTVSPost2010PropOp38
 70
     1
102
RTVSPost2010Prop39
140
1.0
102
RTVSPost2010PropOp39
 70
     1
102
RTVSPost2010Prop40
 90
        0
102
RTVSPost2010PropOp40
 70
     1
102
RTVSPost2010Prop41ColorIndex
 90
       18
102
RTVSPost2010Prop41ColorRGB
 90
        0
102
RTVSPost2010PropOp41
 70
     1
102
RTVSPost2010Prop42
 90
       50
102
RTVSPost2010PropOp42
 70
     1
102
RTVSPost2010Prop43
 90
        3
102
RTVSPost2010PropOp43
 70
     1
102
RTVSPost2010Prop44ColorIndex
 90
        5
102
RTVSPost2010Prop44ColorRGB
 90
      255
102
RTVSPost2010PropOp44
 70
     1
102
RTVSPost2010Prop45
280
     0
102
RTVSPost2010PropOp45
 70
     1
102
RTVSPost2010Prop46
 90
       50
102
RTVSPost2010PropOp46
 70
     1
102
RTVSPost2010Prop47
 90
       50
102
RTVSPost2010PropOp47
 70
     1
102
RTVSPost2010Prop48
 90
       50
102
RTVSPost2010PropOp48
 70
     1
102
RTVSPost2010Prop49
280
     0
102
RTVSPost2010PropOp49
 70
     1
102
RTVSPost2010Prop50
 90
       50
102
RTVSPost2010PropOp50
 70
     1
102
RTVSPost2010Prop51ColorIndex
 90
      256
102
RTVSPost2010Prop51ColorRGB
 90
-16777216
102
RTVSPost2010PropOp51
 70
     0
102
RTVSPost2010Prop52
140
1.0
102
RTVSPost2010PropOp52
 70
     0
102
RTVSPost2010Prop53
 90
        2
102
RTVSPost2010PropOp53
 70
     1
102
RTVSPost2010Prop54
  1
strokes_ogs.tif
102
RTVSPost2010PropOp54
 70
     1
102
RTVSPost2010Prop55
280
     0
102
RTVSPost2010PropOp55
 70
     1
102
RTVSPost2010Prop56
140
1.0
102
RTVSPost2010PropOp56
 70
     1
102
RTVSPost2010Prop57
140
1.0
102
RTVSPost2010PropOp57
 70
     1
  0
XRECORD
  5
2F2
102
{ACAD_REACTORS
330
2F1
102
}
330
2F1
100
AcDbXrecord
280
     1
102
RTVSPropertyOp0
 70
     1
102
RTVSPropertyOp1
 70
     1
102
RTVSPropertyOp2
 70
     1
102
RTVSPropertyOp3
 70
     1
102
RTVSPropertyOp4
 70
     1
102
RTVSPropertyOp5
 70
     1
102
RTVSPropertyOp6
 70
     1
102
RTVSPropertyOp7
 70
     1
102
RTVSPropertyOp8
 70
     1
102
RTVSPropertyOp9
 70
     1
102
RTVSPropertyOp10
 70
     1
102
RTVSPropertyOp11
 70
     1
102
RTVSPropertyOp12
 70
     1
102
RTVSPropertyOp13
 70
     1
102
RTVSPropertyOp14
 70
     1
102
RTVSPropertyOp15
 70
     1
102
RTVSPropertyOp16
 70
     1
102
RTVSPropertyOp17
 70
     1
102
RTVSPropertyOp18
 70
     1
102
RTVSPropertyOp19
 70
     1
102
RTVSPropertyOp20
 70
     1
102
RTVSPropertyOp21
 70
     1
102
RTVSPropertyOp22
 70
     1
102
RTVSPropertyOp23
 70
     1
102
RTVSPropertyOp24
 70
     1
102
RTVSPropertyOp25
 70
     1
102
RTVSPropertyOp26
 70
     1
102
RTVSPropertyOp27
 70
     1
102
RTVSPropertyOp28
 70
     1
102
RTVSPropertyOp29
 70
     1
102
RTVSPropertyOp30
 70
     1
102
RTVSPropertyOp31
 70
     1
102
RTVSPropertyOp32
 70
     1
102
RTVSPropertyOp33
 70
     1
102
RTVSPropertyOp34
 70
     1
102
RTVSPropertyOp35
 70
     1
102
RTVSPropertyOp36
 70
     1
102
RTVSPropertyOp37
 70
     1
102
RTVSPropertyOp38
 70
     1
102
RTVSPropertyOp39
 70
     1
102
RTVSPropertyOp40
 70
     1
102
RTVSPropertyOp41
 70
     1
102
RTVSPropertyOp42
 70
     1
102
RTVSPropertyOp43
 70
     1
102
RTVSPropertyOp44
 70
     1
102
RTVSPropertyOp45
 70
     1
102
RTVSPropertyOp46
 70
     1
102
RTVSPropertyOp47
 70
     1
102
RTVSPropertyOp48
 70
     1
102
RTVSPropertyOp49
 70
     1
102
RTVSPropertyOp50
 70
     1
102
RTVSPropertyOp51
 70
     0
102
RTVSPropertyOp52
 70
     0
102
RTVSPropertyOp53
 70
     1
102
RTVSPropertyOp54
 70
     1
102
RTVSPropertyOp55
 70
     1
102
RTVSPropertyOp56
 70
     1
102
RTVSPropertyOp57
 70
     1
102
RTVSPost2010Prop28
280
     0
102
RTVSPost2010PropOp28
 70
     1
102
RTVSPost2010Prop29
280
     1
102
RTVSPost2010PropOp29
 70
     1
102
RTVSPost2010Prop30
280
     1
102
RTVSPost2010PropOp30
 70
     1
102
RTVSPost2010Prop31
280
     0
102
RTVSPost2010PropOp31
 70
     1
102
RTVSPost2010Prop32
280
     0
102
RTVSPost2010PropOp32
 70
     1
102
RTVSPost2010Prop33
280
     0
102
RTVSPost2010PropOp33
 70
     1
102
RTVSPost2010Prop34
280
     0
102
RTVSPost2010PropOp34
 70
     1
102
RTVSPost2010Prop35
280
     0
102
RTVSPost2010PropOp35
 70
     1
102
RTVSPost2010Prop36
280
     0
102
RTVSPost2010PropOp36
 70
     1
102
RTVSPost2010Prop37
 90
       50
102
RTVSPost2010PropOp37
 70
     1
102
RTVSPost2010Prop38
140
0.0
102
RTVSPost2010PropOp38
 70
     1
102
RTVSPost2010Prop39
140
1.0
102
RTVSPost2010PropOp39
 70
     1
102
RTVSPost2010Prop40
 90
        0
102
RTVSPost2010PropOp40
 70
     1
102
RTVSPost2010Prop41ColorIndex
 90
       18
102
RTVSPost2010Prop41ColorRGB
 90
        0
102
RTVSPost2010PropOp41
 70
     1
102
RTVSPost2010Prop42
 90
       50
102
RTVSPost2010PropOp42
 70
     1
102
RTVSPost2010Prop43
 90
        3
102
RTVSPost2010PropOp43
 70
     1
102
RTVSPost2010Prop44ColorIndex
 90
        5
102
RTVSPost2010Prop44ColorRGB
 90
      255
102
RTVSPost2010PropOp44
 70
     1
102
RTVSPost2010Prop45
280
     0
102
RTVSPost2010PropOp45
 70
     1
102
RTVSPost2010Prop46
 90
       50
102
RTVSPost2010PropOp46
 70
     1
102
RTVSPost2010Prop47
 90
       50
102
RTVSPost2010PropOp47
 70
     1
102
RTVSPost2010Prop48
 90
       50
102
RTVSPost2010PropOp48
 70
     1
102
RTVSPost2010Prop49
280
     0
102
RTVSPost2010PropOp49
 70
     1
102
RTVSPost2010Prop50
 90
       50
102
RTVSPost2010PropOp50
 70
     1
102
RTVSPost2010Prop51ColorIndex
 90
      256
102
RTVSPost2010Prop51ColorRGB
 90
-16777216
102
RTVSPost2010PropOp51
 70
     0
102
RTVSPost2010Prop52
140
1.0
102
RTVSPost2010PropOp52
 70
     0
102
RTVSPost2010Prop53
 90
        2
102
RTVSPost2010PropOp53
 70
     1
102
RTVSPost2010Prop54
  1
strokes_ogs.tif
102
RTVSPost2010PropOp54
 70
     1
102
RTVSPost2010Prop55
280
     0
102
RTVSPost2010PropOp55
 70
     1
102
RTVSPost2010Prop56
140
1.0
102
RTVSPost2010PropOp56
 70
     1
102
RTVSPost2010Prop57
140
1.0
102
RTVSPost2010PropOp57
 70
     1
  0
XRECORD
  5
2E6
102
{ACAD_REACTORS
330
2E5
102
}
330
2E5
100
AcDbXrecord
280
     1
102
RTVSPropertyOp0
 70
     1
102
RTVSPropertyOp1
 70
     1
102
RTVSPropertyOp2
 70
     1
102
RTVSPropertyOp3
 70
     1
102
RTVSPropertyOp4
 70
     1
102
RTVSPropertyOp5
 70
     1
102
RTVSPropertyOp6
 70
     1
102
RTVSPropertyOp7
 70
     1
102
RTVSPropertyOp8
 70
     1
102
RTVSPropertyOp9
 70
     1
102
RTVSPropertyOp10
 70
     1
102
RTVSPropertyOp11
 70
     1
102
RTVSPropertyOp12
 70
     1
102
RTVSPropertyOp13
 70
     1
102
RTVSPropertyOp14
 70
     1
102
RTVSPropertyOp15
 70
     1
102
RTVSPropertyOp16
 70
     1
102
RTVSPropertyOp17
 70
     1
102
RTVSPropertyOp18
 70
     1
102
RTVSPropertyOp19
 70
     1
102
RTVSPropertyOp20
 70
     1
102
RTVSPropertyOp21
 70
     1
102
RTVSPropertyOp22
 70
     1
102
RTVSPropertyOp23
 70
     1
102
RTVSPropertyOp24
 70
     1
102
RTVSPropertyOp25
 70
     1
102
RTVSPropertyOp26
 70
     1
102
RTVSPropertyOp27
 70
     1
102
RTVSPropertyOp28
 70
     1
102
RTVSPropertyOp29
 70
     1
102
RTVSPropertyOp30
 70
     1
102
RTVSPropertyOp31
 70
     1
102
RTVSPropertyOp32
 70
     1
102
RTVSPropertyOp33
 70
     1
102
RTVSPropertyOp34
 70
     1
102
RTVSPropertyOp35
 70
     1
102
RTVSPropertyOp36
 70
     1
102
RTVSPropertyOp37
 70
     1
102
RTVSPropertyOp38
 70
     1
102
RTVSPropertyOp39
 70
     1
102
RTVSPropertyOp40
 70
     1
102
RTVSPropertyOp41
 70
     1
102
RTVSPropertyOp42
 70
     1
102
RTVSPropertyOp43
 70
     1
102
RTVSPropertyOp44
 70
     1
102
RTVSPropertyOp45
 70
     1
102
RTVSPropertyOp46
 70
     1
102
RTVSPropertyOp47
 70
     1
102
RTVSPropertyOp48
 70
     1
102
RTVSPropertyOp49
 70
     1
102
RTVSPropertyOp50
 70
     1
102
RTVSPropertyOp51
 70
     0
102
RTVSPropertyOp52
 70
     0
102
RTVSPropertyOp53
 70
     1
102
RTVSPropertyOp54
 70
     1
102
RTVSPropertyOp55
 70
     1
102
RTVSPropertyOp56
 70
     1
102
RTVSPropertyOp57
 70
     1
102
RTVSPost2010Prop28
280
     0
102
RTVSPost2010PropOp28
 70
     1
102
RTVSPost2010Prop29
280
     1
102
RTVSPost2010PropOp29
 70
     1
102
RTVSPost2010Prop30
280
     1
102
RTVSPost2010PropOp30
 70
     1
102
RTVSPost2010Prop31
280
     0
102
RTVSPost2010PropOp31
 70
     1
102
RTVSPost2010Prop32
280
     0
102
RTVSPost2010PropOp32
 70
     1
102
RTVSPost2010Prop33
280
     0
102
RTVSPost2010PropOp33
 70
     1
102
RTVSPost2010Prop34
280
     0
102
RTVSPost2010PropOp34
 70
     1
102
RTVSPost2010Prop35
280
     0
102
RTVSPost2010PropOp35
 70
     1
102
RTVSPost2010Prop36
280
     0
102
RTVSPost2010PropOp36
 70
     1
102
RTVSPost2010Prop37
 90
       50
102
RTVSPost2010PropOp37
 70
     1
102
RTVSPost2010Prop38
140
0.0
102
RTVSPost2010PropOp38
 70
     1
102
RTVSPost2010Prop39
140
1.0
102
RTVSPost2010PropOp39
 70
     1
102
RTVSPost2010Prop40
 90
        0
102
RTVSPost2010PropOp40
 70
     1
102
RTVSPost2010Prop41ColorIndex
 90
       18
102
RTVSPost2010Prop41ColorRGB
 90
        0
102
RTVSPost2010PropOp41
 70
     1
102
RTVSPost2010Prop42
 90
       50
102
RTVSPost2010PropOp42
 70
     1
102
RTVSPost2010Prop43
 90
        3
102
RTVSPost2010PropOp43
 70
     1
102
RTVSPost2010Prop44ColorIndex
 90
        5
102
RTVSPost2010Prop44ColorRGB
 90
      255
102
RTVSPost2010PropOp44
 70
     1
102
RTVSPost2010Prop45
280
     0
102
RTVSPost2010PropOp45
 70
     1
102
RTVSPost2010Prop46
 90
       50
102
RTVSPost2010PropOp46
 70
     1
102
RTVSPost2010Prop47
 90
       50
102
RTVSPost2010PropOp47
 70
     1
102
RTVSPost2010Prop48
 90
       50
102
RTVSPost2010PropOp48
 70
     1
102
RTVSPost2010Prop49
280
     0
102
RTVSPost2010PropOp49
 70
     1
102
RTVSPost2010Prop50
 90
       50
102
RTVSPost2010PropOp50
 70
     1
102
RTVSPost2010Prop51ColorIndex
 90
      256
102
RTVSPost2010Prop51ColorRGB
 90
-16777216
102
RTVSPost2010PropOp51
 70
     0
102
RTVSPost2010Prop52
140
1.0
102
RTVSPost2010PropOp52
 70
     0
102
RTVSPost2010Prop53
 90
        2
102
RTVSPost2010PropOp53
 70
     1
102
RTVSPost2010Prop54
  1
strokes_ogs.tif
102
RTVSPost2010PropOp54
 70
     1
102
RTVSPost2010Prop55
280
     0
102
RTVSPost2010PropOp55
 70
     1
102
RTVSPost2010Prop56
140
1.0
102
RTVSPost2010PropOp56
 70
     1
102
RTVSPost2010Prop57
140
1.0
102
RTVSPost2010PropOp57
 70
     1
  0
XRECORD
  5
2E8
102
{ACAD_REACTORS
330
2E7
102
}
330
2E7
100
AcDbXrecord
280
     1
102
RTVSPropertyOp0
 70
     1
102
RTVSPropertyOp1
 70
     1
102
RTVSPropertyOp2
 70
     1
102
RTVSPropertyOp3
 70
     1
102
RTVSPropertyOp4
 70
     1
102
RTVSPropertyOp5
 70
     1
102
RTVSPropertyOp6
 70
     1
102
RTVSPropertyOp7
 70
     1
102
RTVSPropertyOp8
 70
     1
102
RTVSPropertyOp9
 70
     1
102
RTVSPropertyOp10
 70
     1
102
RTVSPropertyOp11
 70
     1
102
RTVSPropertyOp12
 70
     1
102
RTVSPropertyOp13
 70
     1
102
RTVSPropertyOp14
 70
     1
102
RTVSPropertyOp15
 70
     1
102
RTVSPropertyOp16
 70
     1
102
RTVSPropertyOp17
 70
     1
102
RTVSPropertyOp18
 70
     1
102
RTVSPropertyOp19
 70
     1
102
RTVSPropertyOp20
 70
     1
102
RTVSPropertyOp21
 70
     1
102
RTVSPropertyOp22
 70
     1
102
RTVSPropertyOp23
 70
     1
102
RTVSPropertyOp24
 70
     1
102
RTVSPropertyOp25
 70
     1
102
RTVSPropertyOp26
 70
     1
102
RTVSPropertyOp27
 70
     1
102
RTVSPropertyOp28
 70
     1
102
RTVSPropertyOp29
 70
     1
102
RTVSPropertyOp30
 70
     1
102
RTVSPropertyOp31
 70
     1
102
RTVSPropertyOp32
 70
     1
102
RTVSPropertyOp33
 70
     1
102
RTVSPropertyOp34
 70
     1
102
RTVSPropertyOp35
 70
     1
102
RTVSPropertyOp36
 70
     1
102
RTVSPropertyOp37
 70
     1
102
RTVSPropertyOp38
 70
     1
102
RTVSPropertyOp39
 70
     1
102
RTVSPropertyOp40
 70
     1
102
RTVSPropertyOp41
 70
     1
102
RTVSPropertyOp42
 70
     1
102
RTVSPropertyOp43
 70
     1
102
RTVSPropertyOp44
 70
     1
102
RTVSPropertyOp45
 70
     1
102
RTVSPropertyOp46
 70
     1
102
RTVSPropertyOp47
 70
     1
102
RTVSPropertyOp48
 70
     1
102
RTVSPropertyOp49
 70
     1
102
RTVSPropertyOp50
 70
     1
102
RTVSPropertyOp51
 70
     0
102
RTVSPropertyOp52
 70
     0
102
RTVSPropertyOp53
 70
     1
102
RTVSPropertyOp54
 70
     1
102
RTVSPropertyOp55
 70
     1
102
RTVSPropertyOp56
 70
     1
102
RTVSPropertyOp57
 70
     1
102
RTVSPost2010Prop28
280
     0
102
RTVSPost2010PropOp28
 70
     1
102
RTVSPost2010Prop29
280
     1
102
RTVSPost2010PropOp29
 70
     1
102
RTVSPost2010Prop30
280
     1
102
RTVSPost2010PropOp30
 70
     1
102
RTVSPost2010Prop31
280
     0
102
RTVSPost2010PropOp31
 70
     1
102
RTVSPost2010Prop32
280
     0
102
RTVSPost2010PropOp32
 70
     1
102
RTVSPost2010Prop33
280
     0
102
RTVSPost2010PropOp33
 70
     1
102
RTVSPost2010Prop34
280
     0
102
RTVSPost2010PropOp34
 70
     1
102
RTVSPost2010Prop35
280
     0
102
RTVSPost2010PropOp35
 70
     1
102
RTVSPost2010Prop36
280
     0
102
RTVSPost2010PropOp36
 70
     1
102
RTVSPost2010Prop37
 90
       50
102
RTVSPost2010PropOp37
 70
     1
102
RTVSPost2010Prop38
140
0.0
102
RTVSPost2010PropOp38
 70
     1
102
RTVSPost2010Prop39
140
1.0
102
RTVSPost2010PropOp39
 70
     1
102
RTVSPost2010Prop40
 90
        0
102
RTVSPost2010PropOp40
 70
     1
102
RTVSPost2010Prop41ColorIndex
 90
       18
102
RTVSPost2010Prop41ColorRGB
 90
        0
102
RTVSPost2010PropOp41
 70
     1
102
RTVSPost2010Prop42
 90
       50
102
RTVSPost2010PropOp42
 70
     1
102
RTVSPost2010Prop43
 90
        3
102
RTVSPost2010PropOp43
 70
     1
102
RTVSPost2010Prop44ColorIndex
 90
        5
102
RTVSPost2010Prop44ColorRGB
 90
      255
102
RTVSPost2010PropOp44
 70
     1
102
RTVSPost2010Prop45
280
     0
102
RTVSPost2010PropOp45
 70
     1
102
RTVSPost2010Prop46
 90
       50
102
RTVSPost2010PropOp46
 70
     1
102
RTVSPost2010Prop47
 90
       50
102
RTVSPost2010PropOp47
 70
     1
102
RTVSPost2010Prop48
 90
       50
102
RTVSPost2010PropOp48
 70
     1
102
RTVSPost2010Prop49
280
     0
102
RTVSPost2010PropOp49
 70
     1
102
RTVSPost2010Prop50
 90
       50
102
RTVSPost2010PropOp50
 70
     1
102
RTVSPost2010Prop51ColorIndex
 90
      256
102
RTVSPost2010Prop51ColorRGB
 90
-16777216
102
RTVSPost2010PropOp51
 70
     0
102
RTVSPost2010Prop52
140
1.0
102
RTVSPost2010PropOp52
 70
     0
102
RTVSPost2010Prop53
 90
        2
102
RTVSPost2010PropOp53
 70
     1
102
RTVSPost2010Prop54
  1
strokes_ogs.tif
102
RTVSPost2010PropOp54
 70
     1
102
RTVSPost2010Prop55
280
     0
102
RTVSPost2010PropOp55
 70
     1
102
RTVSPost2010Prop56
140
1.0
102
RTVSPost2010PropOp56
 70
     1
102
RTVSPost2010Prop57
140
1.0
102
RTVSPost2010PropOp57
 70
     1
  0
XRECORD
  5
2F8
102
{ACAD_REACTORS
330
2F7
102
}
330
2F7
100
AcDbXrecord
280
     1
102
RTVSPropertyOp0
 70
     0
102
RTVSPropertyOp1
 70
     0
102
RTVSPropertyOp2
 70
     0
102
RTVSPropertyOp3
 70
     0
102
RTVSPropertyOp4
 70
     0
102
RTVSPropertyOp5
 70
     0
102
RTVSPropertyOp6
 70
     0
102
RTVSPropertyOp7
 70
     0
102
RTVSPropertyOp8
 70
     0
102
RTVSPropertyOp9
 70
     0
102
RTVSPropertyOp10
 70
     0
102
RTVSPropertyOp11
 70
     0
102
RTVSPropertyOp12
 70
     0
102
RTVSPropertyOp13
 70
     0
102
RTVSPropertyOp14
 70
     2
102
RTVSPropertyOp15
 70
     0
102
RTVSPropertyOp16
 70
     0
102
RTVSPropertyOp17
 70
     0
102
RTVSPropertyOp18
 70
     0
102
RTVSPropertyOp19
 70
     0
102
RTVSPropertyOp20
 70
     0
102
RTVSPropertyOp21
 70
     0
102
RTVSPropertyOp22
 70
     0
102
RTVSPropertyOp23
 70
     0
102
RTVSPropertyOp24
 70
     0
102
RTVSPropertyOp25
 70
     0
102
RTVSPropertyOp26
 70
     0
102
RTVSPropertyOp27
 70
     0
102
RTVSPropertyOp28
 70
     0
102
RTVSPropertyOp29
 70
     0
102
RTVSPropertyOp30
 70
     0
102
RTVSPropertyOp31
 70
     0
102
RTVSPropertyOp32
 70
     0
102
RTVSPropertyOp33
 70
     0
102
RTVSPropertyOp34
 70
     0
102
RTVSPropertyOp35
 70
     0
102
RTVSPropertyOp36
 70
     0
102
RTVSPropertyOp37
 70
     0
102
RTVSPropertyOp38
 70
     0
102
RTVSPropertyOp39
 70
     0
102
RTVSPropertyOp40
 70
     0
102
RTVSPropertyOp41
 70
     0
102
RTVSPropertyOp42
 70
     0
102
RTVSPropertyOp43
 70
     0
102
RTVSPropertyOp44
 70
     0
102
RTVSPropertyOp45
 70
     0
102
RTVSPropertyOp46
 70
     0
102
RTVSPropertyOp47
 70
     0
102
RTVSPropertyOp48
 70
     0
102
RTVSPropertyOp49
 70
     0
102
RTVSPropertyOp50
 70
     0
102
RTVSPropertyOp51
 70
     0
102
RTVSPropertyOp52
 70
     0
102
RTVSPropertyOp53
 70
     0
102
RTVSPropertyOp54
 70
     0
102
RTVSPropertyOp55
 70
     0
102
RTVSPropertyOp56
 70
     0
102
RTVSPropertyOp57
 70
     0
102
RTVSPost2010Prop28
280
     0
102
RTVSPost2010PropOp28
 70
     0
102
RTVSPost2010Prop29
280
     1
102
RTVSPost2010PropOp29
 70
     0
102
RTVSPost2010Prop30
280
     1
102
RTVSPost2010PropOp30
 70
     0
102
RTVSPost2010Prop31
280
     0
102
RTVSPost2010PropOp31
 70
     0
102
RTVSPost2010Prop32
280
     0
102
RTVSPost2010PropOp32
 70
     0
102
RTVSPost2010Prop33
280
     0
102
RTVSPost2010PropOp33
 70
     0
102
RTVSPost2010Prop34
280
     0
102
RTVSPost2010PropOp34
 70
     0
102
RTVSPost2010Prop35
280
     0
102
RTVSPost2010PropOp35
 70
     0
102
RTVSPost2010Prop36
280
     0
102
RTVSPost2010PropOp36
 70
     0
102
RTVSPost2010Prop37
 90
       50
102
RTVSPost2010PropOp37
 70
     0
102
RTVSPost2010Prop38
140
0.0
102
RTVSPost2010PropOp38
 70
     0
102
RTVSPost2010Prop39
140
1.0
102
RTVSPost2010PropOp39
 70
     0
102
RTVSPost2010Prop40
 90
        0
102
RTVSPost2010PropOp40
 70
     0
102
RTVSPost2010Prop41ColorIndex
 90
       18
102
RTVSPost2010Prop41ColorRGB
 90
        0
102
RTVSPost2010PropOp41
 70
     0
102
RTVSPost2010Prop42
 90
       50
102
RTVSPost2010PropOp42
 70
     0
102
RTVSPost2010Prop43
 90
        3
102
RTVSPost2010PropOp43
 70
     0
102
RTVSPost2010Prop44ColorIndex
 90
        5
102
RTVSPost2010Prop44ColorRGB
 90
      255
102
RTVSPost2010PropOp44
 70
     0
102
RTVSPost2010Prop45
280
     0
102
RTVSPost2010PropOp45
 70
     0
102
RTVSPost2010Prop46
 90
       50
102
RTVSPost2010PropOp46
 70
     0
102
RTVSPost2010Prop47
 90
       50
102
RTVSPost2010PropOp47
 70
     0
102
RTVSPost2010Prop48
 90
       50
102
RTVSPost2010PropOp48
 70
     0
102
RTVSPost2010Prop49
280
     0
102
RTVSPost2010PropOp49
 70
     0
102
RTVSPost2010Prop50
 90
       50
102
RTVSPost2010PropOp50
 70
     0
102
RTVSPost2010Prop51ColorIndex
 90
      256
102
RTVSPost2010Prop51ColorRGB
 90
-16777216
102
RTVSPost2010PropOp51
 70
     0
102
RTVSPost2010Prop52
140
1.0
102
RTVSPost2010PropOp52
 70
     0
102
RTVSPost2010Prop53
 90
        2
102
RTVSPost2010PropOp53
 70
     0
102
RTVSPost2010Prop54
  1
strokes_ogs.tif
102
RTVSPost2010PropOp54
 70
     0
102
RTVSPost2010Prop55
280
     0
102
RTVSPost2010PropOp55
 70
     0
102
RTVSPost2010Prop56
140
1.0
102
RTVSPost2010PropOp56
 70
     0
102
RTVSPost2010Prop57
140
1.0
102
RTVSPost2010PropOp57
 70
     0
  0
XRECORD
  5
2F0
102
{ACAD_REACTORS
330
2EF
102
}
330
2EF
100
AcDbXrecord
280
     1
102
RTVSPropertyOp0
 70
     1
102
RTVSPropertyOp1
 70
     1
102
RTVSPropertyOp2
 70
     1
102
RTVSPropertyOp3
 70
     1
102
RTVSPropertyOp4
 70
     1
102
RTVSPropertyOp5
 70
     1
102
RTVSPropertyOp6
 70
     1
102
RTVSPropertyOp7
 70
     1
102
RTVSPropertyOp8
 70
     1
102
RTVSPropertyOp9
 70
     1
102
RTVSPropertyOp10
 70
     1
102
RTVSPropertyOp11
 70
     1
102
RTVSPropertyOp12
 70
     1
102
RTVSPropertyOp13
 70
     1
102
RTVSPropertyOp14
 70
     1
102
RTVSPropertyOp15
 70
     1
102
RTVSPropertyOp16
 70
     1
102
RTVSPropertyOp17
 70
     1
102
RTVSPropertyOp18
 70
     1
102
RTVSPropertyOp19
 70
     1
102
RTVSPropertyOp20
 70
     1
102
RTVSPropertyOp21
 70
     1
102
RTVSPropertyOp22
 70
     1
102
RTVSPropertyOp23
 70
     1
102
RTVSPropertyOp24
 70
     1
102
RTVSPropertyOp25
 70
     1
102
RTVSPropertyOp26
 70
     1
102
RTVSPropertyOp27
 70
     1
102
RTVSPropertyOp28
 70
     1
102
RTVSPropertyOp29
 70
     1
102
RTVSPropertyOp30
 70
     1
102
RTVSPropertyOp31
 70
     1
102
RTVSPropertyOp32
 70
     1
102
RTVSPropertyOp33
 70
     1
102
RTVSPropertyOp34
 70
     1
102
RTVSPropertyOp35
 70
     1
102
RTVSPropertyOp36
 70
     1
102
RTVSPropertyOp37
 70
     1
102
RTVSPropertyOp38
 70
     1
102
RTVSPropertyOp39
 70
     1
102
RTVSPropertyOp40
 70
     1
102
RTVSPropertyOp41
 70
     1
102
RTVSPropertyOp42
 70
     1
102
RTVSPropertyOp43
 70
     1
102
RTVSPropertyOp44
 70
     1
102
RTVSPropertyOp45
 70
     1
102
RTVSPropertyOp46
 70
     1
102
RTVSPropertyOp47
 70
     1
102
RTVSPropertyOp48
 70
     1
102
RTVSPropertyOp49
 70
     1
102
RTVSPropertyOp50
 70
     1
102
RTVSPropertyOp51
 70
     0
102
RTVSPropertyOp52
 70
     0
102
RTVSPropertyOp53
 70
     1
102
RTVSPropertyOp54
 70
     1
102
RTVSPropertyOp55
 70
     1
102
RTVSPropertyOp56
 70
     1
102
RTVSPropertyOp57
 70
     1
102
RTVSPost2010Prop28
280
     0
102
RTVSPost2010PropOp28
 70
     1
102
RTVSPost2010Prop29
280
     1
102
RTVSPost2010PropOp29
 70
     1
102
RTVSPost2010Prop30
280
     1
102
RTVSPost2010PropOp30
 70
     1
102
RTVSPost2010Prop31
280
     0
102
RTVSPost2010PropOp31
 70
     1
102
RTVSPost2010Prop32
280
     0
102
RTVSPost2010PropOp32
 70
     1
102
RTVSPost2010Prop33
280
     0
102
RTVSPost2010PropOp33
 70
     1
102
RTVSPost2010Prop34
280
     0
102
RTVSPost2010PropOp34
 70
     1
102
RTVSPost2010Prop35
280
     0
102
RTVSPost2010PropOp35
 70
     1
102
RTVSPost2010Prop36
280
     0
102
RTVSPost2010PropOp36
 70
     1
102
RTVSPost2010Prop37
 90
       50
102
RTVSPost2010PropOp37
 70
     1
102
RTVSPost2010Prop38
140
0.0
102
RTVSPost2010PropOp38
 70
     1
102
RTVSPost2010Prop39
140
1.0
102
RTVSPost2010PropOp39
 70
     1
102
RTVSPost2010Prop40
 90
        0
102
RTVSPost2010PropOp40
 70
     1
102
RTVSPost2010Prop41ColorIndex
 90
       18
102
RTVSPost2010Prop41ColorRGB
 90
        0
102
RTVSPost2010PropOp41
 70
     1
102
RTVSPost2010Prop42
 90
       50
102
RTVSPost2010PropOp42
 70
     1
102
RTVSPost2010Prop43
 90
        3
102
RTVSPost2010PropOp43
 70
     1
102
RTVSPost2010Prop44ColorIndex
 90
        5
102
RTVSPost2010Prop44ColorRGB
 90
      255
102
RTVSPost2010PropOp44
 70
     1
102
RTVSPost2010Prop45
280
     0
102
RTVSPost2010PropOp45
 70
     1
102
RTVSPost2010Prop46
 90
       50
102
RTVSPost2010PropOp46
 70
     1
102
RTVSPost2010Prop47
 90
       50
102
RTVSPost2010PropOp47
 70
     1
102
RTVSPost2010Prop48
 90
       50
102
RTVSPost2010PropOp48
 70
     1
102
RTVSPost2010Prop49
280
     0
102
RTVSPost2010PropOp49
 70
     1
102
RTVSPost2010Prop50
 90
       50
102
RTVSPost2010PropOp50
 70
     1
102
RTVSPost2010Prop51ColorIndex
 90
      256
102
RTVSPost2010Prop51ColorRGB
 90
-16777216
102
RTVSPost2010PropOp51
 70
     0
102
RTVSPost2010Prop52
140
1.0
102
RTVSPost2010PropOp52
 70
     0
102
RTVSPost2010Prop53
 90
        2
102
RTVSPost2010PropOp53
 70
     1
102
RTVSPost2010Prop54
  1
strokes_ogs.tif
102
RTVSPost2010PropOp54
 70
     1
102
RTVSPost2010Prop55
280
     0
102
RTVSPost2010PropOp55
 70
     1
102
RTVSPost2010Prop56
140
1.0
102
RTVSPost2010PropOp56
 70
     1
102
RTVSPost2010Prop57
140
1.0
102
RTVSPost2010PropOp57
 70
     1
  0
XRECORD
  5
2D4
102
{ACAD_REACTORS
330
2D3
102
}
330
2D3
100
AcDbXrecord
280
     1
102
RTVSPropertyOp0
 70
     1
102
RTVSPropertyOp1
 70
     1
102
RTVSPropertyOp2
 70
     1
102
RTVSPropertyOp3
 70
     1
102
RTVSPropertyOp4
 70
     1
102
RTVSPropertyOp5
 70
     1
102
RTVSPropertyOp6
 70
     1
102
RTVSPropertyOp7
 70
     1
102
RTVSPropertyOp8
 70
     1
102
RTVSPropertyOp9
 70
     1
102
RTVSPropertyOp10
 70
     1
102
RTVSPropertyOp11
 70
     1
102
RTVSPropertyOp12
 70
     1
102
RTVSPropertyOp13
 70
     1
102
RTVSPropertyOp14
 70
     1
102
RTVSPropertyOp15
 70
     1
102
RTVSPropertyOp16
 70
     1
102
RTVSPropertyOp17
 70
     1
102
RTVSPropertyOp18
 70
     1
102
RTVSPropertyOp19
 70
     1
102
RTVSPropertyOp20
 70
     1
102
RTVSPropertyOp21
 70
     1
102
RTVSPropertyOp22
 70
     1
102
RTVSPropertyOp23
 70
     1
102
RTVSPropertyOp24
 70
     1
102
RTVSPropertyOp25
 70
     1
102
RTVSPropertyOp26
 70
     1
102
RTVSPropertyOp27
 70
     1
102
RTVSPropertyOp28
 70
     1
102
RTVSPropertyOp29
 70
     1
102
RTVSPropertyOp30
 70
     1
102
RTVSPropertyOp31
 70
     1
102
RTVSPropertyOp32
 70
     1
102
RTVSPropertyOp33
 70
     1
102
RTVSPropertyOp34
 70
     1
102
RTVSPropertyOp35
 70
     1
102
RTVSPropertyOp36
 70
     1
102
RTVSPropertyOp37
 70
     1
102
RTVSPropertyOp38
 70
     1
102
RTVSPropertyOp39
 70
     1
102
RTVSPropertyOp40
 70
     1
102
RTVSPropertyOp41
 70
     1
102
RTVSPropertyOp42
 70
     1
102
RTVSPropertyOp43
 70
     1
102
RTVSPropertyOp44
 70
     1
102
RTVSPropertyOp45
 70
     1
102
RTVSPropertyOp46
 70
     1
102
RTVSPropertyOp47
 70
     1
102
RTVSPropertyOp48
 70
     1
102
RTVSPropertyOp49
 70
     1
102
RTVSPropertyOp50
 70
     1
102
RTVSPropertyOp51
 70
     0
102
RTVSPropertyOp52
 70
     0
102
RTVSPropertyOp53
 70
     1
102
RTVSPropertyOp54
 70
     1
102
RTVSPropertyOp55
 70
     1
102
RTVSPropertyOp56
 70
     1
102
RTVSPropertyOp57
 70
     1
102
RTVSPost2010Prop28
280
     0
102
RTVSPost2010PropOp28
 70
     1
102
RTVSPost2010Prop29
280
     1
102
RTVSPost2010PropOp29
 70
     1
102
RTVSPost2010Prop30
280
     1
102
RTVSPost2010PropOp30
 70
     1
102
RTVSPost2010Prop31
280
     0
102
RTVSPost2010PropOp31
 70
     1
102
RTVSPost2010Prop32
280
     0
102
RTVSPost2010PropOp32
 70
     1
102
RTVSPost2010Prop33
280
     0
102
RTVSPost2010PropOp33
 70
     1
102
RTVSPost2010Prop34
280
     0
102
RTVSPost2010PropOp34
 70
     1
102
RTVSPost2010Prop35
280
     0
102
RTVSPost2010PropOp35
 70
     1
102
RTVSPost2010Prop36
280
     0
102
RTVSPost2010PropOp36
 70
     1
102
RTVSPost2010Prop37
 90
       50
102
RTVSPost2010PropOp37
 70
     1
102
RTVSPost2010Prop38
140
0.0
102
RTVSPost2010PropOp38
 70
     1
102
RTVSPost2010Prop39
140
1.0
102
RTVSPost2010PropOp39
 70
     1
102
RTVSPost2010Prop40
 90
        0
102
RTVSPost2010PropOp40
 70
     1
102
RTVSPost2010Prop41ColorIndex
 90
       18
102
RTVSPost2010Prop41ColorRGB
 90
        0
102
RTVSPost2010PropOp41
 70
     1
102
RTVSPost2010Prop42
 90
       50
102
RTVSPost2010PropOp42
 70
     1
102
RTVSPost2010Prop43
 90
        3
102
RTVSPost2010PropOp43
 70
     1
102
RTVSPost2010Prop44ColorIndex
 90
        5
102
RTVSPost2010Prop44ColorRGB
 90
      255
102
RTVSPost2010PropOp44
 70
     1
102
RTVSPost2010Prop45
280
     0
102
RTVSPost2010PropOp45
 70
     1
102
RTVSPost2010Prop46
 90
       50
102
RTVSPost2010PropOp46
 70
     1
102
RTVSPost2010Prop47
 90
       50
102
RTVSPost2010PropOp47
 70
     1
102
RTVSPost2010Prop48
 90
       50
102
RTVSPost2010PropOp48
 70
     1
102
RTVSPost2010Prop49
280
     0
102
RTVSPost2010PropOp49
 70
     1
102
RTVSPost2010Prop50
 90
       50
102
RTVSPost2010PropOp50
 70
     1
102
RTVSPost2010Prop51ColorIndex
 90
      256
102
RTVSPost2010Prop51ColorRGB
 90
-16777216
102
RTVSPost2010PropOp51
 70
     0
102
RTVSPost2010Prop52
140
1.0
102
RTVSPost2010PropOp52
 70
     0
102
RTVSPost2010Prop53
 90
        2
102
RTVSPost2010PropOp53
 70
     1
102
RTVSPost2010Prop54
  1
strokes_ogs.tif
102
RTVSPost2010PropOp54
 70
     1
102
RTVSPost2010Prop55
280
     0
102
RTVSPost2010PropOp55
 70
     1
102
RTVSPost2010Prop56
140
1.0
102
RTVSPost2010PropOp56
 70
     1
102
RTVSPost2010Prop57
140
1.0
102
RTVSPost2010PropOp57
 70
     1
  0
XRECORD
  5
2D6
102
{ACAD_REACTORS
330
2D5
102
}
330
2D5
100
AcDbXrecord
280
     1
102
RTVSPropertyOp0
 70
     1
102
RTVSPropertyOp1
 70
     1
102
RTVSPropertyOp2
 70
     1
102
RTVSPropertyOp3
 70
     1
102
RTVSPropertyOp4
 70
     1
102
RTVSPropertyOp5
 70
     1
102
RTVSPropertyOp6
 70
     1
102
RTVSPropertyOp7
 70
     1
102
RTVSPropertyOp8
 70
     1
102
RTVSPropertyOp9
 70
     1
102
RTVSPropertyOp10
 70
     1
102
RTVSPropertyOp11
 70
     1
102
RTVSPropertyOp12
 70
     1
102
RTVSPropertyOp13
 70
     1
102
RTVSPropertyOp14
 70
     1
102
RTVSPropertyOp15
 70
     1
102
RTVSPropertyOp16
 70
     1
102
RTVSPropertyOp17
 70
     1
102
RTVSPropertyOp18
 70
     1
102
RTVSPropertyOp19
 70
     1
102
RTVSPropertyOp20
 70
     1
102
RTVSPropertyOp21
 70
     1
102
RTVSPropertyOp22
 70
     1
102
RTVSPropertyOp23
 70
     1
102
RTVSPropertyOp24
 70
     1
102
RTVSPropertyOp25
 70
     1
102
RTVSPropertyOp26
 70
     1
102
RTVSPropertyOp27
 70
     1
102
RTVSPropertyOp28
 70
     1
102
RTVSPropertyOp29
 70
     1
102
RTVSPropertyOp30
 70
     1
102
RTVSPropertyOp31
 70
     1
102
RTVSPropertyOp32
 70
     1
102
RTVSPropertyOp33
 70
     1
102
RTVSPropertyOp34
 70
     1
102
RTVSPropertyOp35
 70
     1
102
RTVSPropertyOp36
 70
     1
102
RTVSPropertyOp37
 70
     1
102
RTVSPropertyOp38
 70
     1
102
RTVSPropertyOp39
 70
     1
102
RTVSPropertyOp40
 70
     1
102
RTVSPropertyOp41
 70
     1
102
RTVSPropertyOp42
 70
     1
102
RTVSPropertyOp43
 70
     1
102
RTVSPropertyOp44
 70
     1
102
RTVSPropertyOp45
 70
     1
102
RTVSPropertyOp46
 70
     1
102
RTVSPropertyOp47
 70
     1
102
RTVSPropertyOp48
 70
     1
102
RTVSPropertyOp49
 70
     1
102
RTVSPropertyOp50
 70
     1
102
RTVSPropertyOp51
 70
     0
102
RTVSPropertyOp52
 70
     0
102
RTVSPropertyOp53
 70
     1
102
RTVSPropertyOp54
 70
     1
102
RTVSPropertyOp55
 70
     1
102
RTVSPropertyOp56
 70
     1
102
RTVSPropertyOp57
 70
     1
102
RTVSPost2010Prop28
280
     0
102
RTVSPost2010PropOp28
 70
     1
102
RTVSPost2010Prop29
280
     1
102
RTVSPost2010PropOp29
 70
     1
102
RTVSPost2010Prop30
280
     1
102
RTVSPost2010PropOp30
 70
     1
102
RTVSPost2010Prop31
280
     0
102
RTVSPost2010PropOp31
 70
     1
102
RTVSPost2010Prop32
280
     0
102
RTVSPost2010PropOp32
 70
     1
102
RTVSPost2010Prop33
280
     0
102
RTVSPost2010PropOp33
 70
     1
102
RTVSPost2010Prop34
280
     0
102
RTVSPost2010PropOp34
 70
     1
102
RTVSPost2010Prop35
280
     0
102
RTVSPost2010PropOp35
 70
     1
102
RTVSPost2010Prop36
280
     0
102
RTVSPost2010PropOp36
 70
     1
102
RTVSPost2010Prop37
 90
       50
102
RTVSPost2010PropOp37
 70
     1
102
RTVSPost2010Prop38
140
0.0
102
RTVSPost2010PropOp38
 70
     1
102
RTVSPost2010Prop39
140
1.0
102
RTVSPost2010PropOp39
 70
     1
102
RTVSPost2010Prop40
 90
        0
102
RTVSPost2010PropOp40
 70
     1
102
RTVSPost2010Prop41ColorIndex
 90
       18
102
RTVSPost2010Prop41ColorRGB
 90
        0
102
RTVSPost2010PropOp41
 70
     1
102
RTVSPost2010Prop42
 90
       50
102
RTVSPost2010PropOp42
 70
     1
102
RTVSPost2010Prop43
 90
        3
102
RTVSPost2010PropOp43
 70
     1
102
RTVSPost2010Prop44ColorIndex
 90
        5
102
RTVSPost2010Prop44ColorRGB
 90
      255
102
RTVSPost2010PropOp44
 70
     1
102
RTVSPost2010Prop45
280
     0
102
RTVSPost2010PropOp45
 70
     1
102
RTVSPost2010Prop46
 90
       50
102
RTVSPost2010PropOp46
 70
     1
102
RTVSPost2010Prop47
 90
       50
102
RTVSPost2010PropOp47
 70
     1
102
RTVSPost2010Prop48
 90
       50
102
RTVSPost2010PropOp48
 70
     1
102
RTVSPost2010Prop49
280
     0
102
RTVSPost2010PropOp49
 70
     1
102
RTVSPost2010Prop50
 90
       50
102
RTVSPost2010PropOp50
 70
     1
102
RTVSPost2010Prop51ColorIndex
 90
      256
102
RTVSPost2010Prop51ColorRGB
 90
-16777216
102
RTVSPost2010PropOp51
 70
     0
102
RTVSPost2010Prop52
140
1.0
102
RTVSPost2010PropOp52
 70
     0
102
RTVSPost2010Prop53
 90
        2
102
RTVSPost2010PropOp53
 70
     1
102
RTVSPost2010Prop54
  1
strokes_ogs.tif
102
RTVSPost2010PropOp54
 70
     1
102
RTVSPost2010Prop55
280
     0
102
RTVSPost2010PropOp55
 70
     1
102
RTVSPost2010Prop56
140
1.0
102
RTVSPost2010PropOp56
 70
     1
102
RTVSPost2010Prop57
140
1.0
102
RTVSPost2010PropOp57
 70
     1
  0
XRECORD
  5
2D8
102
{ACAD_REACTORS
330
2D7
102
}
330
2D7
100
AcDbXrecord
280
     1
102
RTVSPropertyOp0
 70
     1
102
RTVSPropertyOp1
 70
     1
102
RTVSPropertyOp2
 70
     1
102
RTVSPropertyOp3
 70
     1
102
RTVSPropertyOp4
 70
     1
102
RTVSPropertyOp5
 70
     1
102
RTVSPropertyOp6
 70
     1
102
RTVSPropertyOp7
 70
     1
102
RTVSPropertyOp8
 70
     1
102
RTVSPropertyOp9
 70
     1
102
RTVSPropertyOp10
 70
     1
102
RTVSPropertyOp11
 70
     1
102
RTVSPropertyOp12
 70
     1
102
RTVSPropertyOp13
 70
     1
102
RTVSPropertyOp14
 70
     1
102
RTVSPropertyOp15
 70
     1
102
RTVSPropertyOp16
 70
     1
102
RTVSPropertyOp17
 70
     1
102
RTVSPropertyOp18
 70
     1
102
RTVSPropertyOp19
 70
     1
102
RTVSPropertyOp20
 70
     1
102
RTVSPropertyOp21
 70
     1
102
RTVSPropertyOp22
 70
     1
102
RTVSPropertyOp23
 70
     1
102
RTVSPropertyOp24
 70
     1
102
RTVSPropertyOp25
 70
     1
102
RTVSPropertyOp26
 70
     1
102
RTVSPropertyOp27
 70
     1
102
RTVSPropertyOp28
 70
     1
102
RTVSPropertyOp29
 70
     1
102
RTVSPropertyOp30
 70
     1
102
RTVSPropertyOp31
 70
     1
102
RTVSPropertyOp32
 70
     1
102
RTVSPropertyOp33
 70
     1
102
RTVSPropertyOp34
 70
     1
102
RTVSPropertyOp35
 70
     1
102
RTVSPropertyOp36
 70
     1
102
RTVSPropertyOp37
 70
     1
102
RTVSPropertyOp38
 70
     1
102
RTVSPropertyOp39
 70
     1
102
RTVSPropertyOp40
 70
     1
102
RTVSPropertyOp41
 70
     1
102
RTVSPropertyOp42
 70
     1
102
RTVSPropertyOp43
 70
     1
102
RTVSPropertyOp44
 70
     1
102
RTVSPropertyOp45
 70
     1
102
RTVSPropertyOp46
 70
     1
102
RTVSPropertyOp47
 70
     1
102
RTVSPropertyOp48
 70
     1
102
RTVSPropertyOp49
 70
     1
102
RTVSPropertyOp50
 70
     1
102
RTVSPropertyOp51
 70
     0
102
RTVSPropertyOp52
 70
     0
102
RTVSPropertyOp53
 70
     1
102
RTVSPropertyOp54
 70
     1
102
RTVSPropertyOp55
 70
     1
102
RTVSPropertyOp56
 70
     1
102
RTVSPropertyOp57
 70
     1
102
RTVSPost2010Prop28
280
     0
102
RTVSPost2010PropOp28
 70
     1
102
RTVSPost2010Prop29
280
     1
102
RTVSPost2010PropOp29
 70
     1
102
RTVSPost2010Prop30
280
     1
102
RTVSPost2010PropOp30
 70
     1
102
RTVSPost2010Prop31
280
     0
102
RTVSPost2010PropOp31
 70
     1
102
RTVSPost2010Prop32
280
     0
102
RTVSPost2010PropOp32
 70
     1
102
RTVSPost2010Prop33
280
     0
102
RTVSPost2010PropOp33
 70
     1
102
RTVSPost2010Prop34
280
     0
102
RTVSPost2010PropOp34
 70
     1
102
RTVSPost2010Prop35
280
     0
102
RTVSPost2010PropOp35
 70
     1
102
RTVSPost2010Prop36
280
     0
102
RTVSPost2010PropOp36
 70
     1
102
RTVSPost2010Prop37
 90
       50
102
RTVSPost2010PropOp37
 70
     1
102
RTVSPost2010Prop38
140
0.0
102
RTVSPost2010PropOp38
 70
     1
102
RTVSPost2010Prop39
140
1.0
102
RTVSPost2010PropOp39
 70
     1
102
RTVSPost2010Prop40
 90
        0
102
RTVSPost2010PropOp40
 70
     1
102
RTVSPost2010Prop41ColorIndex
 90
       18
102
RTVSPost2010Prop41ColorRGB
 90
        0
102
RTVSPost2010PropOp41
 70
     1
102
RTVSPost2010Prop42
 90
       50
102
RTVSPost2010PropOp42
 70
     1
102
RTVSPost2010Prop43
 90
        3
102
RTVSPost2010PropOp43
 70
     1
102
RTVSPost2010Prop44ColorIndex
 90
        5
102
RTVSPost2010Prop44ColorRGB
 90
      255
102
RTVSPost2010PropOp44
 70
     1
102
RTVSPost2010Prop45
280
     0
102
RTVSPost2010PropOp45
 70
     1
102
RTVSPost2010Prop46
 90
       50
102
RTVSPost2010PropOp46
 70
     1
102
RTVSPost2010Prop47
 90
       50
102
RTVSPost2010PropOp47
 70
     1
102
RTVSPost2010Prop48
 90
       50
102
RTVSPost2010PropOp48
 70
     1
102
RTVSPost2010Prop49
280
     0
102
RTVSPost2010PropOp49
 70
     1
102
RTVSPost2010Prop50
 90
       50
102
RTVSPost2010PropOp50
 70
     1
102
RTVSPost2010Prop51ColorIndex
 90
      256
102
RTVSPost2010Prop51ColorRGB
 90
-16777216
102
RTVSPost2010PropOp51
 70
     0
102
RTVSPost2010Prop52
140
1.0
102
RTVSPost2010PropOp52
 70
     0
102
RTVSPost2010Prop53
 90
        2
102
RTVSPost2010PropOp53
 70
     1
102
RTVSPost2010Prop54
  1
strokes_ogs.tif
102
RTVSPost2010PropOp54
 70
     1
102
RTVSPost2010Prop55
280
     0
102
RTVSPost2010PropOp55
 70
     1
102
RTVSPost2010Prop56
140
1.0
102
RTVSPost2010PropOp56
 70
     1
102
RTVSPost2010Prop57
140
1.0
102
RTVSPost2010PropOp57
 70
     1
  0
XRECORD
  5
2DA
102
{ACAD_REACTORS
330
2D9
102
}
330
2D9
100
AcDbXrecord
280
     1
102
RTVSPropertyOp0
 70
     1
102
RTVSPropertyOp1
 70
     1
102
RTVSPropertyOp2
 70
     1
102
RTVSPropertyOp3
 70
     1
102
RTVSPropertyOp4
 70
     1
102
RTVSPropertyOp5
 70
     1
102
RTVSPropertyOp6
 70
     1
102
RTVSPropertyOp7
 70
     1
102
RTVSPropertyOp8
 70
     1
102
RTVSPropertyOp9
 70
     1
102
RTVSPropertyOp10
 70
     1
102
RTVSPropertyOp11
 70
     1
102
RTVSPropertyOp12
 70
     1
102
RTVSPropertyOp13
 70
     1
102
RTVSPropertyOp14
 70
     1
102
RTVSPropertyOp15
 70
     1
102
RTVSPropertyOp16
 70
     1
102
RTVSPropertyOp17
 70
     1
102
RTVSPropertyOp18
 70
     1
102
RTVSPropertyOp19
 70
     1
102
RTVSPropertyOp20
 70
     1
102
RTVSPropertyOp21
 70
     1
102
RTVSPropertyOp22
 70
     1
102
RTVSPropertyOp23
 70
     1
102
RTVSPropertyOp24
 70
     1
102
RTVSPropertyOp25
 70
     1
102
RTVSPropertyOp26
 70
     1
102
RTVSPropertyOp27
 70
     1
102
RTVSPropertyOp28
 70
     1
102
RTVSPropertyOp29
 70
     1
102
RTVSPropertyOp30
 70
     1
102
RTVSPropertyOp31
 70
     1
102
RTVSPropertyOp32
 70
     1
102
RTVSPropertyOp33
 70
     1
102
RTVSPropertyOp34
 70
     1
102
RTVSPropertyOp35
 70
     1
102
RTVSPropertyOp36
 70
     1
102
RTVSPropertyOp37
 70
     1
102
RTVSPropertyOp38
 70
     1
102
RTVSPropertyOp39
 70
     1
102
RTVSPropertyOp40
 70
     1
102
RTVSPropertyOp41
 70
     1
102
RTVSPropertyOp42
 70
     1
102
RTVSPropertyOp43
 70
     1
102
RTVSPropertyOp44
 70
     1
102
RTVSPropertyOp45
 70
     1
102
RTVSPropertyOp46
 70
     1
102
RTVSPropertyOp47
 70
     1
102
RTVSPropertyOp48
 70
     1
102
RTVSPropertyOp49
 70
     1
102
RTVSPropertyOp50
 70
     1
102
RTVSPropertyOp51
 70
     0
102
RTVSPropertyOp52
 70
     0
102
RTVSPropertyOp53
 70
     1
102
RTVSPropertyOp54
 70
     1
102
RTVSPropertyOp55
 70
     1
102
RTVSPropertyOp56
 70
     1
102
RTVSPropertyOp57
 70
     1
102
RTVSPost2010Prop28
280
     0
102
RTVSPost2010PropOp28
 70
     1
102
RTVSPost2010Prop29
280
     1
102
RTVSPost2010PropOp29
 70
     1
102
RTVSPost2010Prop30
280
     1
102
RTVSPost2010PropOp30
 70
     1
102
RTVSPost2010Prop31
280
     0
102
RTVSPost2010PropOp31
 70
     1
102
RTVSPost2010Prop32
280
     0
102
RTVSPost2010PropOp32
 70
     1
102
RTVSPost2010Prop33
280
     0
102
RTVSPost2010PropOp33
 70
     1
102
RTVSPost2010Prop34
280
     0
102
RTVSPost2010PropOp34
 70
     1
102
RTVSPost2010Prop35
280
     0
102
RTVSPost2010PropOp35
 70
     1
102
RTVSPost2010Prop36
280
     0
102
RTVSPost2010PropOp36
 70
     1
102
RTVSPost2010Prop37
 90
       50
102
RTVSPost2010PropOp37
 70
     1
102
RTVSPost2010Prop38
140
0.0
102
RTVSPost2010PropOp38
 70
     1
102
RTVSPost2010Prop39
140
1.0
102
RTVSPost2010PropOp39
 70
     1
102
RTVSPost2010Prop40
 90
        0
102
RTVSPost2010PropOp40
 70
     1
102
RTVSPost2010Prop41ColorIndex
 90
       18
102
RTVSPost2010Prop41ColorRGB
 90
        0
102
RTVSPost2010PropOp41
 70
     1
102
RTVSPost2010Prop42
 90
       50
102
RTVSPost2010PropOp42
 70
     1
102
RTVSPost2010Prop43
 90
        3
102
RTVSPost2010PropOp43
 70
     1
102
RTVSPost2010Prop44ColorIndex
 90
        5
102
RTVSPost2010Prop44ColorRGB
 90
      255
102
RTVSPost2010PropOp44
 70
     1
102
RTVSPost2010Prop45
280
     0
102
RTVSPost2010PropOp45
 70
     1
102
RTVSPost2010Prop46
 90
       50
102
RTVSPost2010PropOp46
 70
     1
102
RTVSPost2010Prop47
 90
       50
102
RTVSPost2010PropOp47
 70
     1
102
RTVSPost2010Prop48
 90
       50
102
RTVSPost2010PropOp48
 70
     1
102
RTVSPost2010Prop49
280
     0
102
RTVSPost2010PropOp49
 70
     1
102
RTVSPost2010Prop50
 90
       50
102
RTVSPost2010PropOp50
 70
     1
102
RTVSPost2010Prop51ColorIndex
 90
      256
102
RTVSPost2010Prop51ColorRGB
 90
-16777216
102
RTVSPost2010PropOp51
 70
     0
102
RTVSPost2010Prop52
140
1.0
102
RTVSPost2010PropOp52
 70
     0
102
RTVSPost2010Prop53
 90
        2
102
RTVSPost2010PropOp53
 70
     1
102
RTVSPost2010Prop54
  1
strokes_ogs.tif
102
RTVSPost2010PropOp54
 70
     1
102
RTVSPost2010Prop55
280
     0
102
RTVSPost2010PropOp55
 70
     1
102
RTVSPost2010Prop56
140
1.0
102
RTVSPost2010PropOp56
 70
     1
102
RTVSPost2010Prop57
140
1.0
102
RTVSPost2010PropOp57
 70
     1
  0
XRECORD
  5
2E0
102
{ACAD_REACTORS
330
2DF
102
}
330
2DF
100
AcDbXrecord
280
     1
102
RTVSPropertyOp0
 70
     1
102
RTVSPropertyOp1
 70
     1
102
RTVSPropertyOp2
 70
     1
102
RTVSPropertyOp3
 70
     1
102
RTVSPropertyOp4
 70
     1
102
RTVSPropertyOp5
 70
     1
102
RTVSPropertyOp6
 70
     1
102
RTVSPropertyOp7
 70
     1
102
RTVSPropertyOp8
 70
     1
102
RTVSPropertyOp9
 70
     1
102
RTVSPropertyOp10
 70
     1
102
RTVSPropertyOp11
 70
     1
102
RTVSPropertyOp12
 70
     1
102
RTVSPropertyOp13
 70
     1
102
RTVSPropertyOp14
 70
     1
102
RTVSPropertyOp15
 70
     1
102
RTVSPropertyOp16
 70
     1
102
RTVSPropertyOp17
 70
     1
102
RTVSPropertyOp18
 70
     1
102
RTVSPropertyOp19
 70
     1
102
RTVSPropertyOp20
 70
     1
102
RTVSPropertyOp21
 70
     1
102
RTVSPropertyOp22
 70
     1
102
RTVSPropertyOp23
 70
     1
102
RTVSPropertyOp24
 70
     1
102
RTVSPropertyOp25
 70
     1
102
RTVSPropertyOp26
 70
     1
102
RTVSPropertyOp27
 70
     1
102
RTVSPropertyOp28
 70
     1
102
RTVSPropertyOp29
 70
     1
102
RTVSPropertyOp30
 70
     1
102
RTVSPropertyOp31
 70
     1
102
RTVSPropertyOp32
 70
     1
102
RTVSPropertyOp33
 70
     1
102
RTVSPropertyOp34
 70
     1
102
RTVSPropertyOp35
 70
     1
102
RTVSPropertyOp36
 70
     1
102
RTVSPropertyOp37
 70
     1
102
RTVSPropertyOp38
 70
     1
102
RTVSPropertyOp39
 70
     1
102
RTVSPropertyOp40
 70
     1
102
RTVSPropertyOp41
 70
     1
102
RTVSPropertyOp42
 70
     1
102
RTVSPropertyOp43
 70
     1
102
RTVSPropertyOp44
 70
     1
102
RTVSPropertyOp45
 70
     1
102
RTVSPropertyOp46
 70
     1
102
RTVSPropertyOp47
 70
     1
102
RTVSPropertyOp48
 70
     1
102
RTVSPropertyOp49
 70
     1
102
RTVSPropertyOp50
 70
     1
102
RTVSPropertyOp51
 70
     0
102
RTVSPropertyOp52
 70
     0
102
RTVSPropertyOp53
 70
     1
102
RTVSPropertyOp54
 70
     1
102
RTVSPropertyOp55
 70
     1
102
RTVSPropertyOp56
 70
     1
102
RTVSPropertyOp57
 70
     1
102
RTVSPost2010Prop28
280
     0
102
RTVSPost2010PropOp28
 70
     1
102
RTVSPost2010Prop29
280
     1
102
RTVSPost2010PropOp29
 70
     1
102
RTVSPost2010Prop30
280
     1
102
RTVSPost2010PropOp30
 70
     1
102
RTVSPost2010Prop31
280
     0
102
RTVSPost2010PropOp31
 70
     1
102
RTVSPost2010Prop32
280
     0
102
RTVSPost2010PropOp32
 70
     1
102
RTVSPost2010Prop33
280
     0
102
RTVSPost2010PropOp33
 70
     1
102
RTVSPost2010Prop34
280
     0
102
RTVSPost2010PropOp34
 70
     1
102
RTVSPost2010Prop35
280
     0
102
RTVSPost2010PropOp35
 70
     1
102
RTVSPost2010Prop36
280
     0
102
RTVSPost2010PropOp36
 70
     1
102
RTVSPost2010Prop37
 90
       50
102
RTVSPost2010PropOp37
 70
     1
102
RTVSPost2010Prop38
140
0.0
102
RTVSPost2010PropOp38
 70
     1
102
RTVSPost2010Prop39
140
1.0
102
RTVSPost2010PropOp39
 70
     1
102
RTVSPost2010Prop40
 90
        0
102
RTVSPost2010PropOp40
 70
     1
102
RTVSPost2010Prop41ColorIndex
 90
       18
102
RTVSPost2010Prop41ColorRGB
 90
        0
102
RTVSPost2010PropOp41
 70
     1
102
RTVSPost2010Prop42
 90
       50
102
RTVSPost2010PropOp42
 70
     1
102
RTVSPost2010Prop43
 90
        3
102
RTVSPost2010PropOp43
 70
     1
102
RTVSPost2010Prop44ColorIndex
 90
        5
102
RTVSPost2010Prop44ColorRGB
 90
      255
102
RTVSPost2010PropOp44
 70
     1
102
RTVSPost2010Prop45
280
     0
102
RTVSPost2010PropOp45
 70
     1
102
RTVSPost2010Prop46
 90
       50
102
RTVSPost2010PropOp46
 70
     1
102
RTVSPost2010Prop47
 90
       50
102
RTVSPost2010PropOp47
 70
     1
102
RTVSPost2010Prop48
 90
       50
102
RTVSPost2010PropOp48
 70
     1
102
RTVSPost2010Prop49
280
     0
102
RTVSPost2010PropOp49
 70
     1
102
RTVSPost2010Prop50
 90
       50
102
RTVSPost2010PropOp50
 70
     1
102
RTVSPost2010Prop51ColorIndex
 90
      256
102
RTVSPost2010Prop51ColorRGB
 90
-16777216
102
RTVSPost2010PropOp51
 70
     0
102
RTVSPost2010Prop52
140
1.0
102
RTVSPost2010PropOp52
 70
     0
102
RTVSPost2010Prop53
 90
        2
102
RTVSPost2010PropOp53
 70
     1
102
RTVSPost2010Prop54
  1
strokes_ogs.tif
102
RTVSPost2010PropOp54
 70
     1
102
RTVSPost2010Prop55
280
     0
102
RTVSPost2010PropOp55
 70
     1
102
RTVSPost2010Prop56
140
1.0
102
RTVSPost2010PropOp56
 70
     1
102
RTVSPost2010Prop57
140
1.0
102
RTVSPost2010PropOp57
 70
     1
  0
XRECORD
  5
2F4
102
{ACAD_REACTORS
330
2F3
102
}
330
2F3
100
AcDbXrecord
280
     1
102
RTVSPropertyOp0
 70
     0
102
RTVSPropertyOp1
 70
     0
102
RTVSPropertyOp2
 70
     0
102
RTVSPropertyOp3
 70
     0
102
RTVSPropertyOp4
 70
     0
102
RTVSPropertyOp5
 70
     0
102
RTVSPropertyOp6
 70
     0
102
RTVSPropertyOp7
 70
     0
102
RTVSPropertyOp8
 70
     0
102
RTVSPropertyOp9
 70
     0
102
RTVSPropertyOp10
 70
     0
102
RTVSPropertyOp11
 70
     0
102
RTVSPropertyOp12
 70
     0
102
RTVSPropertyOp13
 70
     0
102
RTVSPropertyOp14
 70
     2
102
RTVSPropertyOp15
 70
     0
102
RTVSPropertyOp16
 70
     0
102
RTVSPropertyOp17
 70
     0
102
RTVSPropertyOp18
 70
     0
102
RTVSPropertyOp19
 70
     0
102
RTVSPropertyOp20
 70
     0
102
RTVSPropertyOp21
 70
     0
102
RTVSPropertyOp22
 70
     0
102
RTVSPropertyOp23
 70
     0
102
RTVSPropertyOp24
 70
     0
102
RTVSPropertyOp25
 70
     0
102
RTVSPropertyOp26
 70
     0
102
RTVSPropertyOp27
 70
     0
102
RTVSPropertyOp28
 70
     0
102
RTVSPropertyOp29
 70
     0
102
RTVSPropertyOp30
 70
     0
102
RTVSPropertyOp31
 70
     0
102
RTVSPropertyOp32
 70
     0
102
RTVSPropertyOp33
 70
     0
102
RTVSPropertyOp34
 70
     0
102
RTVSPropertyOp35
 70
     0
102
RTVSPropertyOp36
 70
     0
102
RTVSPropertyOp37
 70
     0
102
RTVSPropertyOp38
 70
     0
102
RTVSPropertyOp39
 70
     0
102
RTVSPropertyOp40
 70
     0
102
RTVSPropertyOp41
 70
     0
102
RTVSPropertyOp42
 70
     0
102
RTVSPropertyOp43
 70
     0
102
RTVSPropertyOp44
 70
     0
102
RTVSPropertyOp45
 70
     0
102
RTVSPropertyOp46
 70
     0
102
RTVSPropertyOp47
 70
     0
102
RTVSPropertyOp48
 70
     0
102
RTVSPropertyOp49
 70
     0
102
RTVSPropertyOp50
 70
     0
102
RTVSPropertyOp51
 70
     0
102
RTVSPropertyOp52
 70
     0
102
RTVSPropertyOp53
 70
     0
102
RTVSPropertyOp54
 70
     0
102
RTVSPropertyOp55
 70
     0
102
RTVSPropertyOp56
 70
     0
102
RTVSPropertyOp57
 70
     0
102
RTVSPost2010Prop28
280
     0
102
RTVSPost2010PropOp28
 70
     0
102
RTVSPost2010Prop29
280
     1
102
RTVSPost2010PropOp29
 70
     0
102
RTVSPost2010Prop30
280
     1
102
RTVSPost2010PropOp30
 70
     0
102
RTVSPost2010Prop31
280
     0
102
RTVSPost2010PropOp31
 70
     0
102
RTVSPost2010Prop32
280
     0
102
RTVSPost2010PropOp32
 70
     0
102
RTVSPost2010Prop33
280
     0
102
RTVSPost2010PropOp33
 70
     0
102
RTVSPost2010Prop34
280
     0
102
RTVSPost2010PropOp34
 70
     0
102
RTVSPost2010Prop35
280
     0
102
RTVSPost2010PropOp35
 70
     0
102
RTVSPost2010Prop36
280
     0
102
RTVSPost2010PropOp36
 70
     0
102
RTVSPost2010Prop37
 90
       50
102
RTVSPost2010PropOp37
 70
     0
102
RTVSPost2010Prop38
140
0.0
102
RTVSPost2010PropOp38
 70
     0
102
RTVSPost2010Prop39
140
1.0
102
RTVSPost2010PropOp39
 70
     0
102
RTVSPost2010Prop40
 90
        0
102
RTVSPost2010PropOp40
 70
     0
102
RTVSPost2010Prop41ColorIndex
 90
       18
102
RTVSPost2010Prop41ColorRGB
 90
        0
102
RTVSPost2010PropOp41
 70
     0
102
RTVSPost2010Prop42
 90
       50
102
RTVSPost2010PropOp42
 70
     0
102
RTVSPost2010Prop43
 90
        3
102
RTVSPost2010PropOp43
 70
     0
102
RTVSPost2010Prop44ColorIndex
 90
        5
102
RTVSPost2010Prop44ColorRGB
 90
      255
102
RTVSPost2010PropOp44
 70
     0
102
RTVSPost2010Prop45
280
     0
102
RTVSPost2010PropOp45
 70
     0
102
RTVSPost2010Prop46
 90
       50
102
RTVSPost2010PropOp46
 70
     0
102
RTVSPost2010Prop47
 90
       50
102
RTVSPost2010PropOp47
 70
     0
102
RTVSPost2010Prop48
 90
       50
102
RTVSPost2010PropOp48
 70
     0
102
RTVSPost2010Prop49
280
     0
102
RTVSPost2010PropOp49
 70
     0
102
RTVSPost2010Prop50
 90
       50
102
RTVSPost2010PropOp50
 70
     0
102
RTVSPost2010Prop51ColorIndex
 90
      256
102
RTVSPost2010Prop51ColorRGB
 90
-16777216
102
RTVSPost2010PropOp51
 70
     0
102
RTVSPost2010Prop52
140
1.0
102
RTVSPost2010PropOp52
 70
     0
102
RTVSPost2010Prop53
 90
        2
102
RTVSPost2010PropOp53
 70
     0
102
RTVSPost2010Prop54
  1
strokes_ogs.tif
102
RTVSPost2010PropOp54
 70
     0
102
RTVSPost2010Prop55
280
     0
102
RTVSPost2010PropOp55
 70
     0
102
RTVSPost2010Prop56
140
1.0
102
RTVSPost2010PropOp56
 70
     0
102
RTVSPost2010Prop57
140
1.0
102
RTVSPost2010PropOp57
 70
     0
  0
XRECORD
  5
2EE
102
{ACAD_REACTORS
330
2ED
102
}
330
2ED
100
AcDbXrecord
280
     1
102
RTVSPropertyOp0
 70
     1
102
RTVSPropertyOp1
 70
     1
102
RTVSPropertyOp2
 70
     1
102
RTVSPropertyOp3
 70
     1
102
RTVSPropertyOp4
 70
     1
102
RTVSPropertyOp5
 70
     1
102
RTVSPropertyOp6
 70
     1
102
RTVSPropertyOp7
 70
     1
102
RTVSPropertyOp8
 70
     1
102
RTVSPropertyOp9
 70
     1
102
RTVSPropertyOp10
 70
     1
102
RTVSPropertyOp11
 70
     1
102
RTVSPropertyOp12
 70
     1
102
RTVSPropertyOp13
 70
     1
102
RTVSPropertyOp14
 70
     1
102
RTVSPropertyOp15
 70
     1
102
RTVSPropertyOp16
 70
     1
102
RTVSPropertyOp17
 70
     1
102
RTVSPropertyOp18
 70
     1
102
RTVSPropertyOp19
 70
     1
102
RTVSPropertyOp20
 70
     1
102
RTVSPropertyOp21
 70
     1
102
RTVSPropertyOp22
 70
     1
102
RTVSPropertyOp23
 70
     1
102
RTVSPropertyOp24
 70
     1
102
RTVSPropertyOp25
 70
     1
102
RTVSPropertyOp26
 70
     1
102
RTVSPropertyOp27
 70
     1
102
RTVSPropertyOp28
 70
     1
102
RTVSPropertyOp29
 70
     1
102
RTVSPropertyOp30
 70
     1
102
RTVSPropertyOp31
 70
     1
102
RTVSPropertyOp32
 70
     1
102
RTVSPropertyOp33
 70
     1
102
RTVSPropertyOp34
 70
     1
102
RTVSPropertyOp35
 70
     1
102
RTVSPropertyOp36
 70
     1
102
RTVSPropertyOp37
 70
     1
102
RTVSPropertyOp38
 70
     1
102
RTVSPropertyOp39
 70
     1
102
RTVSPropertyOp40
 70
     1
102
RTVSPropertyOp41
 70
     1
102
RTVSPropertyOp42
 70
     1
102
RTVSPropertyOp43
 70
     1
102
RTVSPropertyOp44
 70
     1
102
RTVSPropertyOp45
 70
     1
102
RTVSPropertyOp46
 70
     1
102
RTVSPropertyOp47
 70
     1
102
RTVSPropertyOp48
 70
     1
102
RTVSPropertyOp49
 70
     1
102
RTVSPropertyOp50
 70
     1
102
RTVSPropertyOp51
 70
     0
102
RTVSPropertyOp52
 70
     0
102
RTVSPropertyOp53
 70
     1
102
RTVSPropertyOp54
 70
     1
102
RTVSPropertyOp55
 70
     1
102
RTVSPropertyOp56
 70
     1
102
RTVSPropertyOp57
 70
     1
102
RTVSPost2010Prop28
280
     0
102
RTVSPost2010PropOp28
 70
     1
102
RTVSPost2010Prop29
280
     1
102
RTVSPost2010PropOp29
 70
     1
102
RTVSPost2010Prop30
280
     1
102
RTVSPost2010PropOp30
 70
     1
102
RTVSPost2010Prop31
280
     0
102
RTVSPost2010PropOp31
 70
     1
102
RTVSPost2010Prop32
280
     0
102
RTVSPost2010PropOp32
 70
     1
102
RTVSPost2010Prop33
280
     0
102
RTVSPost2010PropOp33
 70
     1
102
RTVSPost2010Prop34
280
     0
102
RTVSPost2010PropOp34
 70
     1
102
RTVSPost2010Prop35
280
     0
102
RTVSPost2010PropOp35
 70
     1
102
RTVSPost2010Prop36
280
     0
102
RTVSPost2010PropOp36
 70
     1
102
RTVSPost2010Prop37
 90
       50
102
RTVSPost2010PropOp37
 70
     1
102
RTVSPost2010Prop38
140
0.0
102
RTVSPost2010PropOp38
 70
     1
102
RTVSPost2010Prop39
140
1.0
102
RTVSPost2010PropOp39
 70
     1
102
RTVSPost2010Prop40
 90
        0
102
RTVSPost2010PropOp40
 70
     1
102
RTVSPost2010Prop41ColorIndex
 90
       18
102
RTVSPost2010Prop41ColorRGB
 90
        0
102
RTVSPost2010PropOp41
 70
     1
102
RTVSPost2010Prop42
 90
       50
102
RTVSPost2010PropOp42
 70
     1
102
RTVSPost2010Prop43
 90
        3
102
RTVSPost2010PropOp43
 70
     1
102
RTVSPost2010Prop44ColorIndex
 90
        5
102
RTVSPost2010Prop44ColorRGB
 90
      255
102
RTVSPost2010PropOp44
 70
     1
102
RTVSPost2010Prop45
280
     0
102
RTVSPost2010PropOp45
 70
     1
102
RTVSPost2010Prop46
 90
       50
102
RTVSPost2010PropOp46
 70
     1
102
RTVSPost2010Prop47
 90
       50
102
RTVSPost2010PropOp47
 70
     1
102
RTVSPost2010Prop48
 90
       50
102
RTVSPost2010PropOp48
 70
     1
102
RTVSPost2010Prop49
280
     0
102
RTVSPost2010PropOp49
 70
     1
102
RTVSPost2010Prop50
 90
       50
102
RTVSPost2010PropOp50
 70
     1
102
RTVSPost2010Prop51ColorIndex
 90
      256
102
RTVSPost2010Prop51ColorRGB
 90
-16777216
102
RTVSPost2010PropOp51
 70
     0
102
RTVSPost2010Prop52
140
1.0
102
RTVSPost2010PropOp52
 70
     0
102
RTVSPost2010Prop53
 90
        2
102
RTVSPost2010PropOp53
 70
     1
102
RTVSPost2010Prop54
  1
strokes_ogs.tif
102
RTVSPost2010PropOp54
 70
     1
102
RTVSPost2010Prop55
280
     0
102
RTVSPost2010PropOp55
 70
     1
102
RTVSPost2010Prop56
140
1.0
102
RTVSPost2010PropOp56
 70
     1
102
RTVSPost2010Prop57
140
1.0
102
RTVSPost2010PropOp57
 70
     1
  0
XRECORD
  5
2F6
102
{ACAD_REACTORS
330
2F5
102
}
330
2F5
100
AcDbXrecord
280
     1
102
RTVSPropertyOp0
 70
     0
102
RTVSPropertyOp1
 70
     0
102
RTVSPropertyOp2
 70
     0
102
RTVSPropertyOp3
 70
     0
102
RTVSPropertyOp4
 70
     0
102
RTVSPropertyOp5
 70
     0
102
RTVSPropertyOp6
 70
     0
102
RTVSPropertyOp7
 70
     0
102
RTVSPropertyOp8
 70
     0
102
RTVSPropertyOp9
 70
     0
102
RTVSPropertyOp10
 70
     0
102
RTVSPropertyOp11
 70
     0
102
RTVSPropertyOp12
 70
     0
102
RTVSPropertyOp13
 70
     0
102
RTVSPropertyOp14
 70
     2
102
RTVSPropertyOp15
 70
     0
102
RTVSPropertyOp16
 70
     0
102
RTVSPropertyOp17
 70
     0
102
RTVSPropertyOp18
 70
     0
102
RTVSPropertyOp19
 70
     0
102
RTVSPropertyOp20
 70
     0
102
RTVSPropertyOp21
 70
     0
102
RTVSPropertyOp22
 70
     0
102
RTVSPropertyOp23
 70
     0
102
RTVSPropertyOp24
 70
     0
102
RTVSPropertyOp25
 70
     0
102
RTVSPropertyOp26
 70
     0
102
RTVSPropertyOp27
 70
     0
102
RTVSPropertyOp28
 70
     0
102
RTVSPropertyOp29
 70
     0
102
RTVSPropertyOp30
 70
     0
102
RTVSPropertyOp31
 70
     0
102
RTVSPropertyOp32
 70
     0
102
RTVSPropertyOp33
 70
     0
102
RTVSPropertyOp34
 70
     0
102
RTVSPropertyOp35
 70
     0
102
RTVSPropertyOp36
 70
     0
102
RTVSPropertyOp37
 70
     0
102
RTVSPropertyOp38
 70
     0
102
RTVSPropertyOp39
 70
     0
102
RTVSPropertyOp40
 70
     0
102
RTVSPropertyOp41
 70
     0
102
RTVSPropertyOp42
 70
     0
102
RTVSPropertyOp43
 70
     0
102
RTVSPropertyOp44
 70
     0
102
RTVSPropertyOp45
 70
     0
102
RTVSPropertyOp46
 70
     0
102
RTVSPropertyOp47
 70
     0
102
RTVSPropertyOp48
 70
     0
102
RTVSPropertyOp49
 70
     0
102
RTVSPropertyOp50
 70
     0
102
RTVSPropertyOp51
 70
     0
102
RTVSPropertyOp52
 70
     0
102
RTVSPropertyOp53
 70
     0
102
RTVSPropertyOp54
 70
     0
102
RTVSPropertyOp55
 70
     0
102
RTVSPropertyOp56
 70
     0
102
RTVSPropertyOp57
 70
     0
102
RTVSPost2010Prop28
280
     0
102
RTVSPost2010PropOp28
 70
     0
102
RTVSPost2010Prop29
280
     1
102
RTVSPost2010PropOp29
 70
     0
102
RTVSPost2010Prop30
280
     1
102
RTVSPost2010PropOp30
 70
     0
102
RTVSPost2010Prop31
280
     0
102
RTVSPost2010PropOp31
 70
     0
102
RTVSPost2010Prop32
280
     0
102
RTVSPost2010PropOp32
 70
     0
102
RTVSPost2010Prop33
280
     0
102
RTVSPost2010PropOp33
 70
     0
102
RTVSPost2010Prop34
280
     0
102
RTVSPost2010PropOp34
 70
     0
102
RTVSPost2010Prop35
280
     0
102
RTVSPost2010PropOp35
 70
     0
102
RTVSPost2010Prop36
280
     0
102
RTVSPost2010PropOp36
 70
     0
102
RTVSPost2010Prop37
 90
       50
102
RTVSPost2010PropOp37
 70
     0
102
RTVSPost2010Prop38
140
0.0
102
RTVSPost2010PropOp38
 70
     0
102
RTVSPost2010Prop39
140
1.0
102
RTVSPost2010PropOp39
 70
     0
102
RTVSPost2010Prop40
 90
        0
102
RTVSPost2010PropOp40
 70
     0
102
RTVSPost2010Prop41ColorIndex
 90
       18
102
RTVSPost2010Prop41ColorRGB
 90
        0
102
RTVSPost2010PropOp41
 70
     0
102
RTVSPost2010Prop42
 90
       50
102
RTVSPost2010PropOp42
 70
     0
102
RTVSPost2010Prop43
 90
        3
102
RTVSPost2010PropOp43
 70
     0
102
RTVSPost2010Prop44ColorIndex
 90
        5
102
RTVSPost2010Prop44ColorRGB
 90
      255
102
RTVSPost2010PropOp44
 70
     0
102
RTVSPost2010Prop45
280
     0
102
RTVSPost2010PropOp45
 70
     0
102
RTVSPost2010Prop46
 90
       50
102
RTVSPost2010PropOp46
 70
     0
102
RTVSPost2010Prop47
 90
       50
102
RTVSPost2010PropOp47
 70
     0
102
RTVSPost2010Prop48
 90
       50
102
RTVSPost2010PropOp48
 70
     0
102
RTVSPost2010Prop49
280
     0
102
RTVSPost2010PropOp49
 70
     0
102
RTVSPost2010Prop50
 90
       50
102
RTVSPost2010PropOp50
 70
     0
102
RTVSPost2010Prop51ColorIndex
 90
      256
102
RTVSPost2010Prop51ColorRGB
 90
-16777216
102
RTVSPost2010PropOp51
 70
     0
102
RTVSPost2010Prop52
140
1.0
102
RTVSPost2010PropOp52
 70
     0
102
RTVSPost2010Prop53
 90
        2
102
RTVSPost2010PropOp53
 70
     0
102
RTVSPost2010Prop54
  1
strokes_ogs.tif
102
RTVSPost2010PropOp54
 70
     0
102
RTVSPost2010Prop55
280
     0
102
RTVSPost2010PropOp55
 70
     0
102
RTVSPost2010Prop56
140
1.0
102
RTVSPost2010PropOp56
 70
     0
102
RTVSPost2010Prop57
140
1.0
102
RTVSPost2010PropOp57
 70
     0
  0
XRECORD
  5
2E4
102
{ACAD_REACTORS
330
2E3
102
}
330
2E3
100
AcDbXrecord
280
     1
102
RTVSPropertyOp0
 70
     1
102
RTVSPropertyOp1
 70
     1
102
RTVSPropertyOp2
 70
     1
102
RTVSPropertyOp3
 70
     1
102
RTVSPropertyOp4
 70
     1
102
RTVSPropertyOp5
 70
     1
102
RTVSPropertyOp6
 70
     1
102
RTVSPropertyOp7
 70
     1
102
RTVSPropertyOp8
 70
     1
102
RTVSPropertyOp9
 70
     1
102
RTVSPropertyOp10
 70
     1
102
RTVSPropertyOp11
 70
     1
102
RTVSPropertyOp12
 70
     1
102
RTVSPropertyOp13
 70
     1
102
RTVSPropertyOp14
 70
     1
102
RTVSPropertyOp15
 70
     1
102
RTVSPropertyOp16
 70
     1
102
RTVSPropertyOp17
 70
     1
102
RTVSPropertyOp18
 70
     1
102
RTVSPropertyOp19
 70
     1
102
RTVSPropertyOp20
 70
     1
102
RTVSPropertyOp21
 70
     1
102
RTVSPropertyOp22
 70
     1
102
RTVSPropertyOp23
 70
     1
102
RTVSPropertyOp24
 70
     1
102
RTVSPropertyOp25
 70
     1
102
RTVSPropertyOp26
 70
     1
102
RTVSPropertyOp27
 70
     1
102
RTVSPropertyOp28
 70
     1
102
RTVSPropertyOp29
 70
     1
102
RTVSPropertyOp30
 70
     1
102
RTVSPropertyOp31
 70
     1
102
RTVSPropertyOp32
 70
     1
102
RTVSPropertyOp33
 70
     1
102
RTVSPropertyOp34
 70
     1
102
RTVSPropertyOp35
 70
     1
102
RTVSPropertyOp36
 70
     1
102
RTVSPropertyOp37
 70
     1
102
RTVSPropertyOp38
 70
     1
102
RTVSPropertyOp39
 70
     1
102
RTVSPropertyOp40
 70
     1
102
RTVSPropertyOp41
 70
     1
102
RTVSPropertyOp42
 70
     1
102
RTVSPropertyOp43
 70
     1
102
RTVSPropertyOp44
 70
     1
102
RTVSPropertyOp45
 70
     1
102
RTVSPropertyOp46
 70
     1
102
RTVSPropertyOp47
 70
     1
102
RTVSPropertyOp48
 70
     1
102
RTVSPropertyOp49
 70
     1
102
RTVSPropertyOp50
 70
     1
102
RTVSPropertyOp51
 70
     0
102
RTVSPropertyOp52
 70
     0
102
RTVSPropertyOp53
 70
     1
102
RTVSPropertyOp54
 70
     1
102
RTVSPropertyOp55
 70
     1
102
RTVSPropertyOp56
 70
     1
102
RTVSPropertyOp57
 70
     1
102
RTVSPost2010Prop28
280
     0
102
RTVSPost2010PropOp28
 70
     1
102
RTVSPost2010Prop29
280
     1
102
RTVSPost2010PropOp29
 70
     1
102
RTVSPost2010Prop30
280
     1
102
RTVSPost2010PropOp30
 70
     1
102
RTVSPost2010Prop31
280
     0
102
RTVSPost2010PropOp31
 70
     1
102
RTVSPost2010Prop32
280
     0
102
RTVSPost2010PropOp32
 70
     1
102
RTVSPost2010Prop33
280
     0
102
RTVSPost2010PropOp33
 70
     1
102
RTVSPost2010Prop34
280
     0
102
RTVSPost2010PropOp34
 70
     1
102
RTVSPost2010Prop35
280
     0
102
RTVSPost2010PropOp35
 70
     1
102
RTVSPost2010Prop36
280
     0
102
RTVSPost2010PropOp36
 70
     1
102
RTVSPost2010Prop37
 90
       50
102
RTVSPost2010PropOp37
 70
     1
102
RTVSPost2010Prop38
140
0.0
102
RTVSPost2010PropOp38
 70
     1
102
RTVSPost2010Prop39
140
1.0
102
RTVSPost2010PropOp39
 70
     1
102
RTVSPost2010Prop40
 90
        0
102
RTVSPost2010PropOp40
 70
     1
102
RTVSPost2010Prop41ColorIndex
 90
       18
102
RTVSPost2010Prop41ColorRGB
 90
        0
102
RTVSPost2010PropOp41
 70
     1
102
RTVSPost2010Prop42
 90
       50
102
RTVSPost2010PropOp42
 70
     1
102
RTVSPost2010Prop43
 90
        3
102
RTVSPost2010PropOp43
 70
     1
102
RTVSPost2010Prop44ColorIndex
 90
        5
102
RTVSPost2010Prop44ColorRGB
 90
      255
102
RTVSPost2010PropOp44
 70
     1
102
RTVSPost2010Prop45
280
     0
102
RTVSPost2010PropOp45
 70
     1
102
RTVSPost2010Prop46
 90
       50
102
RTVSPost2010PropOp46
 70
     1
102
RTVSPost2010Prop47
 90
       50
102
RTVSPost2010PropOp47
 70
     1
102
RTVSPost2010Prop48
 90
       50
102
RTVSPost2010PropOp48
 70
     1
102
RTVSPost2010Prop49
280
     0
102
RTVSPost2010PropOp49
 70
     1
102
RTVSPost2010Prop50
 90
       50
102
RTVSPost2010PropOp50
 70
     1
102
RTVSPost2010Prop51ColorIndex
 90
      256
102
RTVSPost2010Prop51ColorRGB
 90
-16777216
102
RTVSPost2010PropOp51
 70
     0
102
RTVSPost2010Prop52
140
1.0
102
RTVSPost2010PropOp52
 70
     0
102
RTVSPost2010Prop53
 90
        2
102
RTVSPost2010PropOp53
 70
     1
102
RTVSPost2010Prop54
  1
strokes_ogs.tif
102
RTVSPost2010PropOp54
 70
     1
102
RTVSPost2010Prop55
280
     0
102
RTVSPost2010PropOp55
 70
     1
102
RTVSPost2010Prop56
140
1.0
102
RTVSPost2010PropOp56
 70
     1
102
RTVSPost2010Prop57
140
1.0
102
RTVSPost2010PropOp57
 70
     1
  0
XRECORD
  5
302
102
{ACAD_REACTORS
330
301
102
}
330
301
100
AcDbXrecord
280
     1
102
RTVSPropertyOp0
 70
     1
102
RTVSPropertyOp1
 70
     1
102
RTVSPropertyOp2
 70
     1
102
RTVSPropertyOp3
 70
     1
102
RTVSPropertyOp4
 70
     1
102
RTVSPropertyOp5
 70
     1
102
RTVSPropertyOp6
 70
     1
102
RTVSPropertyOp7
 70
     1
102
RTVSPropertyOp8
 70
     1
102
RTVSPropertyOp9
 70
     1
102
RTVSPropertyOp10
 70
     1
102
RTVSPropertyOp11
 70
     1
102
RTVSPropertyOp12
 70
     1
102
RTVSPropertyOp13
 70
     1
102
RTVSPropertyOp14
 70
     1
102
RTVSPropertyOp15
 70
     1
102
RTVSPropertyOp16
 70
     1
102
RTVSPropertyOp17
 70
     1
102
RTVSPropertyOp18
 70
     1
102
RTVSPropertyOp19
 70
     1
102
RTVSPropertyOp20
 70
     1
102
RTVSPropertyOp21
 70
     1
102
RTVSPropertyOp22
 70
     1
102
RTVSPropertyOp23
 70
     1
102
RTVSPropertyOp24
 70
     1
102
RTVSPropertyOp25
 70
     1
102
RTVSPropertyOp26
 70
     1
102
RTVSPropertyOp27
 70
     1
102
RTVSPropertyOp28
 70
     1
102
RTVSPropertyOp29
 70
     1
102
RTVSPropertyOp30
 70
     1
102
RTVSPropertyOp31
 70
     1
102
RTVSPropertyOp32
 70
     1
102
RTVSPropertyOp33
 70
     1
102
RTVSPropertyOp34
 70
     1
102
RTVSPropertyOp35
 70
     1
102
RTVSPropertyOp36
 70
     1
102
RTVSPropertyOp37
 70
     1
102
RTVSPropertyOp38
 70
     1
102
RTVSPropertyOp39
 70
     1
102
RTVSPropertyOp40
 70
     1
102
RTVSPropertyOp41
 70
     1
102
RTVSPropertyOp42
 70
     1
102
RTVSPropertyOp43
 70
     1
102
RTVSPropertyOp44
 70
     1
102
RTVSPropertyOp45
 70
     1
102
RTVSPropertyOp46
 70
     1
102
RTVSPropertyOp47
 70
     1
102
RTVSPropertyOp48
 70
     1
102
RTVSPropertyOp49
 70
     1
102
RTVSPropertyOp50
 70
     1
102
RTVSPropertyOp51
 70
     0
102
RTVSPropertyOp52
 70
     0
102
RTVSPropertyOp53
 70
     1
102
RTVSPropertyOp54
 70
     1
102
RTVSPropertyOp55
 70
     1
102
RTVSPropertyOp56
 70
     1
102
RTVSPropertyOp57
 70
     1
102
RTVSPost2010Prop28
280
     0
102
RTVSPost2010PropOp28
 70
     1
102
RTVSPost2010Prop29
280
     1
102
RTVSPost2010PropOp29
 70
     1
102
RTVSPost2010Prop30
280
     1
102
RTVSPost2010PropOp30
 70
     1
102
RTVSPost2010Prop31
280
     0
102
RTVSPost2010PropOp31
 70
     1
102
RTVSPost2010Prop32
280
     0
102
RTVSPost2010PropOp32
 70
     1
102
RTVSPost2010Prop33
280
     0
102
RTVSPost2010PropOp33
 70
     1
102
RTVSPost2010Prop34
280
     0
102
RTVSPost2010PropOp34
 70
     1
102
RTVSPost2010Prop35
280
     0
102
RTVSPost2010PropOp35
 70
     1
102
RTVSPost2010Prop36
280
     0
102
RTVSPost2010PropOp36
 70
     1
102
RTVSPost2010Prop37
 90
       50
102
RTVSPost2010PropOp37
 70
     1
102
RTVSPost2010Prop38
140
0.0
102
RTVSPost2010PropOp38
 70
     1
102
RTVSPost2010Prop39
140
1.0
102
RTVSPost2010PropOp39
 70
     1
102
RTVSPost2010Prop40
 90
        0
102
RTVSPost2010PropOp40
 70
     1
102
RTVSPost2010Prop41ColorIndex
 90
       18
102
RTVSPost2010Prop41ColorRGB
 90
        0
102
RTVSPost2010PropOp41
 70
     1
102
RTVSPost2010Prop42
 90
       50
102
RTVSPost2010PropOp42
 70
     1
102
RTVSPost2010Prop43
 90
        3
102
RTVSPost2010PropOp43
 70
     1
102
RTVSPost2010Prop44ColorIndex
 90
        5
102
RTVSPost2010Prop44ColorRGB
 90
      255
102
RTVSPost2010PropOp44
 70
     1
102
RTVSPost2010Prop45
280
     0
102
RTVSPost2010PropOp45
 70
     1
102
RTVSPost2010Prop46
 90
       50
102
RTVSPost2010PropOp46
 70
     1
102
RTVSPost2010Prop47
 90
       50
102
RTVSPost2010PropOp47
 70
     1
102
RTVSPost2010Prop48
 90
       50
102
RTVSPost2010PropOp48
 70
     1
102
RTVSPost2010Prop49
280
     0
102
RTVSPost2010PropOp49
 70
     1
102
RTVSPost2010Prop50
 90
       50
102
RTVSPost2010PropOp50
 70
     1
102
RTVSPost2010Prop51ColorIndex
 90
      256
102
RTVSPost2010Prop51ColorRGB
 90
-16777216
102
RTVSPost2010PropOp51
 70
     0
102
RTVSPost2010Prop52
140
1.0
102
RTVSPost2010PropOp52
 70
     0
102
RTVSPost2010Prop53
 90
        2
102
RTVSPost2010PropOp53
 70
     1
102
RTVSPost2010Prop54
  1
strokes_ogs.tif
102
RTVSPost2010PropOp54
 70
     1
102
RTVSPost2010Prop55
280
     0
102
RTVSPost2010PropOp55
 70
     1
102
RTVSPost2010Prop56
140
1.0
102
RTVSPost2010PropOp56
 70
     1
102
RTVSPost2010Prop57
140
1.0
102
RTVSPost2010PropOp57
 70
     1
  0
XRECORD
  5
300
102
{ACAD_REACTORS
330
2FF
102
}
330
2FF
100
AcDbXrecord
280
     1
102
RTVSPropertyOp0
 70
     1
102
RTVSPropertyOp1
 70
     1
102
RTVSPropertyOp2
 70
     1
102
RTVSPropertyOp3
 70
     1
102
RTVSPropertyOp4
 70
     1
102
RTVSPropertyOp5
 70
     1
102
RTVSPropertyOp6
 70
     1
102
RTVSPropertyOp7
 70
     1
102
RTVSPropertyOp8
 70
     1
102
RTVSPropertyOp9
 70
     1
102
RTVSPropertyOp10
 70
     1
102
RTVSPropertyOp11
 70
     1
102
RTVSPropertyOp12
 70
     1
102
RTVSPropertyOp13
 70
     1
102
RTVSPropertyOp14
 70
     1
102
RTVSPropertyOp15
 70
     1
102
RTVSPropertyOp16
 70
     1
102
RTVSPropertyOp17
 70
     1
102
RTVSPropertyOp18
 70
     1
102
RTVSPropertyOp19
 70
     1
102
RTVSPropertyOp20
 70
     1
102
RTVSPropertyOp21
 70
     1
102
RTVSPropertyOp22
 70
     1
102
RTVSPropertyOp23
 70
     1
102
RTVSPropertyOp24
 70
     1
102
RTVSPropertyOp25
 70
     1
102
RTVSPropertyOp26
 70
     1
102
RTVSPropertyOp27
 70
     1
102
RTVSPropertyOp28
 70
     1
102
RTVSPropertyOp29
 70
     1
102
RTVSPropertyOp30
 70
     1
102
RTVSPropertyOp31
 70
     1
102
RTVSPropertyOp32
 70
     1
102
RTVSPropertyOp33
 70
     1
102
RTVSPropertyOp34
 70
     1
102
RTVSPropertyOp35
 70
     1
102
RTVSPropertyOp36
 70
     1
102
RTVSPropertyOp37
 70
     1
102
RTVSPropertyOp38
 70
     1
102
RTVSPropertyOp39
 70
     1
102
RTVSPropertyOp40
 70
     1
102
RTVSPropertyOp41
 70
     1
102
RTVSPropertyOp42
 70
     1
102
RTVSPropertyOp43
 70
     1
102
RTVSPropertyOp44
 70
     1
102
RTVSPropertyOp45
 70
     1
102
RTVSPropertyOp46
 70
     1
102
RTVSPropertyOp47
 70
     1
102
RTVSPropertyOp48
 70
     1
102
RTVSPropertyOp49
 70
     1
102
RTVSPropertyOp50
 70
     1
102
RTVSPropertyOp51
 70
     0
102
RTVSPropertyOp52
 70
     0
102
RTVSPropertyOp53
 70
     1
102
RTVSPropertyOp54
 70
     1
102
RTVSPropertyOp55
 70
     1
102
RTVSPropertyOp56
 70
     1
102
RTVSPropertyOp57
 70
     1
102
RTVSPost2010Prop28
280
     0
102
RTVSPost2010PropOp28
 70
     1
102
RTVSPost2010Prop29
280
     1
102
RTVSPost2010PropOp29
 70
     1
102
RTVSPost2010Prop30
280
     1
102
RTVSPost2010PropOp30
 70
     1
102
RTVSPost2010Prop31
280
     0
102
RTVSPost2010PropOp31
 70
     1
102
RTVSPost2010Prop32
280
     0
102
RTVSPost2010PropOp32
 70
     1
102
RTVSPost2010Prop33
280
     0
102
RTVSPost2010PropOp33
 70
     1
102
RTVSPost2010Prop34
280
     0
102
RTVSPost2010PropOp34
 70
     1
102
RTVSPost2010Prop35
280
     0
102
RTVSPost2010PropOp35
 70
     1
102
RTVSPost2010Prop36
280
     0
102
RTVSPost2010PropOp36
 70
     1
102
RTVSPost2010Prop37
 90
       50
102
RTVSPost2010PropOp37
 70
     1
102
RTVSPost2010Prop38
140
0.0
102
RTVSPost2010PropOp38
 70
     1
102
RTVSPost2010Prop39
140
1.0
102
RTVSPost2010PropOp39
 70
     1
102
RTVSPost2010Prop40
 90
        0
102
RTVSPost2010PropOp40
 70
     1
102
RTVSPost2010Prop41ColorIndex
 90
       18
102
RTVSPost2010Prop41ColorRGB
 90
        0
102
RTVSPost2010PropOp41
 70
     1
102
RTVSPost2010Prop42
 90
       50
102
RTVSPost2010PropOp42
 70
     1
102
RTVSPost2010Prop43
 90
        3
102
RTVSPost2010PropOp43
 70
     1
102
RTVSPost2010Prop44ColorIndex
 90
        5
102
RTVSPost2010Prop44ColorRGB
 90
      255
102
RTVSPost2010PropOp44
 70
     1
102
RTVSPost2010Prop45
280
     0
102
RTVSPost2010PropOp45
 70
     1
102
RTVSPost2010Prop46
 90
       50
102
RTVSPost2010PropOp46
 70
     1
102
RTVSPost2010Prop47
 90
       50
102
RTVSPost2010PropOp47
 70
     1
102
RTVSPost2010Prop48
 90
       50
102
RTVSPost2010PropOp48
 70
     1
102
RTVSPost2010Prop49
280
     0
102
RTVSPost2010PropOp49
 70
     1
102
RTVSPost2010Prop50
 90
       50
102
RTVSPost2010PropOp50
 70
     1
102
RTVSPost2010Prop51ColorIndex
 90
      256
102
RTVSPost2010Prop51ColorRGB
 90
-16777216
102
RTVSPost2010PropOp51
 70
     0
102
RTVSPost2010Prop52
140
1.0
102
RTVSPost2010PropOp52
 70
     0
102
RTVSPost2010Prop53
 90
        2
102
RTVSPost2010PropOp53
 70
     1
102
RTVSPost2010Prop54
  1
strokes_ogs.tif
102
RTVSPost2010PropOp54
 70
     1
102
RTVSPost2010Prop55
280
     0
102
RTVSPost2010PropOp55
 70
     1
102
RTVSPost2010Prop56
140
1.0
102
RTVSPost2010PropOp56
 70
     1
102
RTVSPost2010Prop57
140
1.0
102
RTVSPost2010PropOp57
 70
     1
  0
XRECORD
  5
2FA
102
{ACAD_REACTORS
330
2F9
102
}
330
2F9
100
AcDbXrecord
280
     1
102
RTVSPropertyOp0
 70
     1
102
RTVSPropertyOp1
 70
     1
102
RTVSPropertyOp2
 70
     1
102
RTVSPropertyOp3
 70
     1
102
RTVSPropertyOp4
 70
     1
102
RTVSPropertyOp5
 70
     1
102
RTVSPropertyOp6
 70
     1
102
RTVSPropertyOp7
 70
     1
102
RTVSPropertyOp8
 70
     1
102
RTVSPropertyOp9
 70
     1
102
RTVSPropertyOp10
 70
     1
102
RTVSPropertyOp11
 70
     1
102
RTVSPropertyOp12
 70
     1
102
RTVSPropertyOp13
 70
     1
102
RTVSPropertyOp14
 70
     1
102
RTVSPropertyOp15
 70
     1
102
RTVSPropertyOp16
 70
     1
102
RTVSPropertyOp17
 70
     1
102
RTVSPropertyOp18
 70
     1
102
RTVSPropertyOp19
 70
     1
102
RTVSPropertyOp20
 70
     1
102
RTVSPropertyOp21
 70
     1
102
RTVSPropertyOp22
 70
     1
102
RTVSPropertyOp23
 70
     1
102
RTVSPropertyOp24
 70
     1
102
RTVSPropertyOp25
 70
     1
102
RTVSPropertyOp26
 70
     1
102
RTVSPropertyOp27
 70
     1
102
RTVSPropertyOp28
 70
     1
102
RTVSPropertyOp29
 70
     1
102
RTVSPropertyOp30
 70
     1
102
RTVSPropertyOp31
 70
     1
102
RTVSPropertyOp32
 70
     1
102
RTVSPropertyOp33
 70
     1
102
RTVSPropertyOp34
 70
     1
102
RTVSPropertyOp35
 70
     1
102
RTVSPropertyOp36
 70
     1
102
RTVSPropertyOp37
 70
     1
102
RTVSPropertyOp38
 70
     1
102
RTVSPropertyOp39
 70
     1
102
RTVSPropertyOp40
 70
     1
102
RTVSPropertyOp41
 70
     1
102
RTVSPropertyOp42
 70
     1
102
RTVSPropertyOp43
 70
     1
102
RTVSPropertyOp44
 70
     1
102
RTVSPropertyOp45
 70
     1
102
RTVSPropertyOp46
 70
     1
102
RTVSPropertyOp47
 70
     1
102
RTVSPropertyOp48
 70
     1
102
RTVSPropertyOp49
 70
     1
102
RTVSPropertyOp50
 70
     1
102
RTVSPropertyOp51
 70
     0
102
RTVSPropertyOp52
 70
     0
102
RTVSPropertyOp53
 70
     1
102
RTVSPropertyOp54
 70
     1
102
RTVSPropertyOp55
 70
     1
102
RTVSPropertyOp56
 70
     1
102
RTVSPropertyOp57
 70
     1
102
RTVSPost2010Prop28
280
     0
102
RTVSPost2010PropOp28
 70
     1
102
RTVSPost2010Prop29
280
     1
102
RTVSPost2010PropOp29
 70
     1
102
RTVSPost2010Prop30
280
     1
102
RTVSPost2010PropOp30
 70
     1
102
RTVSPost2010Prop31
280
     0
102
RTVSPost2010PropOp31
 70
     1
102
RTVSPost2010Prop32
280
     0
102
RTVSPost2010PropOp32
 70
     1
102
RTVSPost2010Prop33
280
     0
102
RTVSPost2010PropOp33
 70
     1
102
RTVSPost2010Prop34
280
     0
102
RTVSPost2010PropOp34
 70
     1
102
RTVSPost2010Prop35
280
     0
102
RTVSPost2010PropOp35
 70
     1
102
RTVSPost2010Prop36
280
     0
102
RTVSPost2010PropOp36
 70
     1
102
RTVSPost2010Prop37
 90
       50
102
RTVSPost2010PropOp37
 70
     1
102
RTVSPost2010Prop38
140
0.0
102
RTVSPost2010PropOp38
 70
     1
102
RTVSPost2010Prop39
140
1.0
102
RTVSPost2010PropOp39
 70
     1
102
RTVSPost2010Prop40
 90
        0
102
RTVSPost2010PropOp40
 70
     1
102
RTVSPost2010Prop41ColorIndex
 90
       18
102
RTVSPost2010Prop41ColorRGB
 90
        0
102
RTVSPost2010PropOp41
 70
     1
102
RTVSPost2010Prop42
 90
       50
102
RTVSPost2010PropOp42
 70
     1
102
RTVSPost2010Prop43
 90
        3
102
RTVSPost2010PropOp43
 70
     1
102
RTVSPost2010Prop44ColorIndex
 90
        5
102
RTVSPost2010Prop44ColorRGB
 90
      255
102
RTVSPost2010PropOp44
 70
     1
102
RTVSPost2010Prop45
280
     0
102
RTVSPost2010PropOp45
 70
     1
102
RTVSPost2010Prop46
 90
       50
102
RTVSPost2010PropOp46
 70
     1
102
RTVSPost2010Prop47
 90
       50
102
RTVSPost2010PropOp47
 70
     1
102
RTVSPost2010Prop48
 90
       50
102
RTVSPost2010PropOp48
 70
     1
102
RTVSPost2010Prop49
280
     0
102
RTVSPost2010PropOp49
 70
     1
102
RTVSPost2010Prop50
 90
       50
102
RTVSPost2010PropOp50
 70
     1
102
RTVSPost2010Prop51ColorIndex
 90
      256
102
RTVSPost2010Prop51ColorRGB
 90
-16777216
102
RTVSPost2010PropOp51
 70
     0
102
RTVSPost2010Prop52
140
1.0
102
RTVSPost2010PropOp52
 70
     0
102
RTVSPost2010Prop53
 90
        2
102
RTVSPost2010PropOp53
 70
     1
102
RTVSPost2010Prop54
  1
strokes_ogs.tif
102
RTVSPost2010PropOp54
 70
     1
102
RTVSPost2010Prop55
280
     0
102
RTVSPost2010PropOp55
 70
     1
102
RTVSPost2010Prop56
140
1.0
102
RTVSPost2010PropOp56
 70
     1
102
RTVSPost2010Prop57
140
1.0
102
RTVSPost2010PropOp57
 70
     1
  0
XRECORD
  5
2FC
102
{ACAD_REACTORS
330
2FB
102
}
330
2FB
100
AcDbXrecord
280
     1
102
RTVSPropertyOp0
 70
     1
102
RTVSPropertyOp1
 70
     1
102
RTVSPropertyOp2
 70
     1
102
RTVSPropertyOp3
 70
     1
102
RTVSPropertyOp4
 70
     1
102
RTVSPropertyOp5
 70
     1
102
RTVSPropertyOp6
 70
     1
102
RTVSPropertyOp7
 70
     1
102
RTVSPropertyOp8
 70
     1
102
RTVSPropertyOp9
 70
     1
102
RTVSPropertyOp10
 70
     1
102
RTVSPropertyOp11
 70
     1
102
RTVSPropertyOp12
 70
     1
102
RTVSPropertyOp13
 70
     1
102
RTVSPropertyOp14
 70
     1
102
RTVSPropertyOp15
 70
     1
102
RTVSPropertyOp16
 70
     1
102
RTVSPropertyOp17
 70
     1
102
RTVSPropertyOp18
 70
     1
102
RTVSPropertyOp19
 70
     1
102
RTVSPropertyOp20
 70
     1
102
RTVSPropertyOp21
 70
     1
102
RTVSPropertyOp22
 70
     1
102
RTVSPropertyOp23
 70
     1
102
RTVSPropertyOp24
 70
     1
102
RTVSPropertyOp25
 70
     1
102
RTVSPropertyOp26
 70
     1
102
RTVSPropertyOp27
 70
     1
102
RTVSPropertyOp28
 70
     1
102
RTVSPropertyOp29
 70
     1
102
RTVSPropertyOp30
 70
     1
102
RTVSPropertyOp31
 70
     1
102
RTVSPropertyOp32
 70
     1
102
RTVSPropertyOp33
 70
     1
102
RTVSPropertyOp34
 70
     1
102
RTVSPropertyOp35
 70
     1
102
RTVSPropertyOp36
 70
     1
102
RTVSPropertyOp37
 70
     1
102
RTVSPropertyOp38
 70
     1
102
RTVSPropertyOp39
 70
     1
102
RTVSPropertyOp40
 70
     1
102
RTVSPropertyOp41
 70
     1
102
RTVSPropertyOp42
 70
     1
102
RTVSPropertyOp43
 70
     1
102
RTVSPropertyOp44
 70
     1
102
RTVSPropertyOp45
 70
     1
102
RTVSPropertyOp46
 70
     1
102
RTVSPropertyOp47
 70
     1
102
RTVSPropertyOp48
 70
     1
102
RTVSPropertyOp49
 70
     1
102
RTVSPropertyOp50
 70
     1
102
RTVSPropertyOp51
 70
     0
102
RTVSPropertyOp52
 70
     0
102
RTVSPropertyOp53
 70
     1
102
RTVSPropertyOp54
 70
     1
102
RTVSPropertyOp55
 70
     1
102
RTVSPropertyOp56
 70
     1
102
RTVSPropertyOp57
 70
     1
102
RTVSPost2010Prop28
280
     0
102
RTVSPost2010PropOp28
 70
     1
102
RTVSPost2010Prop29
280
     1
102
RTVSPost2010PropOp29
 70
     1
102
RTVSPost2010Prop30
280
     1
102
RTVSPost2010PropOp30
 70
     1
102
RTVSPost2010Prop31
280
     0
102
RTVSPost2010PropOp31
 70
     1
102
RTVSPost2010Prop32
280
     0
102
RTVSPost2010PropOp32
 70
     1
102
RTVSPost2010Prop33
280
     0
102
RTVSPost2010PropOp33
 70
     1
102
RTVSPost2010Prop34
280
     0
102
RTVSPost2010PropOp34
 70
     1
102
RTVSPost2010Prop35
280
     0
102
RTVSPost2010PropOp35
 70
     1
102
RTVSPost2010Prop36
280
     0
102
RTVSPost2010PropOp36
 70
     1
102
RTVSPost2010Prop37
 90
       50
102
RTVSPost2010PropOp37
 70
     1
102
RTVSPost2010Prop38
140
0.0
102
RTVSPost2010PropOp38
 70
     1
102
RTVSPost2010Prop39
140
1.0
102
RTVSPost2010PropOp39
 70
     1
102
RTVSPost2010Prop40
 90
        0
102
RTVSPost2010PropOp40
 70
     1
102
RTVSPost2010Prop41ColorIndex
 90
       18
102
RTVSPost2010Prop41ColorRGB
 90
        0
102
RTVSPost2010PropOp41
 70
     1
102
RTVSPost2010Prop42
 90
       50
102
RTVSPost2010PropOp42
 70
     1
102
RTVSPost2010Prop43
 90
        3
102
RTVSPost2010PropOp43
 70
     1
102
RTVSPost2010Prop44ColorIndex
 90
        5
102
RTVSPost2010Prop44ColorRGB
 90
      255
102
RTVSPost2010PropOp44
 70
     1
102
RTVSPost2010Prop45
280
     0
102
RTVSPost2010PropOp45
 70
     1
102
RTVSPost2010Prop46
 90
       50
102
RTVSPost2010PropOp46
 70
     1
102
RTVSPost2010Prop47
 90
       50
102
RTVSPost2010PropOp47
 70
     1
102
RTVSPost2010Prop48
 90
       50
102
RTVSPost2010PropOp48
 70
     1
102
RTVSPost2010Prop49
280
     0
102
RTVSPost2010PropOp49
 70
     1
102
RTVSPost2010Prop50
 90
       50
102
RTVSPost2010PropOp50
 70
     1
102
RTVSPost2010Prop51ColorIndex
 90
      256
102
RTVSPost2010Prop51ColorRGB
 90
-16777216
102
RTVSPost2010PropOp51
 70
     0
102
RTVSPost2010Prop52
140
1.0
102
RTVSPost2010PropOp52
 70
     0
102
RTVSPost2010Prop53
 90
        2
102
RTVSPost2010PropOp53
 70
     1
102
RTVSPost2010Prop54
  1
strokes_ogs.tif
102
RTVSPost2010PropOp54
 70
     1
102
RTVSPost2010Prop55
280
     0
102
RTVSPost2010PropOp55
 70
     1
102
RTVSPost2010Prop56
140
1.0
102
RTVSPost2010PropOp56
 70
     1
102
RTVSPost2010Prop57
140
1.0
102
RTVSPost2010PropOp57
 70
     1
  0
XRECORD
  5
2EC
102
{ACAD_REACTORS
330
2EB
102
}
330
2EB
100
AcDbXrecord
280
     1
102
RTVSPropertyOp0
 70
     1
102
RTVSPropertyOp1
 70
     1
102
RTVSPropertyOp2
 70
     1
102
RTVSPropertyOp3
 70
     1
102
RTVSPropertyOp4
 70
     1
102
RTVSPropertyOp5
 70
     1
102
RTVSPropertyOp6
 70
     1
102
RTVSPropertyOp7
 70
     1
102
RTVSPropertyOp8
 70
     1
102
RTVSPropertyOp9
 70
     1
102
RTVSPropertyOp10
 70
     1
102
RTVSPropertyOp11
 70
     1
102
RTVSPropertyOp12
 70
     1
102
RTVSPropertyOp13
 70
     1
102
RTVSPropertyOp14
 70
     1
102
RTVSPropertyOp15
 70
     1
102
RTVSPropertyOp16
 70
     1
102
RTVSPropertyOp17
 70
     1
102
RTVSPropertyOp18
 70
     1
102
RTVSPropertyOp19
 70
     1
102
RTVSPropertyOp20
 70
     1
102
RTVSPropertyOp21
 70
     1
102
RTVSPropertyOp22
 70
     1
102
RTVSPropertyOp23
 70
     1
102
RTVSPropertyOp24
 70
     1
102
RTVSPropertyOp25
 70
     1
102
RTVSPropertyOp26
 70
     1
102
RTVSPropertyOp27
 70
     1
102
RTVSPropertyOp28
 70
     1
102
RTVSPropertyOp29
 70
     1
102
RTVSPropertyOp30
 70
     1
102
RTVSPropertyOp31
 70
     1
102
RTVSPropertyOp32
 70
     1
102
RTVSPropertyOp33
 70
     1
102
RTVSPropertyOp34
 70
     1
102
RTVSPropertyOp35
 70
     1
102
RTVSPropertyOp36
 70
     1
102
RTVSPropertyOp37
 70
     1
102
RTVSPropertyOp38
 70
     1
102
RTVSPropertyOp39
 70
     1
102
RTVSPropertyOp40
 70
     1
102
RTVSPropertyOp41
 70
     1
102
RTVSPropertyOp42
 70
     1
102
RTVSPropertyOp43
 70
     1
102
RTVSPropertyOp44
 70
     1
102
RTVSPropertyOp45
 70
     1
102
RTVSPropertyOp46
 70
     1
102
RTVSPropertyOp47
 70
     1
102
RTVSPropertyOp48
 70
     1
102
RTVSPropertyOp49
 70
     1
102
RTVSPropertyOp50
 70
     1
102
RTVSPropertyOp51
 70
     0
102
RTVSPropertyOp52
 70
     0
102
RTVSPropertyOp53
 70
     1
102
RTVSPropertyOp54
 70
     1
102
RTVSPropertyOp55
 70
     1
102
RTVSPropertyOp56
 70
     1
102
RTVSPropertyOp57
 70
     1
102
RTVSPost2010Prop28
280
     0
102
RTVSPost2010PropOp28
 70
     1
102
RTVSPost2010Prop29
280
     1
102
RTVSPost2010PropOp29
 70
     1
102
RTVSPost2010Prop30
280
     1
102
RTVSPost2010PropOp30
 70
     1
102
RTVSPost2010Prop31
280
     0
102
RTVSPost2010PropOp31
 70
     1
102
RTVSPost2010Prop32
280
     0
102
RTVSPost2010PropOp32
 70
     1
102
RTVSPost2010Prop33
280
     0
102
RTVSPost2010PropOp33
 70
     1
102
RTVSPost2010Prop34
280
     0
102
RTVSPost2010PropOp34
 70
     1
102
RTVSPost2010Prop35
280
     0
102
RTVSPost2010PropOp35
 70
     1
102
RTVSPost2010Prop36
280
     0
102
RTVSPost2010PropOp36
 70
     1
102
RTVSPost2010Prop37
 90
       50
102
RTVSPost2010PropOp37
 70
     1
102
RTVSPost2010Prop38
140
0.0
102
RTVSPost2010PropOp38
 70
     1
102
RTVSPost2010Prop39
140
1.0
102
RTVSPost2010PropOp39
 70
     1
102
RTVSPost2010Prop40
 90
        0
102
RTVSPost2010PropOp40
 70
     1
102
RTVSPost2010Prop41ColorIndex
 90
       18
102
RTVSPost2010Prop41ColorRGB
 90
        0
102
RTVSPost2010PropOp41
 70
     1
102
RTVSPost2010Prop42
 90
       50
102
RTVSPost2010PropOp42
 70
     1
102
RTVSPost2010Prop43
 90
        3
102
RTVSPost2010PropOp43
 70
     1
102
RTVSPost2010Prop44ColorIndex
 90
        5
102
RTVSPost2010Prop44ColorRGB
 90
      255
102
RTVSPost2010PropOp44
 70
     1
102
RTVSPost2010Prop45
280
     0
102
RTVSPost2010PropOp45
 70
     1
102
RTVSPost2010Prop46
 90
       50
102
RTVSPost2010PropOp46
 70
     1
102
RTVSPost2010Prop47
 90
       50
102
RTVSPost2010PropOp47
 70
     1
102
RTVSPost2010Prop48
 90
       50
102
RTVSPost2010PropOp48
 70
     1
102
RTVSPost2010Prop49
280
     0
102
RTVSPost2010PropOp49
 70
     1
102
RTVSPost2010Prop50
 90
       50
102
RTVSPost2010PropOp50
 70
     1
102
RTVSPost2010Prop51ColorIndex
 90
      256
102
RTVSPost2010Prop51ColorRGB
 90
-16777216
102
RTVSPost2010PropOp51
 70
     0
102
RTVSPost2010Prop52
140
1.0
102
RTVSPost2010PropOp52
 70
     0
102
RTVSPost2010Prop53
 90
        2
102
RTVSPost2010PropOp53
 70
     1
102
RTVSPost2010Prop54
  1
strokes_ogs.tif
102
RTVSPost2010PropOp54
 70
     1
102
RTVSPost2010Prop55
280
     0
102
RTVSPost2010PropOp55
 70
     1
102
RTVSPost2010Prop56
140
1.0
102
RTVSPost2010PropOp56
 70
     1
102
RTVSPost2010Prop57
140
1.0
102
RTVSPost2010PropOp57
 70
     1
  0
XRECORD
  5
2DE
102
{ACAD_REACTORS
330
2DD
102
}
330
2DD
100
AcDbXrecord
280
     1
102
RTVSPropertyOp0
 70
     1
102
RTVSPropertyOp1
 70
     1
102
RTVSPropertyOp2
 70
     1
102
RTVSPropertyOp3
 70
     1
102
RTVSPropertyOp4
 70
     1
102
RTVSPropertyOp5
 70
     1
102
RTVSPropertyOp6
 70
     1
102
RTVSPropertyOp7
 70
     1
102
RTVSPropertyOp8
 70
     1
102
RTVSPropertyOp9
 70
     1
102
RTVSPropertyOp10
 70
     1
102
RTVSPropertyOp11
 70
     1
102
RTVSPropertyOp12
 70
     1
102
RTVSPropertyOp13
 70
     1
102
RTVSPropertyOp14
 70
     1
102
RTVSPropertyOp15
 70
     1
102
RTVSPropertyOp16
 70
     1
102
RTVSPropertyOp17
 70
     1
102
RTVSPropertyOp18
 70
     1
102
RTVSPropertyOp19
 70
     1
102
RTVSPropertyOp20
 70
     1
102
RTVSPropertyOp21
 70
     1
102
RTVSPropertyOp22
 70
     1
102
RTVSPropertyOp23
 70
     1
102
RTVSPropertyOp24
 70
     1
102
RTVSPropertyOp25
 70
     1
102
RTVSPropertyOp26
 70
     1
102
RTVSPropertyOp27
 70
     1
102
RTVSPropertyOp28
 70
     1
102
RTVSPropertyOp29
 70
     1
102
RTVSPropertyOp30
 70
     1
102
RTVSPropertyOp31
 70
     1
102
RTVSPropertyOp32
 70
     1
102
RTVSPropertyOp33
 70
     1
102
RTVSPropertyOp34
 70
     1
102
RTVSPropertyOp35
 70
     1
102
RTVSPropertyOp36
 70
     1
102
RTVSPropertyOp37
 70
     1
102
RTVSPropertyOp38
 70
     1
102
RTVSPropertyOp39
 70
     1
102
RTVSPropertyOp40
 70
     1
102
RTVSPropertyOp41
 70
     1
102
RTVSPropertyOp42
 70
     1
102
RTVSPropertyOp43
 70
     1
102
RTVSPropertyOp44
 70
     1
102
RTVSPropertyOp45
 70
     1
102
RTVSPropertyOp46
 70
     1
102
RTVSPropertyOp47
 70
     1
102
RTVSPropertyOp48
 70
     1
102
RTVSPropertyOp49
 70
     1
102
RTVSPropertyOp50
 70
     1
102
RTVSPropertyOp51
 70
     0
102
RTVSPropertyOp52
 70
     0
102
RTVSPropertyOp53
 70
     1
102
RTVSPropertyOp54
 70
     1
102
RTVSPropertyOp55
 70
     1
102
RTVSPropertyOp56
 70
     1
102
RTVSPropertyOp57
 70
     1
102
RTVSPost2010Prop28
280
     0
102
RTVSPost2010PropOp28
 70
     1
102
RTVSPost2010Prop29
280
     1
102
RTVSPost2010PropOp29
 70
     1
102
RTVSPost2010Prop30
280
     1
102
RTVSPost2010PropOp30
 70
     1
102
RTVSPost2010Prop31
280
     0
102
RTVSPost2010PropOp31
 70
     1
102
RTVSPost2010Prop32
280
     0
102
RTVSPost2010PropOp32
 70
     1
102
RTVSPost2010Prop33
280
     0
102
RTVSPost2010PropOp33
 70
     1
102
RTVSPost2010Prop34
280
     0
102
RTVSPost2010PropOp34
 70
     1
102
RTVSPost2010Prop35
280
     0
102
RTVSPost2010PropOp35
 70
     1
102
RTVSPost2010Prop36
280
     0
102
RTVSPost2010PropOp36
 70
     1
102
RTVSPost2010Prop37
 90
       50
102
RTVSPost2010PropOp37
 70
     1
102
RTVSPost2010Prop38
140
0.0
102
RTVSPost2010PropOp38
 70
     1
102
RTVSPost2010Prop39
140
1.0
102
RTVSPost2010PropOp39
 70
     1
102
RTVSPost2010Prop40
 90
        0
102
RTVSPost2010PropOp40
 70
     1
102
RTVSPost2010Prop41ColorIndex
 90
       18
102
RTVSPost2010Prop41ColorRGB
 90
        0
102
RTVSPost2010PropOp41
 70
     1
102
RTVSPost2010Prop42
 90
       50
102
RTVSPost2010PropOp42
 70
     1
102
RTVSPost2010Prop43
 90
        3
102
RTVSPost2010PropOp43
 70
     1
102
RTVSPost2010Prop44ColorIndex
 90
        5
102
RTVSPost2010Prop44ColorRGB
 90
      255
102
RTVSPost2010PropOp44
 70
     1
102
RTVSPost2010Prop45
280
     0
102
RTVSPost2010PropOp45
 70
     1
102
RTVSPost2010Prop46
 90
       50
102
RTVSPost2010PropOp46
 70
     1
102
RTVSPost2010Prop47
 90
       50
102
RTVSPost2010PropOp47
 70
     1
102
RTVSPost2010Prop48
 90
       50
102
RTVSPost2010PropOp48
 70
     1
102
RTVSPost2010Prop49
280
     0
102
RTVSPost2010PropOp49
 70
     1
102
RTVSPost2010Prop50
 90
       50
102
RTVSPost2010PropOp50
 70
     1
102
RTVSPost2010Prop51ColorIndex
 90
      256
102
RTVSPost2010Prop51ColorRGB
 90
-16777216
102
RTVSPost2010PropOp51
 70
     0
102
RTVSPost2010Prop52
140
1.0
102
RTVSPost2010PropOp52
 70
     0
102
RTVSPost2010Prop53
 90
        2
102
RTVSPost2010PropOp53
 70
     1
102
RTVSPost2010Prop54
  1
strokes_ogs.tif
102
RTVSPost2010PropOp54
 70
     1
102
RTVSPost2010Prop55
280
     0
102
RTVSPost2010PropOp55
 70
     1
102
RTVSPost2010Prop56
140
1.0
102
RTVSPost2010PropOp56
 70
     1
102
RTVSPost2010Prop57
140
1.0
102
RTVSPost2010PropOp57
 70
     1
  0
XRECORD
  5
2FE
102
{ACAD_REACTORS
330
2FD
102
}
330
2FD
100
AcDbXrecord
280
     1
102
RTVSPropertyOp0
 70
     1
102
RTVSPropertyOp1
 70
     1
102
RTVSPropertyOp2
 70
     1
102
RTVSPropertyOp3
 70
     1
102
RTVSPropertyOp4
 70
     1
102
RTVSPropertyOp5
 70
     1
102
RTVSPropertyOp6
 70
     1
102
RTVSPropertyOp7
 70
     1
102
RTVSPropertyOp8
 70
     1
102
RTVSPropertyOp9
 70
     1
102
RTVSPropertyOp10
 70
     1
102
RTVSPropertyOp11
 70
     1
102
RTVSPropertyOp12
 70
     1
102
RTVSPropertyOp13
 70
     1
102
RTVSPropertyOp14
 70
     1
102
RTVSPropertyOp15
 70
     1
102
RTVSPropertyOp16
 70
     1
102
RTVSPropertyOp17
 70
     1
102
RTVSPropertyOp18
 70
     1
102
RTVSPropertyOp19
 70
     1
102
RTVSPropertyOp20
 70
     1
102
RTVSPropertyOp21
 70
     1
102
RTVSPropertyOp22
 70
     1
102
RTVSPropertyOp23
 70
     1
102
RTVSPropertyOp24
 70
     1
102
RTVSPropertyOp25
 70
     1
102
RTVSPropertyOp26
 70
     1
102
RTVSPropertyOp27
 70
     1
102
RTVSPropertyOp28
 70
     1
102
RTVSPropertyOp29
 70
     1
102
RTVSPropertyOp30
 70
     1
102
RTVSPropertyOp31
 70
     1
102
RTVSPropertyOp32
 70
     1
102
RTVSPropertyOp33
 70
     1
102
RTVSPropertyOp34
 70
     1
102
RTVSPropertyOp35
 70
     1
102
RTVSPropertyOp36
 70
     1
102
RTVSPropertyOp37
 70
     1
102
RTVSPropertyOp38
 70
     1
102
RTVSPropertyOp39
 70
     1
102
RTVSPropertyOp40
 70
     1
102
RTVSPropertyOp41
 70
     1
102
RTVSPropertyOp42
 70
     1
102
RTVSPropertyOp43
 70
     1
102
RTVSPropertyOp44
 70
     1
102
RTVSPropertyOp45
 70
     1
102
RTVSPropertyOp46
 70
     1
102
RTVSPropertyOp47
 70
     1
102
RTVSPropertyOp48
 70
     1
102
RTVSPropertyOp49
 70
     1
102
RTVSPropertyOp50
 70
     1
102
RTVSPropertyOp51
 70
     0
102
RTVSPropertyOp52
 70
     0
102
RTVSPropertyOp53
 70
     1
102
RTVSPropertyOp54
 70
     1
102
RTVSPropertyOp55
 70
     1
102
RTVSPropertyOp56
 70
     1
102
RTVSPropertyOp57
 70
     1
102
RTVSPost2010Prop28
280
     0
102
RTVSPost2010PropOp28
 70
     1
102
RTVSPost2010Prop29
280
     1
102
RTVSPost2010PropOp29
 70
     1
102
RTVSPost2010Prop30
280
     1
102
RTVSPost2010PropOp30
 70
     1
102
RTVSPost2010Prop31
280
     0
102
RTVSPost2010PropOp31
 70
     1
102
RTVSPost2010Prop32
280
     0
102
RTVSPost2010PropOp32
 70
     1
102
RTVSPost2010Prop33
280
     0
102
RTVSPost2010PropOp33
 70
     1
102
RTVSPost2010Prop34
280
     0
102
RTVSPost2010PropOp34
 70
     1
102
RTVSPost2010Prop35
280
     0
102
RTVSPost2010PropOp35
 70
     1
102
RTVSPost2010Prop36
280
     0
102
RTVSPost2010PropOp36
 70
     1
102
RTVSPost2010Prop37
 90
       50
102
RTVSPost2010PropOp37
 70
     1
102
RTVSPost2010Prop38
140
0.0
102
RTVSPost2010PropOp38
 70
     1
102
RTVSPost2010Prop39
140
1.0
102
RTVSPost2010PropOp39
 70
     1
102
RTVSPost2010Prop40
 90
        0
102
RTVSPost2010PropOp40
 70
     1
102
RTVSPost2010Prop41ColorIndex
 90
       18
102
RTVSPost2010Prop41ColorRGB
 90
        0
102
RTVSPost2010PropOp41
 70
     1
102
RTVSPost2010Prop42
 90
       50
102
RTVSPost2010PropOp42
 70
     1
102
RTVSPost2010Prop43
 90
        3
102
RTVSPost2010PropOp43
 70
     1
102
RTVSPost2010Prop44ColorIndex
 90
        5
102
RTVSPost2010Prop44ColorRGB
 90
      255
102
RTVSPost2010PropOp44
 70
     1
102
RTVSPost2010Prop45
280
     0
102
RTVSPost2010PropOp45
 70
     1
102
RTVSPost2010Prop46
 90
       50
102
RTVSPost2010PropOp46
 70
     1
102
RTVSPost2010Prop47
 90
       50
102
RTVSPost2010PropOp47
 70
     1
102
RTVSPost2010Prop48
 90
       50
102
RTVSPost2010PropOp48
 70
     1
102
RTVSPost2010Prop49
280
     0
102
RTVSPost2010PropOp49
 70
     1
102
RTVSPost2010Prop50
 90
       50
102
RTVSPost2010PropOp50
 70
     1
102
RTVSPost2010Prop51ColorIndex
 90
      256
102
RTVSPost2010Prop51ColorRGB
 90
-16777216
102
RTVSPost2010PropOp51
 70
     0
102
RTVSPost2010Prop52
140
1.0
102
RTVSPost2010PropOp52
 70
     0
102
RTVSPost2010Prop53
 90
        2
102
RTVSPost2010PropOp53
 70
     1
102
RTVSPost2010Prop54
  1
strokes_ogs.tif
102
RTVSPost2010PropOp54
 70
     1
102
RTVSPost2010Prop55
280
     0
102
RTVSPost2010PropOp55
 70
     1
102
RTVSPost2010Prop56
140
1.0
102
RTVSPost2010PropOp56
 70
     1
102
RTVSPost2010Prop57
140
1.0
102
RTVSPost2010PropOp57
 70
     1
  0
ENDSEC
  0
EOF
