  0
SECTION
  2
HEADER
  9
$ACADVER
  1
AC1018
  9
$ACADMAINTVER
 70
     0
  9
$DWGCODEPAGE
  3
ANSI_1252
  9
$INSBASE
 10
0.0
 20
0.0
 30
0.0
  9
$EXTMIN
 10
-867.9774504653932
 20
-393.234604564263
 30
0.0
  9
$EXTMAX
 10
-447.9774504653948
 20
-96.23460456426301
 30
0.0
  9
$LIMMIN
 10
0.0
 20
0.0
  9
$LIMMAX
 10
12.0
 20
9.0
  9
$ORTHOMODE
 70
     0
  9
$REGENMODE
 70
     1
  9
$FILLMODE
 70
     1
  9
$QTEXTMODE
 70
     0
  9
$MIRRTEXT
 70
     1
  9
$LTSCALE
 40
1.0
  9
$ATTMODE
 70
     1
  9
$TEXTSIZE
 40
0.2
  9
$TRACEWID
 40
0.05
  9
$TEXTSTYLE
  7
Standard
  9
$CLAYER
  8
0
  9
$CELTYPE
  6
ByLayer
  9
$CECOLOR
 62
   256
  9
$CELTSCALE
 40
1.0
  9
$DISPSILH
 70
     0
  9
$DIMSCALE
 40
1.0
  9
$DIMASZ
 40
0.18
  9
$DIMEXO
 40
0.0625
  9
$DIMDLI
 40
0.38
  9
$DIMRND
 40
0.0
  9
$DIMDLE
 40
0.0
  9
$DIMEXE
 40
0.18
  9
$DIMTP
 40
0.0
  9
$DIMTM
 40
0.0
  9
$DIMTXT
 40
0.18
  9
$DIMCEN
 40
0.09
  9
$DIMTSZ
 40
0.0
  9
$DIMTOL
 70
     0
  9
$DIMLIM
 70
     0
  9
$DIMTIH
 70
     1
  9
$DIMTOH
 70
     1
  9
$DIMSE1
 70
     0
  9
$DIMSE2
 70
     0
  9
$DIMTAD
 70
     0
  9
$DIMZIN
 70
     0
  9
$DIMBLK
  1

  9
$DIMASO
 70
     1
  9
$DIMSHO
 70
     1
  9
$DIMPOST
  1

  9
$DIMAPOST
  1

  9
$DIMALT
 70
     0
  9
$DIMALTD
 70
     2
  9
$DIMALTF
 40
25.4
  9
$DIMLFAC
 40
1.0
  9
$DIMTOFL
 70
     0
  9
$DIMTVP
 40
0.0
  9
$DIMTIX
 70
     0
  9
$DIMSOXD
 70
     0
  9
$DIMSAH
 70
     0
  9
$DIMBLK1
  1

  9
$DIMBLK2
  1

  9
$DIMSTYLE
  2
Standard
  9
$DIMCLRD
 70
     0
  9
$DIMCLRE
 70
     0
  9
$DIMCLRT
 70
     0
  9
$DIMTFAC
 40
1.0
  9
$DIMGAP
 40
0.09
  9
$DIMJUST
 70
     0
  9
$DIMSD1
 70
     0
  9
$DIMSD2
 70
     0
  9
$DIMTOLJ
 70
     1
  9
$DIMTZIN
 70
     0
  9
$DIMALTZ
 70
     0
  9
$DIMALTTZ
 70
     0
  9
$DIMUPT
 70
     0
  9
$DIMDEC
 70
     4
  9
$DIMTDEC
 70
     4
  9
$DIMALTU
 70
     2
  9
$DIMALTTD
 70
     2
  9
$DIMTXSTY
  7
Standard
  9
$DIMAUNIT
 70
     0
  9
$DIMADEC
 70
     0
  9
$DIMALTRND
 40
0.0
  9
$DIMAZIN
 70
     0
  9
$DIMDSEP
 70
    46
  9
$DIMATFIT
 70
     3
  9
$DIMFRAC
 70
     0
  9
$DIMLDRBLK
  1

  9
$DIMLUNIT
 70
     2
  9
$DIMLWD
 70
    -2
  9
$DIMLWE
 70
    -2
  9
$DIMTMOVE
 70
     0
  9
$LUNITS
 70
     2
  9
$LUPREC
 70
     4
  9
$SKETCHINC
 40
0.1
  9
$FILLETRAD
 40
0.5
  9
$AUNITS
 70
     0
  9
$AUPREC
 70
     0
  9
$MENU
  1
.
  9
$ELEVATION
 40
0.0
  9
$PELEVATION
 40
0.0
  9
$THICKNESS
 40
0.0
  9
$LIMCHECK
 70
     0
  9
$CHAMFERA
 40
0.5
  9
$CHAMFERB
 40
0.5
  9
$CHAMFERC
 40
1.0
  9
$CHAMFERD
 40
0.0
  9
$SKPOLY
 70
     0
  9
$TDCREATE
 40
2458442.426714132
  9
$TDUCREATE
 40
2458442.385047465
  9
$TDUPDATE
 40
2458442.426714502
  9
$TDUUPDATE
 40
2458442.385047836
  9
$TDINDWG
 40
0.0000000116
  9
$TDUSRTIMER
 40
0.0000000116
  9
$USRTIMER
 70
     1
  9
$ANGBASE
 50
0.0
  9
$ANGDIR
 70
     0
  9
$PDMODE
 70
     0
  9
$PDSIZE
 40
0.0
  9
$PLINEWID
 40
0.0
  9
$SPLFRAME
 70
     0
  9
$SPLINETYPE
 70
     6
  9
$SPLINESEGS
 70
     8
  9
$HANDSEED
  5
2A4
  9
$SURFTAB1
 70
     6
  9
$SURFTAB2
 70
     6
  9
$SURFTYPE
 70
     6
  9
$SURFU
 70
     6
  9
$SURFV
 70
     6
  9
$UCSBASE
  2

  9
$UCSNAME
  2

  9
$UCSORG
 10
0.0
 20
0.0
 30
0.0
  9
$UCSXDIR
 10
1.0
 20
0.0
 30
0.0
  9
$UCSYDIR
 10
0.0
 20
1.0
 30
0.0
  9
$UCSORTHOREF
  2

  9
$UCSORTHOVIEW
 70
     0
  9
$UCSORGTOP
 10
0.0
 20
0.0
 30
0.0
  9
$UCSORGBOTTOM
 10
0.0
 20
0.0
 30
0.0
  9
$UCSORGLEFT
 10
0.0
 20
0.0
 30
0.0
  9
$UCSORGRIGHT
 10
0.0
 20
0.0
 30
0.0
  9
$UCSORGFRONT
 10
0.0
 20
0.0
 30
0.0
  9
$UCSORGBACK
 10
0.0
 20
0.0
 30
0.0
  9
$PUCSBASE
  2

  9
$PUCSNAME
  2

  9
$PUCSORG
 10
0.0
 20
0.0
 30
0.0
  9
$PUCSXDIR
 10
1.0
 20
0.0
 30
0.0
  9
$PUCSYDIR
 10
0.0
 20
1.0
 30
0.0
  9
$PUCSORTHOREF
  2

  9
$PUCSORTHOVIEW
 70
     0
  9
$PUCSORGTOP
 10
0.0
 20
0.0
 30
0.0
  9
$PUCSORGBOTTOM
 10
0.0
 20
0.0
 30
0.0
  9
$PUCSORGLEFT
 10
0.0
 20
0.0
 30
0.0
  9
$PUCSORGRIGHT
 10
0.0
 20
0.0
 30
0.0
  9
$PUCSORGFRONT
 10
0.0
 20
0.0
 30
0.0
  9
$PUCSORGBACK
 10
0.0
 20
0.0
 30
0.0
  9
$USERI1
 70
     0
  9
$USERI2
 70
     0
  9
$USERI3
 70
     0
  9
$USERI4
 70
     0
  9
$USERI5
 70
     0
  9
$USERR1
 40
18.1
  9
$USERR2
 40
0.0
  9
$USERR3
 40
0.0
  9
$USERR4
 40
0.0
  9
$USERR5
 40
0.0
  9
$WORLDVIEW
 70
     1
  9
$SHADEDGE
 70
     3
  9
$SHADEDIF
 70
    70
  9
$TILEMODE
 70
     1
  9
$MAXACTVP
 70
    64
  9
$PINSBASE
 10
0.0
 20
0.0
 30
0.0
  9
$PLIMCHECK
 70
     0
  9
$PEXTMIN
 10
1.00000000000000E+20
 20
1.00000000000000E+20
 30
1.00000000000000E+20
  9
$PEXTMAX
 10
-1.00000000000000E+20
 20
-1.00000000000000E+20
 30
-1.00000000000000E+20
  9
$PLIMMIN
 10
0.0
 20
0.0
  9
$PLIMMAX
 10
12.0
 20
9.0
  9
$UNITMODE
 70
     0
  9
$VISRETAIN
 70
     1
  9
$PLINEGEN
 70
     0
  9
$PSLTSCALE
 70
     1
  9
$TREEDEPTH
 70
  3020
  9
$CMLSTYLE
  2
Standard
  9
$CMLJUST
 70
     0
  9
$CMLSCALE
 40
1.0
  9
$PROXYGRAPHICS
 70
     1
  9
$MEASUREMENT
 70
     1
  9
$CELWEIGHT
370
    -1
  9
$ENDCAPS
280
     0
  9
$JOINSTYLE
280
     0
  9
$LWDISPLAY
290
     0
  9
$INSUNITS
 70
     4
  9
$HYPERLINKBASE
  1

  9
$STYLESHEET
  1

  9
$XEDIT
290
     1
  9
$CEPSNTYPE
380
     0
  9
$PSTYLEMODE
290
     1
  9
$FINGERPRINTGUID
  2
{90EFD0E4-20CB-4B67-8BA6-11CB037704C8}
  9
$VERSIONGUID
  2
{FAEB1C32-E019-11D5-929B-00C0DF256EC4}
  9
$EXTNAMES
290
     1
  9
$PSVPSCALE
 40
0.0
  9
$OLESTARTUP
290
     0
  9
$SORTENTS
280
   127
  9
$INDEXCTL
280
     0
  9
$HIDETEXT
280
     1
  9
$XCLIPFRAME
290
     0
  9
$HALOGAP
280
     0
  9
$OBSCOLOR
 70
   257
  9
$OBSLTYPE
280
     0
  9
$INTERSECTIONDISPLAY
280
     0
  9
$INTERSECTIONCOLOR
 70
   257
  9
$DIMASSOC
280
     2
  9
$PROJECTNAME
  1

  0
ENDSEC
  0
SECTION
  2
CLASSES
  0
CLASS
  1
ACDBDICTIONARYWDFLT
  2
AcDbDictionaryWithDefault
  3
ObjectDBX Classes
 90
        0
 91
        4
280
     0
281
     0
  0
CLASS
  1
VISUALSTYLE
  2
AcDbVisualStyle
  3
ObjectDBX Classes
 90
     4095
 91
        4
280
     0
281
     0
  0
CLASS
  1
MATERIAL
  2
AcDbMaterial
  3
ObjectDBX Classes
 90
     1153
 91
        4
280
     0
281
     0
  0
ENDSEC
  0
SECTION
  2
TABLES
  0
TABLE
  2
VPORT
  5
8
330
0
100
AcDbSymbolTable
 70
     1
  0
VPORT
  5
29
330
8
100
AcDbSymbolTableRecord
100
AcDbViewportTableRecord
  2
*Active
 70
     0
 10
0.0
 20
0.0
 11
1.0
 21
1.0
 12
-657.977450465394
 22
-244.734604564263
 13
0.0
 23
0.0
 14
0.5
 24
0.5
 15
0.5
 25
0.5
 16
0.0
 26
0.0
 36
1.0
 17
0.0
 27
0.0
 37
0.0
 40
326.7
 41
1.60267857142857
 42
50.0
 43
0.0
 44
0.0
 50
0.0
 51
0.0
 71
     0
 72
   100
 73
     1
 74
     3
 75
     0
 76
     0
 77
     0
 78
     0
281
     0
 65
     1
110
0.0
120
0.0
130
0.0
111
1.0
121
0.0
131
0.0
112
0.0
122
1.0
132
0.0
 79
     0
146
0.0
  0
ENDTAB
  0
TABLE
  2
LTYPE
  5
5
330
0
100
AcDbSymbolTable
 70
     8
  0
LTYPE
  5
14
330
5
100
AcDbSymbolTableRecord
100
AcDbLinetypeTableRecord
  2
ByBlock
 70
     0
  3

 72
    65
 73
     0
 40
0.0
  0
LTYPE
  5
15
330
5
100
AcDbSymbolTableRecord
100
AcDbLinetypeTableRecord
  2
ByLayer
 70
     0
  3

 72
    65
 73
     0
 40
0.0
  0
LTYPE
  5
16
330
5
100
AcDbSymbolTableRecord
100
AcDbLinetypeTableRecord
  2
Continuous
 70
     0
  3
Solid line
 72
    65
 73
     0
 40
0.0
  0
LTYPE
  5
3F
330
5
100
AcDbSymbolTableRecord
100
AcDbLinetypeTableRecord
  2
DASHED
 70
     0
  3
Dashed
 72
    65
 73
     2
 40
15.0
 49
7.0
 74
     0
 49
-8.0
 74
     0
  0
LTYPE
  5
40
330
5
100
AcDbSymbolTableRecord
100
AcDbLinetypeTableRecord
  2
DOTTED
 70
     0
  3
Dotted
 72
    65
 73
     2
 40
1.0
 49
0.0
 74
     0
 49
-1.0
 74
     0
  0
LTYPE
  5
41
330
5
100
AcDbSymbolTableRecord
100
AcDbLinetypeTableRecord
  2
DOT_CENTER
 70
     0
  3
Dot_Center
 72
    65
 73
     4
 40
14.0
 49
12.0
 74
     0
 49
-1.0
 74
     0
 49
0.0
 74
     0
 49
-1.0
 74
     0
  0
LTYPE
  5
42
330
5
100
AcDbSymbolTableRecord
100
AcDbLinetypeTableRecord
  2
LONG_DASHED
 70
     0
  3
Long_Dashed
 72
    65
 73
     2
 40
15.0
 49
10.0
 74
     0
 49
-5.0
 74
     0
  0
LTYPE
  5
43
330
5
100
AcDbSymbolTableRecord
100
AcDbLinetypeTableRecord
  2
DASH_CENTER
 70
     0
  3
Dash_Center
 72
    65
 73
     4
 40
14.0
 49
11.0
 74
     0
 49
-1.0
 74
     0
 49
1.0
 74
     0
 49
-1.0
 74
     0
  0
LTYPE
  5
44
330
5
100
AcDbSymbolTableRecord
100
AcDbLinetypeTableRecord
  2
PHANTOM
 70
     0
  3
Phantom
 72
    65
 73
     6
 40
13.0
 49
10.0
 74
     0
 49
-1.0
 74
     0
 49
0.0
 74
     0
 49
-1.0
 74
     0
 49
0.0
 74
     0
 49
-1.0
 74
     0
  0
LTYPE
  5
45
330
5
100
AcDbSymbolTableRecord
100
AcDbLinetypeTableRecord
  2
CENTER_DASH_DASH
 70
     0
  3
Center_Dash_Dash
 72
    65
 73
     6
 40
14.0
 49
9.0
 74
     0
 49
-1.0
 74
     0
 49
1.0
 74
     0
 49
-1.0
 74
     0
 49
1.0
 74
     0
 49
-1.0
 74
     0
  0
ENDTAB
  0
TABLE
  2
LAYER
  5
2
330
0
100
AcDbSymbolTable
 70
     2
  0
LAYER
  5
10
330
2
100
AcDbSymbolTableRecord
100
AcDbLayerTableRecord
  2
0
 70
     0
 62
     7
  6
Continuous
370
    -3
390
F
  0
LAYER
  5
46
330
2
100
AcDbSymbolTableRecord
100
AcDbLayerTableRecord
  2
1
 70
     0
 62
     7
  6
Continuous
370
    -3
390
F
  0
ENDTAB
  0
TABLE
  2
STYLE
  5
3
330
0
100
AcDbSymbolTable
 70
     5
  0
STYLE
  5
11
330
3
100
AcDbSymbolTableRecord
100
AcDbTextStyleTableRecord
  2
Standard
 70
     0
 40
0.0
 41
1.0
 50
0.0
 71
     0
 42
0.2
  3
txt
  4

  0
STYLE
  5
A8
330
3
100
AcDbSymbolTableRecord
100
AcDbTextStyleTableRecord
  2
CONVERTER_11
 70
     0
 40
0.0
 41
0.9
 50
0.0
 71
     0
 42
0.2
  3
txt.shx
  4

  0
STYLE
  5
23C
330
3
100
AcDbSymbolTableRecord
100
AcDbTextStyleTableRecord
  2
CONVERTER_12
 70
     0
 40
0.0
 41
0.81
 50
0.0
 71
     0
 42
0.2
  3
txt.shx
  4

  0
STYLE
  5
244
330
3
100
AcDbSymbolTableRecord
100
AcDbTextStyleTableRecord
  2
CONVERTER_13
 70
     0
 40
0.0
 41
0.72
 50
0.0
 71
     0
 42
0.2
  3
txt.shx
  4

  0
STYLE
  5
247
330
3
100
AcDbSymbolTableRecord
100
AcDbTextStyleTableRecord
  2
CONVERTER_14
 70
     0
 40
0.0
 41
0.855
 50
0.0
 71
     0
 42
0.2
  3
txt.shx
  4

  0
ENDTAB
  0
TABLE
  2
VIEW
  5
6
330
0
100
AcDbSymbolTable
 70
     0
  0
ENDTAB
  0
TABLE
  2
UCS
  5
7
330
0
100
AcDbSymbolTable
 70
     0
  0
ENDTAB
  0
TABLE
  2
APPID
  5
9
330
0
100
AcDbSymbolTable
 70
     1
  0
APPID
  5
12
330
9
100
AcDbSymbolTableRecord
100
AcDbRegAppTableRecord
  2
ACAD
 70
     0
  0
ENDTAB
  0
TABLE
  2
DIMSTYLE
  5
A
330
0
100
AcDbSymbolTable
 70
     4
100
AcDbDimStyleTable
  0
DIMSTYLE
105
27
330
A
100
AcDbSymbolTableRecord
100
AcDbDimStyleTableRecord
  2
Standard
 70
     0
178
     0
340
11
  0
DIMSTYLE
105
CE
102
{ACAD_REACTORS
330
CF
102
}
330
A
100
AcDbSymbolTableRecord
100
AcDbDimStyleTableRecord
  2
ME10_DIM_10
 70
     0
 41
7.0
 42
0.0
 44
3.0
 73
     0
 74
     0
 77
     1
 78
     8
140
7.0
147
3.0
172
     1
173
     1
174
     1
175
     1
176
     2
177
     2
271
     1
178
     3
271
     1
340
A8
  0
DIMSTYLE
105
D9
102
{ACAD_REACTORS
330
DA
102
}
330
A
100
AcDbSymbolTableRecord
100
AcDbDimStyleTableRecord
  2
ME10_DIM_11
 70
     0
 41
7.0
 42
0.0
 44
3.0
 73
     0
 74
     0
 77
     1
 78
     8
140
7.0
147
3.0
172
     1
173
     1
174
     1
175
     1
176
     2
177
     2
271
     1
178
     3
271
     1
340
A8
  0
DIMSTYLE
105
12D
102
{ACAD_REACTORS
330
12E
102
}
330
A
100
AcDbSymbolTableRecord
100
AcDbDimStyleTableRecord
  2
ME10_DIM_12
 70
     0
 41
7.0
 42
0.0
 44
3.0
 73
     0
 74
     0
 77
     1
 78
     8
140
7.0
147
3.0
172
     1
173
     1
174
     1
175
     1
176
     2
177
     2
271
     1
178
     3
271
     1
340
A8
  0
ENDTAB
  0
TABLE
  2
BLOCK_RECORD
  5
1
330
0
100
AcDbSymbolTable
 70
    18
  0
BLOCK_RECORD
  5
1F
330
1
100
AcDbSymbolTableRecord
100
AcDbBlockTableRecord
  2
*Model_Space
340
22
  0
BLOCK_RECORD
  5
1B
330
1
100
AcDbSymbolTableRecord
100
AcDbBlockTableRecord
  2
*Paper_Space
340
1E
  0
BLOCK_RECORD
  5
23
330
1
100
AcDbSymbolTableRecord
100
AcDbBlockTableRecord
  2
*Paper_Space0
340
26
  0
BLOCK_RECORD
  5
47
330
1
100
AcDbSymbolTableRecord
100
AcDbBlockTableRecord
  2
CD_HF_60X80_BU-select__1
340
0
102
{BLKREFS
331
4B
102
}
  0
BLOCK_RECORD
  5
4A
330
1
100
AcDbSymbolTableRecord
100
AcDbBlockTableRecord
  2
Allg1
340
0
102
{BLKREFS
331
76
102
}
  0
BLOCK_RECORD
  5
4E
330
1
100
AcDbSymbolTableRecord
100
AcDbBlockTableRecord
  2
CD_HF_60X80_BU-select__2
340
0
102
{BLKREFS
331
52
102
}
  0
BLOCK_RECORD
  5
51
330
1
100
AcDbSymbolTableRecord
100
AcDbBlockTableRecord
  2
Drfsicht1
340
0
102
{BLKREFS
331
77
102
}
  0
BLOCK_RECORD
  5
55
330
1
100
AcDbSymbolTableRecord
100
AcDbBlockTableRecord
  2
CD_HF_60X80_BU-select__3
340
0
102
{BLKREFS
331
59
102
}
  0
BLOCK_RECORD
  5
58
330
1
100
AcDbSymbolTableRecord
100
AcDbBlockTableRecord
  2
SA_Links1
340
0
102
{BLKREFS
331
78
102
}
  0
BLOCK_RECORD
  5
5C
330
1
100
AcDbSymbolTableRecord
100
AcDbBlockTableRecord
  2
CD_HF_60X80_BU-select__4
340
0
102
{BLKREFS
331
60
102
}
  0
BLOCK_RECORD
  5
5F
330
1
100
AcDbSymbolTableRecord
100
AcDbBlockTableRecord
  2
SA_Rechts1
340
0
102
{BLKREFS
331
79
102
}
  0
BLOCK_RECORD
  5
63
330
1
100
AcDbSymbolTableRecord
100
AcDbBlockTableRecord
  2
CD_HF_60X80_BU-select__5
340
0
102
{BLKREFS
331
67
102
}
  0
BLOCK_RECORD
  5
66
330
1
100
AcDbSymbolTableRecord
100
AcDbBlockTableRecord
  2
Vordans1
340
0
102
{BLKREFS
331
7A
102
}
  0
BLOCK_RECORD
  5
6A
330
1
100
AcDbSymbolTableRecord
100
AcDbBlockTableRecord
  2
_rahmen
340
0
102
{BLKREFS
331
71
102
}
  0
BLOCK_RECORD
  5
6D
330
1
100
AcDbSymbolTableRecord
100
AcDbBlockTableRecord
  2
_punkt
340
0
102
{BLKREFS
331
72
102
}
  0
BLOCK_RECORD
  5
70
330
1
100
AcDbSymbolTableRecord
100
AcDbBlockTableRecord
  2
A3I_CS
340
0
102
{BLKREFS
331
7B
102
}
  0
BLOCK_RECORD
  5
75
330
1
100
AcDbSymbolTableRecord
100
AcDbBlockTableRecord
  2
1
340
0
102
{BLKREFS
331
7E
102
}
  0
BLOCK_RECORD
  5
C5
330
1
100
AcDbSymbolTableRecord
100
AcDbBlockTableRecord
  2
*D15
340
0
  0
BLOCK_RECORD
  5
D0
330
1
100
AcDbSymbolTableRecord
100
AcDbBlockTableRecord
  2
*D16
340
0
  0
BLOCK_RECORD
  5
124
330
1
100
AcDbSymbolTableRecord
100
AcDbBlockTableRecord
  2
*D17
340
0
  0
ENDTAB
  0
ENDSEC
  0
SECTION
  2
BLOCKS
  0
BLOCK
  5
20
330
1F
100
AcDbEntity
  8
0
100
AcDbBlockBegin
  2
*Model_Space
 70
     0
 10
0.0
 20
0.0
 30
0.0
  3
*Model_Space
  1

  0
ENDBLK
  5
21
330
1F
100
AcDbEntity
  8
0
100
AcDbBlockEnd
  0
BLOCK
  5
1C
330
1B
100
AcDbEntity
 67
     1
  8
0
100
AcDbBlockBegin
  2
*Paper_Space
 70
     0
 10
0.0
 20
0.0
 30
0.0
  3
*Paper_Space
  1

  0
ENDBLK
  5
1D
330
1B
100
AcDbEntity
 67
     1
  8
0
100
AcDbBlockEnd
  0
BLOCK
  5
24
330
23
100
AcDbEntity
  8
0
100
AcDbBlockBegin
  2
*Paper_Space0
 70
     0
 10
0.0
 20
0.0
 30
0.0
  3
*Paper_Space0
  1

  0
ENDBLK
  5
25
330
23
100
AcDbEntity
  8
0
100
AcDbBlockEnd
  0
BLOCK
  5
48
330
47
100
AcDbEntity
  8
0
100
AcDbBlockBegin
  2
CD_HF_60X80_BU-select__1
 70
     0
 10
-1077.519358113531
 20
-675.6862929907461
 30
0.0
  3
CD_HF_60X80_BU-select__1
  1

  0
LINE
  5
7F
330
47
100
AcDbEntity
  8
0
  6
Continuous
 62
     7
100
AcDbLine
 10
-1025.557833886465
 20
-675.6862929907461
 30
0.0
 11
-1025.557833886465
 21
-606.4042606879912
 31
0.0
  0
LINE
  5
80
330
47
100
AcDbEntity
  8
0
  6
Continuous
 62
     2
100
AcDbLine
 10
-958.4806409999987
 20
-614.3301954798948
 30
0.0
 11
-958.4806409999985
 21
-617.5957399365175
 31
0.0
  0
LINE
  5
81
330
47
100
AcDbEntity
  8
0
  6
Continuous
 62
     7
100
AcDbLine
 10
-1076.003813656909
 20
-593.3573051446139
 30
0.0
 11
-1027.073378343088
 21
-607.4823051446139
 31
0.0
  0
LINE
  5
82
330
47
100
AcDbEntity
  8
0
  6
Continuous
 62
     7
100
AcDbLine
 10
-1029.965038841483
 20
-650.2374999848539
 30
0.0
 11
-1031.715038841483
 21
-651.7530444414765
 31
0.0
  0
LINE
  5
83
330
47
100
AcDbEntity
  8
0
  6
Continuous
 62
     2
100
AcDbLine
 10
-1046.228178562298
 20
-660.3373365849977
 30
0.0
 11
-1046.228178562298
 21
-658.8217921283749
 31
0.0
  0
LINE
  5
84
330
47
100
AcDbEntity
  8
0
  6
Continuous
 62
     7
100
AcDbLine
 10
-1046.228178562298
 20
-658.8217921283749
 30
0.0
 11
-1049.978178562298
 21
-662.0693873925665
 31
0.0
  0
LINE
  5
85
330
47
100
AcDbEntity
  8
0
  6
Continuous
 62
     7
100
AcDbLine
 10
-1046.228178562298
 20
-660.3373365849977
 30
0.0
 11
-1049.978178562298
 21
-663.5849318491893
 31
0.0
  0
LINE
  5
86
330
47
100
AcDbEntity
  8
0
  6
Continuous
 62
     7
100
AcDbLine
 10
-1040.599013437699
 20
-660.4467921283749
 30
0.0
 11
-1044.349013437699
 21
-663.6943873925667
 31
0.0
  0
LINE
  5
87
330
47
100
AcDbEntity
  8
0
  6
Continuous
 62
     7
100
AcDbLine
 10
-1027.073378343088
 20
-673.7332485341235
 30
0.0
 11
-1076.003813656909
 21
-659.6082485341234
 31
0.0
  0
LINE
  5
88
330
47
100
AcDbEntity
  8
0
  6
Continuous
 62
     2
100
AcDbLine
 10
-1033.862153158513
 20
-650.6280444414765
 30
0.0
 11
-1033.862153158513
 21
-649.1124999848539
 31
0.0
  0
LINE
  5
89
330
47
100
AcDbEntity
  8
0
  6
Continuous
 62
     7
100
AcDbLine
 10
-1033.862153158513
 20
-650.6280444414765
 30
0.0
 11
-1035.363029274335
 21
-651.9278412857119
 31
0.0
  0
LINE
  5
8A
330
47
100
AcDbEntity
  8
0
  6
Continuous
 62
     2
100
AcDbLine
 10
-1035.612153158513
 20
-651.7530444414767
 30
0.0
 11
-1035.612153158513
 21
-650.6280444414765
 31
0.0
  0
LINE
  5
8B
330
47
100
AcDbEntity
  8
0
  6
Continuous
 62
     7
100
AcDbLine
 10
-1033.862153158513
 20
-649.1124999848539
 30
0.0
 11
-1035.612153158513
 21
-650.6280444414765
 31
0.0
  0
LINE
  5
8C
330
47
100
AcDbEntity
  8
0
  6
Continuous
 62
     7
100
AcDbLine
 10
-1076.003813656909
 20
-659.6082485341234
 30
0.0
 11
-1027.073378343088
 21
-617.2332485341235
 31
0.0
  0
LINE
  5
8D
330
47
100
AcDbEntity
  8
0
  6
Continuous
 62
     2
100
AcDbLine
 10
-958.4806409999987
 20
-557.8301954798948
 30
0.0
 11
-958.4806409999987
 21
-583.915804485551
 31
0.0
  0
LINE
  5
8E
330
47
100
AcDbEntity
  8
0
  6
Continuous
 62
     2
100
AcDbLine
 10
-958.4806409999987
 20
-583.915804485551
 30
0.0
 11
-958.4806409999987
 21
-585.4313489421738
 31
0.0
  0
LINE
  5
8F
330
47
100
AcDbEntity
  8
0
  6
Continuous
 62
     2
100
AcDbLine
 10
-958.4806409999987
 20
-585.4313489421738
 30
0.0
 11
-958.4806409999987
 21
-587.3599138193542
 31
0.0
  0
LINE
  5
90
330
47
100
AcDbEntity
  8
0
  6
Continuous
 62
     2
100
AcDbLine
 10
-958.4806409999987
 20
-587.3599138193542
 30
0.0
 11
-958.4806409999987
 21
-614.3301954798948
 31
0.0
  0
LINE
  5
91
330
47
100
AcDbEntity
  8
0
  6
Continuous
 62
     7
100
AcDbLine
 10
-1076.003813656909
 20
-593.3573051446139
 30
0.0
 11
-1076.003813656909
 21
-659.6082485341234
 31
0.0
  0
LINE
  5
92
330
47
100
AcDbEntity
  8
0
  6
Continuous
 62
     7
100
AcDbLine
 10
-1027.073378343088
 20
-673.7332485341235
 30
0.0
 11
-1027.073378343088
 21
-607.4823051446139
 31
0.0
  0
LINE
  5
93
330
47
100
AcDbEntity
  8
0
  6
Continuous
 62
     7
100
AcDbLine
 10
-958.4806409999985
 20
-548.3137076337623
 30
0.0
 11
-1025.557833886465
 21
-606.4042606879912
 31
0.0
  0
LINE
  5
94
330
47
100
AcDbEntity
  8
0
  6
Continuous
 62
     7
100
AcDbLine
 10
-958.4806409999985
 20
-617.5957399365175
 30
0.0
 11
-1025.557833886465
 21
-675.6862929907461
 31
0.0
  0
LINE
  5
95
330
47
100
AcDbEntity
  8
0
  6
Continuous
 62
     7
100
AcDbLine
 10
-1077.519358113531
 20
-660.6862929907461
 30
0.0
 11
-1077.519358113531
 21
-591.4042606879912
 31
0.0
  0
LINE
  5
96
330
47
100
AcDbEntity
  8
0
  6
Continuous
 62
     2
100
AcDbLine
 10
-1049.978178562298
 20
-663.5849318491893
 30
0.0
 11
-1049.978178562298
 21
-662.0693873925665
 31
0.0
  0
LINE
  5
97
330
47
100
AcDbEntity
  8
0
  6
Continuous
 62
     7
100
AcDbLine
 10
-1025.557833886465
 20
-675.6862929907461
 30
0.0
 11
-1077.519358113531
 21
-660.6862929907461
 31
0.0
  0
LINE
  5
98
330
47
100
AcDbEntity
  8
0
  6
Continuous
 62
     7
100
AcDbLine
 10
-1077.519358113531
 20
-591.4042606879912
 30
0.0
 11
-1025.557833886465
 21
-606.4042606879912
 31
0.0
  0
LINE
  5
99
330
47
100
AcDbEntity
  8
0
  6
Continuous
 62
     2
100
AcDbLine
 10
-958.4806409999986
 20
-488.3137076337624
 30
0.0
 11
-958.4806409999987
 21
-491.5792520903853
 31
0.0
  0
LINE
  5
9A
330
47
100
AcDbEntity
  8
0
  6
Continuous
 62
     2
100
AcDbLine
 10
-958.4806409999985
 20
-548.3137076337623
 30
0.0
 11
-958.4806409999987
 21
-557.8301954798948
 31
0.0
  0
LINE
  5
9B
330
47
100
AcDbEntity
  8
0
  6
Continuous
 62
     2
100
AcDbLine
 10
-958.4806409999987
 20
-491.5792520903853
 30
0.0
 11
-958.4806409999985
 21
-548.3137076337623
 31
0.0
  0
LINE
  5
9C
330
47
100
AcDbEntity
  8
0
  6
Continuous
 62
     7
100
AcDbLine
 10
-1077.519358113531
 20
-591.4042606879912
 30
0.0
 11
-958.4806409999986
 21
-488.3137076337624
 31
0.0
  0
SPLINE
  5
9D
330
47
100
AcDbEntity
  8
0
  6
Continuous
 62
     7
100
AcDbSpline
210
0.0
220
0.0
230
1.0
 70
     8
 71
     3
 72
     9
 73
     5
 74
     3
 42
0.000000001
 43
0.0000000001
 44
0.00000001
 40
0.0
 40
0.0
 40
0.0
 40
0.0
 40
0.3523396136120493
 40
0.653435368583804
 40
0.653435368583804
 40
0.653435368583804
 40
0.653435368583804
 10
-1029.965038841483
 20
-650.2374999848539
 30
0.0
 10
-1029.8779760968
 20
-650.15329375263
 30
0.0
 10
-1029.716512926776
 20
-649.9971281331336
 30
0.0
 10
-1029.68028802412
 20
-649.7766115694329
 30
0.0
 10
-1029.663595999998
 20
-649.6749999848538
 30
0.0
 11
-1029.965038841483
 21
-650.2374999848539
 31
0.0
 11
-1029.740263470271
 21
-649.9661713329662
 31
0.0
 11
-1029.663595999998
 21
-649.6749999848538
 31
0.0
  0
SPLINE
  5
9E
330
47
100
AcDbEntity
  8
0
  6
Continuous
 62
     7
100
AcDbSpline
210
0.0
220
0.0
230
1.0
 70
     8
 71
     3
 72
    15
 73
    11
 74
     9
 42
0.000000001
 43
0.0000000001
 44
0.00000001
 40
0.0
 40
0.0
 40
0.0
 40
0.0
 40
0.4342296602633523
 40
0.9202079091853111
 40
1.440713452572252
 40
1.974649303019149
 40
2.49954283649623
 40
2.993840858981685
 40
3.439336984049261
 40
3.824190955645884
 40
3.824190955645884
 40
3.824190955645884
 40
3.824190955645884
 10
-1030.214162725661
 20
-650.4532475972416
 30
0.0
 10
-1030.344202368632
 20
-650.3889068945193
 30
0.0
 10
-1030.619778917054
 20
-650.2525578104982
 30
0.0
 10
-1031.08834440849
 20
-650.1342341369805
 30
0.0
 10
-1031.5979165215
 20
-650.0658018811625
 30
0.0
 10
-1032.125656252711
 20
-650.0603597607624
 30
0.0
 10
-1032.642080764698
 20
-650.1146899155741
 30
0.0
 10
-1033.117110811909
 20
-650.2296039188982
 30
0.0
 10
-1033.533585613873
 20
-650.388583778118
 30
0.0
 10
-1033.75809613316
 20
-650.5522074719836
 30
0.0
 10
-1033.862153158513
 20
-650.6280444414765
 30
0.0
 11
-1030.214162725661
 21
-650.4532475972416
 31
0.0
 11
-1030.609559914299
 21
-650.2737581568143
 31
0.0
 11
-1031.078421882387
 21
-650.1459172121176
 31
0.0
 11
-1031.594335092913
 21
-650.0769274793897
 31
0.0
 11
-1032.128234333414
 21
-650.0706749863806
 31
0.0
 11
-1032.650041484314
 21
-650.1275126300508
 31
0.0
 11
-1033.130359902138
 21
-650.2442377250193
 31
0.0
 11
-1033.542129436391
 21
-650.4142749447274
 31
0.0
 11
-1033.862153158513
 21
-650.6280444414765
 31
0.0
  0
SPLINE
  5
9F
330
47
100
AcDbEntity
  8
0
  6
Continuous
 62
     7
100
AcDbSpline
210
0.0
220
0.0
230
1.0
 70
     8
 71
     3
 72
    17
 73
    13
 74
    11
 42
0.000000001
 43
0.0000000001
 44
0.00000001
 40
0.0
 40
0.0
 40
0.0
 40
0.0
 40
0.301095748181313
 40
0.6534353638501496
 40
1.080215195177948
 40
1.579324525617203
 40
2.133497731274385
 40
2.717100756977011
 40
3.300703782456611
 40
3.854876987204727
 40
4.353986318250617
 40
4.780766155251841
 40
4.780766155251841
 40
4.780766155251841
 40
4.780766155251841
 10
-1029.663595999998
 20
-649.6749999848538
 30
0.0
 10
-1029.680740502595
 20
-649.5741839176007
 30
0.0
 10
-1029.717947363396
 20
-649.3553937737558
 30
0.0
 10
-1029.975921947794
 20
-649.0815041434797
 30
0.0
 10
-1030.336494508871
 20
-648.8546478271235
 30
0.0
 10
-1030.803018013393
 20
-648.6824085849047
 30
0.0
 10
-1031.339282160149
 20
-648.5743135379943
 30
0.0
 10
-1031.913512370357
 20
-648.5376566244271
 30
0.0
 10
-1032.488235872955
 20
-648.5738149452578
 30
0.0
 10
-1033.023140090782
 20
-648.6842088566368
 30
0.0
 10
-1033.493914290548
 20
-648.8489957265615
 30
0.0
 10
-1033.745970322462
 20
-649.0293619010989
 30
0.0
 10
-1033.862153158513
 20
-649.1124999848539
 30
0.0
 11
-1029.663595999998
 21
-649.6749999848538
 31
0.0
 11
-1029.740263470271
 21
-649.3838286367414
 31
0.0
 11
-1029.965038841483
 21
-649.1124999848538
 31
0.0
 11
-1030.322606166496
 21
-648.8795050681025
 31
0.0
 11
-1030.788595999999
 21
-648.7007214055964
 31
0.0
 11
-1031.331253303774
 21
-648.5883337199903
 31
0.0
 11
-1031.913595999999
 21
-648.5499999848539
 31
0.0
 11
-1032.495938696223
 21
-648.5883337199903
 31
0.0
 11
-1033.038595999999
 21
-648.7007214055965
 31
0.0
 11
-1033.504585833501
 21
-648.8795050681028
 31
0.0
 11
-1033.862153158513
 21
-649.1124999848539
 31
0.0
  0
SPLINE
  5
A0
330
47
100
AcDbEntity
  8
0
  6
Continuous
 62
     7
100
AcDbSpline
210
0.0
220
0.0
230
1.0
 70
     8
 71
     3
 72
     9
 73
     5
 74
     3
 42
0.000000001
 43
0.0000000001
 44
0.00000001
 40
0.0
 40
0.0
 40
0.0
 40
0.0
 40
0.5089349983973639
 40
0.9438510898696613
 40
0.9438510898696613
 40
0.9438510898696613
 40
0.9438510898696613
 10
-1049.978178562298
 20
-662.0693873925665
 30
0.0
 10
-1050.10393586041
 20
-662.1910186171189
 30
0.0
 10
-1050.337160447026
 20
-662.4165911744767
 30
0.0
 10
-1050.389485298435
 20
-662.7351151034067
 30
0.0
 10
-1050.413595999998
 20
-662.8818873925666
 30
0.0
 11
-1049.978178562298
 21
-662.0693873925665
 31
0.0
 11
-1050.302854098493
 21
-662.4613065564043
 31
0.0
 11
-1050.413595999998
 21
-662.8818873925666
 31
0.0
  0
SPLINE
  5
A1
330
47
100
AcDbEntity
  8
0
  6
Continuous
 62
     7
100
AcDbSpline
210
0.0
220
0.0
230
1.0
 70
     8
 71
     3
 72
    17
 73
    13
 74
    11
 42
0.000000001
 43
0.0000000001
 44
0.00000001
 40
0.0
 40
0.0
 40
0.0
 40
0.0
 40
0.4810263789819061
 40
1.034408826619928
 40
1.650699156731791
 40
2.313226836335502
 40
3.000993563198556
 40
3.690881866449715
 40
4.359602684510254
 40
4.985623879398555
 40
5.551307984633775
 40
6.045638958613335
 40
6.045638958613335
 40
6.045638958613335
 40
6.045638958613335
 10
-1040.538595999998
 20
-660.3920643566864
 30
0.0
 10
-1040.663771797519
 20
-660.290968911475
 30
0.0
 10
-1040.932952369035
 20
-660.0735712454521
 30
0.0
 10
-1041.439393837362
 20
-659.8460267939289
 30
0.0
 10
-1042.023888807976
 20
-659.6669435606469
 30
0.0
 10
-1042.671763979905
 20
-659.5554909838829
 30
0.0
 10
-1043.351675103382
 20
-659.5129632299004
 30
0.0
 10
-1044.03434372728
 20
-659.542599938314
 30
0.0
 10
-1044.690218064742
 20
-659.6417585277155
 30
0.0
 10
-1045.287846755246
 20
-659.809606473666
 30
0.0
 10
-1045.810908322283
 20
-660.0274673119516
 30
0.0
 10
-1046.095473494325
 20
-660.2387883960143
 30
0.0
 10
-1046.228178562298
 20
-660.3373365849977
 30
0.0
 11
-1040.538595999998
 21
-660.3920643566864
 31
0.0
 11
-1040.924542347685
 21
-660.104954980503
 31
0.0
 11
-1041.423289705385
 21
-659.8651984206083
 31
0.0
 11
-1042.012236030597
 21
-659.6836605561818
 31
0.0
 11
-1042.664690356047
 21
-659.5685680802478
 31
0.0
 11
-1043.351084440431
 21
-659.5251373313928
 31
0.0
 11
-1044.040311475825
 21
-659.555336058786
 31
0.0
 11
-1044.70113630549
 21
-659.6577961770772
 31
0.0
 11
-1045.303611309407
 21
-659.8278738273718
 31
0.0
 11
-1045.820432446905
 21
-660.0578616915615
 31
0.0
 11
-1046.228178562298
 21
-660.3373365849977
 31
0.0
  0
SPLINE
  5
A2
330
47
100
AcDbEntity
  8
0
  6
Continuous
 62
     7
100
AcDbSpline
210
0.0
220
0.0
230
1.0
 70
     8
 71
     3
 72
     9
 73
     5
 74
     3
 42
0.000000001
 43
0.0000000001
 44
0.00000001
 40
0.0
 40
0.0
 40
0.0
 40
0.0
 40
0.5089349983974789
 40
0.9438510898700019
 40
0.9438510898700019
 40
0.9438510898700019
 40
0.9438510898700019
 10
-1040.599013437699
 20
-660.4467921283749
 30
0.0
 10
-1040.473256139587
 20
-660.3251609038226
 30
0.0
 10
-1040.240031552971
 20
-660.0995883464649
 30
0.0
 10
-1040.187706701561
 20
-659.7810644175346
 30
0.0
 10
-1040.163595999998
 20
-659.6342921283749
 30
0.0
 11
-1040.599013437699
 21
-660.4467921283749
 31
0.0
 11
-1040.274337901503
 21
-660.0548729645373
 31
0.0
 11
-1040.163595999998
 21
-659.6342921283749
 31
0.0
  0
SPLINE
  5
A3
330
47
100
AcDbEntity
  8
0
  6
Continuous
 62
     7
100
AcDbSpline
210
0.0
220
0.0
230
1.0
 70
     8
 71
     3
 72
    17
 73
    13
 74
    11
 42
0.000000001
 43
0.0000000001
 44
0.00000001
 40
0.0
 40
0.0
 40
0.0
 40
0.0
 40
0.4349160846819076
 40
0.943851085135681
 40
1.560310840832026
 40
2.281246539988455
 40
3.081718947898715
 40
3.924701095940191
 40
4.767683243758875
 40
5.568155650759801
 40
6.289091350522956
 40
6.905551111892278
 40
6.905551111892278
 40
6.905551111892278
 40
6.905551111892278
 10
-1050.413595999998
 20
-662.8818873925666
 30
0.0
 10
-1050.388831718243
 20
-663.0275106021522
 30
0.0
 10
-1050.335088479504
 20
-663.3435408135349
 30
0.0
 10
-1049.962458512921
 20
-663.7391591612998
 30
0.0
 10
-1049.441631483576
 20
-664.0668405088127
 30
0.0
 10
-1048.767764198407
 20
-664.3156305239804
 30
0.0
 10
-1047.993160431416
 20
-664.4717678138506
 30
0.0
 10
-1047.163716794578
 20
-664.5247166884982
 30
0.0
 10
-1046.333560624015
 20
-664.4724880031034
 30
0.0
 10
-1045.560921199284
 20
-664.3130301297372
 30
0.0
 10
-1044.880914019932
 20
-664.0750046580023
 30
0.0
 10
-1044.516833088905
 20
-663.8144757351474
 30
0.0
 10
-1044.349013437699
 20
-663.6943873925667
 30
0.0
 11
-1050.413595999998
 21
-662.8818873925666
 31
0.0
 11
-1050.302854098493
 21
-663.3024682287289
 31
0.0
 11
-1049.978178562298
 21
-663.6943873925666
 31
0.0
 11
-1049.461692426169
 21
-664.0309356056517
 31
0.0
 11
-1048.788595999998
 21
-664.2891786737164
 31
0.0
 11
-1048.004757672323
 21
-664.4515164418142
 31
0.0
 11
-1047.163595999998
 21
-664.5068873925667
 31
0.0
 11
-1046.322434327673
 21
-664.4515164418141
 31
0.0
 11
-1045.538595999998
 21
-664.2891786737164
 31
0.0
 11
-1044.865499573828
 21
-664.0309356056518
 31
0.0
 11
-1044.349013437699
 21
-663.6943873925667
 31
0.0
  0
SPLINE
  5
A4
330
47
100
AcDbEntity
  8
0
  6
Continuous
 62
     7
100
AcDbSpline
210
0.0
220
0.0
230
1.0
 70
     8
 71
     3
 72
     9
 73
     5
 74
     3
 42
0.000000001
 43
0.0000000001
 44
0.00000001
 40
0.0
 40
0.0
 40
0.0
 40
0.0
 40
0.3523396136124269
 40
0.6534353685841238
 40
0.6534353685841238
 40
0.6534353685841238
 40
0.6534353685841238
 10
-1035.612153158513
 20
-650.6280444414765
 30
0.0
 10
-1035.699215903195
 20
-650.7122506737003
 30
0.0
 10
-1035.860679073221
 20
-650.868416293197
 30
0.0
 10
-1035.896903975876
 20
-651.0889328568974
 30
0.0
 10
-1035.913595999998
 20
-651.1905444414767
 30
0.0
 11
-1035.612153158513
 21
-650.6280444414765
 31
0.0
 11
-1035.836928529726
 21
-650.8993730933644
 31
0.0
 11
-1035.913595999998
 21
-651.1905444414767
 31
0.0
  0
SPLINE
  5
A5
330
47
100
AcDbEntity
  8
0
  6
Continuous
 62
     7
100
AcDbSpline
210
0.0
220
0.0
230
1.0
 70
     8
 71
     3
 72
    17
 73
    13
 74
    11
 42
0.000000001
 43
0.0000000001
 44
0.00000001
 40
0.0
 40
0.0
 40
0.0
 40
0.0
 40
0.4349160846819135
 40
0.9438510851360646
 40
1.560310840832028
 40
2.281246539987952
 40
3.081718947897989
 40
3.924701095939699
 40
4.767683243758157
 40
5.568155650759327
 40
6.289091350522654
 40
6.905551111892547
 40
6.905551111892547
 40
6.905551111892547
 40
6.905551111892547
 10
-1040.163595999998
 20
-659.6342921283749
 30
0.0
 10
-1040.188360281752
 20
-659.4886689187891
 30
0.0
 10
-1040.242103520493
 20
-659.1726387074067
 30
0.0
 10
-1040.614733487076
 20
-658.7770203596417
 30
0.0
 10
-1041.13556051642
 20
-658.4493390121286
 30
0.0
 10
-1041.809427801589
 20
-658.2005489969615
 30
0.0
 10
-1042.584031568581
 20
-658.0444117070913
 30
0.0
 10
-1043.413475205418
 20
-657.9914628324431
 30
0.0
 10
-1044.243631375981
 20
-658.0436915178384
 30
0.0
 10
-1045.016270800712
 20
-658.2031493912044
 30
0.0
 10
-1045.696277980065
 20
-658.4411748629398
 30
0.0
 10
-1046.060358911091
 20
-658.7017037857938
 30
0.0
 10
-1046.228178562298
 20
-658.8217921283749
 30
0.0
 11
-1040.163595999998
 21
-659.6342921283749
 31
0.0
 11
-1040.274337901503
 21
-659.2137112922127
 31
0.0
 11
-1040.599013437699
 21
-658.8217921283749
 31
0.0
 11
-1041.115499573828
 21
-658.4852439152897
 31
0.0
 11
-1041.788595999998
 21
-658.2270008472253
 31
0.0
 11
-1042.572434327673
 21
-658.0646630791275
 31
0.0
 11
-1043.413595999998
 21
-658.0092921283749
 31
0.0
 11
-1044.254757672323
 21
-658.0646630791275
 31
0.0
 11
-1045.038595999998
 21
-658.2270008472253
 31
0.0
 11
-1045.711692426169
 21
-658.4852439152897
 31
0.0
 11
-1046.228178562298
 21
-658.8217921283749
 31
0.0
  0
SPLINE
  5
A6
330
47
100
AcDbEntity
  8
0
  6
Continuous
 62
     7
100
AcDbSpline
210
0.0
220
0.0
230
1.0
 70
     8
 71
     3
 72
    17
 73
    13
 74
    11
 42
0.000000001
 43
0.0000000001
 44
0.00000001
 40
0.0
 40
0.0
 40
0.0
 40
0.0
 40
0.3010957481813072
 40
0.6534353638501437
 40
1.080215195178324
 40
1.579324525617154
 40
2.133497731274558
 40
2.717100756976957
 40
3.300703782456557
 40
3.854876987204673
 40
4.353986318250988
 40
4.780766155252527
 40
4.780766155252527
 40
4.780766155252527
 40
4.780766155252527
 10
-1035.913595999998
 20
-651.1905444414767
 30
0.0
 10
-1035.896451497402
 20
-651.29136050873
 30
0.0
 10
-1035.859244636601
 20
-651.5101506525746
 30
0.0
 10
-1035.601270052202
 20
-651.7840402828509
 30
0.0
 10
-1035.240697491126
 20
-652.0108965992071
 30
0.0
 10
-1034.774173986603
 20
-652.183135841426
 30
0.0
 10
-1034.237909839848
 20
-652.2912308883365
 30
0.0
 10
-1033.66367962964
 20
-652.3278878019034
 30
0.0
 10
-1033.088956127042
 20
-652.2917294810727
 30
0.0
 10
-1032.554051909214
 20
-652.1813355696938
 30
0.0
 10
-1032.083277709448
 20
-652.0165486997694
 30
0.0
 10
-1031.831221677534
 20
-651.8361825252317
 30
0.0
 10
-1031.715038841483
 20
-651.7530444414765
 30
0.0
 11
-1035.913595999998
 21
-651.1905444414767
 31
0.0
 11
-1035.836928529726
 21
-651.4817157895892
 31
0.0
 11
-1035.612153158513
 21
-651.7530444414768
 31
0.0
 11
-1035.2545858335
 21
-651.9860393582281
 31
0.0
 11
-1034.788595999998
 21
-652.1648230207343
 31
0.0
 11
-1034.245938696223
 21
-652.2772107063404
 31
0.0
 11
-1033.663595999998
 21
-652.3155444414767
 31
0.0
 11
-1033.081253303773
 21
-652.2772107063404
 31
0.0
 11
-1032.538595999998
 21
-652.1648230207342
 31
0.0
 11
-1032.072606166495
 21
-651.9860393582278
 31
0.0
 11
-1031.715038841483
 21
-651.7530444414765
 31
0.0
  0
SPLINE
  5
A7
330
47
100
AcDbEntity
  8
0
  6
Continuous
 62
     7
100
AcDbSpline
210
0.0
220
0.0
230
1.0
 70
     8
 71
     3
 72
     9
 73
     5
 74
     3
 42
0.000000001
 43
0.0000000001
 44
0.00000001
 40
0.0
 40
0.0
 40
0.0
 40
0.0
 40
0.0410548263130315
 40
0.08152451193056
 40
0.08152451193056
 40
0.08152451193056
 40
0.08152451193056
 10
-1049.978178562298
 20
-663.5849318491893
 30
0.0
 10
-1049.988475931403
 20
-663.5939469498401
 30
0.0
 10
-1050.008923891314
 20
-663.6118486768253
 30
0.0
 10
-1050.028752741979
 20
-663.6304337660273
 30
0.0
 10
-1050.038595999998
 20
-663.639659620878
 30
0.0
 11
-1049.978178562298
 21
-663.5849318491893
 31
0.0
 11
-1050.008913655779
 21
-663.612150460498
 31
0.0
 11
-1050.038595999998
 21
-663.639659620878
 31
0.0
  0
ENDBLK
  5
49
330
47
100
AcDbEntity
  8
0
100
AcDbBlockEnd
  0
BLOCK
  5
4C
330
4A
100
AcDbEntity
  8
0
100
AcDbBlockBegin
  2
Allg1
 70
     0
 10
-552.2885959999993
 20
-201.182094
 30
0.0
  3
Allg1
  1

  0
INSERT
  5
4B
330
4A
100
AcDbEntity
  8
0
100
AcDbBlockReference
  2
CD_HF_60X80_BU-select__1
 10
-1077.519358113531
 20
-675.6862929907461
 30
0.0
  0
MTEXT
  5
A9
330
4A
100
AcDbEntity
  8
1
 62
     6
100
AcDbMText
 10
-1017.99999959461
 20
-698.5110520435845
 30
0.0
 40
10.0
 41
0.0
 71
     2
 72
     1
  1
 
  7
CONVERTER_11
 73
     1
 44
1.32052821128451
  0
ENDBLK
  5
4D
330
4A
100
AcDbEntity
  8
0
100
AcDbBlockEnd
  0
BLOCK
  5
4F
330
4E
100
AcDbEntity
  8
0
100
AcDbBlockBegin
  2
CD_HF_60X80_BU-select__2
 70
     0
 10
-1495.416438999998
 20
-521.449978
 30
0.0
  3
CD_HF_60X80_BU-select__2
  1

  0
LINE
  5
AA
330
4E
100
AcDbEntity
  8
0
  6
Continuous
 62
     7
100
AcDbLine
 10
-1091.416438999998
 20
-521.4499779999871
 30
0.0
 11
-1091.416438999998
 21
-441.4499779999871
 31
0.0
  0
LINE
  5
AB
330
4E
100
AcDbEntity
  8
0
  6
Continuous
 62
     7
100
AcDbLine
 10
-1091.416438999998
 20
-441.4499779999871
 30
0.0
 11
-1292.557361999977
 21
-441.4499779999794
 31
0.0
  0
LINE
  5
AC
330
4E
100
AcDbEntity
  8
0
  6
Continuous
 62
     7
100
AcDbLine
 10
-1495.416438999998
 20
-521.4499779999871
 30
0.0
 11
-1495.416438999998
 21
-441.4499779999871
 31
0.0
  0
LINE
  5
AD
330
4E
100
AcDbEntity
  8
0
  6
Continuous
 62
     7
100
AcDbLine
 10
-1296.557361999998
 20
-441.449978
 30
0.0
 11
-1495.416438999998
 21
-441.4499779999871
 31
0.0
  0
LINE
  5
AE
330
4E
100
AcDbEntity
  8
0
  6
Continuous
 62
     7
100
AcDbLine
 10
-1091.416438999998
 20
-521.4499779999871
 30
0.0
 11
-1292.557361999985
 21
-521.4499779999871
 31
0.0
  0
LINE
  5
AF
330
4E
100
AcDbEntity
  8
0
  6
Continuous
 62
     7
100
AcDbLine
 10
-1296.557361999998
 20
-521.449978
 30
0.0
 11
-1495.416438999998
 21
-521.4499779999871
 31
0.0
  0
SPLINE
  5
B0
330
4E
100
AcDbEntity
  8
0
  6
Continuous
 62
     2
100
AcDbSpline
210
0.0
220
0.0
230
1.0
 70
     8
 71
     3
 72
    39
 73
    35
 74
    33
 42
0.000000001
 43
0.0000000001
 44
0.00000001
 40
0.0
 40
0.0
 40
0.0
 40
0.0
 40
2.795084976333709
 40
5.59016994820692
 40
8.38525492008176
 40
11.1803398919566
 40
13.97542486383154
 40
16.77050983570628
 40
19.56559480758112
 40
22.36067977945596
 40
25.15576475133074
 40
27.95084972320543
 40
30.74593469508022
 40
33.54101966695511
 40
36.33610463882984
 40
39.13118961070458
 40
41.92627458257927
 40
44.72135954999926
 40
47.51644451738451
 40
50.31152948925915
 40
53.10661446113389
 40
55.90169943300862
 40
58.69678440488336
 40
61.4918693767581
 40
64.28695434863278
 40
67.08203932050756
 40
69.8771242923823
 40
72.67220926425705
 40
75.46729423613179
 40
78.26237920800654
 40
81.05746417988128
 40
83.85254915175602
 40
86.647634123633
 40
89.44271910000067
 40
89.44271910000067
 40
89.44271910000067
 40
89.44271910000067
 10
-1292.557361999985
 20
-521.4499779999871
 30
0.0
 10
-1291.93236199899
 20
-520.6166446653233
 30
0.0
 10
-1290.682361985748
 20
-518.949978003182
 30
0.0
 10
-1292.55736199087
 20
-516.4499779995028
 30
0.0
 10
-1294.432361989765
 20
-513.949978000133
 30
0.0
 10
-1292.55736199006
 20
-511.4499779999642
 30
0.0
 10
-1290.682361989981
 20
-508.9499780000094
 30
0.0
 10
-1292.557361990003
 20
-506.4499779999974
 30
0.0
 10
-1294.432361989997
 20
-503.9499780000007
 30
0.0
 10
-1292.557361989998
 20
-501.4499779999996
 30
0.0
 10
-1290.682361989998
 20
-498.9499780000004
 30
0.0
 10
-1292.55736199
 20
-496.4499779999985
 30
0.0
 10
-1294.43236198999
 20
-493.9499780000054
 30
0.0
 10
-1292.557361990029
 20
-491.4499779999793
 30
0.0
 10
-1290.682361989881
 20
-488.9499780000776
 30
0.0
 10
-1292.557361990434
 20
-486.4499779997104
 30
0.0
 10
-1294.432361987375
 20
-483.9499780024088
 30
0.0
 10
-1292.557362000062
 20
-481.4499779999621
 30
0.0
 10
-1290.68236201259
 20
-478.9499779975984
 30
0.0
 10
-1292.557362009572
 20
-476.4499780002848
 30
0.0
 10
-1294.432362010112
 20
-473.9499779999236
 30
0.0
 10
-1292.557362009967
 20
-471.4499780000206
 30
0.0
 10
-1290.682362010006
 20
-468.9499779999945
 30
0.0
 10
-1292.557362009996
 20
-466.4499780000015
 30
0.0
 10
-1294.432362009999
 20
-463.9499779999996
 30
0.0
 10
-1292.557362009998
 20
-461.4499780000003
 30
0.0
 10
-1290.682362009999
 20
-458.9499779999994
 30
0.0
 10
-1292.557362009993
 20
-456.4499780000025
 30
0.0
 10
-1294.432362010015
 20
-453.9499779999904
 30
0.0
 10
-1292.557362009936
 20
-451.4499780000358
 30
0.0
 10
-1290.682362010231
 20
-448.9499779998664
 30
0.0
 10
-1292.55736200913
 20
-446.4499780004982
 30
0.0
 10
-1294.432362014243
 20
-443.9499779967977
 30
0.0
 10
-1293.182362000984
 20
-442.2833113346506
 30
0.0
 10
-1292.557361999977
 20
-441.4499779999794
 30
0.0
 11
-1292.557361999985
 21
-521.4499779999871
 31
0.0
 11
-1291.307361999995
 21
-518.9499779999968
 31
0.0
 11
-1292.557361999998
 21
-516.449978
 31
0.0
 11
-1293.807361999998
 21
-513.949978
 31
0.0
 11
-1292.557361999998
 21
-511.449978
 31
0.0
 11
-1291.307361999998
 21
-508.9499779999999
 31
0.0
 11
-1292.557361999998
 21
-506.449978
 31
0.0
 11
-1293.807361999998
 21
-503.949978
 31
0.0
 11
-1292.557361999998
 21
-501.449978
 31
0.0
 11
-1291.307361999998
 21
-498.9499779999999
 31
0.0
 11
-1292.557361999998
 21
-496.449978
 31
0.0
 11
-1293.807361999998
 21
-493.949978
 31
0.0
 11
-1292.557361999998
 21
-491.449978
 31
0.0
 11
-1291.307361999998
 21
-488.949978
 31
0.0
 11
-1292.557361999998
 21
-486.449978
 31
0.0
 11
-1293.807361999998
 21
-483.949978
 31
0.0
 11
-1292.557361999998
 21
-481.449978
 31
0.0
 11
-1291.307361999998
 21
-478.949978
 31
0.0
 11
-1292.557361999998
 21
-476.449978
 31
0.0
 11
-1293.807361999998
 21
-473.949978
 31
0.0
 11
-1292.557361999998
 21
-471.449978
 31
0.0
 11
-1291.307361999998
 21
-468.949978
 31
0.0
 11
-1292.557361999998
 21
-466.449978
 31
0.0
 11
-1293.807361999998
 21
-463.949978
 31
0.0
 11
-1292.557361999998
 21
-461.449978
 31
0.0
 11
-1291.307361999998
 21
-458.949978
 31
0.0
 11
-1292.557361999998
 21
-456.449978
 31
0.0
 11
-1293.807361999998
 21
-453.949978
 31
0.0
 11
-1292.557361999998
 21
-451.449978
 31
0.0
 11
-1291.307361999998
 21
-448.949978
 31
0.0
 11
-1292.557361999998
 21
-446.449978
 31
0.0
 11
-1293.807361999993
 21
-443.9499779999949
 31
0.0
 11
-1292.557361999977
 21
-441.4499779999794
 31
0.0
  0
SPLINE
  5
B1
330
4E
100
AcDbEntity
  8
0
  6
Continuous
 62
     2
100
AcDbSpline
210
0.0
220
0.0
230
1.0
 70
     8
 71
     3
 72
    39
 73
    35
 74
    33
 42
0.000000001
 43
0.0000000001
 44
0.00000001
 40
0.0
 40
0.0
 40
0.0
 40
0.0
 40
2.795084976346724
 40
5.59016994822136
 40
8.385254920095996
 40
11.18033989197063
 40
13.97542486384547
 40
16.77050983572031
 40
19.56559480759515
 40
22.36067977946999
 40
25.15576475134472
 40
27.95084972321946
 40
30.7459346950942
 40
33.54101966696894
 40
36.33610463884367
 40
39.13118961071841
 40
41.92627458259314
 40
44.72135954999823
 40
47.51644451739844
 40
50.31152948927318
 40
53.10661446114791
 40
55.90169943302265
 40
58.69678440489744
 40
61.49186937677212
 40
64.28695434864686
 40
67.0820393205216
 40
69.87712429239639
 40
72.67220926427107
 40
75.46729423614582
 40
78.26237920802056
 40
81.0574641798953
 40
83.85254915177005
 40
86.64763412364479
 40
89.44271909999162
 40
89.44271909999162
 40
89.44271909999162
 40
89.44271909999162
 10
-1296.557361999998
 20
-441.449978
 30
0.0
 10
-1297.182362000998
 20
-442.2833113346666
 30
0.0
 10
-1298.432362014247
 20
-443.9499779968104
 30
0.0
 10
-1296.557362009127
 20
-446.4499780004974
 30
0.0
 10
-1294.682362010232
 20
-448.9499779998667
 30
0.0
 10
-1296.557362009935
 20
-451.4499780000357
 30
0.0
 10
-1298.432362010015
 20
-453.9499779999904
 30
0.0
 10
-1296.557362009993
 20
-456.4499780000025
 30
0.0
 10
-1294.682362009999
 20
-458.9499779999993
 30
0.0
 10
-1296.557362009997
 20
-461.4499780000004
 30
0.0
 10
-1298.432362009998
 20
-463.9499779999994
 30
0.0
 10
-1296.557362009996
 20
-466.4499780000016
 30
0.0
 10
-1294.682362010006
 20
-468.9499779999944
 30
0.0
 10
-1296.557362009967
 20
-471.4499780000205
 30
0.0
 10
-1298.432362010113
 20
-473.949977999923
 30
0.0
 10
-1296.557362009567
 20
-476.4499780002873
 30
0.0
 10
-1294.682362012605
 20
-478.9499779975957
 30
0.0
 10
-1296.557361999999
 20
-481.4499780000001
 30
0.0
 10
-1298.432361987389
 20
-483.9499780024059
 30
0.0
 10
-1296.557361990429
 20
-486.4499779997128
 30
0.0
 10
-1294.682361989883
 20
-488.949978000077
 30
0.0
 10
-1296.557361990029
 20
-491.4499779999792
 30
0.0
 10
-1298.432361989989
 20
-493.9499780000056
 30
0.0
 10
-1296.557361990001
 20
-496.4499779999985
 30
0.0
 10
-1294.682361989997
 20
-498.9499780000004
 30
0.0
 10
-1296.557361989999
 20
-501.4499779999998
 30
0.0
 10
-1298.432361989997
 20
-503.9499780000007
 30
0.0
 10
-1296.557361990003
 20
-506.4499779999974
 30
0.0
 10
-1294.682361989981
 20
-508.9499780000096
 30
0.0
 10
-1296.557361990061
 20
-511.4499779999643
 30
0.0
 10
-1298.432361989765
 20
-513.9499780001333
 30
0.0
 10
-1296.557361990869
 20
-516.4499779995026
 30
0.0
 10
-1294.682361985749
 20
-518.9499780031895
 30
0.0
 10
-1295.932361998998
 20
-520.6166446653335
 30
0.0
 10
-1296.557361999998
 20
-521.449978
 30
0.0
 11
-1296.557361999998
 21
-441.449978
 31
0.0
 11
-1297.807361999998
 21
-443.949978
 31
0.0
 11
-1296.557361999998
 21
-446.449978
 31
0.0
 11
-1295.307361999998
 21
-448.949978
 31
0.0
 11
-1296.557361999998
 21
-451.449978
 31
0.0
 11
-1297.807361999998
 21
-453.949978
 31
0.0
 11
-1296.557361999998
 21
-456.449978
 31
0.0
 11
-1295.307361999998
 21
-458.949978
 31
0.0
 11
-1296.557361999998
 21
-461.449978
 31
0.0
 11
-1297.807361999998
 21
-463.949978
 31
0.0
 11
-1296.557361999998
 21
-466.449978
 31
0.0
 11
-1295.307361999998
 21
-468.949978
 31
0.0
 11
-1296.557361999998
 21
-471.449978
 31
0.0
 11
-1297.807361999998
 21
-473.949978
 31
0.0
 11
-1296.557361999998
 21
-476.449978
 31
0.0
 11
-1295.307361999998
 21
-478.949978
 31
0.0
 11
-1296.557361999998
 21
-481.449978
 31
0.0
 11
-1297.807361999998
 21
-483.949978
 31
0.0
 11
-1296.557361999998
 21
-486.449978
 31
0.0
 11
-1295.307361999998
 21
-488.949978
 31
0.0
 11
-1296.557361999998
 21
-491.449978
 31
0.0
 11
-1297.807361999998
 21
-493.949978
 31
0.0
 11
-1296.557361999998
 21
-496.449978
 31
0.0
 11
-1295.307361999998
 21
-498.949978
 31
0.0
 11
-1296.557361999998
 21
-501.449978
 31
0.0
 11
-1297.807361999998
 21
-503.949978
 31
0.0
 11
-1296.557361999998
 21
-506.449978
 31
0.0
 11
-1295.307361999998
 21
-508.949978
 31
0.0
 11
-1296.557361999998
 21
-511.449978
 31
0.0
 11
-1297.807361999998
 21
-513.949978
 31
0.0
 11
-1296.557361999998
 21
-516.449978
 31
0.0
 11
-1295.307361999998
 21
-518.949978
 31
0.0
 11
-1296.557361999998
 21
-521.449978
 31
0.0
  0
ENDBLK
  5
50
330
4E
100
AcDbEntity
  8
0
100
AcDbBlockEnd
  0
BLOCK
  5
53
330
51
100
AcDbEntity
  8
0
100
AcDbBlockBegin
  2
Drfsicht1
 70
     0
 10
-496.916439
 20
-481.449978
 30
0.0
  3
Drfsicht1
  1

  0
INSERT
  5
52
330
51
100
AcDbEntity
  8
0
100
AcDbBlockReference
  2
CD_HF_60X80_BU-select__2
 10
-1495.416438999998
 20
-521.449978
 30
0.0
  0
MTEXT
  5
B2
330
51
100
AcDbEntity
  8
1
 62
     6
100
AcDbMText
 10
-1293.41643939234
 20
-531.8507588478351
 30
0.0
 40
10.0
 41
0.0
 71
     2
 72
     1
  1
 
  7
CONVERTER_11
 73
     1
 44
1.32052821128451
  0
ENDBLK
  5
54
330
51
100
AcDbEntity
  8
0
100
AcDbBlockEnd
  0
BLOCK
  5
56
330
55
100
AcDbEntity
  8
0
100
AcDbBlockBegin
  2
CD_HF_60X80_BU-select__3
 70
     0
 10
-1051.416439000003
 20
-361.449978359298
 30
0.0
  3
CD_HF_60X80_BU-select__3
  1

  0
LINE
  5
B3
330
55
100
AcDbEntity
  8
0
  6
Continuous
 62
     7
100
AcDbLine
 10
-971.4164390000028
 20
-301.449978359298
 30
0.0
 11
-971.4164390000028
 21
-361.449978359298
 31
0.0
  0
LINE
  5
B4
330
55
100
AcDbEntity
  8
0
  6
Continuous
 62
     7
100
AcDbLine
 10
-971.4164390000028
 20
-361.449978359298
 30
0.0
 11
-1051.416439000003
 21
-361.449978359298
 31
0.0
  0
LINE
  5
B5
330
55
100
AcDbEntity
  8
0
  6
Continuous
 62
     7
100
AcDbLine
 10
-1051.416439000003
 20
-361.449978359298
 30
0.0
 11
-1051.416439000003
 21
-301.449978359298
 31
0.0
  0
LINE
  5
B6
330
55
100
AcDbEntity
  8
0
  6
Continuous
 62
     7
100
AcDbLine
 10
-973.1664390000028
 20
-303.199978359298
 30
0.0
 11
-1049.666439000003
 21
-303.199978359298
 31
0.0
  0
LINE
  5
B7
330
55
100
AcDbEntity
  8
0
  6
Continuous
 62
     7
100
AcDbLine
 10
-1049.666439000003
 20
-359.699978359298
 30
0.0
 11
-1049.666439000003
 21
-303.199978359298
 31
0.0
  0
LINE
  5
B8
330
55
100
AcDbEntity
  8
0
  6
Continuous
 62
     7
100
AcDbLine
 10
-1049.666439000003
 20
-359.699978359298
 30
0.0
 11
-973.1664390000028
 21
-359.699978359298
 31
0.0
  0
LINE
  5
B9
330
55
100
AcDbEntity
  8
0
  6
Continuous
 62
     7
100
AcDbLine
 10
-973.1664390000028
 20
-303.199978359298
 30
0.0
 11
-973.1664390000028
 21
-359.699978359298
 31
0.0
  0
LINE
  5
BA
330
55
100
AcDbEntity
  8
0
  6
Continuous
 62
     7
100
AcDbLine
 10
-971.4164390000028
 20
-301.449978359298
 30
0.0
 11
-1051.416439000003
 21
-301.449978359298
 31
0.0
  0
ENDBLK
  5
57
330
55
100
AcDbEntity
  8
0
100
AcDbBlockEnd
  0
BLOCK
  5
5A
330
58
100
AcDbEntity
  8
0
100
AcDbBlockBegin
  2
SA_Links1
 70
     0
 10
-1011.41643899999
 20
-331.449978359298
 30
0.0
  3
SA_Links1
  1

  0
INSERT
  5
59
330
58
100
AcDbEntity
  8
0
100
AcDbBlockReference
  2
CD_HF_60X80_BU-select__3
 10
-1051.416439000003
 20
-361.449978359298
 30
0.0
  0
MTEXT
  5
BB
330
58
100
AcDbEntity
  8
1
 62
     6
100
AcDbMText
 10
-1011.41643899999
 20
-391.449978359298
 30
0.0
 40
10.0
 41
0.0
 71
     2
 72
     1
  1
 
  7
CONVERTER_11
 73
     1
 44
1.32052821128451
  0
ENDBLK
  5
5B
330
58
100
AcDbEntity
  8
0
100
AcDbBlockEnd
  0
BLOCK
  5
5D
330
5C
100
AcDbEntity
  8
0
100
AcDbBlockBegin
  2
CD_HF_60X80_BU-select__4
 70
     0
 10
-1635.416439392322
 20
-361.4499783592998
 30
0.0
  3
CD_HF_60X80_BU-select__4
  1

  0
LINE
  5
BC
330
5C
100
AcDbEntity
  8
0
  6
Continuous
 62
     7
100
AcDbLine
 10
-1555.416439392322
 20
-361.4499783592998
 30
0.0
 11
-1555.416439392322
 21
-301.4499783592998
 31
0.0
  0
LINE
  5
BD
330
5C
100
AcDbEntity
  8
0
  6
Continuous
 62
     7
100
AcDbLine
 10
-1635.416439392322
 20
-361.4499783592998
 30
0.0
 11
-1555.416439392322
 21
-361.4499783592998
 31
0.0
  0
LINE
  5
BE
330
5C
100
AcDbEntity
  8
0
  6
Continuous
 62
     7
100
AcDbLine
 10
-1635.416439392322
 20
-361.4499783592998
 30
0.0
 11
-1635.416439392322
 21
-301.4499783592998
 31
0.0
  0
LINE
  5
BF
330
5C
100
AcDbEntity
  8
0
  6
Continuous
 62
     7
100
AcDbLine
 10
-1633.666439392322
 20
-359.6999783592998
 30
0.0
 11
-1557.166439392322
 21
-359.6999783592998
 31
0.0
  0
LINE
  5
C0
330
5C
100
AcDbEntity
  8
0
  6
Continuous
 62
     7
100
AcDbLine
 10
-1633.666439392322
 20
-303.1999783592998
 30
0.0
 11
-1557.166439392322
 21
-303.1999783592998
 31
0.0
  0
LINE
  5
C1
330
5C
100
AcDbEntity
  8
0
  6
Continuous
 62
     7
100
AcDbLine
 10
-1633.666439392322
 20
-359.6999783592998
 30
0.0
 11
-1633.666439392322
 21
-303.1999783592998
 31
0.0
  0
LINE
  5
C2
330
5C
100
AcDbEntity
  8
0
  6
Continuous
 62
     7
100
AcDbLine
 10
-1557.166439392322
 20
-359.6999783592998
 30
0.0
 11
-1557.166439392322
 21
-303.1999783592998
 31
0.0
  0
LINE
  5
C3
330
5C
100
AcDbEntity
  8
0
  6
Continuous
 62
     7
100
AcDbLine
 10
-1635.416439392322
 20
-301.4499783592998
 30
0.0
 11
-1555.416439392322
 21
-301.4499783592998
 31
0.0
  0
ENDBLK
  5
5E
330
5C
100
AcDbEntity
  8
0
100
AcDbBlockEnd
  0
BLOCK
  5
61
330
5F
100
AcDbEntity
  8
0
100
AcDbBlockBegin
  2
SA_Rechts1
 70
     0
 10
-1595.416439392335
 20
-331.4499783592998
 30
0.0
  3
SA_Rechts1
  1

  0
INSERT
  5
60
330
5F
100
AcDbEntity
  8
0
100
AcDbBlockReference
  2
CD_HF_60X80_BU-select__4
 10
-1635.416439392322
 20
-361.4499783592998
 30
0.0
  0
MTEXT
  5
C4
330
5F
100
AcDbEntity
  8
1
 62
     6
100
AcDbMText
 10
-1595.416439392332
 20
-391.449978359298
 30
0.0
 40
10.0
 41
0.0
 71
     2
 72
     1
  1
 
  7
CONVERTER_11
 73
     1
 44
1.32052821128451
  0
DIMENSION
  5
CF
330
5F
100
AcDbEntity
  8
1
100
AcDbDimension
  2
*D15
 10
-1535.416439392322
 20
-361.4499783592998
 30
0.0
 11
-1541.916439392322
 21
-331.4499783592998
 31
0.0
 70
    33
  1
<>
 71
     5
 42
-1.0
 53
90.0
  3
ME10_DIM_10
100
AcDbAlignedDimension
 13
-1555.416439392322
 23
-301.4499783592998
 33
0.0
 14
-1555.416439392322
 24
-361.4499783592998
 34
0.0
  0
DIMENSION
  5
DA
330
5F
100
AcDbEntity
  8
1
100
AcDbDimension
  2
*D16
 10
-1555.416439392322
 20
-381.4499783592998
 30
0.0
 11
-1595.416439392322
 21
-374.9499783592998
 31
0.0
 70
    33
  1
<>
 71
     5
 42
-1.0
 53
0.00013888888889
  3
ME10_DIM_11
100
AcDbAlignedDimension
 13
-1635.416439392322
 23
-361.4499783592998
 33
0.0
 14
-1555.416439392322
 24
-361.4499783592998
 34
0.0
  0
ENDBLK
  5
62
330
5F
100
AcDbEntity
  8
0
100
AcDbBlockEnd
  0
BLOCK
  5
64
330
63
100
AcDbEntity
  8
0
100
AcDbBlockBegin
  2
CD_HF_60X80_BU-select__5
 70
     0
 10
-1495.416438999997
 20
-361.4499780000007
 30
0.0
  3
CD_HF_60X80_BU-select__5
  1

  0
LINE
  5
DB
330
63
100
AcDbEntity
  8
0
  6
Continuous
 62
     7
100
AcDbLine
 10
-1225.166438999997
 20
-328.1999780000007
 30
0.0
 11
-1232.666438999997
 21
-328.1999780000007
 31
0.0
  0
LINE
  5
DC
330
63
100
AcDbEntity
  8
0
  6
Continuous
 62
     7
100
AcDbLine
 10
-1175.166438999997
 20
-328.1999780000007
 30
0.0
 11
-1182.666438999997
 21
-328.1999780000007
 31
0.0
  0
LINE
  5
DD
330
63
100
AcDbEntity
  8
0
  6
Continuous
 62
     7
100
AcDbLine
 10
-1125.166438999997
 20
-328.1999780000007
 30
0.0
 11
-1132.666438999997
 21
-328.1999780000007
 31
0.0
  0
LINE
  5
DE
330
63
100
AcDbEntity
  8
0
  6
Continuous
 62
     7
100
AcDbLine
 10
-1275.166438999997
 20
-328.1999780000007
 30
0.0
 11
-1282.666438999997
 21
-328.1999780000007
 31
0.0
  0
LINE
  5
DF
330
63
100
AcDbEntity
  8
0
  6
Continuous
 62
     7
100
AcDbLine
 10
-1252.166438999997
 20
-333.6999780000007
 30
0.0
 11
-1255.666438999997
 21
-333.6999780000007
 31
0.0
  0
LINE
  5
E0
330
63
100
AcDbEntity
  8
0
  6
Continuous
 62
     7
100
AcDbLine
 10
-1202.166438999997
 20
-333.6999780000007
 30
0.0
 11
-1205.666438999997
 21
-333.6999780000007
 31
0.0
  0
LINE
  5
E1
330
63
100
AcDbEntity
  8
0
  6
Continuous
 62
     7
100
AcDbLine
 10
-1102.166438999997
 20
-333.6999780000007
 30
0.0
 11
-1105.666438999997
 21
-333.6999780000007
 31
0.0
  0
LINE
  5
E2
330
63
100
AcDbEntity
  8
0
  6
Continuous
 62
     7
100
AcDbLine
 10
-1225.166438999997
 20
-334.6999780000007
 30
0.0
 11
-1232.666438999997
 21
-334.6999780000007
 31
0.0
  0
LINE
  5
E3
330
63
100
AcDbEntity
  8
0
  6
Continuous
 62
     7
100
AcDbLine
 10
-1275.166438999997
 20
-334.6999780000007
 30
0.0
 11
-1282.666438999997
 21
-334.6999780000007
 31
0.0
  0
LINE
  5
E4
330
63
100
AcDbEntity
  8
0
  6
Continuous
 62
     7
100
AcDbLine
 10
-1175.166438999997
 20
-334.6999780000007
 30
0.0
 11
-1182.666438999997
 21
-334.6999780000007
 31
0.0
  0
LINE
  5
E5
330
63
100
AcDbEntity
  8
0
  6
Continuous
 62
     7
100
AcDbLine
 10
-1125.166438999997
 20
-334.6999780000007
 30
0.0
 11
-1132.666438999997
 21
-334.6999780000007
 31
0.0
  0
LINE
  5
E6
330
63
100
AcDbEntity
  8
0
  6
Continuous
 62
     7
100
AcDbLine
 10
-1152.166438999997
 20
-333.6999780000007
 30
0.0
 11
-1155.666438999997
 21
-333.6999780000007
 31
0.0
  0
LINE
  5
E7
330
63
100
AcDbEntity
  8
0
  6
Continuous
 62
     7
100
AcDbLine
 10
-1091.416438999997
 20
-301.4499780000007
 30
0.0
 11
-1292.557361999997
 21
-301.4499780000007
 31
0.0
  0
LINE
  5
E8
330
63
100
AcDbEntity
  8
0
  6
Continuous
 62
     7
100
AcDbLine
 10
-1091.416438999997
 20
-361.4499780000007
 30
0.0
 11
-1091.416438999997
 21
-301.4499780000007
 31
0.0
  0
LINE
  5
E9
330
63
100
AcDbEntity
  8
0
  6
Continuous
 62
     7
100
AcDbLine
 10
-1152.166438999997
 20
-329.1999780000007
 30
0.0
 11
-1155.666438999997
 21
-329.1999780000007
 31
0.0
  0
LINE
  5
EA
330
63
100
AcDbEntity
  8
0
  6
Continuous
 62
     7
100
AcDbLine
 10
-1252.166438999997
 20
-329.1999780000007
 30
0.0
 11
-1255.666438999997
 21
-329.1999780000007
 31
0.0
  0
LINE
  5
EB
330
63
100
AcDbEntity
  8
0
  6
Continuous
 62
     7
100
AcDbLine
 10
-1202.166438999997
 20
-329.1999780000007
 30
0.0
 11
-1205.666438999997
 21
-329.1999780000007
 31
0.0
  0
LINE
  5
EC
330
63
100
AcDbEntity
  8
0
  6
Continuous
 62
     7
100
AcDbLine
 10
-1102.166438999997
 20
-329.1999780000007
 30
0.0
 11
-1105.666438999997
 21
-329.1999780000007
 31
0.0
  0
LINE
  5
ED
330
63
100
AcDbEntity
  8
0
  6
Continuous
 62
     7
100
AcDbLine
 10
-1329.166438999997
 20
-334.6999780000007
 30
0.0
 11
-1336.666438999997
 21
-334.6999780000007
 31
0.0
  0
LINE
  5
EE
330
63
100
AcDbEntity
  8
0
  6
Continuous
 62
     7
100
AcDbLine
 10
-1429.166438999997
 20
-334.6999780000007
 30
0.0
 11
-1436.666438999997
 21
-334.6999780000007
 31
0.0
  0
LINE
  5
EF
330
63
100
AcDbEntity
  8
0
  6
Continuous
 62
     7
100
AcDbLine
 10
-1479.166438999997
 20
-334.6999780000007
 30
0.0
 11
-1486.666438999997
 21
-334.6999780000007
 31
0.0
  0
LINE
  5
F0
330
63
100
AcDbEntity
  8
0
  6
Continuous
 62
     7
100
AcDbLine
 10
-1379.166438999997
 20
-334.6999780000007
 30
0.0
 11
-1386.666438999997
 21
-334.6999780000007
 31
0.0
  0
LINE
  5
F1
330
63
100
AcDbEntity
  8
0
  6
Continuous
 62
     7
100
AcDbLine
 10
-1406.166438999997
 20
-333.6999780000007
 30
0.0
 11
-1409.666438999997
 21
-333.6999780000007
 31
0.0
  0
LINE
  5
F2
330
63
100
AcDbEntity
  8
0
  6
Continuous
 62
     7
100
AcDbLine
 10
-1306.166438999997
 20
-333.6999780000007
 30
0.0
 11
-1309.666438999997
 21
-333.6999780000007
 31
0.0
  0
LINE
  5
F3
330
63
100
AcDbEntity
  8
0
  6
Continuous
 62
     7
100
AcDbLine
 10
-1356.166438999997
 20
-333.6999780000007
 30
0.0
 11
-1359.666438999997
 21
-333.6999780000007
 31
0.0
  0
LINE
  5
F4
330
63
100
AcDbEntity
  8
0
  6
Continuous
 62
     7
100
AcDbLine
 10
-1379.166438999997
 20
-328.1999780000007
 30
0.0
 11
-1386.666438999997
 21
-328.1999780000007
 31
0.0
  0
LINE
  5
F5
330
63
100
AcDbEntity
  8
0
  6
Continuous
 62
     7
100
AcDbLine
 10
-1429.166438999997
 20
-328.1999780000007
 30
0.0
 11
-1436.666438999997
 21
-328.1999780000007
 31
0.0
  0
LINE
  5
F6
330
63
100
AcDbEntity
  8
0
  6
Continuous
 62
     7
100
AcDbLine
 10
-1306.166438999997
 20
-329.1999780000007
 30
0.0
 11
-1309.666438999997
 21
-329.1999780000007
 31
0.0
  0
LINE
  5
F7
330
63
100
AcDbEntity
  8
0
  6
Continuous
 62
     7
100
AcDbLine
 10
-1356.166438999997
 20
-329.1999780000007
 30
0.0
 11
-1359.666438999997
 21
-329.1999780000007
 31
0.0
  0
LINE
  5
F8
330
63
100
AcDbEntity
  8
0
  6
Continuous
 62
     7
100
AcDbLine
 10
-1406.166438999997
 20
-329.1999780000007
 30
0.0
 11
-1409.666438999997
 21
-329.1999780000007
 31
0.0
  0
LINE
  5
F9
330
63
100
AcDbEntity
  8
0
  6
Continuous
 62
     7
100
AcDbLine
 10
-1456.166438999997
 20
-329.1999780000007
 30
0.0
 11
-1459.666438999997
 21
-329.1999780000007
 31
0.0
  0
LINE
  5
FA
330
63
100
AcDbEntity
  8
0
  6
Continuous
 62
     7
100
AcDbLine
 10
-1479.166438999997
 20
-328.1999780000007
 30
0.0
 11
-1486.666438999997
 21
-328.1999780000007
 31
0.0
  0
LINE
  5
FB
330
63
100
AcDbEntity
  8
0
  6
Continuous
 62
     7
100
AcDbLine
 10
-1329.166438999997
 20
-328.1999780000007
 30
0.0
 11
-1336.666438999997
 21
-328.1999780000007
 31
0.0
  0
LINE
  5
FC
330
63
100
AcDbEntity
  8
0
  6
Continuous
 62
     7
100
AcDbLine
 10
-1456.166438999997
 20
-333.6999780000007
 30
0.0
 11
-1459.666438999997
 21
-333.6999780000007
 31
0.0
  0
LINE
  5
FD
330
63
100
AcDbEntity
  8
0
  6
Continuous
 62
     7
100
AcDbLine
 10
-1296.557361999997
 20
-301.4499780000007
 30
0.0
 11
-1495.416438999997
 21
-301.4499780000007
 31
0.0
  0
LINE
  5
FE
330
63
100
AcDbEntity
  8
0
  6
Continuous
 62
     7
100
AcDbLine
 10
-1495.416438999997
 20
-361.4499780000007
 30
0.0
 11
-1296.557361999997
 21
-361.4499780000007
 31
0.0
  0
LINE
  5
FF
330
63
100
AcDbEntity
  8
0
  6
Continuous
 62
     7
100
AcDbLine
 10
-1292.557361999997
 20
-361.4499780000007
 30
0.0
 11
-1091.416438999997
 21
-361.4499780000007
 31
0.0
  0
LINE
  5
100
330
63
100
AcDbEntity
  8
0
  6
Continuous
 62
     7
100
AcDbLine
 10
-1495.416438999997
 20
-301.4499780000007
 30
0.0
 11
-1495.416438999997
 21
-361.4499780000007
 31
0.0
  0
ARC
  5
101
330
63
100
AcDbEntity
  8
0
  6
Continuous
 62
     7
100
AcDbCircle
 10
-1225.166438999997
 20
-331.4499780000007
 30
0.0
 40
3.25
100
AcDbArc
 50
270.0
 51
90.0
  0
ARC
  5
102
330
63
100
AcDbEntity
  8
0
  6
Continuous
 62
     7
100
AcDbCircle
 10
-1205.666438999997
 20
-331.4499780000007
 30
0.0
 40
2.25
100
AcDbArc
 50
90.0
 51
270.0
  0
ARC
  5
103
330
63
100
AcDbEntity
  8
0
  6
Continuous
 62
     7
100
AcDbCircle
 10
-1202.166438999997
 20
-331.4499780000007
 30
0.0
 40
2.25
100
AcDbArc
 50
270.0
 51
90.0
  0
ARC
  5
104
330
63
100
AcDbEntity
  8
0
  6
Continuous
 62
     7
100
AcDbCircle
 10
-1182.666438999997
 20
-331.4499780000007
 30
0.0
 40
3.25
100
AcDbArc
 50
90.0
 51
270.0
  0
ARC
  5
105
330
63
100
AcDbEntity
  8
0
  6
Continuous
 62
     7
100
AcDbCircle
 10
-1175.166438999997
 20
-331.4499780000007
 30
0.0
 40
3.25
100
AcDbArc
 50
270.0
 51
90.0
  0
ARC
  5
106
330
63
100
AcDbEntity
  8
0
  6
Continuous
 62
     7
100
AcDbCircle
 10
-1132.666438999997
 20
-331.4499780000007
 30
0.0
 40
3.25
100
AcDbArc
 50
90.0
 51
270.0
  0
ARC
  5
107
330
63
100
AcDbEntity
  8
0
  6
Continuous
 62
     7
100
AcDbCircle
 10
-1125.166438999997
 20
-331.4499780000007
 30
0.0
 40
3.25
100
AcDbArc
 50
270.0
 51
90.0
  0
ARC
  5
108
330
63
100
AcDbEntity
  8
0
  6
Continuous
 62
     7
100
AcDbCircle
 10
-1275.166438999997
 20
-331.4499780000007
 30
0.0
 40
3.25
100
AcDbArc
 50
270.0
 51
90.0
  0
ARC
  5
109
330
63
100
AcDbEntity
  8
0
  6
Continuous
 62
     7
100
AcDbCircle
 10
-1255.666438999997
 20
-331.4499780000007
 30
0.0
 40
2.25
100
AcDbArc
 50
90.0
 51
270.0
  0
ARC
  5
10A
330
63
100
AcDbEntity
  8
0
  6
Continuous
 62
     7
100
AcDbCircle
 10
-1282.666438999997
 20
-331.4499780000007
 30
0.0
 40
3.25
100
AcDbArc
 50
90.0
 51
270.0
  0
ARC
  5
10B
330
63
100
AcDbEntity
  8
0
  6
Continuous
 62
     7
100
AcDbCircle
 10
-1152.166438999997
 20
-331.4499780000007
 30
0.0
 40
2.25
100
AcDbArc
 50
270.0
 51
90.0
  0
ARC
  5
10C
330
63
100
AcDbEntity
  8
0
  6
Continuous
 62
     7
100
AcDbCircle
 10
-1155.666438999997
 20
-331.4499780000007
 30
0.0
 40
2.25
100
AcDbArc
 50
90.0
 51
270.0
  0
ARC
  5
10D
330
63
100
AcDbEntity
  8
0
  6
Continuous
 62
     7
100
AcDbCircle
 10
-1252.166438999997
 20
-331.4499780000007
 30
0.0
 40
2.25
100
AcDbArc
 50
270.0
 51
90.0
  0
ARC
  5
10E
330
63
100
AcDbEntity
  8
0
  6
Continuous
 62
     7
100
AcDbCircle
 10
-1105.666438999997
 20
-331.4499780000007
 30
0.0
 40
2.25
100
AcDbArc
 50
90.0
 51
270.0
  0
ARC
  5
10F
330
63
100
AcDbEntity
  8
0
  6
Continuous
 62
     7
100
AcDbCircle
 10
-1102.166438999997
 20
-331.4499780000007
 30
0.0
 40
2.25
100
AcDbArc
 50
270.0
 51
90.0
  0
ARC
  5
110
330
63
100
AcDbEntity
  8
0
  6
Continuous
 62
     7
100
AcDbCircle
 10
-1379.166438999997
 20
-331.4499780000007
 30
0.0
 40
3.25
100
AcDbArc
 50
270.0
 51
90.0
  0
ARC
  5
111
330
63
100
AcDbEntity
  8
0
  6
Continuous
 62
     7
100
AcDbCircle
 10
-1336.666438999997
 20
-331.4499780000007
 30
0.0
 40
3.25
100
AcDbArc
 50
90.0
 51
270.0
  0
ARC
  5
112
330
63
100
AcDbEntity
  8
0
  6
Continuous
 62
     7
100
AcDbCircle
 10
-1329.166438999997
 20
-331.4499780000007
 30
0.0
 40
3.25
100
AcDbArc
 50
270.0
 51
90.0
  0
ARC
  5
113
330
63
100
AcDbEntity
  8
0
  6
Continuous
 62
     7
100
AcDbCircle
 10
-1232.666438999997
 20
-331.4499780000007
 30
0.0
 40
3.25
100
AcDbArc
 50
90.0
 51
270.0
  0
ARC
  5
114
330
63
100
AcDbEntity
  8
0
  6
Continuous
 62
     7
100
AcDbCircle
 10
-1406.166438999997
 20
-331.4499780000007
 30
0.0
 40
2.25
100
AcDbArc
 50
270.0
 51
90.0
  0
ARC
  5
115
330
63
100
AcDbEntity
  8
0
  6
Continuous
 62
     7
100
AcDbCircle
 10
-1386.666438999997
 20
-331.4499780000007
 30
0.0
 40
3.25
100
AcDbArc
 50
90.0
 51
270.0
  0
ARC
  5
116
330
63
100
AcDbEntity
  8
0
  6
Continuous
 62
     7
100
AcDbCircle
 10
-1409.666438999997
 20
-331.4499780000007
 30
0.0
 40
2.25
100
AcDbArc
 50
90.0
 51
270.0
  0
ARC
  5
117
330
63
100
AcDbEntity
  8
0
  6
Continuous
 62
     7
100
AcDbCircle
 10
-1429.166438999997
 20
-331.4499780000007
 30
0.0
 40
3.25
100
AcDbArc
 50
270.0
 51
90.0
  0
ARC
  5
118
330
63
100
AcDbEntity
  8
0
  6
Continuous
 62
     7
100
AcDbCircle
 10
-1356.166438999997
 20
-331.4499780000007
 30
0.0
 40
2.25
100
AcDbArc
 50
270.0
 51
90.0
  0
ARC
  5
119
330
63
100
AcDbEntity
  8
0
  6
Continuous
 62
     7
100
AcDbCircle
 10
-1359.666438999997
 20
-331.4499780000007
 30
0.0
 40
2.25
100
AcDbArc
 50
90.0
 51
270.0
  0
ARC
  5
11A
330
63
100
AcDbEntity
  8
0
  6
Continuous
 62
     7
100
AcDbCircle
 10
-1309.666438999997
 20
-331.4499780000007
 30
0.0
 40
2.25
100
AcDbArc
 50
90.0
 51
270.0
  0
ARC
  5
11B
330
63
100
AcDbEntity
  8
0
  6
Continuous
 62
     7
100
AcDbCircle
 10
-1306.166438999997
 20
-331.4499780000007
 30
0.0
 40
2.25
100
AcDbArc
 50
270.0
 51
90.0
  0
ARC
  5
11C
330
63
100
AcDbEntity
  8
0
  6
Continuous
 62
     7
100
AcDbCircle
 10
-1486.666438999997
 20
-331.4499780000007
 30
0.0
 40
3.25
100
AcDbArc
 50
90.0
 51
270.0
  0
ARC
  5
11D
330
63
100
AcDbEntity
  8
0
  6
Continuous
 62
     7
100
AcDbCircle
 10
-1479.166438999997
 20
-331.4499780000007
 30
0.0
 40
3.25
100
AcDbArc
 50
270.0
 51
90.0
  0
ARC
  5
11E
330
63
100
AcDbEntity
  8
0
  6
Continuous
 62
     7
100
AcDbCircle
 10
-1459.666438999997
 20
-331.4499780000007
 30
0.0
 40
2.25
100
AcDbArc
 50
90.0
 51
270.0
  0
ARC
  5
11F
330
63
100
AcDbEntity
  8
0
  6
Continuous
 62
     7
100
AcDbCircle
 10
-1456.166438999997
 20
-331.4499780000007
 30
0.0
 40
2.25
100
AcDbArc
 50
270.0
 51
90.0
  0
ARC
  5
120
330
63
100
AcDbEntity
  8
0
  6
Continuous
 62
     7
100
AcDbCircle
 10
-1436.666438999997
 20
-331.4499780000007
 30
0.0
 40
3.25
100
AcDbArc
 50
90.0
 51
270.0
  0
SPLINE
  5
121
330
63
100
AcDbEntity
  8
0
  6
Continuous
 62
     2
100
AcDbSpline
210
0.0
220
0.0
230
1.0
 70
     8
 71
     3
 72
    31
 73
    27
 74
    25
 42
0.000000001
 43
0.0000000001
 44
0.00000001
 40
0.0
 40
0.0
 40
0.0
 40
0.0
 40
2.795084976346927
 40
5.590169948221766
 40
8.385254920096504
 40
11.18033989197124
 40
13.97542486384613
 40
16.77050983572092
 40
19.5655948075958
 40
22.36067977947059
 40
25.15576475134528
 40
27.95084972321986
 40
30.74593469509475
 40
33.54101966249689
 40
36.33610462990005
 40
39.13118960177464
 40
41.92627457364942
 40
44.72135954552406
 40
47.51644451739885
 40
50.31152948927358
 40
53.10661446114842
 40
55.90169943302325
 40
58.69678440489794
 40
61.49186937677253
 40
64.28695434864727
 40
67.0820393249941
 40
67.0820393249941
 40
67.0820393249941
 40
67.0820393249941
 10
-1292.557361999997
 20
-361.4499780000007
 30
0.0
 10
-1291.932361998997
 20
-360.6166446653341
 30
0.0
 10
-1290.682361985749
 20
-358.9499780031905
 30
0.0
 10
-1292.557361990867
 20
-356.4499779995033
 30
0.0
 10
-1294.432361989764
 20
-353.949978000134
 30
0.0
 10
-1292.55736199006
 20
-351.4499779999648
 30
0.0
 10
-1290.68236198998
 20
-348.9499780000108
 30
0.0
 10
-1292.557361990004
 20
-346.4499779999967
 30
0.0
 10
-1294.432361989988
 20
-343.9499780000068
 30
0.0
 10
-1292.557361990028
 20
-341.4499779999801
 30
0.0
 10
-1290.682361989882
 20
-338.9499780000777
 30
0.0
 10
-1292.557361990428
 20
-336.4499779997134
 30
0.0
 10
-1294.43236198739
 20
-333.949978002406
 30
0.0
 10
-1292.557361999996
 20
-331.4499780000011
 30
0.0
 10
-1290.682362012606
 20
-328.9499779975957
 30
0.0
 10
-1292.557362009566
 20
-326.4499780002878
 30
0.0
 10
-1294.432362010113
 20
-323.9499779999237
 30
0.0
 10
-1292.557362009966
 20
-321.4499780000216
 30
0.0
 10
-1290.682362010006
 20
-318.9499779999945
 30
0.0
 10
-1292.55736200999
 20
-316.4499780000048
 30
0.0
 10
-1294.432362010015
 20
-313.9499779999908
 30
0.0
 10
-1292.557362009934
 20
-311.4499780000366
 30
0.0
 10
-1290.682362010231
 20
-308.9499779998674
 30
0.0
 10
-1292.557362009126
 20
-306.4499780004981
 30
0.0
 10
-1294.432362014245
 20
-303.949977996811
 30
0.0
 10
-1293.182362000997
 20
-302.2833113346674
 30
0.0
 10
-1292.557361999997
 20
-301.4499780000007
 30
0.0
 11
-1292.557361999997
 21
-361.4499780000007
 31
0.0
 11
-1291.307361999997
 21
-358.9499780000007
 31
0.0
 11
-1292.557361999997
 21
-356.4499780000007
 31
0.0
 11
-1293.807361999997
 21
-353.9499780000007
 31
0.0
 11
-1292.557361999997
 21
-351.4499780000007
 31
0.0
 11
-1291.307361999997
 21
-348.9499780000007
 31
0.0
 11
-1292.557361999997
 21
-346.4499780000007
 31
0.0
 11
-1293.807361999997
 21
-343.9499780000007
 31
0.0
 11
-1292.557361999997
 21
-341.4499780000007
 31
0.0
 11
-1291.307361999997
 21
-338.9499780000007
 31
0.0
 11
-1292.557361999997
 21
-336.4499780000007
 31
0.0
 11
-1293.807361999997
 21
-333.9499780000007
 31
0.0
 11
-1292.557361999997
 21
-331.4499780000007
 31
0.0
 11
-1291.307361999997
 21
-328.9499780000007
 31
0.0
 11
-1292.557361999997
 21
-326.4499780000007
 31
0.0
 11
-1293.807361999997
 21
-323.9499780000007
 31
0.0
 11
-1292.557361999997
 21
-321.4499780000008
 31
0.0
 11
-1291.307361999997
 21
-318.9499780000007
 31
0.0
 11
-1292.557361999997
 21
-316.4499780000007
 31
0.0
 11
-1293.807361999997
 21
-313.9499780000007
 31
0.0
 11
-1292.557361999997
 21
-311.4499780000007
 31
0.0
 11
-1291.307361999997
 21
-308.9499780000007
 31
0.0
 11
-1292.557361999997
 21
-306.4499780000007
 31
0.0
 11
-1293.807361999997
 21
-303.9499780000007
 31
0.0
 11
-1292.557361999997
 21
-301.4499780000007
 31
0.0
  0
SPLINE
  5
122
330
63
100
AcDbEntity
  8
0
  6
Continuous
 62
     2
100
AcDbSpline
210
0.0
220
0.0
230
1.0
 70
     8
 71
     3
 72
    31
 73
    27
 74
    25
 42
0.000000001
 43
0.0000000001
 44
0.00000001
 40
0.0
 40
0.0
 40
0.0
 40
0.0
 40
2.795084976346724
 40
5.59016994822136
 40
8.385254920096097
 40
11.18033989197083
 40
13.97542486384542
 40
16.77050983572011
 40
19.56559480759469
 40
22.36067977946938
 40
25.15576475134417
 40
27.95084972321905
 40
30.74593469509364
 40
33.54101966249761
 40
36.33610462989894
 40
39.13118960177383
 40
41.92627457364852
 40
44.72135954552331
 40
47.51644451739809
 40
50.31152948927278
 40
53.10661446114742
 40
55.90169943302205
 40
58.69678440489684
 40
61.49186937677173
 40
64.28695434864647
 40
67.0820393249933
 40
67.0820393249933
 40
67.0820393249933
 40
67.0820393249933
 10
-1296.557361999997
 20
-301.4499780000007
 30
0.0
 10
-1297.182362000997
 20
-302.2833113346674
 30
0.0
 10
-1298.432362014246
 20
-303.949977996811
 30
0.0
 10
-1296.557362009127
 20
-306.4499780004983
 30
0.0
 10
-1294.68236201023
 20
-308.9499779998674
 30
0.0
 10
-1296.557362009934
 20
-311.4499780000364
 30
0.0
 10
-1298.432362010014
 20
-313.9499779999907
 30
0.0
 10
-1296.55736200999
 20
-316.4499780000046
 30
0.0
 10
-1294.682362010007
 20
-318.9499779999945
 30
0.0
 10
-1296.557362009966
 20
-321.4499780000217
 30
0.0
 10
-1298.432362010113
 20
-323.9499779999237
 30
0.0
 10
-1296.557362009566
 20
-326.4499780002878
 30
0.0
 10
-1294.682362012604
 20
-328.9499779975962
 30
0.0
 10
-1296.557361999999
 20
-331.4499780000003
 30
0.0
 10
-1298.432361987389
 20
-333.9499780024065
 30
0.0
 10
-1296.557361990428
 20
-336.4499779997133
 30
0.0
 10
-1294.682361989882
 20
-338.9499780000778
 30
0.0
 10
-1296.557361990028
 20
-341.4499779999799
 30
0.0
 10
-1298.432361989988
 20
-343.949978000007
 30
0.0
 10
-1296.557361990004
 20
-346.4499779999967
 30
0.0
 10
-1294.68236198998
 20
-348.9499780000106
 30
0.0
 10
-1296.55736199006
 20
-351.4499779999651
 30
0.0
 10
-1298.432361989765
 20
-353.9499780001339
 30
0.0
 10
-1296.557361990868
 20
-356.4499779995033
 30
0.0
 10
-1294.682361985748
 20
-358.9499780031904
 30
0.0
 10
-1295.932361998997
 20
-360.6166446653341
 30
0.0
 10
-1296.557361999997
 20
-361.4499780000007
 30
0.0
 11
-1296.557361999997
 21
-301.4499780000007
 31
0.0
 11
-1297.807361999997
 21
-303.9499780000007
 31
0.0
 11
-1296.557361999997
 21
-306.4499780000007
 31
0.0
 11
-1295.307361999997
 21
-308.9499780000007
 31
0.0
 11
-1296.557361999997
 21
-311.4499780000007
 31
0.0
 11
-1297.807361999997
 21
-313.9499780000007
 31
0.0
 11
-1296.557361999997
 21
-316.4499780000007
 31
0.0
 11
-1295.307361999997
 21
-318.9499780000007
 31
0.0
 11
-1296.557361999997
 21
-321.4499780000007
 31
0.0
 11
-1297.807361999997
 21
-323.9499780000007
 31
0.0
 11
-1296.557361999997
 21
-326.4499780000007
 31
0.0
 11
-1295.307361999997
 21
-328.9499780000007
 31
0.0
 11
-1296.557361999997
 21
-331.4499780000007
 31
0.0
 11
-1297.807361999997
 21
-333.9499780000007
 31
0.0
 11
-1296.557361999997
 21
-336.4499780000007
 31
0.0
 11
-1295.307361999997
 21
-338.9499780000007
 31
0.0
 11
-1296.557361999997
 21
-341.4499780000007
 31
0.0
 11
-1297.807361999997
 21
-343.9499780000008
 31
0.0
 11
-1296.557361999997
 21
-346.4499780000007
 31
0.0
 11
-1295.307361999997
 21
-348.9499780000007
 31
0.0
 11
-1296.557361999997
 21
-351.4499780000007
 31
0.0
 11
-1297.807361999997
 21
-353.9499780000007
 31
0.0
 11
-1296.557361999997
 21
-356.4499780000007
 31
0.0
 11
-1295.307361999997
 21
-358.9499780000007
 31
0.0
 11
-1296.557361999997
 21
-361.4499780000007
 31
0.0
  0
ENDBLK
  5
65
330
63
100
AcDbEntity
  8
0
100
AcDbBlockEnd
  0
BLOCK
  5
68
330
66
100
AcDbEntity
  8
0
100
AcDbBlockBegin
  2
Vordans1
 70
     0
 10
-496.9164389999993
 20
-331.4499780000007
 30
0.0
  3
Vordans1
  1

  0
INSERT
  5
67
330
66
100
AcDbEntity
  8
0
100
AcDbBlockReference
  2
CD_HF_60X80_BU-select__5
 10
-1495.416438999997
 20
-361.4499780000007
 30
0.0
  0
MTEXT
  5
123
330
66
100
AcDbEntity
  8
1
 62
     6
100
AcDbMText
 10
-1293.416439
 20
-391.9506026098625
 30
0.0
 40
10.0
 41
0.0
 71
     2
 72
     1
  1
 
  7
CONVERTER_11
 73
     1
 44
1.32052821128451
  0
DIMENSION
  5
12E
330
66
100
AcDbEntity
  8
1
100
AcDbDimension
  2
*D17
 10
-1091.416438999996
 20
-381.4499780000007
 30
0.0
 11
-1293.416438999998
 21
-374.9499780000007
 31
0.0
 70
    33
  1
<>
 71
     5
 42
-1.0
 53
0.00013888888889
  3
ME10_DIM_12
100
AcDbAlignedDimension
 13
-1495.416438999997
 23
-361.4499780000007
 33
0.0
 14
-1091.416438999997
 24
-361.4499780000007
 34
0.0
  0
ENDBLK
  5
69
330
66
100
AcDbEntity
  8
0
100
AcDbBlockEnd
  0
BLOCK
  5
6B
330
6A
100
AcDbEntity
  8
0
100
AcDbBlockBegin
  2
_rahmen
 70
     0
 10
-452.9774504653924
 20
-393.234604564263
 30
0.0
  3
_rahmen
  1

  0
LINE
  5
12F
330
6A
100
AcDbEntity
  8
1
  6
DOT_CENTER
 62
     2
100
AcDbLine
 10
-578.5356001055798
 20
-367.1096045642637
 30
0.0
 11
-573.0356001055798
 21
-367.1096045642637
 31
0.0
  0
LINE
  5
130
330
6A
100
AcDbEntity
  8
1
  6
PHANTOM
 62
     2
100
AcDbLine
 10
-569.7856001055798
 20
-364.3596045642636
 30
0.0
 11
-569.7856001055798
 21
-369.8596045642636
 31
0.0
  0
LINE
  5
131
330
6A
100
AcDbEntity
  8
1
  6
PHANTOM
 62
     2
100
AcDbLine
 10
-567.0356001055798
 20
-367.1096045642637
 30
0.0
 11
-572.5356001055798
 21
-367.1096045642637
 31
0.0
  0
LINE
  5
132
330
6A
100
AcDbEntity
  8
1
  6
Continuous
 62
     6
100
AcDbLine
 10
-582.5222549921423
 20
-362.7346045642636
 30
0.0
 11
-452.9774504653906
 21
-362.7346045642636
 31
0.0
  0
LINE
  5
133
330
6A
100
AcDbEntity
  8
1
  6
Continuous
 62
     7
100
AcDbLine
 10
-564.3222549921425
 20
-383.9846045642635
 30
0.0
 11
-546.1222549921424
 21
-383.9846045642635
 31
0.0
  0
LINE
  5
134
330
6A
100
AcDbEntity
  8
1
  6
Continuous
 62
     6
100
AcDbLine
 10
-564.3222549921425
 20
-388.2346045642635
 30
0.0
 11
-582.5222549921423
 21
-388.2346045642636
 31
0.0
  0
LINE
  5
135
330
6A
100
AcDbEntity
  8
1
  6
Continuous
 62
     7
100
AcDbLine
 10
-564.3222549921425
 20
-383.9846045642635
 30
0.0
 11
-564.3222549921425
 21
-388.2346045642635
 31
0.0
  0
LINE
  5
136
330
6A
100
AcDbEntity
  8
1
  6
Continuous
 62
     7
100
AcDbLine
 10
-546.1222549921424
 20
-383.9846045642635
 30
0.0
 11
-546.1222549921424
 21
-388.2346045642636
 31
0.0
  0
LINE
  5
137
330
6A
100
AcDbEntity
  8
1
  6
Continuous
 62
     7
100
AcDbLine
 10
-582.5222549921423
 20
-383.9846045642636
 30
0.0
 11
-582.5222549921423
 21
-388.2346045642636
 31
0.0
  0
LINE
  5
138
330
6A
100
AcDbEntity
  8
1
  6
Continuous
 62
     7
100
AcDbLine
 10
-582.5222549921423
 20
-383.9846045642636
 30
0.0
 11
-564.3222549921425
 21
-383.9846045642635
 31
0.0
  0
LINE
  5
139
330
6A
100
AcDbEntity
  8
1
  6
Continuous
 62
     2
100
AcDbLine
 10
-573.2856001055798
 20
-364.6096045642637
 30
0.0
 11
-573.2856001055798
 21
-369.6096045642637
 31
0.0
  0
LINE
  5
13A
330
6A
100
AcDbEntity
  8
1
  6
Continuous
 62
     2
100
AcDbLine
 10
-573.2856001055798
 20
-369.6096045642637
 30
0.0
 11
-578.2856001055798
 21
-368.3596045642637
 31
0.0
  0
LINE
  5
13B
330
6A
100
AcDbEntity
  8
1
  6
Continuous
 62
     2
100
AcDbLine
 10
-578.2856001055798
 20
-368.3596045642637
 30
0.0
 11
-578.2856001055798
 21
-365.8596045642637
 31
0.0
  0
LINE
  5
13C
330
6A
100
AcDbEntity
  8
1
  6
Continuous
 62
     2
100
AcDbLine
 10
-578.2856001055798
 20
-365.8596045642637
 30
0.0
 11
-573.2856001055798
 21
-364.6096045642637
 31
0.0
  0
LINE
  5
13D
330
6A
100
AcDbEntity
  8
1
  6
Continuous
 62
     6
100
AcDbLine
 10
-452.9774504653906
 20
-371.2346045642636
 30
0.0
 11
-452.9774504653911
 21
-379.7346045642636
 31
0.0
  0
LINE
  5
13E
330
6A
100
AcDbEntity
  8
1
  6
Continuous
 62
     6
100
AcDbLine
 10
-546.1222549921424
 20
-388.2346045642636
 30
0.0
 11
-546.4774504653924
 21
-388.2346045642635
 31
0.0
  0
LINE
  5
13F
330
6A
100
AcDbEntity
  8
1
  6
Continuous
 62
     7
100
AcDbLine
 10
-546.1222549921424
 20
-371.2346045642636
 30
0.0
 11
-546.1222549921424
 21
-383.9846045642635
 31
0.0
  0
LINE
  5
140
330
6A
100
AcDbEntity
  8
1
  6
Continuous
 62
     7
100
AcDbLine
 10
-582.5222549921423
 20
-371.2346045642636
 30
0.0
 11
-582.5222549921423
 21
-383.9846045642636
 31
0.0
  0
LINE
  5
141
330
6A
100
AcDbEntity
  8
1
  6
Continuous
 62
     6
100
AcDbLine
 10
-546.1222549921424
 20
-388.2346045642636
 30
0.0
 11
-496.4774504653924
 21
-388.2346045642635
 31
0.0
  0
LINE
  5
142
330
6A
100
AcDbEntity
  8
1
  6
Continuous
 62
     6
100
AcDbLine
 10
-452.9774504653925
 20
-388.2346045642635
 30
0.0
 11
-452.9774504653911
 21
-379.7346045642636
 31
0.0
  0
LINE
  5
143
330
6A
100
AcDbEntity
  8
1
  6
Continuous
 62
     6
100
AcDbLine
 10
-582.5222549921423
 20
-371.2346045642636
 30
0.0
 11
-546.1222549921424
 21
-371.2346045642636
 31
0.0
  0
LINE
  5
144
330
6A
100
AcDbEntity
  8
1
  6
Continuous
 62
     6
100
AcDbLine
 10
-546.4774504653924
 20
-388.2346045642635
 30
0.0
 11
-564.3222549921425
 21
-388.2346045642635
 31
0.0
  0
LINE
  5
145
330
6A
100
AcDbEntity
  8
1
  6
Continuous
 62
     6
100
AcDbLine
 10
-496.4774504653924
 20
-388.2346045642635
 30
0.0
 11
-452.9774504653925
 21
-388.2346045642635
 31
0.0
  0
LINE
  5
146
102
{ACAD_REACTORS
330
274
330
275
102
}
330
6A
100
AcDbEntity
  8
0
  6
Continuous
 62
     2
100
AcDbLine
 10
-575.0076290499956
 20
-376.1620898080515
 30
0.0
 11
-575.0076290499956
 21
-375.5565545195447
 31
0.0
  0
LINE
  5
147
102
{ACAD_REACTORS
330
274
330
275
102
}
330
6A
100
AcDbEntity
  8
0
  6
Continuous
 62
     2
100
AcDbLine
 10
-575.0076290499956
 20
-378.9622244146827
 30
0.0
 11
-575.0076290499956
 21
-378.3803730079876
 31
0.0
  0
LINE
  5
148
102
{ACAD_REACTORS
330
276
330
277
102
}
330
6A
100
AcDbEntity
  8
0
  6
Continuous
 62
     2
100
AcDbLine
 10
-552.3781426145164
 20
-378.6725603465598
 30
0.0
 11
-552.3781426145164
 21
-380.9411045642472
 31
0.0
  0
LINE
  5
149
102
{ACAD_REACTORS
330
276
330
277
102
}
330
6A
100
AcDbEntity
  8
0
  6
Continuous
 62
     2
100
AcDbLine
 10
-553.7591963935039
 20
-377.8872950404367
 30
0.0
 11
-550.3742508748753
 21
-377.8872950404361
 31
0.0
  0
LINE
  5
14A
102
{ACAD_REACTORS
330
276
330
277
102
}
330
6A
100
AcDbEntity
  8
0
  6
Continuous
 62
     2
100
AcDbLine
 10
-550.3742508748753
 20
-378.6725603465598
 30
0.0
 11
-550.3742508748753
 21
-377.8872950404361
 31
0.0
  0
LINE
  5
14B
102
{ACAD_REACTORS
330
276
330
277
102
}
330
6A
100
AcDbEntity
  8
0
  6
Continuous
 62
     2
100
AcDbLine
 10
-551.1853499123487
 20
-378.6725603465598
 30
0.0
 11
-550.3742508748753
 21
-378.6725603465598
 31
0.0
  0
LINE
  5
14C
102
{ACAD_REACTORS
330
276
330
277
102
}
330
6A
100
AcDbEntity
  8
0
  6
Continuous
 62
     2
100
AcDbLine
 10
-551.1853499123487
 20
-380.9411045642472
 30
0.0
 11
-551.1853499123487
 21
-378.6725603465598
 31
0.0
  0
LINE
  5
14D
102
{ACAD_REACTORS
330
276
330
277
102
}
330
6A
100
AcDbEntity
  8
0
  6
Continuous
 62
     2
100
AcDbLine
 10
-552.3781426145164
 20
-380.9411045642472
 30
0.0
 11
-551.1853499123487
 21
-380.9411045642472
 31
0.0
  0
LINE
  5
14E
102
{ACAD_REACTORS
330
26C
330
26D
102
}
330
6A
100
AcDbEntity
  8
0
  6
Continuous
 62
     2
100
AcDbLine
 10
-553.0747335525809
 20
-374.5281045642618
 30
0.0
 11
-554.4774577703301
 21
-374.5281045642618
 31
0.0
  0
LINE
  5
14F
102
{ACAD_REACTORS
330
26C
330
26D
102
}
330
6A
100
AcDbEntity
  8
0
  6
Continuous
 62
     2
100
AcDbLine
 10
-553.0747335525809
 20
-374.5281045642618
 30
0.0
 11
-552.473566030689
 21
-375.2079278858173
 31
0.0
  0
LINE
  5
150
102
{ACAD_REACTORS
330
26C
330
26D
102
}
330
6A
100
AcDbEntity
  8
0
  6
Continuous
 62
     2
100
AcDbLine
 10
-552.473566030689
 20
-375.2079278858173
 30
0.0
 11
-551.8723985087962
 21
-374.5281045642618
 31
0.0
  0
LINE
  5
151
102
{ACAD_REACTORS
330
26C
330
26D
102
}
330
6A
100
AcDbEntity
  8
0
  6
Continuous
 62
     2
100
AcDbLine
 10
-551.7722039218156
 20
-376.001055094298
 30
0.0
 11
-550.4696742910489
 21
-374.5281045642618
 31
0.0
  0
LINE
  5
152
102
{ACAD_REACTORS
330
26C
330
26D
102
}
330
6A
100
AcDbEntity
  8
0
  6
Continuous
 62
     2
100
AcDbLine
 10
-551.7722039218156
 20
-376.001055094298
 30
0.0
 11
-550.3742508748753
 21
-377.5819140880729
 31
0.0
  0
LINE
  5
153
102
{ACAD_REACTORS
330
26C
330
26D
102
}
330
6A
100
AcDbEntity
  8
0
  6
Continuous
 62
     2
100
AcDbLine
 10
-551.7769750926236
 20
-377.5819140880729
 30
0.0
 11
-550.3742508748753
 21
-377.5819140880729
 31
0.0
  0
LINE
  5
154
102
{ACAD_REACTORS
330
26C
330
26D
102
}
330
6A
100
AcDbEntity
  8
0
  6
Continuous
 62
     2
100
AcDbLine
 10
-552.473566030689
 20
-376.7941823027792
 30
0.0
 11
-551.7769750926236
 21
-377.5819140880729
 31
0.0
  0
LINE
  5
155
102
{ACAD_REACTORS
330
26A
330
26B
102
}
330
6A
100
AcDbEntity
  8
0
  6
Continuous
 62
     2
100
AcDbLine
 10
-555.9326648669727
 20
-374.5281045642618
 30
0.0
 11
-554.6921604567198
 21
-374.5281045642618
 31
0.0
  0
LINE
  5
156
102
{ACAD_REACTORS
330
26A
330
26B
102
}
330
6A
100
AcDbEntity
  8
0
  6
Continuous
 62
     2
100
AcDbLine
 10
-554.6921604567198
 20
-374.5281045642618
 30
0.0
 11
-554.6921604567198
 21
-377.5819140880729
 31
0.0
  0
LINE
  5
157
102
{ACAD_REACTORS
330
26A
330
26B
102
}
330
6A
100
AcDbEntity
  8
0
  6
Continuous
 62
     2
100
AcDbLine
 10
-555.9326648669727
 20
-377.5819140880729
 30
0.0
 11
-555.9326648669727
 21
-374.5281045642618
 31
0.0
  0
LINE
  5
158
102
{ACAD_REACTORS
330
268
330
269
102
}
330
6A
100
AcDbEntity
  8
0
  6
Continuous
 62
     2
100
AcDbLine
 10
-557.4009749495103
 20
-379.7195807547228
 30
0.0
 11
-557.100809712318
 21
-378.9517657887361
 31
0.0
  0
LINE
  5
159
102
{ACAD_REACTORS
330
268
330
269
102
}
330
6A
100
AcDbEntity
  8
0
  6
Continuous
 62
     2
100
AcDbLine
 10
-557.8785105541313
 20
-380.9411045642472
 30
0.0
 11
-557.6670305006554
 21
-380.4001440200294
 31
0.0
  0
LINE
  5
15A
102
{ACAD_REACTORS
330
268
330
269
102
}
330
6A
100
AcDbEntity
  8
0
  6
Continuous
 62
     2
100
AcDbLine
 10
-557.7210619174449
 20
-377.8872950404361
 30
0.0
 11
-559.1190149643841
 21
-380.9411045642472
 31
0.0
  0
LINE
  5
15B
102
{ACAD_REACTORS
330
268
330
269
102
}
330
6A
100
AcDbEntity
  8
0
  6
Continuous
 62
     2
100
AcDbLine
 10
-555.0826044602518
 20
-380.9411045642472
 30
0.0
 11
-556.3231088705057
 21
-380.9411045642472
 31
0.0
  0
LINE
  5
15C
102
{ACAD_REACTORS
330
268
330
269
102
}
330
6A
100
AcDbEntity
  8
0
  6
Continuous
 62
     2
100
AcDbLine
 10
-557.6670305006554
 20
-380.4001440200294
 30
0.0
 11
-556.5345889239815
 21
-380.4001440200294
 31
0.0
  0
LINE
  5
15D
102
{ACAD_REACTORS
330
266
330
267
102
}
330
6A
100
AcDbEntity
  8
0
  6
Continuous
 62
     2
100
AcDbLine
 10
-561.2765271035664
 20
-378.6725603465598
 30
0.0
 11
-560.4654280660917
 21
-378.6725603465598
 31
0.0
  0
LINE
  5
15E
102
{ACAD_REACTORS
330
266
330
267
102
}
330
6A
100
AcDbEntity
  8
0
  6
Continuous
 62
     2
100
AcDbLine
 10
-558.4615363264527
 20
-377.8872950404361
 30
0.0
 11
-561.2765271035664
 21
-377.8872950404361
 31
0.0
  0
LINE
  5
15F
102
{ACAD_REACTORS
330
266
330
267
102
}
330
6A
100
AcDbEntity
  8
0
  6
Continuous
 62
     2
100
AcDbLine
 10
-558.4615363264527
 20
-378.6725603465598
 30
0.0
 11
-558.4615363264527
 21
-377.8872950404361
 31
0.0
  0
LINE
  5
160
102
{ACAD_REACTORS
330
266
330
267
102
}
330
6A
100
AcDbEntity
  8
0
  6
Continuous
 62
     2
100
AcDbLine
 10
-559.2726353639252
 20
-378.6725603465598
 30
0.0
 11
-558.4615363264527
 21
-378.6725603465598
 31
0.0
  0
LINE
  5
161
102
{ACAD_REACTORS
330
266
330
267
102
}
330
6A
100
AcDbEntity
  8
0
  6
Continuous
 62
     2
100
AcDbLine
 10
-559.2726353639252
 20
-380.9411045642472
 30
0.0
 11
-559.2726353639252
 21
-378.6725603465598
 31
0.0
  0
LINE
  5
162
102
{ACAD_REACTORS
330
264
330
265
102
}
330
6A
100
AcDbEntity
  8
0
  6
Continuous
 62
     2
100
AcDbLine
 10
-558.6045205198272
 20
-377.5819140880729
 30
0.0
 11
-558.6045205198272
 21
-376.2731385778682
 31
0.0
  0
LINE
  5
163
102
{ACAD_REACTORS
330
264
330
265
102
}
330
6A
100
AcDbEntity
  8
0
  6
Continuous
 62
     2
100
AcDbLine
 10
-559.7973132219937
 20
-374.5281045642618
 30
0.0
 11
-559.7973132219937
 21
-377.5819140880729
 31
0.0
  0
LINE
  5
164
102
{ACAD_REACTORS
330
264
330
265
102
}
330
6A
100
AcDbEntity
  8
0
  6
Continuous
 62
     2
100
AcDbLine
 10
-558.6045205198272
 20
-374.5281045642618
 30
0.0
 11
-559.7973132219937
 21
-374.5281045642618
 31
0.0
  0
LINE
  5
165
102
{ACAD_REACTORS
330
264
330
265
102
}
330
6A
100
AcDbEntity
  8
0
  6
Continuous
 62
     2
100
AcDbLine
 10
-557.3640161095732
 20
-374.5281045642618
 30
0.0
 11
-557.3640161095732
 21
-375.8368800744669
 31
0.0
  0
LINE
  5
166
102
{ACAD_REACTORS
330
262
330
263
102
}
330
6A
100
AcDbEntity
  8
0
  6
Continuous
 62
     2
100
AcDbLine
 10
-565.0457520424134
 20
-377.8872950404361
 30
0.0
 11
-565.0457520424134
 21
-380.9411045642472
 31
0.0
  0
LINE
  5
167
102
{ACAD_REACTORS
330
262
330
263
102
}
330
6A
100
AcDbEntity
  8
0
  6
Continuous
 62
     2
100
AcDbLine
 10
-563.8529593402459
 20
-377.8872950404361
 30
0.0
 11
-565.0457520424134
 21
-377.8872950404361
 31
0.0
  0
LINE
  5
168
102
{ACAD_REACTORS
330
262
330
263
102
}
330
6A
100
AcDbEntity
  8
0
  6
Continuous
 62
     2
100
AcDbLine
 10
-562.612454929993
 20
-380.9411045642472
 30
0.0
 11
-561.4196622278265
 21
-380.9411045642472
 31
0.0
  0
LINE
  5
169
102
{ACAD_REACTORS
330
262
330
263
102
}
330
6A
100
AcDbEntity
  8
0
  6
Continuous
 62
     2
100
AcDbLine
 10
-565.0457520424134
 20
-380.9411045642472
 30
0.0
 11
-563.8529593402459
 21
-380.9411045642472
 31
0.0
  0
LINE
  5
16A
102
{ACAD_REACTORS
330
272
330
273
102
}
330
6A
100
AcDbEntity
  8
0
  6
Continuous
 62
     2
100
AcDbLine
 10
-561.3717995888543
 20
-375.7060025234464
 30
0.0
 11
-561.3717995888543
 21
-375.2261181697047
 31
0.0
  0
LINE
  5
16B
102
{ACAD_REACTORS
330
272
330
273
102
}
330
6A
100
AcDbEntity
  8
0
  6
Continuous
 62
     2
100
AcDbLine
 10
-560.0358717624267
 20
-375.7060025234464
 30
0.0
 11
-561.3717995888543
 21
-375.7060025234464
 31
0.0
  0
LINE
  5
16C
102
{ACAD_REACTORS
330
272
330
273
102
}
330
6A
100
AcDbEntity
  8
0
  6
Continuous
 62
     2
100
AcDbLine
 10
-560.0358717624267
 20
-376.4040161288888
 30
0.0
 11
-560.0358717624267
 21
-375.7060025234464
 31
0.0
  0
LINE
  5
16D
102
{ACAD_REACTORS
330
272
330
273
102
}
330
6A
100
AcDbEntity
  8
0
  6
Continuous
 62
     2
100
AcDbLine
 10
-561.3717995888543
 20
-376.4040161288888
 30
0.0
 11
-560.0358717624267
 21
-376.4040161288888
 31
0.0
  0
LINE
  5
16E
102
{ACAD_REACTORS
330
260
330
261
102
}
330
6A
100
AcDbEntity
  8
0
  6
Continuous
 62
     2
100
AcDbLine
 10
-564.8547542791812
 20
-374.5281045642618
 30
0.0
 11
-564.8547542791812
 21
-377.5819140880729
 31
0.0
  0
LINE
  5
16F
102
{ACAD_REACTORS
330
260
330
261
102
}
330
6A
100
AcDbEntity
  8
0
  6
Continuous
 62
     2
100
AcDbLine
 10
-564.8547542791812
 20
-377.5819140880729
 30
0.0
 11
-566.0475469813478
 21
-377.5819140880729
 31
0.0
  0
LINE
  5
170
102
{ACAD_REACTORS
330
260
330
261
102
}
330
6A
100
AcDbEntity
  8
0
  6
Continuous
 62
     2
100
AcDbLine
 10
-566.0475469813478
 20
-377.5819140880729
 30
0.0
 11
-566.0475469813478
 21
-376.4476419792292
 31
0.0
  0
LINE
  5
171
102
{ACAD_REACTORS
330
260
330
261
102
}
330
6A
100
AcDbEntity
  8
0
  6
Continuous
 62
     2
100
AcDbLine
 10
-567.097204559255
 20
-377.5819140880729
 30
0.0
 11
-568.2899972614217
 21
-377.5819140880729
 31
0.0
  0
LINE
  5
172
102
{ACAD_REACTORS
330
260
330
261
102
}
330
6A
100
AcDbEntity
  8
0
  6
Continuous
 62
     2
100
AcDbLine
 10
-568.2899972614217
 20
-374.5281045642618
 30
0.0
 11
-567.097204559255
 21
-374.5281045642618
 31
0.0
  0
LINE
  5
173
102
{ACAD_REACTORS
330
260
330
261
102
}
330
6A
100
AcDbEntity
  8
0
  6
Continuous
 62
     2
100
AcDbLine
 10
-567.097204559255
 20
-374.5281045642618
 30
0.0
 11
-567.097204559255
 21
-375.5969378975964
 31
0.0
  0
LINE
  5
174
102
{ACAD_REACTORS
330
260
330
261
102
}
330
6A
100
AcDbEntity
  8
0
  6
Continuous
 62
     2
100
AcDbLine
 10
-567.097204559255
 20
-375.5969378975964
 30
0.0
 11
-566.0475469813478
 21
-375.5969378975964
 31
0.0
  0
LINE
  5
175
102
{ACAD_REACTORS
330
26E
330
26F
102
}
330
6A
100
AcDbEntity
  8
0
  6
Continuous
 62
     2
100
AcDbLine
 10
-570.2461772929754
 20
-375.1912104097018
 30
0.0
 11
-569.9288822314334
 21
-375.1912104097018
 31
0.0
  0
LINE
  5
176
102
{ACAD_REACTORS
330
26E
330
26F
102
}
330
6A
100
AcDbEntity
  8
0
  6
Continuous
 62
     2
100
AcDbLine
 10
-570.2461772929754
 20
-375.8969380590441
 30
0.0
 11
-569.9288822314334
 21
-375.8969380590441
 31
0.0
  0
LINE
  5
177
102
{ACAD_REACTORS
330
26E
330
26F
102
}
330
6A
100
AcDbEntity
  8
0
  6
Continuous
 62
     2
100
AcDbLine
 10
-571.4866817032294
 20
-374.5281045642618
 30
0.0
 11
-571.4866817032294
 21
-377.5819140880729
 31
0.0
  0
LINE
  5
178
102
{ACAD_REACTORS
330
26E
330
26F
102
}
330
6A
100
AcDbEntity
  8
0
  6
Continuous
 62
     2
100
AcDbLine
 10
-571.4866817032294
 20
-374.5281045642618
 30
0.0
 11
-569.487409705195
 21
-374.5281045642618
 31
0.0
  0
LINE
  5
179
102
{ACAD_REACTORS
330
26E
330
26F
102
}
330
6A
100
AcDbEntity
  8
0
  6
Continuous
 62
     2
100
AcDbLine
 10
-570.2461772929754
 20
-376.6388358469292
 30
0.0
 11
-569.487409705195
 21
-376.6388358469292
 31
0.0
  0
LINE
  5
17A
102
{ACAD_REACTORS
330
274
330
275
102
}
330
6A
100
AcDbEntity
  8
0
  6
Continuous
 62
     2
100
AcDbLine
 10
-577.5831777365261
 20
-375.5563770428965
 30
0.0
 11
-577.5831777365261
 21
-379.9128320856136
 31
0.0
  0
LINE
  5
17B
102
{ACAD_REACTORS
330
274
330
275
102
}
330
6A
100
AcDbEntity
  8
0
  6
Continuous
 62
     2
100
AcDbLine
 10
-577.2674608134505
 20
-375.2406601198204
 30
0.0
 11
-575.7916275524409
 21
-375.2406601198204
 31
0.0
  0
LINE
  5
17C
102
{ACAD_REACTORS
330
274
330
275
102
}
330
6A
100
AcDbEntity
  8
0
  6
Continuous
 62
     2
100
AcDbLine
 10
-575.4759106293643
 20
-376.1604016619571
 30
0.0
 11
-575.4759106293643
 21
-375.5563770428965
 31
0.0
  0
LINE
  5
17D
102
{ACAD_REACTORS
330
274
330
275
102
}
330
6A
100
AcDbEntity
  8
0
  6
Continuous
 62
     2
100
AcDbLine
 10
-575.4759106293643
 20
-379.9128320856136
 30
0.0
 11
-575.4759106293643
 21
-378.382061154082
 31
0.0
  0
LINE
  5
17E
102
{ACAD_REACTORS
330
274
330
275
102
}
330
6A
100
AcDbEntity
  8
0
  6
Continuous
 62
     2
100
AcDbLine
 10
-572.3880433994801
 20
-380.9411045642472
 30
0.0
 11
-577.861355490197
 21
-380.9411045642472
 31
0.0
  0
LINE
  5
17F
102
{ACAD_REACTORS
330
274
330
275
102
}
330
6A
100
AcDbEntity
  8
0
  6
Continuous
 62
     2
100
AcDbLine
 10
-571.9637987840962
 20
-374.9523491796638
 30
0.0
 11
-571.9637987840962
 21
-380.516859948864
 31
0.0
  0
LINE
  5
180
102
{ACAD_REACTORS
330
274
330
275
102
}
330
6A
100
AcDbEntity
  8
0
  6
Continuous
 62
     2
100
AcDbLine
 10
-577.861355490197
 20
-374.5281045642799
 30
0.0
 11
-572.3880433994801
 21
-374.5281045642799
 31
0.0
  0
LINE
  5
181
102
{ACAD_REACTORS
330
274
330
275
102
}
330
6A
100
AcDbEntity
  8
0
  6
Continuous
 62
     2
100
AcDbLine
 10
-578.2856001055798
 20
-374.9523491796638
 30
0.0
 11
-578.2856001055798
 21
-380.516859948864
 31
0.0
  0
LINE
  5
182
102
{ACAD_REACTORS
330
274
330
275
102
}
330
6A
100
AcDbEntity
  8
0
  6
Continuous
 62
     2
100
AcDbLine
 10
-575.7916275524409
 20
-380.2285490086903
 30
0.0
 11
-577.2674608134505
 21
-380.2285490086903
 31
0.0
  0
LINE
  5
183
102
{ACAD_REACTORS
330
26E
330
26F
102
}
330
6A
100
AcDbEntity
  8
0
  6
Continuous
 62
     2
100
AcDbLine
 10
-570.2461772929754
 20
-377.5819140880729
 30
0.0
 11
-570.2461772929754
 21
-376.6388358469292
 31
0.0
  0
LINE
  5
184
102
{ACAD_REACTORS
330
26E
330
26F
102
}
330
6A
100
AcDbEntity
  8
0
  6
Continuous
 62
     2
100
AcDbLine
 10
-571.4866817032294
 20
-377.5819140880729
 30
0.0
 11
-570.2461772929754
 21
-377.5819140880729
 31
0.0
  0
LINE
  5
185
102
{ACAD_REACTORS
330
26E
330
26F
102
}
330
6A
100
AcDbEntity
  8
0
  6
Continuous
 62
     2
100
AcDbLine
 10
-570.2461772929754
 20
-375.8969380590441
 30
0.0
 11
-570.2461772929754
 21
-375.1912104097018
 31
0.0
  0
LINE
  5
186
102
{ACAD_REACTORS
330
260
330
261
102
}
330
6A
100
AcDbEntity
  8
0
  6
Continuous
 62
     2
100
AcDbLine
 10
-568.2899972614217
 20
-374.5281045642618
 30
0.0
 11
-568.2899972614217
 21
-377.5819140880729
 31
0.0
  0
LINE
  5
187
102
{ACAD_REACTORS
330
260
330
261
102
}
330
6A
100
AcDbEntity
  8
0
  6
Continuous
 62
     2
100
AcDbLine
 10
-567.097204559255
 20
-376.4476419792292
 30
0.0
 11
-567.097204559255
 21
-377.5819140880729
 31
0.0
  0
LINE
  5
188
102
{ACAD_REACTORS
330
260
330
261
102
}
330
6A
100
AcDbEntity
  8
0
  6
Continuous
 62
     2
100
AcDbLine
 10
-566.0475469813478
 20
-376.4476419792292
 30
0.0
 11
-567.097204559255
 21
-376.4476419792292
 31
0.0
  0
LINE
  5
189
102
{ACAD_REACTORS
330
260
330
261
102
}
330
6A
100
AcDbEntity
  8
0
  6
Continuous
 62
     2
100
AcDbLine
 10
-566.0475469813478
 20
-374.5281045642618
 30
0.0
 11
-564.8547542791812
 21
-374.5281045642618
 31
0.0
  0
LINE
  5
18A
102
{ACAD_REACTORS
330
260
330
261
102
}
330
6A
100
AcDbEntity
  8
0
  6
Continuous
 62
     2
100
AcDbLine
 10
-566.0475469813478
 20
-375.5969378975964
 30
0.0
 11
-566.0475469813478
 21
-374.5281045642618
 31
0.0
  0
LINE
  5
18B
102
{ACAD_REACTORS
330
272
330
273
102
}
330
6A
100
AcDbEntity
  8
0
  6
Continuous
 62
     2
100
AcDbLine
 10
-560.0358717624267
 20
-375.2261181697047
 30
0.0
 11
-560.0358717624267
 21
-374.5281045642618
 31
0.0
  0
LINE
  5
18C
102
{ACAD_REACTORS
330
272
330
273
102
}
330
6A
100
AcDbEntity
  8
0
  6
Continuous
 62
     2
100
AcDbLine
 10
-563.1861914862076
 20
-374.5281045642618
 30
0.0
 11
-560.0358717624267
 21
-374.5281045642618
 31
0.0
  0
LINE
  5
18D
102
{ACAD_REACTORS
330
272
330
273
102
}
330
6A
100
AcDbEntity
  8
0
  6
Continuous
 62
     2
100
AcDbLine
 10
-563.1861914862076
 20
-377.5819140880729
 30
0.0
 11
-560.0358717624267
 21
-377.5819140880729
 31
0.0
  0
LINE
  5
18E
102
{ACAD_REACTORS
330
272
330
273
102
}
330
6A
100
AcDbEntity
  8
0
  6
Continuous
 62
     2
100
AcDbLine
 10
-560.0358717624267
 20
-377.5819140880729
 30
0.0
 11
-560.0358717624267
 21
-376.8839004826305
 31
0.0
  0
LINE
  5
18F
102
{ACAD_REACTORS
330
272
330
273
102
}
330
6A
100
AcDbEntity
  8
0
  6
Continuous
 62
     2
100
AcDbLine
 10
-560.0358717624267
 20
-376.8839004826305
 30
0.0
 11
-561.3717995888543
 21
-376.8839004826305
 31
0.0
  0
LINE
  5
190
102
{ACAD_REACTORS
330
272
330
273
102
}
330
6A
100
AcDbEntity
  8
0
  6
Continuous
 62
     2
100
AcDbLine
 10
-561.3717995888543
 20
-376.8839004826305
 30
0.0
 11
-561.3717995888543
 21
-376.4040161288888
 31
0.0
  0
LINE
  5
191
102
{ACAD_REACTORS
330
272
330
273
102
}
330
6A
100
AcDbEntity
  8
0
  6
Continuous
 62
     2
100
AcDbLine
 10
-561.3717995888543
 20
-375.2261181697047
 30
0.0
 11
-560.0358717624267
 21
-375.2261181697047
 31
0.0
  0
LINE
  5
192
102
{ACAD_REACTORS
330
262
330
263
102
}
330
6A
100
AcDbEntity
  8
0
  6
Continuous
 62
     2
100
AcDbLine
 10
-563.8529593402459
 20
-380.9411045642472
 30
0.0
 11
-563.8529593402459
 21
-379.6323290540427
 31
0.0
  0
LINE
  5
193
102
{ACAD_REACTORS
330
262
330
263
102
}
330
6A
100
AcDbEntity
  8
0
  6
Continuous
 62
     2
100
AcDbLine
 10
-563.8529593402459
 20
-379.6323290540427
 30
0.0
 11
-562.612454929993
 21
-380.9411045642472
 31
0.0
  0
LINE
  5
194
102
{ACAD_REACTORS
330
262
330
263
102
}
330
6A
100
AcDbEntity
  8
0
  6
Continuous
 62
     2
100
AcDbLine
 10
-561.4196622278265
 20
-380.9411045642472
 30
0.0
 11
-561.4196622278265
 21
-377.8872950404361
 31
0.0
  0
LINE
  5
195
102
{ACAD_REACTORS
330
262
330
263
102
}
330
6A
100
AcDbEntity
  8
0
  6
Continuous
 62
     2
100
AcDbLine
 10
-561.4196622278265
 20
-377.8872950404361
 30
0.0
 11
-562.612454929993
 21
-377.8872950404361
 31
0.0
  0
LINE
  5
196
102
{ACAD_REACTORS
330
262
330
263
102
}
330
6A
100
AcDbEntity
  8
0
  6
Continuous
 62
     2
100
AcDbLine
 10
-562.612454929993
 20
-377.8872950404361
 30
0.0
 11
-562.612454929993
 21
-379.1960705506413
 31
0.0
  0
LINE
  5
197
102
{ACAD_REACTORS
330
262
330
263
102
}
330
6A
100
AcDbEntity
  8
0
  6
Continuous
 62
     2
100
AcDbLine
 10
-562.612454929993
 20
-379.1960705506413
 30
0.0
 11
-563.8529593402459
 21
-377.8872950404361
 31
0.0
  0
LINE
  5
198
102
{ACAD_REACTORS
330
264
330
265
102
}
330
6A
100
AcDbEntity
  8
0
  6
Continuous
 62
     2
100
AcDbLine
 10
-558.6045205198272
 20
-376.2731385778682
 30
0.0
 11
-557.3640161095732
 21
-377.5819140880729
 31
0.0
  0
LINE
  5
199
102
{ACAD_REACTORS
330
264
330
265
102
}
330
6A
100
AcDbEntity
  8
0
  6
Continuous
 62
     2
100
AcDbLine
 10
-557.3640161095732
 20
-377.5819140880729
 30
0.0
 11
-556.1712234074066
 21
-377.5819140880729
 31
0.0
  0
LINE
  5
19A
102
{ACAD_REACTORS
330
264
330
265
102
}
330
6A
100
AcDbEntity
  8
0
  6
Continuous
 62
     2
100
AcDbLine
 10
-556.1712234074066
 20
-377.5819140880729
 30
0.0
 11
-556.1712234074066
 21
-374.5281045642618
 31
0.0
  0
LINE
  5
19B
102
{ACAD_REACTORS
330
264
330
265
102
}
330
6A
100
AcDbEntity
  8
0
  6
Continuous
 62
     2
100
AcDbLine
 10
-556.1712234074066
 20
-374.5281045642618
 30
0.0
 11
-557.3640161095732
 21
-374.5281045642618
 31
0.0
  0
LINE
  5
19C
102
{ACAD_REACTORS
330
264
330
265
102
}
330
6A
100
AcDbEntity
  8
0
  6
Continuous
 62
     2
100
AcDbLine
 10
-557.3640161095732
 20
-375.8368800744669
 30
0.0
 11
-558.6045205198272
 21
-374.5281045642618
 31
0.0
  0
LINE
  5
19D
102
{ACAD_REACTORS
330
264
330
265
102
}
330
6A
100
AcDbEntity
  8
0
  6
Continuous
 62
     2
100
AcDbLine
 10
-559.7973132219937
 20
-377.5819140880729
 30
0.0
 11
-558.6045205198272
 21
-377.5819140880729
 31
0.0
  0
LINE
  5
19E
102
{ACAD_REACTORS
330
266
330
267
102
}
330
6A
100
AcDbEntity
  8
0
  6
Continuous
 62
     2
100
AcDbLine
 10
-561.2765271035664
 20
-377.8872950404361
 30
0.0
 11
-561.2765271035664
 21
-378.6725603465598
 31
0.0
  0
LINE
  5
19F
102
{ACAD_REACTORS
330
266
330
267
102
}
330
6A
100
AcDbEntity
  8
0
  6
Continuous
 62
     2
100
AcDbLine
 10
-560.4654280660917
 20
-378.6725603465598
 30
0.0
 11
-560.4654280660917
 21
-380.9411045642472
 31
0.0
  0
LINE
  5
1A0
102
{ACAD_REACTORS
330
266
330
267
102
}
330
6A
100
AcDbEntity
  8
0
  6
Continuous
 62
     2
100
AcDbLine
 10
-560.4654280660917
 20
-380.9411045642472
 30
0.0
 11
-559.2726353639252
 21
-380.9411045642472
 31
0.0
  0
LINE
  5
1A1
102
{ACAD_REACTORS
330
268
330
269
102
}
330
6A
100
AcDbEntity
  8
0
  6
Continuous
 62
     2
100
AcDbLine
 10
-556.3231088705057
 20
-380.9411045642472
 30
0.0
 11
-556.5345889239815
 21
-380.4001440200294
 31
0.0
  0
LINE
  5
1A2
102
{ACAD_REACTORS
330
268
330
269
102
}
330
6A
100
AcDbEntity
  8
0
  6
Continuous
 62
     2
100
AcDbLine
 10
-556.4805575071921
 20
-377.8872950404361
 30
0.0
 11
-555.0826044602518
 21
-380.9411045642472
 31
0.0
  0
LINE
  5
1A3
102
{ACAD_REACTORS
330
268
330
269
102
}
330
6A
100
AcDbEntity
  8
0
  6
Continuous
 62
     2
100
AcDbLine
 10
-557.7210619174449
 20
-377.8872950404361
 30
0.0
 11
-556.4805575071921
 21
-377.8872950404361
 31
0.0
  0
LINE
  5
1A4
102
{ACAD_REACTORS
330
268
330
269
102
}
330
6A
100
AcDbEntity
  8
0
  6
Continuous
 62
     2
100
AcDbLine
 10
-559.1190149643841
 20
-380.9411045642472
 30
0.0
 11
-557.8785105541313
 21
-380.9411045642472
 31
0.0
  0
LINE
  5
1A5
102
{ACAD_REACTORS
330
268
330
269
102
}
330
6A
100
AcDbEntity
  8
0
  6
Continuous
 62
     2
100
AcDbLine
 10
-557.4009749495103
 20
-379.7195807547228
 30
0.0
 11
-556.8006444751278
 21
-379.7195807547228
 31
0.0
  0
LINE
  5
1A6
102
{ACAD_REACTORS
330
268
330
269
102
}
330
6A
100
AcDbEntity
  8
0
  6
Continuous
 62
     2
100
AcDbLine
 10
-556.8006444751278
 20
-379.7195807547228
 30
0.0
 11
-557.100809712318
 21
-378.9517657887361
 31
0.0
  0
LINE
  5
1A7
102
{ACAD_REACTORS
330
26A
330
26B
102
}
330
6A
100
AcDbEntity
  8
0
  6
Continuous
 62
     2
100
AcDbLine
 10
-554.6921604567198
 20
-377.5819140880729
 30
0.0
 11
-555.9326648669727
 21
-377.5819140880729
 31
0.0
  0
LINE
  5
1A8
102
{ACAD_REACTORS
330
26C
330
26D
102
}
330
6A
100
AcDbEntity
  8
0
  6
Continuous
 62
     2
100
AcDbLine
 10
-553.1701569687548
 20
-377.5819140880729
 30
0.0
 11
-554.5728811865029
 21
-377.5819140880729
 31
0.0
  0
LINE
  5
1A9
102
{ACAD_REACTORS
330
26C
330
26D
102
}
330
6A
100
AcDbEntity
  8
0
  6
Continuous
 62
     2
100
AcDbLine
 10
-553.1701569687548
 20
-377.5819140880729
 30
0.0
 11
-552.473566030689
 21
-376.7941823027792
 31
0.0
  0
LINE
  5
1AA
102
{ACAD_REACTORS
330
26C
330
26D
102
}
330
6A
100
AcDbEntity
  8
0
  6
Continuous
 62
     2
100
AcDbLine
 10
-551.8723985087962
 20
-374.5281045642618
 30
0.0
 11
-550.4696742910489
 21
-374.5281045642618
 31
0.0
  0
LINE
  5
1AB
102
{ACAD_REACTORS
330
26C
330
26D
102
}
330
6A
100
AcDbEntity
  8
0
  6
Continuous
 62
     2
100
AcDbLine
 10
-554.4774577703301
 20
-374.5281045642618
 30
0.0
 11
-553.1749281395626
 21
-376.001055094298
 31
0.0
  0
LINE
  5
1AC
102
{ACAD_REACTORS
330
26C
330
26D
102
}
330
6A
100
AcDbEntity
  8
0
  6
Continuous
 62
     2
100
AcDbLine
 10
-554.5728811865029
 20
-377.5819140880729
 30
0.0
 11
-553.1749281395626
 21
-376.001055094298
 31
0.0
  0
LINE
  5
1AD
102
{ACAD_REACTORS
330
276
330
277
102
}
330
6A
100
AcDbEntity
  8
0
  6
Continuous
 62
     2
100
AcDbLine
 10
-552.7121245711231
 20
-379.8940841560836
 30
0.0
 11
-552.7121245711231
 21
-380.7666011628869
 31
0.0
  0
LINE
  5
1AE
102
{ACAD_REACTORS
330
276
330
277
102
}
330
6A
100
AcDbEntity
  8
0
  6
Continuous
 62
     2
100
AcDbLine
 10
-553.4817819140845
 20
-378.6725603465598
 30
0.0
 11
-552.3781426145164
 21
-378.6725603465598
 31
0.0
  0
LINE
  5
1AF
102
{ACAD_REACTORS
330
278
330
279
102
}
330
6A
100
AcDbEntity
  8
0
  6
Continuous
 62
     2
100
AcDbLine
 10
-568.8148260503749
 20
-379.8940841560831
 30
0.0
 11
-568.8148260503749
 21
-380.7666011628864
 31
0.0
  0
LINE
  5
1B0
102
{ACAD_REACTORS
330
278
330
279
102
}
330
6A
100
AcDbEntity
  8
0
  6
Continuous
 62
     2
100
AcDbLine
 10
-568.8148260503749
 20
-378.9343154486003
 30
0.0
 11
-568.8148260503749
 21
-378.061798441797
 31
0.0
  0
LINE
  5
1B1
330
6A
100
AcDbEntity
  8
1
  6
Continuous
 62
     7
100
AcDbLine
 10
-452.9774504653911
 20
-379.7346045642636
 30
0.0
 11
-546.1222549921424
 21
-379.7346045642636
 31
0.0
  0
LINE
  5
1B2
330
6A
100
AcDbEntity
  8
1
  6
Continuous
 62
     7
100
AcDbLine
 10
-461.8958587470698
 20
-362.7346045642636
 30
0.0
 11
-461.8958587470698
 21
-371.2346045642636
 31
0.0
  0
LINE
  5
1B3
330
6A
100
AcDbEntity
  8
1
  6
Continuous
 62
     7
100
AcDbLine
 10
-488.3958587470694
 20
-362.7346045642636
 30
0.0
 11
-488.3958587470694
 21
-371.2346045642636
 31
0.0
  0
LINE
  5
1B4
330
6A
100
AcDbEntity
  8
1
  6
Continuous
 62
     7
100
AcDbLine
 10
-546.1222549921424
 20
-371.2346045642636
 30
0.0
 11
-546.1222549921424
 21
-362.7346045642636
 31
0.0
  0
LINE
  5
1B5
330
6A
100
AcDbEntity
  8
1
  6
Continuous
 62
     7
100
AcDbLine
 10
-582.5222549921423
 20
-371.2346045642636
 30
0.0
 11
-582.5222549921423
 21
-362.7346045642636
 31
0.0
  0
LINE
  5
1B6
330
6A
100
AcDbEntity
  8
1
  6
Continuous
 62
     6
100
AcDbLine
 10
-546.1222549921424
 20
-371.2346045642636
 30
0.0
 11
-452.9774504653906
 21
-371.2346045642636
 31
0.0
  0
LINE
  5
1B7
330
6A
100
AcDbEntity
  8
1
  6
Continuous
 62
     7
100
AcDbLine
 10
-518.2222549921424
 20
-379.7346045642636
 30
0.0
 11
-518.2222549921424
 21
-371.2346045642636
 31
0.0
  0
LINE
  5
1B8
330
6A
100
AcDbEntity
  8
1
  6
Continuous
 62
     6
100
AcDbLine
 10
-452.9774504653906
 20
-371.2346045642636
 30
0.0
 11
-452.9774504653906
 21
-362.7346045642636
 31
0.0
  0
LINE
  5
1B9
330
6A
100
AcDbEntity
  8
1
  6
Continuous
 62
     2
100
AcDbLine
 10
-589.644117132059
 20
-388.2346045642659
 30
0.0
 11
-589.644117132059
 21
-388.234604564263
 31
0.0
  0
LINE
  5
1BA
330
6A
100
AcDbEntity
  8
1
  6
Continuous
 62
     6
100
AcDbLine
 10
-726.3107837987254
 20
-388.234604564263
 30
0.0
 11
-582.5222549921423
 21
-388.2346045642661
 31
0.0
  0
LINE
  5
1BB
330
6A
100
AcDbEntity
  8
1
  6
Continuous
 62
     6
100
AcDbLine
 10
-452.9774504653925
 20
-388.2346045642635
 30
0.0
 11
-452.9774504653929
 21
-379.7346045642636
 31
0.0
  0
LINE
  5
1BC
330
6A
100
AcDbEntity
  8
1
  6
Continuous
 62
     6
100
AcDbLine
 10
-847.9774504653922
 20
-388.234604564263
 30
0.0
 11
-847.9774504653931
 21
-101.2346045642628
 31
0.0
  0
LINE
  5
1BD
330
6A
100
AcDbEntity
  8
1
  6
Continuous
 62
     2
100
AcDbLine
 10
-867.9774504653932
 20
-244.734604564263
 30
0.0
 11
-867.9774504653932
 21
-393.234604564263
 31
0.0
  0
LINE
  5
1BE
330
6A
100
AcDbEntity
  8
1
  6
Continuous
 62
     2
100
AcDbLine
 10
-867.9774504653932
 20
-244.734604564263
 30
0.0
 11
-857.9774504653931
 21
-244.734604564263
 31
0.0
  0
LINE
  5
1BF
330
6A
100
AcDbEntity
  8
1
  6
Continuous
 62
     2
100
AcDbLine
 10
-867.9774504653932
 20
-96.23460456426301
 30
0.0
 11
-867.9774504653932
 21
-244.734604564263
 31
0.0
  0
LINE
  5
1C0
330
6A
100
AcDbEntity
  8
1
  6
Continuous
 62
     2
100
AcDbLine
 10
-637.9774504653952
 20
-96.23460456426301
 30
0.0
 11
-657.9774504653924
 21
-96.23460456426301
 31
0.0
  0
LINE
  5
1C1
330
6A
100
AcDbEntity
  8
1
  6
Continuous
 62
     2
100
AcDbLine
 10
-637.9774504653952
 20
-96.23460456426301
 30
0.0
 11
-637.9774504653952
 21
-100.2346045642628
 31
0.0
  0
LINE
  5
1C2
330
6A
100
AcDbEntity
  8
1
  6
Continuous
 62
     2
100
AcDbLine
 10
-847.9774504653931
 20
-96.23460456426301
 30
0.0
 11
-867.9774504653932
 21
-96.23460456426301
 31
0.0
  0
LINE
  5
1C3
330
6A
100
AcDbEntity
  8
1
  6
Continuous
 62
     2
100
AcDbLine
 10
-847.9774504653931
 20
-96.23460456426301
 30
0.0
 11
-847.9774504653931
 21
-100.2346045642628
 31
0.0
  0
LINE
  5
1C4
330
6A
100
AcDbEntity
  8
1
  6
Continuous
 62
     2
100
AcDbLine
 10
-794.644117132059
 20
-96.23460456426301
 30
0.0
 11
-847.9774504653931
 21
-96.23460456426301
 31
0.0
  0
LINE
  5
1C5
330
6A
100
AcDbEntity
  8
1
  6
Continuous
 62
     6
100
AcDbLine
 10
-794.644117132059
 20
-101.2346045642628
 30
0.0
 11
-726.3107837987254
 21
-101.234604564263
 31
0.0
  0
LINE
  5
1C6
330
6A
100
AcDbEntity
  8
1
  6
Continuous
 62
     2
100
AcDbLine
 10
-794.644117132059
 20
-101.2346045642628
 30
0.0
 11
-794.644117132059
 21
-96.23460456426301
 31
0.0
  0
LINE
  5
1C7
330
6A
100
AcDbEntity
  8
1
  6
Continuous
 62
     2
100
AcDbLine
 10
-726.3107837987254
 20
-96.23460456426301
 30
0.0
 11
-794.644117132059
 21
-96.23460456426301
 31
0.0
  0
LINE
  5
1C8
330
6A
100
AcDbEntity
  8
1
  6
Continuous
 62
     6
100
AcDbLine
 10
-726.3107837987254
 20
-101.234604564263
 30
0.0
 11
-657.9774504653924
 21
-101.234604564263
 31
0.0
  0
LINE
  5
1C9
330
6A
100
AcDbEntity
  8
1
  6
Continuous
 62
     2
100
AcDbLine
 10
-726.3107837987254
 20
-101.234604564263
 30
0.0
 11
-726.3107837987254
 21
-96.23460456426301
 31
0.0
  0
LINE
  5
1CA
330
6A
100
AcDbEntity
  8
1
  6
Continuous
 62
     2
100
AcDbLine
 10
-657.9774504653924
 20
-96.23460456426301
 30
0.0
 11
-726.3107837987254
 21
-96.23460456426301
 31
0.0
  0
LINE
  5
1CB
330
6A
100
AcDbEntity
  8
1
  6
Continuous
 62
     6
100
AcDbLine
 10
-657.9774504653924
 20
-101.234604564263
 30
0.0
 11
-589.644117132059
 21
-101.234604564263
 31
0.0
  0
LINE
  5
1CC
330
6A
100
AcDbEntity
  8
1
  6
Continuous
 62
     2
100
AcDbLine
 10
-657.9774504653924
 20
-101.234604564263
 30
0.0
 11
-657.9774504653924
 21
-96.23460456426301
 31
0.0
  0
LINE
  5
1CD
330
6A
100
AcDbEntity
  8
1
  6
Continuous
 62
     2
100
AcDbLine
 10
-589.644117132059
 20
-96.23460456426301
 30
0.0
 11
-637.9774504653952
 21
-96.23460456426301
 31
0.0
  0
LINE
  5
1CE
330
6A
100
AcDbEntity
  8
1
  6
Continuous
 62
     6
100
AcDbLine
 10
-589.644117132059
 20
-101.234604564263
 30
0.0
 11
-521.3107837987258
 21
-101.234604564263
 31
0.0
  0
LINE
  5
1CF
330
6A
100
AcDbEntity
  8
1
  6
Continuous
 62
     2
100
AcDbLine
 10
-589.644117132059
 20
-101.234604564263
 30
0.0
 11
-589.644117132059
 21
-96.23460456426301
 31
0.0
  0
LINE
  5
1D0
330
6A
100
AcDbEntity
  8
1
  6
Continuous
 62
     2
100
AcDbLine
 10
-521.3107837987258
 20
-96.23460456426301
 30
0.0
 11
-589.644117132059
 21
-96.23460456426301
 31
0.0
  0
LINE
  5
1D1
330
6A
100
AcDbEntity
  8
1
  6
Continuous
 62
     6
100
AcDbLine
 10
-521.3107837987258
 20
-101.234604564263
 30
0.0
 11
-452.9774504653949
 21
-101.234604564263
 31
0.0
  0
LINE
  5
1D2
330
6A
100
AcDbEntity
  8
1
  6
Continuous
 62
     2
100
AcDbLine
 10
-521.3107837987258
 20
-101.234604564263
 30
0.0
 11
-521.3107837987258
 21
-96.23460456426301
 31
0.0
  0
LINE
  5
1D3
330
6A
100
AcDbEntity
  8
1
  6
Continuous
 62
     2
100
AcDbLine
 10
-452.9774504653949
 20
-96.23460456426301
 30
0.0
 11
-521.3107837987258
 21
-96.23460456426301
 31
0.0
  0
LINE
  5
1D4
330
6A
100
AcDbEntity
  8
1
  6
Continuous
 62
     6
100
AcDbLine
 10
-847.9774504653931
 20
-101.2346045642628
 30
0.0
 11
-794.644117132059
 21
-101.2346045642628
 31
0.0
  0
LINE
  5
1D5
330
6A
100
AcDbEntity
  8
1
  6
Continuous
 62
     6
100
AcDbLine
 10
-452.9774504653924
 20
-273.4346045642628
 30
0.0
 11
-452.9774504653925
 21
-330.8346045642629
 31
0.0
  0
LINE
  5
1D6
330
6A
100
AcDbEntity
  8
1
  6
Continuous
 62
     2
100
AcDbLine
 10
-452.9774504653924
 20
-273.4346045642628
 30
0.0
 11
-447.9774504653949
 21
-273.4346045642628
 31
0.0
  0
LINE
  5
1D7
330
6A
100
AcDbEntity
  8
1
  6
Continuous
 62
     2
100
AcDbLine
 10
-447.9774504653949
 20
-216.034604564263
 30
0.0
 11
-447.9774504653949
 21
-273.4346045642628
 31
0.0
  0
LINE
  5
1D8
330
6A
100
AcDbEntity
  8
1
  6
Continuous
 62
     6
100
AcDbLine
 10
-452.9774504653924
 20
-216.034604564263
 30
0.0
 11
-452.9774504653924
 21
-273.4346045642628
 31
0.0
  0
LINE
  5
1D9
330
6A
100
AcDbEntity
  8
1
  6
Continuous
 62
     2
100
AcDbLine
 10
-452.9774504653924
 20
-216.034604564263
 30
0.0
 11
-447.9774504653949
 21
-216.034604564263
 31
0.0
  0
LINE
  5
1DA
330
6A
100
AcDbEntity
  8
1
  6
Continuous
 62
     2
100
AcDbLine
 10
-447.9774504653949
 20
-158.6346045642631
 30
0.0
 11
-447.9774504653949
 21
-216.034604564263
 31
0.0
  0
LINE
  5
1DB
330
6A
100
AcDbEntity
  8
1
  6
Continuous
 62
     6
100
AcDbLine
 10
-452.9774504653944
 20
-158.6346045642631
 30
0.0
 11
-452.9774504653924
 21
-216.034604564263
 31
0.0
  0
LINE
  5
1DC
330
6A
100
AcDbEntity
  8
1
  6
Continuous
 62
     2
100
AcDbLine
 10
-452.9774504653944
 20
-158.6346045642631
 30
0.0
 11
-447.9774504653949
 21
-158.6346045642631
 31
0.0
  0
LINE
  5
1DD
330
6A
100
AcDbEntity
  8
1
  6
Continuous
 62
     2
100
AcDbLine
 10
-447.9774504653949
 20
-101.234604564263
 30
0.0
 11
-447.9774504653949
 21
-158.6346045642631
 31
0.0
  0
LINE
  5
1DE
330
6A
100
AcDbEntity
  8
1
  6
Continuous
 62
     2
100
AcDbLine
 10
-452.9774504653949
 20
-101.234604564263
 30
0.0
 11
-447.9774504653949
 21
-101.234604564263
 31
0.0
  0
LINE
  5
1DF
330
6A
100
AcDbEntity
  8
1
  6
Continuous
 62
     2
100
AcDbLine
 10
-452.9774504653949
 20
-101.234604564263
 30
0.0
 11
-452.9774504653949
 21
-96.23460456426301
 31
0.0
  0
LINE
  5
1E0
330
6A
100
AcDbEntity
  8
1
  6
Continuous
 62
     2
100
AcDbLine
 10
-447.9774504653949
 20
-96.23460456426301
 30
0.0
 11
-447.9774504653949
 21
-101.234604564263
 31
0.0
  0
LINE
  5
1E1
330
6A
100
AcDbEntity
  8
1
  6
Continuous
 62
     6
100
AcDbLine
 10
-452.9774504653949
 20
-101.234604564263
 30
0.0
 11
-452.9774504653944
 21
-158.6346045642631
 31
0.0
  0
LINE
  5
1E2
330
6A
100
AcDbEntity
  8
1
  6
Continuous
 62
     2
100
AcDbLine
 10
-447.9774504653949
 20
-96.23460456426301
 30
0.0
 11
-452.9774504653949
 21
-96.23460456426301
 31
0.0
  0
LINE
  5
1E3
330
6A
100
AcDbEntity
  8
1
  6
Continuous
 62
     2
100
AcDbLine
 10
-447.9774504653949
 20
-388.234604564263
 30
0.0
 11
-447.9774504653949
 21
-330.8346045642629
 31
0.0
  0
LINE
  5
1E4
330
6A
100
AcDbEntity
  8
1
  6
Continuous
 62
     2
100
AcDbLine
 10
-447.9774504653949
 20
-388.234604564263
 30
0.0
 11
-447.9774504653949
 21
-393.234604564263
 31
0.0
  0
LINE
  5
1E5
330
6A
100
AcDbEntity
  8
1
  6
Continuous
 62
     2
100
AcDbLine
 10
-447.9774504653949
 20
-393.234604564263
 30
0.0
 11
-452.9774504653924
 21
-393.234604564263
 31
0.0
  0
LINE
  5
1E6
330
6A
100
AcDbEntity
  8
1
  6
Continuous
 62
     2
100
AcDbLine
 10
-589.644117132059
 20
-393.234604564263
 30
0.0
 11
-521.3107837987258
 21
-393.234604564263
 31
0.0
  0
LINE
  5
1E7
330
6A
100
AcDbEntity
  8
1
  6
Continuous
 62
     2
100
AcDbLine
 10
-637.9774504653952
 20
-393.234604564263
 30
0.0
 11
-589.644117132059
 21
-393.234604564263
 31
0.0
  0
LINE
  5
1E8
330
6A
100
AcDbEntity
  8
1
  6
Continuous
 62
     2
100
AcDbLine
 10
-637.9774504653952
 20
-393.234604564263
 30
0.0
 11
-637.9774504653952
 21
-389.234604564263
 31
0.0
  0
LINE
  5
1E9
330
6A
100
AcDbEntity
  8
1
  6
Continuous
 62
     2
100
AcDbLine
 10
-637.9774504653952
 20
-393.234604564263
 30
0.0
 11
-657.9774504653924
 21
-393.234604564263
 31
0.0
  0
LINE
  5
1EA
330
6A
100
AcDbEntity
  8
1
  6
Continuous
 62
     2
100
AcDbLine
 10
-847.9774504653931
 20
-393.234604564263
 30
0.0
 11
-794.644117132059
 21
-393.234604564263
 31
0.0
  0
LINE
  5
1EB
330
6A
100
AcDbEntity
  8
1
  6
Continuous
 62
     2
100
AcDbLine
 10
-847.9774504653931
 20
-393.234604564263
 30
0.0
 11
-847.9774504653931
 21
-389.234604564263
 31
0.0
  0
LINE
  5
1EC
330
6A
100
AcDbEntity
  8
1
  6
Continuous
 62
     2
100
AcDbLine
 10
-726.3107837987254
 20
-393.234604564263
 30
0.0
 11
-726.3107837987254
 21
-388.234604564263
 31
0.0
  0
LINE
  5
1ED
330
6A
100
AcDbEntity
  8
1
  6
Continuous
 62
     6
100
AcDbLine
 10
-794.644117132059
 20
-388.234604564263
 30
0.0
 11
-847.9774504653922
 21
-388.234604564263
 31
0.0
  0
LINE
  5
1EE
330
6A
100
AcDbEntity
  8
1
  6
Continuous
 62
     6
100
AcDbLine
 10
-794.644117132059
 20
-388.234604564263
 30
0.0
 11
-726.3107837987254
 21
-388.234604564263
 31
0.0
  0
LINE
  5
1EF
330
6A
100
AcDbEntity
  8
1
  6
Continuous
 62
     2
100
AcDbLine
 10
-794.644117132059
 20
-393.234604564263
 30
0.0
 11
-726.3107837987254
 21
-393.234604564263
 31
0.0
  0
LINE
  5
1F0
330
6A
100
AcDbEntity
  8
1
  6
Continuous
 62
     2
100
AcDbLine
 10
-794.644117132059
 20
-393.234604564263
 30
0.0
 11
-794.644117132059
 21
-388.234604564263
 31
0.0
  0
LINE
  5
1F1
330
6A
100
AcDbEntity
  8
1
  6
Continuous
 62
     2
100
AcDbLine
 10
-847.9774504653931
 20
-393.234604564263
 30
0.0
 11
-867.9774504653932
 21
-393.234604564263
 31
0.0
  0
LINE
  5
1F2
330
6A
100
AcDbEntity
  8
1
  6
Continuous
 62
     2
100
AcDbLine
 10
-447.9774504653949
 20
-330.8346045642629
 30
0.0
 11
-452.9774504653925
 21
-330.8346045642629
 31
0.0
  0
LINE
  5
1F3
330
6A
100
AcDbEntity
  8
1
  6
Continuous
 62
     2
100
AcDbLine
 10
-447.9774504653949
 20
-330.8346045642629
 30
0.0
 11
-447.9774504653949
 21
-273.4346045642628
 31
0.0
  0
LINE
  5
1F4
330
6A
100
AcDbEntity
  8
1
  6
Continuous
 62
     2
100
AcDbLine
 10
-657.9774504653924
 20
-393.234604564263
 30
0.0
 11
-657.9774504653924
 21
-388.234604564263
 31
0.0
  0
LINE
  5
1F5
330
6A
100
AcDbEntity
  8
1
  6
Continuous
 62
     2
100
AcDbLine
 10
-589.644117132059
 20
-393.234604564263
 30
0.0
 11
-589.644117132059
 21
-388.2346045642659
 31
0.0
  0
LINE
  5
1F6
330
6A
100
AcDbEntity
  8
1
  6
Continuous
 62
     2
100
AcDbLine
 10
-521.3107837987258
 20
-393.234604564263
 30
0.0
 11
-521.3107837987258
 21
-388.234604564263
 31
0.0
  0
LINE
  5
1F7
330
6A
100
AcDbEntity
  8
1
  6
Continuous
 62
     2
100
AcDbLine
 10
-521.3107837987258
 20
-393.234604564263
 30
0.0
 11
-452.9774504653924
 21
-393.234604564263
 31
0.0
  0
LINE
  5
1F8
330
6A
100
AcDbEntity
  8
1
  6
Continuous
 62
     2
100
AcDbLine
 10
-657.9774504653924
 20
-393.234604564263
 30
0.0
 11
-726.3107837987254
 21
-393.234604564263
 31
0.0
  0
LINE
  5
1F9
330
6A
100
AcDbEntity
  8
1
  6
Continuous
 62
     6
100
AcDbLine
 10
-452.9774504653934
 20
-366.9846045642636
 30
0.0
 11
-452.9774504653925
 21
-330.8346045642629
 31
0.0
  0
LINE
  5
1FA
330
6A
100
AcDbEntity
  8
1
  6
Continuous
 62
     6
100
AcDbLine
 10
-452.9774504653924
 20
-371.2346045642636
 30
0.0
 11
-452.9774504653934
 21
-366.9846045642636
 31
0.0
  0
LINE
  5
1FB
330
6A
100
AcDbEntity
  8
1
  6
Continuous
 62
     6
100
AcDbLine
 10
-452.9774504653929
 20
-379.7346045642636
 30
0.0
 11
-452.9774504653924
 21
-371.2346045642636
 31
0.0
  0
LINE
  5
1FC
330
6A
100
AcDbEntity
  8
1
  6
Continuous
 62
     6
100
AcDbLine
 10
-521.3107837987258
 20
-388.234604564263
 30
0.0
 11
-452.9774504653925
 21
-388.2346045642635
 31
0.0
  0
ARC
  5
1FD
102
{ACAD_REACTORS
330
278
330
279
102
}
330
6A
100
AcDbEntity
  8
0
  6
Continuous
 62
     2
100
AcDbCircle
 10
-570.1507539674927
 20
-382.7268807475978
 30
0.0
 40
4.852596863497994
100
AcDbArc
 50
74.02000874164679
 51
84.84185523037608
  0
ARC
  5
1FE
102
{ACAD_REACTORS
330
278
330
279
102
}
330
6A
100
AcDbEntity
  8
0
  6
Continuous
 62
     2
100
AcDbCircle
 10
-569.574713358739
 20
-379.5711203917135
 30
0.0
 40
0.9059297849853588
100
AcDbArc
 50
71.55192388185803
 51
113.3722778881257
  0
ARC
  5
1FF
102
{ACAD_REACTORS
330
278
330
279
102
}
330
6A
100
AcDbEntity
  8
0
  6
Continuous
 62
     2
100
AcDbCircle
 10
-569.7311533914411
 20
-379.6192712316805
 30
0.0
 40
0.5115800601947741
100
AcDbArc
 50
208.5214732576828
 51
246.6277221118369
  0
ARC
  5
200
102
{ACAD_REACTORS
330
278
330
279
102
}
330
6A
100
AcDbEntity
  8
0
  6
Continuous
 62
     2
100
AcDbCircle
 10
-569.574713358739
 20
-379.2572792129705
 30
0.0
 40
0.9059297849847924
100
AcDbArc
 50
246.6277221118715
 51
288.4480761181545
  0
ARC
  5
201
102
{ACAD_REACTORS
330
278
330
279
102
}
330
6A
100
AcDbEntity
  8
0
  6
Continuous
 62
     2
100
AcDbCircle
 10
-569.9928810923999
 20
-378.0037334369333
 30
0.0
 40
2.227384008972773
100
AcDbArc
 50
288.4480761181333
 51
301.9309089499629
  0
ARC
  5
202
102
{ACAD_REACTORS
330
274
330
275
102
}
330
6A
100
AcDbEntity
  8
0
  6
Continuous
 62
     2
100
AcDbCircle
 10
-575.2179548250066
 20
-377.2712314080193
 30
0.0
 40
0.9118481501443576
100
AcDbArc
 50
295.3740086781755
 51
64.62599132181222
  0
ARC
  5
203
102
{ACAD_REACTORS
330
274
330
275
102
}
330
6A
100
AcDbEntity
  8
0
  6
Continuous
 62
     2
100
AcDbCircle
 10
-574.6919121269187
 20
-375.5565545195447
 30
0.0
 40
0.315716923076185
100
AcDbArc
 50
90.18896704256132
 51
180.0
  0
ARC
  5
204
102
{ACAD_REACTORS
330
276
330
277
102
}
330
6A
100
AcDbEntity
  8
0
  6
Continuous
 62
     2
100
AcDbCircle
 10
-553.4817819140845
 20
-379.6270833533859
 30
0.0
 40
0.9545230068260935
100
AcDbArc
 50
90.0
 51
109.3371432194265
  0
ARC
  5
205
102
{ACAD_REACTORS
330
276
330
277
102
}
330
6A
100
AcDbEntity
  8
0
  6
Continuous
 62
     2
100
AcDbCircle
 10
-553.2510946541067
 20
-379.414199802342
 30
0.0
 40
0.9410597353349581
100
AcDbArc
 50
151.4785267423587
 51
208.5214732576687
  0
ARC
  5
206
102
{ACAD_REACTORS
330
276
330
277
102
}
330
6A
100
AcDbEntity
  8
0
  6
Continuous
 62
     2
100
AcDbCircle
 10
-553.472011879485
 20
-379.2572792129705
 30
0.0
 40
0.9059297849852433
100
AcDbArc
 50
246.6277221118055
 51
288.4480761180772
  0
ARC
  5
207
102
{ACAD_REACTORS
330
276
330
277
102
}
330
6A
100
AcDbEntity
  8
0
  6
Continuous
 62
     2
100
AcDbCircle
 10
-553.890179613147
 20
-378.0037334369338
 30
0.0
 40
2.227384008972719
100
AcDbArc
 50
288.4480761181337
 51
301.9309089499389
  0
ARC
  5
208
102
{ACAD_REACTORS
330
276
330
277
102
}
330
6A
100
AcDbEntity
  8
0
  6
Continuous
 62
     2
100
AcDbCircle
 10
-554.0480524882398
 20
-376.1015188570855
 30
0.0
 40
4.852596863498838
100
AcDbArc
 50
275.158144769638
 51
285.9799912583384
  0
ARC
  5
209
102
{ACAD_REACTORS
330
276
330
277
102
}
330
6A
100
AcDbEntity
  8
0
  6
Continuous
 62
     2
100
AcDbCircle
 10
-553.7591963935039
 20
-379.3014094403071
 30
0.0
 40
1.639695123940531
100
AcDbArc
 50
195.0618917771004
 51
275.1581447696772
  0
ARC
  5
20A
102
{ACAD_REACTORS
330
26E
330
26F
102
}
330
6A
100
AcDbEntity
  8
0
  6
Continuous
 62
     2
100
AcDbCircle
 10
-569.487409705195
 20
-375.5834702055955
 30
0.0
 40
1.055365641333708
100
AcDbArc
 50
270.0
 51
90.0
  0
ARC
  5
20B
102
{ACAD_REACTORS
330
274
330
275
102
}
330
6A
100
AcDbEntity
  8
0
  6
Continuous
 62
     2
100
AcDbCircle
 10
-577.2674608134505
 20
-379.9128320856136
 30
0.0
 40
0.3157169230755699
100
AcDbArc
 50
180.0
 51
270.0
  0
ARC
  5
20C
102
{ACAD_REACTORS
330
274
330
275
102
}
330
6A
100
AcDbEntity
  8
0
  6
Continuous
 62
     2
100
AcDbCircle
 10
-575.7916275524409
 20
-375.5563770428965
 30
0.0
 40
0.315716923076593
100
AcDbArc
 50
0.0
 51
90.0
  0
ARC
  5
20D
102
{ACAD_REACTORS
330
274
330
275
102
}
330
6A
100
AcDbEntity
  8
0
  6
Continuous
 62
     2
100
AcDbCircle
 10
-575.7916275524409
 20
-376.1604016619571
 30
0.0
 40
0.3157169230760658
100
AcDbArc
 50
295.1944106485672
 51
0.0
  0
ARC
  5
20E
102
{ACAD_REACTORS
330
274
330
275
102
}
330
6A
100
AcDbEntity
  8
0
  6
Continuous
 62
     2
100
AcDbCircle
 10
-575.7916275524409
 20
-379.9128320856136
 30
0.0
 40
0.3157169230767067
100
AcDbArc
 50
270.0
 51
0.0
  0
ARC
  5
20F
102
{ACAD_REACTORS
330
274
330
275
102
}
330
6A
100
AcDbEntity
  8
0
  6
Continuous
 62
     2
100
AcDbCircle
 10
-577.861355490197
 20
-374.9523491796638
 30
0.0
 40
0.424244615383941
100
AcDbArc
 50
90.0
 51
180.0
  0
ARC
  5
210
102
{ACAD_REACTORS
330
274
330
275
102
}
330
6A
100
AcDbEntity
  8
0
  6
Continuous
 62
     2
100
AcDbCircle
 10
-572.3880433994801
 20
-374.9523491796638
 30
0.0
 40
0.424244615383941
100
AcDbArc
 50
0.0
 51
90.0
  0
ARC
  5
211
102
{ACAD_REACTORS
330
274
330
275
102
}
330
6A
100
AcDbEntity
  8
0
  6
Continuous
 62
     2
100
AcDbCircle
 10
-572.3880433994801
 20
-380.516859948864
 30
0.0
 40
0.424244615383202
100
AcDbArc
 50
270.0
 51
0.0
  0
ARC
  5
212
102
{ACAD_REACTORS
330
272
330
273
102
}
330
6A
100
AcDbEntity
  8
0
  6
Continuous
 62
     2
100
AcDbCircle
 10
-563.1696595123885
 20
-376.0550093261676
 30
0.0
 40
0.7717997786795255
100
AcDbArc
 50
321.8795802028372
 51
38.12041979715944
  0
ARC
  5
213
102
{ACAD_REACTORS
330
272
330
273
102
}
330
6A
100
AcDbEntity
  8
0
  6
Continuous
 62
     2
100
AcDbCircle
 10
-562.9699194760424
 20
-376.2117405042881
 30
0.0
 40
0.5179085730134564
100
AcDbArc
 50
218.1204197971334
 51
321.8795802028588
  0
ARC
  5
214
102
{ACAD_REACTORS
330
270
330
271
102
}
330
6A
100
AcDbEntity
  8
0
  6
Continuous
 62
     2
100
AcDbCircle
 10
-566.6499270650027
 20
-379.414199802342
 30
0.0
 40
1.458034083652017
100
AcDbArc
 50
297.5481481757046
 51
62.45185182429753
  0
ARC
  5
215
102
{ACAD_REACTORS
330
270
330
271
102
}
330
6A
100
AcDbEntity
  8
0
  6
Continuous
 62
     2
100
AcDbCircle
 10
-567.2118068486693
 20
-379.414199802342
 30
0.0
 40
1.458034083651592
100
AcDbArc
 50
117.5481481756629
 51
242.4518518243351
  0
ARC
  5
216
102
{ACAD_REACTORS
330
270
330
271
102
}
330
6A
100
AcDbEntity
  8
0
  6
Continuous
 62
     2
100
AcDbCircle
 10
-566.9308669568359
 20
-379.9527748126448
 30
0.0
 40
2.065479772208644
100
AcDbArc
 50
62.45185182430745
 51
117.5481481756702
  0
ARC
  5
217
102
{ACAD_REACTORS
330
270
330
271
102
}
330
6A
100
AcDbEntity
  8
0
  6
Continuous
 62
     2
100
AcDbCircle
 10
-566.9308669568359
 20
-378.8756247920386
 30
0.0
 40
2.065479772208676
100
AcDbArc
 50
242.4518518243364
 51
297.548148175686
  0
ARC
  5
218
102
{ACAD_REACTORS
330
272
330
273
102
}
330
6A
100
AcDbEntity
  8
0
  6
Continuous
 62
     2
100
AcDbCircle
 10
-562.7701794396962
 20
-376.0550093261676
 30
0.0
 40
0.7717997786795798
100
AcDbArc
 50
141.8795802028458
 51
218.1204197971575
  0
ARC
  5
219
102
{ACAD_REACTORS
330
272
330
273
102
}
330
6A
100
AcDbEntity
  8
0
  6
Continuous
 62
     2
100
AcDbCircle
 10
-562.9699194760424
 20
-375.8982781480471
 30
0.0
 40
0.5179085730133669
100
AcDbArc
 50
38.12041979714121
 51
141.8795802028666
  0
ARC
  5
21A
102
{ACAD_REACTORS
330
274
330
275
102
}
330
6A
100
AcDbEntity
  8
0
  6
Continuous
 62
     2
100
AcDbCircle
 10
-577.861355490197
 20
-380.516859948864
 30
0.0
 40
0.4242446153828041
100
AcDbArc
 50
180.0
 51
270.0
  0
ARC
  5
21B
102
{ACAD_REACTORS
330
274
330
275
102
}
330
6A
100
AcDbEntity
  8
0
  6
Continuous
 62
     2
100
AcDbCircle
 10
-575.7916275524409
 20
-378.382061154082
 30
0.0
 40
0.315716923076593
100
AcDbArc
 50
0.0
 51
64.805589351446
  0
ARC
  5
21C
102
{ACAD_REACTORS
330
274
330
275
102
}
330
6A
100
AcDbEntity
  8
0
  6
Continuous
 62
     2
100
AcDbCircle
 10
-575.2690431048659
 20
-377.2712314080193
 30
0.0
 40
0.9118975235576555
100
AcDbArc
 50
115.1944106485211
 51
244.8055893514895
  0
ARC
  5
21D
102
{ACAD_REACTORS
330
274
330
275
102
}
330
6A
100
AcDbEntity
  8
0
  6
Continuous
 62
     2
100
AcDbCircle
 10
-577.2674608134505
 20
-375.5563770428965
 30
0.0
 40
0.3157169230760815
100
AcDbArc
 50
90.0
 51
180.0
  0
ARC
  5
21E
102
{ACAD_REACTORS
330
26E
330
26F
102
}
330
6A
100
AcDbEntity
  8
0
  6
Continuous
 62
     2
100
AcDbCircle
 10
-569.9288822314334
 20
-375.544074234373
 30
0.0
 40
0.3528638246710898
100
AcDbArc
 50
270.0
 51
90.0
  0
ARC
  5
21F
102
{ACAD_REACTORS
330
272
330
273
102
}
330
6A
100
AcDbEntity
  8
0
  6
Continuous
 62
     2
100
AcDbCircle
 10
-563.1861914862076
 20
-376.0550093261676
 30
0.0
 40
1.526904761905769
100
AcDbArc
 50
90.0
 51
270.0
  0
ARC
  5
220
102
{ACAD_REACTORS
330
276
330
277
102
}
330
6A
100
AcDbEntity
  8
0
  6
Continuous
 62
     2
100
AcDbCircle
 10
-553.7591963935039
 20
-379.5269901643768
 30
0.0
 40
1.639695123940101
100
AcDbArc
 50
90.0
 51
164.9381082228996
  0
ARC
  5
221
102
{ACAD_REACTORS
330
276
330
277
102
}
330
6A
100
AcDbEntity
  8
0
  6
Continuous
 62
     2
100
AcDbCircle
 10
-554.1783242369656
 20
-379.414199802342
 30
0.0
 40
1.205656168392947
100
AcDbArc
 50
164.9381082229021
 51
195.0618917770927
  0
ARC
  5
222
102
{ACAD_REACTORS
330
276
330
277
102
}
330
6A
100
AcDbEntity
  8
0
  6
Continuous
 62
     2
100
AcDbCircle
 10
-553.6284519121882
 20
-379.6192712316805
 30
0.0
 40
0.5115800601959717
100
AcDbArc
 50
208.5214732576897
 51
246.6277221118369
  0
ARC
  5
223
102
{ACAD_REACTORS
330
276
330
277
102
}
330
6A
100
AcDbEntity
  8
0
  6
Continuous
 62
     2
100
AcDbCircle
 10
-553.6284519121882
 20
-379.2091283730029
 30
0.0
 40
0.5115800601944048
100
AcDbArc
 50
109.3371432194823
 51
151.4785267424222
  0
ARC
  5
224
102
{ACAD_REACTORS
330
274
330
275
102
}
330
6A
100
AcDbEntity
  8
0
  6
Continuous
 62
     2
100
AcDbCircle
 10
-574.6919121269187
 20
-378.9622244146827
 30
0.0
 40
0.3157169230768204
100
AcDbArc
 50
180.0
 51
269.8110329574387
  0
ARC
  5
225
102
{ACAD_REACTORS
330
274
330
275
102
}
330
6A
100
AcDbEntity
  8
0
  6
Continuous
 62
     2
100
AcDbCircle
 10
-574.6862959916086
 20
-377.2593894671137
 30
0.0
 40
2.018561131933266
100
AcDbArc
 50
269.811032957581
 51
90.188967042419
  0
ARC
  5
226
102
{ACAD_REACTORS
330
274
330
275
102
}
330
6A
100
AcDbEntity
  8
0
  6
Continuous
 62
     2
100
AcDbCircle
 10
-574.6919121269187
 20
-376.1620898080515
 30
0.0
 40
0.3157169230768204
100
AcDbArc
 50
180.0
 51
244.6259913216346
  0
ARC
  5
227
102
{ACAD_REACTORS
330
274
330
275
102
}
330
6A
100
AcDbEntity
  8
0
  6
Continuous
 62
     2
100
AcDbCircle
 10
-574.6919121269187
 20
-378.3803730079876
 30
0.0
 40
0.315716923076545
100
AcDbArc
 50
115.3740086783565
 51
180.0
  0
ARC
  5
228
102
{ACAD_REACTORS
330
278
330
279
102
}
330
6A
100
AcDbEntity
  8
0
  6
Continuous
 62
     2
100
AcDbCircle
 10
-569.8618978727568
 20
-379.5269901643768
 30
0.0
 40
1.639695123940496
100
AcDbArc
 50
84.8418552303663
 51
164.9381082228903
  0
ARC
  5
229
102
{ACAD_REACTORS
330
278
330
279
102
}
330
6A
100
AcDbEntity
  8
0
  6
Continuous
 62
     2
100
AcDbCircle
 10
-570.2810257162196
 20
-379.414199802342
 30
0.0
 40
1.205656168390971
100
AcDbArc
 50
164.9381082228768
 51
195.0618917770945
  0
ARC
  5
22A
102
{ACAD_REACTORS
330
278
330
279
102
}
330
6A
100
AcDbEntity
  8
0
  6
Continuous
 62
     2
100
AcDbCircle
 10
-569.8618978727568
 20
-379.3014094403071
 30
0.0
 40
1.63969512393941
100
AcDbArc
 50
195.0618917770925
 51
275.1581447696353
  0
ARC
  5
22B
102
{ACAD_REACTORS
330
278
330
279
102
}
330
6A
100
AcDbEntity
  8
0
  6
Continuous
 62
     2
100
AcDbCircle
 10
-570.1507539674927
 20
-376.1015188570855
 30
0.0
 40
4.852596863498215
100
AcDbArc
 50
275.1581447696238
 51
285.979991258353
  0
ARC
  5
22C
102
{ACAD_REACTORS
330
278
330
279
102
}
330
6A
100
AcDbEntity
  8
0
  6
Continuous
 62
     2
100
AcDbCircle
 10
-569.3537961333607
 20
-379.414199802342
 30
0.0
 40
0.9410597353334044
100
AcDbArc
 50
151.4785267422718
 51
208.5214732576947
  0
ARC
  5
22D
102
{ACAD_REACTORS
330
278
330
279
102
}
330
6A
100
AcDbEntity
  8
0
  6
Continuous
 62
     2
100
AcDbCircle
 10
-569.7311533914411
 20
-379.2091283730029
 30
0.0
 40
0.5115800601947954
100
AcDbArc
 50
113.3722778881858
 51
151.4785267423172
  0
ARC
  5
22E
102
{ACAD_REACTORS
330
278
330
279
102
}
330
6A
100
AcDbEntity
  8
0
  6
Continuous
 62
     2
100
AcDbCircle
 10
-569.9928810923999
 20
-380.8246661677501
 30
0.0
 40
2.227384008973465
100
AcDbArc
 50
58.06909105003707
 51
71.55192388186676
  0
ARC
  5
22F
102
{ACAD_REACTORS
330
270
330
271
102
}
330
6A
100
AcDbEntity
  8
0
  6
Continuous
 62
     2
100
AcDbCircle
 10
-566.9308669568359
 20
-379.2574686242215
 30
0.0
 40
0.5179085730132582
100
AcDbArc
 50
38.12041979716663
 51
141.8795802028567
  0
ARC
  5
230
102
{ACAD_REACTORS
330
270
330
271
102
}
330
6A
100
AcDbEntity
  8
0
  6
Continuous
 62
     2
100
AcDbCircle
 10
-566.7311269204899
 20
-379.414199802342
 30
0.0
 40
0.7717997786795062
100
AcDbArc
 50
141.8795802028254
 51
218.1204197971646
  0
ARC
  5
231
102
{ACAD_REACTORS
330
270
330
271
102
}
330
6A
100
AcDbEntity
  8
0
  6
Continuous
 62
     2
100
AcDbCircle
 10
-566.9308669568359
 20
-379.5709309804619
 30
0.0
 40
0.5179085730138073
100
AcDbArc
 50
218.1204197971829
 51
321.8795802027938
  0
ARC
  5
232
102
{ACAD_REACTORS
330
270
330
271
102
}
330
6A
100
AcDbEntity
  8
0
  6
Continuous
 62
     2
100
AcDbCircle
 10
-567.1306069931823
 20
-379.414199802342
 30
0.0
 40
0.7717997786794905
100
AcDbArc
 50
321.8795802028405
 51
38.1204197971694
  0
CIRCLE
  5
233
330
6A
100
AcDbEntity
  8
1
  6
Continuous
 62
     2
100
AcDbCircle
 10
-569.7856001055798
 20
-367.1096045642637
 30
0.0
 40
2.5
  0
CIRCLE
  5
234
330
6A
100
AcDbEntity
  8
1
  6
Continuous
 62
     2
100
AcDbCircle
 10
-569.7856001055798
 20
-367.1096045642637
 30
0.0
 40
1.25
  0
CIRCLE
  5
235
102
{ACAD_REACTORS
330
274
330
275
102
}
330
6A
100
AcDbEntity
  8
0
  6
Continuous
 62
     2
100
AcDbCircle
 10
-575.2417698396794
 20
-377.2712314080193
 30
0.0
 40
0.4709789327785074
  0
MTEXT
  5
236
330
6A
100
AcDbEntity
  8
1
 62
     3
100
AcDbMText
 10
-849.5547771540391
 20
-388.2076904647624
 30
0.0
 40
1.8
 41
0.0
 71
     7
 72
     1
  3
Weitergabe sowie Vervielf\U+00e4ltigung dieses Dokuments, Verwertung und \PMitteilung seines Inhalts sind verboten, soweit nicht ausdr\U+00fccklich gestattet. \PZuwiderhandlungen verpflichten zu Schadenersatz. Alle Rechte f\U+00fcr den Fall\Pder Pat
  1
ent-, Gebrauchsmuster- oder Designeintragung vorbehalten.
  7
CONVERTER_11
 11
0.0
 21
1.0
 31
0.0
 73
     1
 44
0.99639855942377
  0
MTEXT
  5
237
330
6A
100
AcDbEntity
  8
1
 62
     3
100
AcDbMText
 10
-849.7089834651331
 20
-215.2483204506093
 30
0.0
 40
1.8
 41
0.0
 71
     7
 72
     1
  3
Transfer or duplication of this document as well as the utilisation or\Pcommunication of its content are not permitted unless express consent\Pis granted. Violations give rise to claims for damages. All rights reserved\Pin case of patent, utility mo
  1
del or design patent registrations.
  7
CONVERTER_11
 11
0.0
 21
1.0
 31
0.0
 73
     1
 44
0.99639855942377
  0
TEXT
  5
238
330
6A
100
AcDbEntity
  8
1
 62
     2
100
AcDbText
 10
-563.3222549921425
 20
-386.9936217792551
 30
0.0
 40
1.8
  1
of
 41
0.9
  7
CONVERTER_11
100
AcDbText
  0
TEXT
  5
239
330
6A
100
AcDbEntity
  8
1
 62
     2
100
AcDbText
 10
-581.5222549921423
 20
-386.9936217792553
 30
0.0
 40
1.8
  1
page
 41
0.9
  7
CONVERTER_11
100
AcDbText
  0
TEXT
  5
23A
330
6A
100
AcDbEntity
  8
1
 62
     2
100
AcDbText
 10
-572.8759900218004
 20
-387.0338532180655
 30
0.0
 40
1.8
  1
1
 41
0.9
  7
CONVERTER_11
100
AcDbText
  0
TEXT
  5
23B
330
6A
100
AcDbEntity
  8
1
 62
     2
100
AcDbText
 10
-558.0869461823288
 20
-386.9846045642636
 30
0.0
 40
1.8
  1
1
 41
0.9
  7
CONVERTER_11
100
AcDbText
  0
MTEXT
  5
23D
330
6A
100
AcDbEntity
  8
1
 62
     7
100
AcDbMText
 10
-499.5498527287669
 20
-384.9846045642634
 30
0.0
 40
3.0
 41
0.0
 71
     5
 72
     1
  1
CD-HF 60X80 BU
  7
CONVERTER_12
 73
     1
 44
1.20048019207683
  0
MTEXT
  5
23E
330
6A
100
AcDbEntity
  8
1
 62
     2
100
AcDbMText
 10
-545.1222549921424
 20
-380.7346045642636
 30
0.0
 40
1.8
 41
0.0
 71
     1
 72
     1
  1
description
  7
CONVERTER_11
 73
     1
 44
1.20048019207683
  0
MTEXT
  5
23F
330
6A
100
AcDbEntity
  8
1
 62
     3
100
AcDbMText
 10
-556.3222549921425
 20
-367.1096045642636
 30
0.0
 40
2.5
 41
0.0
 71
     5
 72
     1
  1
DIN A3
  7
CONVERTER_11
 73
     1
 44
1.20048019207683
  0
MTEXT
  5
240
330
6A
100
AcDbEntity
  8
1
 62
     2
100
AcDbMText
 10
-616.9332782613519
 20
-375.4846045642648
 30
0.0
 40
2.0
 41
0.0
 71
     5
 72
     1
  1
General Information\P- Simplified representation\P- Document excluded from change process\P- Linear dimensions [mm]
  7
CONVERTER_11
 73
     1
 44
1.20048019207683
  0
TEXT
  5
241
330
6A
100
AcDbEntity
  8
1
 62
     7
100
AcDbText
 10
-544.6222549921426
 20
-378.4346045642636
 30
0.0
 40
2.5
  1
3240596
 41
0.81
  7
CONVERTER_12
100
AcDbText
  0
MTEXT
  5
242
330
6A
100
AcDbEntity
  8
1
 62
     2
100
AcDbMText
 10
-545.0222549921424
 20
-372.2346045642636
 30
0.0
 40
1.8
 41
0.0
 71
     1
 72
     1
  1
ident.-No.
  7
CONVERTER_11
 73
     1
 44
1.20048019207683
  0
MTEXT
  5
243
330
6A
100
AcDbEntity
  8
1
 62
     2
100
AcDbMText
 10
-460.7958587470696
 20
-363.7346045642636
 30
0.0
 40
1.8
 41
0.0
 71
     1
 72
     1
  1
scale
  7
CONVERTER_11
 73
     1
 44
1.20048019207683
  0
MTEXT
  5
245
330
6A
100
AcDbEntity
  8
1
 62
     3
100
AcDbMText
 10
-457.4366546062301
 20
-369.9346045642635
 30
0.0
 40
2.5
 41
0.0
 71
     8
 72
     1
  1
1:2
  7
CONVERTER_13
 73
     1
 44
1.32052821128451
  0
TEXT
  5
246
330
6A
100
AcDbEntity
  8
1
 62
     7
100
AcDbText
 10
-545.0222549921424
 20
-369.9346045642636
 30
0.0
 40
2.5
  1
01174892
 41
0.81
  7
CONVERTER_12
100
AcDbText
  0
MTEXT
  5
248
330
6A
100
AcDbEntity
  8
1
 62
     2
100
AcDbMText
 10
-545.0222549921424
 20
-363.7346045642636
 30
0.0
 40
1.8
 41
0.0
 71
     1
 72
     1
  1
document-No. / RI
  7
CONVERTER_14
 73
     1
 44
1.32052821128451
  0
TEXT
  5
249
330
6A
100
AcDbEntity
  8
1
 62
     3
100
AcDbText
 10
-517.2222549921424
 20
-378.4346045642636
 30
0.0
 40
2.5
  1
 
 41
0.81
  7
CONVERTER_12
100
AcDbText
  0
MTEXT
  5
24A
330
6A
100
AcDbEntity
  8
1
 62
     2
100
AcDbMText
 10
-517.2222549921424
 20
-372.2346045642636
 30
0.0
 40
1.8
 41
0.0
 71
     1
 72
     1
  1
document-type
  7
CONVERTER_11
 73
     1
 44
1.20048019207683
  0
MTEXT
  5
24B
330
6A
100
AcDbEntity
  8
1
 62
     2
100
AcDbMText
 10
-487.3958587470694
 20
-363.7346045642636
 30
0.0
 40
1.8
 41
0.0
 71
     1
 72
     1
  1
date
  7
CONVERTER_11
 73
     1
 44
1.32052821128451
  0
TEXT
  5
24C
330
6A
100
AcDbEntity
  8
1
 62
     3
100
AcDbText
 10
-487.3958587470694
 20
-369.9346045642636
 30
0.0
 40
2.5
  1
19.11.2018
 41
0.81
  7
CONVERTER_12
100
AcDbText
  0
TEXT
  5
24D
330
6A
100
AcDbEntity
  8
1
 62
     7
100
AcDbText
 10
-524.9923427730866
 20
-369.9346045642636
 30
0.0
 40
2.5
  1
00
 41
0.81
  7
CONVERTER_12
100
AcDbText
  0
TEXT
  5
24E
330
6A
100
AcDbEntity
  8
1
 62
     7
100
AcDbText
 10
-527.1487072701286
 20
-369.9346045642636
 30
0.0
 40
2.5
  1
/
 41
0.9
  7
CONVERTER_11
100
AcDbText
  0
TEXT
  5
24F
330
6A
100
AcDbEntity
  8
1
 62
     7
100
AcDbText
 10
-829.9774504653922
 20
-100.2346045642628
 30
0.0
 40
2.5
  1
1
 41
0.9
  7
CONVERTER_11
100
AcDbText
  0
TEXT
  5
250
330
6A
100
AcDbEntity
  8
1
 62
     7
100
AcDbText
 10
-761.644117132059
 20
-100.2346045642628
 30
0.0
 40
2.5
  1
2
 41
0.9
  7
CONVERTER_11
100
AcDbText
  0
TEXT
  5
251
330
6A
100
AcDbEntity
  8
1
 62
     7
100
AcDbText
 10
-693.3107837987254
 20
-100.2346045642628
 30
0.0
 40
2.5
  1
3
 41
0.9
  7
CONVERTER_11
100
AcDbText
  0
TEXT
  5
252
330
6A
100
AcDbEntity
  8
1
 62
     7
100
AcDbText
 10
-624.9774504653924
 20
-100.2346045642628
 30
0.0
 40
2.5
  1
4
 41
0.9
  7
CONVERTER_11
100
AcDbText
  0
TEXT
  5
253
330
6A
100
AcDbEntity
  8
1
 62
     7
100
AcDbText
 10
-556.644117132059
 20
-100.2346045642628
 30
0.0
 40
2.5
  1
5
 41
0.9
  7
CONVERTER_11
100
AcDbText
  0
TEXT
  5
254
330
6A
100
AcDbEntity
  8
1
 62
     7
100
AcDbText
 10
-488.3107837987258
 20
-100.2346045642628
 30
0.0
 40
2.5
  1
6
 41
0.9
  7
CONVERTER_11
100
AcDbText
  0
TEXT
  5
255
330
6A
100
AcDbEntity
  8
1
 62
     7
100
AcDbText
 10
-451.9774504653924
 20
-131.1346045642631
 30
0.0
 40
2.5
  1
A
 41
0.9
  7
CONVERTER_11
100
AcDbText
  0
TEXT
  5
256
330
6A
100
AcDbEntity
  8
1
 62
     7
100
AcDbText
 10
-451.9774504653924
 20
-188.534604564263
 30
0.0
 40
2.5
  1
B
 41
0.9
  7
CONVERTER_11
100
AcDbText
  0
TEXT
  5
257
330
6A
100
AcDbEntity
  8
1
 62
     7
100
AcDbText
 10
-451.9774504653924
 20
-245.9346045642628
 30
0.0
 40
2.5
  1
C
 41
0.9
  7
CONVERTER_11
100
AcDbText
  0
TEXT
  5
258
330
6A
100
AcDbEntity
  8
1
 62
     7
100
AcDbText
 10
-451.9774504653924
 20
-303.3346045642629
 30
0.0
 40
2.5
  1
D
 41
0.9
  7
CONVERTER_11
100
AcDbText
  0
TEXT
  5
259
330
6A
100
AcDbEntity
  8
1
 62
     7
100
AcDbText
 10
-761.644117132059
 20
-392.234604564263
 30
0.0
 40
2.5
  1
2
 41
0.9
  7
CONVERTER_11
100
AcDbText
  0
TEXT
  5
25A
330
6A
100
AcDbEntity
  8
1
 62
     7
100
AcDbText
 10
-829.9774504653922
 20
-392.234604564263
 30
0.0
 40
2.5
  1
1
 41
0.9
  7
CONVERTER_11
100
AcDbText
  0
TEXT
  5
25B
330
6A
100
AcDbEntity
  8
1
 62
     7
100
AcDbText
 10
-451.9774504653924
 20
-360.734604564263
 30
0.0
 40
2.5
  1
E
 41
0.9
  7
CONVERTER_11
100
AcDbText
  0
TEXT
  5
25C
330
6A
100
AcDbEntity
  8
1
 62
     7
100
AcDbText
 10
-693.3107837987254
 20
-392.234604564263
 30
0.0
 40
2.5
  1
3
 41
0.9
  7
CONVERTER_11
100
AcDbText
  0
TEXT
  5
25D
330
6A
100
AcDbEntity
  8
1
 62
     7
100
AcDbText
 10
-624.9774504653924
 20
-392.234604564263
 30
0.0
 40
2.5
  1
4
 41
0.9
  7
CONVERTER_11
100
AcDbText
  0
TEXT
  5
25E
330
6A
100
AcDbEntity
  8
1
 62
     7
100
AcDbText
 10
-556.6441171320591
 20
-392.234604564263
 30
0.0
 40
2.5
  1
5
 41
0.9
  7
CONVERTER_11
100
AcDbText
  0
TEXT
  5
25F
330
6A
100
AcDbEntity
  8
1
 62
     7
100
AcDbText
 10
-488.3107837987258
 20
-392.234604564263
 30
0.0
 40
2.5
  1
6
 41
0.9
  7
CONVERTER_11
100
AcDbText
  0
HATCH
  5
260
330
6A
100
AcDbEntity
  8
1
  6
Continuous
 62
     2
100
AcDbHatch
 10
0.0
 20
0.0
 30
0.0
210
0.0
220
0.0
230
1.0
  2
CUSTOM0
 70
     0
 71
     1
 91
        1
 92
        1
 93
       12
 72
     1
 10
-564.8547542791812
 20
-377.5819140880729
 11
-566.0475469813478
 21
-377.5819140880729
 72
     1
 10
-566.0475469813478
 20
-377.5819140880729
 11
-566.0475469813478
 21
-376.4476419792292
 72
     1
 10
-566.0475469813478
 20
-376.4476419792292
 11
-567.097204559255
 21
-376.4476419792292
 72
     1
 10
-567.097204559255
 20
-376.4476419792292
 11
-567.097204559255
 21
-377.5819140880729
 72
     1
 10
-567.097204559255
 20
-377.5819140880729
 11
-568.2899972614217
 21
-377.5819140880729
 72
     1
 10
-568.2899972614217
 20
-377.5819140880729
 11
-568.2899972614217
 21
-374.5281045642618
 72
     1
 10
-568.2899972614217
 20
-374.5281045642618
 11
-567.097204559255
 21
-374.5281045642618
 72
     1
 10
-567.097204559255
 20
-374.5281045642618
 11
-567.097204559255
 21
-375.5969378975964
 72
     1
 10
-567.097204559255
 20
-375.5969378975964
 11
-566.0475469813478
 21
-375.5969378975964
 72
     1
 10
-566.0475469813478
 20
-375.5969378975964
 11
-566.0475469813478
 21
-374.5281045642618
 72
     1
 10
-566.0475469813478
 20
-374.5281045642618
 11
-564.8547542791812
 21
-374.5281045642618
 72
     1
 10
-564.8547542791812
 20
-374.5281045642618
 11
-564.8547542791812
 21
-377.5819140880729
 97
       12
330
189
330
18A
330
174
330
173
330
172
330
186
330
171
330
187
330
188
330
170
330
16F
330
16E
 75
     1
 76
     2
 52
45.0
 41
0.1
 77
     0
 78
     1
 53
45.0
 43
62.7811309658083
 44
-72.3161373035813
 45
-0.1414213562373095
 46
0.0
 79
     0
 98
        1
 10
0.0
 20
0.0
  0
HATCH
  5
261
330
6A
100
AcDbEntity
  8
1
  6
Continuous
 62
     2
100
AcDbHatch
 10
0.0
 20
0.0
 30
0.0
210
0.0
220
0.0
230
1.0
  2
CUSTOM1
 70
     0
 71
     1
 91
        1
 92
        1
 93
       12
 72
     1
 10
-564.8547542791812
 20
-377.5819140880729
 11
-566.0475469813478
 21
-377.5819140880729
 72
     1
 10
-566.0475469813478
 20
-377.5819140880729
 11
-566.0475469813478
 21
-376.4476419792292
 72
     1
 10
-566.0475469813478
 20
-376.4476419792292
 11
-567.097204559255
 21
-376.4476419792292
 72
     1
 10
-567.097204559255
 20
-376.4476419792292
 11
-567.097204559255
 21
-377.5819140880729
 72
     1
 10
-567.097204559255
 20
-377.5819140880729
 11
-568.2899972614217
 21
-377.5819140880729
 72
     1
 10
-568.2899972614217
 20
-377.5819140880729
 11
-568.2899972614217
 21
-374.5281045642618
 72
     1
 10
-568.2899972614217
 20
-374.5281045642618
 11
-567.097204559255
 21
-374.5281045642618
 72
     1
 10
-567.097204559255
 20
-374.5281045642618
 11
-567.097204559255
 21
-375.5969378975964
 72
     1
 10
-567.097204559255
 20
-375.5969378975964
 11
-566.0475469813478
 21
-375.5969378975964
 72
     1
 10
-566.0475469813478
 20
-375.5969378975964
 11
-566.0475469813478
 21
-374.5281045642618
 72
     1
 10
-566.0475469813478
 20
-374.5281045642618
 11
-564.8547542791812
 21
-374.5281045642618
 72
     1
 10
-564.8547542791812
 20
-374.5281045642618
 11
-564.8547542791812
 21
-377.5819140880729
 97
       12
330
189
330
18A
330
174
330
173
330
172
330
186
330
171
330
187
330
188
330
170
330
16F
330
16E
 75
     1
 76
     2
 52
45.0
 41
0.1
 77
     0
 78
     1
 53
45.0
 43
62.7811309658083
 44
-72.3161373035813
 45
-0.1414213562373095
 46
0.0
 79
     0
 98
        1
 10
0.0
 20
0.0
  0
HATCH
  5
262
330
6A
100
AcDbEntity
  8
1
  6
Continuous
 62
     2
100
AcDbHatch
 10
0.0
 20
0.0
 30
0.0
210
0.0
220
0.0
230
1.0
  2
CUSTOM2
 70
     0
 71
     1
 91
        1
 92
        1
 93
       10
 72
     1
 10
-562.612454929993
 20
-379.1960705506413
 11
-563.8529593402459
 21
-377.8872950404361
 72
     1
 10
-563.8529593402459
 20
-377.8872950404361
 11
-565.0457520424134
 21
-377.8872950404361
 72
     1
 10
-565.0457520424134
 20
-377.8872950404361
 11
-565.0457520424134
 21
-380.9411045642472
 72
     1
 10
-565.0457520424134
 20
-380.9411045642472
 11
-563.8529593402459
 21
-380.9411045642472
 72
     1
 10
-563.8529593402459
 20
-380.9411045642472
 11
-563.8529593402459
 21
-379.6323290540427
 72
     1
 10
-563.8529593402459
 20
-379.6323290540427
 11
-562.612454929993
 21
-380.9411045642472
 72
     1
 10
-562.612454929993
 20
-380.9411045642472
 11
-561.4196622278265
 21
-380.9411045642472
 72
     1
 10
-561.4196622278265
 20
-380.9411045642472
 11
-561.4196622278265
 21
-377.8872950404361
 72
     1
 10
-561.4196622278265
 20
-377.8872950404361
 11
-562.612454929993
 21
-377.8872950404361
 72
     1
 10
-562.612454929993
 20
-377.8872950404361
 11
-562.612454929993
 21
-379.1960705506413
 97
       10
330
197
330
167
330
166
330
169
330
192
330
193
330
168
330
194
330
195
330
196
 75
     1
 76
     2
 52
45.0
 41
0.1
 77
     0
 78
     1
 53
45.0
 43
62.7811309658083
 44
-72.3161373035813
 45
-0.1414213562373095
 46
0.0
 79
     0
 98
        1
 10
0.0
 20
0.0
  0
HATCH
  5
263
330
6A
100
AcDbEntity
  8
1
  6
Continuous
 62
     2
100
AcDbHatch
 10
0.0
 20
0.0
 30
0.0
210
0.0
220
0.0
230
1.0
  2
CUSTOM3
 70
     0
 71
     1
 91
        1
 92
        1
 93
       10
 72
     1
 10
-562.612454929993
 20
-379.1960705506413
 11
-563.8529593402459
 21
-377.8872950404361
 72
     1
 10
-563.8529593402459
 20
-377.8872950404361
 11
-565.0457520424134
 21
-377.8872950404361
 72
     1
 10
-565.0457520424134
 20
-377.8872950404361
 11
-565.0457520424134
 21
-380.9411045642472
 72
     1
 10
-565.0457520424134
 20
-380.9411045642472
 11
-563.8529593402459
 21
-380.9411045642472
 72
     1
 10
-563.8529593402459
 20
-380.9411045642472
 11
-563.8529593402459
 21
-379.6323290540427
 72
     1
 10
-563.8529593402459
 20
-379.6323290540427
 11
-562.612454929993
 21
-380.9411045642472
 72
     1
 10
-562.612454929993
 20
-380.9411045642472
 11
-561.4196622278265
 21
-380.9411045642472
 72
     1
 10
-561.4196622278265
 20
-380.9411045642472
 11
-561.4196622278265
 21
-377.8872950404361
 72
     1
 10
-561.4196622278265
 20
-377.8872950404361
 11
-562.612454929993
 21
-377.8872950404361
 72
     1
 10
-562.612454929993
 20
-377.8872950404361
 11
-562.612454929993
 21
-379.1960705506413
 97
       10
330
197
330
167
330
166
330
169
330
192
330
193
330
168
330
194
330
195
330
196
 75
     1
 76
     2
 52
45.0
 41
0.1
 77
     0
 78
     1
 53
45.0
 43
62.7811309658083
 44
-72.3161373035813
 45
-0.1414213562373095
 46
0.0
 79
     0
 98
        1
 10
0.0
 20
0.0
  0
HATCH
  5
264
330
6A
100
AcDbEntity
  8
1
  6
Continuous
 62
     2
100
AcDbHatch
 10
0.0
 20
0.0
 30
0.0
210
0.0
220
0.0
230
1.0
  2
CUSTOM4
 70
     0
 71
     1
 91
        1
 92
        1
 93
       10
 72
     1
 10
-557.3640161095732
 20
-375.8368800744669
 11
-558.6045205198272
 21
-374.5281045642618
 72
     1
 10
-558.6045205198272
 20
-374.5281045642618
 11
-559.7973132219937
 21
-374.5281045642618
 72
     1
 10
-559.7973132219937
 20
-374.5281045642618
 11
-559.7973132219937
 21
-377.5819140880729
 72
     1
 10
-559.7973132219937
 20
-377.5819140880729
 11
-558.6045205198272
 21
-377.5819140880729
 72
     1
 10
-558.6045205198272
 20
-377.5819140880729
 11
-558.6045205198272
 21
-376.2731385778682
 72
     1
 10
-558.6045205198272
 20
-376.2731385778682
 11
-557.3640161095732
 21
-377.5819140880729
 72
     1
 10
-557.3640161095732
 20
-377.5819140880729
 11
-556.1712234074066
 21
-377.5819140880729
 72
     1
 10
-556.1712234074066
 20
-377.5819140880729
 11
-556.1712234074066
 21
-374.5281045642618
 72
     1
 10
-556.1712234074066
 20
-374.5281045642618
 11
-557.3640161095732
 21
-374.5281045642618
 72
     1
 10
-557.3640161095732
 20
-374.5281045642618
 11
-557.3640161095732
 21
-375.8368800744669
 97
       10
330
19C
330
164
330
163
330
19D
330
162
330
198
330
199
330
19A
330
19B
330
165
 75
     1
 76
     2
 52
45.0
 41
0.1
 77
     0
 78
     1
 53
45.0
 43
62.7811309658083
 44
-72.3161373035813
 45
-0.1414213562373095
 46
0.0
 79
     0
 98
        1
 10
0.0
 20
0.0
  0
HATCH
  5
265
330
6A
100
AcDbEntity
  8
1
  6
Continuous
 62
     2
100
AcDbHatch
 10
0.0
 20
0.0
 30
0.0
210
0.0
220
0.0
230
1.0
  2
CUSTOM5
 70
     0
 71
     1
 91
        1
 92
        1
 93
       10
 72
     1
 10
-557.3640161095732
 20
-375.8368800744669
 11
-558.6045205198272
 21
-374.5281045642618
 72
     1
 10
-558.6045205198272
 20
-374.5281045642618
 11
-559.7973132219937
 21
-374.5281045642618
 72
     1
 10
-559.7973132219937
 20
-374.5281045642618
 11
-559.7973132219937
 21
-377.5819140880729
 72
     1
 10
-559.7973132219937
 20
-377.5819140880729
 11
-558.6045205198272
 21
-377.5819140880729
 72
     1
 10
-558.6045205198272
 20
-377.5819140880729
 11
-558.6045205198272
 21
-376.2731385778682
 72
     1
 10
-558.6045205198272
 20
-376.2731385778682
 11
-557.3640161095732
 21
-377.5819140880729
 72
     1
 10
-557.3640161095732
 20
-377.5819140880729
 11
-556.1712234074066
 21
-377.5819140880729
 72
     1
 10
-556.1712234074066
 20
-377.5819140880729
 11
-556.1712234074066
 21
-374.5281045642618
 72
     1
 10
-556.1712234074066
 20
-374.5281045642618
 11
-557.3640161095732
 21
-374.5281045642618
 72
     1
 10
-557.3640161095732
 20
-374.5281045642618
 11
-557.3640161095732
 21
-375.8368800744669
 97
       10
330
19C
330
164
330
163
330
19D
330
162
330
198
330
199
330
19A
330
19B
330
165
 75
     1
 76
     2
 52
45.0
 41
0.1
 77
     0
 78
     1
 53
45.0
 43
62.7811309658083
 44
-72.3161373035813
 45
-0.1414213562373095
 46
0.0
 79
     0
 98
        1
 10
0.0
 20
0.0
  0
HATCH
  5
266
330
6A
100
AcDbEntity
  8
1
  6
Continuous
 62
     2
100
AcDbHatch
 10
0.0
 20
0.0
 30
0.0
210
0.0
220
0.0
230
1.0
  2
CUSTOM6
 70
     0
 71
     1
 91
        1
 92
        1
 93
        8
 72
     1
 10
-558.4615363264527
 20
-377.8872950404361
 11
-561.2765271035664
 21
-377.8872950404361
 72
     1
 10
-561.2765271035664
 20
-377.8872950404361
 11
-561.2765271035664
 21
-378.6725603465598
 72
     1
 10
-561.2765271035664
 20
-378.6725603465598
 11
-560.4654280660917
 21
-378.6725603465598
 72
     1
 10
-560.4654280660917
 20
-378.6725603465598
 11
-560.4654280660917
 21
-380.9411045642472
 72
     1
 10
-560.4654280660917
 20
-380.9411045642472
 11
-559.2726353639252
 21
-380.9411045642472
 72
     1
 10
-559.2726353639252
 20
-380.9411045642472
 11
-559.2726353639252
 21
-378.6725603465598
 72
     1
 10
-559.2726353639252
 20
-378.6725603465598
 11
-558.4615363264527
 21
-378.6725603465598
 72
     1
 10
-558.4615363264527
 20
-378.6725603465598
 11
-558.4615363264527
 21
-377.8872950404361
 97
        8
330
15E
330
19E
330
15D
330
19F
330
1A0
330
161
330
160
330
15F
 75
     1
 76
     2
 52
45.0
 41
0.1
 77
     0
 78
     1
 53
45.0
 43
62.7811309658083
 44
-72.3161373035813
 45
-0.1414213562373095
 46
0.0
 79
     0
 98
        1
 10
0.0
 20
0.0
  0
HATCH
  5
267
330
6A
100
AcDbEntity
  8
1
  6
Continuous
 62
     2
100
AcDbHatch
 10
0.0
 20
0.0
 30
0.0
210
0.0
220
0.0
230
1.0
  2
CUSTOM7
 70
     0
 71
     1
 91
        1
 92
        1
 93
        8
 72
     1
 10
-558.4615363264527
 20
-377.8872950404361
 11
-561.2765271035664
 21
-377.8872950404361
 72
     1
 10
-561.2765271035664
 20
-377.8872950404361
 11
-561.2765271035664
 21
-378.6725603465598
 72
     1
 10
-561.2765271035664
 20
-378.6725603465598
 11
-560.4654280660917
 21
-378.6725603465598
 72
     1
 10
-560.4654280660917
 20
-378.6725603465598
 11
-560.4654280660917
 21
-380.9411045642472
 72
     1
 10
-560.4654280660917
 20
-380.9411045642472
 11
-559.2726353639252
 21
-380.9411045642472
 72
     1
 10
-559.2726353639252
 20
-380.9411045642472
 11
-559.2726353639252
 21
-378.6725603465598
 72
     1
 10
-559.2726353639252
 20
-378.6725603465598
 11
-558.4615363264527
 21
-378.6725603465598
 72
     1
 10
-558.4615363264527
 20
-378.6725603465598
 11
-558.4615363264527
 21
-377.8872950404361
 97
        8
330
15E
330
19E
330
15D
330
19F
330
1A0
330
161
330
160
330
15F
 75
     1
 76
     2
 52
45.0
 41
0.1
 77
     0
 78
     1
 53
45.0
 43
62.7811309658083
 44
-72.3161373035813
 45
-0.1414213562373095
 46
0.0
 79
     0
 98
        1
 10
0.0
 20
0.0
  0
HATCH
  5
268
330
6A
100
AcDbEntity
  8
1
  6
Continuous
 62
     2
100
AcDbHatch
 10
0.0
 20
0.0
 30
0.0
210
0.0
220
0.0
230
1.0
  2
CUSTOM8
 70
     0
 71
     1
 91
        2
 92
        1
 93
        8
 72
     1
 10
-556.3231088705057
 20
-380.9411045642472
 11
-556.5345889239815
 21
-380.4001440200294
 72
     1
 10
-556.5345889239815
 20
-380.4001440200294
 11
-557.6670305006554
 21
-380.4001440200294
 72
     1
 10
-557.6670305006554
 20
-380.4001440200294
 11
-557.8785105541313
 21
-380.9411045642472
 72
     1
 10
-557.8785105541313
 20
-380.9411045642472
 11
-559.1190149643841
 21
-380.9411045642472
 72
     1
 10
-559.1190149643841
 20
-380.9411045642472
 11
-557.7210619174449
 21
-377.8872950404361
 72
     1
 10
-557.7210619174449
 20
-377.8872950404361
 11
-556.4805575071921
 21
-377.8872950404361
 72
     1
 10
-556.4805575071921
 20
-377.8872950404361
 11
-555.0826044602518
 21
-380.9411045642472
 72
     1
 10
-555.0826044602518
 20
-380.9411045642472
 11
-556.3231088705057
 21
-380.9411045642472
 97
        8
330
1A2
330
1A3
330
15A
330
1A4
330
159
330
15C
330
1A1
330
15B
 92
       16
 93
        3
 72
     1
 10
-557.4009749495103
 20
-379.7195807547228
 11
-557.100809712318
 21
-378.9517657887361
 72
     1
 10
-557.100809712318
 20
-378.9517657887361
 11
-556.8006444751278
 21
-379.7195807547228
 72
     1
 10
-556.8006444751278
 20
-379.7195807547228
 11
-557.4009749495103
 21
-379.7195807547228
 97
        3
330
158
330
1A6
330
1A5
 75
     1
 76
     2
 52
45.0
 41
0.1
 77
     0
 78
     1
 53
45.0
 43
62.7811309658083
 44
-72.3161373035813
 45
-0.1414213562373095
 46
0.0
 79
     0
 98
        1
 10
0.0
 20
0.0
  0
HATCH
  5
269
330
6A
100
AcDbEntity
  8
1
  6
Continuous
 62
     2
100
AcDbHatch
 10
0.0
 20
0.0
 30
0.0
210
0.0
220
0.0
230
1.0
  2
CUSTOM9
 70
     0
 71
     1
 91
        2
 92
        1
 93
        8
 72
     1
 10
-556.3231088705057
 20
-380.9411045642472
 11
-556.5345889239815
 21
-380.4001440200294
 72
     1
 10
-556.5345889239815
 20
-380.4001440200294
 11
-557.6670305006554
 21
-380.4001440200294
 72
     1
 10
-557.6670305006554
 20
-380.4001440200294
 11
-557.8785105541313
 21
-380.9411045642472
 72
     1
 10
-557.8785105541313
 20
-380.9411045642472
 11
-559.1190149643841
 21
-380.9411045642472
 72
     1
 10
-559.1190149643841
 20
-380.9411045642472
 11
-557.7210619174449
 21
-377.8872950404361
 72
     1
 10
-557.7210619174449
 20
-377.8872950404361
 11
-556.4805575071921
 21
-377.8872950404361
 72
     1
 10
-556.4805575071921
 20
-377.8872950404361
 11
-555.0826044602518
 21
-380.9411045642472
 72
     1
 10
-555.0826044602518
 20
-380.9411045642472
 11
-556.3231088705057
 21
-380.9411045642472
 97
        8
330
1A2
330
1A3
330
15A
330
1A4
330
159
330
15C
330
1A1
330
15B
 92
       16
 93
        3
 72
     1
 10
-557.4009749495103
 20
-379.7195807547228
 11
-557.100809712318
 21
-378.9517657887361
 72
     1
 10
-557.100809712318
 20
-378.9517657887361
 11
-556.8006444751278
 21
-379.7195807547228
 72
     1
 10
-556.8006444751278
 20
-379.7195807547228
 11
-557.4009749495103
 21
-379.7195807547228
 97
        3
330
158
330
1A6
330
1A5
 75
     1
 76
     2
 52
45.0
 41
0.1
 77
     0
 78
     1
 53
45.0
 43
62.7811309658083
 44
-72.3161373035813
 45
-0.1414213562373095
 46
0.0
 79
     0
 98
        1
 10
0.0
 20
0.0
  0
HATCH
  5
26A
330
6A
100
AcDbEntity
  8
1
  6
Continuous
 62
     2
100
AcDbHatch
 10
0.0
 20
0.0
 30
0.0
210
0.0
220
0.0
230
1.0
  2
CUSTOM10
 70
     0
 71
     1
 91
        1
 92
        1
 93
        4
 72
     1
 10
-554.6921604567198
 20
-377.5819140880729
 11
-555.9326648669727
 21
-377.5819140880729
 72
     1
 10
-555.9326648669727
 20
-377.5819140880729
 11
-555.9326648669727
 21
-374.5281045642618
 72
     1
 10
-555.9326648669727
 20
-374.5281045642618
 11
-554.6921604567198
 21
-374.5281045642618
 72
     1
 10
-554.6921604567198
 20
-374.5281045642618
 11
-554.6921604567198
 21
-377.5819140880729
 97
        4
330
155
330
157
330
1A7
330
156
 75
     1
 76
     2
 52
45.0
 41
0.1
 77
     0
 78
     1
 53
45.0
 43
62.7811309658083
 44
-72.3161373035813
 45
-0.1414213562373095
 46
0.0
 79
     0
 98
        1
 10
0.0
 20
0.0
  0
HATCH
  5
26B
330
6A
100
AcDbEntity
  8
1
  6
Continuous
 62
     2
100
AcDbHatch
 10
0.0
 20
0.0
 30
0.0
210
0.0
220
0.0
230
1.0
  2
CUSTOM11
 70
     0
 71
     1
 91
        1
 92
        1
 93
        4
 72
     1
 10
-554.6921604567198
 20
-377.5819140880729
 11
-555.9326648669727
 21
-377.5819140880729
 72
     1
 10
-555.9326648669727
 20
-377.5819140880729
 11
-555.9326648669727
 21
-374.5281045642618
 72
     1
 10
-555.9326648669727
 20
-374.5281045642618
 11
-554.6921604567198
 21
-374.5281045642618
 72
     1
 10
-554.6921604567198
 20
-374.5281045642618
 11
-554.6921604567198
 21
-377.5819140880729
 97
        4
330
155
330
157
330
1A7
330
156
 75
     1
 76
     2
 52
45.0
 41
0.1
 77
     0
 78
     1
 53
45.0
 43
62.7811309658083
 44
-72.3161373035813
 45
-0.1414213562373095
 46
0.0
 79
     0
 98
        1
 10
0.0
 20
0.0
  0
HATCH
  5
26C
330
6A
100
AcDbEntity
  8
1
  6
Continuous
 62
     2
100
AcDbHatch
 10
0.0
 20
0.0
 30
0.0
210
0.0
220
0.0
230
1.0
  2
CUSTOM12
 70
     0
 71
     1
 91
        1
 92
        1
 93
       12
 72
     1
 10
-550.4696742910489
 20
-374.5281045642618
 11
-551.7722039218156
 21
-376.001055094298
 72
     1
 10
-551.7722039218156
 20
-376.001055094298
 11
-550.3742508748753
 21
-377.5819140880729
 72
     1
 10
-550.3742508748753
 20
-377.5819140880729
 11
-551.7769750926236
 21
-377.5819140880729
 72
     1
 10
-551.7769750926236
 20
-377.5819140880729
 11
-552.473566030689
 21
-376.7941823027792
 72
     1
 10
-552.473566030689
 20
-376.7941823027792
 11
-553.1701569687548
 21
-377.5819140880729
 72
     1
 10
-553.1701569687548
 20
-377.5819140880729
 11
-554.5728811865029
 21
-377.5819140880729
 72
     1
 10
-554.5728811865029
 20
-377.5819140880729
 11
-553.1749281395626
 21
-376.001055094298
 72
     1
 10
-553.1749281395626
 20
-376.001055094298
 11
-554.4774577703301
 21
-374.5281045642618
 72
     1
 10
-554.4774577703301
 20
-374.5281045642618
 11
-553.0747335525809
 21
-374.5281045642618
 72
     1
 10
-553.0747335525809
 20
-374.5281045642618
 11
-552.473566030689
 21
-375.2079278858173
 72
     1
 10
-552.473566030689
 20
-375.2079278858173
 11
-551.8723985087962
 21
-374.5281045642618
 72
     1
 10
-551.8723985087962
 20
-374.5281045642618
 11
-550.4696742910489
 21
-374.5281045642618
 97
       12
330
150
330
14F
330
14E
330
1AB
330
1AC
330
1A8
330
1A9
330
154
330
153
330
152
330
151
330
1AA
 75
     1
 76
     2
 52
45.0
 41
0.1
 77
     0
 78
     1
 53
45.0
 43
62.7811309658083
 44
-72.3161373035813
 45
-0.1414213562373095
 46
0.0
 79
     0
 98
        1
 10
0.0
 20
0.0
  0
HATCH
  5
26D
330
6A
100
AcDbEntity
  8
1
  6
Continuous
 62
     2
100
AcDbHatch
 10
0.0
 20
0.0
 30
0.0
210
0.0
220
0.0
230
1.0
  2
CUSTOM13
 70
     0
 71
     1
 91
        1
 92
        1
 93
       12
 72
     1
 10
-550.4696742910489
 20
-374.5281045642618
 11
-551.7722039218156
 21
-376.001055094298
 72
     1
 10
-551.7722039218156
 20
-376.001055094298
 11
-550.3742508748753
 21
-377.5819140880729
 72
     1
 10
-550.3742508748753
 20
-377.5819140880729
 11
-551.7769750926236
 21
-377.5819140880729
 72
     1
 10
-551.7769750926236
 20
-377.5819140880729
 11
-552.473566030689
 21
-376.7941823027792
 72
     1
 10
-552.473566030689
 20
-376.7941823027792
 11
-553.1701569687548
 21
-377.5819140880729
 72
     1
 10
-553.1701569687548
 20
-377.5819140880729
 11
-554.5728811865029
 21
-377.5819140880729
 72
     1
 10
-554.5728811865029
 20
-377.5819140880729
 11
-553.1749281395626
 21
-376.001055094298
 72
     1
 10
-553.1749281395626
 20
-376.001055094298
 11
-554.4774577703301
 21
-374.5281045642618
 72
     1
 10
-554.4774577703301
 20
-374.5281045642618
 11
-553.0747335525809
 21
-374.5281045642618
 72
     1
 10
-553.0747335525809
 20
-374.5281045642618
 11
-552.473566030689
 21
-375.2079278858173
 72
     1
 10
-552.473566030689
 20
-375.2079278858173
 11
-551.8723985087962
 21
-374.5281045642618
 72
     1
 10
-551.8723985087962
 20
-374.5281045642618
 11
-550.4696742910489
 21
-374.5281045642618
 97
       12
330
150
330
14F
330
14E
330
1AB
330
1AC
330
1A8
330
1A9
330
154
330
153
330
152
330
151
330
1AA
 75
     1
 76
     2
 52
45.0
 41
0.1
 77
     0
 78
     1
 53
45.0
 43
62.7811309658083
 44
-72.3161373035813
 45
-0.1414213562373095
 46
0.0
 79
     0
 98
        1
 10
0.0
 20
0.0
  0
HATCH
  5
26E
330
6A
100
AcDbEntity
  8
1
  6
Continuous
 62
     2
100
AcDbHatch
 10
0.0
 20
0.0
 30
0.0
210
0.0
220
0.0
230
1.0
  2
CUSTOM14
 70
     0
 71
     1
 91
        2
 92
        1
 93
        6
 72
     1
 10
-569.487409705195
 20
-376.6388358469292
 11
-570.2461772929754
 21
-376.6388358469292
 72
     1
 10
-570.2461772929754
 20
-376.6388358469292
 11
-570.2461772929754
 21
-377.5819140880729
 72
     1
 10
-570.2461772929754
 20
-377.5819140880729
 11
-571.4866817032294
 21
-377.5819140880729
 72
     1
 10
-571.4866817032294
 20
-377.5819140880729
 11
-571.4866817032294
 21
-374.5281045642618
 72
     1
 10
-571.4866817032294
 20
-374.5281045642618
 11
-569.487409705195
 21
-374.5281045642618
 72
     2
 10
-569.487409705195
 20
-375.5834702055955
 40
1.055365641333708
 50
270.0
 51
450.0
 73
     0
 97
        6
330
178
330
177
330
184
330
183
330
179
330
20A
 92
       16
 93
        4
 72
     2
 10
-569.9288822314334
 20
-375.544074234373
 40
0.3528638246710898
 50
270.0
 51
450.0
 73
     1
 72
     1
 10
-569.9288822314334
 20
-375.1912104097018
 11
-570.2461772929754
 21
-375.1912104097018
 72
     1
 10
-570.2461772929754
 20
-375.1912104097018
 11
-570.2461772929754
 21
-375.8969380590441
 72
     1
 10
-570.2461772929754
 20
-375.8969380590441
 11
-569.9288822314334
 21
-375.8969380590441
 97
        4
330
21E
330
175
330
185
330
176
 75
     1
 76
     2
 52
45.0
 41
0.1
 77
     0
 78
     1
 53
45.0
 43
62.7811309658083
 44
-72.3161373035813
 45
-0.1414213562373095
 46
0.0
 79
     0
 98
        1
 10
0.0
 20
0.0
  0
HATCH
  5
26F
330
6A
100
AcDbEntity
  8
1
  6
Continuous
 62
     2
100
AcDbHatch
 10
0.0
 20
0.0
 30
0.0
210
0.0
220
0.0
230
1.0
  2
CUSTOM15
 70
     0
 71
     1
 91
        2
 92
        1
 93
        6
 72
     1
 10
-569.487409705195
 20
-376.6388358469292
 11
-570.2461772929754
 21
-376.6388358469292
 72
     1
 10
-570.2461772929754
 20
-376.6388358469292
 11
-570.2461772929754
 21
-377.5819140880729
 72
     1
 10
-570.2461772929754
 20
-377.5819140880729
 11
-571.4866817032294
 21
-377.5819140880729
 72
     1
 10
-571.4866817032294
 20
-377.5819140880729
 11
-571.4866817032294
 21
-374.5281045642618
 72
     1
 10
-571.4866817032294
 20
-374.5281045642618
 11
-569.487409705195
 21
-374.5281045642618
 72
     2
 10
-569.487409705195
 20
-375.5834702055955
 40
1.055365641333708
 50
270.0
 51
450.0
 73
     0
 97
        6
330
178
330
177
330
184
330
183
330
179
330
20A
 92
       16
 93
        4
 72
     2
 10
-569.9288822314334
 20
-375.544074234373
 40
0.3528638246710898
 50
270.0
 51
450.0
 73
     1
 72
     1
 10
-569.9288822314334
 20
-375.1912104097018
 11
-570.2461772929754
 21
-375.1912104097018
 72
     1
 10
-570.2461772929754
 20
-375.1912104097018
 11
-570.2461772929754
 21
-375.8969380590441
 72
     1
 10
-570.2461772929754
 20
-375.8969380590441
 11
-569.9288822314334
 21
-375.8969380590441
 97
        4
330
21E
330
175
330
185
330
176
 75
     1
 76
     2
 52
45.0
 41
0.1
 77
     0
 78
     1
 53
45.0
 43
62.7811309658083
 44
-72.3161373035813
 45
-0.1414213562373095
 46
0.0
 79
     0
 98
        1
 10
0.0
 20
0.0
  0
HATCH
  5
270
330
6A
100
AcDbEntity
  8
1
  6
Continuous
 62
     2
100
AcDbHatch
 10
0.0
 20
0.0
 30
0.0
210
0.0
220
0.0
230
1.0
  2
CUSTOM16
 70
     0
 71
     1
 91
        2
 92
        1
 93
        4
 72
     2
 10
-566.9308669568359
 20
-379.9527748126448
 40
2.065479772208644
 50
62.45185182430745
 51
117.5481481756702
 73
     1
 72
     2
 10
-567.2118068486693
 20
-379.414199802342
 40
1.458034083651592
 50
117.5481481756629
 51
242.4518518243351
 73
     1
 72
     2
 10
-566.9308669568359
 20
-378.8756247920386
 40
2.065479772208676
 50
242.4518518243364
 51
297.548148175686
 73
     1
 72
     2
 10
-566.6499270650027
 20
-379.414199802342
 40
1.458034083652017
 50
297.5481481757046
 51
422.4518518242975
 73
     1
 97
        4
330
216
330
215
330
217
330
214
 92
       16
 93
        4
 72
     2
 10
-567.1306069931823
 20
-379.414199802342
 40
0.7717997786794905
 50
321.8795802028405
 51
398.1204197971695
 73
     1
 72
     2
 10
-566.9308669568359
 20
-379.2574686242215
 40
0.5179085730132582
 50
38.12041979716663
 51
141.8795802028567
 73
     1
 72
     2
 10
-566.7311269204899
 20
-379.414199802342
 40
0.7717997786795062
 50
141.8795802028254
 51
218.1204197971646
 73
     1
 72
     2
 10
-566.9308669568359
 20
-379.5709309804619
 40
0.5179085730138073
 50
218.1204197971829
 51
321.8795802027938
 73
     1
 97
        4
330
232
330
22F
330
230
330
231
 75
     1
 76
     2
 52
45.0
 41
0.1
 77
     0
 78
     1
 53
45.0
 43
62.7811309658083
 44
-72.3161373035813
 45
-0.1414213562373095
 46
0.0
 79
     0
 98
        1
 10
0.0
 20
0.0
  0
HATCH
  5
271
330
6A
100
AcDbEntity
  8
1
  6
Continuous
 62
     2
100
AcDbHatch
 10
0.0
 20
0.0
 30
0.0
210
0.0
220
0.0
230
1.0
  2
CUSTOM17
 70
     0
 71
     1
 91
        2
 92
        1
 93
        4
 72
     2
 10
-566.9308669568359
 20
-379.9527748126448
 40
2.065479772208644
 50
62.45185182430745
 51
117.5481481756702
 73
     1
 72
     2
 10
-567.2118068486693
 20
-379.414199802342
 40
1.458034083651592
 50
117.5481481756629
 51
242.4518518243351
 73
     1
 72
     2
 10
-566.9308669568359
 20
-378.8756247920386
 40
2.065479772208676
 50
242.4518518243364
 51
297.548148175686
 73
     1
 72
     2
 10
-566.6499270650027
 20
-379.414199802342
 40
1.458034083652017
 50
297.5481481757046
 51
422.4518518242975
 73
     1
 97
        4
330
216
330
215
330
217
330
214
 92
       16
 93
        4
 72
     2
 10
-567.1306069931823
 20
-379.414199802342
 40
0.7717997786794905
 50
321.8795802028405
 51
398.1204197971695
 73
     1
 72
     2
 10
-566.9308669568359
 20
-379.2574686242215
 40
0.5179085730132582
 50
38.12041979716663
 51
141.8795802028567
 73
     1
 72
     2
 10
-566.7311269204899
 20
-379.414199802342
 40
0.7717997786795062
 50
141.8795802028254
 51
218.1204197971646
 73
     1
 72
     2
 10
-566.9308669568359
 20
-379.5709309804619
 40
0.5179085730138073
 50
218.1204197971829
 51
321.8795802027938
 73
     1
 97
        4
330
232
330
22F
330
230
330
231
 75
     1
 76
     2
 52
45.0
 41
0.1
 77
     0
 78
     1
 53
45.0
 43
62.7811309658083
 44
-72.3161373035813
 45
-0.1414213562373095
 46
0.0
 79
     0
 98
        1
 10
0.0
 20
0.0
  0
HATCH
  5
272
330
6A
100
AcDbEntity
  8
1
  6
Continuous
 62
     2
100
AcDbHatch
 10
0.0
 20
0.0
 30
0.0
210
0.0
220
0.0
230
1.0
  2
CUSTOM18
 70
     0
 71
     1
 91
        2
 92
        1
 93
       12
 72
     1
 10
-560.0358717624267
 20
-375.2261181697047
 11
-561.3717995888543
 21
-375.2261181697047
 72
     1
 10
-561.3717995888543
 20
-375.2261181697047
 11
-561.3717995888543
 21
-375.7060025234464
 72
     1
 10
-561.3717995888543
 20
-375.7060025234464
 11
-560.0358717624267
 21
-375.7060025234464
 72
     1
 10
-560.0358717624267
 20
-375.7060025234464
 11
-560.0358717624267
 21
-376.4040161288888
 72
     1
 10
-560.0358717624267
 20
-376.4040161288888
 11
-561.3717995888543
 21
-376.4040161288888
 72
     1
 10
-561.3717995888543
 20
-376.4040161288888
 11
-561.3717995888543
 21
-376.8839004826305
 72
     1
 10
-561.3717995888543
 20
-376.8839004826305
 11
-560.0358717624267
 21
-376.8839004826305
 72
     1
 10
-560.0358717624267
 20
-376.8839004826305
 11
-560.0358717624267
 21
-377.5819140880729
 72
     1
 10
-560.0358717624267
 20
-377.5819140880729
 11
-563.1861914862076
 21
-377.5819140880729
 72
     2
 10
-563.1861914862076
 20
-376.0550093261676
 40
1.526904761905769
 50
90.0
 51
270.0
 73
     0
 72
     1
 10
-563.1861914862076
 20
-374.5281045642618
 11
-560.0358717624267
 21
-374.5281045642618
 72
     1
 10
-560.0358717624267
 20
-374.5281045642618
 11
-560.0358717624267
 21
-375.2261181697047
 97
       12
330
18C
330
21F
330
18D
330
18E
330
18F
330
190
330
16D
330
16C
330
16B
330
16A
330
191
330
18B
 92
       16
 93
        4
 72
     2
 10
-562.9699194760424
 20
-375.8982781480471
 40
0.5179085730133669
 50
38.12041979714121
 51
141.8795802028666
 73
     1
 72
     2
 10
-562.7701794396962
 20
-376.0550093261676
 40
0.7717997786795798
 50
141.8795802028458
 51
218.1204197971575
 73
     1
 72
     2
 10
-562.9699194760424
 20
-376.2117405042881
 40
0.5179085730134564
 50
218.1204197971334
 51
321.8795802028588
 73
     1
 72
     2
 10
-563.1696595123885
 20
-376.0550093261676
 40
0.7717997786795255
 50
321.8795802028372
 51
398.1204197971595
 73
     1
 97
        4
330
219
330
218
330
213
330
212
 75
     1
 76
     2
 52
45.0
 41
0.1
 77
     0
 78
     1
 53
45.0
 43
62.7811309658083
 44
-72.3161373035813
 45
-0.1414213562373095
 46
0.0
 79
     0
 98
        1
 10
0.0
 20
0.0
  0
HATCH
  5
273
330
6A
100
AcDbEntity
  8
1
  6
Continuous
 62
     2
100
AcDbHatch
 10
0.0
 20
0.0
 30
0.0
210
0.0
220
0.0
230
1.0
  2
CUSTOM19
 70
     0
 71
     1
 91
        2
 92
        1
 93
       12
 72
     1
 10
-560.0358717624267
 20
-375.2261181697047
 11
-561.3717995888543
 21
-375.2261181697047
 72
     1
 10
-561.3717995888543
 20
-375.2261181697047
 11
-561.3717995888543
 21
-375.7060025234464
 72
     1
 10
-561.3717995888543
 20
-375.7060025234464
 11
-560.0358717624267
 21
-375.7060025234464
 72
     1
 10
-560.0358717624267
 20
-375.7060025234464
 11
-560.0358717624267
 21
-376.4040161288888
 72
     1
 10
-560.0358717624267
 20
-376.4040161288888
 11
-561.3717995888543
 21
-376.4040161288888
 72
     1
 10
-561.3717995888543
 20
-376.4040161288888
 11
-561.3717995888543
 21
-376.8839004826305
 72
     1
 10
-561.3717995888543
 20
-376.8839004826305
 11
-560.0358717624267
 21
-376.8839004826305
 72
     1
 10
-560.0358717624267
 20
-376.8839004826305
 11
-560.0358717624267
 21
-377.5819140880729
 72
     1
 10
-560.0358717624267
 20
-377.5819140880729
 11
-563.1861914862076
 21
-377.5819140880729
 72
     2
 10
-563.1861914862076
 20
-376.0550093261676
 40
1.526904761905769
 50
90.0
 51
270.0
 73
     0
 72
     1
 10
-563.1861914862076
 20
-374.5281045642618
 11
-560.0358717624267
 21
-374.5281045642618
 72
     1
 10
-560.0358717624267
 20
-374.5281045642618
 11
-560.0358717624267
 21
-375.2261181697047
 97
       12
330
18C
330
21F
330
18D
330
18E
330
18F
330
190
330
16D
330
16C
330
16B
330
16A
330
191
330
18B
 92
       16
 93
        4
 72
     2
 10
-562.9699194760424
 20
-375.8982781480471
 40
0.5179085730133669
 50
38.12041979714121
 51
141.8795802028666
 73
     1
 72
     2
 10
-562.7701794396962
 20
-376.0550093261676
 40
0.7717997786795798
 50
141.8795802028458
 51
218.1204197971575
 73
     1
 72
     2
 10
-562.9699194760424
 20
-376.2117405042881
 40
0.5179085730134564
 50
218.1204197971334
 51
321.8795802028588
 73
     1
 72
     2
 10
-563.1696595123885
 20
-376.0550093261676
 40
0.7717997786795255
 50
321.8795802028372
 51
398.1204197971595
 73
     1
 97
        4
330
219
330
218
330
213
330
212
 75
     1
 76
     2
 52
45.0
 41
0.1
 77
     0
 78
     1
 53
45.0
 43
62.7811309658083
 44
-72.3161373035813
 45
-0.1414213562373095
 46
0.0
 79
     0
 98
        1
 10
0.0
 20
0.0
  0
HATCH
  5
274
330
6A
100
AcDbEntity
  8
1
  6
Continuous
 62
     2
100
AcDbHatch
 10
0.0
 20
0.0
 30
0.0
210
0.0
220
0.0
230
1.0
  2
CUSTOM20
 70
     0
 71
     1
 91
        4
 92
        1
 93
        8
 72
     1
 10
-571.9637987840962
 20
-374.9523491796638
 11
-571.9637987840962
 21
-380.516859948864
 72
     2
 10
-572.3880433994801
 20
-380.516859948864
 40
0.424244615383202
 50
0.0
 51
90.0
 73
     0
 72
     1
 10
-572.3880433994801
 20
-380.9411045642472
 11
-577.861355490197
 21
-380.9411045642472
 72
     2
 10
-577.861355490197
 20
-380.516859948864
 40
0.4242446153828041
 50
90.0
 51
180.0
 73
     0
 72
     1
 10
-578.2856001055798
 20
-380.516859948864
 11
-578.2856001055798
 21
-374.9523491796638
 72
     2
 10
-577.861355490197
 20
-374.9523491796638
 40
0.424244615383941
 50
180.0
 51
270.0
 73
     0
 72
     1
 10
-577.861355490197
 20
-374.5281045642799
 11
-572.3880433994801
 21
-374.5281045642799
 72
     2
 10
-572.3880433994801
 20
-374.9523491796638
 40
0.424244615383941
 50
270.0
 51
360.0
 73
     0
 97
        8
330
180
330
20F
330
181
330
21A
330
17E
330
211
330
17F
330
210
 92
       16
 93
       12
 72
     2
 10
-577.2674608134505
 20
-379.9128320856136
 40
0.3157169230755699
 50
180.0
 51
270.0
 73
     1
 72
     1
 10
-577.2674608134505
 20
-380.2285490086903
 11
-575.7916275524409
 21
-380.2285490086903
 72
     2
 10
-575.7916275524409
 20
-379.9128320856136
 40
0.3157169230767067
 50
270.0
 51
360.0
 73
     1
 72
     1
 10
-575.4759106293643
 20
-379.9128320856136
 11
-575.4759106293643
 21
-378.382061154082
 72
     2
 10
-575.7916275524409
 20
-378.382061154082
 40
0.315716923076593
 50
0.0
 51
64.805589351446
 73
     1
 72
     2
 10
-575.2690431048659
 20
-377.2712314080193
 40
0.9118975235576555
 50
115.1944106485105
 51
244.8055893514789
 73
     0
 72
     2
 10
-575.7916275524409
 20
-376.1604016619571
 40
0.3157169230760658
 50
295.1944106485672
 51
360.0
 73
     1
 72
     1
 10
-575.4759106293643
 20
-376.1604016619571
 11
-575.4759106293643
 21
-375.5563770428965
 72
     2
 10
-575.7916275524409
 20
-375.5563770428965
 40
0.315716923076593
 50
0.0
 51
90.0
 73
     1
 72
     1
 10
-575.7916275524409
 20
-375.2406601198204
 11
-577.2674608134505
 21
-375.2406601198204
 72
     2
 10
-577.2674608134505
 20
-375.5563770428965
 40
0.3157169230760815
 50
90.0
 51
180.0
 73
     1
 72
     1
 10
-577.5831777365261
 20
-375.5563770428965
 11
-577.5831777365261
 21
-379.9128320856136
 97
       12
330
20B
330
182
330
20E
330
17D
330
21B
330
21C
330
20D
330
17C
330
20C
330
17B
330
21D
330
17A
 92
       16
 93
        8
 72
     2
 10
-574.6919121269187
 20
-378.3803730079876
 40
0.315716923076545
 50
115.3740086783565
 51
180.0
 73
     1
 72
     1
 10
-575.0076290499956
 20
-378.3803730079876
 11
-575.0076290499956
 21
-378.9622244146827
 72
     2
 10
-574.6919121269187
 20
-378.9622244146827
 40
0.3157169230768204
 50
180.0
 51
269.8110329574387
 73
     1
 72
     2
 10
-574.6862959916086
 20
-377.2593894671137
 40
2.018561131933266
 50
269.811032957581
 51
450.188967042419
 73
     1
 72
     2
 10
-574.6919121269187
 20
-375.5565545195447
 40
0.315716923076185
 50
90.18896704256132
 51
180.0
 73
     1
 72
     1
 10
-575.0076290499956
 20
-375.5565545195447
 11
-575.0076290499956
 21
-376.1620898080515
 72
     2
 10
-574.6919121269187
 20
-376.1620898080515
 40
0.3157169230768204
 50
180.0
 51
244.6259913216346
 73
     1
 72
     2
 10
-575.2179548250066
 20
-377.2712314080193
 40
0.9118481501443576
 50
295.3740086781877
 51
424.6259913218244
 73
     0
 97
        8
330
227
330
147
330
224
330
225
330
203
330
146
330
226
330
202
 92
       16
 93
        1
 72
     2
 10
-575.2417698396794
 20
-377.2712314080193
 40
0.4709789327785074
 50
0.0
 51
360.0
 73
     1
 97
        1
330
235
 75
     1
 76
     2
 52
45.0
 41
0.1
 77
     0
 78
     1
 53
45.0
 43
62.7811309658083
 44
-72.3161373035813
 45
-0.1414213562373095
 46
0.0
 79
     0
 98
        1
 10
0.0
 20
0.0
  0
HATCH
  5
275
330
6A
100
AcDbEntity
  8
1
  6
Continuous
 62
     2
100
AcDbHatch
 10
0.0
 20
0.0
 30
0.0
210
0.0
220
0.0
230
1.0
  2
CUSTOM21
 70
     0
 71
     1
 91
        4
 92
        1
 93
        8
 72
     1
 10
-571.9637987840962
 20
-374.9523491796638
 11
-571.9637987840962
 21
-380.516859948864
 72
     2
 10
-572.3880433994801
 20
-380.516859948864
 40
0.424244615383202
 50
0.0
 51
90.0
 73
     0
 72
     1
 10
-572.3880433994801
 20
-380.9411045642472
 11
-577.861355490197
 21
-380.9411045642472
 72
     2
 10
-577.861355490197
 20
-380.516859948864
 40
0.4242446153828041
 50
90.0
 51
180.0
 73
     0
 72
     1
 10
-578.2856001055798
 20
-380.516859948864
 11
-578.2856001055798
 21
-374.9523491796638
 72
     2
 10
-577.861355490197
 20
-374.9523491796638
 40
0.424244615383941
 50
180.0
 51
270.0
 73
     0
 72
     1
 10
-577.861355490197
 20
-374.5281045642799
 11
-572.3880433994801
 21
-374.5281045642799
 72
     2
 10
-572.3880433994801
 20
-374.9523491796638
 40
0.424244615383941
 50
270.0
 51
360.0
 73
     0
 97
        8
330
180
330
20F
330
181
330
21A
330
17E
330
211
330
17F
330
210
 92
       16
 93
       12
 72
     2
 10
-577.2674608134505
 20
-379.9128320856136
 40
0.3157169230755699
 50
180.0
 51
270.0
 73
     1
 72
     1
 10
-577.2674608134505
 20
-380.2285490086903
 11
-575.7916275524409
 21
-380.2285490086903
 72
     2
 10
-575.7916275524409
 20
-379.9128320856136
 40
0.3157169230767067
 50
270.0
 51
360.0
 73
     1
 72
     1
 10
-575.4759106293643
 20
-379.9128320856136
 11
-575.4759106293643
 21
-378.382061154082
 72
     2
 10
-575.7916275524409
 20
-378.382061154082
 40
0.315716923076593
 50
0.0
 51
64.805589351446
 73
     1
 72
     2
 10
-575.2690431048659
 20
-377.2712314080193
 40
0.9118975235576555
 50
115.1944106485105
 51
244.8055893514789
 73
     0
 72
     2
 10
-575.7916275524409
 20
-376.1604016619571
 40
0.3157169230760658
 50
295.1944106485672
 51
360.0
 73
     1
 72
     1
 10
-575.4759106293643
 20
-376.1604016619571
 11
-575.4759106293643
 21
-375.5563770428965
 72
     2
 10
-575.7916275524409
 20
-375.5563770428965
 40
0.315716923076593
 50
0.0
 51
90.0
 73
     1
 72
     1
 10
-575.7916275524409
 20
-375.2406601198204
 11
-577.2674608134505
 21
-375.2406601198204
 72
     2
 10
-577.2674608134505
 20
-375.5563770428965
 40
0.3157169230760815
 50
90.0
 51
180.0
 73
     1
 72
     1
 10
-577.5831777365261
 20
-375.5563770428965
 11
-577.5831777365261
 21
-379.9128320856136
 97
       12
330
20B
330
182
330
20E
330
17D
330
21B
330
21C
330
20D
330
17C
330
20C
330
17B
330
21D
330
17A
 92
       16
 93
        8
 72
     2
 10
-574.6919121269187
 20
-378.3803730079876
 40
0.315716923076545
 50
115.3740086783565
 51
180.0
 73
     1
 72
     1
 10
-575.0076290499956
 20
-378.3803730079876
 11
-575.0076290499956
 21
-378.9622244146827
 72
     2
 10
-574.6919121269187
 20
-378.9622244146827
 40
0.3157169230768204
 50
180.0
 51
269.8110329574387
 73
     1
 72
     2
 10
-574.6862959916086
 20
-377.2593894671137
 40
2.018561131933266
 50
269.811032957581
 51
450.188967042419
 73
     1
 72
     2
 10
-574.6919121269187
 20
-375.5565545195447
 40
0.315716923076185
 50
90.18896704256132
 51
180.0
 73
     1
 72
     1
 10
-575.0076290499956
 20
-375.5565545195447
 11
-575.0076290499956
 21
-376.1620898080515
 72
     2
 10
-574.6919121269187
 20
-376.1620898080515
 40
0.3157169230768204
 50
180.0
 51
244.6259913216346
 73
     1
 72
     2
 10
-575.2179548250066
 20
-377.2712314080193
 40
0.9118481501443576
 50
295.3740086781877
 51
424.6259913218244
 73
     0
 97
        8
330
227
330
147
330
224
330
225
330
203
330
146
330
226
330
202
 92
       16
 93
        1
 72
     2
 10
-575.2417698396794
 20
-377.2712314080193
 40
0.4709789327785074
 50
0.0
 51
360.0
 73
     1
 97
        1
330
235
 75
     1
 76
     2
 52
45.0
 41
0.1
 77
     0
 78
     1
 53
45.0
 43
62.7811309658083
 44
-72.3161373035813
 45
-0.1414213562373095
 46
0.0
 79
     0
 98
        1
 10
0.0
 20
0.0
  0
HATCH
  5
276
330
6A
100
AcDbEntity
  8
1
  6
Continuous
 62
     2
100
AcDbHatch
 10
0.0
 20
0.0
 30
0.0
210
0.0
220
0.0
230
1.0
  2
CUSTOM22
 70
     0
 71
     1
 91
        1
 92
        1
 93
       18
 72
     1
 10
-550.3742508748753
 20
-378.6725603465598
 11
-551.1853499123487
 21
-378.6725603465598
 72
     1
 10
-551.1853499123487
 20
-378.6725603465598
 11
-551.1853499123487
 21
-380.9411045642472
 72
     1
 10
-551.1853499123487
 20
-380.9411045642472
 11
-552.3781426145164
 21
-380.9411045642472
 72
     1
 10
-552.3781426145164
 20
-380.9411045642472
 11
-552.3781426145164
 21
-378.6725603465598
 72
     1
 10
-552.3781426145164
 20
-378.6725603465598
 11
-553.4817819140845
 21
-378.6725603465598
 72
     2
 10
-553.4817819140845
 20
-379.6270833533859
 40
0.9545230068260935
 50
90.0
 51
109.3371432194265
 73
     1
 72
     2
 10
-553.6284519121882
 20
-379.2091283730029
 40
0.5115800601944048
 50
109.3371432194823
 51
151.4785267424222
 73
     1
 72
     2
 10
-553.2510946541067
 20
-379.414199802342
 40
0.9410597353349581
 50
151.4785267423587
 51
208.5214732576687
 73
     1
 72
     2
 10
-553.6284519121882
 20
-379.6192712316805
 40
0.5115800601959717
 50
208.5214732576897
 51
246.6277221118369
 73
     1
 72
     2
 10
-553.472011879485
 20
-379.2572792129705
 40
0.9059297849852433
 50
246.6277221118055
 51
288.4480761180772
 73
     1
 72
     2
 10
-553.890179613147
 20
-378.0037334369338
 40
2.227384008972719
 50
288.4480761181337
 51
301.9309089499389
 73
     1
 72
     1
 10
-552.7121245711231
 20
-379.8940841560836
 11
-552.7121245711231
 21
-380.7666011628869
 72
     2
 10
-554.0480524882398
 20
-376.1015188570855
 40
4.852596863498838
 50
74.02000874166154
 51
84.84185523036197
 73
     0
 72
     2
 10
-553.7591963935039
 20
-379.3014094403071
 40
1.639695123940531
 50
84.84185523032279
 51
164.9381082228996
 73
     0
 72
     2
 10
-554.1783242369656
 20
-379.414199802342
 40
1.205656168392947
 50
164.9381082229073
 51
195.0618917770979
 73
     0
 72
     2
 10
-553.7591963935039
 20
-379.5269901643768
 40
1.639695123940101
 50
195.0618917771004
 51
270.0
 73
     0
 72
     1
 10
-553.7591963935039
 20
-377.8872950404367
 11
-550.3742508748753
 21
-377.8872950404361
 72
     1
 10
-550.3742508748753
 20
-377.8872950404361
 11
-550.3742508748753
 21
-378.6725603465598
 97
       18
330
149
330
220
330
221
330
209
330
208
330
1AD
330
207
330
206
330
222
330
205
330
223
330
204
330
1AE
330
148
330
14D
330
14C
330
14B
330
14A
 75
     1
 76
     2
 52
45.0
 41
0.1
 77
     0
 78
     1
 53
45.0
 43
62.7811309658083
 44
-72.3161373035813
 45
-0.1414213562373095
 46
0.0
 79
     0
 98
        1
 10
0.0
 20
0.0
  0
HATCH
  5
277
330
6A
100
AcDbEntity
  8
1
  6
Continuous
 62
     2
100
AcDbHatch
 10
0.0
 20
0.0
 30
0.0
210
0.0
220
0.0
230
1.0
  2
CUSTOM23
 70
     0
 71
     1
 91
        1
 92
        1
 93
       18
 72
     1
 10
-550.3742508748753
 20
-378.6725603465598
 11
-551.1853499123487
 21
-378.6725603465598
 72
     1
 10
-551.1853499123487
 20
-378.6725603465598
 11
-551.1853499123487
 21
-380.9411045642472
 72
     1
 10
-551.1853499123487
 20
-380.9411045642472
 11
-552.3781426145164
 21
-380.9411045642472
 72
     1
 10
-552.3781426145164
 20
-380.9411045642472
 11
-552.3781426145164
 21
-378.6725603465598
 72
     1
 10
-552.3781426145164
 20
-378.6725603465598
 11
-553.4817819140845
 21
-378.6725603465598
 72
     2
 10
-553.4817819140845
 20
-379.6270833533859
 40
0.9545230068260935
 50
90.0
 51
109.3371432194265
 73
     1
 72
     2
 10
-553.6284519121882
 20
-379.2091283730029
 40
0.5115800601944048
 50
109.3371432194823
 51
151.4785267424222
 73
     1
 72
     2
 10
-553.2510946541067
 20
-379.414199802342
 40
0.9410597353349581
 50
151.4785267423587
 51
208.5214732576687
 73
     1
 72
     2
 10
-553.6284519121882
 20
-379.6192712316805
 40
0.5115800601959717
 50
208.5214732576897
 51
246.6277221118369
 73
     1
 72
     2
 10
-553.472011879485
 20
-379.2572792129705
 40
0.9059297849852433
 50
246.6277221118055
 51
288.4480761180772
 73
     1
 72
     2
 10
-553.890179613147
 20
-378.0037334369338
 40
2.227384008972719
 50
288.4480761181337
 51
301.9309089499389
 73
     1
 72
     1
 10
-552.7121245711231
 20
-379.8940841560836
 11
-552.7121245711231
 21
-380.7666011628869
 72
     2
 10
-554.0480524882398
 20
-376.1015188570855
 40
4.852596863498838
 50
74.02000874166154
 51
84.84185523036197
 73
     0
 72
     2
 10
-553.7591963935039
 20
-379.3014094403071
 40
1.639695123940531
 50
84.84185523032279
 51
164.9381082228996
 73
     0
 72
     2
 10
-554.1783242369656
 20
-379.414199802342
 40
1.205656168392947
 50
164.9381082229073
 51
195.0618917770979
 73
     0
 72
     2
 10
-553.7591963935039
 20
-379.5269901643768
 40
1.639695123940101
 50
195.0618917771004
 51
270.0
 73
     0
 72
     1
 10
-553.7591963935039
 20
-377.8872950404367
 11
-550.3742508748753
 21
-377.8872950404361
 72
     1
 10
-550.3742508748753
 20
-377.8872950404361
 11
-550.3742508748753
 21
-378.6725603465598
 97
       18
330
149
330
220
330
221
330
209
330
208
330
1AD
330
207
330
206
330
222
330
205
330
223
330
204
330
1AE
330
148
330
14D
330
14C
330
14B
330
14A
 75
     1
 76
     2
 52
45.0
 41
0.1
 77
     0
 78
     1
 53
45.0
 43
62.7811309658083
 44
-72.3161373035813
 45
-0.1414213562373095
 46
0.0
 79
     0
 98
        1
 10
0.0
 20
0.0
  0
HATCH
  5
278
330
6A
100
AcDbEntity
  8
1
  6
Continuous
 62
     2
100
AcDbHatch
 10
0.0
 20
0.0
 30
0.0
210
0.0
220
0.0
230
1.0
  2
CUSTOM24
 70
     0
 71
     1
 91
        1
 92
        1
 93
       14
 72
     2
 10
-569.8618978727568
 20
-379.5269901643768
 40
1.639695123940496
 50
84.8418552303663
 51
164.9381082228903
 73
     1
 72
     2
 10
-570.2810257162196
 20
-379.414199802342
 40
1.205656168390971
 50
164.9381082228768
 51
195.0618917770945
 73
     1
 72
     2
 10
-569.8618978727568
 20
-379.3014094403071
 40
1.63969512393941
 50
195.0618917770925
 51
275.1581447696353
 73
     1
 72
     2
 10
-570.1507539674927
 20
-376.1015188570855
 40
4.852596863498215
 50
275.1581447696238
 51
285.979991258353
 73
     1
 72
     1
 10
-568.8148260503749
 20
-380.7666011628864
 11
-568.8148260503749
 21
-379.8940841560831
 72
     2
 10
-569.9928810923999
 20
-378.0037334369333
 40
2.227384008972773
 50
58.06909105003709
 51
71.55192388186677
 73
     0
 72
     2
 10
-569.574713358739
 20
-379.2572792129705
 40
0.9059297849847924
 50
71.5519238818455
 51
113.3722778881285
 73
     0
 72
     2
 10
-569.7311533914411
 20
-379.6192712316805
 40
0.5115800601947741
 50
113.3722778881631
 51
151.4785267423172
 73
     0
 72
     2
 10
-569.3537961333607
 20
-379.414199802342
 40
0.9410597353334044
 50
151.4785267423053
 51
208.5214732577282
 73
     0
 72
     2
 10
-569.7311533914411
 20
-379.2091283730029
 40
0.5115800601947954
 50
208.5214732576828
 51
246.6277221118142
 73
     0
 72
     2
 10
-569.574713358739
 20
-379.5711203917135
 40
0.9059297849853588
 50
246.6277221118743
 51
288.448076118142
 73
     0
 72
     2
 10
-569.9928810923999
 20
-380.8246661677501
 40
2.227384008973465
 50
288.4480761181333
 51
301.9309089499629
 73
     0
 72
     1
 10
-568.8148260503749
 20
-378.9343154486003
 11
-568.8148260503749
 21
-378.061798441797
 72
     2
 10
-570.1507539674927
 20
-382.7268807475978
 40
4.852596863497994
 50
74.02000874164679
 51
84.84185523037608
 73
     1
 97
       14
330
228
330
229
330
22A
330
22B
330
1AF
330
201
330
200
330
1FF
330
22C
330
22D
330
1FE
330
22E
330
1B0
330
1FD
 75
     1
 76
     2
 52
45.0
 41
0.1
 77
     0
 78
     1
 53
45.0
 43
62.7811309658083
 44
-72.3161373035813
 45
-0.1414213562373095
 46
0.0
 79
     0
 98
        1
 10
0.0
 20
0.0
  0
HATCH
  5
279
330
6A
100
AcDbEntity
  8
1
  6
Continuous
 62
     2
100
AcDbHatch
 10
0.0
 20
0.0
 30
0.0
210
0.0
220
0.0
230
1.0
  2
CUSTOM25
 70
     0
 71
     1
 91
        1
 92
        1
 93
       14
 72
     2
 10
-569.8618978727568
 20
-379.5269901643768
 40
1.639695123940496
 50
84.8418552303663
 51
164.9381082228903
 73
     1
 72
     2
 10
-570.2810257162196
 20
-379.414199802342
 40
1.205656168390971
 50
164.9381082228768
 51
195.0618917770945
 73
     1
 72
     2
 10
-569.8618978727568
 20
-379.3014094403071
 40
1.63969512393941
 50
195.0618917770925
 51
275.1581447696353
 73
     1
 72
     2
 10
-570.1507539674927
 20
-376.1015188570855
 40
4.852596863498215
 50
275.1581447696238
 51
285.979991258353
 73
     1
 72
     1
 10
-568.8148260503749
 20
-380.7666011628864
 11
-568.8148260503749
 21
-379.8940841560831
 72
     2
 10
-569.9928810923999
 20
-378.0037334369333
 40
2.227384008972773
 50
58.06909105003709
 51
71.55192388186677
 73
     0
 72
     2
 10
-569.574713358739
 20
-379.2572792129705
 40
0.9059297849847924
 50
71.5519238818455
 51
113.3722778881285
 73
     0
 72
     2
 10
-569.7311533914411
 20
-379.6192712316805
 40
0.5115800601947741
 50
113.3722778881631
 51
151.4785267423172
 73
     0
 72
     2
 10
-569.3537961333607
 20
-379.414199802342
 40
0.9410597353334044
 50
151.4785267423053
 51
208.5214732577282
 73
     0
 72
     2
 10
-569.7311533914411
 20
-379.2091283730029
 40
0.5115800601947954
 50
208.5214732576828
 51
246.6277221118142
 73
     0
 72
     2
 10
-569.574713358739
 20
-379.5711203917135
 40
0.9059297849853588
 50
246.6277221118743
 51
288.448076118142
 73
     0
 72
     2
 10
-569.9928810923999
 20
-380.8246661677501
 40
2.227384008973465
 50
288.4480761181333
 51
301.9309089499629
 73
     0
 72
     1
 10
-568.8148260503749
 20
-378.9343154486003
 11
-568.8148260503749
 21
-378.061798441797
 72
     2
 10
-570.1507539674927
 20
-382.7268807475978
 40
4.852596863497994
 50
74.02000874164679
 51
84.84185523037608
 73
     1
 97
       14
330
228
330
229
330
22A
330
22B
330
1AF
330
201
330
200
330
1FF
330
22C
330
22D
330
1FE
330
22E
330
1B0
330
1FD
 75
     1
 76
     2
 52
45.0
 41
0.1
 77
     0
 78
     1
 53
45.0
 43
62.7811309658083
 44
-72.3161373035813
 45
-0.1414213562373095
 46
0.0
 79
     0
 98
        1
 10
0.0
 20
0.0
  0
ENDBLK
  5
6C
330
6A
100
AcDbEntity
  8
0
100
AcDbBlockEnd
  0
BLOCK
  5
6E
330
6D
100
AcDbEntity
  8
0
100
AcDbBlockBegin
  2
_punkt
 70
     0
 10
-452.9774504653925
 20
-388.2346045642635
 30
0.0
  3
_punkt
  1

  0
LINE
  5
27A
330
6D
100
AcDbEntity
  8
1
  6
Continuous
 62
     2
100
AcDbLine
 10
-452.9774504653924
 20
-388.2346045642635
 30
0.0
 11
-447.9774504653948
 21
-388.2346045642635
 31
0.0
  0
LINE
  5
27B
330
6D
100
AcDbEntity
  8
1
  6
Continuous
 62
     2
100
AcDbLine
 10
-452.9774504653924
 20
-388.2346045642635
 30
0.0
 11
-452.9774504653924
 21
-393.234604564263
 31
0.0
  0
ENDBLK
  5
6F
330
6D
100
AcDbEntity
  8
0
100
AcDbBlockEnd
  0
BLOCK
  5
73
330
70
100
AcDbEntity
  8
0
100
AcDbBlockBegin
  2
A3I_CS
 70
     0
 10
-452.9774504653924
 20
-393.234604564263
 30
0.0
  3
A3I_CS
  1

  0
INSERT
  5
71
330
70
100
AcDbEntity
  8
1
100
AcDbBlockReference
  2
_rahmen
 10
-452.9774504653924
 20
-393.234604564263
 30
0.0
  0
INSERT
  5
72
330
70
100
AcDbEntity
  8
1
100
AcDbBlockReference
  2
_punkt
 10
-452.9774504653925
 20
-388.2346045642635
 30
0.0
  0
ENDBLK
  5
74
330
70
100
AcDbEntity
  8
0
100
AcDbBlockEnd
  0
BLOCK
  5
7C
330
75
100
AcDbEntity
  8
0
100
AcDbBlockBegin
  2
1
 70
     0
 10
0.0
 20
0.0
 30
0.0
  3
1
  1

  0
INSERT
  5
76
330
75
100
AcDbEntity
  8
0
100
AcDbBlockReference
  2
Allg1
 10
-276.1442979999997
 20
-100.591047
 30
0.0
 41
0.5
 42
0.5
 43
0.5
  0
INSERT
  5
77
330
75
100
AcDbEntity
  8
0
100
AcDbBlockReference
  2
Drfsicht1
 10
-248.4582195
 20
-240.724989
 30
0.0
 41
0.5
 42
0.5
 43
0.5
  0
INSERT
  5
78
330
75
100
AcDbEntity
  8
0
100
AcDbBlockReference
  2
SA_Links1
 10
-505.708219499995
 20
-165.724989179649
 30
0.0
 41
0.5
 42
0.5
 43
0.5
  0
INSERT
  5
79
330
75
100
AcDbEntity
  8
0
100
AcDbBlockReference
  2
SA_Rechts1
 10
-797.7082196961675
 20
-165.7249891796499
 30
0.0
 41
0.5
 42
0.5
 43
0.5
  0
INSERT
  5
7A
330
75
100
AcDbEntity
  8
0
100
AcDbBlockReference
  2
Vordans1
 10
-248.4582194999996
 20
-165.7249890000004
 30
0.0
 41
0.5
 42
0.5
 43
0.5
  0
INSERT
  5
7B
330
75
100
AcDbEntity
  8
0
100
AcDbBlockReference
  2
A3I_CS
 10
-452.9774504653924
 20
-393.234604564263
 30
0.0
  0
ENDBLK
  5
7D
330
75
100
AcDbEntity
  8
0
100
AcDbBlockEnd
  0
BLOCK
  5
CC
330
C5
100
AcDbEntity
  8
0
100
AcDbBlockBegin
  2
*D15
 70
     1
 10
0.0
 20
0.0
 30
0.0
  3
*D15
  1

  0
LINE
  5
C6
330
C5
100
AcDbEntity
  8
1
  6
Continuous
 62
     2
100
AcDbLine
 10
-1535.416439392322
 20
-361.4499783592998
 30
0.0
 11
-1535.416439392322
 21
-301.4499783592998
 31
0.0
  0
LINE
  5
C7
330
C5
100
AcDbEntity
  8
1
  6
Continuous
 62
     2
100
AcDbLine
 10
-1555.416439392322
 20
-361.4499783592998
 30
0.0
 11
-1532.416439392322
 21
-361.4499783592998
 31
0.0
  0
LINE
  5
C8
330
C5
100
AcDbEntity
  8
1
  6
Continuous
 62
     2
100
AcDbLine
 10
-1555.416439392322
 20
-301.4499783592998
 30
0.0
 11
-1532.416439392322
 21
-301.4499783592998
 31
0.0
  0
SOLID
  5
C9
330
C5
100
AcDbEntity
  8
1
 62
     2
100
AcDbTrace
 10
-1536.338006875434
 20
-354.4499783592998
 30
0.0
 11
-1534.49487190921
 21
-354.4499783592998
 31
0.0
 12
-1535.416439392322
 22
-361.4499783592998
 32
0.0
 13
-1535.416439392322
 23
-361.4499783592998
 33
0.0
  0
SOLID
  5
CA
330
C5
100
AcDbEntity
  8
1
 62
     2
100
AcDbTrace
 10
-1534.49487190921
 20
-308.4499783592998
 30
0.0
 11
-1536.338006875434
 21
-308.4499783592998
 31
0.0
 12
-1535.416439392322
 22
-301.4499783592998
 32
0.0
 13
-1535.416439392322
 23
-301.4499783592998
 33
0.0
  0
MTEXT
  5
CB
330
C5
100
AcDbEntity
  8
1
 62
     3
100
AcDbMText
 10
-1538.416439392322
 20
-336.6999783592998
 30
0.0
 40
7.0
 41
0.0
 71
     7
 72
     1
  1
60
  7
CONVERTER_11
 11
0.0
 21
1.0
 31
0.0
 73
     1
 44
0.60024009603842
  0
ENDBLK
  5
CD
330
C5
100
AcDbEntity
  8
0
100
AcDbBlockEnd
  0
BLOCK
  5
D7
330
D0
100
AcDbEntity
  8
0
100
AcDbBlockBegin
  2
*D16
 70
     1
 10
0.0
 20
0.0
 30
0.0
  3
*D16
  1

  0
LINE
  5
D1
330
D0
100
AcDbEntity
  8
1
  6
Continuous
 62
     2
100
AcDbLine
 10
-1555.416439392322
 20
-381.4499783592998
 30
0.0
 11
-1635.416439392322
 21
-381.4499783592998
 31
0.0
  0
LINE
  5
D2
330
D0
100
AcDbEntity
  8
1
  6
Continuous
 62
     2
100
AcDbLine
 10
-1555.416439392322
 20
-361.4499783592998
 30
0.0
 11
-1555.416439392322
 21
-384.4499783592998
 31
0.0
  0
LINE
  5
D3
330
D0
100
AcDbEntity
  8
1
  6
Continuous
 62
     2
100
AcDbLine
 10
-1635.416439392322
 20
-361.4499783592998
 30
0.0
 11
-1635.416439392322
 21
-384.4499783592998
 31
0.0
  0
SOLID
  5
D4
330
D0
100
AcDbEntity
  8
1
 62
     2
100
AcDbTrace
 10
-1562.416439392322
 20
-382.3715458424115
 30
0.0
 11
-1562.416439392322
 21
-380.528410876188
 31
0.0
 12
-1555.416439392322
 22
-381.4499783592998
 32
0.0
 13
-1555.416439392322
 23
-381.4499783592998
 33
0.0
  0
SOLID
  5
D5
330
D0
100
AcDbEntity
  8
1
 62
     2
100
AcDbTrace
 10
-1628.416439392322
 20
-380.528410876188
 30
0.0
 11
-1628.416439392322
 21
-382.3715458424115
 31
0.0
 12
-1635.416439392322
 22
-381.4499783592998
 32
0.0
 13
-1635.416439392322
 23
-381.4499783592998
 33
0.0
  0
MTEXT
  5
D6
330
D0
100
AcDbEntity
  8
1
 62
     3
100
AcDbMText
 10
-1600.666439392322
 20
-378.4499783592998
 30
0.0
 40
7.0
 41
0.0
 71
     7
 72
     1
  1
80
  7
CONVERTER_11
 11
0.9999999999970619
 21
2.424068405545306E-6
 31
0.0
 73
     1
 44
0.60024009603842
  0
ENDBLK
  5
D8
330
D0
100
AcDbEntity
  8
0
100
AcDbBlockEnd
  0
BLOCK
  5
12B
330
124
100
AcDbEntity
  8
0
100
AcDbBlockBegin
  2
*D17
 70
     1
 10
0.0
 20
0.0
 30
0.0
  3
*D17
  1

  0
LINE
  5
125
330
124
100
AcDbEntity
  8
1
  6
Continuous
 62
     2
100
AcDbLine
 10
-1091.416438999996
 20
-381.4499780000007
 30
0.0
 11
-1495.416438999996
 21
-381.4499780000007
 31
0.0
  0
LINE
  5
126
330
124
100
AcDbEntity
  8
1
  6
Continuous
 62
     2
100
AcDbLine
 10
-1091.416438999996
 20
-361.4499780000007
 30
0.0
 11
-1091.416438999996
 21
-384.4499780000007
 31
0.0
  0
LINE
  5
127
330
124
100
AcDbEntity
  8
1
  6
Continuous
 62
     2
100
AcDbLine
 10
-1495.416438999996
 20
-361.4499780000007
 30
0.0
 11
-1495.416438999996
 21
-384.4499780000007
 31
0.0
  0
SOLID
  5
128
330
124
100
AcDbEntity
  8
1
 62
     2
100
AcDbTrace
 10
-1098.416438999996
 20
-382.3715454831125
 30
0.0
 11
-1098.416438999996
 21
-380.528410516889
 31
0.0
 12
-1091.416438999996
 22
-381.4499780000007
 32
0.0
 13
-1091.416438999996
 23
-381.4499780000007
 33
0.0
  0
SOLID
  5
129
330
124
100
AcDbEntity
  8
1
 62
     2
100
AcDbTrace
 10
-1488.416438999996
 20
-380.528410516889
 30
0.0
 11
-1488.416438999996
 21
-382.3715454831125
 31
0.0
 12
-1495.416438999996
 22
-381.4499780000007
 32
0.0
 13
-1495.416438999996
 23
-381.4499780000007
 33
0.0
  0
MTEXT
  5
12A
330
124
100
AcDbEntity
  8
1
 62
     3
100
AcDbMText
 10
-1304.966438999998
 20
-378.4499780000007
 30
0.0
 40
7.0
 41
0.0
 71
     7
 72
     1
  1
2000
  7
CONVERTER_11
 11
0.9999999999970619
 21
2.424068405545306E-6
 31
0.0
 73
     1
 44
0.60024009603842
  0
ENDBLK
  5
12C
330
124
100
AcDbEntity
  8
0
100
AcDbBlockEnd
  0
ENDSEC
  0
SECTION
  2
ENTITIES
  0
INSERT
  5
7E
330
1F
100
AcDbEntity
  8
1
100
AcDbBlockReference
  2
1
 10
0.0
 20
0.0
 30
0.0
  0
ENDSEC
  0
SECTION
  2
OBJECTS
  0
DICTIONARY
  5
C
330
0
100
AcDbDictionary
281
     1
  3
ACAD_GROUP
350
D
  3
ACAD_LAYOUT
350
1A
  3
ACAD_MATERIAL
350
3B
  3
ACAD_MLEADERSTYLE
350
2A3
  3
ACAD_MLINESTYLE
350
17
  3
ACAD_PLOTSETTINGS
350
19
  3
ACAD_PLOTSTYLENAME
350
E
  3
ACAD_TABLESTYLE
350
2A2
  3
ACAD_VISUALSTYLE
350
2A
  0
DICTIONARY
  5
D
102
{ACAD_REACTORS
330
C
102
}
330
C
100
AcDbDictionary
281
     1
  0
DICTIONARY
  5
1A
102
{ACAD_REACTORS
330
C
102
}
330
C
100
AcDbDictionary
281
     1
  3
Layout1
350
1E
  3
Layout2
350
26
  3
Model
350
22
  0
DICTIONARY
  5
3B
102
{ACAD_REACTORS
330
C
102
}
330
C
100
AcDbDictionary
281
     1
  3
ByBlock
350
3D
  3
ByLayer
350
3C
  3
Global
350
3E
  0
DICTIONARY
  5
2A3
102
{ACAD_REACTORS
330
C
102
}
330
C
100
AcDbDictionary
281
     1
  0
DICTIONARY
  5
17
102
{ACAD_REACTORS
330
C
102
}
330
C
100
AcDbDictionary
281
     1
  3
Standard
350
18
  0
DICTIONARY
  5
19
102
{ACAD_REACTORS
330
C
102
}
330
C
100
AcDbDictionary
281
     1
  0
ACDBDICTIONARYWDFLT
  5
E
102
{ACAD_REACTORS
330
C
102
}
330
C
100
AcDbDictionary
281
     1
  3
Normal
350
F
100
AcDbDictionaryWithDefault
340
F
  0
DICTIONARY
  5
2A2
102
{ACAD_REACTORS
330
C
102
}
330
C
100
AcDbDictionary
281
     1
  0
DICTIONARY
  5
2A
102
{ACAD_REACTORS
330
C
102
}
330
C
100
AcDbDictionary
281
     1
  3
2dWireframe
350
2F
  3
3D Hidden
350
31
  3
3dWireframe
350
30
  3
Basic
350
32
  3
Brighten
350
36
  3
ColorChange
350
3A
  3
Conceptual
350
34
  3
Dim
350
35
  3
Facepattern
350
39
  3
Flat
350
2B
  3
FlatWithEdges
350
2C
  3
Gouraud
350
2D
  3
GouraudWithEdges
350
2E
  3
Linepattern
350
38
  3
Realistic
350
33
  3
Thicken
350
37
  0
LAYOUT
  5
1E
102
{ACAD_REACTORS
330
1A
102
}
330
1A
100
AcDbPlotSettings
  1

  2
none_device
  4

  6

 40
0.0
 41
0.0
 42
0.0
 43
0.0
 44
0.0
 45
0.0
 46
0.0
 47
0.0
 48
0.0
 49
0.0
140
0.0
141
0.0
142
1.0
143
1.0
 70
   688
 72
     0
 73
     0
 74
     5
  7

 75
    16
 76
     0
 77
     2
 78
   300
147
1.0
148
0.0
149
0.0
100
AcDbLayout
  1
Layout1
 70
     1
 71
     1
 10
0.0
 20
0.0
 11
12.0
 21
9.0
 12
0.0
 22
0.0
 32
0.0
 14
1.00000000000000E+20
 24
1.00000000000000E+20
 34
1.00000000000000E+20
 15
-1.00000000000000E+20
 25
-1.00000000000000E+20
 35
-1.00000000000000E+20
146
0.0
 13
0.0
 23
0.0
 33
0.0
 16
1.0
 26
0.0
 36
0.0
 17
0.0
 27
1.0
 37
0.0
 76
     0
330
1B
  0
LAYOUT
  5
26
102
{ACAD_REACTORS
330
1A
102
}
330
1A
100
AcDbPlotSettings
  1

  2
none_device
  4

  6

 40
0.0
 41
0.0
 42
0.0
 43
0.0
 44
0.0
 45
0.0
 46
0.0
 47
0.0
 48
0.0
 49
0.0
140
0.0
141
0.0
142
1.0
143
1.0
 70
   688
 72
     0
 73
     0
 74
     5
  7

 75
    16
 76
     0
 77
     2
 78
   300
147
1.0
148
0.0
149
0.0
100
AcDbLayout
  1
Layout2
 70
     1
 71
     2
 10
0.0
 20
0.0
 11
0.0
 21
0.0
 12
0.0
 22
0.0
 32
0.0
 14
0.0
 24
0.0
 34
0.0
 15
0.0
 25
0.0
 35
0.0
146
0.0
 13
0.0
 23
0.0
 33
0.0
 16
1.0
 26
0.0
 36
0.0
 17
0.0
 27
1.0
 37
0.0
 76
     0
330
23
  0
LAYOUT
  5
22
102
{ACAD_REACTORS
330
1A
102
}
330
1A
100
AcDbPlotSettings
  1

  2
none_device
  4

  6

 40
0.0
 41
0.0
 42
0.0
 43
0.0
 44
0.0
 45
0.0
 46
0.0
 47
0.0
 48
0.0
 49
0.0
140
0.0
141
0.0
142
1.0
143
1.0
 70
  1712
 72
     0
 73
     0
 74
     0
  7

 75
     0
 76
     0
 77
     2
 78
   300
147
1.0
148
0.0
149
0.0
100
AcDbLayout
  1
Model
 70
     1
 71
     0
 10
0.0
 20
0.0
 11
12.0
 21
9.0
 12
0.0
 22
0.0
 32
0.0
 14
-867.9774504653932
 24
-393.234604564263
 34
0.0
 15
-447.9774504653948
 25
-96.23460456426301
 35
0.0
146
0.0
 13
0.0
 23
0.0
 33
0.0
 16
1.0
 26
0.0
 36
0.0
 17
0.0
 27
1.0
 37
0.0
 76
     0
330
1F
331
29
  0
MATERIAL
  5
3D
102
{ACAD_REACTORS
330
3B
102
}
102
{ACAD_XDICTIONARY
360
29E
102
}
330
3B
100
AcDbMaterial
  1
ByBlock
  0
MATERIAL
  5
3C
102
{ACAD_REACTORS
330
3B
102
}
102
{ACAD_XDICTIONARY
360
29C
102
}
330
3B
100
AcDbMaterial
  1
ByLayer
  0
MATERIAL
  5
3E
102
{ACAD_REACTORS
330
3B
102
}
102
{ACAD_XDICTIONARY
360
2A0
102
}
330
3B
100
AcDbMaterial
  1
Global
  0
MLINESTYLE
  5
18
102
{ACAD_REACTORS
330
17
102
}
330
17
100
AcDbMlineStyle
  2
Standard
 70
     0
  3

 62
   256
 51
90.0
 52
90.0
 71
     2
 49
0.5
 62
   256
  6
BYLAYER
 49
-0.5
 62
   256
  6
BYLAYER
  0
ACDBPLACEHOLDER
  5
F
102
{ACAD_REACTORS
330
E
102
}
330
E
  0
VISUALSTYLE
  5
2F
102
{ACAD_REACTORS
330
2A
102
}
102
{ACAD_XDICTIONARY
360
284
102
}
330
2A
100
AcDbVisualStyle
  2
2dWireframe
 70
     4
 71
     0
 72
     2
 73
     0
 90
        0
 40
-0.6
 41
-30.0
 62
     5
 63
     7
421
 16777215
 74
     1
 91
        4
 64
     7
 65
   257
 75
     1
175
     1
 42
1.0
 92
        0
 66
   257
 43
1.0
 76
     1
 77
     6
 78
     2
 67
     7
 79
     5
170
     0
171
     0
290
     0
174
     0
 93
        1
 44
0.0
173
     0
291
     0
 45
0.0
1001
ACAD
1000
AcDbSavedByObjectVersion
1070
     0
  0
VISUALSTYLE
  5
31
102
{ACAD_REACTORS
330
2A
102
}
102
{ACAD_XDICTIONARY
360
288
102
}
330
2A
100
AcDbVisualStyle
  2
3D Hidden
 70
     6
 71
     1
 72
     2
 73
     2
 90
        0
 40
-0.6
 41
-30.0
 62
     5
 63
     7
421
 16777215
 74
     2
 91
        2
 64
     7
 65
   257
 75
     2
175
     1
 42
40.0
 92
        0
 66
   257
 43
1.0
 76
     1
 77
     6
 78
     2
 67
     7
 79
     3
170
     0
171
     0
290
     0
174
     0
 93
        1
 44
0.0
173
     0
291
     0
 45
0.0
1001
ACAD
1000
AcDbSavedByObjectVersion
1070
     0
  0
VISUALSTYLE
  5
30
102
{ACAD_REACTORS
330
2A
102
}
102
{ACAD_XDICTIONARY
360
286
102
}
330
2A
100
AcDbVisualStyle
  2
3dWireframe
 70
     5
 71
     0
 72
     2
 73
     0
 90
        0
 40
-0.6
 41
-30.0
 62
     5
 63
     7
421
 16777215
 74
     1
 91
        4
 64
     7
 65
   257
 75
     1
175
     1
 42
1.0
 92
        0
 66
   257
 43
1.0
 76
     1
 77
     6
 78
     2
 67
     7
 79
     5
170
     0
171
     0
290
     0
174
     0
 93
        1
 44
0.0
173
     0
291
     0
 45
0.0
1001
ACAD
1000
AcDbSavedByObjectVersion
1070
     0
  0
VISUALSTYLE
  5
32
102
{ACAD_REACTORS
330
2A
102
}
102
{ACAD_XDICTIONARY
360
28A
102
}
330
2A
100
AcDbVisualStyle
  2
Basic
 70
     7
 71
     1
 72
     0
 73
     1
 90
        0
 40
-0.6
 41
-30.0
 62
     5
 63
     7
421
 16777215
 74
     0
 91
        4
 64
     7
 65
   257
 75
     1
175
     1
 42
1.0
 92
        8
 66
     7
 43
1.0
 76
     1
 77
     6
 78
     2
 67
     7
 79
     5
170
     0
171
     0
290
     0
174
     0
 93
        1
 44
0.0
173
     0
291
     1
 45
0.0
1001
ACAD
1000
AcDbSavedByObjectVersion
1070
     0
  0
VISUALSTYLE
  5
36
102
{ACAD_REACTORS
330
2A
102
}
102
{ACAD_XDICTIONARY
360
292
102
}
330
2A
100
AcDbVisualStyle
  2
Brighten
 70
    12
 71
     2
 72
     2
 73
     0
 90
        0
 40
-0.6
 41
-30.0
 62
     5
 63
     7
421
 16777215
 74
     1
 91
        4
 64
     7
 65
   257
 75
     1
175
     1
 42
1.0
 92
        8
 66
     7
 43
1.0
 76
     1
 77
     6
 78
     2
 67
     7
 79
     5
170
     0
171
     0
290
     0
174
     0
 93
        1
 44
50.0
173
     0
291
     1
 45
0.0
1001
ACAD
1000
AcDbSavedByObjectVersion
1070
     0
  0
VISUALSTYLE
  5
3A
102
{ACAD_REACTORS
330
2A
102
}
102
{ACAD_XDICTIONARY
360
29A
102
}
330
2A
100
AcDbVisualStyle
  2
ColorChange
 70
    16
 71
     2
 72
     2
 73
     3
 90
        0
 40
-0.6
 41
-30.0
 62
     5
 63
     8
421
  8421504
 74
     1
 91
        4
 64
     7
 65
   257
 75
     1
175
     1
 42
1.0
 92
        8
 66
     8
424
  8421504
 43
1.0
 76
     1
 77
     6
 78
     2
 67
     7
 79
     5
170
     0
171
     0
290
     0
174
     0
 93
        1
 44
0.0
173
     0
291
     1
 45
0.0
1001
ACAD
1000
AcDbSavedByObjectVersion
1070
     0
  0
VISUALSTYLE
  5
34
102
{ACAD_REACTORS
330
2A
102
}
102
{ACAD_XDICTIONARY
360
28E
102
}
330
2A
100
AcDbVisualStyle
  2
Conceptual
 70
     9
 71
     3
 72
     2
 73
     0
 90
        0
 40
-0.6
 41
-30.0
 62
     5
 63
     7
421
 16777215
 74
     2
 91
        2
 64
     7
 65
   257
 75
     1
175
     1
 42
40.0
 92
        8
 66
     7
 43
1.0
 76
     1
 77
     6
 78
     2
 67
     7
 79
     3
170
     0
171
     0
290
     0
174
     0
 93
        1
 44
0.0
173
     0
291
     0
 45
0.0
1001
ACAD
1000
AcDbSavedByObjectVersion
1070
     0
  0
VISUALSTYLE
  5
35
102
{ACAD_REACTORS
330
2A
102
}
102
{ACAD_XDICTIONARY
360
290
102
}
330
2A
100
AcDbVisualStyle
  2
Dim
 70
    11
 71
     2
 72
     2
 73
     0
 90
        0
 40
-0.6
 41
-30.0
 62
     5
 63
     7
421
 16777215
 74
     1
 91
        4
 64
     7
 65
   257
 75
     1
175
     1
 42
1.0
 92
        8
 66
     7
 43
1.0
 76
     1
 77
     6
 78
     2
 67
     7
 79
     5
170
     0
171
     0
290
     0
174
     0
 93
        1
 44
-50.0
173
     0
291
     1
 45
0.0
1001
ACAD
1000
AcDbSavedByObjectVersion
1070
     0
  0
VISUALSTYLE
  5
39
102
{ACAD_REACTORS
330
2A
102
}
102
{ACAD_XDICTIONARY
360
298
102
}
330
2A
100
AcDbVisualStyle
  2
Facepattern
 70
    15
 71
     2
 72
     2
 73
     0
 90
        0
 40
-0.6
 41
-30.0
 62
     5
 63
     7
421
 16777215
 74
     1
 91
        4
 64
     7
 65
   257
 75
     1
175
     1
 42
1.0
 92
        8
 66
     7
 43
1.0
 76
     1
 77
     6
 78
     2
 67
     7
 79
     5
170
     0
171
     0
290
     0
174
     0
 93
        1
 44
0.0
173
     0
291
     1
 45
0.0
1001
ACAD
1000
AcDbSavedByObjectVersion
1070
     0
  0
VISUALSTYLE
  5
2B
102
{ACAD_REACTORS
330
2A
102
}
102
{ACAD_XDICTIONARY
360
27C
102
}
330
2A
100
AcDbVisualStyle
  2
Flat
 70
     0
 71
     2
 72
     1
 73
     1
 90
        2
 40
-0.6
 41
30.0
 62
     5
 63
     7
421
 16777215
 74
     0
 91
        4
 64
     7
 65
   257
 75
     1
175
     1
 42
1.0
 92
        8
 66
     7
 43
1.0
 76
     1
 77
     6
 78
     2
 67
     7
 79
     5
170
     0
171
     0
290
     0
174
     0
 93
       13
 44
0.0
173
     0
291
     1
 45
0.0
1001
ACAD
1000
AcDbSavedByObjectVersion
1070
     0
  0
VISUALSTYLE
  5
2C
102
{ACAD_REACTORS
330
2A
102
}
102
{ACAD_XDICTIONARY
360
27E
102
}
330
2A
100
AcDbVisualStyle
  2
FlatWithEdges
 70
     1
 71
     2
 72
     1
 73
     1
 90
        2
 40
-0.6
 41
30.0
 62
     5
 63
     7
421
 16777215
 74
     1
 91
        4
 64
     7
 65
   257
 75
     1
175
     1
 42
1.0
 92
        0
 66
   257
 43
1.0
 76
     1
 77
     6
 78
     2
 67
     7
 79
     5
170
     0
171
     0
290
     0
174
     0
 93
       13
 44
0.0
173
     0
291
     1
 45
0.0
1001
ACAD
1000
AcDbSavedByObjectVersion
1070
     0
  0
VISUALSTYLE
  5
2D
102
{ACAD_REACTORS
330
2A
102
}
102
{ACAD_XDICTIONARY
360
280
102
}
330
2A
100
AcDbVisualStyle
  2
Gouraud
 70
     2
 71
     2
 72
     2
 73
     1
 90
        2
 40
-0.6
 41
30.0
 62
     5
 63
     7
421
 16777215
 74
     0
 91
        4
 64
     7
 65
   257
 75
     1
175
     1
 42
1.0
 92
        0
 66
     7
 43
1.0
 76
     1
 77
     6
 78
     2
 67
     7
 79
     5
170
     0
171
     0
290
     0
174
     0
 93
       13
 44
0.0
173
     0
291
     1
 45
0.0
1001
ACAD
1000
AcDbSavedByObjectVersion
1070
     0
  0
VISUALSTYLE
  5
2E
102
{ACAD_REACTORS
330
2A
102
}
102
{ACAD_XDICTIONARY
360
282
102
}
330
2A
100
AcDbVisualStyle
  2
GouraudWithEdges
 70
     3
 71
     2
 72
     2
 73
     1
 90
        2
 40
-0.6
 41
30.0
 62
     5
 63
     7
421
 16777215
 74
     1
 91
        4
 64
     7
 65
   257
 75
     1
175
     1
 42
1.0
 92
        0
 66
   257
 43
1.0
 76
     1
 77
     6
 78
     2
 67
     7
 79
     5
170
     0
171
     0
290
     0
174
     0
 93
       13
 44
0.0
173
     0
291
     1
 45
0.0
1001
ACAD
1000
AcDbSavedByObjectVersion
1070
     0
  0
VISUALSTYLE
  5
38
102
{ACAD_REACTORS
330
2A
102
}
102
{ACAD_XDICTIONARY
360
296
102
}
330
2A
100
AcDbVisualStyle
  2
Linepattern
 70
    14
 71
     2
 72
     2
 73
     0
 90
        0
 40
-0.6
 41
-30.0
 62
     5
 63
     7
421
 16777215
 74
     1
 91
        4
 64
     7
 65
   257
 75
     7
175
     7
 42
1.0
 92
        8
 66
     7
 43
1.0
 76
     1
 77
     6
 78
     2
 67
     7
 79
     5
170
     0
171
     0
290
     0
174
     0
 93
        1
 44
0.0
173
     0
291
     1
 45
0.0
1001
ACAD
1000
AcDbSavedByObjectVersion
1070
     0
  0
VISUALSTYLE
  5
33
102
{ACAD_REACTORS
330
2A
102
}
102
{ACAD_XDICTIONARY
360
28C
102
}
330
2A
100
AcDbVisualStyle
  2
Realistic
 70
     8
 71
     2
 72
     2
 73
     0
 90
        0
 40
-0.6
 41
-30.0
 62
     5
 63
     7
421
 16777215
 74
     1
 91
        0
 64
     7
 65
   257
 75
     1
175
     1
 42
1.0
 92
        8
 66
     8
424
  7895160
 43
1.0
 76
     1
 77
     6
 78
     2
 67
     7
 79
     5
170
     0
171
     0
290
     0
174
     0
 93
       13
 44
0.0
173
     0
291
     0
 45
0.0
1001
ACAD
1000
AcDbSavedByObjectVersion
1070
     0
  0
VISUALSTYLE
  5
37
102
{ACAD_REACTORS
330
2A
102
}
102
{ACAD_XDICTIONARY
360
294
102
}
330
2A
100
AcDbVisualStyle
  2
Thicken
 70
    13
 71
     2
 72
     2
 73
     0
 90
        0
 40
-0.6
 41
-30.0
 62
     5
 63
     7
421
 16777215
 74
     1
 91
        4
 64
     7
 65
   257
 75
     1
175
     1
 42
1.0
 92
       12
 66
     7
 43
1.0
 76
     1
 77
     6
 78
     2
 67
     7
 79
     5
170
     0
171
     0
290
     0
174
     0
 93
        1
 44
0.0
173
     0
291
     1
 45
0.0
1001
ACAD
1000
AcDbSavedByObjectVersion
1070
     0
  0
DICTIONARY
  5
29E
330
3D
100
AcDbDictionary
280
     1
281
     1
  3
ACAD_XREC_ROUNDTRIP
360
29F
  0
DICTIONARY
  5
29C
330
3C
100
AcDbDictionary
280
     1
281
     1
  3
ACAD_XREC_ROUNDTRIP
360
29D
  0
DICTIONARY
  5
2A0
330
3E
100
AcDbDictionary
280
     1
281
     1
  3
ACAD_XREC_ROUNDTRIP
360
2A1
  0
DICTIONARY
  5
284
330
2F
100
AcDbDictionary
280
     1
281
     1
  3
ACAD_XREC_ROUNDTRIP
360
285
  0
DICTIONARY
  5
288
330
31
100
AcDbDictionary
280
     1
281
     1
  3
ACAD_XREC_ROUNDTRIP
360
289
  0
DICTIONARY
  5
286
330
30
100
AcDbDictionary
280
     1
281
     1
  3
ACAD_XREC_ROUNDTRIP
360
287
  0
DICTIONARY
  5
28A
330
32
100
AcDbDictionary
280
     1
281
     1
  3
ACAD_XREC_ROUNDTRIP
360
28B
  0
DICTIONARY
  5
292
330
36
100
AcDbDictionary
280
     1
281
     1
  3
ACAD_XREC_ROUNDTRIP
360
293
  0
DICTIONARY
  5
29A
330
3A
100
AcDbDictionary
280
     1
281
     1
  3
ACAD_XREC_ROUNDTRIP
360
29B
  0
DICTIONARY
  5
28E
330
34
100
AcDbDictionary
280
     1
281
     1
  3
ACAD_XREC_ROUNDTRIP
360
28F
  0
DICTIONARY
  5
290
330
35
100
AcDbDictionary
280
     1
281
     1
  3
ACAD_XREC_ROUNDTRIP
360
291
  0
DICTIONARY
  5
298
330
39
100
AcDbDictionary
280
     1
281
     1
  3
ACAD_XREC_ROUNDTRIP
360
299
  0
DICTIONARY
  5
27C
330
2B
100
AcDbDictionary
280
     1
281
     1
  3
ACAD_XREC_ROUNDTRIP
360
27D
  0
DICTIONARY
  5
27E
330
2C
100
AcDbDictionary
280
     1
281
     1
  3
ACAD_XREC_ROUNDTRIP
360
27F
  0
DICTIONARY
  5
280
330
2D
100
AcDbDictionary
280
     1
281
     1
  3
ACAD_XREC_ROUNDTRIP
360
281
  0
DICTIONARY
  5
282
330
2E
100
AcDbDictionary
280
     1
281
     1
  3
ACAD_XREC_ROUNDTRIP
360
283
  0
DICTIONARY
  5
296
330
38
100
AcDbDictionary
280
     1
281
     1
  3
ACAD_XREC_ROUNDTRIP
360
297
  0
DICTIONARY
  5
28C
330
33
100
AcDbDictionary
280
     1
281
     1
  3
ACAD_XREC_ROUNDTRIP
360
28D
  0
DICTIONARY
  5
294
330
37
100
AcDbDictionary
280
     1
281
     1
  3
ACAD_XREC_ROUNDTRIP
360
295
  0
XRECORD
  5
29F
102
{ACAD_REACTORS
330
29E
102
}
330
29E
100
AcDbXrecord
280
     1
102
MATERIAL
148
0.0
149
0.0
149
0.0
 93
        0
 94
      127
282
     0
 72
     1
 77
     1
171
     1
175
     1
179
     1
273
     0
  0
XRECORD
  5
29D
102
{ACAD_REACTORS
330
29C
102
}
330
29C
100
AcDbXrecord
280
     1
102
MATERIAL
148
0.0
149
0.0
149
0.0
 93
        0
 94
      127
282
     0
 72
     1
 77
     1
171
     1
175
     1
179
     1
273
     0
  0
XRECORD
  5
2A1
102
{ACAD_REACTORS
330
2A0
102
}
330
2A0
100
AcDbXrecord
280
     1
102
MATERIAL
148
0.0
149
0.0
149
0.0
 93
        0
 94
      127
282
     0
 72
     1
 77
     1
171
     1
175
     1
179
     1
273
     0
  0
XRECORD
  5
285
102
{ACAD_REACTORS
330
284
102
}
330
284
100
AcDbXrecord
280
     1
102
RTVSPropertyOp0
 70
     1
102
RTVSPropertyOp1
 70
     1
102
RTVSPropertyOp2
 70
     1
102
RTVSPropertyOp3
 70
     1
102
RTVSPropertyOp4
 70
     1
102
RTVSPropertyOp5
 70
     1
102
RTVSPropertyOp6
 70
     1
102
RTVSPropertyOp7
 70
     1
102
RTVSPropertyOp8
 70
     1
102
RTVSPropertyOp9
 70
     1
102
RTVSPropertyOp10
 70
     1
102
RTVSPropertyOp11
 70
     1
102
RTVSPropertyOp12
 70
     1
102
RTVSPropertyOp13
 70
     1
102
RTVSPropertyOp14
 70
     1
102
RTVSPropertyOp15
 70
     1
102
RTVSPropertyOp16
 70
     1
102
RTVSPropertyOp17
 70
     1
102
RTVSPropertyOp18
 70
     1
102
RTVSPropertyOp19
 70
     1
102
RTVSPropertyOp20
 70
     1
102
RTVSPropertyOp21
 70
     1
102
RTVSPropertyOp22
 70
     1
102
RTVSPropertyOp23
 70
     1
102
RTVSPropertyOp24
 70
     1
102
RTVSPropertyOp25
 70
     1
102
RTVSPropertyOp26
 70
     1
102
RTVSPropertyOp27
 70
     1
102
RTVSPropertyOp28
 70
     1
102
RTVSPropertyOp29
 70
     1
102
RTVSPropertyOp30
 70
     1
102
RTVSPropertyOp31
 70
     1
102
RTVSPropertyOp32
 70
     1
  0
XRECORD
  5
289
102
{ACAD_REACTORS
330
288
102
}
330
288
100
AcDbXrecord
280
     1
102
RTVSPropertyOp0
 70
     1
102
RTVSPropertyOp1
 70
     1
102
RTVSPropertyOp2
 70
     1
102
RTVSPropertyOp3
 70
     1
102
RTVSPropertyOp4
 70
     1
102
RTVSPropertyOp5
 70
     1
102
RTVSPropertyOp6
 70
     1
102
RTVSPropertyOp7
 70
     1
102
RTVSPropertyOp8
 70
     1
102
RTVSPropertyOp9
 70
     1
102
RTVSPropertyOp10
 70
     1
102
RTVSPropertyOp11
 70
     1
102
RTVSPropertyOp12
 70
     1
102
RTVSPropertyOp13
 70
     1
102
RTVSPropertyOp14
 70
     1
102
RTVSPropertyOp15
 70
     1
102
RTVSPropertyOp16
 70
     1
102
RTVSPropertyOp17
 70
     1
102
RTVSPropertyOp18
 70
     1
102
RTVSPropertyOp19
 70
     1
102
RTVSPropertyOp20
 70
     1
102
RTVSPropertyOp21
 70
     1
102
RTVSPropertyOp22
 70
     1
102
RTVSPropertyOp23
 70
     1
102
RTVSPropertyOp24
 70
     1
102
RTVSPropertyOp25
 70
     1
102
RTVSPropertyOp26
 70
     1
102
RTVSPropertyOp27
 70
     1
102
RTVSPropertyOp28
 70
     1
102
RTVSPropertyOp29
 70
     1
102
RTVSPropertyOp30
 70
     1
102
RTVSPropertyOp31
 70
     1
102
RTVSPropertyOp32
 70
     1
  0
XRECORD
  5
287
102
{ACAD_REACTORS
330
286
102
}
330
286
100
AcDbXrecord
280
     1
102
RTVSPropertyOp0
 70
     1
102
RTVSPropertyOp1
 70
     1
102
RTVSPropertyOp2
 70
     1
102
RTVSPropertyOp3
 70
     1
102
RTVSPropertyOp4
 70
     1
102
RTVSPropertyOp5
 70
     1
102
RTVSPropertyOp6
 70
     1
102
RTVSPropertyOp7
 70
     1
102
RTVSPropertyOp8
 70
     1
102
RTVSPropertyOp9
 70
     1
102
RTVSPropertyOp10
 70
     1
102
RTVSPropertyOp11
 70
     1
102
RTVSPropertyOp12
 70
     1
102
RTVSPropertyOp13
 70
     1
102
RTVSPropertyOp14
 70
     1
102
RTVSPropertyOp15
 70
     1
102
RTVSPropertyOp16
 70
     1
102
RTVSPropertyOp17
 70
     1
102
RTVSPropertyOp18
 70
     1
102
RTVSPropertyOp19
 70
     1
102
RTVSPropertyOp20
 70
     1
102
RTVSPropertyOp21
 70
     1
102
RTVSPropertyOp22
 70
     1
102
RTVSPropertyOp23
 70
     1
102
RTVSPropertyOp24
 70
     1
102
RTVSPropertyOp25
 70
     1
102
RTVSPropertyOp26
 70
     1
102
RTVSPropertyOp27
 70
     1
102
RTVSPropertyOp28
 70
     1
102
RTVSPropertyOp29
 70
     1
102
RTVSPropertyOp30
 70
     1
102
RTVSPropertyOp31
 70
     1
102
RTVSPropertyOp32
 70
     1
  0
XRECORD
  5
28B
102
{ACAD_REACTORS
330
28A
102
}
330
28A
100
AcDbXrecord
280
     1
102
RTVSPropertyOp0
 70
     1
102
RTVSPropertyOp1
 70
     1
102
RTVSPropertyOp2
 70
     1
102
RTVSPropertyOp3
 70
     1
102
RTVSPropertyOp4
 70
     1
102
RTVSPropertyOp5
 70
     1
102
RTVSPropertyOp6
 70
     1
102
RTVSPropertyOp7
 70
     1
102
RTVSPropertyOp8
 70
     1
102
RTVSPropertyOp9
 70
     1
102
RTVSPropertyOp10
 70
     1
102
RTVSPropertyOp11
 70
     1
102
RTVSPropertyOp12
 70
     1
102
RTVSPropertyOp13
 70
     1
102
RTVSPropertyOp14
 70
     1
102
RTVSPropertyOp15
 70
     1
102
RTVSPropertyOp16
 70
     1
102
RTVSPropertyOp17
 70
     1
102
RTVSPropertyOp18
 70
     1
102
RTVSPropertyOp19
 70
     1
102
RTVSPropertyOp20
 70
     1
102
RTVSPropertyOp21
 70
     1
102
RTVSPropertyOp22
 70
     1
102
RTVSPropertyOp23
 70
     1
102
RTVSPropertyOp24
 70
     1
102
RTVSPropertyOp25
 70
     1
102
RTVSPropertyOp26
 70
     1
102
RTVSPropertyOp27
 70
     1
102
RTVSPropertyOp28
 70
     1
102
RTVSPropertyOp29
 70
     1
102
RTVSPropertyOp30
 70
     1
102
RTVSPropertyOp31
 70
     1
102
RTVSPropertyOp32
 70
     1
  0
XRECORD
  5
293
102
{ACAD_REACTORS
330
292
102
}
330
292
100
AcDbXrecord
280
     1
102
RTVSPropertyOp0
 70
     1
102
RTVSPropertyOp1
 70
     1
102
RTVSPropertyOp2
 70
     1
102
RTVSPropertyOp3
 70
     1
102
RTVSPropertyOp4
 70
     1
102
RTVSPropertyOp5
 70
     1
102
RTVSPropertyOp6
 70
     1
102
RTVSPropertyOp7
 70
     1
102
RTVSPropertyOp8
 70
     1
102
RTVSPropertyOp9
 70
     1
102
RTVSPropertyOp10
 70
     1
102
RTVSPropertyOp11
 70
     1
102
RTVSPropertyOp12
 70
     1
102
RTVSPropertyOp13
 70
     1
102
RTVSPropertyOp14
 70
     1
102
RTVSPropertyOp15
 70
     1
102
RTVSPropertyOp16
 70
     1
102
RTVSPropertyOp17
 70
     1
102
RTVSPropertyOp18
 70
     1
102
RTVSPropertyOp19
 70
     1
102
RTVSPropertyOp20
 70
     1
102
RTVSPropertyOp21
 70
     1
102
RTVSPropertyOp22
 70
     1
102
RTVSPropertyOp23
 70
     1
102
RTVSPropertyOp24
 70
     1
102
RTVSPropertyOp25
 70
     1
102
RTVSPropertyOp26
 70
     1
102
RTVSPropertyOp27
 70
     1
102
RTVSPropertyOp28
 70
     1
102
RTVSPropertyOp29
 70
     1
102
RTVSPropertyOp30
 70
     1
102
RTVSPropertyOp31
 70
     1
102
RTVSPropertyOp32
 70
     1
  0
XRECORD
  5
29B
102
{ACAD_REACTORS
330
29A
102
}
330
29A
100
AcDbXrecord
280
     1
102
RTVSPropertyOp0
 70
     1
102
RTVSPropertyOp1
 70
     1
102
RTVSPropertyOp2
 70
     1
102
RTVSPropertyOp3
 70
     1
102
RTVSPropertyOp4
 70
     1
102
RTVSPropertyOp5
 70
     1
102
RTVSPropertyOp6
 70
     1
102
RTVSPropertyOp7
 70
     1
102
RTVSPropertyOp8
 70
     1
102
RTVSPropertyOp9
 70
     1
102
RTVSPropertyOp10
 70
     1
102
RTVSPropertyOp11
 70
     1
102
RTVSPropertyOp12
 70
     1
102
RTVSPropertyOp13
 70
     1
102
RTVSPropertyOp14
 70
     1
102
RTVSPropertyOp15
 70
     1
102
RTVSPropertyOp16
 70
     1
102
RTVSPropertyOp17
 70
     1
102
RTVSPropertyOp18
 70
     1
102
RTVSPropertyOp19
 70
     1
102
RTVSPropertyOp20
 70
     1
102
RTVSPropertyOp21
 70
     1
102
RTVSPropertyOp22
 70
     1
102
RTVSPropertyOp23
 70
     1
102
RTVSPropertyOp24
 70
     1
102
RTVSPropertyOp25
 70
     1
102
RTVSPropertyOp26
 70
     1
102
RTVSPropertyOp27
 70
     1
102
RTVSPropertyOp28
 70
     1
102
RTVSPropertyOp29
 70
     1
102
RTVSPropertyOp30
 70
     1
102
RTVSPropertyOp31
 70
     1
102
RTVSPropertyOp32
 70
     1
  0
XRECORD
  5
28F
102
{ACAD_REACTORS
330
28E
102
}
330
28E
100
AcDbXrecord
280
     1
102
RTVSPropertyOp0
 70
     1
102
RTVSPropertyOp1
 70
     1
102
RTVSPropertyOp2
 70
     1
102
RTVSPropertyOp3
 70
     1
102
RTVSPropertyOp4
 70
     1
102
RTVSPropertyOp5
 70
     1
102
RTVSPropertyOp6
 70
     1
102
RTVSPropertyOp7
 70
     1
102
RTVSPropertyOp8
 70
     1
102
RTVSPropertyOp9
 70
     1
102
RTVSPropertyOp10
 70
     1
102
RTVSPropertyOp11
 70
     1
102
RTVSPropertyOp12
 70
     1
102
RTVSPropertyOp13
 70
     1
102
RTVSPropertyOp14
 70
     1
102
RTVSPropertyOp15
 70
     1
102
RTVSPropertyOp16
 70
     1
102
RTVSPropertyOp17
 70
     1
102
RTVSPropertyOp18
 70
     1
102
RTVSPropertyOp19
 70
     1
102
RTVSPropertyOp20
 70
     1
102
RTVSPropertyOp21
 70
     1
102
RTVSPropertyOp22
 70
     1
102
RTVSPropertyOp23
 70
     1
102
RTVSPropertyOp24
 70
     1
102
RTVSPropertyOp25
 70
     1
102
RTVSPropertyOp26
 70
     1
102
RTVSPropertyOp27
 70
     1
102
RTVSPropertyOp28
 70
     1
102
RTVSPropertyOp29
 70
     1
102
RTVSPropertyOp30
 70
     1
102
RTVSPropertyOp31
 70
     1
102
RTVSPropertyOp32
 70
     1
  0
XRECORD
  5
291
102
{ACAD_REACTORS
330
290
102
}
330
290
100
AcDbXrecord
280
     1
102
RTVSPropertyOp0
 70
     1
102
RTVSPropertyOp1
 70
     1
102
RTVSPropertyOp2
 70
     1
102
RTVSPropertyOp3
 70
     1
102
RTVSPropertyOp4
 70
     1
102
RTVSPropertyOp5
 70
     1
102
RTVSPropertyOp6
 70
     1
102
RTVSPropertyOp7
 70
     1
102
RTVSPropertyOp8
 70
     1
102
RTVSPropertyOp9
 70
     1
102
RTVSPropertyOp10
 70
     1
102
RTVSPropertyOp11
 70
     1
102
RTVSPropertyOp12
 70
     1
102
RTVSPropertyOp13
 70
     1
102
RTVSPropertyOp14
 70
     1
102
RTVSPropertyOp15
 70
     1
102
RTVSPropertyOp16
 70
     1
102
RTVSPropertyOp17
 70
     1
102
RTVSPropertyOp18
 70
     1
102
RTVSPropertyOp19
 70
     1
102
RTVSPropertyOp20
 70
     1
102
RTVSPropertyOp21
 70
     1
102
RTVSPropertyOp22
 70
     1
102
RTVSPropertyOp23
 70
     1
102
RTVSPropertyOp24
 70
     1
102
RTVSPropertyOp25
 70
     1
102
RTVSPropertyOp26
 70
     1
102
RTVSPropertyOp27
 70
     1
102
RTVSPropertyOp28
 70
     1
102
RTVSPropertyOp29
 70
     1
102
RTVSPropertyOp30
 70
     1
102
RTVSPropertyOp31
 70
     1
102
RTVSPropertyOp32
 70
     1
  0
XRECORD
  5
299
102
{ACAD_REACTORS
330
298
102
}
330
298
100
AcDbXrecord
280
     1
102
RTVSPropertyOp0
 70
     1
102
RTVSPropertyOp1
 70
     1
102
RTVSPropertyOp2
 70
     1
102
RTVSPropertyOp3
 70
     1
102
RTVSPropertyOp4
 70
     1
102
RTVSPropertyOp5
 70
     1
102
RTVSPropertyOp6
 70
     1
102
RTVSPropertyOp7
 70
     1
102
RTVSPropertyOp8
 70
     1
102
RTVSPropertyOp9
 70
     1
102
RTVSPropertyOp10
 70
     1
102
RTVSPropertyOp11
 70
     1
102
RTVSPropertyOp12
 70
     1
102
RTVSPropertyOp13
 70
     1
102
RTVSPropertyOp14
 70
     1
102
RTVSPropertyOp15
 70
     1
102
RTVSPropertyOp16
 70
     1
102
RTVSPropertyOp17
 70
     1
102
RTVSPropertyOp18
 70
     1
102
RTVSPropertyOp19
 70
     1
102
RTVSPropertyOp20
 70
     1
102
RTVSPropertyOp21
 70
     1
102
RTVSPropertyOp22
 70
     1
102
RTVSPropertyOp23
 70
     1
102
RTVSPropertyOp24
 70
     1
102
RTVSPropertyOp25
 70
     1
102
RTVSPropertyOp26
 70
     1
102
RTVSPropertyOp27
 70
     1
102
RTVSPropertyOp28
 70
     1
102
RTVSPropertyOp29
 70
     1
102
RTVSPropertyOp30
 70
     1
102
RTVSPropertyOp31
 70
     1
102
RTVSPropertyOp32
 70
     1
  0
XRECORD
  5
27D
102
{ACAD_REACTORS
330
27C
102
}
330
27C
100
AcDbXrecord
280
     1
102
RTVSPropertyOp0
 70
     1
102
RTVSPropertyOp1
 70
     1
102
RTVSPropertyOp2
 70
     1
102
RTVSPropertyOp3
 70
     1
102
RTVSPropertyOp4
 70
     1
102
RTVSPropertyOp5
 70
     1
102
RTVSPropertyOp6
 70
     1
102
RTVSPropertyOp7
 70
     1
102
RTVSPropertyOp8
 70
     1
102
RTVSPropertyOp9
 70
     1
102
RTVSPropertyOp10
 70
     1
102
RTVSPropertyOp11
 70
     1
102
RTVSPropertyOp12
 70
     1
102
RTVSPropertyOp13
 70
     1
102
RTVSPropertyOp14
 70
     1
102
RTVSPropertyOp15
 70
     1
102
RTVSPropertyOp16
 70
     1
102
RTVSPropertyOp17
 70
     1
102
RTVSPropertyOp18
 70
     1
102
RTVSPropertyOp19
 70
     1
102
RTVSPropertyOp20
 70
     1
102
RTVSPropertyOp21
 70
     1
102
RTVSPropertyOp22
 70
     1
102
RTVSPropertyOp23
 70
     1
102
RTVSPropertyOp24
 70
     1
102
RTVSPropertyOp25
 70
     1
102
RTVSPropertyOp26
 70
     1
102
RTVSPropertyOp27
 70
     1
102
RTVSPropertyOp28
 70
     1
102
RTVSPropertyOp29
 70
     1
102
RTVSPropertyOp30
 70
     1
102
RTVSPropertyOp31
 70
     1
102
RTVSPropertyOp32
 70
     1
  0
XRECORD
  5
27F
102
{ACAD_REACTORS
330
27E
102
}
330
27E
100
AcDbXrecord
280
     1
102
RTVSPropertyOp0
 70
     1
102
RTVSPropertyOp1
 70
     1
102
RTVSPropertyOp2
 70
     1
102
RTVSPropertyOp3
 70
     1
102
RTVSPropertyOp4
 70
     1
102
RTVSPropertyOp5
 70
     1
102
RTVSPropertyOp6
 70
     1
102
RTVSPropertyOp7
 70
     1
102
RTVSPropertyOp8
 70
     1
102
RTVSPropertyOp9
 70
     1
102
RTVSPropertyOp10
 70
     1
102
RTVSPropertyOp11
 70
     1
102
RTVSPropertyOp12
 70
     1
102
RTVSPropertyOp13
 70
     1
102
RTVSPropertyOp14
 70
     1
102
RTVSPropertyOp15
 70
     1
102
RTVSPropertyOp16
 70
     1
102
RTVSPropertyOp17
 70
     1
102
RTVSPropertyOp18
 70
     1
102
RTVSPropertyOp19
 70
     1
102
RTVSPropertyOp20
 70
     1
102
RTVSPropertyOp21
 70
     1
102
RTVSPropertyOp22
 70
     1
102
RTVSPropertyOp23
 70
     1
102
RTVSPropertyOp24
 70
     1
102
RTVSPropertyOp25
 70
     1
102
RTVSPropertyOp26
 70
     1
102
RTVSPropertyOp27
 70
     1
102
RTVSPropertyOp28
 70
     1
102
RTVSPropertyOp29
 70
     1
102
RTVSPropertyOp30
 70
     1
102
RTVSPropertyOp31
 70
     1
102
RTVSPropertyOp32
 70
     1
  0
XRECORD
  5
281
102
{ACAD_REACTORS
330
280
102
}
330
280
100
AcDbXrecord
280
     1
102
RTVSPropertyOp0
 70
     1
102
RTVSPropertyOp1
 70
     1
102
RTVSPropertyOp2
 70
     1
102
RTVSPropertyOp3
 70
     1
102
RTVSPropertyOp4
 70
     1
102
RTVSPropertyOp5
 70
     1
102
RTVSPropertyOp6
 70
     1
102
RTVSPropertyOp7
 70
     1
102
RTVSPropertyOp8
 70
     1
102
RTVSPropertyOp9
 70
     1
102
RTVSPropertyOp10
 70
     1
102
RTVSPropertyOp11
 70
     1
102
RTVSPropertyOp12
 70
     1
102
RTVSPropertyOp13
 70
     1
102
RTVSPropertyOp14
 70
     1
102
RTVSPropertyOp15
 70
     1
102
RTVSPropertyOp16
 70
     1
102
RTVSPropertyOp17
 70
     1
102
RTVSPropertyOp18
 70
     1
102
RTVSPropertyOp19
 70
     1
102
RTVSPropertyOp20
 70
     1
102
RTVSPropertyOp21
 70
     1
102
RTVSPropertyOp22
 70
     1
102
RTVSPropertyOp23
 70
     1
102
RTVSPropertyOp24
 70
     1
102
RTVSPropertyOp25
 70
     1
102
RTVSPropertyOp26
 70
     1
102
RTVSPropertyOp27
 70
     1
102
RTVSPropertyOp28
 70
     1
102
RTVSPropertyOp29
 70
     1
102
RTVSPropertyOp30
 70
     1
102
RTVSPropertyOp31
 70
     1
102
RTVSPropertyOp32
 70
     1
  0
XRECORD
  5
283
102
{ACAD_REACTORS
330
282
102
}
330
282
100
AcDbXrecord
280
     1
102
RTVSPropertyOp0
 70
     1
102
RTVSPropertyOp1
 70
     1
102
RTVSPropertyOp2
 70
     1
102
RTVSPropertyOp3
 70
     1
102
RTVSPropertyOp4
 70
     1
102
RTVSPropertyOp5
 70
     1
102
RTVSPropertyOp6
 70
     1
102
RTVSPropertyOp7
 70
     1
102
RTVSPropertyOp8
 70
     1
102
RTVSPropertyOp9
 70
     1
102
RTVSPropertyOp10
 70
     1
102
RTVSPropertyOp11
 70
     1
102
RTVSPropertyOp12
 70
     1
102
RTVSPropertyOp13
 70
     1
102
RTVSPropertyOp14
 70
     1
102
RTVSPropertyOp15
 70
     1
102
RTVSPropertyOp16
 70
     1
102
RTVSPropertyOp17
 70
     1
102
RTVSPropertyOp18
 70
     1
102
RTVSPropertyOp19
 70
     1
102
RTVSPropertyOp20
 70
     1
102
RTVSPropertyOp21
 70
     1
102
RTVSPropertyOp22
 70
     1
102
RTVSPropertyOp23
 70
     1
102
RTVSPropertyOp24
 70
     1
102
RTVSPropertyOp25
 70
     1
102
RTVSPropertyOp26
 70
     1
102
RTVSPropertyOp27
 70
     1
102
RTVSPropertyOp28
 70
     1
102
RTVSPropertyOp29
 70
     1
102
RTVSPropertyOp30
 70
     1
102
RTVSPropertyOp31
 70
     1
102
RTVSPropertyOp32
 70
     1
  0
XRECORD
  5
297
102
{ACAD_REACTORS
330
296
102
}
330
296
100
AcDbXrecord
280
     1
102
RTVSPropertyOp0
 70
     1
102
RTVSPropertyOp1
 70
     1
102
RTVSPropertyOp2
 70
     1
102
RTVSPropertyOp3
 70
     1
102
RTVSPropertyOp4
 70
     1
102
RTVSPropertyOp5
 70
     1
102
RTVSPropertyOp6
 70
     1
102
RTVSPropertyOp7
 70
     1
102
RTVSPropertyOp8
 70
     1
102
RTVSPropertyOp9
 70
     1
102
RTVSPropertyOp10
 70
     1
102
RTVSPropertyOp11
 70
     1
102
RTVSPropertyOp12
 70
     1
102
RTVSPropertyOp13
 70
     1
102
RTVSPropertyOp14
 70
     1
102
RTVSPropertyOp15
 70
     1
102
RTVSPropertyOp16
 70
     1
102
RTVSPropertyOp17
 70
     1
102
RTVSPropertyOp18
 70
     1
102
RTVSPropertyOp19
 70
     1
102
RTVSPropertyOp20
 70
     1
102
RTVSPropertyOp21
 70
     1
102
RTVSPropertyOp22
 70
     1
102
RTVSPropertyOp23
 70
     1
102
RTVSPropertyOp24
 70
     1
102
RTVSPropertyOp25
 70
     1
102
RTVSPropertyOp26
 70
     1
102
RTVSPropertyOp27
 70
     1
102
RTVSPropertyOp28
 70
     1
102
RTVSPropertyOp29
 70
     1
102
RTVSPropertyOp30
 70
     1
102
RTVSPropertyOp31
 70
     1
102
RTVSPropertyOp32
 70
     1
  0
XRECORD
  5
28D
102
{ACAD_REACTORS
330
28C
102
}
330
28C
100
AcDbXrecord
280
     1
102
RTVSPropertyOp0
 70
     1
102
RTVSPropertyOp1
 70
     1
102
RTVSPropertyOp2
 70
     1
102
RTVSPropertyOp3
 70
     1
102
RTVSPropertyOp4
 70
     1
102
RTVSPropertyOp5
 70
     1
102
RTVSPropertyOp6
 70
     1
102
RTVSPropertyOp7
 70
     1
102
RTVSPropertyOp8
 70
     1
102
RTVSPropertyOp9
 70
     1
102
RTVSPropertyOp10
 70
     1
102
RTVSPropertyOp11
 70
     1
102
RTVSPropertyOp12
 70
     1
102
RTVSPropertyOp13
 70
     1
102
RTVSPropertyOp14
 70
     1
102
RTVSPropertyOp15
 70
     1
102
RTVSPropertyOp16
 70
     1
102
RTVSPropertyOp17
 70
     1
102
RTVSPropertyOp18
 70
     1
102
RTVSPropertyOp19
 70
     1
102
RTVSPropertyOp20
 70
     1
102
RTVSPropertyOp21
 70
     1
102
RTVSPropertyOp22
 70
     1
102
RTVSPropertyOp23
 70
     1
102
RTVSPropertyOp24
 70
     1
102
RTVSPropertyOp25
 70
     1
102
RTVSPropertyOp26
 70
     1
102
RTVSPropertyOp27
 70
     1
102
RTVSPropertyOp28
 70
     1
102
RTVSPropertyOp29
 70
     1
102
RTVSPropertyOp30
 70
     1
102
RTVSPropertyOp31
 70
     1
102
RTVSPropertyOp32
 70
     1
  0
XRECORD
  5
295
102
{ACAD_REACTORS
330
294
102
}
330
294
100
AcDbXrecord
280
     1
102
RTVSPropertyOp0
 70
     1
102
RTVSPropertyOp1
 70
     1
102
RTVSPropertyOp2
 70
     1
102
RTVSPropertyOp3
 70
     1
102
RTVSPropertyOp4
 70
     1
102
RTVSPropertyOp5
 70
     1
102
RTVSPropertyOp6
 70
     1
102
RTVSPropertyOp7
 70
     1
102
RTVSPropertyOp8
 70
     1
102
RTVSPropertyOp9
 70
     1
102
RTVSPropertyOp10
 70
     1
102
RTVSPropertyOp11
 70
     1
102
RTVSPropertyOp12
 70
     1
102
RTVSPropertyOp13
 70
     1
102
RTVSPropertyOp14
 70
     1
102
RTVSPropertyOp15
 70
     1
102
RTVSPropertyOp16
 70
     1
102
RTVSPropertyOp17
 70
     1
102
RTVSPropertyOp18
 70
     1
102
RTVSPropertyOp19
 70
     1
102
RTVSPropertyOp20
 70
     1
102
RTVSPropertyOp21
 70
     1
102
RTVSPropertyOp22
 70
     1
102
RTVSPropertyOp23
 70
     1
102
RTVSPropertyOp24
 70
     1
102
RTVSPropertyOp25
 70
     1
102
RTVSPropertyOp26
 70
     1
102
RTVSPropertyOp27
 70
     1
102
RTVSPropertyOp28
 70
     1
102
RTVSPropertyOp29
 70
     1
102
RTVSPropertyOp30
 70
     1
102
RTVSPropertyOp31
 70
     1
102
RTVSPropertyOp32
 70
     1
  0
ENDSEC
  0
EOF
