  0
SECTION
  2
HEADER
  9
$ACADVER
  1
AC1018
  9
$ACADMAINTVER
 70
     0
  9
$DWGCODEPAGE
  3
ANSI_1252
  9
$INSBASE
 10
0.0
 20
0.0
 30
0.0
  9
$EXTMIN
 10
-1202.557150492014
 20
-1182.667580201386
 30
0.0
  9
$EXTMAX
 10
-782.5571504920154
 20
-885.667580201386
 30
0.0
  9
$LIMMIN
 10
0.0
 20
0.0
  9
$LIMMAX
 10
12.0
 20
9.0
  9
$ORTHOMODE
 70
     0
  9
$REGENMODE
 70
     1
  9
$FILLMODE
 70
     1
  9
$QTEXTMODE
 70
     0
  9
$MIRRTEXT
 70
     1
  9
$LTSCALE
 40
1.0
  9
$ATTMODE
 70
     1
  9
$TEXTSIZE
 40
0.2
  9
$TRACEWID
 40
0.05
  9
$TEXTSTYLE
  7
Standard
  9
$CLAYER
  8
0
  9
$CELTYPE
  6
ByLayer
  9
$CECOLOR
 62
   256
  9
$CELTSCALE
 40
1.0
  9
$DISPSILH
 70
     0
  9
$DIMSCALE
 40
1.0
  9
$DIMASZ
 40
0.18
  9
$DIMEXO
 40
0.0625
  9
$DIMDLI
 40
0.38
  9
$DIMRND
 40
0.0
  9
$DIMDLE
 40
0.0
  9
$DIMEXE
 40
0.18
  9
$DIMTP
 40
0.0
  9
$DIMTM
 40
0.0
  9
$DIMTXT
 40
0.18
  9
$DIMCEN
 40
0.09
  9
$DIMTSZ
 40
0.0
  9
$DIMTOL
 70
     0
  9
$DIMLIM
 70
     0
  9
$DIMTIH
 70
     1
  9
$DIMTOH
 70
     1
  9
$DIMSE1
 70
     0
  9
$DIMSE2
 70
     0
  9
$DIMTAD
 70
     0
  9
$DIMZIN
 70
     0
  9
$DIMBLK
  1

  9
$DIMASO
 70
     1
  9
$DIMSHO
 70
     1
  9
$DIMPOST
  1

  9
$DIMAPOST
  1

  9
$DIMALT
 70
     0
  9
$DIMALTD
 70
     2
  9
$DIMALTF
 40
25.4
  9
$DIMLFAC
 40
1.0
  9
$DIMTOFL
 70
     0
  9
$DIMTVP
 40
0.0
  9
$DIMTIX
 70
     0
  9
$DIMSOXD
 70
     0
  9
$DIMSAH
 70
     0
  9
$DIMBLK1
  1

  9
$DIMBLK2
  1

  9
$DIMSTYLE
  2
Standard
  9
$DIMCLRD
 70
     0
  9
$DIMCLRE
 70
     0
  9
$DIMCLRT
 70
     0
  9
$DIMTFAC
 40
1.0
  9
$DIMGAP
 40
0.09
  9
$DIMJUST
 70
     0
  9
$DIMSD1
 70
     0
  9
$DIMSD2
 70
     0
  9
$DIMTOLJ
 70
     1
  9
$DIMTZIN
 70
     0
  9
$DIMALTZ
 70
     0
  9
$DIMALTTZ
 70
     0
  9
$DIMUPT
 70
     0
  9
$DIMDEC
 70
     4
  9
$DIMTDEC
 70
     4
  9
$DIMALTU
 70
     2
  9
$DIMALTTD
 70
     2
  9
$DIMTXSTY
  7
Standard
  9
$DIMAUNIT
 70
     0
  9
$DIMADEC
 70
     0
  9
$DIMALTRND
 40
0.0
  9
$DIMAZIN
 70
     0
  9
$DIMDSEP
 70
    46
  9
$DIMATFIT
 70
     3
  9
$DIMFRAC
 70
     0
  9
$DIMLDRBLK
  1

  9
$DIMLUNIT
 70
     2
  9
$DIMLWD
 70
    -2
  9
$DIMLWE
 70
    -2
  9
$DIMTMOVE
 70
     0
  9
$LUNITS
 70
     2
  9
$LUPREC
 70
     4
  9
$SKETCHINC
 40
0.1
  9
$FILLETRAD
 40
0.5
  9
$AUNITS
 70
     0
  9
$AUPREC
 70
     0
  9
$MENU
  1
.
  9
$ELEVATION
 40
0.0
  9
$PELEVATION
 40
0.0
  9
$THICKNESS
 40
0.0
  9
$LIMCHECK
 70
     0
  9
$CHAMFERA
 40
0.5
  9
$CHAMFERB
 40
0.5
  9
$CHAMFERC
 40
1.0
  9
$CHAMFERD
 40
0.0
  9
$SKPOLY
 70
     0
  9
$TDCREATE
 40
2458227.50280816
  9
$TDUCREATE
 40
2458227.419474826
  9
$TDUPDATE
 40
2458227.502808704
  9
$TDUUPDATE
 40
2458227.419475371
  9
$TDINDWG
 40
0.0000000116
  9
$TDUSRTIMER
 40
0.0000000116
  9
$USRTIMER
 70
     1
  9
$ANGBASE
 50
0.0
  9
$ANGDIR
 70
     0
  9
$PDMODE
 70
     0
  9
$PDSIZE
 40
0.0
  9
$PLINEWID
 40
0.0
  9
$SPLFRAME
 70
     0
  9
$SPLINETYPE
 70
     6
  9
$SPLINESEGS
 70
     8
  9
$HANDSEED
  5
3DE
  9
$SURFTAB1
 70
     6
  9
$SURFTAB2
 70
     6
  9
$SURFTYPE
 70
     6
  9
$SURFU
 70
     6
  9
$SURFV
 70
     6
  9
$UCSBASE
  2

  9
$UCSNAME
  2

  9
$UCSORG
 10
0.0
 20
0.0
 30
0.0
  9
$UCSXDIR
 10
1.0
 20
0.0
 30
0.0
  9
$UCSYDIR
 10
0.0
 20
1.0
 30
0.0
  9
$UCSORTHOREF
  2

  9
$UCSORTHOVIEW
 70
     0
  9
$UCSORGTOP
 10
0.0
 20
0.0
 30
0.0
  9
$UCSORGBOTTOM
 10
0.0
 20
0.0
 30
0.0
  9
$UCSORGLEFT
 10
0.0
 20
0.0
 30
0.0
  9
$UCSORGRIGHT
 10
0.0
 20
0.0
 30
0.0
  9
$UCSORGFRONT
 10
0.0
 20
0.0
 30
0.0
  9
$UCSORGBACK
 10
0.0
 20
0.0
 30
0.0
  9
$PUCSBASE
  2

  9
$PUCSNAME
  2

  9
$PUCSORG
 10
0.0
 20
0.0
 30
0.0
  9
$PUCSXDIR
 10
1.0
 20
0.0
 30
0.0
  9
$PUCSYDIR
 10
0.0
 20
1.0
 30
0.0
  9
$PUCSORTHOREF
  2

  9
$PUCSORTHOVIEW
 70
     0
  9
$PUCSORGTOP
 10
0.0
 20
0.0
 30
0.0
  9
$PUCSORGBOTTOM
 10
0.0
 20
0.0
 30
0.0
  9
$PUCSORGLEFT
 10
0.0
 20
0.0
 30
0.0
  9
$PUCSORGRIGHT
 10
0.0
 20
0.0
 30
0.0
  9
$PUCSORGFRONT
 10
0.0
 20
0.0
 30
0.0
  9
$PUCSORGBACK
 10
0.0
 20
0.0
 30
0.0
  9
$USERI1
 70
     0
  9
$USERI2
 70
     0
  9
$USERI3
 70
     0
  9
$USERI4
 70
     0
  9
$USERI5
 70
     0
  9
$USERR1
 40
18.1
  9
$USERR2
 40
0.0
  9
$USERR3
 40
0.0
  9
$USERR4
 40
0.0
  9
$USERR5
 40
0.0
  9
$WORLDVIEW
 70
     1
  9
$SHADEDGE
 70
     3
  9
$SHADEDIF
 70
    70
  9
$TILEMODE
 70
     1
  9
$MAXACTVP
 70
    64
  9
$PINSBASE
 10
0.0
 20
0.0
 30
0.0
  9
$PLIMCHECK
 70
     0
  9
$PEXTMIN
 10
1.00000000000000E+20
 20
1.00000000000000E+20
 30
1.00000000000000E+20
  9
$PEXTMAX
 10
-1.00000000000000E+20
 20
-1.00000000000000E+20
 30
-1.00000000000000E+20
  9
$PLIMMIN
 10
0.0
 20
0.0
  9
$PLIMMAX
 10
12.0
 20
9.0
  9
$UNITMODE
 70
     0
  9
$VISRETAIN
 70
     1
  9
$PLINEGEN
 70
     0
  9
$PSLTSCALE
 70
     1
  9
$TREEDEPTH
 70
  3020
  9
$CMLSTYLE
  2
Standard
  9
$CMLJUST
 70
     0
  9
$CMLSCALE
 40
1.0
  9
$PROXYGRAPHICS
 70
     1
  9
$MEASUREMENT
 70
     1
  9
$CELWEIGHT
370
    -1
  9
$ENDCAPS
280
     0
  9
$JOINSTYLE
280
     0
  9
$LWDISPLAY
290
     0
  9
$INSUNITS
 70
     4
  9
$HYPERLINKBASE
  1

  9
$STYLESHEET
  1

  9
$XEDIT
290
     1
  9
$CEPSNTYPE
380
     0
  9
$PSTYLEMODE
290
     1
  9
$FINGERPRINTGUID
  2
{76D109C2-A7EA-4CB9-9E94-D59CFD902671}
  9
$VERSIONGUID
  2
{FAEB1C32-E019-11D5-929B-00C0DF256EC4}
  9
$EXTNAMES
290
     1
  9
$PSVPSCALE
 40
0.0
  9
$OLESTARTUP
290
     0
  9
$SORTENTS
280
   127
  9
$INDEXCTL
280
     0
  9
$HIDETEXT
280
     1
  9
$XCLIPFRAME
290
     0
  9
$HALOGAP
280
     0
  9
$OBSCOLOR
 70
   257
  9
$OBSLTYPE
280
     0
  9
$INTERSECTIONDISPLAY
280
     0
  9
$INTERSECTIONCOLOR
 70
   257
  9
$DIMASSOC
280
     2
  9
$PROJECTNAME
  1

  0
ENDSEC
  0
SECTION
  2
CLASSES
  0
CLASS
  1
ACDBDICTIONARYWDFLT
  2
AcDbDictionaryWithDefault
  3
ObjectDBX Classes
 90
        0
 91
        4
280
     0
281
     0
  0
CLASS
  1
VISUALSTYLE
  2
AcDbVisualStyle
  3
ObjectDBX Classes
 90
     4095
 91
        4
280
     0
281
     0
  0
CLASS
  1
MATERIAL
  2
AcDbMaterial
  3
ObjectDBX Classes
 90
     1153
 91
        4
280
     0
281
     0
  0
ENDSEC
  0
SECTION
  2
TABLES
  0
TABLE
  2
VPORT
  5
8
330
0
100
AcDbSymbolTable
 70
     1
  0
VPORT
  5
29
330
8
100
AcDbSymbolTableRecord
100
AcDbViewportTableRecord
  2
*Active
 70
     0
 10
0.0
 20
0.0
 11
1.0
 21
1.0
 12
-992.5571504920147
 22
-1034.167580201386
 13
0.0
 23
0.0
 14
0.5
 24
0.5
 15
0.5
 25
0.5
 16
0.0
 26
0.0
 36
1.0
 17
0.0
 27
0.0
 37
0.0
 40
326.7
 41
1.60267857142857
 42
50.0
 43
0.0
 44
0.0
 50
0.0
 51
0.0
 71
     0
 72
   100
 73
     1
 74
     3
 75
     0
 76
     0
 77
     0
 78
     0
281
     0
 65
     1
110
0.0
120
0.0
130
0.0
111
1.0
121
0.0
131
0.0
112
0.0
122
1.0
132
0.0
 79
     0
146
0.0
  0
ENDTAB
  0
TABLE
  2
LTYPE
  5
5
330
0
100
AcDbSymbolTable
 70
     8
  0
LTYPE
  5
14
330
5
100
AcDbSymbolTableRecord
100
AcDbLinetypeTableRecord
  2
ByBlock
 70
     0
  3

 72
    65
 73
     0
 40
0.0
  0
LTYPE
  5
15
330
5
100
AcDbSymbolTableRecord
100
AcDbLinetypeTableRecord
  2
ByLayer
 70
     0
  3

 72
    65
 73
     0
 40
0.0
  0
LTYPE
  5
16
330
5
100
AcDbSymbolTableRecord
100
AcDbLinetypeTableRecord
  2
Continuous
 70
     0
  3
Solid line
 72
    65
 73
     0
 40
0.0
  0
LTYPE
  5
3F
330
5
100
AcDbSymbolTableRecord
100
AcDbLinetypeTableRecord
  2
DASHED
 70
     0
  3
Dashed
 72
    65
 73
     2
 40
15.0
 49
7.0
 74
     0
 49
-8.0
 74
     0
  0
LTYPE
  5
40
330
5
100
AcDbSymbolTableRecord
100
AcDbLinetypeTableRecord
  2
DOTTED
 70
     0
  3
Dotted
 72
    65
 73
     2
 40
1.0
 49
0.0
 74
     0
 49
-1.0
 74
     0
  0
LTYPE
  5
41
330
5
100
AcDbSymbolTableRecord
100
AcDbLinetypeTableRecord
  2
DOT_CENTER
 70
     0
  3
Dot_Center
 72
    65
 73
     4
 40
14.0
 49
12.0
 74
     0
 49
-1.0
 74
     0
 49
0.0
 74
     0
 49
-1.0
 74
     0
  0
LTYPE
  5
42
330
5
100
AcDbSymbolTableRecord
100
AcDbLinetypeTableRecord
  2
LONG_DASHED
 70
     0
  3
Long_Dashed
 72
    65
 73
     2
 40
15.0
 49
10.0
 74
     0
 49
-5.0
 74
     0
  0
LTYPE
  5
43
330
5
100
AcDbSymbolTableRecord
100
AcDbLinetypeTableRecord
  2
DASH_CENTER
 70
     0
  3
Dash_Center
 72
    65
 73
     4
 40
14.0
 49
11.0
 74
     0
 49
-1.0
 74
     0
 49
1.0
 74
     0
 49
-1.0
 74
     0
  0
LTYPE
  5
44
330
5
100
AcDbSymbolTableRecord
100
AcDbLinetypeTableRecord
  2
PHANTOM
 70
     0
  3
Phantom
 72
    65
 73
     6
 40
13.0
 49
10.0
 74
     0
 49
-1.0
 74
     0
 49
0.0
 74
     0
 49
-1.0
 74
     0
 49
0.0
 74
     0
 49
-1.0
 74
     0
  0
LTYPE
  5
45
330
5
100
AcDbSymbolTableRecord
100
AcDbLinetypeTableRecord
  2
CENTER_DASH_DASH
 70
     0
  3
Center_Dash_Dash
 72
    65
 73
     6
 40
14.0
 49
9.0
 74
     0
 49
-1.0
 74
     0
 49
1.0
 74
     0
 49
-1.0
 74
     0
 49
1.0
 74
     0
 49
-1.0
 74
     0
  0
ENDTAB
  0
TABLE
  2
LAYER
  5
2
330
0
100
AcDbSymbolTable
 70
     2
  0
LAYER
  5
10
330
2
100
AcDbSymbolTableRecord
100
AcDbLayerTableRecord
  2
0
 70
     0
 62
     7
  6
Continuous
370
    -3
390
F
  0
LAYER
  5
46
330
2
100
AcDbSymbolTableRecord
100
AcDbLayerTableRecord
  2
1
 70
     0
 62
     7
  6
Continuous
370
    -3
390
F
  0
ENDTAB
  0
TABLE
  2
STYLE
  5
3
330
0
100
AcDbSymbolTable
 70
     5
  0
STYLE
  5
11
330
3
100
AcDbSymbolTableRecord
100
AcDbTextStyleTableRecord
  2
Standard
 70
     0
 40
0.0
 41
1.0
 50
0.0
 71
     0
 42
0.2
  3
txt
  4

  0
STYLE
  5
118
330
3
100
AcDbSymbolTableRecord
100
AcDbTextStyleTableRecord
  2
CONVERTER_11
 70
     0
 40
0.0
 41
0.9
 50
0.0
 71
     0
 42
0.2
  3
txt.shx
  4

  0
STYLE
  5
376
330
3
100
AcDbSymbolTableRecord
100
AcDbTextStyleTableRecord
  2
CONVERTER_12
 70
     0
 40
0.0
 41
0.81
 50
0.0
 71
     0
 42
0.2
  3
txt.shx
  4

  0
STYLE
  5
37E
330
3
100
AcDbSymbolTableRecord
100
AcDbTextStyleTableRecord
  2
CONVERTER_13
 70
     0
 40
0.0
 41
0.72
 50
0.0
 71
     0
 42
0.2
  3
txt.shx
  4

  0
STYLE
  5
381
330
3
100
AcDbSymbolTableRecord
100
AcDbTextStyleTableRecord
  2
CONVERTER_14
 70
     0
 40
0.0
 41
0.855
 50
0.0
 71
     0
 42
0.2
  3
txt.shx
  4

  0
ENDTAB
  0
TABLE
  2
VIEW
  5
6
330
0
100
AcDbSymbolTable
 70
     0
  0
ENDTAB
  0
TABLE
  2
UCS
  5
7
330
0
100
AcDbSymbolTable
 70
     0
  0
ENDTAB
  0
TABLE
  2
APPID
  5
9
330
0
100
AcDbSymbolTable
 70
     1
  0
APPID
  5
12
330
9
100
AcDbSymbolTableRecord
100
AcDbRegAppTableRecord
  2
ACAD
 70
     0
  0
ENDTAB
  0
TABLE
  2
DIMSTYLE
  5
A
330
0
100
AcDbSymbolTable
 70
     6
100
AcDbDimStyleTable
  0
DIMSTYLE
105
27
330
A
100
AcDbSymbolTableRecord
100
AcDbDimStyleTableRecord
  2
Standard
 70
     0
178
     0
340
11
  0
DIMSTYLE
105
179
102
{ACAD_REACTORS
330
17A
102
}
330
A
100
AcDbSymbolTableRecord
100
AcDbDimStyleTableRecord
  2
ME10_DIM_10
 70
     0
 41
3.5
 42
0.0
 44
1.5
 73
     0
 74
     0
 77
     1
 78
     8
140
3.5
147
1.5
172
     1
173
     1
174
     1
175
     1
176
     2
177
     2
178
     3
340
118
  0
DIMSTYLE
105
23C
102
{ACAD_REACTORS
330
23D
102
}
330
A
100
AcDbSymbolTableRecord
100
AcDbDimStyleTableRecord
  2
ME10_DIM_11
 70
     0
 41
3.5
 42
0.0
 44
1.5
 73
     0
 74
     0
 77
     1
 78
     8
140
3.5
147
1.5
172
     1
173
     1
174
     1
175
     1
176
     2
177
     2
178
     3
340
118
  0
DIMSTYLE
105
247
102
{ACAD_REACTORS
330
248
102
}
330
A
100
AcDbSymbolTableRecord
100
AcDbDimStyleTableRecord
  2
ME10_DIM_12
 70
     0
 41
3.5
 42
0.0
 44
1.5
 73
     0
 74
     0
 77
     1
 78
     8
140
3.5
147
1.5
172
     1
173
     1
174
     1
175
     1
176
     2
177
     2
178
     3
340
118
  0
DIMSTYLE
105
252
102
{ACAD_REACTORS
330
253
102
}
330
A
100
AcDbSymbolTableRecord
100
AcDbDimStyleTableRecord
  2
ME10_DIM_13
 70
     0
 41
3.5
 42
0.0
 44
1.5
 73
     0
 74
     0
 77
     1
 78
     8
140
3.5
147
1.5
172
     1
173
     1
174
     1
175
     1
176
     2
177
     2
178
     3
340
118
  0
DIMSTYLE
105
25D
102
{ACAD_REACTORS
330
25E
102
}
330
A
100
AcDbSymbolTableRecord
100
AcDbDimStyleTableRecord
  2
ME10_DIM_14
 70
     0
 41
3.5
 42
0.0
 44
1.5
 73
     0
 74
     0
 77
     1
 78
     8
140
3.5
147
1.5
172
     1
173
     1
174
     1
175
     1
176
     2
177
     2
178
     3
340
118
  0
ENDTAB
  0
TABLE
  2
BLOCK_RECORD
  5
1
330
0
100
AcDbSymbolTable
 70
    23
  0
BLOCK_RECORD
  5
1F
330
1
100
AcDbSymbolTableRecord
100
AcDbBlockTableRecord
  2
*Model_Space
340
22
  0
BLOCK_RECORD
  5
1B
330
1
100
AcDbSymbolTableRecord
100
AcDbBlockTableRecord
  2
*Paper_Space
340
1E
  0
BLOCK_RECORD
  5
23
330
1
100
AcDbSymbolTableRecord
100
AcDbBlockTableRecord
  2
*Paper_Space0
340
26
  0
BLOCK_RECORD
  5
47
330
1
100
AcDbSymbolTableRecord
100
AcDbBlockTableRecord
  2
AB_SKS_60-select__1
340
0
102
{BLKREFS
331
4B
102
}
  0
BLOCK_RECORD
  5
4A
330
1
100
AcDbSymbolTableRecord
100
AcDbBlockTableRecord
  2
AllgSicht1
340
0
102
{BLKREFS
331
7D
102
}
  0
BLOCK_RECORD
  5
4E
330
1
100
AcDbSymbolTableRecord
100
AcDbBlockTableRecord
  2
AB_SKS_60-select__2
340
0
102
{BLKREFS
331
52
102
}
  0
BLOCK_RECORD
  5
51
330
1
100
AcDbSymbolTableRecord
100
AcDbBlockTableRecord
  2
Drfsicht1
340
0
102
{BLKREFS
331
7E
102
}
  0
BLOCK_RECORD
  5
55
330
1
100
AcDbSymbolTableRecord
100
AcDbBlockTableRecord
  2
AB_SKS_60-select__3
340
0
102
{BLKREFS
331
59
102
}
  0
BLOCK_RECORD
  5
58
330
1
100
AcDbSymbolTableRecord
100
AcDbBlockTableRecord
  2
Rckans1
340
0
102
{BLKREFS
331
7F
102
}
  0
BLOCK_RECORD
  5
5C
330
1
100
AcDbSymbolTableRecord
100
AcDbBlockTableRecord
  2
AB_SKS_60-select__4
340
0
102
{BLKREFS
331
60
102
}
  0
BLOCK_RECORD
  5
5F
330
1
100
AcDbSymbolTableRecord
100
AcDbBlockTableRecord
  2
SA_Links1
340
0
102
{BLKREFS
331
80
102
}
  0
BLOCK_RECORD
  5
63
330
1
100
AcDbSymbolTableRecord
100
AcDbBlockTableRecord
  2
AB_SKS_60-select__5
340
0
102
{BLKREFS
331
67
102
}
  0
BLOCK_RECORD
  5
66
330
1
100
AcDbSymbolTableRecord
100
AcDbBlockTableRecord
  2
SA_Rechts1
340
0
102
{BLKREFS
331
81
102
}
  0
BLOCK_RECORD
  5
6A
330
1
100
AcDbSymbolTableRecord
100
AcDbBlockTableRecord
  2
AB_SKS_60-select__6
340
0
102
{BLKREFS
331
6E
102
}
  0
BLOCK_RECORD
  5
6D
330
1
100
AcDbSymbolTableRecord
100
AcDbBlockTableRecord
  2
Vordans1
340
0
102
{BLKREFS
331
82
102
}
  0
BLOCK_RECORD
  5
71
330
1
100
AcDbSymbolTableRecord
100
AcDbBlockTableRecord
  2
_rahmen
340
0
102
{BLKREFS
331
78
102
}
  0
BLOCK_RECORD
  5
74
330
1
100
AcDbSymbolTableRecord
100
AcDbBlockTableRecord
  2
_punkt
340
0
102
{BLKREFS
331
79
102
}
  0
BLOCK_RECORD
  5
77
330
1
100
AcDbSymbolTableRecord
100
AcDbBlockTableRecord
  2
A3I_CS
340
0
102
{BLKREFS
331
83
102
}
  0
BLOCK_RECORD
  5
7C
330
1
100
AcDbSymbolTableRecord
100
AcDbBlockTableRecord
  2
1
340
0
102
{BLKREFS
331
86
102
}
  0
BLOCK_RECORD
  5
16E
330
1
100
AcDbSymbolTableRecord
100
AcDbBlockTableRecord
  2
*D17
340
0
  0
BLOCK_RECORD
  5
233
330
1
100
AcDbSymbolTableRecord
100
AcDbBlockTableRecord
  2
*D18
340
0
  0
BLOCK_RECORD
  5
23E
330
1
100
AcDbSymbolTableRecord
100
AcDbBlockTableRecord
  2
*D19
340
0
  0
BLOCK_RECORD
  5
249
330
1
100
AcDbSymbolTableRecord
100
AcDbBlockTableRecord
  2
*D20
340
0
  0
BLOCK_RECORD
  5
254
330
1
100
AcDbSymbolTableRecord
100
AcDbBlockTableRecord
  2
*D21
340
0
  0
BLOCK_RECORD
  5
25F
330
1
100
AcDbSymbolTableRecord
100
AcDbBlockTableRecord
  2
*D22
340
0
102
{BLKREFS
331
268
102
}
  0
ENDTAB
  0
ENDSEC
  0
SECTION
  2
BLOCKS
  0
BLOCK
  5
20
330
1F
100
AcDbEntity
  8
0
100
AcDbBlockBegin
  2
*Model_Space
 70
     0
 10
0.0
 20
0.0
 30
0.0
  3
*Model_Space
  1

  0
ENDBLK
  5
21
330
1F
100
AcDbEntity
  8
0
100
AcDbBlockEnd
  0
BLOCK
  5
1C
330
1B
100
AcDbEntity
 67
     1
  8
0
100
AcDbBlockBegin
  2
*Paper_Space
 70
     0
 10
0.0
 20
0.0
 30
0.0
  3
*Paper_Space
  1

  0
ENDBLK
  5
1D
330
1B
100
AcDbEntity
 67
     1
  8
0
100
AcDbBlockEnd
  0
BLOCK
  5
24
330
23
100
AcDbEntity
  8
0
100
AcDbBlockBegin
  2
*Paper_Space0
 70
     0
 10
0.0
 20
0.0
 30
0.0
  3
*Paper_Space0
  1

  0
ENDBLK
  5
25
330
23
100
AcDbEntity
  8
0
100
AcDbBlockEnd
  0
BLOCK
  5
48
330
47
100
AcDbEntity
  8
0
100
AcDbBlockBegin
  2
AB_SKS_60-select__1
 70
     0
 10
-920.6441179026003
 20
-1102.607296124872
 30
0.0
  3
AB_SKS_60-select__1
  1

  0
LINE
  5
87
330
47
100
AcDbEntity
  8
0
  6
Continuous
 62
     7
100
AcDbLine
 10
-906.3678355164851
 20
-1049.414837783156
 30
0.0
 11
-906.8706351781315
 21
-1049.772491684802
 31
0.0
  0
LINE
  5
88
330
47
100
AcDbEntity
  8
0
  6
Continuous
 62
     7
100
AcDbLine
 10
-902.7173927024418
 20
-1055.953457411132
 30
0.0
 11
-902.7173927024418
 21
-1056.972182828798
 31
0.0
  0
LINE
  5
89
330
47
100
AcDbEntity
  8
0
  6
Continuous
 62
     7
100
AcDbLine
 10
-902.7173927024418
 20
-1055.953457411132
 30
0.0
 11
-911.1178355164851
 21
-1053.528458451131
 31
0.0
  0
LINE
  5
8A
330
47
100
AcDbEntity
  8
0
  6
Continuous
 62
     7
100
AcDbLine
 10
-911.1178355164851
 20
-1053.528458451131
 30
0.0
 11
-906.3678355164851
 21
-1049.414837783156
 31
0.0
  0
LINE
  5
8B
330
47
100
AcDbEntity
  8
0
  6
Continuous
 62
     7
100
AcDbLine
 10
-906.8706351781315
 20
-1049.772491684802
 30
0.0
 11
-911.6206351781315
 21
-1053.886112352778
 31
0.0
  0
LINE
  5
8C
330
47
100
AcDbEntity
  8
0
  6
Continuous
 62
     7
100
AcDbLine
 10
-914.2191066977771
 20
-1055.612009143516
 30
0.0
 11
-910.8290499249188
 21
-1053.200579414234
 31
0.0
  0
LINE
  5
8D
330
47
100
AcDbEntity
  8
0
  6
Continuous
 62
     7
100
AcDbLine
 10
-897.9673927024418
 20
-1051.839836743155
 30
0.0
 11
-906.3678355164851
 21
-1049.414837783156
 31
0.0
  0
LINE
  5
8E
330
47
100
AcDbEntity
  8
0
  6
Continuous
 62
     7
100
AcDbLine
 10
-903.5834162740277
 20
-1061.332625004537
 30
0.0
 11
-894.4035478561627
 21
-1063.982624755627
 31
0.0
  0
LINE
  5
8F
330
47
100
AcDbEntity
  8
0
  6
Continuous
 62
     7
100
AcDbLine
 10
-901.5084162740277
 20
-1059.535622291685
 30
0.0
 11
-903.5834162740277
 21
-1061.332625004537
 31
0.0
  0
LINE
  5
90
330
47
100
AcDbEntity
  8
0
  6
Continuous
 62
     7
100
AcDbLine
 10
-837.908530279899
 20
-1084.073017969186
 30
0.0
 11
-835.0707426447844
 21
-1084.892216696704
 31
0.0
  0
LINE
  5
91
330
47
100
AcDbEntity
  8
0
  6
Continuous
 62
     7
100
AcDbLine
 10
-835.496703854229
 20
-1087.627092032225
 30
0.0
 11
-836.496703854229
 21
-1088.493117436009
 31
0.0
  0
LINE
  5
92
330
47
100
AcDbEntity
  8
0
  6
Continuous
 62
     7
100
AcDbLine
 10
-838.371703854229
 20
-1089.25093375182
 30
0.0
 11
-833.6217038542292
 21
-1085.137313083844
 31
0.0
  0
LINE
  5
93
330
47
100
AcDbEntity
  8
0
  6
Continuous
 62
     7
100
AcDbLine
 10
-878.7116695920637
 20
-1071.040762945929
 30
0.0
 11
-879.0178597322649
 21
-1071.258563606196
 31
0.0
  0
LINE
  5
94
330
47
100
AcDbEntity
  8
0
  6
Continuous
 62
     7
100
AcDbLine
 10
-917.1800207815074
 20
-1076.027166862976
 30
0.0
 11
-920.6441179026003
 21
-1075.955375188975
 31
0.0
  0
LINE
  5
95
330
47
100
AcDbEntity
  8
0
  6
Continuous
 62
     7
100
AcDbLine
 10
-837.908530279899
 20
-1084.073017969186
 30
0.0
 11
-842.658530279899
 21
-1088.186638637162
 31
0.0
  0
LINE
  5
96
330
47
100
AcDbEntity
  8
0
  6
Continuous
 62
     7
100
AcDbLine
 10
-839.6707426447845
 20
-1088.875933554112
 30
0.0
 11
-834.9207426447845
 21
-1084.762312886136
 31
0.0
  0
LINE
  5
97
330
47
100
AcDbEntity
  8
0
  6
Continuous
 62
     7
100
AcDbLine
 10
-892.5945715278964
 20
-1056.479660559036
 30
0.0
 11
-892.5945715278964
 21
-1055.786840236008
 31
0.0
  0
LINE
  5
98
330
47
100
AcDbEntity
  8
0
  6
Continuous
 62
     7
100
AcDbLine
 10
-900.6423927024418
 20
-1055.175180115945
 30
0.0
 11
-900.6423927024418
 21
-1054.156454698279
 31
0.0
  0
LINE
  5
99
330
47
100
AcDbEntity
  8
0
  6
Continuous
 62
     7
100
AcDbLine
 10
-902.7173927024418
 20
-1056.972182828798
 30
0.0
 11
-900.6423927024418
 21
-1055.175180115945
 31
0.0
  0
LINE
  5
9A
330
47
100
AcDbEntity
  8
0
  6
Continuous
 62
     7
100
AcDbLine
 10
-902.7173927024418
 20
-1055.953457411132
 30
0.0
 11
-900.6423927024418
 21
-1054.156454698279
 31
0.0
  0
LINE
  5
9B
330
47
100
AcDbEntity
  8
0
  6
Continuous
 62
     7
100
AcDbLine
 10
-891.8955340962822
 20
-1056.681455283694
 30
0.0
 11
-893.1945715278963
 21
-1056.306455478279
 31
0.0
  0
LINE
  5
9C
330
47
100
AcDbEntity
  8
0
  6
Continuous
 62
     7
100
AcDbLine
 10
-891.2955340962822
 20
-1056.161840041423
 30
0.0
 11
-891.8955340962822
 21
-1056.681455283694
 31
0.0
  0
LINE
  5
9D
330
47
100
AcDbEntity
  8
0
  6
Continuous
 62
     7
100
AcDbLine
 10
-892.5945715278964
 20
-1055.786840236008
 30
0.0
 11
-891.2955340962822
 21
-1056.161840041423
 31
0.0
  0
LINE
  5
9E
330
47
100
AcDbEntity
  8
0
  6
Continuous
 62
     7
100
AcDbLine
 10
-890.5195715278963
 20
-1053.989837523155
 30
0.0
 11
-892.5945715278964
 21
-1055.786840236008
 31
0.0
  0
LINE
  5
9F
330
47
100
AcDbEntity
  8
0
  6
Continuous
 62
     7
100
AcDbLine
 10
-902.7173927024418
 20
-1056.972182828798
 30
0.0
 11
-903.5834173756533
 21
-1056.569487258829
 31
0.0
  0
LINE
  5
A0
330
47
100
AcDbEntity
  8
0
  6
Continuous
 62
     7
100
AcDbLine
 10
-881.6163290522065
 20
-1057.062781904802
 30
0.0
 11
-881.9225147239446
 21
-1057.28057938654
 31
0.0
  0
LINE
  5
A1
330
47
100
AcDbEntity
  8
0
  6
Continuous
 62
     7
100
AcDbLine
 10
-881.6163290522065
 20
-1057.062781904802
 30
0.0
 11
-882.119128713853
 21
-1056.414836483155
 31
0.0
  0
LINE
  5
A2
330
47
100
AcDbEntity
  8
0
  6
Continuous
 62
     7
100
AcDbLine
 10
-882.119128713853
 20
-1056.414836483155
 30
0.0
 11
-890.5195715278963
 21
-1053.989837523155
 31
0.0
  0
LINE
  5
A3
330
47
100
AcDbEntity
  8
0
  6
Continuous
 62
     7
100
AcDbLine
 10
-901.3414287801817
 20
-1058.891007105919
 30
0.0
 11
-901.5084163896684
 21
-1059.035622617852
 31
0.0
  0
LINE
  5
A4
330
47
100
AcDbEntity
  8
0
  6
Continuous
 62
     7
100
AcDbLine
 10
-895.2695715278963
 20
-1058.103458191132
 30
0.0
 11
-895.2695715278963
 21
-1059.122183608798
 31
0.0
  0
LINE
  5
A5
330
47
100
AcDbEntity
  8
0
  6
Continuous
 62
     7
100
AcDbLine
 10
-918.9691066977771
 20
-1059.725629811492
 30
0.0
 11
-919.2752972405196
 21
-1059.331049672612
 31
0.0
  0
LINE
  5
A6
330
47
100
AcDbEntity
  8
0
  6
Continuous
 62
     7
100
AcDbLine
 10
-919.2752972405196
 20
-1059.331049672612
 30
0.0
 11
-919.778090063119
 21
-1059.688716332652
 31
0.0
  0
LINE
  5
A7
330
47
100
AcDbEntity
  8
0
  6
Continuous
 62
     7
100
AcDbLine
 10
-881.9225147239446
 20
-1057.28057938654
 30
0.0
 11
-886.3663290522065
 21
-1061.176402572778
 31
0.0
  0
LINE
  5
A8
330
47
100
AcDbEntity
  8
0
  6
Continuous
 62
     7
100
AcDbLine
 10
-894.4035478561627
 20
-1063.982624755627
 30
0.0
 11
-894.4035478561627
 21
-1059.21948750451
 31
0.0
  0
LINE
  5
A9
330
47
100
AcDbEntity
  8
0
  6
Continuous
 62
     7
100
AcDbLine
 10
-874.2678597322649
 20
-1067.14494293822
 30
0.0
 11
-881.9225147239446
 21
-1057.28057938654
 31
0.0
  0
LINE
  5
AA
330
47
100
AcDbEntity
  8
0
  6
Continuous
 62
     7
100
AcDbLine
 10
-833.6217038542292
 20
-1085.137313083844
 30
0.0
 11
-834.9207426447845
 21
-1084.762312886136
 31
0.0
  0
LINE
  5
AB
330
47
100
AcDbEntity
  8
0
  6
Continuous
 62
     7
100
AcDbLine
 10
-835.496703854229
 20
-1087.627092032225
 30
0.0
 11
-833.1843816446925
 21
-1096.92430592675
 31
0.0
  0
LINE
  5
AC
330
47
100
AcDbEntity
  8
0
  6
Continuous
 62
     2
100
AcDbLine
 10
-833.1843816446925
 20
-1096.92430592675
 30
0.0
 11
-833.6217038542292
 21
-1097.261624670402
 31
0.0
  0
LINE
  5
AD
330
47
100
AcDbEntity
  8
0
  6
Continuous
 62
     2
100
AcDbLine
 10
-833.6217038542292
 20
-1097.261624670402
 30
0.0
 11
-834.1843816446925
 21
-1097.790331330535
 31
0.0
  0
LINE
  5
AE
330
47
100
AcDbEntity
  8
0
  6
Continuous
 62
     7
100
AcDbLine
 10
-836.496703854229
 20
-1088.493117436009
 30
0.0
 11
-834.1843816446925
 21
-1097.790331330535
 31
0.0
  0
LINE
  5
AF
330
47
100
AcDbEntity
  8
0
  6
Continuous
 62
     7
100
AcDbLine
 10
-833.9118321768118
 20
-1099.878671356703
 30
0.0
 11
-834.9118321768118
 21
-1100.744696760487
 31
0.0
  0
LINE
  5
B0
330
47
100
AcDbEntity
  8
0
  6
Continuous
 62
     7
100
AcDbLine
 10
-833.6217038542292
 20
-1085.137313083844
 30
0.0
 11
-833.6217038542292
 21
-1095.165953173782
 31
0.0
  0
LINE
  5
B1
330
47
100
AcDbEntity
  8
0
  6
Continuous
 62
     7
100
AcDbLine
 10
-837.9967038359771
 20
-1101.050485796153
 30
0.0
 11
-837.5304468596437
 21
-1101.185082591551
 31
0.0
  0
LINE
  5
B2
330
47
100
AcDbEntity
  8
0
  6
Continuous
 62
     7
100
AcDbLine
 10
-836.496703854229
 20
-1099.751447706283
 30
0.0
 11
-838.371703854229
 21
-1101.375245338378
 31
0.0
  0
LINE
  5
B3
330
47
100
AcDbEntity
  8
0
  6
Continuous
 62
     7
100
AcDbLine
 10
-836.496703854229
 20
-1088.493117436009
 30
0.0
 11
-836.496703854229
 21
-1099.751447706283
 31
0.0
  0
LINE
  5
B4
330
47
100
AcDbEntity
  8
0
  6
Continuous
 62
     7
100
AcDbLine
 10
-838.371703854229
 20
-1089.25093375182
 30
0.0
 11
-838.371703854229
 21
-1101.375245338378
 31
0.0
  0
LINE
  5
B5
330
47
100
AcDbEntity
  8
0
  6
Continuous
 62
     7
100
AcDbLine
 10
-838.371703854229
 20
-1089.25093375182
 30
0.0
 11
-839.6707426447845
 21
-1088.875933554112
 31
0.0
  0
LINE
  5
B6
330
47
100
AcDbEntity
  8
0
  6
Continuous
 62
     7
100
AcDbLine
 10
-839.6707426447845
 20
-1088.875933554112
 30
0.0
 11
-839.6707426447845
 21
-1089.04913863487
 31
0.0
  0
LINE
  5
B7
330
47
100
AcDbEntity
  8
0
  6
Continuous
 62
     7
100
AcDbLine
 10
-842.658530279899
 20
-1088.186638637162
 30
0.0
 11
-839.6707426447845
 21
-1089.04913863487
 31
0.0
  0
LINE
  5
B8
330
47
100
AcDbEntity
  8
0
  6
Continuous
 62
     7
100
AcDbLine
 10
-840.1037546617979
 20
-1102.607296124872
 30
0.0
 11
-838.371703854229
 21
-1101.375245338378
 31
0.0
  0
LINE
  5
B9
330
47
100
AcDbEntity
  8
0
  6
Continuous
 62
     7
100
AcDbLine
 10
-847.9111236936089
 20
-1074.950090974439
 30
0.0
 11
-844.8800347803636
 21
-1078.856179850802
 31
0.0
  0
LINE
  5
BA
330
47
100
AcDbEntity
  8
0
  6
Continuous
 62
     7
100
AcDbLine
 10
-847.9111236936089
 20
-1074.950090974439
 30
0.0
 11
-852.6611236936089
 21
-1079.063711642415
 31
0.0
  0
LINE
  5
BB
330
47
100
AcDbEntity
  8
0
  6
Continuous
 62
     7
100
AcDbLine
 10
-846.6553868581217
 20
-1084.863429713601
 30
0.0
 11
-846.6553868581218
 21
-1083.511415428807
 31
0.0
  0
LINE
  5
BC
330
47
100
AcDbEntity
  8
0
  6
Continuous
 62
     7
100
AcDbLine
 10
-849.6300347803638
 20
-1086.087536096783
 30
0.0
 11
-849.6300347803636
 21
-1082.969800518778
 31
0.0
  0
LINE
  5
BD
330
47
100
AcDbEntity
  8
0
  6
Continuous
 62
     7
100
AcDbLine
 10
-846.6553868581217
 20
-1084.863429713601
 30
0.0
 11
-843.9707081063902
 21
-1084.661286559404
 31
0.0
  0
LINE
  5
BE
330
47
100
AcDbEntity
  8
0
  6
Continuous
 62
     7
100
AcDbLine
 10
-844.8800347803638
 20
-1081.973915428807
 30
0.0
 11
-849.6300347803638
 21
-1086.087536096783
 31
0.0
  0
LINE
  5
BF
330
47
100
AcDbEntity
  8
0
  6
Continuous
 62
     7
100
AcDbLine
 10
-844.8800347803636
 20
-1078.856179850802
 30
0.0
 11
-849.6300347803636
 21
-1082.969800518778
 31
0.0
  0
LINE
  5
C0
330
47
100
AcDbEntity
  8
0
  6
Continuous
 62
     7
100
AcDbLine
 10
-848.7207081063902
 20
-1088.77490722738
 30
0.0
 11
-845.3432090316307
 21
-1089.74990722738
 31
0.0
  0
LINE
  5
C1
330
47
100
AcDbEntity
  8
0
  6
Continuous
 62
     7
100
AcDbLine
 10
-850.0553868581219
 20
-1085.964747528486
 30
0.0
 11
-851.4053868581218
 21
-1087.133881823595
 31
0.0
  0
LINE
  5
C2
330
47
100
AcDbEntity
  8
0
  6
Continuous
 62
     7
100
AcDbLine
 10
-851.9727603024945
 20
-1085.411249491363
 30
0.0
 11
-851.4053868581218
 21
-1087.133881823595
 31
0.0
  0
LINE
  5
C3
330
47
100
AcDbEntity
  8
0
  6
Continuous
 62
     7
100
AcDbLine
 10
-851.4053868581217
 20
-1088.977050381577
 30
0.0
 11
-851.4053868581218
 21
-1087.133881823595
 31
0.0
  0
LINE
  5
C4
330
47
100
AcDbEntity
  8
0
  6
Continuous
 62
     7
100
AcDbLine
 10
-851.4053868581217
 20
-1088.977050381577
 30
0.0
 11
-848.7207081063902
 21
-1088.77490722738
 31
0.0
  0
LINE
  5
C5
330
47
100
AcDbEntity
  8
0
  6
Continuous
 62
     7
100
AcDbLine
 10
-846.6553868581217
 20
-1084.863429713601
 30
0.0
 11
-851.4053868581217
 21
-1088.977050381577
 31
0.0
  0
LINE
  5
C6
330
47
100
AcDbEntity
  8
0
  6
Continuous
 62
     7
100
AcDbLine
 10
-843.9707081063902
 20
-1084.661286559404
 30
0.0
 11
-848.7207081063902
 21
-1088.77490722738
 31
0.0
  0
LINE
  5
C7
330
47
100
AcDbEntity
  8
0
  6
Continuous
 62
     7
100
AcDbLine
 10
-840.5932090316307
 20
-1085.636286559404
 30
0.0
 11
-845.3432090316307
 21
-1089.74990722738
 31
0.0
  0
LINE
  5
C8
330
47
100
AcDbEntity
  8
0
  6
Continuous
 62
     7
100
AcDbLine
 10
-843.9707081063902
 20
-1084.661286559404
 30
0.0
 11
-840.5932090316307
 21
-1085.636286559404
 31
0.0
  0
LINE
  5
C9
330
47
100
AcDbEntity
  8
0
  6
Continuous
 62
     7
100
AcDbLine
 10
-840.5932090316307
 20
-1086.398017969186
 30
0.0
 11
-840.5932090316307
 21
-1085.636286559404
 31
0.0
  0
LINE
  5
CA
330
47
100
AcDbEntity
  8
0
  6
Continuous
 62
     7
100
AcDbLine
 10
-851.9727603024945
 20
-1085.411249491363
 30
0.0
 11
-849.6300347803638
 21
-1086.087536096783
 31
0.0
  0
LINE
  5
CB
330
47
100
AcDbEntity
  8
0
  6
Continuous
 62
     7
100
AcDbLine
 10
-852.6611236936089
 20
-1079.063711642415
 30
0.0
 11
-849.6300347803636
 21
-1082.969800518778
 31
0.0
  0
LINE
  5
CC
330
47
100
AcDbEntity
  8
0
  6
Continuous
 62
     7
100
AcDbLine
 10
-845.3432090316309
 20
-1095.812085053871
 30
0.0
 11
-845.3432090316307
 21
-1089.74990722738
 31
0.0
  0
LINE
  5
CD
330
47
100
AcDbEntity
  8
0
  6
Continuous
 62
     7
100
AcDbLine
 10
-844.8800347803638
 20
-1081.973915428807
 30
0.0
 11
-844.8800347803636
 21
-1078.856179850802
 31
0.0
  0
LINE
  5
CE
330
47
100
AcDbEntity
  8
0
  6
Continuous
 62
     7
100
AcDbLine
 10
-842.6585302798991
 20
-1096.587085053871
 30
0.0
 11
-842.658530279899
 21
-1088.186638637162
 31
0.0
  0
LINE
  5
CF
330
47
100
AcDbEntity
  8
0
  6
Continuous
 62
     7
100
AcDbLine
 10
-845.3432090316309
 20
-1095.812085053871
 30
0.0
 11
-842.6585302798991
 21
-1096.587085053871
 31
0.0
  0
LINE
  5
D0
330
47
100
AcDbEntity
  8
0
  6
Continuous
 62
     7
100
AcDbLine
 10
-842.6585302798991
 20
-1093.487085053871
 30
0.0
 11
-845.3432090316309
 21
-1095.812085053871
 31
0.0
  0
LINE
  5
D1
330
47
100
AcDbEntity
  8
0
  6
Continuous
 62
     7
100
AcDbLine
 10
-856.6822258149311
 20
-1072.418091889021
 30
0.0
 11
-861.4322258149311
 21
-1076.531712556997
 31
0.0
  0
LINE
  5
D2
330
47
100
AcDbEntity
  8
0
  6
Continuous
 62
     7
100
AcDbLine
 10
-872.7487316432745
 20
-1067.780091156556
 30
0.0
 11
-873.458878157672
 21
-1067.57508951593
 31
0.0
  0
LINE
  5
D3
330
47
100
AcDbEntity
  8
0
  6
Continuous
 62
     7
100
AcDbLine
 10
-873.458878157672
 20
-1067.57508951593
 30
0.0
 11
-873.9616695920637
 21
-1066.927142277953
 31
0.0
  0
LINE
  5
D4
330
47
100
AcDbEntity
  8
0
  6
Continuous
 62
     7
100
AcDbLine
 10
-872.7487316459094
 20
-1068.213176183494
 30
0.0
 11
-872.7487316432745
 21
-1067.780091156556
 31
0.0
  0
LINE
  5
D5
330
47
100
AcDbEntity
  8
0
  6
Continuous
 62
     7
100
AcDbLine
 10
-878.7116695920637
 20
-1071.040762945929
 30
0.0
 11
-874.2678597322649
 21
-1067.14494293822
 31
0.0
  0
LINE
  5
D6
330
47
100
AcDbEntity
  8
0
  6
Continuous
 62
     7
100
AcDbLine
 10
-873.458878157672
 20
-1067.57508951593
 30
0.0
 11
-878.208878157672
 21
-1071.688710183906
 31
0.0
  0
LINE
  5
D7
330
47
100
AcDbEntity
  8
0
  6
Continuous
 62
     7
100
AcDbLine
 10
-876.9987316459094
 20
-1071.893784149578
 30
0.0
 11
-872.7487316459094
 21
-1068.213176183494
 31
0.0
  0
LINE
  5
D8
330
47
100
AcDbEntity
  8
0
  6
Continuous
 62
     7
100
AcDbLine
 10
-872.7487316432745
 20
-1067.780091156556
 30
0.0
 11
-877.4987316432745
 21
-1071.893711824532
 31
0.0
  0
LINE
  5
D9
330
47
100
AcDbEntity
  8
0
  6
Continuous
 62
     7
100
AcDbLine
 10
-872.5928463277378
 20
-1097.269958078798
 30
0.0
 11
-877.3428463277378
 21
-1101.383578746774
 31
0.0
  0
LINE
  5
DA
330
47
100
AcDbEntity
  8
0
  6
Continuous
 62
     7
100
AcDbLine
 10
-872.5928463277378
 20
-1097.269958078798
 30
0.0
 11
-872.5928463277378
 21
-1089.433085431195
 31
0.0
  0
LINE
  5
DB
330
47
100
AcDbEntity
  8
0
  6
Continuous
 62
     7
100
AcDbLine
 10
-877.4987316622429
 20
-1075.011477669925
 30
0.0
 11
-876.9987316622429
 21
-1074.578464968033
 31
0.0
  0
LINE
  5
DC
330
47
100
AcDbEntity
  8
0
  6
Continuous
 62
     7
100
AcDbLine
 10
-876.9987316459094
 20
-1071.893784149578
 30
0.0
 11
-876.9987316622429
 21
-1074.578464968033
 31
0.0
  0
LINE
  5
DD
330
47
100
AcDbEntity
  8
0
  6
Continuous
 62
     7
100
AcDbLine
 10
-874.2678597322649
 20
-1067.14494293822
 30
0.0
 11
-873.9616695920637
 21
-1066.927142277953
 31
0.0
  0
LINE
  5
DE
330
47
100
AcDbEntity
  8
0
  6
Continuous
 62
     7
100
AcDbLine
 10
-861.4322258338996
 20
-1079.649478500139
 30
0.0
 11
-861.4322258149311
 21
-1076.531712556997
 31
0.0
  0
LINE
  5
DF
330
47
100
AcDbEntity
  8
0
  6
Continuous
 62
     7
100
AcDbLine
 10
-877.4987316432745
 20
-1071.893711824532
 30
0.0
 11
-878.208878157672
 21
-1071.688710183906
 31
0.0
  0
LINE
  5
E0
330
47
100
AcDbEntity
  8
0
  6
Continuous
 62
     7
100
AcDbLine
 10
-877.4987316622429
 20
-1075.011477669925
 30
0.0
 11
-877.4987316432745
 21
-1071.893711824532
 31
0.0
  0
LINE
  5
E1
330
47
100
AcDbEntity
  8
0
  6
Continuous
 62
     7
100
AcDbLine
 10
-878.208878157672
 20
-1071.688710183906
 30
0.0
 11
-878.7116695920637
 21
-1071.040762945929
 31
0.0
  0
LINE
  5
E2
330
47
100
AcDbEntity
  8
0
  6
Continuous
 62
     7
100
AcDbLine
 10
-879.0178597322649
 20
-1071.258563606196
 30
0.0
 11
-886.6725147239446
 21
-1061.394200054516
 31
0.0
  0
LINE
  5
E3
330
47
100
AcDbEntity
  8
0
  6
Continuous
 62
     7
100
AcDbLine
 10
-879.9409217423477
 20
-1100.633578976774
 30
0.0
 11
-883.7514346967938
 21
-1095.723065682328
 31
0.0
  0
LINE
  5
E4
330
47
100
AcDbEntity
  8
0
  6
Continuous
 62
     7
100
AcDbLine
 10
-879.9409217423477
 20
-1100.633578976774
 30
0.0
 11
-877.3428463277378
 21
-1101.383578746774
 31
0.0
  0
LINE
  5
E5
330
47
100
AcDbEntity
  8
0
  6
Continuous
 62
     7
100
AcDbLine
 10
-877.3428463277378
 20
-1101.383578746774
 30
0.0
 11
-877.3428463277377
 21
-1088.899431700235
 31
0.0
  0
LINE
  5
E6
330
47
100
AcDbEntity
  8
0
  6
Continuous
 62
     7
100
AcDbLine
 10
-860.1207436246546
 20
-1090.834303144968
 30
0.0
 11
-877.3428463277377
 21
-1088.899431700235
 31
0.0
  0
LINE
  5
E7
330
47
100
AcDbEntity
  8
0
  6
Continuous
 62
     7
100
AcDbLine
 10
-860.1207436246546
 20
-1090.834303144968
 30
0.0
 11
-854.1261576277864
 21
-1098.559377061322
 31
0.0
  0
LINE
  5
E8
330
47
100
AcDbEntity
  8
0
  6
Continuous
 62
     7
100
AcDbLine
 10
-840.1037546617979
 20
-1102.607296124872
 30
0.0
 11
-854.1261576277864
 21
-1098.559377061322
 31
0.0
  0
LINE
  5
E9
330
47
100
AcDbEntity
  8
0
  6
Continuous
 62
     7
100
AcDbLine
 10
-852.6611236936089
 20
-1079.063711642415
 30
0.0
 11
-861.4322258149311
 21
-1076.531712556997
 31
0.0
  0
LINE
  5
EA
330
47
100
AcDbEntity
  8
0
  6
Continuous
 62
     7
100
AcDbLine
 10
-861.4322258338996
 20
-1079.649478500139
 30
0.0
 11
-877.4987316622429
 21
-1075.011477669925
 31
0.0
  0
LINE
  5
EB
330
47
100
AcDbEntity
  8
0
  6
Continuous
 62
     7
100
AcDbLine
 10
-847.9111236936089
 20
-1074.950090974439
 30
0.0
 11
-856.6822258149311
 21
-1072.418091889021
 31
0.0
  0
LINE
  5
EC
330
47
100
AcDbEntity
  8
0
  6
Continuous
 62
     7
100
AcDbLine
 10
-876.9987316622429
 20
-1074.578464968033
 30
0.0
 11
-861.4322258303869
 21
-1079.072128228921
 31
0.0
  0
LINE
  5
ED
330
47
100
AcDbEntity
  8
0
  6
Continuous
 62
     7
100
AcDbLine
 10
-876.9987316459094
 20
-1071.893784149578
 30
0.0
 11
-861.3072885473825
 21
-1076.423513709421
 31
0.0
  0
LINE
  5
EE
330
47
100
AcDbEntity
  8
0
  6
Continuous
 62
     7
100
AcDbLine
 10
-872.7487316459094
 20
-1068.213176183494
 30
0.0
 11
-857.0572885335931
 21
-1072.742905731395
 31
0.0
  0
LINE
  5
EF
330
47
100
AcDbEntity
  8
0
  6
Continuous
 62
     7
100
AcDbLine
 10
-897.9673927024418
 20
-1051.839836743155
 30
0.0
 11
-897.9673927024418
 21
-1052.858562160822
 31
0.0
  0
LINE
  5
F0
330
47
100
AcDbEntity
  8
0
  6
Continuous
 62
     7
100
AcDbLine
 10
-901.3414287801817
 20
-1053.261840041423
 30
0.0
 11
-901.3414287801817
 21
-1053.954660364451
 31
0.0
  0
LINE
  5
F1
330
47
100
AcDbEntity
  8
0
  6
Continuous
 62
     7
100
AcDbLine
 10
-900.0423927024418
 20
-1054.655564873674
 30
0.0
 11
-900.6423927024418
 21
-1054.376568963448
 31
0.0
  0
LINE
  5
F2
330
47
100
AcDbEntity
  8
0
  6
Continuous
 62
     7
100
AcDbLine
 10
-901.3414287801817
 20
-1053.261840041423
 30
0.0
 11
-900.0423927024418
 21
-1053.636839456008
 31
0.0
  0
LINE
  5
F3
330
47
100
AcDbEntity
  8
0
  6
Continuous
 62
     7
100
AcDbLine
 10
-901.9414287801817
 20
-1053.781455283694
 30
0.0
 11
-901.3414287801817
 21
-1053.261840041423
 31
0.0
  0
LINE
  5
F4
330
47
100
AcDbEntity
  8
0
  6
Continuous
 62
     7
100
AcDbLine
 10
-900.6423927024418
 20
-1054.156454698279
 30
0.0
 11
-901.9414287801817
 21
-1053.781455283694
 31
0.0
  0
LINE
  5
F5
330
47
100
AcDbEntity
  8
0
  6
Continuous
 62
     7
100
AcDbLine
 10
-898.8334171090564
 20
-1053.608561297247
 30
0.0
 11
-898.8334162740277
 21
-1057.219004336561
 31
0.0
  0
LINE
  5
F6
330
47
100
AcDbEntity
  8
0
  6
Continuous
 62
     7
100
AcDbLine
 10
-900.0423927024418
 20
-1053.636839456008
 30
0.0
 11
-900.0423927024418
 21
-1054.655564873674
 31
0.0
  0
LINE
  5
F7
330
47
100
AcDbEntity
  8
0
  6
Continuous
 62
     7
100
AcDbLine
 10
-901.3414287801817
 20
-1055.780563117429
 30
0.0
 11
-901.3414287801817
 21
-1058.891007105919
 31
0.0
  0
LINE
  5
F8
330
47
100
AcDbEntity
  8
0
  6
Continuous
 62
     7
100
AcDbLine
 10
-900.9084162740277
 20
-1059.016007049414
 30
0.0
 11
-901.3414287801817
 21
-1058.891007105919
 31
0.0
  0
LINE
  5
F9
330
47
100
AcDbEntity
  8
0
  6
Continuous
 62
     7
100
AcDbLine
 10
-898.8334162740277
 20
-1057.219004336561
 30
0.0
 11
-900.9084162740277
 21
-1059.016007049414
 31
0.0
  0
LINE
  5
FA
330
47
100
AcDbEntity
  8
0
  6
Continuous
 62
     7
100
AcDbLine
 10
-893.1945715278963
 20
-1056.306455478279
 30
0.0
 11
-895.2695715278963
 21
-1058.103458191132
 31
0.0
  0
LINE
  5
FB
330
47
100
AcDbEntity
  8
0
  6
Continuous
 62
     7
100
AcDbLine
 10
-903.5834173756533
 20
-1056.569487258829
 30
0.0
 11
-903.5834162740277
 21
-1061.332625004537
 31
0.0
  0
LINE
  5
FC
330
47
100
AcDbEntity
  8
0
  6
Continuous
 62
     7
100
AcDbLine
 10
-898.8334162740277
 20
-1057.219004336561
 30
0.0
 11
-895.2695715278963
 21
-1058.247797698326
 31
0.0
  0
LINE
  5
FD
330
47
100
AcDbEntity
  8
0
  6
Continuous
 62
     7
100
AcDbLine
 10
-901.5084162740277
 20
-1059.535622291685
 30
0.0
 11
-901.5084171090564
 21
-1055.925179252371
 31
0.0
  0
LINE
  5
FE
330
47
100
AcDbEntity
  8
0
  6
Continuous
 62
     7
100
AcDbLine
 10
-900.9084171090562
 20
-1055.4055640101
 30
0.0
 11
-900.9084162740277
 21
-1059.016007049414
 31
0.0
  0
LINE
  5
FF
330
47
100
AcDbEntity
  8
0
  6
Continuous
 62
     7
100
AcDbLine
 10
-900.0423927024418
 20
-1054.655564873674
 30
0.0
 11
-897.9673927024418
 21
-1052.858562160822
 31
0.0
  0
LINE
  5
100
330
47
100
AcDbEntity
  8
0
  6
Continuous
 62
     7
100
AcDbLine
 10
-900.0423927024418
 20
-1053.636839456008
 30
0.0
 11
-897.9673927024418
 21
-1051.839836743155
 31
0.0
  0
LINE
  5
101
330
47
100
AcDbEntity
  8
0
  6
Continuous
 62
     7
100
AcDbLine
 10
-914.2355295335443
 20
-1086.923065502328
 30
0.0
 11
-918.0460424879905
 21
-1089.633578116774
 31
0.0
  0
LINE
  5
102
330
47
100
AcDbEntity
  8
0
  6
Continuous
 62
     7
100
AcDbLine
 10
-920.6441179026003
 20
-1088.883578346774
 30
0.0
 11
-918.0460424879905
 21
-1089.633578116774
 31
0.0
  0
LINE
  5
103
330
47
100
AcDbEntity
  8
0
  6
Continuous
 62
     7
100
AcDbLine
 10
-917.1800190183314
 20
-1072.955377553977
 30
0.0
 11
-920.6441179026003
 21
-1075.955375188975
 31
0.0
  0
LINE
  5
104
330
47
100
AcDbEntity
  8
0
  6
Continuous
 62
     7
100
AcDbLine
 10
-920.6441179026003
 20
-1075.955375188975
 30
0.0
 11
-920.6441179026003
 21
-1088.883578346774
 31
0.0
  0
LINE
  5
105
330
47
100
AcDbEntity
  8
0
  6
Continuous
 62
     7
100
AcDbLine
 10
-917.1800207815074
 20
-1076.027166862976
 30
0.0
 11
-917.1800144168477
 21
-1064.938713995285
 31
0.0
  0
LINE
  5
106
330
47
100
AcDbEntity
  8
0
  6
Continuous
 62
     7
100
AcDbLine
 10
-914.2191066977771
 20
-1055.612009143516
 30
0.0
 11
-914.5252972405196
 21
-1055.217429004636
 31
0.0
  0
LINE
  5
107
330
47
100
AcDbEntity
  8
0
  6
Continuous
 62
     7
100
AcDbLine
 10
-914.5252972405196
 20
-1055.217429004636
 30
0.0
 11
-915.028090063119
 21
-1055.575095664676
 31
0.0
  0
LINE
  5
108
330
47
100
AcDbEntity
  8
0
  6
Continuous
 62
     7
100
AcDbLine
 10
-911.1178355164851
 20
-1053.528458451131
 30
0.0
 11
-911.6206351781315
 21
-1053.886112352778
 31
0.0
  0
LINE
  5
109
330
47
100
AcDbEntity
  8
0
  6
Continuous
 62
     7
100
AcDbLine
 10
-911.6206351781315
 20
-1053.886112352778
 30
0.0
 11
-911.3144495063934
 21
-1054.280686214516
 31
0.0
  0
LINE
  5
10A
330
47
100
AcDbEntity
  8
0
  6
Continuous
 62
     7
100
AcDbLine
 10
-918.9691066977771
 20
-1059.725629811492
 30
0.0
 11
-911.3144495063934
 21
-1054.280686214516
 31
0.0
  0
LINE
  5
10B
330
47
100
AcDbEntity
  8
0
  6
Continuous
 62
     7
100
AcDbLine
 10
-919.778090063119
 20
-1059.688716332652
 30
0.0
 11
-917.1800144168477
 21
-1064.938713995285
 31
0.0
  0
LINE
  5
10C
330
47
100
AcDbEntity
  8
0
  6
Continuous
 62
     7
100
AcDbLine
 10
-918.9691066977771
 20
-1059.725629811492
 30
0.0
 11
-914.2191066977771
 21
-1055.612009143516
 31
0.0
  0
LINE
  5
10D
330
47
100
AcDbEntity
  8
0
  6
Continuous
 62
     7
100
AcDbLine
 10
-914.5252972405196
 20
-1055.217429004636
 30
0.0
 11
-919.2752972405196
 21
-1059.331049672612
 31
0.0
  0
LINE
  5
10E
330
47
100
AcDbEntity
  8
0
  6
Continuous
 62
     7
100
AcDbLine
 10
-919.778090063119
 20
-1059.688716332652
 30
0.0
 11
-915.028090063119
 21
-1055.575095664676
 31
0.0
  0
LINE
  5
10F
330
47
100
AcDbEntity
  8
0
  6
Continuous
 62
     7
100
AcDbLine
 10
-894.4035478561627
 20
-1059.21948750451
 30
0.0
 11
-895.2695715278963
 21
-1059.122183608798
 31
0.0
  0
LINE
  5
110
330
47
100
AcDbEntity
  8
0
  6
Continuous
 62
     7
100
AcDbLine
 10
-886.6725147239446
 20
-1061.394200054516
 30
0.0
 11
-886.3663290522065
 21
-1061.176402572778
 31
0.0
  0
LINE
  5
111
330
47
100
AcDbEntity
  8
0
  6
Continuous
 62
     7
100
AcDbLine
 10
-886.3663290522065
 20
-1061.176402572778
 30
0.0
 11
-886.869128713853
 21
-1060.528457151132
 31
0.0
  0
LINE
  5
112
330
47
100
AcDbEntity
  8
0
  6
Continuous
 62
     7
100
AcDbLine
 10
-886.869128713853
 20
-1060.528457151132
 30
0.0
 11
-895.2695715278963
 21
-1058.103458191132
 31
0.0
  0
LINE
  5
113
330
47
100
AcDbEntity
  8
0
  6
Continuous
 62
     7
100
AcDbLine
 10
-886.869128713853
 20
-1060.528457151132
 30
0.0
 11
-882.119128713853
 21
-1056.414836483155
 31
0.0
  0
LINE
  5
114
330
47
100
AcDbEntity
  8
0
  6
Continuous
 62
     7
100
AcDbLine
 10
-883.7514346967938
 20
-1095.723065682328
 30
0.0
 11
-914.2355295335443
 21
-1086.923065502328
 31
0.0
  0
SPLINE
  5
115
330
47
100
AcDbEntity
  8
0
  6
Continuous
 62
     7
100
AcDbSpline
210
0.0
220
0.0
230
1.0
 70
     8
 71
     3
 72
     9
 73
     5
 74
     3
 42
0.000000001
 43
0.0000000001
 44
0.00000001
 40
0.0
 40
0.0
 40
0.0
 40
0.0
 40
1.481309018520208
 40
3.162897411438552
 40
3.162897411438552
 40
3.162897411438552
 40
3.162897411438552
 10
-834.9118321768118
 20
-1100.744696760487
 30
0.0
 10
-834.5981919349887
 20
-1100.3365870708
 30
0.0
 10
-833.9285059538181
 20
-1099.465189491851
 30
0.0
 10
-834.0955636276054
 20
-1098.371697890757
 30
0.0
 10
-834.1843816446925
 20
-1097.790331330535
 30
0.0
 11
-834.9118321768118
 21
-1100.744696760487
 31
0.0
 11
-834.1544441985111
 21
-1099.471653215755
 31
0.0
 11
-834.1843816446925
 21
-1097.790331330535
 31
0.0
  0
SPLINE
  5
116
330
47
100
AcDbEntity
  8
0
  6
Continuous
 62
     7
100
AcDbSpline
210
0.0
220
0.0
230
1.0
 70
     8
 71
     3
 72
     9
 73
     5
 74
     3
 42
0.000000001
 43
0.0000000001
 44
0.00000001
 40
0.0
 40
0.0
 40
0.0
 40
0.0
 40
1.443093177369294
 40
2.741123482721126
 40
2.741123482721126
 40
2.741123482721126
 40
2.741123482721126
 10
-837.5304468596437
 20
-1101.185082591551
 30
0.0
 10
-837.0393473275421
 20
-1101.281087081494
 30
0.0
 10
-836.1065146601163
 20
-1101.463445461885
 30
0.0
 10
-835.2957576577875
 20
-1100.975675244776
 30
0.0
 10
-834.9118321768118
 20
-1100.744696760487
 30
0.0
 11
-837.5304468596437
 21
-1101.185082591551
 31
0.0
 11
-836.0909828316343
 21
-1101.287362784202
 31
0.0
 11
-834.9118321768118
 21
-1100.744696760487
 31
0.0
  0
SPLINE
  5
117
330
47
100
AcDbEntity
  8
0
  6
Continuous
 62
     7
100
AcDbSpline
210
0.0
220
0.0
230
1.0
 70
     8
 71
     3
 72
     9
 73
     5
 74
     3
 42
0.000000001
 43
0.0000000001
 44
0.00000001
 40
0.0
 40
0.0
 40
0.0
 40
0.0
 40
1.481309018520795
 40
3.162897411439593
 40
3.162897411439593
 40
3.162897411439593
 40
3.162897411439593
 10
-833.9118321768118
 20
-1099.878671356703
 30
0.0
 10
-833.5981919349884
 20
-1099.470561667015
 30
0.0
 10
-832.9285059538181
 20
-1098.599164088066
 30
0.0
 10
-833.0955636276055
 20
-1097.505672486972
 30
0.0
 10
-833.1843816446925
 20
-1096.92430592675
 30
0.0
 11
-833.9118321768118
 21
-1099.878671356703
 31
0.0
 11
-833.1544441985111
 21
-1098.60562781197
 31
0.0
 11
-833.1843816446925
 21
-1096.92430592675
 31
0.0
  0
ENDBLK
  5
49
330
47
100
AcDbEntity
  8
0
100
AcDbBlockEnd
  0
BLOCK
  5
4C
330
4A
100
AcDbEntity
  8
0
100
AcDbBlockBegin
  2
AllgSicht1
 70
     0
 10
-875.9177316352592
 20
-1080.000000000148
 30
0.0
  3
AllgSicht1
  1

  0
INSERT
  5
4B
330
4A
100
AcDbEntity
  8
0
100
AcDbBlockReference
  2
AB_SKS_60-select__1
 10
-920.6441179026003
 20
-1102.607296124872
 30
0.0
  0
MTEXT
  5
119
330
4A
100
AcDbEntity
  8
1
 62
     6
100
AcDbMText
 10
-875.917731635257
 20
-1118.335162387405
 30
0.0
 40
5.0
 41
0.0
 71
     2
 72
     1
  1
 
  7
CONVERTER_11
 73
     1
 44
1.32052821128451
  0
ENDBLK
  5
4D
330
4A
100
AcDbEntity
  8
0
100
AcDbBlockEnd
  0
BLOCK
  5
4F
330
4E
100
AcDbEntity
  8
0
100
AcDbBlockBegin
  2
AB_SKS_60-select__2
 70
     0
 10
-1094.556337024009
 20
-1063.500000999995
 30
0.0
  3
AB_SKS_60-select__2
  1

  0
LINE
  5
11A
330
4E
100
AcDbEntity
  8
0
  6
Continuous
 62
     7
100
AcDbLine
 10
-996.7499998334926
 20
-1059.750000999995
 30
0.0
 11
-996.8862965283362
 21
-1059.750000999995
 31
0.0
  0
LINE
  5
11B
330
4E
100
AcDbEntity
  8
0
  6
Continuous
 62
     7
100
AcDbLine
 10
-996.7499998334926
 20
-1057.750000999995
 30
0.0
 11
-996.8862965283362
 21
-1057.750000999995
 31
0.0
  0
LINE
  5
11C
330
4E
100
AcDbEntity
  8
0
  6
Continuous
 62
     7
100
AcDbLine
 10
-1045.556342844288
 20
-1054.000000999995
 30
0.0
 11
-1046.136916384273
 21
-1054.000000999995
 31
0.0
  0
LINE
  5
11D
330
4E
100
AcDbEntity
  8
0
  6
Continuous
 62
     7
100
AcDbLine
 10
-1007.606337010254
 20
-1054.000000999995
 30
0.0
 11
-1004.506337010254
 21
-1054.000000999995
 31
0.0
  0
LINE
  5
11E
330
4E
100
AcDbEntity
  8
0
  6
Continuous
 62
     7
100
AcDbLine
 10
-1004.506337010254
 20
-1054.000000999995
 30
0.0
 11
-1001.056337019424
 21
-1054.000000999995
 31
0.0
  0
LINE
  5
11F
330
4E
100
AcDbEntity
  8
0
  6
Continuous
 62
     7
100
AcDbLine
 10
-996.7499998334926
 20
-1057.750000999995
 30
0.0
 11
-996.7499998334926
 21
-1059.750000999995
 31
0.0
  0
LINE
  5
120
330
4E
100
AcDbEntity
  8
0
  6
Continuous
 62
     7
100
AcDbLine
 10
-1046.490474304009
 20
-1063.500000999995
 30
0.0
 11
-1046.490474304009
 21
-1054.000000999995
 31
0.0
  0
LINE
  5
121
330
4E
100
AcDbEntity
  8
0
  6
Continuous
 62
     7
100
AcDbLine
 10
-999.5563362285944
 20
-1059.750000999995
 30
0.0
 11
-996.8862965283362
 21
-1059.750000999995
 31
0.0
  0
LINE
  5
122
330
4E
100
AcDbEntity
  8
0
  6
Continuous
 62
     2
100
AcDbLine
 10
-996.8862965283362
 20
-1057.750000999995
 30
0.0
 11
-996.8862965283362
 21
-1059.750000999995
 31
0.0
  0
LINE
  5
123
330
4E
100
AcDbEntity
  8
0
  6
Continuous
 62
     7
100
AcDbLine
 10
-1012.556337010254
 20
-1063.500000999995
 30
0.0
 11
-1011.506337010254
 21
-1063.500000999995
 31
0.0
  0
LINE
  5
124
330
4E
100
AcDbEntity
  8
0
  6
Continuous
 62
     7
100
AcDbLine
 10
-1045.556342844288
 20
-1063.500000999995
 30
0.0
 11
-1046.136916384273
 21
-1063.500000999995
 31
0.0
  0
LINE
  5
125
330
4E
100
AcDbEntity
  8
0
  6
Continuous
 62
     7
100
AcDbLine
 10
-1011.506337010254
 20
-1063.500000999995
 30
0.0
 11
-1007.606337010254
 21
-1063.500000999995
 31
0.0
  0
LINE
  5
126
330
4E
100
AcDbEntity
  8
0
  6
Continuous
 62
     7
100
AcDbLine
 10
-1007.606337010254
 20
-1063.500000999995
 30
0.0
 11
-1004.506337010254
 21
-1063.500000999995
 31
0.0
  0
LINE
  5
127
330
4E
100
AcDbEntity
  8
0
  6
Continuous
 62
     7
100
AcDbLine
 10
-1004.506337010254
 20
-1063.500000999995
 30
0.0
 11
-1001.056337019424
 21
-1063.500000999995
 31
0.0
  0
LINE
  5
128
330
4E
100
AcDbEntity
  8
0
  6
Continuous
 62
     7
100
AcDbLine
 10
-999.5563362285944
 20
-1057.750000999995
 30
0.0
 11
-996.8862965283362
 21
-1057.750000999995
 31
0.0
  0
LINE
  5
129
330
4E
100
AcDbEntity
  8
0
  6
Continuous
 62
     7
100
AcDbLine
 10
-1092.97575906856
 20
-1054.000000999995
 30
0.0
 11
-1093.556334211509
 21
-1054.000000999995
 31
0.0
  0
LINE
  5
12A
330
4E
100
AcDbEntity
  8
0
  6
Continuous
 62
     7
100
AcDbLine
 10
-1092.97575906856
 20
-1063.500000999995
 30
0.0
 11
-1093.556334211509
 21
-1063.500000999995
 31
0.0
  0
LINE
  5
12B
330
4E
100
AcDbEntity
  8
0
  6
Continuous
 62
     7
100
AcDbLine
 10
-1092.622200684009
 20
-1063.500000999995
 30
0.0
 11
-1092.622200684009
 21
-1054.000000999995
 31
0.0
  0
LINE
  5
12C
330
4E
100
AcDbEntity
  8
0
  6
Continuous
 62
     7
100
AcDbLine
 10
-1073.856337784009
 20
-1058.150000999995
 30
0.0
 11
-1073.856337784009
 21
-1054.000000999995
 31
0.0
  0
LINE
  5
12D
330
4E
100
AcDbEntity
  8
0
  6
Continuous
 62
     7
100
AcDbLine
 10
-1075.35633544235
 20
-1058.150000999995
 30
0.0
 11
-1073.856337784009
 21
-1058.150000999995
 31
0.0
  0
LINE
  5
12E
330
4E
100
AcDbEntity
  8
0
  6
Continuous
 62
     7
100
AcDbLine
 10
-1075.35633544235
 20
-1059.350000999995
 30
0.0
 11
-1075.35633544235
 21
-1058.150000999995
 31
0.0
  0
LINE
  5
12F
330
4E
100
AcDbEntity
  8
0
  6
Continuous
 62
     7
100
AcDbLine
 10
-1073.856337784009
 20
-1059.350000999995
 30
0.0
 11
-1075.35633544235
 21
-1059.350000999995
 31
0.0
  0
LINE
  5
130
330
4E
100
AcDbEntity
  8
0
  6
Continuous
 62
     7
100
AcDbLine
 10
-1073.856337784009
 20
-1063.500000999995
 30
0.0
 11
-1073.856337784009
 21
-1059.350000999995
 31
0.0
  0
LINE
  5
131
330
4E
100
AcDbEntity
  8
0
  6
Continuous
 62
     7
100
AcDbLine
 10
-1054.975755784009
 20
-1063.500000999995
 30
0.0
 11
-1055.556338824009
 21
-1063.500000999995
 31
0.0
  0
LINE
  5
132
330
4E
100
AcDbEntity
  8
0
  6
Continuous
 62
     7
100
AcDbLine
 10
-1054.975755784009
 20
-1054.000000999995
 30
0.0
 11
-1055.556338824009
 21
-1054.000000999995
 31
0.0
  0
LINE
  5
133
330
4E
100
AcDbEntity
  8
0
  6
Continuous
 62
     7
100
AcDbLine
 10
-1055.556338824009
 20
-1063.500000999995
 30
0.0
 11
-1055.556338824009
 21
-1054.000000999995
 31
0.0
  0
LINE
  5
134
330
4E
100
AcDbEntity
  8
0
  6
Continuous
 62
     7
100
AcDbLine
 10
-1054.975755784009
 20
-1054.000000999995
 30
0.0
 11
-1054.975755784009
 21
-1063.500000999995
 31
0.0
  0
LINE
  5
135
330
4E
100
AcDbEntity
  8
0
  6
Continuous
 62
     7
100
AcDbLine
 10
-1063.75633544235
 20
-1058.150000999995
 30
0.0
 11
-1063.75633544235
 21
-1059.350000999995
 31
0.0
  0
LINE
  5
136
330
4E
100
AcDbEntity
  8
0
  6
Continuous
 62
     7
100
AcDbLine
 10
-1083.556333624009
 20
-1063.500000999995
 30
0.0
 11
-1083.556333624009
 21
-1054.000000999995
 31
0.0
  0
LINE
  5
137
330
4E
100
AcDbEntity
  8
0
  6
Continuous
 62
     7
100
AcDbLine
 10
-1084.136916664009
 20
-1054.000000999995
 30
0.0
 11
-1084.136916664009
 21
-1063.500000999995
 31
0.0
  0
LINE
  5
138
330
4E
100
AcDbEntity
  8
0
  6
Continuous
 62
     7
100
AcDbLine
 10
-1092.97575906856
 20
-1054.000000999995
 30
0.0
 11
-1092.97575906856
 21
-1063.500000999995
 31
0.0
  0
LINE
  5
139
330
4E
100
AcDbEntity
  8
0
  6
Continuous
 62
     7
100
AcDbLine
 10
-1093.556334211509
 20
-1063.500000999995
 30
0.0
 11
-1093.556334211509
 21
-1054.000000999995
 31
0.0
  0
LINE
  5
13A
330
4E
100
AcDbEntity
  8
0
  6
Continuous
 62
     7
100
AcDbLine
 10
-1094.556337024009
 20
-1054.000000999995
 30
0.0
 11
-1094.556337024009
 21
-1063.500000999995
 31
0.0
  0
LINE
  5
13B
330
4E
100
AcDbEntity
  8
0
  6
Continuous
 62
     7
100
AcDbLine
 10
-999.5563362285944
 20
-1063.500000999995
 30
0.0
 11
-999.5563362285944
 21
-1059.750000999995
 31
0.0
  0
LINE
  5
13C
330
4E
100
AcDbEntity
  8
0
  6
Continuous
 62
     7
100
AcDbLine
 10
-999.5563362285944
 20
-1059.750000999995
 30
0.0
 11
-999.5563362285944
 21
-1057.750000999995
 31
0.0
  0
LINE
  5
13D
330
4E
100
AcDbEntity
  8
0
  6
Continuous
 62
     7
100
AcDbLine
 10
-999.5563362285944
 20
-1057.750000999995
 30
0.0
 11
-999.5563362285944
 21
-1054.000000999995
 31
0.0
  0
LINE
  5
13E
330
4E
100
AcDbEntity
  8
0
  6
Continuous
 62
     7
100
AcDbLine
 10
-999.5563362285944
 20
-1063.500000999995
 30
0.0
 11
-1001.056337019424
 21
-1063.500000999995
 31
0.0
  0
LINE
  5
13F
330
4E
100
AcDbEntity
  8
0
  6
Continuous
 62
     7
100
AcDbLine
 10
-1001.056337019424
 20
-1063.500000999995
 30
0.0
 11
-1001.056337019424
 21
-1054.000000999995
 31
0.0
  0
LINE
  5
140
330
4E
100
AcDbEntity
  8
0
  6
Continuous
 62
     7
100
AcDbLine
 10
-999.5563362285944
 20
-1054.000000999995
 30
0.0
 11
-1001.056337019424
 21
-1054.000000999995
 31
0.0
  0
LINE
  5
141
330
4E
100
AcDbEntity
  8
0
  6
Continuous
 62
     7
100
AcDbLine
 10
-1004.506337010254
 20
-1054.000000999995
 30
0.0
 11
-1004.506337010254
 21
-1063.500000999995
 31
0.0
  0
LINE
  5
142
330
4E
100
AcDbEntity
  8
0
  6
Continuous
 62
     7
100
AcDbLine
 10
-1044.736336284828
 20
-1054.000000999995
 30
0.0
 11
-1045.556342844288
 21
-1054.000000999995
 31
0.0
  0
LINE
  5
143
330
4E
100
AcDbEntity
  8
0
  6
Continuous
 62
     7
100
AcDbLine
 10
-1044.736336284828
 20
-1062.500000999995
 30
0.0
 11
-1044.736336303688
 21
-1063.500000999995
 31
0.0
  0
LINE
  5
144
330
4E
100
AcDbEntity
  8
0
  6
Continuous
 62
     7
100
AcDbLine
 10
-1045.556342844288
 20
-1054.000000999995
 30
0.0
 11
-1045.556342844288
 21
-1063.500000999995
 31
0.0
  0
LINE
  5
145
330
4E
100
AcDbEntity
  8
0
  6
Continuous
 62
     7
100
AcDbLine
 10
-1044.736336284828
 20
-1054.000000999995
 30
0.0
 11
-1044.736336284828
 21
-1062.500000999995
 31
0.0
  0
LINE
  5
146
330
4E
100
AcDbEntity
  8
0
  6
Continuous
 62
     7
100
AcDbLine
 10
-1016.056337010254
 20
-1054.000000999995
 30
0.0
 11
-1012.556337010254
 21
-1054.000000999995
 31
0.0
  0
LINE
  5
147
330
4E
100
AcDbEntity
  8
0
  6
Continuous
 62
     7
100
AcDbLine
 10
-1011.506337010254
 20
-1054.000000999995
 30
0.0
 11
-1007.606337010254
 21
-1054.000000999995
 31
0.0
  0
LINE
  5
148
330
4E
100
AcDbEntity
  8
0
  6
Continuous
 62
     7
100
AcDbLine
 10
-1007.606337010254
 20
-1054.000000999995
 30
0.0
 11
-1007.606337010254
 21
-1063.500000999995
 31
0.0
  0
LINE
  5
149
330
4E
100
AcDbEntity
  8
0
  6
Continuous
 62
     7
100
AcDbLine
 10
-1016.056337010254
 20
-1063.500000999995
 30
0.0
 11
-1012.556337010254
 21
-1063.500000999995
 31
0.0
  0
LINE
  5
14A
330
4E
100
AcDbEntity
  8
0
  6
Continuous
 62
     7
100
AcDbLine
 10
-1012.556337010254
 20
-1054.000000999995
 30
0.0
 11
-1011.506337010254
 21
-1054.000000999995
 31
0.0
  0
LINE
  5
14B
330
4E
100
AcDbEntity
  8
0
  6
Continuous
 62
     7
100
AcDbLine
 10
-1011.506337010254
 20
-1054.000000999995
 30
0.0
 11
-1011.506337010254
 21
-1063.500000999995
 31
0.0
  0
LINE
  5
14C
330
4E
100
AcDbEntity
  8
0
  6
Continuous
 62
     7
100
AcDbLine
 10
-1012.556337010254
 20
-1054.000000999995
 30
0.0
 11
-1012.556337010254
 21
-1063.500000999995
 31
0.0
  0
LINE
  5
14D
330
4E
100
AcDbEntity
  8
0
  6
Continuous
 62
     7
100
AcDbLine
 10
-1026.184333351924
 20
-1054.000000999995
 30
0.0
 11
-1026.184333354966
 21
-1062.500000999995
 31
0.0
  0
LINE
  5
14E
330
4E
100
AcDbEntity
  8
0
  6
Continuous
 62
     7
100
AcDbLine
 10
-1026.184333354966
 20
-1062.500000999995
 30
0.0
 11
-1026.184333351924
 21
-1063.500000999995
 31
0.0
  0
LINE
  5
14F
330
4E
100
AcDbEntity
  8
0
  6
Continuous
 62
     7
100
AcDbLine
 10
-1016.056337010254
 20
-1054.000000999995
 30
0.0
 11
-1016.056337010254
 21
-1063.500000999995
 31
0.0
  0
LINE
  5
150
330
4E
100
AcDbEntity
  8
0
  6
Continuous
 62
     7
100
AcDbLine
 10
-1016.056337010254
 20
-1063.500000999995
 30
0.0
 11
-1026.184333351924
 21
-1063.500000999995
 31
0.0
  0
LINE
  5
151
330
4E
100
AcDbEntity
  8
0
  6
Continuous
 62
     7
100
AcDbLine
 10
-1044.736336303688
 20
-1063.500000999995
 30
0.0
 11
-1045.556342844288
 21
-1063.500000999995
 31
0.0
  0
LINE
  5
152
330
4E
100
AcDbEntity
  8
0
  6
Continuous
 62
     7
100
AcDbLine
 10
-1016.056337010254
 20
-1054.000000999995
 30
0.0
 11
-1026.184333351924
 21
-1054.000000999995
 31
0.0
  0
LINE
  5
153
330
4E
100
AcDbEntity
  8
0
  6
Continuous
 62
     7
100
AcDbLine
 10
-1026.184333351924
 20
-1063.500000999995
 30
0.0
 11
-1044.736336303688
 21
-1063.500000999995
 31
0.0
  0
LINE
  5
154
330
4E
100
AcDbEntity
  8
0
  6
Continuous
 62
     7
100
AcDbLine
 10
-1044.736336284828
 20
-1054.000000999995
 30
0.0
 11
-1026.184333351924
 21
-1054.000000999995
 31
0.0
  0
LINE
  5
155
330
4E
100
AcDbEntity
  8
0
  6
Continuous
 62
     7
100
AcDbLine
 10
-1084.136916664009
 20
-1063.500000999995
 30
0.0
 11
-1092.622200684009
 21
-1063.500000999995
 31
0.0
  0
LINE
  5
156
330
4E
100
AcDbEntity
  8
0
  6
Continuous
 62
     7
100
AcDbLine
 10
-1092.622200684009
 20
-1063.500000999995
 30
0.0
 11
-1092.97575906856
 21
-1063.500000999995
 31
0.0
  0
LINE
  5
157
330
4E
100
AcDbEntity
  8
0
  6
Continuous
 62
     7
100
AcDbLine
 10
-1093.556334211509
 20
-1063.500000999995
 30
0.0
 11
-1094.556337024009
 21
-1063.500000999995
 31
0.0
  0
LINE
  5
158
330
4E
100
AcDbEntity
  8
0
  6
Continuous
 62
     7
100
AcDbLine
 10
-1083.556333624009
 20
-1063.500000999995
 30
0.0
 11
-1084.136916664009
 21
-1063.500000999995
 31
0.0
  0
LINE
  5
159
330
4E
100
AcDbEntity
  8
0
  6
Continuous
 62
     7
100
AcDbLine
 10
-1046.136916384273
 20
-1063.500000999995
 30
0.0
 11
-1046.490474304009
 21
-1063.500000999995
 31
0.0
  0
LINE
  5
15A
330
4E
100
AcDbEntity
  8
0
  6
Continuous
 62
     7
100
AcDbLine
 10
-1073.856337784009
 20
-1063.500000999995
 30
0.0
 11
-1065.25633466401
 21
-1063.500000999995
 31
0.0
  0
LINE
  5
15B
330
4E
100
AcDbEntity
  8
0
  6
Continuous
 62
     7
100
AcDbLine
 10
-1083.556333624009
 20
-1063.500000999995
 30
0.0
 11
-1073.856337784009
 21
-1063.500000999995
 31
0.0
  0
LINE
  5
15C
330
4E
100
AcDbEntity
  8
0
  6
Continuous
 62
     7
100
AcDbLine
 10
-1046.136916384273
 20
-1063.500000999995
 30
0.0
 11
-1046.136916384273
 21
-1054.000000999995
 31
0.0
  0
LINE
  5
15D
330
4E
100
AcDbEntity
  8
0
  6
Continuous
 62
     7
100
AcDbLine
 10
-1065.25633466401
 20
-1059.350000999995
 30
0.0
 11
-1065.25633466401
 21
-1063.500000999995
 31
0.0
  0
LINE
  5
15E
330
4E
100
AcDbEntity
  8
0
  6
Continuous
 62
     7
100
AcDbLine
 10
-1063.75633544235
 20
-1059.350000999995
 30
0.0
 11
-1065.25633466401
 21
-1059.350000999995
 31
0.0
  0
LINE
  5
15F
330
4E
100
AcDbEntity
  8
0
  6
Continuous
 62
     7
100
AcDbLine
 10
-1046.490474304009
 20
-1063.500000999995
 30
0.0
 11
-1054.975755784009
 21
-1063.500000999995
 31
0.0
  0
LINE
  5
160
330
4E
100
AcDbEntity
  8
0
  6
Continuous
 62
     7
100
AcDbLine
 10
-1055.556338824009
 20
-1063.500000999995
 30
0.0
 11
-1065.25633466401
 21
-1063.500000999995
 31
0.0
  0
LINE
  5
161
330
4E
100
AcDbEntity
  8
0
  6
Continuous
 62
     7
100
AcDbLine
 10
-1092.622200684009
 20
-1054.000000999995
 30
0.0
 11
-1092.97575906856
 21
-1054.000000999995
 31
0.0
  0
LINE
  5
162
330
4E
100
AcDbEntity
  8
0
  6
Continuous
 62
     7
100
AcDbLine
 10
-1084.136916664009
 20
-1054.000000999995
 30
0.0
 11
-1092.622200684009
 21
-1054.000000999995
 31
0.0
  0
LINE
  5
163
330
4E
100
AcDbEntity
  8
0
  6
Continuous
 62
     7
100
AcDbLine
 10
-1093.556334211509
 20
-1054.000000999995
 30
0.0
 11
-1094.556337024009
 21
-1054.000000999995
 31
0.0
  0
LINE
  5
164
330
4E
100
AcDbEntity
  8
0
  6
Continuous
 62
     7
100
AcDbLine
 10
-1083.556333624009
 20
-1054.000000999995
 30
0.0
 11
-1084.136916664009
 21
-1054.000000999995
 31
0.0
  0
LINE
  5
165
330
4E
100
AcDbEntity
  8
0
  6
Continuous
 62
     7
100
AcDbLine
 10
-1046.136916384273
 20
-1054.000000999995
 30
0.0
 11
-1046.490474304009
 21
-1054.000000999995
 31
0.0
  0
LINE
  5
166
330
4E
100
AcDbEntity
  8
0
  6
Continuous
 62
     7
100
AcDbLine
 10
-1055.556338824009
 20
-1054.000000999995
 30
0.0
 11
-1065.25633466401
 21
-1054.000000999995
 31
0.0
  0
LINE
  5
167
330
4E
100
AcDbEntity
  8
0
  6
Continuous
 62
     7
100
AcDbLine
 10
-1083.556333624009
 20
-1054.000000999995
 30
0.0
 11
-1073.856337784009
 21
-1054.000000999995
 31
0.0
  0
LINE
  5
168
330
4E
100
AcDbEntity
  8
0
  6
Continuous
 62
     7
100
AcDbLine
 10
-1073.856337784009
 20
-1054.000000999995
 30
0.0
 11
-1065.25633466401
 21
-1054.000000999995
 31
0.0
  0
LINE
  5
169
330
4E
100
AcDbEntity
  8
0
  6
Continuous
 62
     7
100
AcDbLine
 10
-1065.25633466401
 20
-1054.000000999995
 30
0.0
 11
-1065.25633466401
 21
-1058.150000999995
 31
0.0
  0
LINE
  5
16A
330
4E
100
AcDbEntity
  8
0
  6
Continuous
 62
     7
100
AcDbLine
 10
-1065.25633466401
 20
-1058.150000999995
 30
0.0
 11
-1063.75633544235
 21
-1058.150000999995
 31
0.0
  0
LINE
  5
16B
330
4E
100
AcDbEntity
  8
0
  6
Continuous
 62
     7
100
AcDbLine
 10
-1046.490474304009
 20
-1054.000000999995
 30
0.0
 11
-1054.975755784009
 21
-1054.000000999995
 31
0.0
  0
LINE
  5
16C
330
4E
100
AcDbEntity
  8
0
  6
Continuous
 62
     7
100
AcDbLine
 10
-1044.736336284828
 20
-1062.500000999995
 30
0.0
 11
-1026.184333354966
 21
-1062.500000999995
 31
0.0
  0
ENDBLK
  5
50
330
4E
100
AcDbEntity
  8
0
100
AcDbBlockEnd
  0
BLOCK
  5
53
330
51
100
AcDbEntity
  8
0
100
AcDbBlockBegin
  2
Drfsicht1
 70
     0
 10
-1045.6531685
 20
-1058.750001
 30
0.0
  3
Drfsicht1
  1

  0
INSERT
  5
52
330
51
100
AcDbEntity
  8
0
100
AcDbBlockReference
  2
AB_SKS_60-select__2
 10
-1094.556337024009
 20
-1063.500000999995
 30
0.0
  0
MTEXT
  5
16D
330
51
100
AcDbEntity
  8
1
 62
     6
100
AcDbMText
 10
-1045.6531685
 20
-1068.500001
 30
0.0
 40
5.0
 41
0.0
 71
     2
 72
     1
  1
 
  7
CONVERTER_11
 73
     1
 44
1.32052821128451
  0
DIMENSION
  5
17A
330
51
100
AcDbEntity
  8
1
100
AcDbDimension
  2
*D17
 10
-1102.622200684009
 20
-1054.000000999995
 30
0.0
 11
-1106.047200684009
 21
-1058.78119630361
 31
0.0
 70
    32
  1
<>
 71
     5
 42
-1.0
 53
90.0
  3
ME10_DIM_10
100
AcDbAlignedDimension
 13
-1092.622200684009
 23
-1063.500000999995
 33
0.0
 14
-1092.622200684009
 24
-1054.000000999995
 34
0.0
 50
90.0
100
AcDbRotatedDimension
  0
ENDBLK
  5
54
330
51
100
AcDbEntity
  8
0
100
AcDbBlockEnd
  0
BLOCK
  5
56
330
55
100
AcDbEntity
  8
0
100
AcDbBlockBegin
  2
AB_SKS_60-select__3
 70
     0
 10
-920.2500009422005
 20
-989.0000014553673
 30
0.0
  3
AB_SKS_60-select__3
  1

  0
LINE
  5
17B
330
55
100
AcDbEntity
  8
0
  6
Continuous
 62
     7
100
AcDbLine
 10
-843.1436629916835
 20
-944.9999980153673
 30
0.0
 11
-843.1436629916835
 21
-946.176320803607
 31
0.0
  0
LINE
  5
17C
330
55
100
AcDbEntity
  8
0
  6
Continuous
 62
     7
100
AcDbLine
 10
-851.7436661116835
 20
-944.9999980153673
 30
0.0
 11
-851.7436661116835
 21
-946.176320803607
 31
0.0
  0
LINE
  5
17D
330
55
100
AcDbEntity
  8
0
  6
Continuous
 62
     7
100
AcDbLine
 10
-843.1436629916835
 20
-946.176320803607
 30
0.0
 11
-842.1436638352765
 21
-946.000002903232
 31
0.0
  0
LINE
  5
17E
330
55
100
AcDbEntity
  8
0
  6
Continuous
 62
     7
100
AcDbLine
 10
-842.1436638352765
 20
-946.000002903232
 30
0.0
 11
-842.1436651073241
 21
-951.5000002553672
 31
0.0
  0
LINE
  5
17F
330
55
100
AcDbEntity
  8
0
  6
Continuous
 62
     7
100
AcDbLine
 10
-824.3778000916843
 20
-954.772965515368
 30
0.0
 11
-833.2166368716835
 21
-945.9341338153672
 31
0.0
  0
LINE
  5
180
330
55
100
AcDbEntity
  8
0
  6
Continuous
 62
     7
100
AcDbLine
 10
-842.1436651073241
 20
-951.5000002553672
 30
0.0
 11
-852.7436641116835
 21
-951.5000002553672
 31
0.0
  0
LINE
  5
181
330
55
100
AcDbEntity
  8
0
  6
Continuous
 62
     7
100
AcDbLine
 10
-851.7436661116835
 20
-946.176320803607
 30
0.0
 11
-852.7436641116835
 21
-946.0000031071274
 31
0.0
  0
LINE
  5
182
330
55
100
AcDbEntity
  8
0
  6
Continuous
 62
     7
100
AcDbLine
 10
-852.7436641116835
 20
-946.0000031071274
 30
0.0
 11
-852.7436641116835
 21
-951.5000002553672
 31
0.0
  0
LINE
  5
183
330
55
100
AcDbEntity
  8
0
  6
Continuous
 62
     7
100
AcDbLine
 10
-865.0436649116835
 20
-984.6000000953672
 30
0.0
 11
-829.8436641916835
 21
-984.6000000953672
 31
0.0
  0
LINE
  5
184
330
55
100
AcDbEntity
  8
0
  6
Continuous
 62
     7
100
AcDbLine
 10
-909.393663765439
 20
-971.9000489232261
 30
0.0
 11
-912.4936637654389
 21
-971.9000489232261
 31
0.0
  0
LINE
  5
185
330
55
100
AcDbEntity
  8
0
  6
Continuous
 62
     7
100
AcDbLine
 10
-905.4936637654389
 20
-964.9000489232261
 30
0.0
 11
-909.3936637654391
 21
-964.9000489232261
 31
0.0
  0
LINE
  5
186
330
55
100
AcDbEntity
  8
0
  6
Continuous
 62
     7
100
AcDbLine
 10
-915.4436645470985
 20
-977.9999980153672
 30
0.0
 11
-916.2500009422005
 21
-977.9999980153672
 31
0.0
  0
LINE
  5
187
330
55
100
AcDbEntity
  8
0
  6
Continuous
 62
     7
100
AcDbLine
 10
-909.393663765439
 20
-971.9000489232261
 30
0.0
 11
-909.3936637654391
 21
-964.9000489232261
 31
0.0
  0
LINE
  5
188
330
55
100
AcDbEntity
  8
0
  6
Continuous
 62
     7
100
AcDbLine
 10
-915.4436645470985
 20
-977.9999980153672
 30
0.0
 11
-899.2519882929008
 21
-977.9999980153673
 31
0.0
  0
LINE
  5
189
330
55
100
AcDbEntity
  8
0
  6
Continuous
 62
     7
100
AcDbLine
 10
-892.3300366149564
 20
-971.0780463374226
 30
0.0
 11
-899.2519882929008
 21
-977.9999980153673
 31
0.0
  0
LINE
  5
18A
330
55
100
AcDbEntity
  8
0
  6
Continuous
 62
     7
100
AcDbLine
 10
-829.8436641916835
 20
-984.6000000953672
 30
0.0
 11
-825.4436628316836
 21
-989.0000014553673
 31
0.0
  0
LINE
  5
18B
330
55
100
AcDbEntity
  8
0
  6
Continuous
 62
     7
100
AcDbLine
 10
-822.4436637516835
 20
-989.0000014553673
 30
0.0
 11
-825.4436628316836
 21
-989.0000014553673
 31
0.0
  0
LINE
  5
18C
330
55
100
AcDbEntity
  8
0
  6
Continuous
 62
     7
100
AcDbLine
 10
-822.4436637516835
 20
-974.0717983087804
 30
0.0
 11
-822.4436637516835
 21
-989.0000014553673
 31
0.0
  0
LINE
  5
18D
330
55
100
AcDbEntity
  8
0
  6
Continuous
 62
     7
100
AcDbLine
 10
-826.4436585624074
 20
-972.9999971530364
 30
0.0
 11
-822.4436637516835
 21
-974.0717983087804
 31
0.0
  0
LINE
  5
18E
330
55
100
AcDbEntity
  8
0
  6
Continuous
 62
     7
100
AcDbLine
 10
-826.4436585624074
 20
-972.9999971530364
 30
0.0
 11
-826.4436659116835
 21
-960.1961525353672
 31
0.0
  0
LINE
  5
18F
330
55
100
AcDbEntity
  8
0
  6
Continuous
 62
     7
100
AcDbLine
 10
-823.4436665641841
 20
-955.0000026232592
 30
0.0
 11
-826.4436659116835
 21
-960.1961525353672
 31
0.0
  0
LINE
  5
190
330
55
100
AcDbEntity
  8
0
  6
Continuous
 62
     7
100
AcDbLine
 10
-833.4436671516836
 20
-944.9999980153673
 30
0.0
 11
-832.8630841116835
 21
-945.5805810553672
 31
0.0
  0
LINE
  5
191
330
55
100
AcDbEntity
  8
0
  6
Continuous
 62
     7
100
AcDbLine
 10
-843.1436629916835
 20
-944.9999980153673
 30
0.0
 11
-833.4436671516836
 21
-944.9999980153673
 31
0.0
  0
LINE
  5
192
330
55
100
AcDbEntity
  8
0
  6
Continuous
 62
     7
100
AcDbLine
 10
-861.4436619516835
 20
-944.9999980153673
 30
0.0
 11
-851.7436661116835
 21
-944.9999980153673
 31
0.0
  0
LINE
  5
193
330
55
100
AcDbEntity
  8
0
  6
Continuous
 62
     7
100
AcDbLine
 10
-832.8630841116835
 20
-945.5805810553672
 30
0.0
 11
-833.2166368716835
 21
-945.9341338153672
 31
0.0
  0
LINE
  5
194
330
55
100
AcDbEntity
  8
0
  6
Continuous
 62
     7
100
AcDbLine
 10
-862.0242449916835
 20
-945.5805810553672
 30
0.0
 11
-861.4436619516835
 21
-944.9999980153673
 31
0.0
  0
LINE
  5
195
330
55
100
AcDbEntity
  8
0
  6
Continuous
 62
     7
100
AcDbLine
 10
-861.6706922316836
 20
-945.9341338153672
 30
0.0
 11
-862.0242449916835
 21
-945.5805810553672
 31
0.0
  0
LINE
  5
196
330
55
100
AcDbEntity
  8
0
  6
Continuous
 62
     7
100
AcDbLine
 10
-824.3778000916843
 20
-954.772965515368
 30
0.0
 11
-824.0242417071329
 21
-954.4194071308166
 31
0.0
  0
LINE
  5
197
330
55
100
AcDbEntity
  8
0
  6
Continuous
 62
     7
100
AcDbLine
 10
-870.8630843914202
 20
-954.4194101356305
 30
0.0
 11
-870.5095264716836
 21
-954.7729680553672
 31
0.0
  0
LINE
  5
198
330
55
100
AcDbEntity
  8
0
  6
Continuous
 62
     7
100
AcDbLine
 10
-872.2636644939079
 20
-954.9999980153673
 30
0.0
 11
-871.4436579314049
 21
-954.9999980153673
 31
0.0
  0
LINE
  5
199
330
55
100
AcDbEntity
  8
0
  6
Continuous
 62
     7
100
AcDbLine
 10
-900.9436637654394
 20
-954.9999980153673
 30
0.0
 11
-890.8156674237694
 21
-954.9999980153673
 31
0.0
  0
LINE
  5
19A
330
55
100
AcDbEntity
  8
0
  6
Continuous
 62
     7
100
AcDbLine
 10
-824.0242417071329
 20
-954.4194071308166
 30
0.0
 11
-823.4436665641841
 21
-955.0000026232592
 31
0.0
  0
LINE
  5
19B
330
55
100
AcDbEntity
  8
0
  6
Continuous
 62
     7
100
AcDbLine
 10
-871.4436579314049
 20
-954.9999980153673
 30
0.0
 11
-870.8630843914202
 21
-954.4194101356305
 31
0.0
  0
LINE
  5
19C
330
55
100
AcDbEntity
  8
0
  6
Continuous
 62
     7
100
AcDbLine
 10
-872.2636644908654
 20
-955.5000815300147
 30
0.0
 11
-872.2636644939079
 21
-954.9999980153673
 31
0.0
  0
LINE
  5
19D
330
55
100
AcDbEntity
  8
0
  6
Continuous
 62
     7
100
AcDbLine
 10
-872.4436653516835
 20
-989.0000014553673
 30
0.0
 11
-872.4436653516835
 21
-974.5845501395231
 31
0.0
  0
LINE
  5
19E
330
55
100
AcDbEntity
  8
0
  6
Continuous
 62
     7
100
AcDbLine
 10
-869.4436662716835
 20
-989.0000014553673
 30
0.0
 11
-872.4436653516835
 21
-989.0000014553673
 31
0.0
  0
LINE
  5
19F
330
55
100
AcDbEntity
  8
0
  6
Continuous
 62
     7
100
AcDbLine
 10
-869.4436662716835
 20
-989.0000014553673
 30
0.0
 11
-865.0436649116835
 21
-984.6000000953672
 31
0.0
  0
LINE
  5
1A0
330
55
100
AcDbEntity
  8
0
  6
Continuous
 62
     7
100
AcDbLine
 10
-872.2636644908654
 20
-955.5000815300147
 30
0.0
 11
-890.8156674207269
 21
-955.5000816428848
 31
0.0
  0
LINE
  5
1A1
330
55
100
AcDbEntity
  8
0
  6
Continuous
 62
     7
100
AcDbLine
 10
-892.3300366149564
 20
-971.0780463374226
 30
0.0
 11
-872.4436653516835
 21
-974.5845501395231
 31
0.0
  0
LINE
  5
1A2
330
55
100
AcDbEntity
  8
0
  6
Continuous
 62
     7
100
AcDbLine
 10
-901.7385173437599
 20
-962.1000489232262
 30
0.0
 11
-904.443663765439
 21
-962.1000489232262
 31
0.0
  0
LINE
  5
1A3
330
55
100
AcDbEntity
  8
0
  6
Continuous
 62
     7
100
AcDbLine
 10
-890.8156674207269
 20
-955.5000816428848
 30
0.0
 11
-890.8156674237694
 21
-954.9999980153673
 31
0.0
  0
LINE
  5
1A4
330
55
100
AcDbEntity
  8
0
  6
Continuous
 62
     7
100
AcDbLine
 10
-900.9436637654394
 20
-954.9999980153673
 30
0.0
 11
-904.4436637654393
 21
-958.4999979727793
 31
0.0
  0
LINE
  5
1A5
330
55
100
AcDbEntity
  8
0
  6
Continuous
 62
     7
100
AcDbLine
 10
-904.443663765439
 20
-962.1000489232262
 30
0.0
 11
-904.4436637654393
 21
-958.4999979727793
 31
0.0
  0
LINE
  5
1A6
330
55
100
AcDbEntity
  8
0
  6
Continuous
 62
     7
100
AcDbLine
 10
-901.7385173437599
 20
-962.1000489232262
 30
0.0
 11
-902.3936637654391
 21
-963.900048923226
 31
0.0
  0
LINE
  5
1A7
330
55
100
AcDbEntity
  8
0
  6
Continuous
 62
     7
100
AcDbLine
 10
-902.3936637654392
 20
-966.0283566494513
 30
0.0
 11
-902.3936637654391
 21
-963.900048923226
 31
0.0
  0
LINE
  5
1A8
330
55
100
AcDbEntity
  8
0
  6
Continuous
 62
     7
100
AcDbLine
 10
-902.3936637654392
 20
-966.0283566494513
 30
0.0
 11
-905.4936637654389
 21
-964.9000489232261
 31
0.0
  0
LINE
  5
1A9
330
55
100
AcDbEntity
  8
0
  6
Continuous
 62
     7
100
AcDbLine
 10
-917.4436645470985
 20
-962.0000489232265
 30
0.0
 11
-917.4436645470985
 21
-962.9999980153673
 31
0.0
  0
LINE
  5
1AA
330
55
100
AcDbEntity
  8
0
  6
Continuous
 62
     7
100
AcDbLine
 10
-917.4436645470985
 20
-962.0000489232265
 30
0.0
 11
-915.9436637562687
 21
-962.0000489232265
 31
0.0
  0
LINE
  5
1AB
330
55
100
AcDbEntity
  8
0
  6
Continuous
 62
     7
100
AcDbLine
 10
-915.9436637562687
 20
-962.0000489232265
 30
0.0
 11
-915.9436637562687
 21
-962.2000489232264
 31
0.0
  0
LINE
  5
1AC
330
55
100
AcDbEntity
  8
0
  6
Continuous
 62
     7
100
AcDbLine
 10
-912.4936637654389
 20
-971.9000489232261
 30
0.0
 11
-912.4936637654391
 21
-962.2000489232264
 31
0.0
  0
LINE
  5
1AD
330
55
100
AcDbEntity
  8
0
  6
Continuous
 62
     7
100
AcDbLine
 10
-912.4936637654391
 20
-962.2000489232264
 30
0.0
 11
-915.9436637562687
 21
-962.2000489232264
 31
0.0
  0
LINE
  5
1AE
330
55
100
AcDbEntity
  8
0
  6
Continuous
 62
     7
100
AcDbLine
 10
-917.4436645470985
 20
-962.9999980153673
 30
0.0
 11
-917.4436645470985
 21
-975.9999980397032
 31
0.0
  0
LINE
  5
1AF
330
55
100
AcDbEntity
  8
0
  6
Continuous
 62
     7
100
AcDbLine
 10
-915.4436645470985
 20
-977.9999980153672
 30
0.0
 11
-917.4436645470985
 21
-975.9999980397032
 31
0.0
  0
LINE
  5
1B0
330
55
100
AcDbEntity
  8
0
  6
Continuous
 62
     7
100
AcDbLine
 10
-917.4436645470985
 20
-962.9999980153673
 30
0.0
 11
-920.1137042473566
 21
-972.9647218349571
 31
0.0
  0
LINE
  5
1B1
330
55
100
AcDbEntity
  8
0
  6
Continuous
 62
     7
100
AcDbLine
 10
-870.5095264716836
 20
-954.7729680553672
 30
0.0
 11
-861.6706922316836
 21
-945.9341338153672
 31
0.0
  0
ARC
  5
1B2
330
55
100
AcDbEntity
  8
0
  6
Continuous
 62
     7
100
AcDbCircle
 10
-916.2500009422005
 20
-973.9999980153672
 30
0.0
 40
3.999999999999873
100
AcDbArc
 50
165.0
 51
270.0
  0
ENDBLK
  5
57
330
55
100
AcDbEntity
  8
0
100
AcDbBlockEnd
  0
BLOCK
  5
5A
330
58
100
AcDbEntity
  8
0
100
AcDbBlockBegin
  2
Rckans1
 70
     0
 10
-871.3468322756929
 20
-967.0
 30
0.0
  3
Rckans1
  1

  0
INSERT
  5
59
330
58
100
AcDbEntity
  8
0
100
AcDbBlockReference
  2
AB_SKS_60-select__3
 10
-920.2500009422005
 20
-989.0000014553673
 30
0.0
  0
MTEXT
  5
1B3
330
58
100
AcDbEntity
  8
1
 62
     6
100
AcDbMText
 10
-871.3468322756906
 20
-994.0000014305115
 30
0.0
 40
5.0
 41
0.0
 71
     2
 72
     1
  1
 
  7
CONVERTER_11
 73
     1
 44
1.32052821128451
  0
ENDBLK
  5
5B
330
58
100
AcDbEntity
  8
0
100
AcDbBlockEnd
  0
BLOCK
  5
5D
330
5C
100
AcDbEntity
  8
0
100
AcDbBlockBegin
  2
AB_SKS_60-select__4
 70
     0
 10
-963.7500000000101
 20
-989.0000014553673
 30
0.0
  3
AB_SKS_60-select__4
  1

  0
LINE
  5
1B4
330
5C
100
AcDbEntity
  8
0
  6
Continuous
 62
     7
100
AcDbLine
 10
-954.2500000000101
 20
-945.5805810553672
 30
0.0
 11
-954.2500000000101
 21
-945.9341338153672
 31
0.0
  0
LINE
  5
1B5
330
5C
100
AcDbEntity
  8
0
  6
Continuous
 62
     7
100
AcDbLine
 10
-954.2500000000101
 20
-944.9999980153673
 30
0.0
 11
-954.2500000000101
 21
-945.5805810553672
 31
0.0
  0
LINE
  5
1B6
330
5C
100
AcDbEntity
  8
0
  6
Continuous
 62
     7
100
AcDbLine
 10
-954.2500000000101
 20
-954.4194101356305
 30
0.0
 11
-954.2500000000101
 21
-945.9341338153672
 31
0.0
  0
LINE
  5
1B7
330
5C
100
AcDbEntity
  8
0
  6
Continuous
 62
     7
100
AcDbLine
 10
-954.2500000000101
 20
-954.4194101356305
 30
0.0
 11
-963.7500000000101
 21
-954.4194101356305
 31
0.0
  0
LINE
  5
1B8
330
5C
100
AcDbEntity
  8
0
  6
Continuous
 62
     7
100
AcDbLine
 10
-954.2500000000101
 20
-945.9341338153672
 30
0.0
 11
-963.7500000000101
 21
-945.9341338153672
 31
0.0
  0
LINE
  5
1B9
330
5C
100
AcDbEntity
  8
0
  6
Continuous
 62
     7
100
AcDbLine
 10
-954.2500000000101
 20
-944.9999980153673
 30
0.0
 11
-963.7500000000101
 21
-944.9999980153673
 31
0.0
  0
LINE
  5
1BA
330
5C
100
AcDbEntity
  8
0
  6
Continuous
 62
     7
100
AcDbLine
 10
-963.7500000000101
 20
-954.4194101356305
 30
0.0
 11
-963.7500000000101
 21
-945.9341338153672
 31
0.0
  0
LINE
  5
1BB
330
5C
100
AcDbEntity
  8
0
  6
Continuous
 62
     7
100
AcDbLine
 10
-963.7500000000101
 20
-945.5805810553672
 30
0.0
 11
-963.7500000000101
 21
-945.9341338153672
 31
0.0
  0
LINE
  5
1BC
330
5C
100
AcDbEntity
  8
0
  6
Continuous
 62
     7
100
AcDbLine
 10
-963.7500000000101
 20
-944.9999980153673
 30
0.0
 11
-963.7500000000101
 21
-945.5805810553672
 31
0.0
  0
LINE
  5
1BD
330
5C
100
AcDbEntity
  8
0
  6
Continuous
 62
     7
100
AcDbLine
 10
-963.7500000000101
 20
-945.5805810553672
 30
0.0
 11
-954.2500000000101
 21
-945.5805810553672
 31
0.0
  0
LINE
  5
1BE
330
5C
100
AcDbEntity
  8
0
  6
Continuous
 62
     7
100
AcDbLine
 10
-963.7500000000101
 20
-989.0000014553673
 30
0.0
 11
-954.2500000000101
 21
-989.0000014553673
 31
0.0
  0
LINE
  5
1BF
330
5C
100
AcDbEntity
  8
0
  6
Continuous
 62
     7
100
AcDbLine
 10
-963.7500000000101
 20
-972.9999971530364
 30
0.0
 11
-954.2500000000101
 21
-972.9999971530364
 31
0.0
  0
LINE
  5
1C0
330
5C
100
AcDbEntity
  8
0
  6
Continuous
 62
     7
100
AcDbLine
 10
-954.2500000000101
 20
-955.0000026232592
 30
0.0
 11
-963.7500000000101
 21
-955.0000026232592
 31
0.0
  0
LINE
  5
1C1
330
5C
100
AcDbEntity
  8
0
  6
Continuous
 62
     7
100
AcDbLine
 10
-954.2500000000101
 20
-960.1961525353672
 30
0.0
 11
-963.7500000000101
 21
-960.1961525353672
 31
0.0
  0
LINE
  5
1C2
330
5C
100
AcDbEntity
  8
0
  6
Continuous
 62
     7
100
AcDbLine
 10
-954.2500000000101
 20
-989.0000014553673
 30
0.0
 11
-954.2500000000101
 21
-974.0717983087804
 31
0.0
  0
LINE
  5
1C3
330
5C
100
AcDbEntity
  8
0
  6
Continuous
 62
     7
100
AcDbLine
 10
-954.2500000000101
 20
-972.9999971530364
 30
0.0
 11
-954.2500000000101
 21
-974.0717983087804
 31
0.0
  0
LINE
  5
1C4
330
5C
100
AcDbEntity
  8
0
  6
Continuous
 62
     7
100
AcDbLine
 10
-954.2500000000101
 20
-960.1961525353672
 30
0.0
 11
-954.2500000000101
 21
-972.9999971530364
 31
0.0
  0
LINE
  5
1C5
330
5C
100
AcDbEntity
  8
0
  6
Continuous
 62
     7
100
AcDbLine
 10
-954.2500000000101
 20
-955.0000026232592
 30
0.0
 11
-954.2500000000101
 21
-960.1961525353672
 31
0.0
  0
LINE
  5
1C6
330
5C
100
AcDbEntity
  8
0
  6
Continuous
 62
     7
100
AcDbLine
 10
-954.2500000000101
 20
-954.4194101356305
 30
0.0
 11
-954.2500000000101
 21
-955.0000026232592
 31
0.0
  0
LINE
  5
1C7
330
5C
100
AcDbEntity
  8
0
  6
Continuous
 62
     7
100
AcDbLine
 10
-963.7500000000101
 20
-989.0000014553673
 30
0.0
 11
-963.7500000000101
 21
-974.0717983087804
 31
0.0
  0
LINE
  5
1C8
330
5C
100
AcDbEntity
  8
0
  6
Continuous
 62
     7
100
AcDbLine
 10
-963.7500000000101
 20
-972.9999971530364
 30
0.0
 11
-963.7500000000101
 21
-974.0717983087804
 31
0.0
  0
LINE
  5
1C9
330
5C
100
AcDbEntity
  8
0
  6
Continuous
 62
     7
100
AcDbLine
 10
-963.7500000000101
 20
-960.1961525353672
 30
0.0
 11
-963.7500000000101
 21
-972.9999971530364
 31
0.0
  0
LINE
  5
1CA
330
5C
100
AcDbEntity
  8
0
  6
Continuous
 62
     7
100
AcDbLine
 10
-963.7500000000101
 20
-954.4194101356305
 30
0.0
 11
-963.7500000000101
 21
-955.0000026232592
 31
0.0
  0
LINE
  5
1CB
330
5C
100
AcDbEntity
  8
0
  6
Continuous
 62
     7
100
AcDbLine
 10
-963.7500000000101
 20
-955.0000026232592
 30
0.0
 11
-963.7500000000101
 21
-960.1961525353672
 31
0.0
  0
LINE
  5
1CC
330
5C
100
AcDbEntity
  8
0
  6
Continuous
 62
     7
100
AcDbLine
 10
-963.7500000000101
 20
-974.0717983087804
 30
0.0
 11
-954.2500000000101
 21
-974.0717983087804
 31
0.0
  0
ENDBLK
  5
5E
330
5C
100
AcDbEntity
  8
0
100
AcDbBlockEnd
  0
BLOCK
  5
61
330
5F
100
AcDbEntity
  8
0
100
AcDbBlockBegin
  2
SA_Links1
 70
     0
 10
-959.000000000005
 20
-967.0
 30
0.0
  3
SA_Links1
  1

  0
INSERT
  5
60
330
5F
100
AcDbEntity
  8
0
100
AcDbBlockReference
  2
AB_SKS_60-select__4
 10
-963.7500000000101
 20
-989.0000014553673
 30
0.0
  0
MTEXT
  5
1CD
330
5F
100
AcDbEntity
  8
1
 62
     6
100
AcDbMText
 10
-959.000000000005
 20
-994.0000014305115
 30
0.0
 40
5.0
 41
0.0
 71
     2
 72
     1
  1
 
  7
CONVERTER_11
 73
     1
 44
1.32052821128451
  0
ENDBLK
  5
62
330
5F
100
AcDbEntity
  8
0
100
AcDbBlockEnd
  0
BLOCK
  5
64
330
63
100
AcDbEntity
  8
0
100
AcDbBlockBegin
  2
AB_SKS_60-select__5
 70
     0
 10
-1152.056334999995
 20
-989.0000014553672
 30
0.0
  3
AB_SKS_60-select__5
  1

  0
LINE
  5
1CE
330
63
100
AcDbEntity
  8
0
  6
Continuous
 62
     7
100
AcDbLine
 10
-1142.556334999995
 20
-945.9341338153672
 30
0.0
 11
-1142.556334999995
 21
-945.5805810553671
 31
0.0
  0
LINE
  5
1CF
330
63
100
AcDbEntity
  8
0
  6
Continuous
 62
     7
100
AcDbLine
 10
-1142.556334999995
 20
-945.5805810553671
 30
0.0
 11
-1142.556334999995
 21
-944.9999980153672
 31
0.0
  0
LINE
  5
1D0
330
63
100
AcDbEntity
  8
0
  6
Continuous
 62
     7
100
AcDbLine
 10
-1146.306334999995
 20
-977.9999980153672
 30
0.0
 11
-1142.556334999995
 21
-977.9999980153672
 31
0.0
  0
LINE
  5
1D1
330
63
100
AcDbEntity
  8
0
  6
Continuous
 62
     7
100
AcDbLine
 10
-1142.556334999995
 20
-977.9999980153672
 30
0.0
 11
-1142.556334999995
 21
-975.9999980397032
 31
0.0
  0
LINE
  5
1D2
330
63
100
AcDbEntity
  8
0
  6
Continuous
 62
     7
100
AcDbLine
 10
-1142.556334999995
 20
-962.0000489232264
 30
0.0
 11
-1142.556334999995
 21
-975.9999980397032
 31
0.0
  0
LINE
  5
1D3
330
63
100
AcDbEntity
  8
0
  6
Continuous
 62
     7
100
AcDbLine
 10
-1142.556334999995
 20
-962.0000489232264
 30
0.0
 11
-1142.556334999995
 21
-958.4999979727793
 31
0.0
  0
LINE
  5
1D4
330
63
100
AcDbEntity
  8
0
  6
Continuous
 62
     7
100
AcDbLine
 10
-1142.556334999995
 20
-954.9999980153672
 30
0.0
 11
-1142.556334999995
 21
-958.4999979727793
 31
0.0
  0
LINE
  5
1D5
330
63
100
AcDbEntity
  8
0
  6
Continuous
 62
     7
100
AcDbLine
 10
-1146.306334999995
 20
-962.9999980153673
 30
0.0
 11
-1146.306334999995
 21
-972.9647218349571
 31
0.0
  0
LINE
  5
1D6
330
63
100
AcDbEntity
  8
0
  6
Continuous
 62
     7
100
AcDbLine
 10
-1142.556334999995
 20
-975.9999980397032
 30
0.0
 11
-1146.306334999995
 21
-975.9999980397032
 31
0.0
  0
LINE
  5
1D7
330
63
100
AcDbEntity
  8
0
  6
Continuous
 62
     7
100
AcDbLine
 10
-1142.556334999995
 20
-954.9999980153672
 30
0.0
 11
-1142.556334999995
 21
-954.4194101356305
 31
0.0
  0
LINE
  5
1D8
330
63
100
AcDbEntity
  8
0
  6
Continuous
 62
     7
100
AcDbLine
 10
-1142.556334999995
 20
-954.4194101356305
 30
0.0
 11
-1142.556334999995
 21
-945.9341338153672
 31
0.0
  0
LINE
  5
1D9
330
63
100
AcDbEntity
  8
0
  6
Continuous
 62
     7
100
AcDbLine
 10
-1152.056334999995
 20
-944.9999980153672
 30
0.0
 11
-1142.556334999995
 21
-944.9999980153672
 31
0.0
  0
LINE
  5
1DA
330
63
100
AcDbEntity
  8
0
  6
Continuous
 62
     2
100
AcDbLine
 10
-1146.306334999995
 20
-972.9647218349571
 30
0.0
 11
-1148.306334999995
 21
-972.9647218349571
 31
0.0
  0
LINE
  5
1DB
330
63
100
AcDbEntity
  8
0
  6
Continuous
 62
     7
100
AcDbLine
 10
-1152.056334999995
 20
-945.5805810553671
 30
0.0
 11
-1152.056334999995
 21
-945.9341338153672
 31
0.0
  0
LINE
  5
1DC
330
63
100
AcDbEntity
  8
0
  6
Continuous
 62
     7
100
AcDbLine
 10
-1148.306334999995
 20
-962.9999980153673
 30
0.0
 11
-1148.306334999995
 21
-972.9647218349571
 31
0.0
  0
LINE
  5
1DD
330
63
100
AcDbEntity
  8
0
  6
Continuous
 62
     7
100
AcDbLine
 10
-1142.556334999995
 20
-945.5805810553671
 30
0.0
 11
-1152.056334999995
 21
-945.5805810553671
 31
0.0
  0
LINE
  5
1DE
330
63
100
AcDbEntity
  8
0
  6
Continuous
 62
     7
100
AcDbLine
 10
-1152.056334999995
 20
-945.9341338153672
 30
0.0
 11
-1142.556334999995
 21
-945.9341338153672
 31
0.0
  0
LINE
  5
1DF
330
63
100
AcDbEntity
  8
0
  6
Continuous
 62
     7
100
AcDbLine
 10
-1148.306334999995
 20
-977.9999980153672
 30
0.0
 11
-1148.306334999995
 21
-975.9999980397032
 31
0.0
  0
LINE
  5
1E0
330
63
100
AcDbEntity
  8
0
  6
Continuous
 62
     7
100
AcDbLine
 10
-1146.306334999995
 20
-977.9999980153672
 30
0.0
 11
-1146.306334999995
 21
-975.9999980397032
 31
0.0
  0
LINE
  5
1E1
330
63
100
AcDbEntity
  8
0
  6
Continuous
 62
     7
100
AcDbLine
 10
-1146.306334999995
 20
-977.9999980153672
 30
0.0
 11
-1148.306334999995
 21
-977.9999980153672
 31
0.0
  0
LINE
  5
1E2
330
63
100
AcDbEntity
  8
0
  6
Continuous
 62
     7
100
AcDbLine
 10
-1148.306334999995
 20
-975.9999980397032
 30
0.0
 11
-1148.306334999995
 21
-972.9647218349571
 31
0.0
  0
LINE
  5
1E3
330
63
100
AcDbEntity
  8
0
  6
Continuous
 62
     7
100
AcDbLine
 10
-1146.306334999995
 20
-975.9999980397032
 30
0.0
 11
-1146.306334999995
 21
-972.9647218349571
 31
0.0
  0
LINE
  5
1E4
330
63
100
AcDbEntity
  8
0
  6
Continuous
 62
     7
100
AcDbLine
 10
-1142.556334999995
 20
-989.0000014553672
 30
0.0
 11
-1152.056334999995
 21
-989.0000014553672
 31
0.0
  0
LINE
  5
1E5
330
63
100
AcDbEntity
  8
0
  6
Continuous
 62
     7
100
AcDbLine
 10
-1152.056334999995
 20
-977.9999980153672
 30
0.0
 11
-1148.306334999995
 21
-977.9999980153672
 31
0.0
  0
LINE
  5
1E6
330
63
100
AcDbEntity
  8
0
  6
Continuous
 62
     7
100
AcDbLine
 10
-1152.056334999995
 20
-977.9999980153672
 30
0.0
 11
-1152.056334999995
 21
-975.9999980397032
 31
0.0
  0
LINE
  5
1E7
330
63
100
AcDbEntity
  8
0
  6
Continuous
 62
     7
100
AcDbLine
 10
-1152.056334999995
 20
-989.0000014553672
 30
0.0
 11
-1152.056334999995
 21
-977.9999980153672
 31
0.0
  0
LINE
  5
1E8
330
63
100
AcDbEntity
  8
0
  6
Continuous
 62
     7
100
AcDbLine
 10
-1142.556334999995
 20
-989.0000014553672
 30
0.0
 11
-1142.556334999995
 21
-977.9999980153672
 31
0.0
  0
LINE
  5
1E9
330
63
100
AcDbEntity
  8
0
  6
Continuous
 62
     7
100
AcDbLine
 10
-1142.556334999995
 20
-954.9999980153672
 30
0.0
 11
-1152.056334999995
 21
-954.9999980153672
 31
0.0
  0
LINE
  5
1EA
330
63
100
AcDbEntity
  8
0
  6
Continuous
 62
     7
100
AcDbLine
 10
-1152.056334999995
 20
-962.0000489232264
 30
0.0
 11
-1142.556334999995
 21
-962.0000489232264
 31
0.0
  0
LINE
  5
1EB
330
63
100
AcDbEntity
  8
0
  6
Continuous
 62
     7
100
AcDbLine
 10
-1146.306334999995
 20
-962.9999980153673
 30
0.0
 11
-1148.306334999995
 21
-962.9999980153673
 31
0.0
  0
LINE
  5
1EC
330
63
100
AcDbEntity
  8
0
  6
Continuous
 62
     7
100
AcDbLine
 10
-1152.056334999995
 20
-954.9999980153672
 30
0.0
 11
-1152.056334999995
 21
-954.4194101356305
 31
0.0
  0
LINE
  5
1ED
330
63
100
AcDbEntity
  8
0
  6
Continuous
 62
     7
100
AcDbLine
 10
-1152.056334999995
 20
-975.9999980397032
 30
0.0
 11
-1152.056334999995
 21
-962.0000489232264
 31
0.0
  0
LINE
  5
1EE
330
63
100
AcDbEntity
  8
0
  6
Continuous
 62
     7
100
AcDbLine
 10
-1142.556334999995
 20
-958.4999979727793
 30
0.0
 11
-1152.056334999995
 21
-958.4999979727793
 31
0.0
  0
LINE
  5
1EF
330
63
100
AcDbEntity
  8
0
  6
Continuous
 62
     7
100
AcDbLine
 10
-1152.056334999995
 20
-945.5805810553671
 30
0.0
 11
-1152.056334999995
 21
-944.9999980153672
 31
0.0
  0
LINE
  5
1F0
330
63
100
AcDbEntity
  8
0
  6
Continuous
 62
     7
100
AcDbLine
 10
-1152.056334999995
 20
-954.4194101356305
 30
0.0
 11
-1142.556334999995
 21
-954.4194101356305
 31
0.0
  0
LINE
  5
1F1
330
63
100
AcDbEntity
  8
0
  6
Continuous
 62
     7
100
AcDbLine
 10
-1152.056334999995
 20
-962.0000489232264
 30
0.0
 11
-1152.056334999995
 21
-958.4999979727793
 31
0.0
  0
LINE
  5
1F2
330
63
100
AcDbEntity
  8
0
  6
Continuous
 62
     7
100
AcDbLine
 10
-1152.056334999995
 20
-954.9999980153672
 30
0.0
 11
-1152.056334999995
 21
-958.4999979727793
 31
0.0
  0
LINE
  5
1F3
330
63
100
AcDbEntity
  8
0
  6
Continuous
 62
     7
100
AcDbLine
 10
-1148.306334999995
 20
-975.9999980397032
 30
0.0
 11
-1152.056334999995
 21
-975.9999980397032
 31
0.0
  0
LINE
  5
1F4
330
63
100
AcDbEntity
  8
0
  6
Continuous
 62
     7
100
AcDbLine
 10
-1152.056334999995
 20
-954.4194101356305
 30
0.0
 11
-1152.056334999995
 21
-945.9341338153672
 31
0.0
  0
ENDBLK
  5
65
330
63
100
AcDbEntity
  8
0
100
AcDbBlockEnd
  0
BLOCK
  5
68
330
66
100
AcDbEntity
  8
0
100
AcDbBlockBegin
  2
SA_Rechts1
 70
     0
 10
-1147.306335
 20
-967.0
 30
0.0
  3
SA_Rechts1
  1

  0
INSERT
  5
67
330
66
100
AcDbEntity
  8
0
100
AcDbBlockReference
  2
AB_SKS_60-select__5
 10
-1152.056334999995
 20
-989.0000014553672
 30
0.0
  0
MTEXT
  5
1F5
330
66
100
AcDbEntity
  8
1
 62
     6
100
AcDbMText
 10
-1147.306335
 20
-994.0000014305115
 30
0.0
 40
5.0
 41
0.0
 71
     2
 72
     1
  1
 
  7
CONVERTER_11
 73
     1
 44
1.32052821128451
  0
ENDBLK
  5
69
330
66
100
AcDbEntity
  8
0
100
AcDbBlockEnd
  0
BLOCK
  5
6B
330
6A
100
AcDbEntity
  8
0
100
AcDbBlockBegin
  2
AB_SKS_60-select__6
 70
     0
 10
-1094.556337024009
 20
-989.0000014553672
 30
0.0
  3
AB_SKS_60-select__6
  1

  0
LINE
  5
1F6
330
6A
100
AcDbEntity
  8
0
  6
Continuous
 62
     7
100
AcDbLine
 10
-1001.556336228594
 20
-977.9999980153672
 30
0.0
 11
-1000.749999833493
 21
-977.9999980153672
 31
0.0
  0
LINE
  5
1F7
330
6A
100
AcDbEntity
  8
0
  6
Continuous
 62
     7
100
AcDbLine
 10
-1001.556336228594
 20
-977.9999980153672
 30
0.0
 11
-999.5563362285944
 21
-975.9999980397032
 31
0.0
  0
LINE
  5
1F8
330
6A
100
AcDbEntity
  8
0
  6
Continuous
 62
     7
100
AcDbLine
 10
-1004.506337010254
 20
-962.2000489232263
 30
0.0
 11
-1001.056337019424
 21
-962.2000489232264
 31
0.0
  0
LINE
  5
1F9
330
6A
100
AcDbEntity
  8
0
  6
Continuous
 62
     7
100
AcDbLine
 10
-1001.056337019424
 20
-962.0000489232264
 30
0.0
 11
-1001.056337019424
 21
-962.2000489232264
 31
0.0
  0
LINE
  5
1FA
330
6A
100
AcDbEntity
  8
0
  6
Continuous
 62
     7
100
AcDbLine
 10
-999.5563362285944
 20
-962.0000489232264
 30
0.0
 11
-1001.056337019424
 21
-962.0000489232264
 31
0.0
  0
LINE
  5
1FB
330
6A
100
AcDbEntity
  8
0
  6
Continuous
 62
     7
100
AcDbLine
 10
-999.5563362285944
 20
-962.0000489232264
 30
0.0
 11
-999.5563362285944
 21
-962.9999980153673
 31
0.0
  0
LINE
  5
1FC
330
6A
100
AcDbEntity
  8
0
  6
Continuous
 62
     7
100
AcDbLine
 10
-999.5563362285944
 20
-962.9999980153673
 30
0.0
 11
-999.5563362285944
 21
-975.9999980397032
 31
0.0
  0
LINE
  5
1FD
330
6A
100
AcDbEntity
  8
0
  6
Continuous
 62
     7
100
AcDbLine
 10
-1015.261483431933
 20
-962.1000489232262
 30
0.0
 11
-1012.556337010254
 21
-962.1000489232262
 31
0.0
  0
LINE
  5
1FE
330
6A
100
AcDbEntity
  8
0
  6
Continuous
 62
     7
100
AcDbLine
 10
-1016.056337010254
 20
-954.9999980153672
 30
0.0
 11
-1026.184333351924
 21
-954.9999980153672
 31
0.0
  0
LINE
  5
1FF
330
6A
100
AcDbEntity
  8
0
  6
Continuous
 62
     7
100
AcDbLine
 10
-1012.556337010254
 20
-962.1000489232262
 30
0.0
 11
-1012.556337010254
 21
-958.4999979727793
 31
0.0
  0
LINE
  5
200
330
6A
100
AcDbEntity
  8
0
  6
Continuous
 62
     7
100
AcDbLine
 10
-1015.261483431933
 20
-962.1000489232262
 30
0.0
 11
-1014.606337010254
 21
-963.900048923226
 31
0.0
  0
LINE
  5
201
330
6A
100
AcDbEntity
  8
0
  6
Continuous
 62
     7
100
AcDbLine
 10
-1014.606337010254
 20
-966.0283566494512
 30
0.0
 11
-1014.606337010254
 21
-963.900048923226
 31
0.0
  0
LINE
  5
202
330
6A
100
AcDbEntity
  8
0
  6
Continuous
 62
     7
100
AcDbLine
 10
-1001.556336228594
 20
-977.9999980153672
 30
0.0
 11
-1017.748012482792
 21
-977.9999980153672
 31
0.0
  0
LINE
  5
203
330
6A
100
AcDbEntity
  8
0
  6
Continuous
 62
     7
100
AcDbLine
 10
-1011.506337010254
 20
-964.9000489232261
 30
0.0
 11
-1007.606337010254
 21
-964.9000489232261
 31
0.0
  0
LINE
  5
204
330
6A
100
AcDbEntity
  8
0
  6
Continuous
 62
     7
100
AcDbLine
 10
-1007.606337010254
 20
-971.9000489232261
 30
0.0
 11
-1007.606337010254
 21
-964.9000489232261
 31
0.0
  0
LINE
  5
205
330
6A
100
AcDbEntity
  8
0
  6
Continuous
 62
     7
100
AcDbLine
 10
-1007.606337010254
 20
-971.9000489232261
 30
0.0
 11
-1004.506337010254
 21
-971.9000489232261
 31
0.0
  0
LINE
  5
206
330
6A
100
AcDbEntity
  8
0
  6
Continuous
 62
     7
100
AcDbLine
 10
-1004.506337010254
 20
-971.9000489232261
 30
0.0
 11
-1004.506337010254
 21
-962.2000489232263
 31
0.0
  0
LINE
  5
207
330
6A
100
AcDbEntity
  8
0
  6
Continuous
 62
     7
100
AcDbLine
 10
-1044.736336284828
 20
-955.5000815300147
 30
0.0
 11
-1026.184333354966
 21
-955.5000816428847
 31
0.0
  0
LINE
  5
208
330
6A
100
AcDbEntity
  8
0
  6
Continuous
 62
     7
100
AcDbLine
 10
-1026.184333373826
 20
-958.6000840347759
 30
0.0
 11
-1044.736336303688
 21
-958.6000839219059
 31
0.0
  0
LINE
  5
209
330
6A
100
AcDbEntity
  8
0
  6
Continuous
 62
     7
100
AcDbLine
 10
-1026.184333354966
 20
-955.5000816428847
 30
0.0
 11
-1026.184333351924
 21
-954.9999980153672
 31
0.0
  0
LINE
  5
20A
330
6A
100
AcDbEntity
  8
0
  6
Continuous
 62
     7
100
AcDbLine
 10
-1026.184333373826
 20
-958.6000840347759
 30
0.0
 11
-1026.184333354966
 21
-955.5000816428847
 31
0.0
  0
LINE
  5
20B
330
6A
100
AcDbEntity
  8
0
  6
Continuous
 62
     7
100
AcDbLine
 10
-1064.256336664009
 20
-951.5000002553672
 30
0.0
 11
-1064.256336664009
 21
-946.0000031071274
 31
0.0
  0
LINE
  5
20C
330
6A
100
AcDbEntity
  8
0
  6
Continuous
 62
     7
100
AcDbLine
 10
-1024.669964160737
 20
-971.0780463374225
 30
0.0
 11
-1044.556335424009
 21
-974.584550139523
 31
0.0
  0
LINE
  5
20D
330
6A
100
AcDbEntity
  8
0
  6
Continuous
 62
     7
100
AcDbLine
 10
-1024.669964160737
 20
-971.0780463374225
 30
0.0
 11
-1017.748012482792
 21
-977.9999980153672
 31
0.0
  0
LINE
  5
20E
330
6A
100
AcDbEntity
  8
0
  6
Continuous
 62
     7
100
AcDbLine
 10
-1014.606337010254
 20
-966.0283566494512
 30
0.0
 11
-1011.506337010254
 21
-964.9000489232261
 31
0.0
  0
LINE
  5
20F
330
6A
100
AcDbEntity
  8
0
  6
Continuous
 62
     7
100
AcDbLine
 10
-1016.056337010254
 20
-954.9999980153672
 30
0.0
 11
-1012.556337010254
 21
-958.4999979727793
 31
0.0
  0
LINE
  5
210
330
6A
100
AcDbEntity
  8
0
  6
Continuous
 62
     7
100
AcDbLine
 10
-999.5563362285944
 20
-962.9999980153673
 30
0.0
 11
-996.8862965283362
 21
-972.9647218349571
 31
0.0
  0
LINE
  5
211
330
6A
100
AcDbEntity
  8
0
  6
Continuous
 62
     7
100
AcDbLine
 10
-1046.136916384273
 20
-954.4194101356305
 30
0.0
 11
-1046.490474304009
 21
-954.7729680553672
 31
0.0
  0
LINE
  5
212
330
6A
100
AcDbEntity
  8
0
  6
Continuous
 62
     7
100
AcDbLine
 10
-1092.622200684009
 20
-954.7729655153679
 30
0.0
 11
-1092.97575906856
 21
-954.4194071308165
 31
0.0
  0
LINE
  5
213
330
6A
100
AcDbEntity
  8
0
  6
Continuous
 62
     7
100
AcDbLine
 10
-1092.97575906856
 20
-954.4194071308165
 30
0.0
 11
-1093.556334211509
 21
-955.0000026232591
 31
0.0
  0
LINE
  5
214
330
6A
100
AcDbEntity
  8
0
  6
Continuous
 62
     7
100
AcDbLine
 10
-1044.736336281785
 20
-954.9999980153672
 30
0.0
 11
-1045.556342844288
 21
-954.9999980153672
 31
0.0
  0
LINE
  5
215
330
6A
100
AcDbEntity
  8
0
  6
Continuous
 62
     7
100
AcDbLine
 10
-1044.736336284828
 20
-955.5000815300147
 30
0.0
 11
-1044.736336281785
 21
-954.9999980153672
 31
0.0
  0
LINE
  5
216
330
6A
100
AcDbEntity
  8
0
  6
Continuous
 62
     7
100
AcDbLine
 10
-1044.736336303688
 20
-958.6000839219059
 30
0.0
 11
-1044.736336284828
 21
-955.5000815300147
 31
0.0
  0
LINE
  5
217
330
6A
100
AcDbEntity
  8
0
  6
Continuous
 62
     7
100
AcDbLine
 10
-1047.556334504009
 20
-989.0000014553672
 30
0.0
 11
-1044.556335424009
 21
-989.0000014553672
 31
0.0
  0
LINE
  5
218
330
6A
100
AcDbEntity
  8
0
  6
Continuous
 62
     7
100
AcDbLine
 10
-1054.975755784009
 20
-945.5805810553671
 30
0.0
 11
-1055.556338824009
 21
-944.9999980153672
 31
0.0
  0
LINE
  5
219
330
6A
100
AcDbEntity
  8
0
  6
Continuous
 62
     7
100
AcDbLine
 10
-1047.556334504009
 20
-989.0000014553672
 30
0.0
 11
-1051.956335864009
 21
-984.6000000953672
 31
0.0
  0
LINE
  5
21A
330
6A
100
AcDbEntity
  8
0
  6
Continuous
 62
     7
100
AcDbLine
 10
-1044.556335424009
 20
-989.0000014553672
 30
0.0
 11
-1044.556335424009
 21
-974.584550139523
 31
0.0
  0
LINE
  5
21B
330
6A
100
AcDbEntity
  8
0
  6
Continuous
 62
     7
100
AcDbLine
 10
-1064.256336664009
 20
-946.0000031071274
 30
0.0
 11
-1065.25633466401
 21
-946.176320803607
 31
0.0
  0
LINE
  5
21C
330
6A
100
AcDbEntity
  8
0
  6
Continuous
 62
     7
100
AcDbLine
 10
-1065.25633466401
 20
-944.9999980153672
 30
0.0
 11
-1065.25633466401
 21
-946.176320803607
 31
0.0
  0
LINE
  5
21D
330
6A
100
AcDbEntity
  8
0
  6
Continuous
 62
     7
100
AcDbLine
 10
-1055.329308544009
 20
-945.9341338153672
 30
0.0
 11
-1054.975755784009
 21
-945.5805810553671
 31
0.0
  0
LINE
  5
21E
330
6A
100
AcDbEntity
  8
0
  6
Continuous
 62
     7
100
AcDbLine
 10
-1084.136916664009
 20
-945.5805810553672
 30
0.0
 11
-1083.783363904009
 21
-945.9341338153672
 31
0.0
  0
LINE
  5
21F
330
6A
100
AcDbEntity
  8
0
  6
Continuous
 62
     7
100
AcDbLine
 10
-1045.556342844288
 20
-954.9999980153672
 30
0.0
 11
-1046.136916384273
 21
-954.4194101356305
 31
0.0
  0
LINE
  5
220
330
6A
100
AcDbEntity
  8
0
  6
Continuous
 62
     7
100
AcDbLine
 10
-1051.956335864009
 20
-984.6000000953672
 30
0.0
 11
-1087.156336584009
 21
-984.6000000953672
 31
0.0
  0
LINE
  5
221
330
6A
100
AcDbEntity
  8
0
  6
Continuous
 62
     7
100
AcDbLine
 10
-1083.556333624009
 20
-944.9999980153672
 30
0.0
 11
-1084.136916664009
 21
-945.5805810553672
 31
0.0
  0
LINE
  5
222
330
6A
100
AcDbEntity
  8
0
  6
Continuous
 62
     7
100
AcDbLine
 10
-1055.556338824009
 20
-944.9999980153672
 30
0.0
 11
-1065.25633466401
 21
-944.9999980153672
 31
0.0
  0
LINE
  5
223
330
6A
100
AcDbEntity
  8
0
  6
Continuous
 62
     7
100
AcDbLine
 10
-1073.856337784009
 20
-944.9999980153672
 30
0.0
 11
-1083.556333624009
 21
-944.9999980153672
 31
0.0
  0
LINE
  5
224
330
6A
100
AcDbEntity
  8
0
  6
Continuous
 62
     7
100
AcDbLine
 10
-1094.556337024009
 20
-974.0717983087804
 30
0.0
 11
-1094.556337024009
 21
-989.0000014553672
 31
0.0
  0
LINE
  5
225
330
6A
100
AcDbEntity
  8
0
  6
Continuous
 62
     7
100
AcDbLine
 10
-1094.556337024009
 20
-989.0000014553672
 30
0.0
 11
-1091.556337944009
 21
-989.0000014553672
 31
0.0
  0
LINE
  5
226
330
6A
100
AcDbEntity
  8
0
  6
Continuous
 62
     7
100
AcDbLine
 10
-1073.856337784009
 20
-946.176320803607
 30
0.0
 11
-1074.856336940416
 21
-946.000002903232
 31
0.0
  0
LINE
  5
227
330
6A
100
AcDbEntity
  8
0
  6
Continuous
 62
     7
100
AcDbLine
 10
-1073.856337784009
 20
-944.9999980153672
 30
0.0
 11
-1073.856337784009
 21
-946.176320803607
 31
0.0
  0
LINE
  5
228
330
6A
100
AcDbEntity
  8
0
  6
Continuous
 62
     7
100
AcDbLine
 10
-1074.856336940416
 20
-946.000002903232
 30
0.0
 11
-1074.856335668369
 21
-951.5000002553672
 31
0.0
  0
LINE
  5
229
330
6A
100
AcDbEntity
  8
0
  6
Continuous
 62
     7
100
AcDbLine
 10
-1092.622200684009
 20
-954.7729655153679
 30
0.0
 11
-1083.783363904009
 21
-945.9341338153672
 31
0.0
  0
LINE
  5
22A
330
6A
100
AcDbEntity
  8
0
  6
Continuous
 62
     7
100
AcDbLine
 10
-1090.556342213286
 20
-972.9999971530364
 30
0.0
 11
-1090.556334864009
 21
-960.1961525353672
 31
0.0
  0
LINE
  5
22B
330
6A
100
AcDbEntity
  8
0
  6
Continuous
 62
     7
100
AcDbLine
 10
-1090.556342213286
 20
-972.9999971530364
 30
0.0
 11
-1094.556337024009
 21
-974.0717983087804
 31
0.0
  0
LINE
  5
22C
330
6A
100
AcDbEntity
  8
0
  6
Continuous
 62
     7
100
AcDbLine
 10
-1087.156336584009
 20
-984.6000000953672
 30
0.0
 11
-1091.556337944009
 21
-989.0000014553672
 31
0.0
  0
LINE
  5
22D
330
6A
100
AcDbEntity
  8
0
  6
Continuous
 62
     7
100
AcDbLine
 10
-1074.856335668369
 20
-951.5000002553672
 30
0.0
 11
-1064.256336664009
 21
-951.5000002553672
 31
0.0
  0
LINE
  5
22E
330
6A
100
AcDbEntity
  8
0
  6
Continuous
 62
     7
100
AcDbLine
 10
-1093.556334211509
 20
-955.0000026232591
 30
0.0
 11
-1090.556334864009
 21
-960.1961525353672
 31
0.0
  0
LINE
  5
22F
330
6A
100
AcDbEntity
  8
0
  6
Continuous
 62
     7
100
AcDbLine
 10
-1046.490474304009
 20
-954.7729680553672
 30
0.0
 11
-1055.329308544009
 21
-945.9341338153672
 31
0.0
  0
ARC
  5
230
330
6A
100
AcDbEntity
  8
0
  6
Continuous
 62
     7
100
AcDbCircle
 10
-1000.749999833493
 20
-973.9999980153672
 30
0.0
 40
4.0
100
AcDbArc
 50
270.0
 51
14.99999999999748
  0
ENDBLK
  5
6C
330
6A
100
AcDbEntity
  8
0
100
AcDbBlockEnd
  0
BLOCK
  5
6F
330
6D
100
AcDbEntity
  8
0
100
AcDbBlockBegin
  2
Vordans1
 70
     0
 10
-1045.6531685
 20
-967.0
 30
0.0
  3
Vordans1
  1

  0
INSERT
  5
6E
330
6D
100
AcDbEntity
  8
0
100
AcDbBlockReference
  2
AB_SKS_60-select__6
 10
-1094.556337024009
 20
-989.0000014553672
 30
0.0
  0
LINE
  5
231
330
6D
100
AcDbEntity
  8
1
  6
DOT_CENTER
 62
     2
100
AcDbLine
 10
-1069.556328889274
 20
-980.8110155659045
 30
0.0
 11
-1069.556327068946
 21
-988.6816342342607
 31
0.0
  0
MTEXT
  5
232
330
6D
100
AcDbEntity
  8
1
 62
     6
100
AcDbMText
 10
-1045.6531685
 20
-994.0000014305115
 30
0.0
 40
5.0
 41
0.0
 71
     2
 72
     1
  1
 
  7
CONVERTER_11
 73
     1
 44
1.32052821128451
  0
DIMENSION
  5
23D
330
6D
100
AcDbEntity
  8
1
100
AcDbDimension
  2
*D18
 10
-1087.15633658401
 20
-998.6816342342607
 30
0.0
 11
-1077.88134356214
 21
-995.2566342342608
 31
0.0
 70
    32
  1
<>
 71
     5
 42
-1.0
 53
0.00013888888889
  3
ME10_DIM_11
100
AcDbAlignedDimension
 13
-1069.556327068946
 23
-988.6816342342607
 33
0.0
 14
-1087.156336584009
 24
-984.6000000953672
 34
0.0
100
AcDbRotatedDimension
  0
DIMENSION
  5
248
330
6D
100
AcDbEntity
  8
1
100
AcDbDimension
  2
*D19
 10
-1094.55633702401
 20
-1007.62552558616
 30
0.0
 11
-1081.96240511718
 21
-1004.37552558616
 31
0.0
 70
    32
  1
<>
 71
     5
 42
-1.0
 53
0.00013888888889
  3
ME10_DIM_12
100
AcDbAlignedDimension
 13
-1069.556328889274
 23
-980.8110155659045
 33
0.0
 14
-1094.556337024009
 24
-974.0717983087804
 34
0.0
100
AcDbRotatedDimension
  0
DIMENSION
  5
253
330
6D
100
AcDbEntity
  8
1
100
AcDbDimension
  2
*D20
 10
-1102.622200684009
 20
-984.6000000953672
 30
0.0
 11
-1106.047200684009
 21
-965.206862429457
 31
0.0
 70
    32
  1
<>
 71
     5
 42
-1.0
 53
90.0
  3
ME10_DIM_13
100
AcDbAlignedDimension
 13
-1073.856337784009
 23
-944.9999980153672
 33
0.0
 14
-1087.156336584009
 24
-984.6000000953672
 34
0.0
 50
90.0
100
AcDbRotatedDimension
  0
DIMENSION
  5
25E
330
6D
100
AcDbEntity
  8
1
100
AcDbDimension
  2
*D21
 10
-1109.39230695883
 20
-989.0000014553672
 30
0.0
 11
-1112.64230695883
 21
-965.206862429457
 31
0.0
 70
    32
  1
<>
 71
     5
 42
-1.0
 53
90.0
  3
ME10_DIM_14
100
AcDbAlignedDimension
 13
-1073.856337784009
 23
-944.9999980153672
 33
0.0
 14
-1091.556337944009
 24
-989.0000014553672
 34
0.0
 50
90.0
100
AcDbRotatedDimension
  0
INSERT
  5
268
330
6D
100
AcDbEntity
  8
1
100
AcDbBlockReference
  2
*D22
 10
0.0
 20
0.0
 30
0.0
  0
ENDBLK
  5
70
330
6D
100
AcDbEntity
  8
0
100
AcDbBlockEnd
  0
BLOCK
  5
72
330
71
100
AcDbEntity
  8
0
100
AcDbBlockBegin
  2
_rahmen
 70
     0
 10
-787.5571504920129
 20
-1182.667580201386
 30
0.0
  3
_rahmen
  1

  0
LINE
  5
269
330
71
100
AcDbEntity
  8
1
  6
DOT_CENTER
 62
     2
100
AcDbLine
 10
-913.1153001322003
 20
-1156.542580201387
 30
0.0
 11
-907.6153001322003
 21
-1156.542580201387
 31
0.0
  0
LINE
  5
26A
330
71
100
AcDbEntity
  8
1
  6
PHANTOM
 62
     2
100
AcDbLine
 10
-904.3653001322003
 20
-1153.792580201387
 30
0.0
 11
-904.3653001322003
 21
-1159.292580201387
 31
0.0
  0
LINE
  5
26B
330
71
100
AcDbEntity
  8
1
  6
PHANTOM
 62
     2
100
AcDbLine
 10
-901.6153001322003
 20
-1156.542580201387
 30
0.0
 11
-907.1153001322003
 21
-1156.542580201387
 31
0.0
  0
LINE
  5
26C
330
71
100
AcDbEntity
  8
1
  6
Continuous
 62
     6
100
AcDbLine
 10
-917.1019550187629
 20
-1152.167580201387
 30
0.0
 11
-787.5571504920111
 21
-1152.167580201387
 31
0.0
  0
LINE
  5
26D
330
71
100
AcDbEntity
  8
1
  6
Continuous
 62
     7
100
AcDbLine
 10
-898.9019550187629
 20
-1173.417580201387
 30
0.0
 11
-880.7019550187629
 21
-1173.417580201387
 31
0.0
  0
LINE
  5
26E
330
71
100
AcDbEntity
  8
1
  6
Continuous
 62
     6
100
AcDbLine
 10
-898.9019550187629
 20
-1177.667580201387
 30
0.0
 11
-917.1019550187629
 21
-1177.667580201387
 31
0.0
  0
LINE
  5
26F
330
71
100
AcDbEntity
  8
1
  6
Continuous
 62
     7
100
AcDbLine
 10
-898.9019550187629
 20
-1173.417580201387
 30
0.0
 11
-898.9019550187629
 21
-1177.667580201387
 31
0.0
  0
LINE
  5
270
330
71
100
AcDbEntity
  8
1
  6
Continuous
 62
     7
100
AcDbLine
 10
-880.7019550187629
 20
-1173.417580201387
 30
0.0
 11
-880.7019550187629
 21
-1177.667580201387
 31
0.0
  0
LINE
  5
271
330
71
100
AcDbEntity
  8
1
  6
Continuous
 62
     7
100
AcDbLine
 10
-917.1019550187629
 20
-1173.417580201387
 30
0.0
 11
-917.1019550187629
 21
-1177.667580201387
 31
0.0
  0
LINE
  5
272
330
71
100
AcDbEntity
  8
1
  6
Continuous
 62
     7
100
AcDbLine
 10
-917.1019550187629
 20
-1173.417580201387
 30
0.0
 11
-898.9019550187629
 21
-1173.417580201387
 31
0.0
  0
LINE
  5
273
330
71
100
AcDbEntity
  8
1
  6
Continuous
 62
     2
100
AcDbLine
 10
-907.8653001322003
 20
-1154.042580201387
 30
0.0
 11
-907.8653001322003
 21
-1159.042580201387
 31
0.0
  0
LINE
  5
274
330
71
100
AcDbEntity
  8
1
  6
Continuous
 62
     2
100
AcDbLine
 10
-907.8653001322003
 20
-1159.042580201387
 30
0.0
 11
-912.8653001322003
 21
-1157.792580201387
 31
0.0
  0
LINE
  5
275
330
71
100
AcDbEntity
  8
1
  6
Continuous
 62
     2
100
AcDbLine
 10
-912.8653001322003
 20
-1157.792580201387
 30
0.0
 11
-912.8653001322003
 21
-1155.292580201387
 31
0.0
  0
LINE
  5
276
330
71
100
AcDbEntity
  8
1
  6
Continuous
 62
     2
100
AcDbLine
 10
-912.8653001322003
 20
-1155.292580201387
 30
0.0
 11
-907.8653001322003
 21
-1154.042580201387
 31
0.0
  0
LINE
  5
277
330
71
100
AcDbEntity
  8
1
  6
Continuous
 62
     6
100
AcDbLine
 10
-787.5571504920111
 20
-1160.667580201387
 30
0.0
 11
-787.5571504920116
 21
-1169.167580201387
 31
0.0
  0
LINE
  5
278
330
71
100
AcDbEntity
  8
1
  6
Continuous
 62
     6
100
AcDbLine
 10
-880.7019550187629
 20
-1177.667580201387
 30
0.0
 11
-881.0571504920129
 21
-1177.667580201387
 31
0.0
  0
LINE
  5
279
330
71
100
AcDbEntity
  8
1
  6
Continuous
 62
     7
100
AcDbLine
 10
-880.7019550187629
 20
-1160.667580201387
 30
0.0
 11
-880.7019550187629
 21
-1173.417580201387
 31
0.0
  0
LINE
  5
27A
330
71
100
AcDbEntity
  8
1
  6
Continuous
 62
     7
100
AcDbLine
 10
-917.1019550187629
 20
-1160.667580201387
 30
0.0
 11
-917.1019550187629
 21
-1173.417580201387
 31
0.0
  0
LINE
  5
27B
330
71
100
AcDbEntity
  8
1
  6
Continuous
 62
     6
100
AcDbLine
 10
-880.7019550187629
 20
-1177.667580201387
 30
0.0
 11
-831.0571504920129
 21
-1177.667580201387
 31
0.0
  0
LINE
  5
27C
330
71
100
AcDbEntity
  8
1
  6
Continuous
 62
     6
100
AcDbLine
 10
-787.557150492013
 20
-1177.667580201387
 30
0.0
 11
-787.5571504920116
 21
-1169.167580201387
 31
0.0
  0
LINE
  5
27D
330
71
100
AcDbEntity
  8
1
  6
Continuous
 62
     6
100
AcDbLine
 10
-917.1019550187629
 20
-1160.667580201387
 30
0.0
 11
-880.7019550187629
 21
-1160.667580201387
 31
0.0
  0
LINE
  5
27E
330
71
100
AcDbEntity
  8
1
  6
Continuous
 62
     6
100
AcDbLine
 10
-881.0571504920129
 20
-1177.667580201387
 30
0.0
 11
-898.9019550187629
 21
-1177.667580201387
 31
0.0
  0
LINE
  5
27F
330
71
100
AcDbEntity
  8
1
  6
Continuous
 62
     6
100
AcDbLine
 10
-831.0571504920129
 20
-1177.667580201387
 30
0.0
 11
-787.557150492013
 21
-1177.667580201387
 31
0.0
  0
LINE
  5
280
102
{ACAD_REACTORS
330
3AE
330
3AF
102
}
330
71
100
AcDbEntity
  8
0
  6
Continuous
 62
     2
100
AcDbLine
 10
-909.587329076616
 20
-1165.595065445174
 30
0.0
 11
-909.587329076616
 21
-1164.989530156668
 31
0.0
  0
LINE
  5
281
102
{ACAD_REACTORS
330
3AE
330
3AF
102
}
330
71
100
AcDbEntity
  8
0
  6
Continuous
 62
     2
100
AcDbLine
 10
-909.587329076616
 20
-1168.395200051806
 30
0.0
 11
-909.587329076616
 21
-1167.813348645111
 31
0.0
  0
LINE
  5
282
102
{ACAD_REACTORS
330
3B0
330
3B1
102
}
330
71
100
AcDbEntity
  8
0
  6
Continuous
 62
     2
100
AcDbLine
 10
-886.957842641137
 20
-1168.105535983683
 30
0.0
 11
-886.957842641137
 21
-1170.37408020137
 31
0.0
  0
LINE
  5
283
102
{ACAD_REACTORS
330
3B0
330
3B1
102
}
330
71
100
AcDbEntity
  8
0
  6
Continuous
 62
     2
100
AcDbLine
 10
-888.3388964201245
 20
-1167.32027067756
 30
0.0
 11
-884.9539509014958
 21
-1167.320270677559
 31
0.0
  0
LINE
  5
284
102
{ACAD_REACTORS
330
3B0
330
3B1
102
}
330
71
100
AcDbEntity
  8
0
  6
Continuous
 62
     2
100
AcDbLine
 10
-884.9539509014958
 20
-1168.105535983683
 30
0.0
 11
-884.9539509014958
 21
-1167.320270677559
 31
0.0
  0
LINE
  5
285
102
{ACAD_REACTORS
330
3B0
330
3B1
102
}
330
71
100
AcDbEntity
  8
0
  6
Continuous
 62
     2
100
AcDbLine
 10
-885.7650499389692
 20
-1168.105535983683
 30
0.0
 11
-884.9539509014958
 21
-1168.105535983683
 31
0.0
  0
LINE
  5
286
102
{ACAD_REACTORS
330
3B0
330
3B1
102
}
330
71
100
AcDbEntity
  8
0
  6
Continuous
 62
     2
100
AcDbLine
 10
-885.7650499389692
 20
-1170.37408020137
 30
0.0
 11
-885.7650499389692
 21
-1168.105535983683
 31
0.0
  0
LINE
  5
287
102
{ACAD_REACTORS
330
3B0
330
3B1
102
}
330
71
100
AcDbEntity
  8
0
  6
Continuous
 62
     2
100
AcDbLine
 10
-886.957842641137
 20
-1170.37408020137
 30
0.0
 11
-885.7650499389692
 21
-1170.37408020137
 31
0.0
  0
LINE
  5
288
102
{ACAD_REACTORS
330
3A6
330
3A7
102
}
330
71
100
AcDbEntity
  8
0
  6
Continuous
 62
     2
100
AcDbLine
 10
-887.6544335792014
 20
-1163.961080201385
 30
0.0
 11
-889.0571577969506
 21
-1163.961080201385
 31
0.0
  0
LINE
  5
289
102
{ACAD_REACTORS
330
3A6
330
3A7
102
}
330
71
100
AcDbEntity
  8
0
  6
Continuous
 62
     2
100
AcDbLine
 10
-887.6544335792014
 20
-1163.961080201385
 30
0.0
 11
-887.0532660573095
 21
-1164.64090352294
 31
0.0
  0
LINE
  5
28A
102
{ACAD_REACTORS
330
3A6
330
3A7
102
}
330
71
100
AcDbEntity
  8
0
  6
Continuous
 62
     2
100
AcDbLine
 10
-887.0532660573095
 20
-1164.64090352294
 30
0.0
 11
-886.4520985354168
 21
-1163.961080201385
 31
0.0
  0
LINE
  5
28B
102
{ACAD_REACTORS
330
3A6
330
3A7
102
}
330
71
100
AcDbEntity
  8
0
  6
Continuous
 62
     2
100
AcDbLine
 10
-886.3519039484361
 20
-1165.434030731421
 30
0.0
 11
-885.0493743176695
 21
-1163.961080201385
 31
0.0
  0
LINE
  5
28C
102
{ACAD_REACTORS
330
3A6
330
3A7
102
}
330
71
100
AcDbEntity
  8
0
  6
Continuous
 62
     2
100
AcDbLine
 10
-886.3519039484361
 20
-1165.434030731421
 30
0.0
 11
-884.9539509014958
 21
-1167.014889725196
 31
0.0
  0
LINE
  5
28D
102
{ACAD_REACTORS
330
3A6
330
3A7
102
}
330
71
100
AcDbEntity
  8
0
  6
Continuous
 62
     2
100
AcDbLine
 10
-886.3566751192441
 20
-1167.014889725196
 30
0.0
 11
-884.9539509014958
 21
-1167.014889725196
 31
0.0
  0
LINE
  5
28E
102
{ACAD_REACTORS
330
3A6
330
3A7
102
}
330
71
100
AcDbEntity
  8
0
  6
Continuous
 62
     2
100
AcDbLine
 10
-887.0532660573095
 20
-1166.227157939902
 30
0.0
 11
-886.3566751192441
 21
-1167.014889725196
 31
0.0
  0
LINE
  5
28F
102
{ACAD_REACTORS
330
3A4
330
3A5
102
}
330
71
100
AcDbEntity
  8
0
  6
Continuous
 62
     2
100
AcDbLine
 10
-890.5123648935933
 20
-1163.961080201385
 30
0.0
 11
-889.2718604833403
 21
-1163.961080201385
 31
0.0
  0
LINE
  5
290
102
{ACAD_REACTORS
330
3A4
330
3A5
102
}
330
71
100
AcDbEntity
  8
0
  6
Continuous
 62
     2
100
AcDbLine
 10
-889.2718604833403
 20
-1163.961080201385
 30
0.0
 11
-889.2718604833403
 21
-1167.014889725196
 31
0.0
  0
LINE
  5
291
102
{ACAD_REACTORS
330
3A4
330
3A5
102
}
330
71
100
AcDbEntity
  8
0
  6
Continuous
 62
     2
100
AcDbLine
 10
-890.5123648935933
 20
-1167.014889725196
 30
0.0
 11
-890.5123648935933
 21
-1163.961080201385
 31
0.0
  0
LINE
  5
292
102
{ACAD_REACTORS
330
3A2
330
3A3
102
}
330
71
100
AcDbEntity
  8
0
  6
Continuous
 62
     2
100
AcDbLine
 10
-891.9806749761308
 20
-1169.152556391846
 30
0.0
 11
-891.6805097389386
 21
-1168.384741425859
 31
0.0
  0
LINE
  5
293
102
{ACAD_REACTORS
330
3A2
330
3A3
102
}
330
71
100
AcDbEntity
  8
0
  6
Continuous
 62
     2
100
AcDbLine
 10
-892.4582105807517
 20
-1170.37408020137
 30
0.0
 11
-892.246730527276
 21
-1169.833119657153
 31
0.0
  0
LINE
  5
294
102
{ACAD_REACTORS
330
3A2
330
3A3
102
}
330
71
100
AcDbEntity
  8
0
  6
Continuous
 62
     2
100
AcDbLine
 10
-892.3007619440655
 20
-1167.320270677559
 30
0.0
 11
-893.6987149910046
 21
-1170.37408020137
 31
0.0
  0
LINE
  5
295
102
{ACAD_REACTORS
330
3A2
330
3A3
102
}
330
71
100
AcDbEntity
  8
0
  6
Continuous
 62
     2
100
AcDbLine
 10
-889.6623044868724
 20
-1170.37408020137
 30
0.0
 11
-890.9028088971262
 21
-1170.37408020137
 31
0.0
  0
LINE
  5
296
102
{ACAD_REACTORS
330
3A2
330
3A3
102
}
330
71
100
AcDbEntity
  8
0
  6
Continuous
 62
     2
100
AcDbLine
 10
-892.246730527276
 20
-1169.833119657153
 30
0.0
 11
-891.114288950602
 21
-1169.833119657153
 31
0.0
  0
LINE
  5
297
102
{ACAD_REACTORS
330
3A0
330
3A1
102
}
330
71
100
AcDbEntity
  8
0
  6
Continuous
 62
     2
100
AcDbLine
 10
-895.8562271301869
 20
-1168.105535983683
 30
0.0
 11
-895.0451280927123
 21
-1168.105535983683
 31
0.0
  0
LINE
  5
298
102
{ACAD_REACTORS
330
3A0
330
3A1
102
}
330
71
100
AcDbEntity
  8
0
  6
Continuous
 62
     2
100
AcDbLine
 10
-893.0412363530731
 20
-1167.320270677559
 30
0.0
 11
-895.8562271301869
 21
-1167.320270677559
 31
0.0
  0
LINE
  5
299
102
{ACAD_REACTORS
330
3A0
330
3A1
102
}
330
71
100
AcDbEntity
  8
0
  6
Continuous
 62
     2
100
AcDbLine
 10
-893.0412363530731
 20
-1168.105535983683
 30
0.0
 11
-893.0412363530731
 21
-1167.320270677559
 31
0.0
  0
LINE
  5
29A
102
{ACAD_REACTORS
330
3A0
330
3A1
102
}
330
71
100
AcDbEntity
  8
0
  6
Continuous
 62
     2
100
AcDbLine
 10
-893.8523353905458
 20
-1168.105535983683
 30
0.0
 11
-893.0412363530731
 21
-1168.105535983683
 31
0.0
  0
LINE
  5
29B
102
{ACAD_REACTORS
330
3A0
330
3A1
102
}
330
71
100
AcDbEntity
  8
0
  6
Continuous
 62
     2
100
AcDbLine
 10
-893.8523353905458
 20
-1170.37408020137
 30
0.0
 11
-893.8523353905458
 21
-1168.105535983683
 31
0.0
  0
LINE
  5
29C
102
{ACAD_REACTORS
330
39E
330
39F
102
}
330
71
100
AcDbEntity
  8
0
  6
Continuous
 62
     2
100
AcDbLine
 10
-893.1842205464478
 20
-1167.014889725196
 30
0.0
 11
-893.1842205464478
 21
-1165.706114214991
 31
0.0
  0
LINE
  5
29D
102
{ACAD_REACTORS
330
39E
330
39F
102
}
330
71
100
AcDbEntity
  8
0
  6
Continuous
 62
     2
100
AcDbLine
 10
-894.3770132486143
 20
-1163.961080201385
 30
0.0
 11
-894.3770132486143
 21
-1167.014889725196
 31
0.0
  0
LINE
  5
29E
102
{ACAD_REACTORS
330
39E
330
39F
102
}
330
71
100
AcDbEntity
  8
0
  6
Continuous
 62
     2
100
AcDbLine
 10
-893.1842205464478
 20
-1163.961080201385
 30
0.0
 11
-894.3770132486143
 21
-1163.961080201385
 31
0.0
  0
LINE
  5
29F
102
{ACAD_REACTORS
330
39E
330
39F
102
}
330
71
100
AcDbEntity
  8
0
  6
Continuous
 62
     2
100
AcDbLine
 10
-891.9437161361938
 20
-1163.961080201385
 30
0.0
 11
-891.9437161361938
 21
-1165.26985571159
 31
0.0
  0
LINE
  5
2A0
102
{ACAD_REACTORS
330
39C
330
39D
102
}
330
71
100
AcDbEntity
  8
0
  6
Continuous
 62
     2
100
AcDbLine
 10
-899.6254520690339
 20
-1167.320270677559
 30
0.0
 11
-899.6254520690339
 21
-1170.37408020137
 31
0.0
  0
LINE
  5
2A1
102
{ACAD_REACTORS
330
39C
330
39D
102
}
330
71
100
AcDbEntity
  8
0
  6
Continuous
 62
     2
100
AcDbLine
 10
-898.4326593668663
 20
-1167.320270677559
 30
0.0
 11
-899.6254520690339
 21
-1167.320270677559
 31
0.0
  0
LINE
  5
2A2
102
{ACAD_REACTORS
330
39C
330
39D
102
}
330
71
100
AcDbEntity
  8
0
  6
Continuous
 62
     2
100
AcDbLine
 10
-897.1921549566134
 20
-1170.37408020137
 30
0.0
 11
-895.9993622544471
 21
-1170.37408020137
 31
0.0
  0
LINE
  5
2A3
102
{ACAD_REACTORS
330
39C
330
39D
102
}
330
71
100
AcDbEntity
  8
0
  6
Continuous
 62
     2
100
AcDbLine
 10
-899.6254520690339
 20
-1170.37408020137
 30
0.0
 11
-898.4326593668663
 21
-1170.37408020137
 31
0.0
  0
LINE
  5
2A4
102
{ACAD_REACTORS
330
3AC
330
3AD
102
}
330
71
100
AcDbEntity
  8
0
  6
Continuous
 62
     2
100
AcDbLine
 10
-895.9514996154749
 20
-1165.138978160569
 30
0.0
 11
-895.9514996154749
 21
-1164.659093806828
 31
0.0
  0
LINE
  5
2A5
102
{ACAD_REACTORS
330
3AC
330
3AD
102
}
330
71
100
AcDbEntity
  8
0
  6
Continuous
 62
     2
100
AcDbLine
 10
-894.6155717890472
 20
-1165.138978160569
 30
0.0
 11
-895.9514996154749
 21
-1165.138978160569
 31
0.0
  0
LINE
  5
2A6
102
{ACAD_REACTORS
330
3AC
330
3AD
102
}
330
71
100
AcDbEntity
  8
0
  6
Continuous
 62
     2
100
AcDbLine
 10
-894.6155717890472
 20
-1165.836991766012
 30
0.0
 11
-894.6155717890472
 21
-1165.138978160569
 31
0.0
  0
LINE
  5
2A7
102
{ACAD_REACTORS
330
3AC
330
3AD
102
}
330
71
100
AcDbEntity
  8
0
  6
Continuous
 62
     2
100
AcDbLine
 10
-895.9514996154749
 20
-1165.836991766012
 30
0.0
 11
-894.6155717890472
 21
-1165.836991766012
 31
0.0
  0
LINE
  5
2A8
102
{ACAD_REACTORS
330
39A
330
39B
102
}
330
71
100
AcDbEntity
  8
0
  6
Continuous
 62
     2
100
AcDbLine
 10
-899.4344543058018
 20
-1163.961080201385
 30
0.0
 11
-899.4344543058018
 21
-1167.014889725196
 31
0.0
  0
LINE
  5
2A9
102
{ACAD_REACTORS
330
39A
330
39B
102
}
330
71
100
AcDbEntity
  8
0
  6
Continuous
 62
     2
100
AcDbLine
 10
-899.4344543058018
 20
-1167.014889725196
 30
0.0
 11
-900.6272470079682
 21
-1167.014889725196
 31
0.0
  0
LINE
  5
2AA
102
{ACAD_REACTORS
330
39A
330
39B
102
}
330
71
100
AcDbEntity
  8
0
  6
Continuous
 62
     2
100
AcDbLine
 10
-900.6272470079682
 20
-1167.014889725196
 30
0.0
 11
-900.6272470079682
 21
-1165.880617616352
 31
0.0
  0
LINE
  5
2AB
102
{ACAD_REACTORS
330
39A
330
39B
102
}
330
71
100
AcDbEntity
  8
0
  6
Continuous
 62
     2
100
AcDbLine
 10
-901.6769045858756
 20
-1167.014889725196
 30
0.0
 11
-902.8696972880422
 21
-1167.014889725196
 31
0.0
  0
LINE
  5
2AC
102
{ACAD_REACTORS
330
39A
330
39B
102
}
330
71
100
AcDbEntity
  8
0
  6
Continuous
 62
     2
100
AcDbLine
 10
-902.8696972880422
 20
-1163.961080201385
 30
0.0
 11
-901.6769045858756
 21
-1163.961080201385
 31
0.0
  0
LINE
  5
2AD
102
{ACAD_REACTORS
330
39A
330
39B
102
}
330
71
100
AcDbEntity
  8
0
  6
Continuous
 62
     2
100
AcDbLine
 10
-901.6769045858756
 20
-1163.961080201385
 30
0.0
 11
-901.6769045858756
 21
-1165.02991353472
 31
0.0
  0
LINE
  5
2AE
102
{ACAD_REACTORS
330
39A
330
39B
102
}
330
71
100
AcDbEntity
  8
0
  6
Continuous
 62
     2
100
AcDbLine
 10
-901.6769045858756
 20
-1165.02991353472
 30
0.0
 11
-900.6272470079682
 21
-1165.02991353472
 31
0.0
  0
LINE
  5
2AF
102
{ACAD_REACTORS
330
3A8
330
3A9
102
}
330
71
100
AcDbEntity
  8
0
  6
Continuous
 62
     2
100
AcDbLine
 10
-904.825877319596
 20
-1164.624186046825
 30
0.0
 11
-904.5085822580539
 21
-1164.624186046825
 31
0.0
  0
LINE
  5
2B0
102
{ACAD_REACTORS
330
3A8
330
3A9
102
}
330
71
100
AcDbEntity
  8
0
  6
Continuous
 62
     2
100
AcDbLine
 10
-904.825877319596
 20
-1165.329913696167
 30
0.0
 11
-904.5085822580539
 21
-1165.329913696167
 31
0.0
  0
LINE
  5
2B1
102
{ACAD_REACTORS
330
3A8
330
3A9
102
}
330
71
100
AcDbEntity
  8
0
  6
Continuous
 62
     2
100
AcDbLine
 10
-906.0663817298499
 20
-1163.961080201385
 30
0.0
 11
-906.0663817298499
 21
-1167.014889725196
 31
0.0
  0
LINE
  5
2B2
102
{ACAD_REACTORS
330
3A8
330
3A9
102
}
330
71
100
AcDbEntity
  8
0
  6
Continuous
 62
     2
100
AcDbLine
 10
-906.0663817298499
 20
-1163.961080201385
 30
0.0
 11
-904.0671097318155
 21
-1163.961080201385
 31
0.0
  0
LINE
  5
2B3
102
{ACAD_REACTORS
330
3A8
330
3A9
102
}
330
71
100
AcDbEntity
  8
0
  6
Continuous
 62
     2
100
AcDbLine
 10
-904.825877319596
 20
-1166.071811484052
 30
0.0
 11
-904.0671097318155
 21
-1166.071811484052
 31
0.0
  0
LINE
  5
2B4
102
{ACAD_REACTORS
330
3AE
330
3AF
102
}
330
71
100
AcDbEntity
  8
0
  6
Continuous
 62
     2
100
AcDbLine
 10
-912.1628777631466
 20
-1164.98935268002
 30
0.0
 11
-912.1628777631466
 21
-1169.345807722737
 31
0.0
  0
LINE
  5
2B5
102
{ACAD_REACTORS
330
3AE
330
3AF
102
}
330
71
100
AcDbEntity
  8
0
  6
Continuous
 62
     2
100
AcDbLine
 10
-911.847160840071
 20
-1164.673635756943
 30
0.0
 11
-910.3713275790615
 21
-1164.673635756943
 31
0.0
  0
LINE
  5
2B6
102
{ACAD_REACTORS
330
3AE
330
3AF
102
}
330
71
100
AcDbEntity
  8
0
  6
Continuous
 62
     2
100
AcDbLine
 10
-910.0556106559848
 20
-1165.59337729908
 30
0.0
 11
-910.0556106559848
 21
-1164.98935268002
 31
0.0
  0
LINE
  5
2B7
102
{ACAD_REACTORS
330
3AE
330
3AF
102
}
330
71
100
AcDbEntity
  8
0
  6
Continuous
 62
     2
100
AcDbLine
 10
-910.0556106559848
 20
-1169.345807722737
 30
0.0
 11
-910.0556106559848
 21
-1167.815036791205
 31
0.0
  0
LINE
  5
2B8
102
{ACAD_REACTORS
330
3AE
330
3AF
102
}
330
71
100
AcDbEntity
  8
0
  6
Continuous
 62
     2
100
AcDbLine
 10
-906.9677434261006
 20
-1170.37408020137
 30
0.0
 11
-912.4410555168175
 21
-1170.37408020137
 31
0.0
  0
LINE
  5
2B9
102
{ACAD_REACTORS
330
3AE
330
3AF
102
}
330
71
100
AcDbEntity
  8
0
  6
Continuous
 62
     2
100
AcDbLine
 10
-906.5434988107168
 20
-1164.385324816787
 30
0.0
 11
-906.5434988107168
 21
-1169.949835585987
 31
0.0
  0
LINE
  5
2BA
102
{ACAD_REACTORS
330
3AE
330
3AF
102
}
330
71
100
AcDbEntity
  8
0
  6
Continuous
 62
     2
100
AcDbLine
 10
-912.4410555168175
 20
-1163.961080201403
 30
0.0
 11
-906.9677434261006
 21
-1163.961080201403
 31
0.0
  0
LINE
  5
2BB
102
{ACAD_REACTORS
330
3AE
330
3AF
102
}
330
71
100
AcDbEntity
  8
0
  6
Continuous
 62
     2
100
AcDbLine
 10
-912.8653001322003
 20
-1164.385324816787
 30
0.0
 11
-912.8653001322003
 21
-1169.949835585987
 31
0.0
  0
LINE
  5
2BC
102
{ACAD_REACTORS
330
3AE
330
3AF
102
}
330
71
100
AcDbEntity
  8
0
  6
Continuous
 62
     2
100
AcDbLine
 10
-910.3713275790615
 20
-1169.661524645813
 30
0.0
 11
-911.847160840071
 21
-1169.661524645813
 31
0.0
  0
LINE
  5
2BD
102
{ACAD_REACTORS
330
3A8
330
3A9
102
}
330
71
100
AcDbEntity
  8
0
  6
Continuous
 62
     2
100
AcDbLine
 10
-904.825877319596
 20
-1167.014889725196
 30
0.0
 11
-904.825877319596
 21
-1166.071811484052
 31
0.0
  0
LINE
  5
2BE
102
{ACAD_REACTORS
330
3A8
330
3A9
102
}
330
71
100
AcDbEntity
  8
0
  6
Continuous
 62
     2
100
AcDbLine
 10
-906.0663817298499
 20
-1167.014889725196
 30
0.0
 11
-904.825877319596
 21
-1167.014889725196
 31
0.0
  0
LINE
  5
2BF
102
{ACAD_REACTORS
330
3A8
330
3A9
102
}
330
71
100
AcDbEntity
  8
0
  6
Continuous
 62
     2
100
AcDbLine
 10
-904.825877319596
 20
-1165.329913696167
 30
0.0
 11
-904.825877319596
 21
-1164.624186046825
 31
0.0
  0
LINE
  5
2C0
102
{ACAD_REACTORS
330
39A
330
39B
102
}
330
71
100
AcDbEntity
  8
0
  6
Continuous
 62
     2
100
AcDbLine
 10
-902.8696972880422
 20
-1163.961080201385
 30
0.0
 11
-902.8696972880422
 21
-1167.014889725196
 31
0.0
  0
LINE
  5
2C1
102
{ACAD_REACTORS
330
39A
330
39B
102
}
330
71
100
AcDbEntity
  8
0
  6
Continuous
 62
     2
100
AcDbLine
 10
-901.6769045858756
 20
-1165.880617616352
 30
0.0
 11
-901.6769045858756
 21
-1167.014889725196
 31
0.0
  0
LINE
  5
2C2
102
{ACAD_REACTORS
330
39A
330
39B
102
}
330
71
100
AcDbEntity
  8
0
  6
Continuous
 62
     2
100
AcDbLine
 10
-900.6272470079682
 20
-1165.880617616352
 30
0.0
 11
-901.6769045858756
 21
-1165.880617616352
 31
0.0
  0
LINE
  5
2C3
102
{ACAD_REACTORS
330
39A
330
39B
102
}
330
71
100
AcDbEntity
  8
0
  6
Continuous
 62
     2
100
AcDbLine
 10
-900.6272470079682
 20
-1163.961080201385
 30
0.0
 11
-899.4344543058018
 21
-1163.961080201385
 31
0.0
  0
LINE
  5
2C4
102
{ACAD_REACTORS
330
39A
330
39B
102
}
330
71
100
AcDbEntity
  8
0
  6
Continuous
 62
     2
100
AcDbLine
 10
-900.6272470079682
 20
-1165.02991353472
 30
0.0
 11
-900.6272470079682
 21
-1163.961080201385
 31
0.0
  0
LINE
  5
2C5
102
{ACAD_REACTORS
330
3AC
330
3AD
102
}
330
71
100
AcDbEntity
  8
0
  6
Continuous
 62
     2
100
AcDbLine
 10
-894.6155717890472
 20
-1164.659093806828
 30
0.0
 11
-894.6155717890472
 21
-1163.961080201385
 31
0.0
  0
LINE
  5
2C6
102
{ACAD_REACTORS
330
3AC
330
3AD
102
}
330
71
100
AcDbEntity
  8
0
  6
Continuous
 62
     2
100
AcDbLine
 10
-897.7658915128281
 20
-1163.961080201385
 30
0.0
 11
-894.6155717890472
 21
-1163.961080201385
 31
0.0
  0
LINE
  5
2C7
102
{ACAD_REACTORS
330
3AC
330
3AD
102
}
330
71
100
AcDbEntity
  8
0
  6
Continuous
 62
     2
100
AcDbLine
 10
-897.7658915128281
 20
-1167.014889725196
 30
0.0
 11
-894.6155717890472
 21
-1167.014889725196
 31
0.0
  0
LINE
  5
2C8
102
{ACAD_REACTORS
330
3AC
330
3AD
102
}
330
71
100
AcDbEntity
  8
0
  6
Continuous
 62
     2
100
AcDbLine
 10
-894.6155717890472
 20
-1167.014889725196
 30
0.0
 11
-894.6155717890472
 21
-1166.316876119754
 31
0.0
  0
LINE
  5
2C9
102
{ACAD_REACTORS
330
3AC
330
3AD
102
}
330
71
100
AcDbEntity
  8
0
  6
Continuous
 62
     2
100
AcDbLine
 10
-894.6155717890472
 20
-1166.316876119754
 30
0.0
 11
-895.9514996154749
 21
-1166.316876119754
 31
0.0
  0
LINE
  5
2CA
102
{ACAD_REACTORS
330
3AC
330
3AD
102
}
330
71
100
AcDbEntity
  8
0
  6
Continuous
 62
     2
100
AcDbLine
 10
-895.9514996154749
 20
-1166.316876119754
 30
0.0
 11
-895.9514996154749
 21
-1165.836991766012
 31
0.0
  0
LINE
  5
2CB
102
{ACAD_REACTORS
330
3AC
330
3AD
102
}
330
71
100
AcDbEntity
  8
0
  6
Continuous
 62
     2
100
AcDbLine
 10
-895.9514996154749
 20
-1164.659093806828
 30
0.0
 11
-894.6155717890472
 21
-1164.659093806828
 31
0.0
  0
LINE
  5
2CC
102
{ACAD_REACTORS
330
39C
330
39D
102
}
330
71
100
AcDbEntity
  8
0
  6
Continuous
 62
     2
100
AcDbLine
 10
-898.4326593668663
 20
-1170.37408020137
 30
0.0
 11
-898.4326593668663
 21
-1169.065304691166
 31
0.0
  0
LINE
  5
2CD
102
{ACAD_REACTORS
330
39C
330
39D
102
}
330
71
100
AcDbEntity
  8
0
  6
Continuous
 62
     2
100
AcDbLine
 10
-898.4326593668663
 20
-1169.065304691166
 30
0.0
 11
-897.1921549566134
 21
-1170.37408020137
 31
0.0
  0
LINE
  5
2CE
102
{ACAD_REACTORS
330
39C
330
39D
102
}
330
71
100
AcDbEntity
  8
0
  6
Continuous
 62
     2
100
AcDbLine
 10
-895.9993622544471
 20
-1170.37408020137
 30
0.0
 11
-895.9993622544471
 21
-1167.320270677559
 31
0.0
  0
LINE
  5
2CF
102
{ACAD_REACTORS
330
39C
330
39D
102
}
330
71
100
AcDbEntity
  8
0
  6
Continuous
 62
     2
100
AcDbLine
 10
-895.9993622544471
 20
-1167.320270677559
 30
0.0
 11
-897.1921549566134
 21
-1167.320270677559
 31
0.0
  0
LINE
  5
2D0
102
{ACAD_REACTORS
330
39C
330
39D
102
}
330
71
100
AcDbEntity
  8
0
  6
Continuous
 62
     2
100
AcDbLine
 10
-897.1921549566134
 20
-1167.320270677559
 30
0.0
 11
-897.1921549566134
 21
-1168.629046187764
 31
0.0
  0
LINE
  5
2D1
102
{ACAD_REACTORS
330
39C
330
39D
102
}
330
71
100
AcDbEntity
  8
0
  6
Continuous
 62
     2
100
AcDbLine
 10
-897.1921549566134
 20
-1168.629046187764
 30
0.0
 11
-898.4326593668663
 21
-1167.320270677559
 31
0.0
  0
LINE
  5
2D2
102
{ACAD_REACTORS
330
39E
330
39F
102
}
330
71
100
AcDbEntity
  8
0
  6
Continuous
 62
     2
100
AcDbLine
 10
-893.1842205464478
 20
-1165.706114214991
 30
0.0
 11
-891.9437161361938
 21
-1167.014889725196
 31
0.0
  0
LINE
  5
2D3
102
{ACAD_REACTORS
330
39E
330
39F
102
}
330
71
100
AcDbEntity
  8
0
  6
Continuous
 62
     2
100
AcDbLine
 10
-891.9437161361938
 20
-1167.014889725196
 30
0.0
 11
-890.7509234340271
 21
-1167.014889725196
 31
0.0
  0
LINE
  5
2D4
102
{ACAD_REACTORS
330
39E
330
39F
102
}
330
71
100
AcDbEntity
  8
0
  6
Continuous
 62
     2
100
AcDbLine
 10
-890.7509234340271
 20
-1167.014889725196
 30
0.0
 11
-890.7509234340271
 21
-1163.961080201385
 31
0.0
  0
LINE
  5
2D5
102
{ACAD_REACTORS
330
39E
330
39F
102
}
330
71
100
AcDbEntity
  8
0
  6
Continuous
 62
     2
100
AcDbLine
 10
-890.7509234340271
 20
-1163.961080201385
 30
0.0
 11
-891.9437161361938
 21
-1163.961080201385
 31
0.0
  0
LINE
  5
2D6
102
{ACAD_REACTORS
330
39E
330
39F
102
}
330
71
100
AcDbEntity
  8
0
  6
Continuous
 62
     2
100
AcDbLine
 10
-891.9437161361938
 20
-1165.26985571159
 30
0.0
 11
-893.1842205464478
 21
-1163.961080201385
 31
0.0
  0
LINE
  5
2D7
102
{ACAD_REACTORS
330
39E
330
39F
102
}
330
71
100
AcDbEntity
  8
0
  6
Continuous
 62
     2
100
AcDbLine
 10
-894.3770132486143
 20
-1167.014889725196
 30
0.0
 11
-893.1842205464478
 21
-1167.014889725196
 31
0.0
  0
LINE
  5
2D8
102
{ACAD_REACTORS
330
3A0
330
3A1
102
}
330
71
100
AcDbEntity
  8
0
  6
Continuous
 62
     2
100
AcDbLine
 10
-895.8562271301869
 20
-1167.320270677559
 30
0.0
 11
-895.8562271301869
 21
-1168.105535983683
 31
0.0
  0
LINE
  5
2D9
102
{ACAD_REACTORS
330
3A0
330
3A1
102
}
330
71
100
AcDbEntity
  8
0
  6
Continuous
 62
     2
100
AcDbLine
 10
-895.0451280927123
 20
-1168.105535983683
 30
0.0
 11
-895.0451280927123
 21
-1170.37408020137
 31
0.0
  0
LINE
  5
2DA
102
{ACAD_REACTORS
330
3A0
330
3A1
102
}
330
71
100
AcDbEntity
  8
0
  6
Continuous
 62
     2
100
AcDbLine
 10
-895.0451280927123
 20
-1170.37408020137
 30
0.0
 11
-893.8523353905458
 21
-1170.37408020137
 31
0.0
  0
LINE
  5
2DB
102
{ACAD_REACTORS
330
3A2
330
3A3
102
}
330
71
100
AcDbEntity
  8
0
  6
Continuous
 62
     2
100
AcDbLine
 10
-890.9028088971262
 20
-1170.37408020137
 30
0.0
 11
-891.114288950602
 21
-1169.833119657153
 31
0.0
  0
LINE
  5
2DC
102
{ACAD_REACTORS
330
3A2
330
3A3
102
}
330
71
100
AcDbEntity
  8
0
  6
Continuous
 62
     2
100
AcDbLine
 10
-891.0602575338125
 20
-1167.320270677559
 30
0.0
 11
-889.6623044868724
 21
-1170.37408020137
 31
0.0
  0
LINE
  5
2DD
102
{ACAD_REACTORS
330
3A2
330
3A3
102
}
330
71
100
AcDbEntity
  8
0
  6
Continuous
 62
     2
100
AcDbLine
 10
-892.3007619440655
 20
-1167.320270677559
 30
0.0
 11
-891.0602575338125
 21
-1167.320270677559
 31
0.0
  0
LINE
  5
2DE
102
{ACAD_REACTORS
330
3A2
330
3A3
102
}
330
71
100
AcDbEntity
  8
0
  6
Continuous
 62
     2
100
AcDbLine
 10
-893.6987149910046
 20
-1170.37408020137
 30
0.0
 11
-892.4582105807517
 21
-1170.37408020137
 31
0.0
  0
LINE
  5
2DF
102
{ACAD_REACTORS
330
3A2
330
3A3
102
}
330
71
100
AcDbEntity
  8
0
  6
Continuous
 62
     2
100
AcDbLine
 10
-891.9806749761308
 20
-1169.152556391846
 30
0.0
 11
-891.3803445017484
 21
-1169.152556391846
 31
0.0
  0
LINE
  5
2E0
102
{ACAD_REACTORS
330
3A2
330
3A3
102
}
330
71
100
AcDbEntity
  8
0
  6
Continuous
 62
     2
100
AcDbLine
 10
-891.3803445017484
 20
-1169.152556391846
 30
0.0
 11
-891.6805097389386
 21
-1168.384741425859
 31
0.0
  0
LINE
  5
2E1
102
{ACAD_REACTORS
330
3A4
330
3A5
102
}
330
71
100
AcDbEntity
  8
0
  6
Continuous
 62
     2
100
AcDbLine
 10
-889.2718604833403
 20
-1167.014889725196
 30
0.0
 11
-890.5123648935933
 21
-1167.014889725196
 31
0.0
  0
LINE
  5
2E2
102
{ACAD_REACTORS
330
3A6
330
3A7
102
}
330
71
100
AcDbEntity
  8
0
  6
Continuous
 62
     2
100
AcDbLine
 10
-887.7498569953754
 20
-1167.014889725196
 30
0.0
 11
-889.1525812131234
 21
-1167.014889725196
 31
0.0
  0
LINE
  5
2E3
102
{ACAD_REACTORS
330
3A6
330
3A7
102
}
330
71
100
AcDbEntity
  8
0
  6
Continuous
 62
     2
100
AcDbLine
 10
-887.7498569953754
 20
-1167.014889725196
 30
0.0
 11
-887.0532660573095
 21
-1166.227157939902
 31
0.0
  0
LINE
  5
2E4
102
{ACAD_REACTORS
330
3A6
330
3A7
102
}
330
71
100
AcDbEntity
  8
0
  6
Continuous
 62
     2
100
AcDbLine
 10
-886.4520985354168
 20
-1163.961080201385
 30
0.0
 11
-885.0493743176695
 21
-1163.961080201385
 31
0.0
  0
LINE
  5
2E5
102
{ACAD_REACTORS
330
3A6
330
3A7
102
}
330
71
100
AcDbEntity
  8
0
  6
Continuous
 62
     2
100
AcDbLine
 10
-889.0571577969506
 20
-1163.961080201385
 30
0.0
 11
-887.7546281661831
 21
-1165.434030731421
 31
0.0
  0
LINE
  5
2E6
102
{ACAD_REACTORS
330
3A6
330
3A7
102
}
330
71
100
AcDbEntity
  8
0
  6
Continuous
 62
     2
100
AcDbLine
 10
-889.1525812131234
 20
-1167.014889725196
 30
0.0
 11
-887.7546281661831
 21
-1165.434030731421
 31
0.0
  0
LINE
  5
2E7
102
{ACAD_REACTORS
330
3B0
330
3B1
102
}
330
71
100
AcDbEntity
  8
0
  6
Continuous
 62
     2
100
AcDbLine
 10
-887.2918245977436
 20
-1169.327059793207
 30
0.0
 11
-887.2918245977436
 21
-1170.19957680001
 31
0.0
  0
LINE
  5
2E8
102
{ACAD_REACTORS
330
3B0
330
3B1
102
}
330
71
100
AcDbEntity
  8
0
  6
Continuous
 62
     2
100
AcDbLine
 10
-888.061481940705
 20
-1168.105535983683
 30
0.0
 11
-886.957842641137
 21
-1168.105535983683
 31
0.0
  0
LINE
  5
2E9
102
{ACAD_REACTORS
330
3B2
330
3B3
102
}
330
71
100
AcDbEntity
  8
0
  6
Continuous
 62
     2
100
AcDbLine
 10
-903.3945260769954
 20
-1169.327059793206
 30
0.0
 11
-903.3945260769954
 21
-1170.19957680001
 31
0.0
  0
LINE
  5
2EA
102
{ACAD_REACTORS
330
3B2
330
3B3
102
}
330
71
100
AcDbEntity
  8
0
  6
Continuous
 62
     2
100
AcDbLine
 10
-903.3945260769954
 20
-1168.367291085723
 30
0.0
 11
-903.3945260769954
 21
-1167.49477407892
 31
0.0
  0
LINE
  5
2EB
330
71
100
AcDbEntity
  8
1
  6
Continuous
 62
     7
100
AcDbLine
 10
-787.5571504920116
 20
-1169.167580201387
 30
0.0
 11
-880.7019550187629
 21
-1169.167580201387
 31
0.0
  0
LINE
  5
2EC
330
71
100
AcDbEntity
  8
1
  6
Continuous
 62
     7
100
AcDbLine
 10
-796.4755587736903
 20
-1152.167580201387
 30
0.0
 11
-796.4755587736903
 21
-1160.667580201387
 31
0.0
  0
LINE
  5
2ED
330
71
100
AcDbEntity
  8
1
  6
Continuous
 62
     7
100
AcDbLine
 10
-822.97555877369
 20
-1152.167580201387
 30
0.0
 11
-822.97555877369
 21
-1160.667580201387
 31
0.0
  0
LINE
  5
2EE
330
71
100
AcDbEntity
  8
1
  6
Continuous
 62
     7
100
AcDbLine
 10
-880.7019550187629
 20
-1160.667580201387
 30
0.0
 11
-880.7019550187629
 21
-1152.167580201387
 31
0.0
  0
LINE
  5
2EF
330
71
100
AcDbEntity
  8
1
  6
Continuous
 62
     7
100
AcDbLine
 10
-917.1019550187629
 20
-1160.667580201387
 30
0.0
 11
-917.1019550187629
 21
-1152.167580201387
 31
0.0
  0
LINE
  5
2F0
330
71
100
AcDbEntity
  8
1
  6
Continuous
 62
     6
100
AcDbLine
 10
-880.7019550187629
 20
-1160.667580201387
 30
0.0
 11
-787.5571504920111
 21
-1160.667580201387
 31
0.0
  0
LINE
  5
2F1
330
71
100
AcDbEntity
  8
1
  6
Continuous
 62
     7
100
AcDbLine
 10
-852.8019550187629
 20
-1169.167580201387
 30
0.0
 11
-852.8019550187629
 21
-1160.667580201387
 31
0.0
  0
LINE
  5
2F2
330
71
100
AcDbEntity
  8
1
  6
Continuous
 62
     6
100
AcDbLine
 10
-787.5571504920111
 20
-1160.667580201387
 30
0.0
 11
-787.5571504920111
 21
-1152.167580201387
 31
0.0
  0
LINE
  5
2F3
330
71
100
AcDbEntity
  8
1
  6
Continuous
 62
     2
100
AcDbLine
 10
-924.2238171586795
 20
-1177.667580201389
 30
0.0
 11
-924.2238171586795
 21
-1177.667580201386
 31
0.0
  0
LINE
  5
2F4
330
71
100
AcDbEntity
  8
1
  6
Continuous
 62
     6
100
AcDbLine
 10
-1060.890483825346
 20
-1177.667580201386
 30
0.0
 11
-917.1019550187629
 21
-1177.667580201389
 31
0.0
  0
LINE
  5
2F5
330
71
100
AcDbEntity
  8
1
  6
Continuous
 62
     6
100
AcDbLine
 10
-787.557150492013
 20
-1177.667580201387
 30
0.0
 11
-787.5571504920133
 21
-1169.167580201387
 31
0.0
  0
LINE
  5
2F6
330
71
100
AcDbEntity
  8
1
  6
Continuous
 62
     6
100
AcDbLine
 10
-1182.557150492013
 20
-1177.667580201386
 30
0.0
 11
-1182.557150492014
 21
-890.6675802013858
 31
0.0
  0
LINE
  5
2F7
330
71
100
AcDbEntity
  8
1
  6
Continuous
 62
     2
100
AcDbLine
 10
-1202.557150492014
 20
-1034.167580201386
 30
0.0
 11
-1202.557150492014
 21
-1182.667580201386
 31
0.0
  0
LINE
  5
2F8
330
71
100
AcDbEntity
  8
1
  6
Continuous
 62
     2
100
AcDbLine
 10
-1202.557150492014
 20
-1034.167580201386
 30
0.0
 11
-1192.557150492014
 21
-1034.167580201386
 31
0.0
  0
LINE
  5
2F9
330
71
100
AcDbEntity
  8
1
  6
Continuous
 62
     2
100
AcDbLine
 10
-1202.557150492014
 20
-885.667580201386
 30
0.0
 11
-1202.557150492014
 21
-1034.167580201386
 31
0.0
  0
LINE
  5
2FA
330
71
100
AcDbEntity
  8
1
  6
Continuous
 62
     2
100
AcDbLine
 10
-972.5571504920157
 20
-885.667580201386
 30
0.0
 11
-992.5571504920129
 21
-885.667580201386
 31
0.0
  0
LINE
  5
2FB
330
71
100
AcDbEntity
  8
1
  6
Continuous
 62
     2
100
AcDbLine
 10
-972.5571504920157
 20
-885.667580201386
 30
0.0
 11
-972.5571504920157
 21
-889.6675802013858
 31
0.0
  0
LINE
  5
2FC
330
71
100
AcDbEntity
  8
1
  6
Continuous
 62
     2
100
AcDbLine
 10
-1182.557150492014
 20
-885.667580201386
 30
0.0
 11
-1202.557150492014
 21
-885.667580201386
 31
0.0
  0
LINE
  5
2FD
330
71
100
AcDbEntity
  8
1
  6
Continuous
 62
     2
100
AcDbLine
 10
-1182.557150492014
 20
-885.667580201386
 30
0.0
 11
-1182.557150492014
 21
-889.6675802013858
 31
0.0
  0
LINE
  5
2FE
330
71
100
AcDbEntity
  8
1
  6
Continuous
 62
     2
100
AcDbLine
 10
-1129.22381715868
 20
-885.667580201386
 30
0.0
 11
-1182.557150492014
 21
-885.667580201386
 31
0.0
  0
LINE
  5
2FF
330
71
100
AcDbEntity
  8
1
  6
Continuous
 62
     6
100
AcDbLine
 10
-1129.22381715868
 20
-890.6675802013858
 30
0.0
 11
-1060.890483825346
 21
-890.667580201386
 31
0.0
  0
LINE
  5
300
330
71
100
AcDbEntity
  8
1
  6
Continuous
 62
     2
100
AcDbLine
 10
-1129.22381715868
 20
-890.6675802013858
 30
0.0
 11
-1129.22381715868
 21
-885.667580201386
 31
0.0
  0
LINE
  5
301
330
71
100
AcDbEntity
  8
1
  6
Continuous
 62
     2
100
AcDbLine
 10
-1060.890483825346
 20
-885.667580201386
 30
0.0
 11
-1129.22381715868
 21
-885.667580201386
 31
0.0
  0
LINE
  5
302
330
71
100
AcDbEntity
  8
1
  6
Continuous
 62
     6
100
AcDbLine
 10
-1060.890483825346
 20
-890.667580201386
 30
0.0
 11
-992.5571504920129
 21
-890.667580201386
 31
0.0
  0
LINE
  5
303
330
71
100
AcDbEntity
  8
1
  6
Continuous
 62
     2
100
AcDbLine
 10
-1060.890483825346
 20
-890.667580201386
 30
0.0
 11
-1060.890483825346
 21
-885.667580201386
 31
0.0
  0
LINE
  5
304
330
71
100
AcDbEntity
  8
1
  6
Continuous
 62
     2
100
AcDbLine
 10
-992.5571504920129
 20
-885.667580201386
 30
0.0
 11
-1060.890483825346
 21
-885.667580201386
 31
0.0
  0
LINE
  5
305
330
71
100
AcDbEntity
  8
1
  6
Continuous
 62
     6
100
AcDbLine
 10
-992.5571504920129
 20
-890.667580201386
 30
0.0
 11
-924.2238171586795
 21
-890.667580201386
 31
0.0
  0
LINE
  5
306
330
71
100
AcDbEntity
  8
1
  6
Continuous
 62
     2
100
AcDbLine
 10
-992.5571504920129
 20
-890.667580201386
 30
0.0
 11
-992.5571504920129
 21
-885.667580201386
 31
0.0
  0
LINE
  5
307
330
71
100
AcDbEntity
  8
1
  6
Continuous
 62
     2
100
AcDbLine
 10
-924.2238171586795
 20
-885.667580201386
 30
0.0
 11
-972.5571504920157
 21
-885.667580201386
 31
0.0
  0
LINE
  5
308
330
71
100
AcDbEntity
  8
1
  6
Continuous
 62
     6
100
AcDbLine
 10
-924.2238171586795
 20
-890.667580201386
 30
0.0
 11
-855.8904838253463
 21
-890.667580201386
 31
0.0
  0
LINE
  5
309
330
71
100
AcDbEntity
  8
1
  6
Continuous
 62
     2
100
AcDbLine
 10
-924.2238171586795
 20
-890.667580201386
 30
0.0
 11
-924.2238171586795
 21
-885.667580201386
 31
0.0
  0
LINE
  5
30A
330
71
100
AcDbEntity
  8
1
  6
Continuous
 62
     2
100
AcDbLine
 10
-855.8904838253463
 20
-885.667580201386
 30
0.0
 11
-924.2238171586795
 21
-885.667580201386
 31
0.0
  0
LINE
  5
30B
330
71
100
AcDbEntity
  8
1
  6
Continuous
 62
     6
100
AcDbLine
 10
-855.8904838253463
 20
-890.667580201386
 30
0.0
 11
-787.5571504920154
 21
-890.667580201386
 31
0.0
  0
LINE
  5
30C
330
71
100
AcDbEntity
  8
1
  6
Continuous
 62
     2
100
AcDbLine
 10
-855.8904838253463
 20
-890.667580201386
 30
0.0
 11
-855.8904838253463
 21
-885.667580201386
 31
0.0
  0
LINE
  5
30D
330
71
100
AcDbEntity
  8
1
  6
Continuous
 62
     2
100
AcDbLine
 10
-787.5571504920154
 20
-885.667580201386
 30
0.0
 11
-855.8904838253463
 21
-885.667580201386
 31
0.0
  0
LINE
  5
30E
330
71
100
AcDbEntity
  8
1
  6
Continuous
 62
     6
100
AcDbLine
 10
-1182.557150492014
 20
-890.6675802013858
 30
0.0
 11
-1129.22381715868
 21
-890.6675802013858
 31
0.0
  0
LINE
  5
30F
330
71
100
AcDbEntity
  8
1
  6
Continuous
 62
     6
100
AcDbLine
 10
-787.5571504920129
 20
-1062.867580201386
 30
0.0
 11
-787.557150492013
 21
-1120.267580201386
 31
0.0
  0
LINE
  5
310
330
71
100
AcDbEntity
  8
1
  6
Continuous
 62
     2
100
AcDbLine
 10
-787.5571504920129
 20
-1062.867580201386
 30
0.0
 11
-782.5571504920154
 21
-1062.867580201386
 31
0.0
  0
LINE
  5
311
330
71
100
AcDbEntity
  8
1
  6
Continuous
 62
     2
100
AcDbLine
 10
-782.5571504920154
 20
-1005.467580201386
 30
0.0
 11
-782.5571504920154
 21
-1062.867580201386
 31
0.0
  0
LINE
  5
312
330
71
100
AcDbEntity
  8
1
  6
Continuous
 62
     6
100
AcDbLine
 10
-787.5571504920129
 20
-1005.467580201386
 30
0.0
 11
-787.5571504920129
 21
-1062.867580201386
 31
0.0
  0
LINE
  5
313
330
71
100
AcDbEntity
  8
1
  6
Continuous
 62
     2
100
AcDbLine
 10
-787.5571504920129
 20
-1005.467580201386
 30
0.0
 11
-782.5571504920154
 21
-1005.467580201386
 31
0.0
  0
LINE
  5
314
330
71
100
AcDbEntity
  8
1
  6
Continuous
 62
     2
100
AcDbLine
 10
-782.5571504920154
 20
-948.0675802013861
 30
0.0
 11
-782.5571504920154
 21
-1005.467580201386
 31
0.0
  0
LINE
  5
315
330
71
100
AcDbEntity
  8
1
  6
Continuous
 62
     6
100
AcDbLine
 10
-787.5571504920149
 20
-948.0675802013861
 30
0.0
 11
-787.5571504920129
 21
-1005.467580201386
 31
0.0
  0
LINE
  5
316
330
71
100
AcDbEntity
  8
1
  6
Continuous
 62
     2
100
AcDbLine
 10
-787.5571504920149
 20
-948.0675802013861
 30
0.0
 11
-782.5571504920154
 21
-948.0675802013861
 31
0.0
  0
LINE
  5
317
330
71
100
AcDbEntity
  8
1
  6
Continuous
 62
     2
100
AcDbLine
 10
-782.5571504920154
 20
-890.667580201386
 30
0.0
 11
-782.5571504920154
 21
-948.0675802013861
 31
0.0
  0
LINE
  5
318
330
71
100
AcDbEntity
  8
1
  6
Continuous
 62
     2
100
AcDbLine
 10
-787.5571504920154
 20
-890.667580201386
 30
0.0
 11
-782.5571504920154
 21
-890.667580201386
 31
0.0
  0
LINE
  5
319
330
71
100
AcDbEntity
  8
1
  6
Continuous
 62
     2
100
AcDbLine
 10
-787.5571504920154
 20
-890.667580201386
 30
0.0
 11
-787.5571504920154
 21
-885.667580201386
 31
0.0
  0
LINE
  5
31A
330
71
100
AcDbEntity
  8
1
  6
Continuous
 62
     2
100
AcDbLine
 10
-782.5571504920154
 20
-885.667580201386
 30
0.0
 11
-782.5571504920154
 21
-890.667580201386
 31
0.0
  0
LINE
  5
31B
330
71
100
AcDbEntity
  8
1
  6
Continuous
 62
     6
100
AcDbLine
 10
-787.5571504920154
 20
-890.667580201386
 30
0.0
 11
-787.5571504920149
 21
-948.0675802013861
 31
0.0
  0
LINE
  5
31C
330
71
100
AcDbEntity
  8
1
  6
Continuous
 62
     2
100
AcDbLine
 10
-782.5571504920154
 20
-885.667580201386
 30
0.0
 11
-787.5571504920154
 21
-885.667580201386
 31
0.0
  0
LINE
  5
31D
330
71
100
AcDbEntity
  8
1
  6
Continuous
 62
     2
100
AcDbLine
 10
-782.5571504920154
 20
-1177.667580201386
 30
0.0
 11
-782.5571504920154
 21
-1120.267580201386
 31
0.0
  0
LINE
  5
31E
330
71
100
AcDbEntity
  8
1
  6
Continuous
 62
     2
100
AcDbLine
 10
-782.5571504920154
 20
-1177.667580201386
 30
0.0
 11
-782.5571504920154
 21
-1182.667580201386
 31
0.0
  0
LINE
  5
31F
330
71
100
AcDbEntity
  8
1
  6
Continuous
 62
     2
100
AcDbLine
 10
-782.5571504920154
 20
-1182.667580201386
 30
0.0
 11
-787.5571504920129
 21
-1182.667580201386
 31
0.0
  0
LINE
  5
320
330
71
100
AcDbEntity
  8
1
  6
Continuous
 62
     2
100
AcDbLine
 10
-924.2238171586795
 20
-1182.667580201386
 30
0.0
 11
-855.8904838253463
 21
-1182.667580201386
 31
0.0
  0
LINE
  5
321
330
71
100
AcDbEntity
  8
1
  6
Continuous
 62
     2
100
AcDbLine
 10
-972.5571504920157
 20
-1182.667580201386
 30
0.0
 11
-924.2238171586795
 21
-1182.667580201386
 31
0.0
  0
LINE
  5
322
330
71
100
AcDbEntity
  8
1
  6
Continuous
 62
     2
100
AcDbLine
 10
-972.5571504920157
 20
-1182.667580201386
 30
0.0
 11
-972.5571504920157
 21
-1178.667580201386
 31
0.0
  0
LINE
  5
323
330
71
100
AcDbEntity
  8
1
  6
Continuous
 62
     2
100
AcDbLine
 10
-972.5571504920157
 20
-1182.667580201386
 30
0.0
 11
-992.5571504920129
 21
-1182.667580201386
 31
0.0
  0
LINE
  5
324
330
71
100
AcDbEntity
  8
1
  6
Continuous
 62
     2
100
AcDbLine
 10
-1182.557150492014
 20
-1182.667580201386
 30
0.0
 11
-1129.22381715868
 21
-1182.667580201386
 31
0.0
  0
LINE
  5
325
330
71
100
AcDbEntity
  8
1
  6
Continuous
 62
     2
100
AcDbLine
 10
-1182.557150492014
 20
-1182.667580201386
 30
0.0
 11
-1182.557150492014
 21
-1178.667580201386
 31
0.0
  0
LINE
  5
326
330
71
100
AcDbEntity
  8
1
  6
Continuous
 62
     2
100
AcDbLine
 10
-1060.890483825346
 20
-1182.667580201386
 30
0.0
 11
-1060.890483825346
 21
-1177.667580201386
 31
0.0
  0
LINE
  5
327
330
71
100
AcDbEntity
  8
1
  6
Continuous
 62
     6
100
AcDbLine
 10
-1129.22381715868
 20
-1177.667580201386
 30
0.0
 11
-1182.557150492013
 21
-1177.667580201386
 31
0.0
  0
LINE
  5
328
330
71
100
AcDbEntity
  8
1
  6
Continuous
 62
     6
100
AcDbLine
 10
-1129.22381715868
 20
-1177.667580201386
 30
0.0
 11
-1060.890483825346
 21
-1177.667580201386
 31
0.0
  0
LINE
  5
329
330
71
100
AcDbEntity
  8
1
  6
Continuous
 62
     2
100
AcDbLine
 10
-1129.22381715868
 20
-1182.667580201386
 30
0.0
 11
-1060.890483825346
 21
-1182.667580201386
 31
0.0
  0
LINE
  5
32A
330
71
100
AcDbEntity
  8
1
  6
Continuous
 62
     2
100
AcDbLine
 10
-1129.22381715868
 20
-1182.667580201386
 30
0.0
 11
-1129.22381715868
 21
-1177.667580201386
 31
0.0
  0
LINE
  5
32B
330
71
100
AcDbEntity
  8
1
  6
Continuous
 62
     2
100
AcDbLine
 10
-1182.557150492014
 20
-1182.667580201386
 30
0.0
 11
-1202.557150492014
 21
-1182.667580201386
 31
0.0
  0
LINE
  5
32C
330
71
100
AcDbEntity
  8
1
  6
Continuous
 62
     2
100
AcDbLine
 10
-782.5571504920154
 20
-1120.267580201386
 30
0.0
 11
-787.557150492013
 21
-1120.267580201386
 31
0.0
  0
LINE
  5
32D
330
71
100
AcDbEntity
  8
1
  6
Continuous
 62
     2
100
AcDbLine
 10
-782.5571504920154
 20
-1120.267580201386
 30
0.0
 11
-782.5571504920154
 21
-1062.867580201386
 31
0.0
  0
LINE
  5
32E
330
71
100
AcDbEntity
  8
1
  6
Continuous
 62
     2
100
AcDbLine
 10
-992.5571504920129
 20
-1182.667580201386
 30
0.0
 11
-992.5571504920129
 21
-1177.667580201386
 31
0.0
  0
LINE
  5
32F
330
71
100
AcDbEntity
  8
1
  6
Continuous
 62
     2
100
AcDbLine
 10
-924.2238171586795
 20
-1182.667580201386
 30
0.0
 11
-924.2238171586795
 21
-1177.667580201389
 31
0.0
  0
LINE
  5
330
330
71
100
AcDbEntity
  8
1
  6
Continuous
 62
     2
100
AcDbLine
 10
-855.8904838253463
 20
-1182.667580201386
 30
0.0
 11
-855.8904838253463
 21
-1177.667580201386
 31
0.0
  0
LINE
  5
331
330
71
100
AcDbEntity
  8
1
  6
Continuous
 62
     2
100
AcDbLine
 10
-855.8904838253463
 20
-1182.667580201386
 30
0.0
 11
-787.5571504920129
 21
-1182.667580201386
 31
0.0
  0
LINE
  5
332
330
71
100
AcDbEntity
  8
1
  6
Continuous
 62
     2
100
AcDbLine
 10
-992.5571504920129
 20
-1182.667580201386
 30
0.0
 11
-1060.890483825346
 21
-1182.667580201386
 31
0.0
  0
LINE
  5
333
330
71
100
AcDbEntity
  8
1
  6
Continuous
 62
     6
100
AcDbLine
 10
-787.5571504920139
 20
-1156.417580201387
 30
0.0
 11
-787.557150492013
 21
-1120.267580201386
 31
0.0
  0
LINE
  5
334
330
71
100
AcDbEntity
  8
1
  6
Continuous
 62
     6
100
AcDbLine
 10
-787.5571504920129
 20
-1160.667580201387
 30
0.0
 11
-787.5571504920139
 21
-1156.417580201387
 31
0.0
  0
LINE
  5
335
330
71
100
AcDbEntity
  8
1
  6
Continuous
 62
     6
100
AcDbLine
 10
-787.5571504920133
 20
-1169.167580201387
 30
0.0
 11
-787.5571504920129
 21
-1160.667580201387
 31
0.0
  0
LINE
  5
336
330
71
100
AcDbEntity
  8
1
  6
Continuous
 62
     6
100
AcDbLine
 10
-855.8904838253463
 20
-1177.667580201386
 30
0.0
 11
-787.557150492013
 21
-1177.667580201387
 31
0.0
  0
ARC
  5
337
102
{ACAD_REACTORS
330
3B2
330
3B3
102
}
330
71
100
AcDbEntity
  8
0
  6
Continuous
 62
     2
100
AcDbCircle
 10
-904.7304539941132
 20
-1172.159856384721
 30
0.0
 40
4.852596863498158
100
AcDbArc
 50
74.02000874164733
 51
84.84185523037584
  0
ARC
  5
338
102
{ACAD_REACTORS
330
3B2
330
3B3
102
}
330
71
100
AcDbEntity
  8
0
  6
Continuous
 62
     2
100
AcDbCircle
 10
-904.1544133853595
 20
-1169.004096028837
 30
0.0
 40
0.9059297849857901
100
AcDbArc
 50
71.55192388186713
 51
113.3722778881109
  0
ARC
  5
339
102
{ACAD_REACTORS
330
3B2
330
3B3
102
}
330
71
100
AcDbEntity
  8
0
  6
Continuous
 62
     2
100
AcDbCircle
 10
-904.3108534180616
 20
-1169.052246868804
 30
0.0
 40
0.5115800601944485
100
AcDbArc
 50
208.5214732576157
 51
246.6277221118177
  0
ARC
  5
33A
102
{ACAD_REACTORS
330
3B2
330
3B3
102
}
330
71
100
AcDbEntity
  8
0
  6
Continuous
 62
     2
100
AcDbCircle
 10
-904.1544133853595
 20
-1168.690254850093
 30
0.0
 40
0.9059297849857245
100
AcDbArc
 50
246.6277221118892
 51
288.4480761181329
  0
ARC
  5
33B
102
{ACAD_REACTORS
330
3B2
330
3B3
102
}
330
71
100
AcDbEntity
  8
0
  6
Continuous
 62
     2
100
AcDbCircle
 10
-904.5725811190205
 20
-1167.436709074056
 30
0.0
 40
2.227384008973726
100
AcDbArc
 50
288.4480761181281
 51
301.9309089499615
  0
ARC
  5
33C
102
{ACAD_REACTORS
330
3AE
330
3AF
102
}
330
71
100
AcDbEntity
  8
0
  6
Continuous
 62
     2
100
AcDbCircle
 10
-909.7976548516272
 20
-1166.704207045142
 30
0.0
 40
0.9118481501445603
100
AcDbArc
 50
295.3740086781774
 51
64.62599132179812
  0
ARC
  5
33D
102
{ACAD_REACTORS
330
3AE
330
3AF
102
}
330
71
100
AcDbEntity
  8
0
  6
Continuous
 62
     2
100
AcDbCircle
 10
-909.2716121535392
 20
-1164.989530156668
 30
0.0
 40
0.3157169230760149
100
AcDbArc
 50
90.18896704258206
 51
180.0
  0
ARC
  5
33E
102
{ACAD_REACTORS
330
3B0
330
3B1
102
}
330
71
100
AcDbEntity
  8
0
  6
Continuous
 62
     2
100
AcDbCircle
 10
-888.061481940705
 20
-1169.060058990509
 30
0.0
 40
0.9545230068260935
100
AcDbArc
 50
90.0
 51
109.3371432194175
  0
ARC
  5
33F
102
{ACAD_REACTORS
330
3B0
330
3B1
102
}
330
71
100
AcDbEntity
  8
0
  6
Continuous
 62
     2
100
AcDbCircle
 10
-887.8307946807272
 20
-1168.847175439465
 30
0.0
 40
0.9410597353349766
100
AcDbArc
 50
151.4785267423711
 51
208.5214732576775
  0
ARC
  5
340
102
{ACAD_REACTORS
330
3B0
330
3B1
102
}
330
71
100
AcDbEntity
  8
0
  6
Continuous
 62
     2
100
AcDbCircle
 10
-888.0517119061055
 20
-1168.690254850093
 30
0.0
 40
0.9059297849860852
100
AcDbArc
 50
246.6277221118363
 51
288.4480761180647
  0
ARC
  5
341
102
{ACAD_REACTORS
330
3B0
330
3B1
102
}
330
71
100
AcDbEntity
  8
0
  6
Continuous
 62
     2
100
AcDbCircle
 10
-888.4698796397676
 20
-1167.436709074057
 30
0.0
 40
2.227384008972611
100
AcDbArc
 50
288.4480761181346
 51
301.9309089499398
  0
ARC
  5
342
102
{ACAD_REACTORS
330
3B0
330
3B1
102
}
330
71
100
AcDbEntity
  8
0
  6
Continuous
 62
     2
100
AcDbCircle
 10
-888.6277525148603
 20
-1165.534494494209
 30
0.0
 40
4.852596863498034
100
AcDbArc
 50
275.1581447696375
 51
285.9799912583397
  0
ARC
  5
343
102
{ACAD_REACTORS
330
3B0
330
3B1
102
}
330
71
100
AcDbEntity
  8
0
  6
Continuous
 62
     2
100
AcDbCircle
 10
-888.3388964201245
 20
-1168.73438507743
 30
0.0
 40
1.639695123940421
100
AcDbArc
 50
195.0618917771015
 51
275.1581447696781
  0
ARC
  5
344
102
{ACAD_REACTORS
330
3A8
330
3A9
102
}
330
71
100
AcDbEntity
  8
0
  6
Continuous
 62
     2
100
AcDbCircle
 10
-904.0671097318155
 20
-1165.016445842718
 30
0.0
 40
1.055365641333992
100
AcDbArc
 50
270.0
 51
90.0
  0
ARC
  5
345
102
{ACAD_REACTORS
330
3AE
330
3AF
102
}
330
71
100
AcDbEntity
  8
0
  6
Continuous
 62
     2
100
AcDbCircle
 10
-911.847160840071
 20
-1169.345807722737
 30
0.0
 40
0.3157169230756836
100
AcDbArc
 50
180.0
 51
270.0
  0
ARC
  5
346
102
{ACAD_REACTORS
330
3AE
330
3AF
102
}
330
71
100
AcDbEntity
  8
0
  6
Continuous
 62
     2
100
AcDbCircle
 10
-910.3713275790615
 20
-1164.98935268002
 30
0.0
 40
0.3157169230767067
100
AcDbArc
 50
0.0
 51
90.0
  0
ARC
  5
347
102
{ACAD_REACTORS
330
3AE
330
3AF
102
}
330
71
100
AcDbEntity
  8
0
  6
Continuous
 62
     2
100
AcDbCircle
 10
-910.3713275790615
 20
-1165.59337729908
 30
0.0
 40
0.3157169230765287
100
AcDbArc
 50
295.1944106485277
 51
0.0
  0
ARC
  5
348
102
{ACAD_REACTORS
330
3AE
330
3AF
102
}
330
71
100
AcDbEntity
  8
0
  6
Continuous
 62
     2
100
AcDbCircle
 10
-910.3713275790615
 20
-1169.345807722737
 30
0.0
 40
0.3157169230760246
100
AcDbArc
 50
270.0
 51
0.0
  0
ARC
  5
349
102
{ACAD_REACTORS
330
3AE
330
3AF
102
}
330
71
100
AcDbEntity
  8
0
  6
Continuous
 62
     2
100
AcDbCircle
 10
-912.4410555168175
 20
-1164.385324816787
 30
0.0
 40
0.424244615383941
100
AcDbArc
 50
90.0
 51
180.0
  0
ARC
  5
34A
102
{ACAD_REACTORS
330
3AE
330
3AF
102
}
330
71
100
AcDbEntity
  8
0
  6
Continuous
 62
     2
100
AcDbCircle
 10
-906.9677434261006
 20
-1164.385324816787
 30
0.0
 40
0.4242446153838273
100
AcDbArc
 50
0.0
 51
90.0
  0
ARC
  5
34B
102
{ACAD_REACTORS
330
3AE
330
3AF
102
}
330
71
100
AcDbEntity
  8
0
  6
Continuous
 62
     2
100
AcDbCircle
 10
-906.9677434261006
 20
-1169.949835585987
 30
0.0
 40
0.4242446153828041
100
AcDbArc
 50
270.0
 51
0.0
  0
ARC
  5
34C
102
{ACAD_REACTORS
330
3AC
330
3AD
102
}
330
71
100
AcDbEntity
  8
0
  6
Continuous
 62
     2
100
AcDbCircle
 10
-897.7493595390091
 20
-1165.487984963291
 30
0.0
 40
0.7717997786795957
100
AcDbArc
 50
321.8795802028306
 51
38.1204197971694
  0
ARC
  5
34D
102
{ACAD_REACTORS
330
3AC
330
3AD
102
}
330
71
100
AcDbEntity
  8
0
  6
Continuous
 62
     2
100
AcDbCircle
 10
-897.549619502663
 20
-1165.644716141411
 30
0.0
 40
0.5179085730138424
100
AcDbArc
 50
218.1204197971879
 51
321.8795802028044
  0
ARC
  5
34E
102
{ACAD_REACTORS
330
3AA
330
3AB
102
}
330
71
100
AcDbEntity
  8
0
  6
Continuous
 62
     2
100
AcDbCircle
 10
-901.2296270916232
 20
-1168.847175439465
 30
0.0
 40
1.458034083652521
100
AcDbArc
 50
297.5481481756942
 51
62.4518518243058
  0
ARC
  5
34F
102
{ACAD_REACTORS
330
3AA
330
3AB
102
}
330
71
100
AcDbEntity
  8
0
  6
Continuous
 62
     2
100
AcDbCircle
 10
-901.7915068752898
 20
-1168.847175439465
 30
0.0
 40
1.458034083651995
100
AcDbArc
 50
117.5481481756546
 51
242.4518518243454
  0
ARC
  5
350
102
{ACAD_REACTORS
330
3AA
330
3AB
102
}
330
71
100
AcDbEntity
  8
0
  6
Continuous
 62
     2
100
AcDbCircle
 10
-901.5105669834564
 20
-1169.385750449768
 30
0.0
 40
2.065479772209248
100
AcDbArc
 50
62.45185182431621
 51
117.5481481756586
  0
ARC
  5
351
102
{ACAD_REACTORS
330
3AA
330
3AB
102
}
330
71
100
AcDbEntity
  8
0
  6
Continuous
 62
     2
100
AcDbCircle
 10
-901.5105669834564
 20
-1168.308600429162
 30
0.0
 40
2.065479772208775
100
AcDbArc
 50
242.4518518243414
 51
297.5481481756838
  0
ARC
  5
352
102
{ACAD_REACTORS
330
3AC
330
3AD
102
}
330
71
100
AcDbEntity
  8
0
  6
Continuous
 62
     2
100
AcDbCircle
 10
-897.3498794663167
 20
-1165.487984963291
 30
0.0
 40
0.7717997786797746
100
AcDbArc
 50
141.879580202841
 51
218.120419797159
  0
ARC
  5
353
102
{ACAD_REACTORS
330
3AC
330
3AD
102
}
330
71
100
AcDbEntity
  8
0
  6
Continuous
 62
     2
100
AcDbCircle
 10
-897.549619502663
 20
-1165.33125378517
 30
0.0
 40
0.5179085730131915
100
AcDbArc
 50
38.12041979711647
 51
141.8795802028913
  0
ARC
  5
354
102
{ACAD_REACTORS
330
3AE
330
3AF
102
}
330
71
100
AcDbEntity
  8
0
  6
Continuous
 62
     2
100
AcDbCircle
 10
-912.4410555168175
 20
-1169.949835585987
 30
0.0
 40
0.4242446153828041
100
AcDbArc
 50
180.0
 51
270.0
  0
ARC
  5
355
102
{ACAD_REACTORS
330
3AE
330
3AF
102
}
330
71
100
AcDbEntity
  8
0
  6
Continuous
 62
     2
100
AcDbCircle
 10
-910.3713275790615
 20
-1167.815036791205
 30
0.0
 40
0.3157169230767067
100
AcDbArc
 50
0.0
 51
64.80558935147235
  0
ARC
  5
356
102
{ACAD_REACTORS
330
3AE
330
3AF
102
}
330
71
100
AcDbEntity
  8
0
  6
Continuous
 62
     2
100
AcDbCircle
 10
-909.8487431314865
 20
-1166.704207045142
 30
0.0
 40
0.9118975235571412
100
AcDbArc
 50
115.1944106485363
 51
244.805589351488
  0
ARC
  5
357
102
{ACAD_REACTORS
330
3AE
330
3AF
102
}
330
71
100
AcDbEntity
  8
0
  6
Continuous
 62
     2
100
AcDbCircle
 10
-911.847160840071
 20
-1164.98935268002
 30
0.0
 40
0.3157169230769341
100
AcDbArc
 50
90.0
 51
180.0
  0
ARC
  5
358
102
{ACAD_REACTORS
330
3A8
330
3A9
102
}
330
71
100
AcDbEntity
  8
0
  6
Continuous
 62
     2
100
AcDbCircle
 10
-904.5085822580539
 20
-1164.977049871496
 30
0.0
 40
0.3528638246709761
100
AcDbArc
 50
270.0
 51
90.0
  0
ARC
  5
359
102
{ACAD_REACTORS
330
3AC
330
3AD
102
}
330
71
100
AcDbEntity
  8
0
  6
Continuous
 62
     2
100
AcDbCircle
 10
-897.7658915128281
 20
-1165.487984963291
 30
0.0
 40
1.526904761906053
100
AcDbArc
 50
90.0
 51
270.0
  0
ARC
  5
35A
102
{ACAD_REACTORS
330
3B0
330
3B1
102
}
330
71
100
AcDbEntity
  8
0
  6
Continuous
 62
     2
100
AcDbCircle
 10
-888.3388964201245
 20
-1168.9599658015
 30
0.0
 40
1.639695123939873
100
AcDbArc
 50
90.0
 51
164.9381082228985
  0
ARC
  5
35B
102
{ACAD_REACTORS
330
3B0
330
3B1
102
}
330
71
100
AcDbEntity
  8
0
  6
Continuous
 62
     2
100
AcDbCircle
 10
-888.7580242635861
 20
-1168.847175439465
 30
0.0
 40
1.205656168392903
100
AcDbArc
 50
164.9381082229099
 51
195.0618917770901
  0
ARC
  5
35C
102
{ACAD_REACTORS
330
3B0
330
3B1
102
}
330
71
100
AcDbEntity
  8
0
  6
Continuous
 62
     2
100
AcDbCircle
 10
-888.2081519388087
 20
-1169.052246868804
 30
0.0
 40
0.5115800601958815
100
AcDbArc
 50
208.5214732576444
 51
246.6277221118294
  0
ARC
  5
35D
102
{ACAD_REACTORS
330
3B0
330
3B1
102
}
330
71
100
AcDbEntity
  8
0
  6
Continuous
 62
     2
100
AcDbCircle
 10
-888.2081519388087
 20
-1168.642104010126
 30
0.0
 40
0.5115800601948339
100
AcDbArc
 50
109.3371432194654
 51
151.4785267424227
  0
ARC
  5
35E
102
{ACAD_REACTORS
330
3AE
330
3AF
102
}
330
71
100
AcDbEntity
  8
0
  6
Continuous
 62
     2
100
AcDbCircle
 10
-909.2716121535392
 20
-1168.395200051806
 30
0.0
 40
0.3157169230768204
100
AcDbArc
 50
180.0
 51
269.8110329574181
  0
ARC
  5
35F
102
{ACAD_REACTORS
330
3AE
330
3AF
102
}
330
71
100
AcDbEntity
  8
0
  6
Continuous
 62
     2
100
AcDbCircle
 10
-909.2659960182292
 20
-1166.692365104237
 30
0.0
 40
2.018561131933152
100
AcDbArc
 50
269.811032957581
 51
90.18896704241901
  0
ARC
  5
360
102
{ACAD_REACTORS
330
3AE
330
3AF
102
}
330
71
100
AcDbEntity
  8
0
  6
Continuous
 62
     2
100
AcDbCircle
 10
-909.2716121535392
 20
-1165.595065445174
 30
0.0
 40
0.3157169230768204
100
AcDbArc
 50
180.0
 51
244.6259913216833
  0
ARC
  5
361
102
{ACAD_REACTORS
330
3AE
330
3AF
102
}
330
71
100
AcDbEntity
  8
0
  6
Continuous
 62
     2
100
AcDbCircle
 10
-909.2716121535392
 20
-1167.813348645111
 30
0.0
 40
0.3157169230770072
100
AcDbArc
 50
115.3740086783167
 51
180.0
  0
ARC
  5
362
102
{ACAD_REACTORS
330
3B2
330
3B3
102
}
330
71
100
AcDbEntity
  8
0
  6
Continuous
 62
     2
100
AcDbCircle
 10
-904.4415978993773
 20
-1168.9599658015
 30
0.0
 40
1.639695123940213
100
AcDbArc
 50
84.84185523036543
 51
164.9381082228913
  0
ARC
  5
363
102
{ACAD_REACTORS
330
3B2
330
3B3
102
}
330
71
100
AcDbEntity
  8
0
  6
Continuous
 62
     2
100
AcDbCircle
 10
-904.8607257428401
 20
-1168.847175439465
 30
0.0
 40
1.205656168390927
100
AcDbArc
 50
164.9381082228846
 51
195.0618917771153
  0
ARC
  5
364
102
{ACAD_REACTORS
330
3B2
330
3B3
102
}
330
71
100
AcDbEntity
  8
0
  6
Continuous
 62
     2
100
AcDbCircle
 10
-904.4415978993773
 20
-1168.73438507743
 30
0.0
 40
1.639695123939652
100
AcDbArc
 50
195.0618917771087
 51
275.1581447696346
  0
ARC
  5
365
102
{ACAD_REACTORS
330
3B2
330
3B3
102
}
330
71
100
AcDbEntity
  8
0
  6
Continuous
 62
     2
100
AcDbCircle
 10
-904.7304539941132
 20
-1165.534494494209
 30
0.0
 40
4.852596863497932
100
AcDbArc
 50
275.1581447696242
 51
285.9799912583526
  0
ARC
  5
366
102
{ACAD_REACTORS
330
3B2
330
3B3
102
}
330
71
100
AcDbEntity
  8
0
  6
Continuous
 62
     2
100
AcDbCircle
 10
-903.9334961599812
 20
-1168.847175439465
 30
0.0
 40
0.941059735333413
100
AcDbArc
 50
151.4785267422564
 51
208.521473257695
  0
ARC
  5
367
102
{ACAD_REACTORS
330
3B2
330
3B3
102
}
330
71
100
AcDbEntity
  8
0
  6
Continuous
 62
     2
100
AcDbCircle
 10
-904.3108534180616
 20
-1168.642104010126
 30
0.0
 40
0.5115800601953623
100
AcDbArc
 50
113.3722778881722
 51
151.4785267422724
  0
ARC
  5
368
102
{ACAD_REACTORS
330
3B2
330
3B3
102
}
330
71
100
AcDbEntity
  8
0
  6
Continuous
 62
     2
100
AcDbCircle
 10
-904.5725811190205
 20
-1170.257641804873
 30
0.0
 40
2.227384008973574
100
AcDbArc
 50
58.06909105003538
 51
71.5519238818626
  0
ARC
  5
369
102
{ACAD_REACTORS
330
3AA
330
3AB
102
}
330
71
100
AcDbEntity
  8
0
  6
Continuous
 62
     2
100
AcDbCircle
 10
-901.5105669834564
 20
-1168.690444261345
 30
0.0
 40
0.517908573013574
100
AcDbArc
 50
38.12041979721116
 51
141.8795802028121
  0
ARC
  5
36A
102
{ACAD_REACTORS
330
3AA
330
3AB
102
}
330
71
100
AcDbEntity
  8
0
  6
Continuous
 62
     2
100
AcDbCircle
 10
-901.3108269471104
 20
-1168.847175439465
 30
0.0
 40
0.7717997786795957
100
AcDbArc
 50
141.8795802028306
 51
218.1204197971694
  0
ARC
  5
36B
102
{ACAD_REACTORS
330
3AA
330
3AB
102
}
330
71
100
AcDbEntity
  8
0
  6
Continuous
 62
     2
100
AcDbCircle
 10
-901.5105669834564
 20
-1169.003906617585
 30
0.0
 40
0.5179085730138424
100
AcDbArc
 50
218.1204197971879
 51
321.8795802027889
  0
ARC
  5
36C
102
{ACAD_REACTORS
330
3AA
330
3AB
102
}
330
71
100
AcDbEntity
  8
0
  6
Continuous
 62
     2
100
AcDbCircle
 10
-901.7103070198028
 20
-1168.847175439465
 30
0.0
 40
0.7717997786795957
100
AcDbArc
 50
321.8795802028306
 51
38.1204197971694
  0
CIRCLE
  5
36D
330
71
100
AcDbEntity
  8
1
  6
Continuous
 62
     2
100
AcDbCircle
 10
-904.3653001322003
 20
-1156.542580201387
 30
0.0
 40
2.5
  0
CIRCLE
  5
36E
330
71
100
AcDbEntity
  8
1
  6
Continuous
 62
     2
100
AcDbCircle
 10
-904.3653001322003
 20
-1156.542580201387
 30
0.0
 40
1.25
  0
CIRCLE
  5
36F
102
{ACAD_REACTORS
330
3AE
330
3AF
102
}
330
71
100
AcDbEntity
  8
0
  6
Continuous
 62
     2
100
AcDbCircle
 10
-909.8214698662999
 20
-1166.704207045142
 30
0.0
 40
0.4709789327785074
  0
MTEXT
  5
370
330
71
100
AcDbEntity
  8
1
 62
     3
100
AcDbMText
 10
-1184.13447718066
 20
-1177.640666101886
 30
0.0
 40
1.8
 41
0.0
 71
     7
 72
     1
  3
Weitergabe sowie Vervielf\U+00e4ltigung dieses Dokuments, Verwertung und \PMitteilung seines Inhalts sind verboten, soweit nicht ausdr\U+00fccklich gestattet. \PZuwiderhandlungen verpflichten zu Schadenersatz. Alle Rechte f\U+00fcr den Fall\Pder Pat
  1
ent-, Gebrauchsmuster- oder Designeintragung vorbehalten.
  7
CONVERTER_11
 11
0.0
 21
1.0
 31
0.0
 73
     1
 44
0.99639855942377
  0
MTEXT
  5
371
330
71
100
AcDbEntity
  8
1
 62
     3
100
AcDbMText
 10
-1184.288683491754
 20
-1004.681296087732
 30
0.0
 40
1.8
 41
0.0
 71
     7
 72
     1
  3
Transfer or duplication of this document as well as the utilisation or\Pcommunication of its content are not permitted unless express consent\Pis granted. Violations give rise to claims for damages. All rights reserved\Pin case of patent, utility mo
  1
del or design patent registrations.
  7
CONVERTER_11
 11
0.0
 21
1.0
 31
0.0
 73
     1
 44
0.99639855942377
  0
TEXT
  5
372
330
71
100
AcDbEntity
  8
1
 62
     2
100
AcDbText
 10
-897.901955018763
 20
-1176.426597416378
 30
0.0
 40
1.8
  1
of
 41
0.9
  7
CONVERTER_11
100
AcDbText
  0
TEXT
  5
373
330
71
100
AcDbEntity
  8
1
 62
     2
100
AcDbText
 10
-916.1019550187629
 20
-1176.426597416378
 30
0.0
 40
1.8
  1
page
 41
0.9
  7
CONVERTER_11
100
AcDbText
  0
TEXT
  5
374
330
71
100
AcDbEntity
  8
1
 62
     2
100
AcDbText
 10
-907.4556900484208
 20
-1176.466828855188
 30
0.0
 40
1.8
  1
1
 41
0.9
  7
CONVERTER_11
100
AcDbText
  0
TEXT
  5
375
330
71
100
AcDbEntity
  8
1
 62
     2
100
AcDbText
 10
-892.6666462089493
 20
-1176.417580201387
 30
0.0
 40
1.8
  1
1
 41
0.9
  7
CONVERTER_11
100
AcDbText
  0
MTEXT
  5
377
330
71
100
AcDbEntity
  8
1
 62
     7
100
AcDbMText
 10
-834.1295527553874
 20
-1174.417580201387
 30
0.0
 40
3.0
 41
0.0
 71
     5
 72
     1
  1
AB-SKS 60
  7
CONVERTER_12
 73
     1
 44
1.20048019207683
  0
MTEXT
  5
378
330
71
100
AcDbEntity
  8
1
 62
     2
100
AcDbMText
 10
-879.7019550187629
 20
-1170.167580201387
 30
0.0
 40
1.8
 41
0.0
 71
     1
 72
     1
  1
description
  7
CONVERTER_11
 73
     1
 44
1.20048019207683
  0
MTEXT
  5
379
330
71
100
AcDbEntity
  8
1
 62
     3
100
AcDbMText
 10
-890.9019550187629
 20
-1156.542580201387
 30
0.0
 40
2.5
 41
0.0
 71
     5
 72
     1
  1
DIN A3
  7
CONVERTER_11
 73
     1
 44
1.20048019207683
  0
MTEXT
  5
37A
330
71
100
AcDbEntity
  8
1
 62
     2
100
AcDbMText
 10
-951.5129782879724
 20
-1164.917580201388
 30
0.0
 40
2.0
 41
0.0
 71
     5
 72
     1
  1
General Information\P- Simplified representation\P- Document excluded from change process\P- Linear dimensions [mm]
  7
CONVERTER_11
 73
     1
 44
1.20048019207683
  0
TEXT
  5
37B
330
71
100
AcDbEntity
  8
1
 62
     7
100
AcDbText
 10
-879.2019550187631
 20
-1167.867580201387
 30
0.0
 40
2.5
  1
3240223
 41
0.81
  7
CONVERTER_12
100
AcDbText
  0
MTEXT
  5
37C
330
71
100
AcDbEntity
  8
1
 62
     2
100
AcDbMText
 10
-879.601955018763
 20
-1161.667580201387
 30
0.0
 40
1.8
 41
0.0
 71
     1
 72
     1
  1
ident.-No.
  7
CONVERTER_11
 73
     1
 44
1.20048019207683
  0
MTEXT
  5
37D
330
71
100
AcDbEntity
  8
1
 62
     2
100
AcDbMText
 10
-795.3755587736902
 20
-1153.167580201387
 30
0.0
 40
1.8
 41
0.0
 71
     1
 72
     1
  1
scale
  7
CONVERTER_11
 73
     1
 44
1.20048019207683
  0
MTEXT
  5
37F
330
71
100
AcDbEntity
  8
1
 62
     3
100
AcDbMText
 10
-792.0163546328506
 20
-1159.367580201387
 30
0.0
 40
2.5
 41
0.0
 71
     8
 72
     1
  1
1:1
  7
CONVERTER_13
 73
     1
 44
1.32052821128451
  0
TEXT
  5
380
330
71
100
AcDbEntity
  8
1
 62
     7
100
AcDbText
 10
-879.601955018763
 20
-1159.367580201387
 30
0.0
 40
2.5
  1
00651226
 41
0.81
  7
CONVERTER_12
100
AcDbText
  0
MTEXT
  5
382
330
71
100
AcDbEntity
  8
1
 62
     2
100
AcDbMText
 10
-879.601955018763
 20
-1153.167580201387
 30
0.0
 40
1.8
 41
0.0
 71
     1
 72
     1
  1
document-No. / RI
  7
CONVERTER_14
 73
     1
 44
1.32052821128451
  0
TEXT
  5
383
330
71
100
AcDbEntity
  8
1
 62
     3
100
AcDbText
 10
-851.8019550187629
 20
-1167.867580201387
 30
0.0
 40
2.5
  1
TECDOC 2D_Productdrawing
 41
0.81
  7
CONVERTER_12
100
AcDbText
  0
MTEXT
  5
384
330
71
100
AcDbEntity
  8
1
 62
     2
100
AcDbMText
 10
-851.8019550187629
 20
-1161.667580201387
 30
0.0
 40
1.8
 41
0.0
 71
     1
 72
     1
  1
document-type
  7
CONVERTER_11
 73
     1
 44
1.20048019207683
  0
MTEXT
  5
385
330
71
100
AcDbEntity
  8
1
 62
     2
100
AcDbMText
 10
-821.97555877369
 20
-1153.167580201387
 30
0.0
 40
1.8
 41
0.0
 71
     1
 72
     1
  1
date
  7
CONVERTER_11
 73
     1
 44
1.32052821128451
  0
TEXT
  5
386
330
71
100
AcDbEntity
  8
1
 62
     3
100
AcDbText
 10
-821.97555877369
 20
-1159.367580201387
 30
0.0
 40
2.5
  1
18.04.2018
 41
0.81
  7
CONVERTER_12
100
AcDbText
  0
TEXT
  5
387
330
71
100
AcDbEntity
  8
1
 62
     7
100
AcDbText
 10
-859.5720427997071
 20
-1159.367580201387
 30
0.0
 40
2.5
  1
01
 41
0.81
  7
CONVERTER_12
100
AcDbText
  0
TEXT
  5
388
330
71
100
AcDbEntity
  8
1
 62
     7
100
AcDbText
 10
-861.7284072967491
 20
-1159.367580201387
 30
0.0
 40
2.5
  1
/
 41
0.9
  7
CONVERTER_11
100
AcDbText
  0
TEXT
  5
389
330
71
100
AcDbEntity
  8
1
 62
     7
100
AcDbText
 10
-1164.557150492013
 20
-889.6675802013858
 30
0.0
 40
2.5
  1
1
 41
0.9
  7
CONVERTER_11
100
AcDbText
  0
TEXT
  5
38A
330
71
100
AcDbEntity
  8
1
 62
     7
100
AcDbText
 10
-1096.22381715868
 20
-889.6675802013858
 30
0.0
 40
2.5
  1
2
 41
0.9
  7
CONVERTER_11
100
AcDbText
  0
TEXT
  5
38B
330
71
100
AcDbEntity
  8
1
 62
     7
100
AcDbText
 10
-1027.890483825346
 20
-889.6675802013858
 30
0.0
 40
2.5
  1
3
 41
0.9
  7
CONVERTER_11
100
AcDbText
  0
TEXT
  5
38C
330
71
100
AcDbEntity
  8
1
 62
     7
100
AcDbText
 10
-959.5571504920129
 20
-889.6675802013858
 30
0.0
 40
2.5
  1
4
 41
0.9
  7
CONVERTER_11
100
AcDbText
  0
TEXT
  5
38D
330
71
100
AcDbEntity
  8
1
 62
     7
100
AcDbText
 10
-891.2238171586795
 20
-889.6675802013858
 30
0.0
 40
2.5
  1
5
 41
0.9
  7
CONVERTER_11
100
AcDbText
  0
TEXT
  5
38E
330
71
100
AcDbEntity
  8
1
 62
     7
100
AcDbText
 10
-822.8904838253463
 20
-889.6675802013858
 30
0.0
 40
2.5
  1
6
 41
0.9
  7
CONVERTER_11
100
AcDbText
  0
TEXT
  5
38F
330
71
100
AcDbEntity
  8
1
 62
     7
100
AcDbText
 10
-786.5571504920129
 20
-920.5675802013861
 30
0.0
 40
2.5
  1
A
 41
0.9
  7
CONVERTER_11
100
AcDbText
  0
TEXT
  5
390
330
71
100
AcDbEntity
  8
1
 62
     7
100
AcDbText
 10
-786.5571504920129
 20
-977.967580201386
 30
0.0
 40
2.5
  1
B
 41
0.9
  7
CONVERTER_11
100
AcDbText
  0
TEXT
  5
391
330
71
100
AcDbEntity
  8
1
 62
     7
100
AcDbText
 10
-786.5571504920129
 20
-1035.367580201386
 30
0.0
 40
2.5
  1
C
 41
0.9
  7
CONVERTER_11
100
AcDbText
  0
TEXT
  5
392
330
71
100
AcDbEntity
  8
1
 62
     7
100
AcDbText
 10
-786.5571504920129
 20
-1092.767580201386
 30
0.0
 40
2.5
  1
D
 41
0.9
  7
CONVERTER_11
100
AcDbText
  0
TEXT
  5
393
330
71
100
AcDbEntity
  8
1
 62
     7
100
AcDbText
 10
-1096.22381715868
 20
-1181.667580201386
 30
0.0
 40
2.5
  1
2
 41
0.9
  7
CONVERTER_11
100
AcDbText
  0
TEXT
  5
394
330
71
100
AcDbEntity
  8
1
 62
     7
100
AcDbText
 10
-1164.557150492013
 20
-1181.667580201386
 30
0.0
 40
2.5
  1
1
 41
0.9
  7
CONVERTER_11
100
AcDbText
  0
TEXT
  5
395
330
71
100
AcDbEntity
  8
1
 62
     7
100
AcDbText
 10
-786.5571504920129
 20
-1150.167580201386
 30
0.0
 40
2.5
  1
E
 41
0.9
  7
CONVERTER_11
100
AcDbText
  0
TEXT
  5
396
330
71
100
AcDbEntity
  8
1
 62
     7
100
AcDbText
 10
-1027.890483825346
 20
-1181.667580201386
 30
0.0
 40
2.5
  1
3
 41
0.9
  7
CONVERTER_11
100
AcDbText
  0
TEXT
  5
397
330
71
100
AcDbEntity
  8
1
 62
     7
100
AcDbText
 10
-959.5571504920129
 20
-1181.667580201386
 30
0.0
 40
2.5
  1
4
 41
0.9
  7
CONVERTER_11
100
AcDbText
  0
TEXT
  5
398
330
71
100
AcDbEntity
  8
1
 62
     7
100
AcDbText
 10
-891.2238171586797
 20
-1181.667580201386
 30
0.0
 40
2.5
  1
5
 41
0.9
  7
CONVERTER_11
100
AcDbText
  0
TEXT
  5
399
330
71
100
AcDbEntity
  8
1
 62
     7
100
AcDbText
 10
-822.8904838253463
 20
-1181.667580201386
 30
0.0
 40
2.5
  1
6
 41
0.9
  7
CONVERTER_11
100
AcDbText
  0
HATCH
  5
39A
330
71
100
AcDbEntity
  8
1
  6
Continuous
 62
     2
100
AcDbHatch
 10
0.0
 20
0.0
 30
0.0
210
0.0
220
0.0
230
1.0
  2
CUSTOM0
 70
     0
 71
     1
 91
        1
 92
        1
 93
       12
 72
     1
 10
-899.4344543058018
 20
-1167.014889725196
 11
-900.6272470079682
 21
-1167.014889725196
 72
     1
 10
-900.6272470079682
 20
-1167.014889725196
 11
-900.6272470079682
 21
-1165.880617616352
 72
     1
 10
-900.6272470079682
 20
-1165.880617616352
 11
-901.6769045858756
 21
-1165.880617616352
 72
     1
 10
-901.6769045858756
 20
-1165.880617616352
 11
-901.6769045858756
 21
-1167.014889725196
 72
     1
 10
-901.6769045858756
 20
-1167.014889725196
 11
-902.8696972880422
 21
-1167.014889725196
 72
     1
 10
-902.8696972880422
 20
-1167.014889725196
 11
-902.8696972880422
 21
-1163.961080201385
 72
     1
 10
-902.8696972880422
 20
-1163.961080201385
 11
-901.6769045858756
 21
-1163.961080201385
 72
     1
 10
-901.6769045858756
 20
-1163.961080201385
 11
-901.6769045858756
 21
-1165.02991353472
 72
     1
 10
-901.6769045858756
 20
-1165.02991353472
 11
-900.6272470079682
 21
-1165.02991353472
 72
     1
 10
-900.6272470079682
 20
-1165.02991353472
 11
-900.6272470079682
 21
-1163.961080201385
 72
     1
 10
-900.6272470079682
 20
-1163.961080201385
 11
-899.4344543058018
 21
-1163.961080201385
 72
     1
 10
-899.4344543058018
 20
-1163.961080201385
 11
-899.4344543058018
 21
-1167.014889725196
 97
       12
330
2C3
330
2C4
330
2AE
330
2AD
330
2AC
330
2C0
330
2AB
330
2C1
330
2C2
330
2AA
330
2A9
330
2A8
 75
     1
 76
     2
 52
45.0
 41
0.1
 77
     0
 78
     1
 53
45.0
 43
62.7811309658083
 44
-72.3161373035813
 45
-0.1414213562373095
 46
0.0
 79
     0
 98
        1
 10
0.0
 20
0.0
  0
HATCH
  5
39B
330
71
100
AcDbEntity
  8
1
  6
Continuous
 62
     2
100
AcDbHatch
 10
0.0
 20
0.0
 30
0.0
210
0.0
220
0.0
230
1.0
  2
CUSTOM1
 70
     0
 71
     1
 91
        1
 92
        1
 93
       12
 72
     1
 10
-899.4344543058018
 20
-1167.014889725196
 11
-900.6272470079682
 21
-1167.014889725196
 72
     1
 10
-900.6272470079682
 20
-1167.014889725196
 11
-900.6272470079682
 21
-1165.880617616352
 72
     1
 10
-900.6272470079682
 20
-1165.880617616352
 11
-901.6769045858756
 21
-1165.880617616352
 72
     1
 10
-901.6769045858756
 20
-1165.880617616352
 11
-901.6769045858756
 21
-1167.014889725196
 72
     1
 10
-901.6769045858756
 20
-1167.014889725196
 11
-902.8696972880422
 21
-1167.014889725196
 72
     1
 10
-902.8696972880422
 20
-1167.014889725196
 11
-902.8696972880422
 21
-1163.961080201385
 72
     1
 10
-902.8696972880422
 20
-1163.961080201385
 11
-901.6769045858756
 21
-1163.961080201385
 72
     1
 10
-901.6769045858756
 20
-1163.961080201385
 11
-901.6769045858756
 21
-1165.02991353472
 72
     1
 10
-901.6769045858756
 20
-1165.02991353472
 11
-900.6272470079682
 21
-1165.02991353472
 72
     1
 10
-900.6272470079682
 20
-1165.02991353472
 11
-900.6272470079682
 21
-1163.961080201385
 72
     1
 10
-900.6272470079682
 20
-1163.961080201385
 11
-899.4344543058018
 21
-1163.961080201385
 72
     1
 10
-899.4344543058018
 20
-1163.961080201385
 11
-899.4344543058018
 21
-1167.014889725196
 97
       12
330
2C3
330
2C4
330
2AE
330
2AD
330
2AC
330
2C0
330
2AB
330
2C1
330
2C2
330
2AA
330
2A9
330
2A8
 75
     1
 76
     2
 52
45.0
 41
0.1
 77
     0
 78
     1
 53
45.0
 43
62.7811309658083
 44
-72.3161373035813
 45
-0.1414213562373095
 46
0.0
 79
     0
 98
        1
 10
0.0
 20
0.0
  0
HATCH
  5
39C
330
71
100
AcDbEntity
  8
1
  6
Continuous
 62
     2
100
AcDbHatch
 10
0.0
 20
0.0
 30
0.0
210
0.0
220
0.0
230
1.0
  2
CUSTOM2
 70
     0
 71
     1
 91
        1
 92
        1
 93
       10
 72
     1
 10
-897.1921549566134
 20
-1168.629046187764
 11
-898.4326593668663
 21
-1167.320270677559
 72
     1
 10
-898.4326593668663
 20
-1167.320270677559
 11
-899.6254520690339
 21
-1167.320270677559
 72
     1
 10
-899.6254520690339
 20
-1167.320270677559
 11
-899.6254520690339
 21
-1170.37408020137
 72
     1
 10
-899.6254520690339
 20
-1170.37408020137
 11
-898.4326593668663
 21
-1170.37408020137
 72
     1
 10
-898.4326593668663
 20
-1170.37408020137
 11
-898.4326593668663
 21
-1169.065304691166
 72
     1
 10
-898.4326593668663
 20
-1169.065304691166
 11
-897.1921549566134
 21
-1170.37408020137
 72
     1
 10
-897.1921549566134
 20
-1170.37408020137
 11
-895.9993622544471
 21
-1170.37408020137
 72
     1
 10
-895.9993622544471
 20
-1170.37408020137
 11
-895.9993622544471
 21
-1167.320270677559
 72
     1
 10
-895.9993622544471
 20
-1167.320270677559
 11
-897.1921549566134
 21
-1167.320270677559
 72
     1
 10
-897.1921549566134
 20
-1167.320270677559
 11
-897.1921549566134
 21
-1168.629046187764
 97
       10
330
2D1
330
2A1
330
2A0
330
2A3
330
2CC
330
2CD
330
2A2
330
2CE
330
2CF
330
2D0
 75
     1
 76
     2
 52
45.0
 41
0.1
 77
     0
 78
     1
 53
45.0
 43
62.7811309658083
 44
-72.3161373035813
 45
-0.1414213562373095
 46
0.0
 79
     0
 98
        1
 10
0.0
 20
0.0
  0
HATCH
  5
39D
330
71
100
AcDbEntity
  8
1
  6
Continuous
 62
     2
100
AcDbHatch
 10
0.0
 20
0.0
 30
0.0
210
0.0
220
0.0
230
1.0
  2
CUSTOM3
 70
     0
 71
     1
 91
        1
 92
        1
 93
       10
 72
     1
 10
-897.1921549566134
 20
-1168.629046187764
 11
-898.4326593668663
 21
-1167.320270677559
 72
     1
 10
-898.4326593668663
 20
-1167.320270677559
 11
-899.6254520690339
 21
-1167.320270677559
 72
     1
 10
-899.6254520690339
 20
-1167.320270677559
 11
-899.6254520690339
 21
-1170.37408020137
 72
     1
 10
-899.6254520690339
 20
-1170.37408020137
 11
-898.4326593668663
 21
-1170.37408020137
 72
     1
 10
-898.4326593668663
 20
-1170.37408020137
 11
-898.4326593668663
 21
-1169.065304691166
 72
     1
 10
-898.4326593668663
 20
-1169.065304691166
 11
-897.1921549566134
 21
-1170.37408020137
 72
     1
 10
-897.1921549566134
 20
-1170.37408020137
 11
-895.9993622544471
 21
-1170.37408020137
 72
     1
 10
-895.9993622544471
 20
-1170.37408020137
 11
-895.9993622544471
 21
-1167.320270677559
 72
     1
 10
-895.9993622544471
 20
-1167.320270677559
 11
-897.1921549566134
 21
-1167.320270677559
 72
     1
 10
-897.1921549566134
 20
-1167.320270677559
 11
-897.1921549566134
 21
-1168.629046187764
 97
       10
330
2D1
330
2A1
330
2A0
330
2A3
330
2CC
330
2CD
330
2A2
330
2CE
330
2CF
330
2D0
 75
     1
 76
     2
 52
45.0
 41
0.1
 77
     0
 78
     1
 53
45.0
 43
62.7811309658083
 44
-72.3161373035813
 45
-0.1414213562373095
 46
0.0
 79
     0
 98
        1
 10
0.0
 20
0.0
  0
HATCH
  5
39E
330
71
100
AcDbEntity
  8
1
  6
Continuous
 62
     2
100
AcDbHatch
 10
0.0
 20
0.0
 30
0.0
210
0.0
220
0.0
230
1.0
  2
CUSTOM4
 70
     0
 71
     1
 91
        1
 92
        1
 93
       10
 72
     1
 10
-891.9437161361938
 20
-1165.26985571159
 11
-893.1842205464478
 21
-1163.961080201385
 72
     1
 10
-893.1842205464478
 20
-1163.961080201385
 11
-894.3770132486143
 21
-1163.961080201385
 72
     1
 10
-894.3770132486143
 20
-1163.961080201385
 11
-894.3770132486143
 21
-1167.014889725196
 72
     1
 10
-894.3770132486143
 20
-1167.014889725196
 11
-893.1842205464478
 21
-1167.014889725196
 72
     1
 10
-893.1842205464478
 20
-1167.014889725196
 11
-893.1842205464478
 21
-1165.706114214991
 72
     1
 10
-893.1842205464478
 20
-1165.706114214991
 11
-891.9437161361938
 21
-1167.014889725196
 72
     1
 10
-891.9437161361938
 20
-1167.014889725196
 11
-890.7509234340271
 21
-1167.014889725196
 72
     1
 10
-890.7509234340271
 20
-1167.014889725196
 11
-890.7509234340271
 21
-1163.961080201385
 72
     1
 10
-890.7509234340271
 20
-1163.961080201385
 11
-891.9437161361938
 21
-1163.961080201385
 72
     1
 10
-891.9437161361938
 20
-1163.961080201385
 11
-891.9437161361938
 21
-1165.26985571159
 97
       10
330
2D6
330
29E
330
29D
330
2D7
330
29C
330
2D2
330
2D3
330
2D4
330
2D5
330
29F
 75
     1
 76
     2
 52
45.0
 41
0.1
 77
     0
 78
     1
 53
45.0
 43
62.7811309658083
 44
-72.3161373035813
 45
-0.1414213562373095
 46
0.0
 79
     0
 98
        1
 10
0.0
 20
0.0
  0
HATCH
  5
39F
330
71
100
AcDbEntity
  8
1
  6
Continuous
 62
     2
100
AcDbHatch
 10
0.0
 20
0.0
 30
0.0
210
0.0
220
0.0
230
1.0
  2
CUSTOM5
 70
     0
 71
     1
 91
        1
 92
        1
 93
       10
 72
     1
 10
-891.9437161361938
 20
-1165.26985571159
 11
-893.1842205464478
 21
-1163.961080201385
 72
     1
 10
-893.1842205464478
 20
-1163.961080201385
 11
-894.3770132486143
 21
-1163.961080201385
 72
     1
 10
-894.3770132486143
 20
-1163.961080201385
 11
-894.3770132486143
 21
-1167.014889725196
 72
     1
 10
-894.3770132486143
 20
-1167.014889725196
 11
-893.1842205464478
 21
-1167.014889725196
 72
     1
 10
-893.1842205464478
 20
-1167.014889725196
 11
-893.1842205464478
 21
-1165.706114214991
 72
     1
 10
-893.1842205464478
 20
-1165.706114214991
 11
-891.9437161361938
 21
-1167.014889725196
 72
     1
 10
-891.9437161361938
 20
-1167.014889725196
 11
-890.7509234340271
 21
-1167.014889725196
 72
     1
 10
-890.7509234340271
 20
-1167.014889725196
 11
-890.7509234340271
 21
-1163.961080201385
 72
     1
 10
-890.7509234340271
 20
-1163.961080201385
 11
-891.9437161361938
 21
-1163.961080201385
 72
     1
 10
-891.9437161361938
 20
-1163.961080201385
 11
-891.9437161361938
 21
-1165.26985571159
 97
       10
330
2D6
330
29E
330
29D
330
2D7
330
29C
330
2D2
330
2D3
330
2D4
330
2D5
330
29F
 75
     1
 76
     2
 52
45.0
 41
0.1
 77
     0
 78
     1
 53
45.0
 43
62.7811309658083
 44
-72.3161373035813
 45
-0.1414213562373095
 46
0.0
 79
     0
 98
        1
 10
0.0
 20
0.0
  0
HATCH
  5
3A0
330
71
100
AcDbEntity
  8
1
  6
Continuous
 62
     2
100
AcDbHatch
 10
0.0
 20
0.0
 30
0.0
210
0.0
220
0.0
230
1.0
  2
CUSTOM6
 70
     0
 71
     1
 91
        1
 92
        1
 93
        8
 72
     1
 10
-893.0412363530731
 20
-1167.320270677559
 11
-895.8562271301869
 21
-1167.320270677559
 72
     1
 10
-895.8562271301869
 20
-1167.320270677559
 11
-895.8562271301869
 21
-1168.105535983683
 72
     1
 10
-895.8562271301869
 20
-1168.105535983683
 11
-895.0451280927123
 21
-1168.105535983683
 72
     1
 10
-895.0451280927123
 20
-1168.105535983683
 11
-895.0451280927123
 21
-1170.37408020137
 72
     1
 10
-895.0451280927123
 20
-1170.37408020137
 11
-893.8523353905458
 21
-1170.37408020137
 72
     1
 10
-893.8523353905458
 20
-1170.37408020137
 11
-893.8523353905458
 21
-1168.105535983683
 72
     1
 10
-893.8523353905458
 20
-1168.105535983683
 11
-893.0412363530731
 21
-1168.105535983683
 72
     1
 10
-893.0412363530731
 20
-1168.105535983683
 11
-893.0412363530731
 21
-1167.320270677559
 97
        8
330
298
330
2D8
330
297
330
2D9
330
2DA
330
29B
330
29A
330
299
 75
     1
 76
     2
 52
45.0
 41
0.1
 77
     0
 78
     1
 53
45.0
 43
62.7811309658083
 44
-72.3161373035813
 45
-0.1414213562373095
 46
0.0
 79
     0
 98
        1
 10
0.0
 20
0.0
  0
HATCH
  5
3A1
330
71
100
AcDbEntity
  8
1
  6
Continuous
 62
     2
100
AcDbHatch
 10
0.0
 20
0.0
 30
0.0
210
0.0
220
0.0
230
1.0
  2
CUSTOM7
 70
     0
 71
     1
 91
        1
 92
        1
 93
        8
 72
     1
 10
-893.0412363530731
 20
-1167.320270677559
 11
-895.8562271301869
 21
-1167.320270677559
 72
     1
 10
-895.8562271301869
 20
-1167.320270677559
 11
-895.8562271301869
 21
-1168.105535983683
 72
     1
 10
-895.8562271301869
 20
-1168.105535983683
 11
-895.0451280927123
 21
-1168.105535983683
 72
     1
 10
-895.0451280927123
 20
-1168.105535983683
 11
-895.0451280927123
 21
-1170.37408020137
 72
     1
 10
-895.0451280927123
 20
-1170.37408020137
 11
-893.8523353905458
 21
-1170.37408020137
 72
     1
 10
-893.8523353905458
 20
-1170.37408020137
 11
-893.8523353905458
 21
-1168.105535983683
 72
     1
 10
-893.8523353905458
 20
-1168.105535983683
 11
-893.0412363530731
 21
-1168.105535983683
 72
     1
 10
-893.0412363530731
 20
-1168.105535983683
 11
-893.0412363530731
 21
-1167.320270677559
 97
        8
330
298
330
2D8
330
297
330
2D9
330
2DA
330
29B
330
29A
330
299
 75
     1
 76
     2
 52
45.0
 41
0.1
 77
     0
 78
     1
 53
45.0
 43
62.7811309658083
 44
-72.3161373035813
 45
-0.1414213562373095
 46
0.0
 79
     0
 98
        1
 10
0.0
 20
0.0
  0
HATCH
  5
3A2
330
71
100
AcDbEntity
  8
1
  6
Continuous
 62
     2
100
AcDbHatch
 10
0.0
 20
0.0
 30
0.0
210
0.0
220
0.0
230
1.0
  2
CUSTOM8
 70
     0
 71
     1
 91
        2
 92
        1
 93
        8
 72
     1
 10
-890.9028088971262
 20
-1170.37408020137
 11
-891.114288950602
 21
-1169.833119657153
 72
     1
 10
-891.114288950602
 20
-1169.833119657153
 11
-892.246730527276
 21
-1169.833119657153
 72
     1
 10
-892.246730527276
 20
-1169.833119657153
 11
-892.4582105807517
 21
-1170.37408020137
 72
     1
 10
-892.4582105807517
 20
-1170.37408020137
 11
-893.6987149910046
 21
-1170.37408020137
 72
     1
 10
-893.6987149910046
 20
-1170.37408020137
 11
-892.3007619440655
 21
-1167.320270677559
 72
     1
 10
-892.3007619440655
 20
-1167.320270677559
 11
-891.0602575338125
 21
-1167.320270677559
 72
     1
 10
-891.0602575338125
 20
-1167.320270677559
 11
-889.6623044868724
 21
-1170.37408020137
 72
     1
 10
-889.6623044868724
 20
-1170.37408020137
 11
-890.9028088971262
 21
-1170.37408020137
 97
        8
330
2DC
330
2DD
330
294
330
2DE
330
293
330
296
330
2DB
330
295
 92
       16
 93
        3
 72
     1
 10
-891.9806749761308
 20
-1169.152556391846
 11
-891.6805097389386
 21
-1168.384741425859
 72
     1
 10
-891.6805097389386
 20
-1168.384741425859
 11
-891.3803445017484
 21
-1169.152556391846
 72
     1
 10
-891.3803445017484
 20
-1169.152556391846
 11
-891.9806749761308
 21
-1169.152556391846
 97
        3
330
292
330
2E0
330
2DF
 75
     1
 76
     2
 52
45.0
 41
0.1
 77
     0
 78
     1
 53
45.0
 43
62.7811309658083
 44
-72.3161373035813
 45
-0.1414213562373095
 46
0.0
 79
     0
 98
        1
 10
0.0
 20
0.0
  0
HATCH
  5
3A3
330
71
100
AcDbEntity
  8
1
  6
Continuous
 62
     2
100
AcDbHatch
 10
0.0
 20
0.0
 30
0.0
210
0.0
220
0.0
230
1.0
  2
CUSTOM9
 70
     0
 71
     1
 91
        2
 92
        1
 93
        8
 72
     1
 10
-890.9028088971262
 20
-1170.37408020137
 11
-891.114288950602
 21
-1169.833119657153
 72
     1
 10
-891.114288950602
 20
-1169.833119657153
 11
-892.246730527276
 21
-1169.833119657153
 72
     1
 10
-892.246730527276
 20
-1169.833119657153
 11
-892.4582105807517
 21
-1170.37408020137
 72
     1
 10
-892.4582105807517
 20
-1170.37408020137
 11
-893.6987149910046
 21
-1170.37408020137
 72
     1
 10
-893.6987149910046
 20
-1170.37408020137
 11
-892.3007619440655
 21
-1167.320270677559
 72
     1
 10
-892.3007619440655
 20
-1167.320270677559
 11
-891.0602575338125
 21
-1167.320270677559
 72
     1
 10
-891.0602575338125
 20
-1167.320270677559
 11
-889.6623044868724
 21
-1170.37408020137
 72
     1
 10
-889.6623044868724
 20
-1170.37408020137
 11
-890.9028088971262
 21
-1170.37408020137
 97
        8
330
2DC
330
2DD
330
294
330
2DE
330
293
330
296
330
2DB
330
295
 92
       16
 93
        3
 72
     1
 10
-891.9806749761308
 20
-1169.152556391846
 11
-891.6805097389386
 21
-1168.384741425859
 72
     1
 10
-891.6805097389386
 20
-1168.384741425859
 11
-891.3803445017484
 21
-1169.152556391846
 72
     1
 10
-891.3803445017484
 20
-1169.152556391846
 11
-891.9806749761308
 21
-1169.152556391846
 97
        3
330
292
330
2E0
330
2DF
 75
     1
 76
     2
 52
45.0
 41
0.1
 77
     0
 78
     1
 53
45.0
 43
62.7811309658083
 44
-72.3161373035813
 45
-0.1414213562373095
 46
0.0
 79
     0
 98
        1
 10
0.0
 20
0.0
  0
HATCH
  5
3A4
330
71
100
AcDbEntity
  8
1
  6
Continuous
 62
     2
100
AcDbHatch
 10
0.0
 20
0.0
 30
0.0
210
0.0
220
0.0
230
1.0
  2
CUSTOM10
 70
     0
 71
     1
 91
        1
 92
        1
 93
        4
 72
     1
 10
-889.2718604833403
 20
-1167.014889725196
 11
-890.5123648935933
 21
-1167.014889725196
 72
     1
 10
-890.5123648935933
 20
-1167.014889725196
 11
-890.5123648935933
 21
-1163.961080201385
 72
     1
 10
-890.5123648935933
 20
-1163.961080201385
 11
-889.2718604833403
 21
-1163.961080201385
 72
     1
 10
-889.2718604833403
 20
-1163.961080201385
 11
-889.2718604833403
 21
-1167.014889725196
 97
        4
330
28F
330
291
330
2E1
330
290
 75
     1
 76
     2
 52
45.0
 41
0.1
 77
     0
 78
     1
 53
45.0
 43
62.7811309658083
 44
-72.3161373035813
 45
-0.1414213562373095
 46
0.0
 79
     0
 98
        1
 10
0.0
 20
0.0
  0
HATCH
  5
3A5
330
71
100
AcDbEntity
  8
1
  6
Continuous
 62
     2
100
AcDbHatch
 10
0.0
 20
0.0
 30
0.0
210
0.0
220
0.0
230
1.0
  2
CUSTOM11
 70
     0
 71
     1
 91
        1
 92
        1
 93
        4
 72
     1
 10
-889.2718604833403
 20
-1167.014889725196
 11
-890.5123648935933
 21
-1167.014889725196
 72
     1
 10
-890.5123648935933
 20
-1167.014889725196
 11
-890.5123648935933
 21
-1163.961080201385
 72
     1
 10
-890.5123648935933
 20
-1163.961080201385
 11
-889.2718604833403
 21
-1163.961080201385
 72
     1
 10
-889.2718604833403
 20
-1163.961080201385
 11
-889.2718604833403
 21
-1167.014889725196
 97
        4
330
28F
330
291
330
2E1
330
290
 75
     1
 76
     2
 52
45.0
 41
0.1
 77
     0
 78
     1
 53
45.0
 43
62.7811309658083
 44
-72.3161373035813
 45
-0.1414213562373095
 46
0.0
 79
     0
 98
        1
 10
0.0
 20
0.0
  0
HATCH
  5
3A6
330
71
100
AcDbEntity
  8
1
  6
Continuous
 62
     2
100
AcDbHatch
 10
0.0
 20
0.0
 30
0.0
210
0.0
220
0.0
230
1.0
  2
CUSTOM12
 70
     0
 71
     1
 91
        1
 92
        1
 93
       12
 72
     1
 10
-885.0493743176695
 20
-1163.961080201385
 11
-886.3519039484361
 21
-1165.434030731421
 72
     1
 10
-886.3519039484361
 20
-1165.434030731421
 11
-884.9539509014958
 21
-1167.014889725196
 72
     1
 10
-884.9539509014958
 20
-1167.014889725196
 11
-886.3566751192441
 21
-1167.014889725196
 72
     1
 10
-886.3566751192441
 20
-1167.014889725196
 11
-887.0532660573095
 21
-1166.227157939902
 72
     1
 10
-887.0532660573095
 20
-1166.227157939902
 11
-887.7498569953754
 21
-1167.014889725196
 72
     1
 10
-887.7498569953754
 20
-1167.014889725196
 11
-889.1525812131234
 21
-1167.014889725196
 72
     1
 10
-889.1525812131234
 20
-1167.014889725196
 11
-887.7546281661831
 21
-1165.434030731421
 72
     1
 10
-887.7546281661831
 20
-1165.434030731421
 11
-889.0571577969506
 21
-1163.961080201385
 72
     1
 10
-889.0571577969506
 20
-1163.961080201385
 11
-887.6544335792014
 21
-1163.961080201385
 72
     1
 10
-887.6544335792014
 20
-1163.961080201385
 11
-887.0532660573095
 21
-1164.64090352294
 72
     1
 10
-887.0532660573095
 20
-1164.64090352294
 11
-886.4520985354168
 21
-1163.961080201385
 72
     1
 10
-886.4520985354168
 20
-1163.961080201385
 11
-885.0493743176695
 21
-1163.961080201385
 97
       12
330
28A
330
289
330
288
330
2E5
330
2E6
330
2E2
330
2E3
330
28E
330
28D
330
28C
330
28B
330
2E4
 75
     1
 76
     2
 52
45.0
 41
0.1
 77
     0
 78
     1
 53
45.0
 43
62.7811309658083
 44
-72.3161373035813
 45
-0.1414213562373095
 46
0.0
 79
     0
 98
        1
 10
0.0
 20
0.0
  0
HATCH
  5
3A7
330
71
100
AcDbEntity
  8
1
  6
Continuous
 62
     2
100
AcDbHatch
 10
0.0
 20
0.0
 30
0.0
210
0.0
220
0.0
230
1.0
  2
CUSTOM13
 70
     0
 71
     1
 91
        1
 92
        1
 93
       12
 72
     1
 10
-885.0493743176695
 20
-1163.961080201385
 11
-886.3519039484361
 21
-1165.434030731421
 72
     1
 10
-886.3519039484361
 20
-1165.434030731421
 11
-884.9539509014958
 21
-1167.014889725196
 72
     1
 10
-884.9539509014958
 20
-1167.014889725196
 11
-886.3566751192441
 21
-1167.014889725196
 72
     1
 10
-886.3566751192441
 20
-1167.014889725196
 11
-887.0532660573095
 21
-1166.227157939902
 72
     1
 10
-887.0532660573095
 20
-1166.227157939902
 11
-887.7498569953754
 21
-1167.014889725196
 72
     1
 10
-887.7498569953754
 20
-1167.014889725196
 11
-889.1525812131234
 21
-1167.014889725196
 72
     1
 10
-889.1525812131234
 20
-1167.014889725196
 11
-887.7546281661831
 21
-1165.434030731421
 72
     1
 10
-887.7546281661831
 20
-1165.434030731421
 11
-889.0571577969506
 21
-1163.961080201385
 72
     1
 10
-889.0571577969506
 20
-1163.961080201385
 11
-887.6544335792014
 21
-1163.961080201385
 72
     1
 10
-887.6544335792014
 20
-1163.961080201385
 11
-887.0532660573095
 21
-1164.64090352294
 72
     1
 10
-887.0532660573095
 20
-1164.64090352294
 11
-886.4520985354168
 21
-1163.961080201385
 72
     1
 10
-886.4520985354168
 20
-1163.961080201385
 11
-885.0493743176695
 21
-1163.961080201385
 97
       12
330
28A
330
289
330
288
330
2E5
330
2E6
330
2E2
330
2E3
330
28E
330
28D
330
28C
330
28B
330
2E4
 75
     1
 76
     2
 52
45.0
 41
0.1
 77
     0
 78
     1
 53
45.0
 43
62.7811309658083
 44
-72.3161373035813
 45
-0.1414213562373095
 46
0.0
 79
     0
 98
        1
 10
0.0
 20
0.0
  0
HATCH
  5
3A8
330
71
100
AcDbEntity
  8
1
  6
Continuous
 62
     2
100
AcDbHatch
 10
0.0
 20
0.0
 30
0.0
210
0.0
220
0.0
230
1.0
  2
CUSTOM14
 70
     0
 71
     1
 91
        2
 92
        1
 93
        6
 72
     1
 10
-904.0671097318155
 20
-1166.071811484052
 11
-904.825877319596
 21
-1166.071811484052
 72
     1
 10
-904.825877319596
 20
-1166.071811484052
 11
-904.825877319596
 21
-1167.014889725196
 72
     1
 10
-904.825877319596
 20
-1167.014889725196
 11
-906.0663817298499
 21
-1167.014889725196
 72
     1
 10
-906.0663817298499
 20
-1167.014889725196
 11
-906.0663817298499
 21
-1163.961080201385
 72
     1
 10
-906.0663817298499
 20
-1163.961080201385
 11
-904.0671097318155
 21
-1163.961080201385
 72
     2
 10
-904.0671097318155
 20
-1165.016445842718
 40
1.055365641333992
 50
270.0
 51
450.0
 73
     0
 97
        6
330
2B2
330
2B1
330
2BE
330
2BD
330
2B3
330
344
 92
       16
 93
        4
 72
     2
 10
-904.5085822580539
 20
-1164.977049871496
 40
0.3528638246709761
 50
270.0
 51
450.0
 73
     1
 72
     1
 10
-904.5085822580539
 20
-1164.624186046825
 11
-904.825877319596
 21
-1164.624186046825
 72
     1
 10
-904.825877319596
 20
-1164.624186046825
 11
-904.825877319596
 21
-1165.329913696167
 72
     1
 10
-904.825877319596
 20
-1165.329913696167
 11
-904.5085822580539
 21
-1165.329913696167
 97
        4
330
358
330
2AF
330
2BF
330
2B0
 75
     1
 76
     2
 52
45.0
 41
0.1
 77
     0
 78
     1
 53
45.0
 43
62.7811309658083
 44
-72.3161373035813
 45
-0.1414213562373095
 46
0.0
 79
     0
 98
        1
 10
0.0
 20
0.0
  0
HATCH
  5
3A9
330
71
100
AcDbEntity
  8
1
  6
Continuous
 62
     2
100
AcDbHatch
 10
0.0
 20
0.0
 30
0.0
210
0.0
220
0.0
230
1.0
  2
CUSTOM15
 70
     0
 71
     1
 91
        2
 92
        1
 93
        6
 72
     1
 10
-904.0671097318155
 20
-1166.071811484052
 11
-904.825877319596
 21
-1166.071811484052
 72
     1
 10
-904.825877319596
 20
-1166.071811484052
 11
-904.825877319596
 21
-1167.014889725196
 72
     1
 10
-904.825877319596
 20
-1167.014889725196
 11
-906.0663817298499
 21
-1167.014889725196
 72
     1
 10
-906.0663817298499
 20
-1167.014889725196
 11
-906.0663817298499
 21
-1163.961080201385
 72
     1
 10
-906.0663817298499
 20
-1163.961080201385
 11
-904.0671097318155
 21
-1163.961080201385
 72
     2
 10
-904.0671097318155
 20
-1165.016445842718
 40
1.055365641333992
 50
270.0
 51
450.0
 73
     0
 97
        6
330
2B2
330
2B1
330
2BE
330
2BD
330
2B3
330
344
 92
       16
 93
        4
 72
     2
 10
-904.5085822580539
 20
-1164.977049871496
 40
0.3528638246709761
 50
270.0
 51
450.0
 73
     1
 72
     1
 10
-904.5085822580539
 20
-1164.624186046825
 11
-904.825877319596
 21
-1164.624186046825
 72
     1
 10
-904.825877319596
 20
-1164.624186046825
 11
-904.825877319596
 21
-1165.329913696167
 72
     1
 10
-904.825877319596
 20
-1165.329913696167
 11
-904.5085822580539
 21
-1165.329913696167
 97
        4
330
358
330
2AF
330
2BF
330
2B0
 75
     1
 76
     2
 52
45.0
 41
0.1
 77
     0
 78
     1
 53
45.0
 43
62.7811309658083
 44
-72.3161373035813
 45
-0.1414213562373095
 46
0.0
 79
     0
 98
        1
 10
0.0
 20
0.0
  0
HATCH
  5
3AA
330
71
100
AcDbEntity
  8
1
  6
Continuous
 62
     2
100
AcDbHatch
 10
0.0
 20
0.0
 30
0.0
210
0.0
220
0.0
230
1.0
  2
CUSTOM16
 70
     0
 71
     1
 91
        2
 92
        1
 93
        4
 72
     2
 10
-901.5105669834564
 20
-1169.385750449768
 40
2.065479772209248
 50
62.45185182431621
 51
117.5481481756586
 73
     1
 72
     2
 10
-901.7915068752898
 20
-1168.847175439465
 40
1.458034083651995
 50
117.5481481756546
 51
242.4518518243454
 73
     1
 72
     2
 10
-901.5105669834564
 20
-1168.308600429162
 40
2.065479772208775
 50
242.4518518243414
 51
297.5481481756838
 73
     1
 72
     2
 10
-901.2296270916232
 20
-1168.847175439465
 40
1.458034083652521
 50
297.5481481756942
 51
422.4518518243058
 73
     1
 97
        4
330
350
330
34F
330
351
330
34E
 92
       16
 93
        4
 72
     2
 10
-901.7103070198028
 20
-1168.847175439465
 40
0.7717997786795957
 50
321.8795802028306
 51
398.1204197971695
 73
     1
 72
     2
 10
-901.5105669834564
 20
-1168.690444261345
 40
0.517908573013574
 50
38.12041979721116
 51
141.8795802028121
 73
     1
 72
     2
 10
-901.3108269471104
 20
-1168.847175439465
 40
0.7717997786795957
 50
141.8795802028306
 51
218.1204197971694
 73
     1
 72
     2
 10
-901.5105669834564
 20
-1169.003906617585
 40
0.5179085730138424
 50
218.1204197971879
 51
321.8795802027889
 73
     1
 97
        4
330
36C
330
369
330
36A
330
36B
 75
     1
 76
     2
 52
45.0
 41
0.1
 77
     0
 78
     1
 53
45.0
 43
62.7811309658083
 44
-72.3161373035813
 45
-0.1414213562373095
 46
0.0
 79
     0
 98
        1
 10
0.0
 20
0.0
  0
HATCH
  5
3AB
330
71
100
AcDbEntity
  8
1
  6
Continuous
 62
     2
100
AcDbHatch
 10
0.0
 20
0.0
 30
0.0
210
0.0
220
0.0
230
1.0
  2
CUSTOM17
 70
     0
 71
     1
 91
        2
 92
        1
 93
        4
 72
     2
 10
-901.5105669834564
 20
-1169.385750449768
 40
2.065479772209248
 50
62.45185182431621
 51
117.5481481756586
 73
     1
 72
     2
 10
-901.7915068752898
 20
-1168.847175439465
 40
1.458034083651995
 50
117.5481481756546
 51
242.4518518243454
 73
     1
 72
     2
 10
-901.5105669834564
 20
-1168.308600429162
 40
2.065479772208775
 50
242.4518518243414
 51
297.5481481756838
 73
     1
 72
     2
 10
-901.2296270916232
 20
-1168.847175439465
 40
1.458034083652521
 50
297.5481481756942
 51
422.4518518243058
 73
     1
 97
        4
330
350
330
34F
330
351
330
34E
 92
       16
 93
        4
 72
     2
 10
-901.7103070198028
 20
-1168.847175439465
 40
0.7717997786795957
 50
321.8795802028306
 51
398.1204197971695
 73
     1
 72
     2
 10
-901.5105669834564
 20
-1168.690444261345
 40
0.517908573013574
 50
38.12041979721116
 51
141.8795802028121
 73
     1
 72
     2
 10
-901.3108269471104
 20
-1168.847175439465
 40
0.7717997786795957
 50
141.8795802028306
 51
218.1204197971694
 73
     1
 72
     2
 10
-901.5105669834564
 20
-1169.003906617585
 40
0.5179085730138424
 50
218.1204197971879
 51
321.8795802027889
 73
     1
 97
        4
330
36C
330
369
330
36A
330
36B
 75
     1
 76
     2
 52
45.0
 41
0.1
 77
     0
 78
     1
 53
45.0
 43
62.7811309658083
 44
-72.3161373035813
 45
-0.1414213562373095
 46
0.0
 79
     0
 98
        1
 10
0.0
 20
0.0
  0
HATCH
  5
3AC
330
71
100
AcDbEntity
  8
1
  6
Continuous
 62
     2
100
AcDbHatch
 10
0.0
 20
0.0
 30
0.0
210
0.0
220
0.0
230
1.0
  2
CUSTOM18
 70
     0
 71
     1
 91
        2
 92
        1
 93
       12
 72
     1
 10
-894.6155717890472
 20
-1164.659093806828
 11
-895.9514996154749
 21
-1164.659093806828
 72
     1
 10
-895.9514996154749
 20
-1164.659093806828
 11
-895.9514996154749
 21
-1165.138978160569
 72
     1
 10
-895.9514996154749
 20
-1165.138978160569
 11
-894.6155717890472
 21
-1165.138978160569
 72
     1
 10
-894.6155717890472
 20
-1165.138978160569
 11
-894.6155717890472
 21
-1165.836991766012
 72
     1
 10
-894.6155717890472
 20
-1165.836991766012
 11
-895.9514996154749
 21
-1165.836991766012
 72
     1
 10
-895.9514996154749
 20
-1165.836991766012
 11
-895.9514996154749
 21
-1166.316876119754
 72
     1
 10
-895.9514996154749
 20
-1166.316876119754
 11
-894.6155717890472
 21
-1166.316876119754
 72
     1
 10
-894.6155717890472
 20
-1166.316876119754
 11
-894.6155717890472
 21
-1167.014889725196
 72
     1
 10
-894.6155717890472
 20
-1167.014889725196
 11
-897.7658915128281
 21
-1167.014889725196
 72
     2
 10
-897.7658915128281
 20
-1165.487984963291
 40
1.526904761906053
 50
90.0
 51
270.0
 73
     0
 72
     1
 10
-897.7658915128281
 20
-1163.961080201385
 11
-894.6155717890472
 21
-1163.961080201385
 72
     1
 10
-894.6155717890472
 20
-1163.961080201385
 11
-894.6155717890472
 21
-1164.659093806828
 97
       12
330
2C6
330
359
330
2C7
330
2C8
330
2C9
330
2CA
330
2A7
330
2A6
330
2A5
330
2A4
330
2CB
330
2C5
 92
       16
 93
        4
 72
     2
 10
-897.549619502663
 20
-1165.33125378517
 40
0.5179085730131915
 50
38.12041979711647
 51
141.8795802028913
 73
     1
 72
     2
 10
-897.3498794663167
 20
-1165.487984963291
 40
0.7717997786797746
 50
141.879580202841
 51
218.120419797159
 73
     1
 72
     2
 10
-897.549619502663
 20
-1165.644716141411
 40
0.5179085730138424
 50
218.1204197971879
 51
321.8795802028044
 73
     1
 72
     2
 10
-897.7493595390091
 20
-1165.487984963291
 40
0.7717997786795957
 50
321.8795802028306
 51
398.1204197971695
 73
     1
 97
        4
330
353
330
352
330
34D
330
34C
 75
     1
 76
     2
 52
45.0
 41
0.1
 77
     0
 78
     1
 53
45.0
 43
62.7811309658083
 44
-72.3161373035813
 45
-0.1414213562373095
 46
0.0
 79
     0
 98
        1
 10
0.0
 20
0.0
  0
HATCH
  5
3AD
330
71
100
AcDbEntity
  8
1
  6
Continuous
 62
     2
100
AcDbHatch
 10
0.0
 20
0.0
 30
0.0
210
0.0
220
0.0
230
1.0
  2
CUSTOM19
 70
     0
 71
     1
 91
        2
 92
        1
 93
       12
 72
     1
 10
-894.6155717890472
 20
-1164.659093806828
 11
-895.9514996154749
 21
-1164.659093806828
 72
     1
 10
-895.9514996154749
 20
-1164.659093806828
 11
-895.9514996154749
 21
-1165.138978160569
 72
     1
 10
-895.9514996154749
 20
-1165.138978160569
 11
-894.6155717890472
 21
-1165.138978160569
 72
     1
 10
-894.6155717890472
 20
-1165.138978160569
 11
-894.6155717890472
 21
-1165.836991766012
 72
     1
 10
-894.6155717890472
 20
-1165.836991766012
 11
-895.9514996154749
 21
-1165.836991766012
 72
     1
 10
-895.9514996154749
 20
-1165.836991766012
 11
-895.9514996154749
 21
-1166.316876119754
 72
     1
 10
-895.9514996154749
 20
-1166.316876119754
 11
-894.6155717890472
 21
-1166.316876119754
 72
     1
 10
-894.6155717890472
 20
-1166.316876119754
 11
-894.6155717890472
 21
-1167.014889725196
 72
     1
 10
-894.6155717890472
 20
-1167.014889725196
 11
-897.7658915128281
 21
-1167.014889725196
 72
     2
 10
-897.7658915128281
 20
-1165.487984963291
 40
1.526904761906053
 50
90.0
 51
270.0
 73
     0
 72
     1
 10
-897.7658915128281
 20
-1163.961080201385
 11
-894.6155717890472
 21
-1163.961080201385
 72
     1
 10
-894.6155717890472
 20
-1163.961080201385
 11
-894.6155717890472
 21
-1164.659093806828
 97
       12
330
2C6
330
359
330
2C7
330
2C8
330
2C9
330
2CA
330
2A7
330
2A6
330
2A5
330
2A4
330
2CB
330
2C5
 92
       16
 93
        4
 72
     2
 10
-897.549619502663
 20
-1165.33125378517
 40
0.5179085730131915
 50
38.12041979711647
 51
141.8795802028913
 73
     1
 72
     2
 10
-897.3498794663167
 20
-1165.487984963291
 40
0.7717997786797746
 50
141.879580202841
 51
218.120419797159
 73
     1
 72
     2
 10
-897.549619502663
 20
-1165.644716141411
 40
0.5179085730138424
 50
218.1204197971879
 51
321.8795802028044
 73
     1
 72
     2
 10
-897.7493595390091
 20
-1165.487984963291
 40
0.7717997786795957
 50
321.8795802028306
 51
398.1204197971695
 73
     1
 97
        4
330
353
330
352
330
34D
330
34C
 75
     1
 76
     2
 52
45.0
 41
0.1
 77
     0
 78
     1
 53
45.0
 43
62.7811309658083
 44
-72.3161373035813
 45
-0.1414213562373095
 46
0.0
 79
     0
 98
        1
 10
0.0
 20
0.0
  0
HATCH
  5
3AE
330
71
100
AcDbEntity
  8
1
  6
Continuous
 62
     2
100
AcDbHatch
 10
0.0
 20
0.0
 30
0.0
210
0.0
220
0.0
230
1.0
  2
CUSTOM20
 70
     0
 71
     1
 91
        4
 92
        1
 93
        8
 72
     1
 10
-906.5434988107168
 20
-1164.385324816787
 11
-906.5434988107168
 21
-1169.949835585987
 72
     2
 10
-906.9677434261006
 20
-1169.949835585987
 40
0.4242446153828041
 50
0.0
 51
90.0
 73
     0
 72
     1
 10
-906.9677434261006
 20
-1170.37408020137
 11
-912.4410555168175
 21
-1170.37408020137
 72
     2
 10
-912.4410555168175
 20
-1169.949835585987
 40
0.4242446153828041
 50
90.0
 51
180.0
 73
     0
 72
     1
 10
-912.8653001322003
 20
-1169.949835585987
 11
-912.8653001322003
 21
-1164.385324816787
 72
     2
 10
-912.4410555168175
 20
-1164.385324816787
 40
0.424244615383941
 50
180.0
 51
270.0
 73
     0
 72
     1
 10
-912.4410555168175
 20
-1163.961080201403
 11
-906.9677434261006
 21
-1163.961080201403
 72
     2
 10
-906.9677434261006
 20
-1164.385324816787
 40
0.4242446153838273
 50
270.0
 51
360.0
 73
     0
 97
        8
330
2BA
330
349
330
2BB
330
354
330
2B8
330
34B
330
2B9
330
34A
 92
       16
 93
       12
 72
     2
 10
-911.847160840071
 20
-1169.345807722737
 40
0.3157169230756836
 50
180.0
 51
270.0
 73
     1
 72
     1
 10
-911.847160840071
 20
-1169.661524645813
 11
-910.3713275790615
 21
-1169.661524645813
 72
     2
 10
-910.3713275790615
 20
-1169.345807722737
 40
0.3157169230760246
 50
270.0
 51
360.0
 73
     1
 72
     1
 10
-910.0556106559848
 20
-1169.345807722737
 11
-910.0556106559848
 21
-1167.815036791205
 72
     2
 10
-910.3713275790615
 20
-1167.815036791205
 40
0.3157169230767067
 50
0.0
 51
64.80558935147235
 73
     1
 72
     2
 10
-909.8487431314865
 20
-1166.704207045142
 40
0.9118975235571412
 50
115.194410648512
 51
244.8055893514637
 73
     0
 72
     2
 10
-910.3713275790615
 20
-1165.59337729908
 40
0.3157169230765287
 50
295.1944106485277
 51
360.0
 73
     1
 72
     1
 10
-910.0556106559848
 20
-1165.59337729908
 11
-910.0556106559848
 21
-1164.98935268002
 72
     2
 10
-910.3713275790615
 20
-1164.98935268002
 40
0.3157169230767067
 50
0.0
 51
90.0
 73
     1
 72
     1
 10
-910.3713275790615
 20
-1164.673635756943
 11
-911.847160840071
 21
-1164.673635756943
 72
     2
 10
-911.847160840071
 20
-1164.98935268002
 40
0.3157169230769341
 50
90.0
 51
180.0
 73
     1
 72
     1
 10
-912.1628777631466
 20
-1164.98935268002
 11
-912.1628777631466
 21
-1169.345807722737
 97
       12
330
345
330
2BC
330
348
330
2B7
330
355
330
356
330
347
330
2B6
330
346
330
2B5
330
357
330
2B4
 92
       16
 93
        8
 72
     2
 10
-909.2716121535392
 20
-1167.813348645111
 40
0.3157169230770072
 50
115.3740086783167
 51
180.0
 73
     1
 72
     1
 10
-909.587329076616
 20
-1167.813348645111
 11
-909.587329076616
 21
-1168.395200051806
 72
     2
 10
-909.2716121535392
 20
-1168.395200051806
 40
0.3157169230768204
 50
180.0
 51
269.8110329574181
 73
     1
 72
     2
 10
-909.2659960182292
 20
-1166.692365104237
 40
2.018561131933152
 50
269.811032957581
 51
450.188967042419
 73
     1
 72
     2
 10
-909.2716121535392
 20
-1164.989530156668
 40
0.3157169230760149
 50
90.18896704258206
 51
180.0
 73
     1
 72
     1
 10
-909.587329076616
 20
-1164.989530156668
 11
-909.587329076616
 21
-1165.595065445174
 72
     2
 10
-909.2716121535392
 20
-1165.595065445174
 40
0.3157169230768204
 50
180.0
 51
244.6259913216833
 73
     1
 72
     2
 10
-909.7976548516272
 20
-1166.704207045142
 40
0.9118481501445603
 50
295.3740086782019
 51
424.6259913218226
 73
     0
 97
        8
330
361
330
281
330
35E
330
35F
330
33D
330
280
330
360
330
33C
 92
       16
 93
        1
 72
     2
 10
-909.8214698662999
 20
-1166.704207045142
 40
0.4709789327785074
 50
0.0
 51
360.0
 73
     1
 97
        1
330
36F
 75
     1
 76
     2
 52
45.0
 41
0.1
 77
     0
 78
     1
 53
45.0
 43
62.7811309658083
 44
-72.3161373035813
 45
-0.1414213562373095
 46
0.0
 79
     0
 98
        1
 10
0.0
 20
0.0
  0
HATCH
  5
3AF
330
71
100
AcDbEntity
  8
1
  6
Continuous
 62
     2
100
AcDbHatch
 10
0.0
 20
0.0
 30
0.0
210
0.0
220
0.0
230
1.0
  2
CUSTOM21
 70
     0
 71
     1
 91
        4
 92
        1
 93
        8
 72
     1
 10
-906.5434988107168
 20
-1164.385324816787
 11
-906.5434988107168
 21
-1169.949835585987
 72
     2
 10
-906.9677434261006
 20
-1169.949835585987
 40
0.4242446153828041
 50
0.0
 51
90.0
 73
     0
 72
     1
 10
-906.9677434261006
 20
-1170.37408020137
 11
-912.4410555168175
 21
-1170.37408020137
 72
     2
 10
-912.4410555168175
 20
-1169.949835585987
 40
0.4242446153828041
 50
90.0
 51
180.0
 73
     0
 72
     1
 10
-912.8653001322003
 20
-1169.949835585987
 11
-912.8653001322003
 21
-1164.385324816787
 72
     2
 10
-912.4410555168175
 20
-1164.385324816787
 40
0.424244615383941
 50
180.0
 51
270.0
 73
     0
 72
     1
 10
-912.4410555168175
 20
-1163.961080201403
 11
-906.9677434261006
 21
-1163.961080201403
 72
     2
 10
-906.9677434261006
 20
-1164.385324816787
 40
0.4242446153838273
 50
270.0
 51
360.0
 73
     0
 97
        8
330
2BA
330
349
330
2BB
330
354
330
2B8
330
34B
330
2B9
330
34A
 92
       16
 93
       12
 72
     2
 10
-911.847160840071
 20
-1169.345807722737
 40
0.3157169230756836
 50
180.0
 51
270.0
 73
     1
 72
     1
 10
-911.847160840071
 20
-1169.661524645813
 11
-910.3713275790615
 21
-1169.661524645813
 72
     2
 10
-910.3713275790615
 20
-1169.345807722737
 40
0.3157169230760246
 50
270.0
 51
360.0
 73
     1
 72
     1
 10
-910.0556106559848
 20
-1169.345807722737
 11
-910.0556106559848
 21
-1167.815036791205
 72
     2
 10
-910.3713275790615
 20
-1167.815036791205
 40
0.3157169230767067
 50
0.0
 51
64.80558935147235
 73
     1
 72
     2
 10
-909.8487431314865
 20
-1166.704207045142
 40
0.9118975235571412
 50
115.194410648512
 51
244.8055893514637
 73
     0
 72
     2
 10
-910.3713275790615
 20
-1165.59337729908
 40
0.3157169230765287
 50
295.1944106485277
 51
360.0
 73
     1
 72
     1
 10
-910.0556106559848
 20
-1165.59337729908
 11
-910.0556106559848
 21
-1164.98935268002
 72
     2
 10
-910.3713275790615
 20
-1164.98935268002
 40
0.3157169230767067
 50
0.0
 51
90.0
 73
     1
 72
     1
 10
-910.3713275790615
 20
-1164.673635756943
 11
-911.847160840071
 21
-1164.673635756943
 72
     2
 10
-911.847160840071
 20
-1164.98935268002
 40
0.3157169230769341
 50
90.0
 51
180.0
 73
     1
 72
     1
 10
-912.1628777631466
 20
-1164.98935268002
 11
-912.1628777631466
 21
-1169.345807722737
 97
       12
330
345
330
2BC
330
348
330
2B7
330
355
330
356
330
347
330
2B6
330
346
330
2B5
330
357
330
2B4
 92
       16
 93
        8
 72
     2
 10
-909.2716121535392
 20
-1167.813348645111
 40
0.3157169230770072
 50
115.3740086783167
 51
180.0
 73
     1
 72
     1
 10
-909.587329076616
 20
-1167.813348645111
 11
-909.587329076616
 21
-1168.395200051806
 72
     2
 10
-909.2716121535392
 20
-1168.395200051806
 40
0.3157169230768204
 50
180.0
 51
269.8110329574181
 73
     1
 72
     2
 10
-909.2659960182292
 20
-1166.692365104237
 40
2.018561131933152
 50
269.811032957581
 51
450.188967042419
 73
     1
 72
     2
 10
-909.2716121535392
 20
-1164.989530156668
 40
0.3157169230760149
 50
90.18896704258206
 51
180.0
 73
     1
 72
     1
 10
-909.587329076616
 20
-1164.989530156668
 11
-909.587329076616
 21
-1165.595065445174
 72
     2
 10
-909.2716121535392
 20
-1165.595065445174
 40
0.3157169230768204
 50
180.0
 51
244.6259913216833
 73
     1
 72
     2
 10
-909.7976548516272
 20
-1166.704207045142
 40
0.9118481501445603
 50
295.3740086782019
 51
424.6259913218226
 73
     0
 97
        8
330
361
330
281
330
35E
330
35F
330
33D
330
280
330
360
330
33C
 92
       16
 93
        1
 72
     2
 10
-909.8214698662999
 20
-1166.704207045142
 40
0.4709789327785074
 50
0.0
 51
360.0
 73
     1
 97
        1
330
36F
 75
     1
 76
     2
 52
45.0
 41
0.1
 77
     0
 78
     1
 53
45.0
 43
62.7811309658083
 44
-72.3161373035813
 45
-0.1414213562373095
 46
0.0
 79
     0
 98
        1
 10
0.0
 20
0.0
  0
HATCH
  5
3B0
330
71
100
AcDbEntity
  8
1
  6
Continuous
 62
     2
100
AcDbHatch
 10
0.0
 20
0.0
 30
0.0
210
0.0
220
0.0
230
1.0
  2
CUSTOM22
 70
     0
 71
     1
 91
        1
 92
        1
 93
       18
 72
     1
 10
-884.9539509014958
 20
-1168.105535983683
 11
-885.7650499389692
 21
-1168.105535983683
 72
     1
 10
-885.7650499389692
 20
-1168.105535983683
 11
-885.7650499389692
 21
-1170.37408020137
 72
     1
 10
-885.7650499389692
 20
-1170.37408020137
 11
-886.957842641137
 21
-1170.37408020137
 72
     1
 10
-886.957842641137
 20
-1170.37408020137
 11
-886.957842641137
 21
-1168.105535983683
 72
     1
 10
-886.957842641137
 20
-1168.105535983683
 11
-888.061481940705
 21
-1168.105535983683
 72
     2
 10
-888.061481940705
 20
-1169.060058990509
 40
0.9545230068260935
 50
90.0
 51
109.3371432194175
 73
     1
 72
     2
 10
-888.2081519388087
 20
-1168.642104010126
 40
0.5115800601948339
 50
109.3371432194654
 51
151.4785267424227
 73
     1
 72
     2
 10
-887.8307946807272
 20
-1168.847175439465
 40
0.9410597353349766
 50
151.4785267423711
 51
208.5214732576775
 73
     1
 72
     2
 10
-888.2081519388087
 20
-1169.052246868804
 40
0.5115800601958815
 50
208.5214732576444
 51
246.6277221118294
 73
     1
 72
     2
 10
-888.0517119061055
 20
-1168.690254850093
 40
0.9059297849860852
 50
246.6277221118363
 51
288.4480761180647
 73
     1
 72
     2
 10
-888.4698796397676
 20
-1167.436709074057
 40
2.227384008972611
 50
288.4480761181346
 51
301.9309089499398
 73
     1
 72
     1
 10
-887.2918245977436
 20
-1169.327059793207
 11
-887.2918245977436
 21
-1170.19957680001
 72
     2
 10
-888.6277525148603
 20
-1165.534494494209
 40
4.852596863498034
 50
74.02000874166028
 51
84.84185523036248
 73
     0
 72
     2
 10
-888.3388964201245
 20
-1168.73438507743
 40
1.639695123940421
 50
84.84185523032188
 51
164.9381082228985
 73
     0
 72
     2
 10
-888.7580242635861
 20
-1168.847175439465
 40
1.205656168392903
 50
164.9381082229099
 51
195.0618917770901
 73
     0
 72
     2
 10
-888.3388964201245
 20
-1168.9599658015
 40
1.639695123939873
 50
195.0618917771015
 51
270.0
 73
     0
 72
     1
 10
-888.3388964201245
 20
-1167.32027067756
 11
-884.9539509014958
 21
-1167.320270677559
 72
     1
 10
-884.9539509014958
 20
-1167.320270677559
 11
-884.9539509014958
 21
-1168.105535983683
 97
       18
330
283
330
35A
330
35B
330
343
330
342
330
2E7
330
341
330
340
330
35C
330
33F
330
35D
330
33E
330
2E8
330
282
330
287
330
286
330
285
330
284
 75
     1
 76
     2
 52
45.0
 41
0.1
 77
     0
 78
     1
 53
45.0
 43
62.7811309658083
 44
-72.3161373035813
 45
-0.1414213562373095
 46
0.0
 79
     0
 98
        1
 10
0.0
 20
0.0
  0
HATCH
  5
3B1
330
71
100
AcDbEntity
  8
1
  6
Continuous
 62
     2
100
AcDbHatch
 10
0.0
 20
0.0
 30
0.0
210
0.0
220
0.0
230
1.0
  2
CUSTOM23
 70
     0
 71
     1
 91
        1
 92
        1
 93
       18
 72
     1
 10
-884.9539509014958
 20
-1168.105535983683
 11
-885.7650499389692
 21
-1168.105535983683
 72
     1
 10
-885.7650499389692
 20
-1168.105535983683
 11
-885.7650499389692
 21
-1170.37408020137
 72
     1
 10
-885.7650499389692
 20
-1170.37408020137
 11
-886.957842641137
 21
-1170.37408020137
 72
     1
 10
-886.957842641137
 20
-1170.37408020137
 11
-886.957842641137
 21
-1168.105535983683
 72
     1
 10
-886.957842641137
 20
-1168.105535983683
 11
-888.061481940705
 21
-1168.105535983683
 72
     2
 10
-888.061481940705
 20
-1169.060058990509
 40
0.9545230068260935
 50
90.0
 51
109.3371432194175
 73
     1
 72
     2
 10
-888.2081519388087
 20
-1168.642104010126
 40
0.5115800601948339
 50
109.3371432194654
 51
151.4785267424227
 73
     1
 72
     2
 10
-887.8307946807272
 20
-1168.847175439465
 40
0.9410597353349766
 50
151.4785267423711
 51
208.5214732576775
 73
     1
 72
     2
 10
-888.2081519388087
 20
-1169.052246868804
 40
0.5115800601958815
 50
208.5214732576444
 51
246.6277221118294
 73
     1
 72
     2
 10
-888.0517119061055
 20
-1168.690254850093
 40
0.9059297849860852
 50
246.6277221118363
 51
288.4480761180647
 73
     1
 72
     2
 10
-888.4698796397676
 20
-1167.436709074057
 40
2.227384008972611
 50
288.4480761181346
 51
301.9309089499398
 73
     1
 72
     1
 10
-887.2918245977436
 20
-1169.327059793207
 11
-887.2918245977436
 21
-1170.19957680001
 72
     2
 10
-888.6277525148603
 20
-1165.534494494209
 40
4.852596863498034
 50
74.02000874166028
 51
84.84185523036248
 73
     0
 72
     2
 10
-888.3388964201245
 20
-1168.73438507743
 40
1.639695123940421
 50
84.84185523032188
 51
164.9381082228985
 73
     0
 72
     2
 10
-888.7580242635861
 20
-1168.847175439465
 40
1.205656168392903
 50
164.9381082229099
 51
195.0618917770901
 73
     0
 72
     2
 10
-888.3388964201245
 20
-1168.9599658015
 40
1.639695123939873
 50
195.0618917771015
 51
270.0
 73
     0
 72
     1
 10
-888.3388964201245
 20
-1167.32027067756
 11
-884.9539509014958
 21
-1167.320270677559
 72
     1
 10
-884.9539509014958
 20
-1167.320270677559
 11
-884.9539509014958
 21
-1168.105535983683
 97
       18
330
283
330
35A
330
35B
330
343
330
342
330
2E7
330
341
330
340
330
35C
330
33F
330
35D
330
33E
330
2E8
330
282
330
287
330
286
330
285
330
284
 75
     1
 76
     2
 52
45.0
 41
0.1
 77
     0
 78
     1
 53
45.0
 43
62.7811309658083
 44
-72.3161373035813
 45
-0.1414213562373095
 46
0.0
 79
     0
 98
        1
 10
0.0
 20
0.0
  0
HATCH
  5
3B2
330
71
100
AcDbEntity
  8
1
  6
Continuous
 62
     2
100
AcDbHatch
 10
0.0
 20
0.0
 30
0.0
210
0.0
220
0.0
230
1.0
  2
CUSTOM24
 70
     0
 71
     1
 91
        1
 92
        1
 93
       14
 72
     2
 10
-904.4415978993773
 20
-1168.9599658015
 40
1.639695123940213
 50
84.84185523036543
 51
164.9381082228913
 73
     1
 72
     2
 10
-904.8607257428401
 20
-1168.847175439465
 40
1.205656168390927
 50
164.9381082228846
 51
195.0618917771153
 73
     1
 72
     2
 10
-904.4415978993773
 20
-1168.73438507743
 40
1.639695123939652
 50
195.0618917771087
 51
275.1581447696346
 73
     1
 72
     2
 10
-904.7304539941132
 20
-1165.534494494209
 40
4.852596863497932
 50
275.1581447696242
 51
285.9799912583526
 73
     1
 72
     1
 10
-903.3945260769954
 20
-1170.19957680001
 11
-903.3945260769954
 21
-1169.327059793206
 72
     2
 10
-904.5725811190205
 20
-1167.436709074056
 40
2.227384008973726
 50
58.06909105003847
 51
71.55192388187186
 73
     0
 72
     2
 10
-904.1544133853595
 20
-1168.690254850093
 40
0.9059297849857245
 50
71.55192388186713
 51
113.3722778881109
 73
     0
 72
     2
 10
-904.3108534180616
 20
-1169.052246868804
 40
0.5115800601944485
 50
113.3722778881823
 51
151.4785267423843
 73
     0
 72
     2
 10
-903.9334961599812
 20
-1168.847175439465
 40
0.941059735333413
 50
151.478526742305
 51
208.5214732577436
 73
     0
 72
     2
 10
-904.3108534180616
 20
-1168.642104010126
 40
0.5115800601953623
 50
208.5214732577276
 51
246.6277221118278
 73
     0
 72
     2
 10
-904.1544133853595
 20
-1169.004096028837
 40
0.9059297849857901
 50
246.6277221118892
 51
288.4480761181329
 73
     0
 72
     2
 10
-904.5725811190205
 20
-1170.257641804873
 40
2.227384008973574
 50
288.4480761181374
 51
301.9309089499646
 73
     0
 72
     1
 10
-903.3945260769954
 20
-1168.367291085723
 11
-903.3945260769954
 21
-1167.49477407892
 72
     2
 10
-904.7304539941132
 20
-1172.159856384721
 40
4.852596863498158
 50
74.02000874164733
 51
84.84185523037584
 73
     1
 97
       14
330
362
330
363
330
364
330
365
330
2E9
330
33B
330
33A
330
339
330
366
330
367
330
338
330
368
330
2EA
330
337
 75
     1
 76
     2
 52
45.0
 41
0.1
 77
     0
 78
     1
 53
45.0
 43
62.7811309658083
 44
-72.3161373035813
 45
-0.1414213562373095
 46
0.0
 79
     0
 98
        1
 10
0.0
 20
0.0
  0
HATCH
  5
3B3
330
71
100
AcDbEntity
  8
1
  6
Continuous
 62
     2
100
AcDbHatch
 10
0.0
 20
0.0
 30
0.0
210
0.0
220
0.0
230
1.0
  2
CUSTOM25
 70
     0
 71
     1
 91
        1
 92
        1
 93
       14
 72
     2
 10
-904.4415978993773
 20
-1168.9599658015
 40
1.639695123940213
 50
84.84185523036543
 51
164.9381082228913
 73
     1
 72
     2
 10
-904.8607257428401
 20
-1168.847175439465
 40
1.205656168390927
 50
164.9381082228846
 51
195.0618917771153
 73
     1
 72
     2
 10
-904.4415978993773
 20
-1168.73438507743
 40
1.639695123939652
 50
195.0618917771087
 51
275.1581447696346
 73
     1
 72
     2
 10
-904.7304539941132
 20
-1165.534494494209
 40
4.852596863497932
 50
275.1581447696242
 51
285.9799912583526
 73
     1
 72
     1
 10
-903.3945260769954
 20
-1170.19957680001
 11
-903.3945260769954
 21
-1169.327059793206
 72
     2
 10
-904.5725811190205
 20
-1167.436709074056
 40
2.227384008973726
 50
58.06909105003847
 51
71.55192388187186
 73
     0
 72
     2
 10
-904.1544133853595
 20
-1168.690254850093
 40
0.9059297849857245
 50
71.55192388186713
 51
113.3722778881109
 73
     0
 72
     2
 10
-904.3108534180616
 20
-1169.052246868804
 40
0.5115800601944485
 50
113.3722778881823
 51
151.4785267423843
 73
     0
 72
     2
 10
-903.9334961599812
 20
-1168.847175439465
 40
0.941059735333413
 50
151.478526742305
 51
208.5214732577436
 73
     0
 72
     2
 10
-904.3108534180616
 20
-1168.642104010126
 40
0.5115800601953623
 50
208.5214732577276
 51
246.6277221118278
 73
     0
 72
     2
 10
-904.1544133853595
 20
-1169.004096028837
 40
0.9059297849857901
 50
246.6277221118892
 51
288.4480761181329
 73
     0
 72
     2
 10
-904.5725811190205
 20
-1170.257641804873
 40
2.227384008973574
 50
288.4480761181374
 51
301.9309089499646
 73
     0
 72
     1
 10
-903.3945260769954
 20
-1168.367291085723
 11
-903.3945260769954
 21
-1167.49477407892
 72
     2
 10
-904.7304539941132
 20
-1172.159856384721
 40
4.852596863498158
 50
74.02000874164733
 51
84.84185523037584
 73
     1
 97
       14
330
362
330
363
330
364
330
365
330
2E9
330
33B
330
33A
330
339
330
366
330
367
330
338
330
368
330
2EA
330
337
 75
     1
 76
     2
 52
45.0
 41
0.1
 77
     0
 78
     1
 53
45.0
 43
62.7811309658083
 44
-72.3161373035813
 45
-0.1414213562373095
 46
0.0
 79
     0
 98
        1
 10
0.0
 20
0.0
  0
ENDBLK
  5
73
330
71
100
AcDbEntity
  8
0
100
AcDbBlockEnd
  0
BLOCK
  5
75
330
74
100
AcDbEntity
  8
0
100
AcDbBlockBegin
  2
_punkt
 70
     0
 10
-787.557150492013
 20
-1177.667580201387
 30
0.0
  3
_punkt
  1

  0
LINE
  5
3B4
330
74
100
AcDbEntity
  8
1
  6
Continuous
 62
     2
100
AcDbLine
 10
-787.5571504920129
 20
-1177.667580201387
 30
0.0
 11
-782.5571504920154
 21
-1177.667580201387
 31
0.0
  0
LINE
  5
3B5
330
74
100
AcDbEntity
  8
1
  6
Continuous
 62
     2
100
AcDbLine
 10
-787.5571504920129
 20
-1177.667580201387
 30
0.0
 11
-787.5571504920129
 21
-1182.667580201386
 31
0.0
  0
ENDBLK
  5
76
330
74
100
AcDbEntity
  8
0
100
AcDbBlockEnd
  0
BLOCK
  5
7A
330
77
100
AcDbEntity
  8
0
100
AcDbBlockBegin
  2
A3I_CS
 70
     0
 10
-787.5571504920129
 20
-1182.667580201386
 30
0.0
  3
A3I_CS
  1

  0
INSERT
  5
78
330
77
100
AcDbEntity
  8
1
100
AcDbBlockReference
  2
_rahmen
 10
-787.5571504920129
 20
-1182.667580201386
 30
0.0
  0
INSERT
  5
79
330
77
100
AcDbEntity
  8
1
100
AcDbBlockReference
  2
_punkt
 10
-787.557150492013
 20
-1177.667580201387
 30
0.0
  0
ENDBLK
  5
7B
330
77
100
AcDbEntity
  8
0
100
AcDbBlockEnd
  0
BLOCK
  5
84
330
7C
100
AcDbEntity
  8
0
100
AcDbBlockBegin
  2
1
 70
     0
 10
0.0
 20
0.0
 30
0.0
  3
1
  1

  0
INSERT
  5
7D
330
7C
100
AcDbEntity
  8
0
100
AcDbBlockReference
  2
AllgSicht1
 10
-875.9177316352592
 20
-1080.000000000148
 30
0.0
  0
INSERT
  5
7E
330
7C
100
AcDbEntity
  8
0
100
AcDbBlockReference
  2
Drfsicht1
 10
-1045.6531685
 20
-1058.750001
 30
0.0
  0
INSERT
  5
7F
330
7C
100
AcDbEntity
  8
0
100
AcDbBlockReference
  2
Rckans1
 10
-871.3468322756929
 20
-967.0
 30
0.0
  0
INSERT
  5
80
330
7C
100
AcDbEntity
  8
0
100
AcDbBlockReference
  2
SA_Links1
 10
-959.000000000005
 20
-967.0
 30
0.0
  0
INSERT
  5
81
330
7C
100
AcDbEntity
  8
0
100
AcDbBlockReference
  2
SA_Rechts1
 10
-1147.306335
 20
-967.0
 30
0.0
  0
INSERT
  5
82
330
7C
100
AcDbEntity
  8
0
100
AcDbBlockReference
  2
Vordans1
 10
-1045.6531685
 20
-967.0
 30
0.0
  0
INSERT
  5
83
330
7C
100
AcDbEntity
  8
0
100
AcDbBlockReference
  2
A3I_CS
 10
-787.5571504920129
 20
-1182.667580201386
 30
0.0
  0
ENDBLK
  5
85
330
7C
100
AcDbEntity
  8
0
100
AcDbBlockEnd
  0
BLOCK
  5
177
330
16E
100
AcDbEntity
  8
0
100
AcDbBlockBegin
  2
*D17
 70
     1
 10
0.0
 20
0.0
 30
0.0
  3
*D17
  1

  0
LINE
  5
16F
330
16E
100
AcDbEntity
  8
1
  6
Continuous
 62
     2
100
AcDbLine
 10
-1102.622200684009
 20
-1047.000000999995
 30
0.0
 11
-1102.622200684009
 21
-1054.000000999995
 31
0.0
  0
LINE
  5
170
330
16E
100
AcDbEntity
  8
1
  6
Continuous
 62
     2
100
AcDbLine
 10
-1102.622200684009
 20
-1054.000000999995
 30
0.0
 11
-1102.622200684009
 21
-1063.500000999995
 31
0.0
  0
LINE
  5
171
330
16E
100
AcDbEntity
  8
1
  6
Continuous
 62
     2
100
AcDbLine
 10
-1102.622200684009
 20
-1063.500000999995
 30
0.0
 11
-1102.622200684009
 21
-1070.500000999995
 31
0.0
  0
LINE
  5
172
330
16E
100
AcDbEntity
  8
1
  6
Continuous
 62
     2
100
AcDbLine
 10
-1092.622200684009
 20
-1054.000000999995
 30
0.0
 11
-1104.122200684009
 21
-1054.000000999995
 31
0.0
  0
LINE
  5
173
330
16E
100
AcDbEntity
  8
1
  6
Continuous
 62
     2
100
AcDbLine
 10
-1092.622200684009
 20
-1063.500000999995
 30
0.0
 11
-1104.122200684009
 21
-1063.500000999995
 31
0.0
  0
SOLID
  5
174
330
16E
100
AcDbEntity
  8
1
 62
     2
100
AcDbTrace
 10
-1103.082984425565
 20
-1050.500000999995
 30
0.0
 11
-1102.161416942453
 21
-1050.500000999995
 31
0.0
 12
-1102.622200684009
 22
-1054.000000999995
 32
0.0
 13
-1102.622200684009
 23
-1054.000000999995
 33
0.0
  0
SOLID
  5
175
330
16E
100
AcDbEntity
  8
1
 62
     2
100
AcDbTrace
 10
-1102.161416942453
 20
-1067.000000999995
 30
0.0
 11
-1103.082984425565
 21
-1067.000000999995
 31
0.0
 12
-1102.622200684009
 22
-1063.500000999995
 32
0.0
 13
-1102.622200684009
 23
-1063.500000999995
 33
0.0
  0
MTEXT
  5
176
330
16E
100
AcDbEntity
  8
1
 62
     3
100
AcDbMText
 10
-1104.472200684009
 20
-1062.01869630361
 30
0.0
 40
3.5
 41
0.0
 71
     7
 72
     1
  1
9,5
  7
CONVERTER_11
 11
0.0
 21
1.0
 31
0.0
 73
     1
 44
0.60024009603842
  0
ENDBLK
  5
178
330
16E
100
AcDbEntity
  8
0
100
AcDbBlockEnd
  0
BLOCK
  5
23A
330
233
100
AcDbEntity
  8
0
100
AcDbBlockBegin
  2
*D18
 70
     1
 10
0.0
 20
0.0
 30
0.0
  3
*D18
  1

  0
LINE
  5
234
330
233
100
AcDbEntity
  8
1
  6
Continuous
 62
     2
100
AcDbLine
 10
-1087.15633658401
 20
-998.6816342342607
 30
0.0
 11
-1069.556327068946
 21
-998.6816342342607
 31
0.0
  0
LINE
  5
235
330
233
100
AcDbEntity
  8
1
  6
Continuous
 62
     2
100
AcDbLine
 10
-1087.15633658401
 20
-984.6000000953672
 30
0.0
 11
-1087.15633658401
 21
-1000.181634234261
 31
0.0
  0
LINE
  5
236
330
233
100
AcDbEntity
  8
1
  6
Continuous
 62
     2
100
AcDbLine
 10
-1069.556327068946
 20
-988.6816342342607
 30
0.0
 11
-1069.556327068946
 21
-1000.181634234261
 31
0.0
  0
SOLID
  5
237
330
233
100
AcDbEntity
  8
1
 62
     2
100
AcDbTrace
 10
-1083.65633658401
 20
-998.2208504927048
 30
0.0
 11
-1083.65633658401
 21
-999.1424179758167
 31
0.0
 12
-1087.15633658401
 22
-998.6816342342607
 32
0.0
 13
-1087.15633658401
 23
-998.6816342342607
 33
0.0
  0
SOLID
  5
238
330
233
100
AcDbEntity
  8
1
 62
     2
100
AcDbTrace
 10
-1073.056327068946
 20
-999.1424179758167
 30
0.0
 11
-1073.056327068946
 21
-998.2208504927048
 31
0.0
 12
-1069.556327068946
 22
-998.6816342342607
 32
0.0
 13
-1069.556327068946
 23
-998.6816342342607
 33
0.0
  0
MTEXT
  5
239
330
233
100
AcDbEntity
  8
1
 62
     3
100
AcDbMText
 10
-1082.16884356214
 20
-996.8316342342608
 30
0.0
 40
3.5
 41
0.0
 71
     7
 72
     1
  1
17,6
  7
CONVERTER_11
 11
0.9999999999970619
 21
2.424068405545306E-6
 31
0.0
 73
     1
 44
0.60024009603842
  0
ENDBLK
  5
23B
330
233
100
AcDbEntity
  8
0
100
AcDbBlockEnd
  0
BLOCK
  5
245
330
23E
100
AcDbEntity
  8
0
100
AcDbBlockBegin
  2
*D19
 70
     1
 10
0.0
 20
0.0
 30
0.0
  3
*D19
  1

  0
LINE
  5
23F
330
23E
100
AcDbEntity
  8
1
  6
Continuous
 62
     2
100
AcDbLine
 10
-1094.55633702401
 20
-1007.62552558616
 30
0.0
 11
-1069.556328889274
 21
-1007.62552558616
 31
0.0
  0
LINE
  5
240
330
23E
100
AcDbEntity
  8
1
  6
Continuous
 62
     2
100
AcDbLine
 10
-1094.55633702401
 20
-974.0717983087804
 30
0.0
 11
-1094.55633702401
 21
-1009.12552558616
 31
0.0
  0
LINE
  5
241
330
23E
100
AcDbEntity
  8
1
  6
Continuous
 62
     2
100
AcDbLine
 10
-1069.556328889274
 20
-980.8110155659045
 30
0.0
 11
-1069.556328889274
 21
-1009.12552558616
 31
0.0
  0
SOLID
  5
242
330
23E
100
AcDbEntity
  8
1
 62
     2
100
AcDbTrace
 10
-1091.05633702401
 20
-1007.164741844604
 30
0.0
 11
-1091.05633702401
 21
-1008.086309327716
 31
0.0
 12
-1094.55633702401
 22
-1007.62552558616
 32
0.0
 13
-1094.55633702401
 23
-1007.62552558616
 33
0.0
  0
SOLID
  5
243
330
23E
100
AcDbEntity
  8
1
 62
     2
100
AcDbTrace
 10
-1073.056328889274
 20
-1008.086309327716
 30
0.0
 11
-1073.056328889274
 21
-1007.164741844604
 31
0.0
 12
-1069.556328889274
 22
-1007.62552558616
 32
0.0
 13
-1069.556328889274
 23
-1007.62552558616
 33
0.0
  0
MTEXT
  5
244
330
23E
100
AcDbEntity
  8
1
 62
     3
100
AcDbMText
 10
-1084.58740511718
 20
-1006.12552558616
 30
0.0
 40
3.5
 41
0.0
 71
     7
 72
     1
  1
25
  7
CONVERTER_11
 11
0.9999999999970619
 21
2.424068405545306E-6
 31
0.0
 73
     1
 44
0.60024009603842
  0
ENDBLK
  5
246
330
23E
100
AcDbEntity
  8
0
100
AcDbBlockEnd
  0
BLOCK
  5
250
330
249
100
AcDbEntity
  8
0
100
AcDbBlockBegin
  2
*D20
 70
     1
 10
0.0
 20
0.0
 30
0.0
  3
*D20
  1

  0
LINE
  5
24A
330
249
100
AcDbEntity
  8
1
  6
Continuous
 62
     2
100
AcDbLine
 10
-1102.622200684009
 20
-984.6000000953672
 30
0.0
 11
-1102.622200684009
 21
-944.9999980153672
 31
0.0
  0
LINE
  5
24B
330
249
100
AcDbEntity
  8
1
  6
Continuous
 62
     2
100
AcDbLine
 10
-1087.15633658401
 20
-984.6000000953672
 30
0.0
 11
-1104.122200684009
 21
-984.6000000953672
 31
0.0
  0
LINE
  5
24C
330
249
100
AcDbEntity
  8
1
  6
Continuous
 62
     2
100
AcDbLine
 10
-1073.85633778401
 20
-944.9999980153672
 30
0.0
 11
-1104.122200684009
 21
-944.9999980153672
 31
0.0
  0
SOLID
  5
24D
330
249
100
AcDbEntity
  8
1
 62
     2
100
AcDbTrace
 10
-1103.082984425565
 20
-981.1000000953672
 30
0.0
 11
-1102.161416942453
 21
-981.1000000953672
 31
0.0
 12
-1102.622200684009
 22
-984.6000000953672
 32
0.0
 13
-1102.622200684009
 23
-984.6000000953672
 33
0.0
  0
SOLID
  5
24E
330
249
100
AcDbEntity
  8
1
 62
     2
100
AcDbTrace
 10
-1102.161416942453
 20
-948.4999980153672
 30
0.0
 11
-1103.082984425565
 21
-948.4999980153672
 31
0.0
 12
-1102.622200684009
 22
-944.9999980153672
 32
0.0
 13
-1102.622200684009
 23
-944.9999980153672
 33
0.0
  0
MTEXT
  5
24F
330
249
100
AcDbEntity
  8
1
 62
     3
100
AcDbMText
 10
-1104.472200684009
 20
-970.019362429457
 30
0.0
 40
3.5
 41
0.0
 71
     7
 72
     1
  1
39,6
  7
CONVERTER_11
 11
0.0
 21
1.0
 31
0.0
 73
     1
 44
0.60024009603842
  0
ENDBLK
  5
251
330
249
100
AcDbEntity
  8
0
100
AcDbBlockEnd
  0
BLOCK
  5
25B
330
254
100
AcDbEntity
  8
0
100
AcDbBlockBegin
  2
*D21
 70
     1
 10
0.0
 20
0.0
 30
0.0
  3
*D21
  1

  0
LINE
  5
255
330
254
100
AcDbEntity
  8
1
  6
Continuous
 62
     2
100
AcDbLine
 10
-1109.39230695883
 20
-989.0000014553672
 30
0.0
 11
-1109.39230695883
 21
-944.9999980153672
 31
0.0
  0
LINE
  5
256
330
254
100
AcDbEntity
  8
1
  6
Continuous
 62
     2
100
AcDbLine
 10
-1091.556337944009
 20
-989.0000014553672
 30
0.0
 11
-1110.89230695883
 21
-989.0000014553672
 31
0.0
  0
LINE
  5
257
330
254
100
AcDbEntity
  8
1
  6
Continuous
 62
     2
100
AcDbLine
 10
-1073.85633778401
 20
-944.9999980153672
 30
0.0
 11
-1110.89230695883
 21
-944.9999980153672
 31
0.0
  0
SOLID
  5
258
330
254
100
AcDbEntity
  8
1
 62
     2
100
AcDbTrace
 10
-1109.853090700386
 20
-985.5000014553672
 30
0.0
 11
-1108.931523217274
 21
-985.5000014553672
 31
0.0
 12
-1109.39230695883
 22
-989.0000014553672
 32
0.0
 13
-1109.39230695883
 23
-989.0000014553672
 33
0.0
  0
SOLID
  5
259
330
254
100
AcDbEntity
  8
1
 62
     2
100
AcDbTrace
 10
-1108.931523217274
 20
-948.4999980153672
 30
0.0
 11
-1109.853090700386
 21
-948.4999980153672
 31
0.0
 12
-1109.39230695883
 22
-944.9999980153672
 32
0.0
 13
-1109.39230695883
 23
-944.9999980153672
 33
0.0
  0
MTEXT
  5
25A
330
254
100
AcDbEntity
  8
1
 62
     3
100
AcDbMText
 10
-1110.89230695883
 20
-967.831862429457
 30
0.0
 40
3.5
 41
0.0
 71
     7
 72
     1
  1
44
  7
CONVERTER_11
 11
0.0
 21
1.0
 31
0.0
 73
     1
 44
0.60024009603842
  0
ENDBLK
  5
25C
330
254
100
AcDbEntity
  8
0
100
AcDbBlockEnd
  0
BLOCK
  5
266
330
25F
100
AcDbEntity
  8
0
100
AcDbBlockBegin
  2
*D22
 70
     1
 10
0.0
 20
0.0
 30
0.0
  3
*D22
  1

  0
LINE
  5
260
330
25F
100
AcDbEntity
  8
1
  6
Continuous
 62
     2
100
AcDbLine
 10
-996.7499998334924
 20
-1017.91517702597
 30
0.0
 11
-1094.556337024009
 21
-1017.91517702597
 31
0.0
  0
LINE
  5
261
330
25F
100
AcDbEntity
  8
1
  6
Continuous
 62
     2
100
AcDbLine
 10
-996.7499998334924
 20
-973.999998015367
 30
0.0
 11
-996.7499998334924
 21
-1019.41517702597
 31
0.0
  0
LINE
  5
262
330
25F
100
AcDbEntity
  8
1
  6
Continuous
 62
     2
100
AcDbLine
 10
-1094.556337024009
 20
-974.0717983087803
 30
0.0
 11
-1094.556337024009
 21
-1019.41517702597
 31
0.0
  0
SOLID
  5
263
330
25F
100
AcDbEntity
  8
1
 62
     2
100
AcDbTrace
 10
-1000.249999833492
 20
-1018.375960767526
 30
0.0
 11
-1000.249999833492
 21
-1017.454393284414
 31
0.0
 12
-996.7499998334924
 22
-1017.91517702597
 32
0.0
 13
-996.7499998334924
 23
-1017.91517702597
 33
0.0
  0
SOLID
  5
264
330
25F
100
AcDbEntity
  8
1
 62
     2
100
AcDbTrace
 10
-1091.056337024009
 20
-1017.454393284414
 30
0.0
 11
-1091.056337024009
 21
-1018.375960767526
 31
0.0
 12
-1094.556337024009
 22
-1017.91517702597
 32
0.0
 13
-1094.556337024009
 23
-1017.91517702597
 33
0.0
  0
MTEXT
  5
265
330
25F
100
AcDbEntity
  8
1
 62
     3
100
AcDbMText
 10
-1057.05431578265
 20
-1016.06517702597
 30
0.0
 40
3.5
 41
0.0
 71
     7
 72
     1
  1
97,8
  7
CONVERTER_11
 11
0.9999999999970619
 21
2.424068405545306E-6
 31
0.0
 73
     1
 44
0.60024009603842
  0
ENDBLK
  5
267
330
25F
100
AcDbEntity
  8
0
100
AcDbBlockEnd
  0
ENDSEC
  0
SECTION
  2
ENTITIES
  0
INSERT
  5
86
330
1F
100
AcDbEntity
  8
1
100
AcDbBlockReference
  2
1
 10
0.0
 20
0.0
 30
0.0
  0
ENDSEC
  0
SECTION
  2
OBJECTS
  0
DICTIONARY
  5
C
330
0
100
AcDbDictionary
281
     1
  3
ACAD_GROUP
350
D
  3
ACAD_LAYOUT
350
1A
  3
ACAD_MATERIAL
350
3B
  3
ACAD_MLEADERSTYLE
350
3DD
  3
ACAD_MLINESTYLE
350
17
  3
ACAD_PLOTSETTINGS
350
19
  3
ACAD_PLOTSTYLENAME
350
E
  3
ACAD_TABLESTYLE
350
3DC
  3
ACAD_VISUALSTYLE
350
2A
  0
DICTIONARY
  5
D
102
{ACAD_REACTORS
330
C
102
}
330
C
100
AcDbDictionary
281
     1
  0
DICTIONARY
  5
1A
102
{ACAD_REACTORS
330
C
102
}
330
C
100
AcDbDictionary
281
     1
  3
Layout1
350
1E
  3
Layout2
350
26
  3
Model
350
22
  0
DICTIONARY
  5
3B
102
{ACAD_REACTORS
330
C
102
}
330
C
100
AcDbDictionary
281
     1
  3
ByBlock
350
3D
  3
ByLayer
350
3C
  3
Global
350
3E
  0
DICTIONARY
  5
3DD
102
{ACAD_REACTORS
330
C
102
}
330
C
100
AcDbDictionary
281
     1
  0
DICTIONARY
  5
17
102
{ACAD_REACTORS
330
C
102
}
330
C
100
AcDbDictionary
281
     1
  3
Standard
350
18
  0
DICTIONARY
  5
19
102
{ACAD_REACTORS
330
C
102
}
330
C
100
AcDbDictionary
281
     1
  0
ACDBDICTIONARYWDFLT
  5
E
102
{ACAD_REACTORS
330
C
102
}
330
C
100
AcDbDictionary
281
     1
  3
Normal
350
F
100
AcDbDictionaryWithDefault
340
F
  0
DICTIONARY
  5
3DC
102
{ACAD_REACTORS
330
C
102
}
330
C
100
AcDbDictionary
281
     1
  0
DICTIONARY
  5
2A
102
{ACAD_REACTORS
330
C
102
}
330
C
100
AcDbDictionary
281
     1
  3
2dWireframe
350
2F
  3
3D Hidden
350
31
  3
3dWireframe
350
30
  3
Basic
350
32
  3
Brighten
350
36
  3
ColorChange
350
3A
  3
Conceptual
350
34
  3
Dim
350
35
  3
Facepattern
350
39
  3
Flat
350
2B
  3
FlatWithEdges
350
2C
  3
Gouraud
350
2D
  3
GouraudWithEdges
350
2E
  3
Linepattern
350
38
  3
Realistic
350
33
  3
Thicken
350
37
  0
LAYOUT
  5
1E
102
{ACAD_REACTORS
330
1A
102
}
330
1A
100
AcDbPlotSettings
  1

  2
none_device
  4

  6

 40
0.0
 41
0.0
 42
0.0
 43
0.0
 44
0.0
 45
0.0
 46
0.0
 47
0.0
 48
0.0
 49
0.0
140
0.0
141
0.0
142
1.0
143
1.0
 70
   688
 72
     0
 73
     0
 74
     5
  7

 75
    16
 76
     0
 77
     2
 78
   300
147
1.0
148
0.0
149
0.0
100
AcDbLayout
  1
Layout1
 70
     1
 71
     1
 10
0.0
 20
0.0
 11
12.0
 21
9.0
 12
0.0
 22
0.0
 32
0.0
 14
1.00000000000000E+20
 24
1.00000000000000E+20
 34
1.00000000000000E+20
 15
-1.00000000000000E+20
 25
-1.00000000000000E+20
 35
-1.00000000000000E+20
146
0.0
 13
0.0
 23
0.0
 33
0.0
 16
1.0
 26
0.0
 36
0.0
 17
0.0
 27
1.0
 37
0.0
 76
     0
330
1B
  0
LAYOUT
  5
26
102
{ACAD_REACTORS
330
1A
102
}
330
1A
100
AcDbPlotSettings
  1

  2
none_device
  4

  6

 40
0.0
 41
0.0
 42
0.0
 43
0.0
 44
0.0
 45
0.0
 46
0.0
 47
0.0
 48
0.0
 49
0.0
140
0.0
141
0.0
142
1.0
143
1.0
 70
   688
 72
     0
 73
     0
 74
     5
  7

 75
    16
 76
     0
 77
     2
 78
   300
147
1.0
148
0.0
149
0.0
100
AcDbLayout
  1
Layout2
 70
     1
 71
     2
 10
0.0
 20
0.0
 11
0.0
 21
0.0
 12
0.0
 22
0.0
 32
0.0
 14
0.0
 24
0.0
 34
0.0
 15
0.0
 25
0.0
 35
0.0
146
0.0
 13
0.0
 23
0.0
 33
0.0
 16
1.0
 26
0.0
 36
0.0
 17
0.0
 27
1.0
 37
0.0
 76
     0
330
23
  0
LAYOUT
  5
22
102
{ACAD_REACTORS
330
1A
102
}
330
1A
100
AcDbPlotSettings
  1

  2
none_device
  4

  6

 40
0.0
 41
0.0
 42
0.0
 43
0.0
 44
0.0
 45
0.0
 46
0.0
 47
0.0
 48
0.0
 49
0.0
140
0.0
141
0.0
142
1.0
143
1.0
 70
  1712
 72
     0
 73
     0
 74
     0
  7

 75
     0
 76
     0
 77
     2
 78
   300
147
1.0
148
0.0
149
0.0
100
AcDbLayout
  1
Model
 70
     1
 71
     0
 10
0.0
 20
0.0
 11
12.0
 21
9.0
 12
0.0
 22
0.0
 32
0.0
 14
-1202.557150492014
 24
-1182.667580201386
 34
0.0
 15
-782.5571504920154
 25
-885.667580201386
 35
0.0
146
0.0
 13
0.0
 23
0.0
 33
0.0
 16
1.0
 26
0.0
 36
0.0
 17
0.0
 27
1.0
 37
0.0
 76
     0
330
1F
331
29
  0
MATERIAL
  5
3D
102
{ACAD_REACTORS
330
3B
102
}
102
{ACAD_XDICTIONARY
360
3D8
102
}
330
3B
100
AcDbMaterial
  1
ByBlock
  0
MATERIAL
  5
3C
102
{ACAD_REACTORS
330
3B
102
}
102
{ACAD_XDICTIONARY
360
3D6
102
}
330
3B
100
AcDbMaterial
  1
ByLayer
  0
MATERIAL
  5
3E
102
{ACAD_REACTORS
330
3B
102
}
102
{ACAD_XDICTIONARY
360
3DA
102
}
330
3B
100
AcDbMaterial
  1
Global
  0
MLINESTYLE
  5
18
102
{ACAD_REACTORS
330
17
102
}
330
17
100
AcDbMlineStyle
  2
Standard
 70
     0
  3

 62
   256
 51
90.0
 52
90.0
 71
     2
 49
0.5
 62
   256
  6
BYLAYER
 49
-0.5
 62
   256
  6
BYLAYER
  0
ACDBPLACEHOLDER
  5
F
102
{ACAD_REACTORS
330
E
102
}
330
E
  0
VISUALSTYLE
  5
2F
102
{ACAD_REACTORS
330
2A
102
}
102
{ACAD_XDICTIONARY
360
3BE
102
}
330
2A
100
AcDbVisualStyle
  2
2dWireframe
 70
     4
 71
     0
 72
     2
 73
     0
 90
        0
 40
-0.6
 41
-30.0
 62
     5
 63
     7
421
 16777215
 74
     1
 91
        4
 64
     7
 65
   257
 75
     1
175
     1
 42
1.0
 92
        0
 66
   257
 43
1.0
 76
     1
 77
     6
 78
     2
 67
     7
 79
     5
170
     0
171
     0
290
     0
174
     0
 93
        1
 44
0.0
173
     0
291
     0
 45
0.0
1001
ACAD
1000
AcDbSavedByObjectVersion
1070
     0
  0
VISUALSTYLE
  5
31
102
{ACAD_REACTORS
330
2A
102
}
102
{ACAD_XDICTIONARY
360
3C2
102
}
330
2A
100
AcDbVisualStyle
  2
3D Hidden
 70
     6
 71
     1
 72
     2
 73
     2
 90
        0
 40
-0.6
 41
-30.0
 62
     5
 63
     7
421
 16777215
 74
     2
 91
        2
 64
     7
 65
   257
 75
     2
175
     1
 42
40.0
 92
        0
 66
   257
 43
1.0
 76
     1
 77
     6
 78
     2
 67
     7
 79
     3
170
     0
171
     0
290
     0
174
     0
 93
        1
 44
0.0
173
     0
291
     0
 45
0.0
1001
ACAD
1000
AcDbSavedByObjectVersion
1070
     0
  0
VISUALSTYLE
  5
30
102
{ACAD_REACTORS
330
2A
102
}
102
{ACAD_XDICTIONARY
360
3C0
102
}
330
2A
100
AcDbVisualStyle
  2
3dWireframe
 70
     5
 71
     0
 72
     2
 73
     0
 90
        0
 40
-0.6
 41
-30.0
 62
     5
 63
     7
421
 16777215
 74
     1
 91
        4
 64
     7
 65
   257
 75
     1
175
     1
 42
1.0
 92
        0
 66
   257
 43
1.0
 76
     1
 77
     6
 78
     2
 67
     7
 79
     5
170
     0
171
     0
290
     0
174
     0
 93
        1
 44
0.0
173
     0
291
     0
 45
0.0
1001
ACAD
1000
AcDbSavedByObjectVersion
1070
     0
  0
VISUALSTYLE
  5
32
102
{ACAD_REACTORS
330
2A
102
}
102
{ACAD_XDICTIONARY
360
3C4
102
}
330
2A
100
AcDbVisualStyle
  2
Basic
 70
     7
 71
     1
 72
     0
 73
     1
 90
        0
 40
-0.6
 41
-30.0
 62
     5
 63
     7
421
 16777215
 74
     0
 91
        4
 64
     7
 65
   257
 75
     1
175
     1
 42
1.0
 92
        8
 66
     7
 43
1.0
 76
     1
 77
     6
 78
     2
 67
     7
 79
     5
170
     0
171
     0
290
     0
174
     0
 93
        1
 44
0.0
173
     0
291
     1
 45
0.0
1001
ACAD
1000
AcDbSavedByObjectVersion
1070
     0
  0
VISUALSTYLE
  5
36
102
{ACAD_REACTORS
330
2A
102
}
102
{ACAD_XDICTIONARY
360
3CC
102
}
330
2A
100
AcDbVisualStyle
  2
Brighten
 70
    12
 71
     2
 72
     2
 73
     0
 90
        0
 40
-0.6
 41
-30.0
 62
     5
 63
     7
421
 16777215
 74
     1
 91
        4
 64
     7
 65
   257
 75
     1
175
     1
 42
1.0
 92
        8
 66
     7
 43
1.0
 76
     1
 77
     6
 78
     2
 67
     7
 79
     5
170
     0
171
     0
290
     0
174
     0
 93
        1
 44
50.0
173
     0
291
     1
 45
0.0
1001
ACAD
1000
AcDbSavedByObjectVersion
1070
     0
  0
VISUALSTYLE
  5
3A
102
{ACAD_REACTORS
330
2A
102
}
102
{ACAD_XDICTIONARY
360
3D4
102
}
330
2A
100
AcDbVisualStyle
  2
ColorChange
 70
    16
 71
     2
 72
     2
 73
     3
 90
        0
 40
-0.6
 41
-30.0
 62
     5
 63
     8
421
  8421504
 74
     1
 91
        4
 64
     7
 65
   257
 75
     1
175
     1
 42
1.0
 92
        8
 66
     8
424
  8421504
 43
1.0
 76
     1
 77
     6
 78
     2
 67
     7
 79
     5
170
     0
171
     0
290
     0
174
     0
 93
        1
 44
0.0
173
     0
291
     1
 45
0.0
1001
ACAD
1000
AcDbSavedByObjectVersion
1070
     0
  0
VISUALSTYLE
  5
34
102
{ACAD_REACTORS
330
2A
102
}
102
{ACAD_XDICTIONARY
360
3C8
102
}
330
2A
100
AcDbVisualStyle
  2
Conceptual
 70
     9
 71
     3
 72
     2
 73
     0
 90
        0
 40
-0.6
 41
-30.0
 62
     5
 63
     7
421
 16777215
 74
     2
 91
        2
 64
     7
 65
   257
 75
     1
175
     1
 42
40.0
 92
        8
 66
     7
 43
1.0
 76
     1
 77
     6
 78
     2
 67
     7
 79
     3
170
     0
171
     0
290
     0
174
     0
 93
        1
 44
0.0
173
     0
291
     0
 45
0.0
1001
ACAD
1000
AcDbSavedByObjectVersion
1070
     0
  0
VISUALSTYLE
  5
35
102
{ACAD_REACTORS
330
2A
102
}
102
{ACAD_XDICTIONARY
360
3CA
102
}
330
2A
100
AcDbVisualStyle
  2
Dim
 70
    11
 71
     2
 72
     2
 73
     0
 90
        0
 40
-0.6
 41
-30.0
 62
     5
 63
     7
421
 16777215
 74
     1
 91
        4
 64
     7
 65
   257
 75
     1
175
     1
 42
1.0
 92
        8
 66
     7
 43
1.0
 76
     1
 77
     6
 78
     2
 67
     7
 79
     5
170
     0
171
     0
290
     0
174
     0
 93
        1
 44
-50.0
173
     0
291
     1
 45
0.0
1001
ACAD
1000
AcDbSavedByObjectVersion
1070
     0
  0
VISUALSTYLE
  5
39
102
{ACAD_REACTORS
330
2A
102
}
102
{ACAD_XDICTIONARY
360
3D2
102
}
330
2A
100
AcDbVisualStyle
  2
Facepattern
 70
    15
 71
     2
 72
     2
 73
     0
 90
        0
 40
-0.6
 41
-30.0
 62
     5
 63
     7
421
 16777215
 74
     1
 91
        4
 64
     7
 65
   257
 75
     1
175
     1
 42
1.0
 92
        8
 66
     7
 43
1.0
 76
     1
 77
     6
 78
     2
 67
     7
 79
     5
170
     0
171
     0
290
     0
174
     0
 93
        1
 44
0.0
173
     0
291
     1
 45
0.0
1001
ACAD
1000
AcDbSavedByObjectVersion
1070
     0
  0
VISUALSTYLE
  5
2B
102
{ACAD_REACTORS
330
2A
102
}
102
{ACAD_XDICTIONARY
360
3B6
102
}
330
2A
100
AcDbVisualStyle
  2
Flat
 70
     0
 71
     2
 72
     1
 73
     1
 90
        2
 40
-0.6
 41
30.0
 62
     5
 63
     7
421
 16777215
 74
     0
 91
        4
 64
     7
 65
   257
 75
     1
175
     1
 42
1.0
 92
        8
 66
     7
 43
1.0
 76
     1
 77
     6
 78
     2
 67
     7
 79
     5
170
     0
171
     0
290
     0
174
     0
 93
       13
 44
0.0
173
     0
291
     1
 45
0.0
1001
ACAD
1000
AcDbSavedByObjectVersion
1070
     0
  0
VISUALSTYLE
  5
2C
102
{ACAD_REACTORS
330
2A
102
}
102
{ACAD_XDICTIONARY
360
3B8
102
}
330
2A
100
AcDbVisualStyle
  2
FlatWithEdges
 70
     1
 71
     2
 72
     1
 73
     1
 90
        2
 40
-0.6
 41
30.0
 62
     5
 63
     7
421
 16777215
 74
     1
 91
        4
 64
     7
 65
   257
 75
     1
175
     1
 42
1.0
 92
        0
 66
   257
 43
1.0
 76
     1
 77
     6
 78
     2
 67
     7
 79
     5
170
     0
171
     0
290
     0
174
     0
 93
       13
 44
0.0
173
     0
291
     1
 45
0.0
1001
ACAD
1000
AcDbSavedByObjectVersion
1070
     0
  0
VISUALSTYLE
  5
2D
102
{ACAD_REACTORS
330
2A
102
}
102
{ACAD_XDICTIONARY
360
3BA
102
}
330
2A
100
AcDbVisualStyle
  2
Gouraud
 70
     2
 71
     2
 72
     2
 73
     1
 90
        2
 40
-0.6
 41
30.0
 62
     5
 63
     7
421
 16777215
 74
     0
 91
        4
 64
     7
 65
   257
 75
     1
175
     1
 42
1.0
 92
        0
 66
     7
 43
1.0
 76
     1
 77
     6
 78
     2
 67
     7
 79
     5
170
     0
171
     0
290
     0
174
     0
 93
       13
 44
0.0
173
     0
291
     1
 45
0.0
1001
ACAD
1000
AcDbSavedByObjectVersion
1070
     0
  0
VISUALSTYLE
  5
2E
102
{ACAD_REACTORS
330
2A
102
}
102
{ACAD_XDICTIONARY
360
3BC
102
}
330
2A
100
AcDbVisualStyle
  2
GouraudWithEdges
 70
     3
 71
     2
 72
     2
 73
     1
 90
        2
 40
-0.6
 41
30.0
 62
     5
 63
     7
421
 16777215
 74
     1
 91
        4
 64
     7
 65
   257
 75
     1
175
     1
 42
1.0
 92
        0
 66
   257
 43
1.0
 76
     1
 77
     6
 78
     2
 67
     7
 79
     5
170
     0
171
     0
290
     0
174
     0
 93
       13
 44
0.0
173
     0
291
     1
 45
0.0
1001
ACAD
1000
AcDbSavedByObjectVersion
1070
     0
  0
VISUALSTYLE
  5
38
102
{ACAD_REACTORS
330
2A
102
}
102
{ACAD_XDICTIONARY
360
3D0
102
}
330
2A
100
AcDbVisualStyle
  2
Linepattern
 70
    14
 71
     2
 72
     2
 73
     0
 90
        0
 40
-0.6
 41
-30.0
 62
     5
 63
     7
421
 16777215
 74
     1
 91
        4
 64
     7
 65
   257
 75
     7
175
     7
 42
1.0
 92
        8
 66
     7
 43
1.0
 76
     1
 77
     6
 78
     2
 67
     7
 79
     5
170
     0
171
     0
290
     0
174
     0
 93
        1
 44
0.0
173
     0
291
     1
 45
0.0
1001
ACAD
1000
AcDbSavedByObjectVersion
1070
     0
  0
VISUALSTYLE
  5
33
102
{ACAD_REACTORS
330
2A
102
}
102
{ACAD_XDICTIONARY
360
3C6
102
}
330
2A
100
AcDbVisualStyle
  2
Realistic
 70
     8
 71
     2
 72
     2
 73
     0
 90
        0
 40
-0.6
 41
-30.0
 62
     5
 63
     7
421
 16777215
 74
     1
 91
        0
 64
     7
 65
   257
 75
     1
175
     1
 42
1.0
 92
        8
 66
     8
424
  7895160
 43
1.0
 76
     1
 77
     6
 78
     2
 67
     7
 79
     5
170
     0
171
     0
290
     0
174
     0
 93
       13
 44
0.0
173
     0
291
     0
 45
0.0
1001
ACAD
1000
AcDbSavedByObjectVersion
1070
     0
  0
VISUALSTYLE
  5
37
102
{ACAD_REACTORS
330
2A
102
}
102
{ACAD_XDICTIONARY
360
3CE
102
}
330
2A
100
AcDbVisualStyle
  2
Thicken
 70
    13
 71
     2
 72
     2
 73
     0
 90
        0
 40
-0.6
 41
-30.0
 62
     5
 63
     7
421
 16777215
 74
     1
 91
        4
 64
     7
 65
   257
 75
     1
175
     1
 42
1.0
 92
       12
 66
     7
 43
1.0
 76
     1
 77
     6
 78
     2
 67
     7
 79
     5
170
     0
171
     0
290
     0
174
     0
 93
        1
 44
0.0
173
     0
291
     1
 45
0.0
1001
ACAD
1000
AcDbSavedByObjectVersion
1070
     0
  0
DICTIONARY
  5
3D8
330
3D
100
AcDbDictionary
280
     1
281
     1
  3
ACAD_XREC_ROUNDTRIP
360
3D9
  0
DICTIONARY
  5
3D6
330
3C
100
AcDbDictionary
280
     1
281
     1
  3
ACAD_XREC_ROUNDTRIP
360
3D7
  0
DICTIONARY
  5
3DA
330
3E
100
AcDbDictionary
280
     1
281
     1
  3
ACAD_XREC_ROUNDTRIP
360
3DB
  0
DICTIONARY
  5
3BE
330
2F
100
AcDbDictionary
280
     1
281
     1
  3
ACAD_XREC_ROUNDTRIP
360
3BF
  0
DICTIONARY
  5
3C2
330
31
100
AcDbDictionary
280
     1
281
     1
  3
ACAD_XREC_ROUNDTRIP
360
3C3
  0
DICTIONARY
  5
3C0
330
30
100
AcDbDictionary
280
     1
281
     1
  3
ACAD_XREC_ROUNDTRIP
360
3C1
  0
DICTIONARY
  5
3C4
330
32
100
AcDbDictionary
280
     1
281
     1
  3
ACAD_XREC_ROUNDTRIP
360
3C5
  0
DICTIONARY
  5
3CC
330
36
100
AcDbDictionary
280
     1
281
     1
  3
ACAD_XREC_ROUNDTRIP
360
3CD
  0
DICTIONARY
  5
3D4
330
3A
100
AcDbDictionary
280
     1
281
     1
  3
ACAD_XREC_ROUNDTRIP
360
3D5
  0
DICTIONARY
  5
3C8
330
34
100
AcDbDictionary
280
     1
281
     1
  3
ACAD_XREC_ROUNDTRIP
360
3C9
  0
DICTIONARY
  5
3CA
330
35
100
AcDbDictionary
280
     1
281
     1
  3
ACAD_XREC_ROUNDTRIP
360
3CB
  0
DICTIONARY
  5
3D2
330
39
100
AcDbDictionary
280
     1
281
     1
  3
ACAD_XREC_ROUNDTRIP
360
3D3
  0
DICTIONARY
  5
3B6
330
2B
100
AcDbDictionary
280
     1
281
     1
  3
ACAD_XREC_ROUNDTRIP
360
3B7
  0
DICTIONARY
  5
3B8
330
2C
100
AcDbDictionary
280
     1
281
     1
  3
ACAD_XREC_ROUNDTRIP
360
3B9
  0
DICTIONARY
  5
3BA
330
2D
100
AcDbDictionary
280
     1
281
     1
  3
ACAD_XREC_ROUNDTRIP
360
3BB
  0
DICTIONARY
  5
3BC
330
2E
100
AcDbDictionary
280
     1
281
     1
  3
ACAD_XREC_ROUNDTRIP
360
3BD
  0
DICTIONARY
  5
3D0
330
38
100
AcDbDictionary
280
     1
281
     1
  3
ACAD_XREC_ROUNDTRIP
360
3D1
  0
DICTIONARY
  5
3C6
330
33
100
AcDbDictionary
280
     1
281
     1
  3
ACAD_XREC_ROUNDTRIP
360
3C7
  0
DICTIONARY
  5
3CE
330
37
100
AcDbDictionary
280
     1
281
     1
  3
ACAD_XREC_ROUNDTRIP
360
3CF
  0
XRECORD
  5
3D9
102
{ACAD_REACTORS
330
3D8
102
}
330
3D8
100
AcDbXrecord
280
     1
102
MATERIAL
148
0.0
149
0.0
149
0.0
 93
        0
 94
      127
282
     0
 72
     1
 77
     1
171
     1
175
     1
179
     1
273
     0
  0
XRECORD
  5
3D7
102
{ACAD_REACTORS
330
3D6
102
}
330
3D6
100
AcDbXrecord
280
     1
102
MATERIAL
148
0.0
149
0.0
149
0.0
 93
        0
 94
      127
282
     0
 72
     1
 77
     1
171
     1
175
     1
179
     1
273
     0
  0
XRECORD
  5
3DB
102
{ACAD_REACTORS
330
3DA
102
}
330
3DA
100
AcDbXrecord
280
     1
102
MATERIAL
148
0.0
149
0.0
149
0.0
 93
        0
 94
      127
282
     0
 72
     1
 77
     1
171
     1
175
     1
179
     1
273
     0
  0
XRECORD
  5
3BF
102
{ACAD_REACTORS
330
3BE
102
}
330
3BE
100
AcDbXrecord
280
     1
102
RTVSPropertyOp0
 70
     1
102
RTVSPropertyOp1
 70
     1
102
RTVSPropertyOp2
 70
     1
102
RTVSPropertyOp3
 70
     1
102
RTVSPropertyOp4
 70
     1
102
RTVSPropertyOp5
 70
     1
102
RTVSPropertyOp6
 70
     1
102
RTVSPropertyOp7
 70
     1
102
RTVSPropertyOp8
 70
     1
102
RTVSPropertyOp9
 70
     1
102
RTVSPropertyOp10
 70
     1
102
RTVSPropertyOp11
 70
     1
102
RTVSPropertyOp12
 70
     1
102
RTVSPropertyOp13
 70
     1
102
RTVSPropertyOp14
 70
     1
102
RTVSPropertyOp15
 70
     1
102
RTVSPropertyOp16
 70
     1
102
RTVSPropertyOp17
 70
     1
102
RTVSPropertyOp18
 70
     1
102
RTVSPropertyOp19
 70
     1
102
RTVSPropertyOp20
 70
     1
102
RTVSPropertyOp21
 70
     1
102
RTVSPropertyOp22
 70
     1
102
RTVSPropertyOp23
 70
     1
102
RTVSPropertyOp24
 70
     1
102
RTVSPropertyOp25
 70
     1
102
RTVSPropertyOp26
 70
     1
102
RTVSPropertyOp27
 70
     1
102
RTVSPropertyOp28
 70
     1
102
RTVSPropertyOp29
 70
     1
102
RTVSPropertyOp30
 70
     1
102
RTVSPropertyOp31
 70
     1
102
RTVSPropertyOp32
 70
     1
  0
XRECORD
  5
3C3
102
{ACAD_REACTORS
330
3C2
102
}
330
3C2
100
AcDbXrecord
280
     1
102
RTVSPropertyOp0
 70
     1
102
RTVSPropertyOp1
 70
     1
102
RTVSPropertyOp2
 70
     1
102
RTVSPropertyOp3
 70
     1
102
RTVSPropertyOp4
 70
     1
102
RTVSPropertyOp5
 70
     1
102
RTVSPropertyOp6
 70
     1
102
RTVSPropertyOp7
 70
     1
102
RTVSPropertyOp8
 70
     1
102
RTVSPropertyOp9
 70
     1
102
RTVSPropertyOp10
 70
     1
102
RTVSPropertyOp11
 70
     1
102
RTVSPropertyOp12
 70
     1
102
RTVSPropertyOp13
 70
     1
102
RTVSPropertyOp14
 70
     1
102
RTVSPropertyOp15
 70
     1
102
RTVSPropertyOp16
 70
     1
102
RTVSPropertyOp17
 70
     1
102
RTVSPropertyOp18
 70
     1
102
RTVSPropertyOp19
 70
     1
102
RTVSPropertyOp20
 70
     1
102
RTVSPropertyOp21
 70
     1
102
RTVSPropertyOp22
 70
     1
102
RTVSPropertyOp23
 70
     1
102
RTVSPropertyOp24
 70
     1
102
RTVSPropertyOp25
 70
     1
102
RTVSPropertyOp26
 70
     1
102
RTVSPropertyOp27
 70
     1
102
RTVSPropertyOp28
 70
     1
102
RTVSPropertyOp29
 70
     1
102
RTVSPropertyOp30
 70
     1
102
RTVSPropertyOp31
 70
     1
102
RTVSPropertyOp32
 70
     1
  0
XRECORD
  5
3C1
102
{ACAD_REACTORS
330
3C0
102
}
330
3C0
100
AcDbXrecord
280
     1
102
RTVSPropertyOp0
 70
     1
102
RTVSPropertyOp1
 70
     1
102
RTVSPropertyOp2
 70
     1
102
RTVSPropertyOp3
 70
     1
102
RTVSPropertyOp4
 70
     1
102
RTVSPropertyOp5
 70
     1
102
RTVSPropertyOp6
 70
     1
102
RTVSPropertyOp7
 70
     1
102
RTVSPropertyOp8
 70
     1
102
RTVSPropertyOp9
 70
     1
102
RTVSPropertyOp10
 70
     1
102
RTVSPropertyOp11
 70
     1
102
RTVSPropertyOp12
 70
     1
102
RTVSPropertyOp13
 70
     1
102
RTVSPropertyOp14
 70
     1
102
RTVSPropertyOp15
 70
     1
102
RTVSPropertyOp16
 70
     1
102
RTVSPropertyOp17
 70
     1
102
RTVSPropertyOp18
 70
     1
102
RTVSPropertyOp19
 70
     1
102
RTVSPropertyOp20
 70
     1
102
RTVSPropertyOp21
 70
     1
102
RTVSPropertyOp22
 70
     1
102
RTVSPropertyOp23
 70
     1
102
RTVSPropertyOp24
 70
     1
102
RTVSPropertyOp25
 70
     1
102
RTVSPropertyOp26
 70
     1
102
RTVSPropertyOp27
 70
     1
102
RTVSPropertyOp28
 70
     1
102
RTVSPropertyOp29
 70
     1
102
RTVSPropertyOp30
 70
     1
102
RTVSPropertyOp31
 70
     1
102
RTVSPropertyOp32
 70
     1
  0
XRECORD
  5
3C5
102
{ACAD_REACTORS
330
3C4
102
}
330
3C4
100
AcDbXrecord
280
     1
102
RTVSPropertyOp0
 70
     1
102
RTVSPropertyOp1
 70
     1
102
RTVSPropertyOp2
 70
     1
102
RTVSPropertyOp3
 70
     1
102
RTVSPropertyOp4
 70
     1
102
RTVSPropertyOp5
 70
     1
102
RTVSPropertyOp6
 70
     1
102
RTVSPropertyOp7
 70
     1
102
RTVSPropertyOp8
 70
     1
102
RTVSPropertyOp9
 70
     1
102
RTVSPropertyOp10
 70
     1
102
RTVSPropertyOp11
 70
     1
102
RTVSPropertyOp12
 70
     1
102
RTVSPropertyOp13
 70
     1
102
RTVSPropertyOp14
 70
     1
102
RTVSPropertyOp15
 70
     1
102
RTVSPropertyOp16
 70
     1
102
RTVSPropertyOp17
 70
     1
102
RTVSPropertyOp18
 70
     1
102
RTVSPropertyOp19
 70
     1
102
RTVSPropertyOp20
 70
     1
102
RTVSPropertyOp21
 70
     1
102
RTVSPropertyOp22
 70
     1
102
RTVSPropertyOp23
 70
     1
102
RTVSPropertyOp24
 70
     1
102
RTVSPropertyOp25
 70
     1
102
RTVSPropertyOp26
 70
     1
102
RTVSPropertyOp27
 70
     1
102
RTVSPropertyOp28
 70
     1
102
RTVSPropertyOp29
 70
     1
102
RTVSPropertyOp30
 70
     1
102
RTVSPropertyOp31
 70
     1
102
RTVSPropertyOp32
 70
     1
  0
XRECORD
  5
3CD
102
{ACAD_REACTORS
330
3CC
102
}
330
3CC
100
AcDbXrecord
280
     1
102
RTVSPropertyOp0
 70
     1
102
RTVSPropertyOp1
 70
     1
102
RTVSPropertyOp2
 70
     1
102
RTVSPropertyOp3
 70
     1
102
RTVSPropertyOp4
 70
     1
102
RTVSPropertyOp5
 70
     1
102
RTVSPropertyOp6
 70
     1
102
RTVSPropertyOp7
 70
     1
102
RTVSPropertyOp8
 70
     1
102
RTVSPropertyOp9
 70
     1
102
RTVSPropertyOp10
 70
     1
102
RTVSPropertyOp11
 70
     1
102
RTVSPropertyOp12
 70
     1
102
RTVSPropertyOp13
 70
     1
102
RTVSPropertyOp14
 70
     1
102
RTVSPropertyOp15
 70
     1
102
RTVSPropertyOp16
 70
     1
102
RTVSPropertyOp17
 70
     1
102
RTVSPropertyOp18
 70
     1
102
RTVSPropertyOp19
 70
     1
102
RTVSPropertyOp20
 70
     1
102
RTVSPropertyOp21
 70
     1
102
RTVSPropertyOp22
 70
     1
102
RTVSPropertyOp23
 70
     1
102
RTVSPropertyOp24
 70
     1
102
RTVSPropertyOp25
 70
     1
102
RTVSPropertyOp26
 70
     1
102
RTVSPropertyOp27
 70
     1
102
RTVSPropertyOp28
 70
     1
102
RTVSPropertyOp29
 70
     1
102
RTVSPropertyOp30
 70
     1
102
RTVSPropertyOp31
 70
     1
102
RTVSPropertyOp32
 70
     1
  0
XRECORD
  5
3D5
102
{ACAD_REACTORS
330
3D4
102
}
330
3D4
100
AcDbXrecord
280
     1
102
RTVSPropertyOp0
 70
     1
102
RTVSPropertyOp1
 70
     1
102
RTVSPropertyOp2
 70
     1
102
RTVSPropertyOp3
 70
     1
102
RTVSPropertyOp4
 70
     1
102
RTVSPropertyOp5
 70
     1
102
RTVSPropertyOp6
 70
     1
102
RTVSPropertyOp7
 70
     1
102
RTVSPropertyOp8
 70
     1
102
RTVSPropertyOp9
 70
     1
102
RTVSPropertyOp10
 70
     1
102
RTVSPropertyOp11
 70
     1
102
RTVSPropertyOp12
 70
     1
102
RTVSPropertyOp13
 70
     1
102
RTVSPropertyOp14
 70
     1
102
RTVSPropertyOp15
 70
     1
102
RTVSPropertyOp16
 70
     1
102
RTVSPropertyOp17
 70
     1
102
RTVSPropertyOp18
 70
     1
102
RTVSPropertyOp19
 70
     1
102
RTVSPropertyOp20
 70
     1
102
RTVSPropertyOp21
 70
     1
102
RTVSPropertyOp22
 70
     1
102
RTVSPropertyOp23
 70
     1
102
RTVSPropertyOp24
 70
     1
102
RTVSPropertyOp25
 70
     1
102
RTVSPropertyOp26
 70
     1
102
RTVSPropertyOp27
 70
     1
102
RTVSPropertyOp28
 70
     1
102
RTVSPropertyOp29
 70
     1
102
RTVSPropertyOp30
 70
     1
102
RTVSPropertyOp31
 70
     1
102
RTVSPropertyOp32
 70
     1
  0
XRECORD
  5
3C9
102
{ACAD_REACTORS
330
3C8
102
}
330
3C8
100
AcDbXrecord
280
     1
102
RTVSPropertyOp0
 70
     1
102
RTVSPropertyOp1
 70
     1
102
RTVSPropertyOp2
 70
     1
102
RTVSPropertyOp3
 70
     1
102
RTVSPropertyOp4
 70
     1
102
RTVSPropertyOp5
 70
     1
102
RTVSPropertyOp6
 70
     1
102
RTVSPropertyOp7
 70
     1
102
RTVSPropertyOp8
 70
     1
102
RTVSPropertyOp9
 70
     1
102
RTVSPropertyOp10
 70
     1
102
RTVSPropertyOp11
 70
     1
102
RTVSPropertyOp12
 70
     1
102
RTVSPropertyOp13
 70
     1
102
RTVSPropertyOp14
 70
     1
102
RTVSPropertyOp15
 70
     1
102
RTVSPropertyOp16
 70
     1
102
RTVSPropertyOp17
 70
     1
102
RTVSPropertyOp18
 70
     1
102
RTVSPropertyOp19
 70
     1
102
RTVSPropertyOp20
 70
     1
102
RTVSPropertyOp21
 70
     1
102
RTVSPropertyOp22
 70
     1
102
RTVSPropertyOp23
 70
     1
102
RTVSPropertyOp24
 70
     1
102
RTVSPropertyOp25
 70
     1
102
RTVSPropertyOp26
 70
     1
102
RTVSPropertyOp27
 70
     1
102
RTVSPropertyOp28
 70
     1
102
RTVSPropertyOp29
 70
     1
102
RTVSPropertyOp30
 70
     1
102
RTVSPropertyOp31
 70
     1
102
RTVSPropertyOp32
 70
     1
  0
XRECORD
  5
3CB
102
{ACAD_REACTORS
330
3CA
102
}
330
3CA
100
AcDbXrecord
280
     1
102
RTVSPropertyOp0
 70
     1
102
RTVSPropertyOp1
 70
     1
102
RTVSPropertyOp2
 70
     1
102
RTVSPropertyOp3
 70
     1
102
RTVSPropertyOp4
 70
     1
102
RTVSPropertyOp5
 70
     1
102
RTVSPropertyOp6
 70
     1
102
RTVSPropertyOp7
 70
     1
102
RTVSPropertyOp8
 70
     1
102
RTVSPropertyOp9
 70
     1
102
RTVSPropertyOp10
 70
     1
102
RTVSPropertyOp11
 70
     1
102
RTVSPropertyOp12
 70
     1
102
RTVSPropertyOp13
 70
     1
102
RTVSPropertyOp14
 70
     1
102
RTVSPropertyOp15
 70
     1
102
RTVSPropertyOp16
 70
     1
102
RTVSPropertyOp17
 70
     1
102
RTVSPropertyOp18
 70
     1
102
RTVSPropertyOp19
 70
     1
102
RTVSPropertyOp20
 70
     1
102
RTVSPropertyOp21
 70
     1
102
RTVSPropertyOp22
 70
     1
102
RTVSPropertyOp23
 70
     1
102
RTVSPropertyOp24
 70
     1
102
RTVSPropertyOp25
 70
     1
102
RTVSPropertyOp26
 70
     1
102
RTVSPropertyOp27
 70
     1
102
RTVSPropertyOp28
 70
     1
102
RTVSPropertyOp29
 70
     1
102
RTVSPropertyOp30
 70
     1
102
RTVSPropertyOp31
 70
     1
102
RTVSPropertyOp32
 70
     1
  0
XRECORD
  5
3D3
102
{ACAD_REACTORS
330
3D2
102
}
330
3D2
100
AcDbXrecord
280
     1
102
RTVSPropertyOp0
 70
     1
102
RTVSPropertyOp1
 70
     1
102
RTVSPropertyOp2
 70
     1
102
RTVSPropertyOp3
 70
     1
102
RTVSPropertyOp4
 70
     1
102
RTVSPropertyOp5
 70
     1
102
RTVSPropertyOp6
 70
     1
102
RTVSPropertyOp7
 70
     1
102
RTVSPropertyOp8
 70
     1
102
RTVSPropertyOp9
 70
     1
102
RTVSPropertyOp10
 70
     1
102
RTVSPropertyOp11
 70
     1
102
RTVSPropertyOp12
 70
     1
102
RTVSPropertyOp13
 70
     1
102
RTVSPropertyOp14
 70
     1
102
RTVSPropertyOp15
 70
     1
102
RTVSPropertyOp16
 70
     1
102
RTVSPropertyOp17
 70
     1
102
RTVSPropertyOp18
 70
     1
102
RTVSPropertyOp19
 70
     1
102
RTVSPropertyOp20
 70
     1
102
RTVSPropertyOp21
 70
     1
102
RTVSPropertyOp22
 70
     1
102
RTVSPropertyOp23
 70
     1
102
RTVSPropertyOp24
 70
     1
102
RTVSPropertyOp25
 70
     1
102
RTVSPropertyOp26
 70
     1
102
RTVSPropertyOp27
 70
     1
102
RTVSPropertyOp28
 70
     1
102
RTVSPropertyOp29
 70
     1
102
RTVSPropertyOp30
 70
     1
102
RTVSPropertyOp31
 70
     1
102
RTVSPropertyOp32
 70
     1
  0
XRECORD
  5
3B7
102
{ACAD_REACTORS
330
3B6
102
}
330
3B6
100
AcDbXrecord
280
     1
102
RTVSPropertyOp0
 70
     1
102
RTVSPropertyOp1
 70
     1
102
RTVSPropertyOp2
 70
     1
102
RTVSPropertyOp3
 70
     1
102
RTVSPropertyOp4
 70
     1
102
RTVSPropertyOp5
 70
     1
102
RTVSPropertyOp6
 70
     1
102
RTVSPropertyOp7
 70
     1
102
RTVSPropertyOp8
 70
     1
102
RTVSPropertyOp9
 70
     1
102
RTVSPropertyOp10
 70
     1
102
RTVSPropertyOp11
 70
     1
102
RTVSPropertyOp12
 70
     1
102
RTVSPropertyOp13
 70
     1
102
RTVSPropertyOp14
 70
     1
102
RTVSPropertyOp15
 70
     1
102
RTVSPropertyOp16
 70
     1
102
RTVSPropertyOp17
 70
     1
102
RTVSPropertyOp18
 70
     1
102
RTVSPropertyOp19
 70
     1
102
RTVSPropertyOp20
 70
     1
102
RTVSPropertyOp21
 70
     1
102
RTVSPropertyOp22
 70
     1
102
RTVSPropertyOp23
 70
     1
102
RTVSPropertyOp24
 70
     1
102
RTVSPropertyOp25
 70
     1
102
RTVSPropertyOp26
 70
     1
102
RTVSPropertyOp27
 70
     1
102
RTVSPropertyOp28
 70
     1
102
RTVSPropertyOp29
 70
     1
102
RTVSPropertyOp30
 70
     1
102
RTVSPropertyOp31
 70
     1
102
RTVSPropertyOp32
 70
     1
  0
XRECORD
  5
3B9
102
{ACAD_REACTORS
330
3B8
102
}
330
3B8
100
AcDbXrecord
280
     1
102
RTVSPropertyOp0
 70
     1
102
RTVSPropertyOp1
 70
     1
102
RTVSPropertyOp2
 70
     1
102
RTVSPropertyOp3
 70
     1
102
RTVSPropertyOp4
 70
     1
102
RTVSPropertyOp5
 70
     1
102
RTVSPropertyOp6
 70
     1
102
RTVSPropertyOp7
 70
     1
102
RTVSPropertyOp8
 70
     1
102
RTVSPropertyOp9
 70
     1
102
RTVSPropertyOp10
 70
     1
102
RTVSPropertyOp11
 70
     1
102
RTVSPropertyOp12
 70
     1
102
RTVSPropertyOp13
 70
     1
102
RTVSPropertyOp14
 70
     1
102
RTVSPropertyOp15
 70
     1
102
RTVSPropertyOp16
 70
     1
102
RTVSPropertyOp17
 70
     1
102
RTVSPropertyOp18
 70
     1
102
RTVSPropertyOp19
 70
     1
102
RTVSPropertyOp20
 70
     1
102
RTVSPropertyOp21
 70
     1
102
RTVSPropertyOp22
 70
     1
102
RTVSPropertyOp23
 70
     1
102
RTVSPropertyOp24
 70
     1
102
RTVSPropertyOp25
 70
     1
102
RTVSPropertyOp26
 70
     1
102
RTVSPropertyOp27
 70
     1
102
RTVSPropertyOp28
 70
     1
102
RTVSPropertyOp29
 70
     1
102
RTVSPropertyOp30
 70
     1
102
RTVSPropertyOp31
 70
     1
102
RTVSPropertyOp32
 70
     1
  0
XRECORD
  5
3BB
102
{ACAD_REACTORS
330
3BA
102
}
330
3BA
100
AcDbXrecord
280
     1
102
RTVSPropertyOp0
 70
     1
102
RTVSPropertyOp1
 70
     1
102
RTVSPropertyOp2
 70
     1
102
RTVSPropertyOp3
 70
     1
102
RTVSPropertyOp4
 70
     1
102
RTVSPropertyOp5
 70
     1
102
RTVSPropertyOp6
 70
     1
102
RTVSPropertyOp7
 70
     1
102
RTVSPropertyOp8
 70
     1
102
RTVSPropertyOp9
 70
     1
102
RTVSPropertyOp10
 70
     1
102
RTVSPropertyOp11
 70
     1
102
RTVSPropertyOp12
 70
     1
102
RTVSPropertyOp13
 70
     1
102
RTVSPropertyOp14
 70
     1
102
RTVSPropertyOp15
 70
     1
102
RTVSPropertyOp16
 70
     1
102
RTVSPropertyOp17
 70
     1
102
RTVSPropertyOp18
 70
     1
102
RTVSPropertyOp19
 70
     1
102
RTVSPropertyOp20
 70
     1
102
RTVSPropertyOp21
 70
     1
102
RTVSPropertyOp22
 70
     1
102
RTVSPropertyOp23
 70
     1
102
RTVSPropertyOp24
 70
     1
102
RTVSPropertyOp25
 70
     1
102
RTVSPropertyOp26
 70
     1
102
RTVSPropertyOp27
 70
     1
102
RTVSPropertyOp28
 70
     1
102
RTVSPropertyOp29
 70
     1
102
RTVSPropertyOp30
 70
     1
102
RTVSPropertyOp31
 70
     1
102
RTVSPropertyOp32
 70
     1
  0
XRECORD
  5
3BD
102
{ACAD_REACTORS
330
3BC
102
}
330
3BC
100
AcDbXrecord
280
     1
102
RTVSPropertyOp0
 70
     1
102
RTVSPropertyOp1
 70
     1
102
RTVSPropertyOp2
 70
     1
102
RTVSPropertyOp3
 70
     1
102
RTVSPropertyOp4
 70
     1
102
RTVSPropertyOp5
 70
     1
102
RTVSPropertyOp6
 70
     1
102
RTVSPropertyOp7
 70
     1
102
RTVSPropertyOp8
 70
     1
102
RTVSPropertyOp9
 70
     1
102
RTVSPropertyOp10
 70
     1
102
RTVSPropertyOp11
 70
     1
102
RTVSPropertyOp12
 70
     1
102
RTVSPropertyOp13
 70
     1
102
RTVSPropertyOp14
 70
     1
102
RTVSPropertyOp15
 70
     1
102
RTVSPropertyOp16
 70
     1
102
RTVSPropertyOp17
 70
     1
102
RTVSPropertyOp18
 70
     1
102
RTVSPropertyOp19
 70
     1
102
RTVSPropertyOp20
 70
     1
102
RTVSPropertyOp21
 70
     1
102
RTVSPropertyOp22
 70
     1
102
RTVSPropertyOp23
 70
     1
102
RTVSPropertyOp24
 70
     1
102
RTVSPropertyOp25
 70
     1
102
RTVSPropertyOp26
 70
     1
102
RTVSPropertyOp27
 70
     1
102
RTVSPropertyOp28
 70
     1
102
RTVSPropertyOp29
 70
     1
102
RTVSPropertyOp30
 70
     1
102
RTVSPropertyOp31
 70
     1
102
RTVSPropertyOp32
 70
     1
  0
XRECORD
  5
3D1
102
{ACAD_REACTORS
330
3D0
102
}
330
3D0
100
AcDbXrecord
280
     1
102
RTVSPropertyOp0
 70
     1
102
RTVSPropertyOp1
 70
     1
102
RTVSPropertyOp2
 70
     1
102
RTVSPropertyOp3
 70
     1
102
RTVSPropertyOp4
 70
     1
102
RTVSPropertyOp5
 70
     1
102
RTVSPropertyOp6
 70
     1
102
RTVSPropertyOp7
 70
     1
102
RTVSPropertyOp8
 70
     1
102
RTVSPropertyOp9
 70
     1
102
RTVSPropertyOp10
 70
     1
102
RTVSPropertyOp11
 70
     1
102
RTVSPropertyOp12
 70
     1
102
RTVSPropertyOp13
 70
     1
102
RTVSPropertyOp14
 70
     1
102
RTVSPropertyOp15
 70
     1
102
RTVSPropertyOp16
 70
     1
102
RTVSPropertyOp17
 70
     1
102
RTVSPropertyOp18
 70
     1
102
RTVSPropertyOp19
 70
     1
102
RTVSPropertyOp20
 70
     1
102
RTVSPropertyOp21
 70
     1
102
RTVSPropertyOp22
 70
     1
102
RTVSPropertyOp23
 70
     1
102
RTVSPropertyOp24
 70
     1
102
RTVSPropertyOp25
 70
     1
102
RTVSPropertyOp26
 70
     1
102
RTVSPropertyOp27
 70
     1
102
RTVSPropertyOp28
 70
     1
102
RTVSPropertyOp29
 70
     1
102
RTVSPropertyOp30
 70
     1
102
RTVSPropertyOp31
 70
     1
102
RTVSPropertyOp32
 70
     1
  0
XRECORD
  5
3C7
102
{ACAD_REACTORS
330
3C6
102
}
330
3C6
100
AcDbXrecord
280
     1
102
RTVSPropertyOp0
 70
     1
102
RTVSPropertyOp1
 70
     1
102
RTVSPropertyOp2
 70
     1
102
RTVSPropertyOp3
 70
     1
102
RTVSPropertyOp4
 70
     1
102
RTVSPropertyOp5
 70
     1
102
RTVSPropertyOp6
 70
     1
102
RTVSPropertyOp7
 70
     1
102
RTVSPropertyOp8
 70
     1
102
RTVSPropertyOp9
 70
     1
102
RTVSPropertyOp10
 70
     1
102
RTVSPropertyOp11
 70
     1
102
RTVSPropertyOp12
 70
     1
102
RTVSPropertyOp13
 70
     1
102
RTVSPropertyOp14
 70
     1
102
RTVSPropertyOp15
 70
     1
102
RTVSPropertyOp16
 70
     1
102
RTVSPropertyOp17
 70
     1
102
RTVSPropertyOp18
 70
     1
102
RTVSPropertyOp19
 70
     1
102
RTVSPropertyOp20
 70
     1
102
RTVSPropertyOp21
 70
     1
102
RTVSPropertyOp22
 70
     1
102
RTVSPropertyOp23
 70
     1
102
RTVSPropertyOp24
 70
     1
102
RTVSPropertyOp25
 70
     1
102
RTVSPropertyOp26
 70
     1
102
RTVSPropertyOp27
 70
     1
102
RTVSPropertyOp28
 70
     1
102
RTVSPropertyOp29
 70
     1
102
RTVSPropertyOp30
 70
     1
102
RTVSPropertyOp31
 70
     1
102
RTVSPropertyOp32
 70
     1
  0
XRECORD
  5
3CF
102
{ACAD_REACTORS
330
3CE
102
}
330
3CE
100
AcDbXrecord
280
     1
102
RTVSPropertyOp0
 70
     1
102
RTVSPropertyOp1
 70
     1
102
RTVSPropertyOp2
 70
     1
102
RTVSPropertyOp3
 70
     1
102
RTVSPropertyOp4
 70
     1
102
RTVSPropertyOp5
 70
     1
102
RTVSPropertyOp6
 70
     1
102
RTVSPropertyOp7
 70
     1
102
RTVSPropertyOp8
 70
     1
102
RTVSPropertyOp9
 70
     1
102
RTVSPropertyOp10
 70
     1
102
RTVSPropertyOp11
 70
     1
102
RTVSPropertyOp12
 70
     1
102
RTVSPropertyOp13
 70
     1
102
RTVSPropertyOp14
 70
     1
102
RTVSPropertyOp15
 70
     1
102
RTVSPropertyOp16
 70
     1
102
RTVSPropertyOp17
 70
     1
102
RTVSPropertyOp18
 70
     1
102
RTVSPropertyOp19
 70
     1
102
RTVSPropertyOp20
 70
     1
102
RTVSPropertyOp21
 70
     1
102
RTVSPropertyOp22
 70
     1
102
RTVSPropertyOp23
 70
     1
102
RTVSPropertyOp24
 70
     1
102
RTVSPropertyOp25
 70
     1
102
RTVSPropertyOp26
 70
     1
102
RTVSPropertyOp27
 70
     1
102
RTVSPropertyOp28
 70
     1
102
RTVSPropertyOp29
 70
     1
102
RTVSPropertyOp30
 70
     1
102
RTVSPropertyOp31
 70
     1
102
RTVSPropertyOp32
 70
     1
  0
ENDSEC
  0
EOF
