  0
SECTION
  2
HEADER
  9
$ACADVER
  1
AC1018
  9
$ACADMAINTVER
 70
     0
  9
$DWGCODEPAGE
  3
ANSI_1252
  9
$INSBASE
 10
0.0
 20
0.0
 30
0.0
  9
$EXTMIN
 10
-1144.068678342756
 20
-1104.789635724794
 30
0.0
  9
$EXTMAX
 10
-847.0686783427577
 20
-894.7896357247939
 30
0.0
  9
$LIMMIN
 10
0.0
 20
0.0
  9
$LIMMAX
 10
12.0
 20
9.0
  9
$ORTHOMODE
 70
     0
  9
$REGENMODE
 70
     1
  9
$FILLMODE
 70
     1
  9
$QTEXTMODE
 70
     0
  9
$MIRRTEXT
 70
     1
  9
$LTSCALE
 40
1.0
  9
$ATTMODE
 70
     1
  9
$TEXTSIZE
 40
0.2
  9
$TRACEWID
 40
0.05
  9
$TEXTSTYLE
  7
Standard
  9
$CLAYER
  8
0
  9
$CELTYPE
  6
ByLayer
  9
$CECOLOR
 62
   256
  9
$CELTSCALE
 40
1.0
  9
$DISPSILH
 70
     0
  9
$DIMSCALE
 40
1.0
  9
$DIMASZ
 40
0.18
  9
$DIMEXO
 40
0.0625
  9
$DIMDLI
 40
0.38
  9
$DIMRND
 40
0.0
  9
$DIMDLE
 40
0.0
  9
$DIMEXE
 40
0.18
  9
$DIMTP
 40
0.0
  9
$DIMTM
 40
0.0
  9
$DIMTXT
 40
0.18
  9
$DIMCEN
 40
0.09
  9
$DIMTSZ
 40
0.0
  9
$DIMTOL
 70
     0
  9
$DIMLIM
 70
     0
  9
$DIMTIH
 70
     1
  9
$DIMTOH
 70
     1
  9
$DIMSE1
 70
     0
  9
$DIMSE2
 70
     0
  9
$DIMTAD
 70
     0
  9
$DIMZIN
 70
     0
  9
$DIMBLK
  1

  9
$DIMASO
 70
     1
  9
$DIMSHO
 70
     1
  9
$DIMPOST
  1

  9
$DIMAPOST
  1

  9
$DIMALT
 70
     0
  9
$DIMALTD
 70
     2
  9
$DIMALTF
 40
25.4
  9
$DIMLFAC
 40
1.0
  9
$DIMTOFL
 70
     0
  9
$DIMTVP
 40
0.0
  9
$DIMTIX
 70
     0
  9
$DIMSOXD
 70
     0
  9
$DIMSAH
 70
     0
  9
$DIMBLK1
  1

  9
$DIMBLK2
  1

  9
$DIMSTYLE
  2
Standard
  9
$DIMCLRD
 70
     0
  9
$DIMCLRE
 70
     0
  9
$DIMCLRT
 70
     0
  9
$DIMTFAC
 40
1.0
  9
$DIMGAP
 40
0.09
  9
$DIMJUST
 70
     0
  9
$DIMSD1
 70
     0
  9
$DIMSD2
 70
     0
  9
$DIMTOLJ
 70
     1
  9
$DIMTZIN
 70
     0
  9
$DIMALTZ
 70
     0
  9
$DIMALTTZ
 70
     0
  9
$DIMUPT
 70
     0
  9
$DIMDEC
 70
     4
  9
$DIMTDEC
 70
     4
  9
$DIMALTU
 70
     2
  9
$DIMALTTD
 70
     2
  9
$DIMTXSTY
  7
Standard
  9
$DIMAUNIT
 70
     0
  9
$DIMADEC
 70
     0
  9
$DIMALTRND
 40
0.0
  9
$DIMAZIN
 70
     0
  9
$DIMDSEP
 70
    46
  9
$DIMATFIT
 70
     3
  9
$DIMFRAC
 70
     0
  9
$DIMLDRBLK
  1

  9
$DIMLUNIT
 70
     2
  9
$DIMLWD
 70
    -2
  9
$DIMLWE
 70
    -2
  9
$DIMTMOVE
 70
     0
  9
$LUNITS
 70
     2
  9
$LUPREC
 70
     4
  9
$SKETCHINC
 40
0.1
  9
$FILLETRAD
 40
0.5
  9
$AUNITS
 70
     0
  9
$AUPREC
 70
     0
  9
$MENU
  1
.
  9
$ELEVATION
 40
0.0
  9
$PELEVATION
 40
0.0
  9
$THICKNESS
 40
0.0
  9
$LIMCHECK
 70
     0
  9
$CHAMFERA
 40
0.5
  9
$CHAMFERB
 40
0.5
  9
$CHAMFERC
 40
1.0
  9
$CHAMFERD
 40
0.0
  9
$SKPOLY
 70
     0
  9
$TDCREATE
 40
2458075.374031702
  9
$TDUCREATE
 40
2458075.332365035
  9
$TDUPDATE
 40
2458075.374032245
  9
$TDUUPDATE
 40
2458075.332365579
  9
$TDINDWG
 40
0.0000000116
  9
$TDUSRTIMER
 40
0.0000000116
  9
$USRTIMER
 70
     1
  9
$ANGBASE
 50
0.0
  9
$ANGDIR
 70
     0
  9
$PDMODE
 70
     0
  9
$PDSIZE
 40
0.0
  9
$PLINEWID
 40
0.0
  9
$SPLFRAME
 70
     0
  9
$SPLINETYPE
 70
     6
  9
$SPLINESEGS
 70
     8
  9
$HANDSEED
  5
31F
  9
$SURFTAB1
 70
     6
  9
$SURFTAB2
 70
     6
  9
$SURFTYPE
 70
     6
  9
$SURFU
 70
     6
  9
$SURFV
 70
     6
  9
$UCSBASE
  2

  9
$UCSNAME
  2

  9
$UCSORG
 10
0.0
 20
0.0
 30
0.0
  9
$UCSXDIR
 10
1.0
 20
0.0
 30
0.0
  9
$UCSYDIR
 10
0.0
 20
1.0
 30
0.0
  9
$UCSORTHOREF
  2

  9
$UCSORTHOVIEW
 70
     0
  9
$UCSORGTOP
 10
0.0
 20
0.0
 30
0.0
  9
$UCSORGBOTTOM
 10
0.0
 20
0.0
 30
0.0
  9
$UCSORGLEFT
 10
0.0
 20
0.0
 30
0.0
  9
$UCSORGRIGHT
 10
0.0
 20
0.0
 30
0.0
  9
$UCSORGFRONT
 10
0.0
 20
0.0
 30
0.0
  9
$UCSORGBACK
 10
0.0
 20
0.0
 30
0.0
  9
$PUCSBASE
  2

  9
$PUCSNAME
  2

  9
$PUCSORG
 10
0.0
 20
0.0
 30
0.0
  9
$PUCSXDIR
 10
1.0
 20
0.0
 30
0.0
  9
$PUCSYDIR
 10
0.0
 20
1.0
 30
0.0
  9
$PUCSORTHOREF
  2

  9
$PUCSORTHOVIEW
 70
     0
  9
$PUCSORGTOP
 10
0.0
 20
0.0
 30
0.0
  9
$PUCSORGBOTTOM
 10
0.0
 20
0.0
 30
0.0
  9
$PUCSORGLEFT
 10
0.0
 20
0.0
 30
0.0
  9
$PUCSORGRIGHT
 10
0.0
 20
0.0
 30
0.0
  9
$PUCSORGFRONT
 10
0.0
 20
0.0
 30
0.0
  9
$PUCSORGBACK
 10
0.0
 20
0.0
 30
0.0
  9
$USERI1
 70
     0
  9
$USERI2
 70
     0
  9
$USERI3
 70
     0
  9
$USERI4
 70
     0
  9
$USERI5
 70
     0
  9
$USERR1
 40
18.1
  9
$USERR2
 40
0.0
  9
$USERR3
 40
0.0
  9
$USERR4
 40
0.0
  9
$USERR5
 40
0.0
  9
$WORLDVIEW
 70
     1
  9
$SHADEDGE
 70
     3
  9
$SHADEDIF
 70
    70
  9
$TILEMODE
 70
     1
  9
$MAXACTVP
 70
    64
  9
$PINSBASE
 10
0.0
 20
0.0
 30
0.0
  9
$PLIMCHECK
 70
     0
  9
$PEXTMIN
 10
1.00000000000000E+20
 20
1.00000000000000E+20
 30
1.00000000000000E+20
  9
$PEXTMAX
 10
-1.00000000000000E+20
 20
-1.00000000000000E+20
 30
-1.00000000000000E+20
  9
$PLIMMIN
 10
0.0
 20
0.0
  9
$PLIMMAX
 10
12.0
 20
9.0
  9
$UNITMODE
 70
     0
  9
$VISRETAIN
 70
     1
  9
$PLINEGEN
 70
     0
  9
$PSLTSCALE
 70
     1
  9
$TREEDEPTH
 70
  3020
  9
$CMLSTYLE
  2
Standard
  9
$CMLJUST
 70
     0
  9
$CMLSCALE
 40
1.0
  9
$PROXYGRAPHICS
 70
     1
  9
$MEASUREMENT
 70
     1
  9
$CELWEIGHT
370
    -1
  9
$ENDCAPS
280
     0
  9
$JOINSTYLE
280
     0
  9
$LWDISPLAY
290
     0
  9
$INSUNITS
 70
     4
  9
$HYPERLINKBASE
  1

  9
$STYLESHEET
  1

  9
$XEDIT
290
     1
  9
$CEPSNTYPE
380
     0
  9
$PSTYLEMODE
290
     1
  9
$FINGERPRINTGUID
  2
{C762A2AE-B208-4C4C-8819-E48E0A3A0EF5}
  9
$VERSIONGUID
  2
{FAEB1C32-E019-11D5-929B-00C0DF256EC4}
  9
$EXTNAMES
290
     1
  9
$PSVPSCALE
 40
0.0
  9
$OLESTARTUP
290
     0
  9
$SORTENTS
280
   127
  9
$INDEXCTL
280
     0
  9
$HIDETEXT
280
     1
  9
$XCLIPFRAME
290
     0
  9
$HALOGAP
280
     0
  9
$OBSCOLOR
 70
   257
  9
$OBSLTYPE
280
     0
  9
$INTERSECTIONDISPLAY
280
     0
  9
$INTERSECTIONCOLOR
 70
   257
  9
$DIMASSOC
280
     2
  9
$PROJECTNAME
  1

  0
ENDSEC
  0
SECTION
  2
CLASSES
  0
CLASS
  1
ACDBDICTIONARYWDFLT
  2
AcDbDictionaryWithDefault
  3
ObjectDBX Classes
 90
        0
 91
        4
280
     0
281
     0
  0
CLASS
  1
VISUALSTYLE
  2
AcDbVisualStyle
  3
ObjectDBX Classes
 90
     4095
 91
        4
280
     0
281
     0
  0
CLASS
  1
MATERIAL
  2
AcDbMaterial
  3
ObjectDBX Classes
 90
     1153
 91
        4
280
     0
281
     0
  0
ENDSEC
  0
SECTION
  2
TABLES
  0
TABLE
  2
VPORT
  5
8
330
0
100
AcDbSymbolTable
 70
     1
  0
VPORT
  5
29
330
8
100
AcDbSymbolTableRecord
100
AcDbViewportTableRecord
  2
*Active
 70
     0
 10
0.0
 20
0.0
 11
1.0
 21
1.0
 12
-995.5686783427568
 22
-999.7896357247939
 13
0.0
 23
0.0
 14
0.5
 24
0.5
 15
0.5
 25
0.5
 16
0.0
 26
0.0
 36
1.0
 17
0.0
 27
0.0
 37
0.0
 40
231.0
 41
1.60267857142857
 42
50.0
 43
0.0
 44
0.0
 50
0.0
 51
0.0
 71
     0
 72
   100
 73
     1
 74
     3
 75
     0
 76
     0
 77
     0
 78
     0
281
     0
 65
     1
110
0.0
120
0.0
130
0.0
111
1.0
121
0.0
131
0.0
112
0.0
122
1.0
132
0.0
 79
     0
146
0.0
  0
ENDTAB
  0
TABLE
  2
LTYPE
  5
5
330
0
100
AcDbSymbolTable
 70
     8
  0
LTYPE
  5
14
330
5
100
AcDbSymbolTableRecord
100
AcDbLinetypeTableRecord
  2
ByBlock
 70
     0
  3

 72
    65
 73
     0
 40
0.0
  0
LTYPE
  5
15
330
5
100
AcDbSymbolTableRecord
100
AcDbLinetypeTableRecord
  2
ByLayer
 70
     0
  3

 72
    65
 73
     0
 40
0.0
  0
LTYPE
  5
16
330
5
100
AcDbSymbolTableRecord
100
AcDbLinetypeTableRecord
  2
Continuous
 70
     0
  3
Solid line
 72
    65
 73
     0
 40
0.0
  0
LTYPE
  5
3F
330
5
100
AcDbSymbolTableRecord
100
AcDbLinetypeTableRecord
  2
DASHED
 70
     0
  3
Dashed
 72
    65
 73
     2
 40
15.0
 49
7.0
 74
     0
 49
-8.0
 74
     0
  0
LTYPE
  5
40
330
5
100
AcDbSymbolTableRecord
100
AcDbLinetypeTableRecord
  2
DOTTED
 70
     0
  3
Dotted
 72
    65
 73
     2
 40
1.0
 49
0.0
 74
     0
 49
-1.0
 74
     0
  0
LTYPE
  5
41
330
5
100
AcDbSymbolTableRecord
100
AcDbLinetypeTableRecord
  2
DOT_CENTER
 70
     0
  3
Dot_Center
 72
    65
 73
     4
 40
14.0
 49
12.0
 74
     0
 49
-1.0
 74
     0
 49
0.0
 74
     0
 49
-1.0
 74
     0
  0
LTYPE
  5
42
330
5
100
AcDbSymbolTableRecord
100
AcDbLinetypeTableRecord
  2
LONG_DASHED
 70
     0
  3
Long_Dashed
 72
    65
 73
     2
 40
15.0
 49
10.0
 74
     0
 49
-5.0
 74
     0
  0
LTYPE
  5
43
330
5
100
AcDbSymbolTableRecord
100
AcDbLinetypeTableRecord
  2
DASH_CENTER
 70
     0
  3
Dash_Center
 72
    65
 73
     4
 40
14.0
 49
11.0
 74
     0
 49
-1.0
 74
     0
 49
1.0
 74
     0
 49
-1.0
 74
     0
  0
LTYPE
  5
44
330
5
100
AcDbSymbolTableRecord
100
AcDbLinetypeTableRecord
  2
PHANTOM
 70
     0
  3
Phantom
 72
    65
 73
     6
 40
13.0
 49
10.0
 74
     0
 49
-1.0
 74
     0
 49
0.0
 74
     0
 49
-1.0
 74
     0
 49
0.0
 74
     0
 49
-1.0
 74
     0
  0
LTYPE
  5
45
330
5
100
AcDbSymbolTableRecord
100
AcDbLinetypeTableRecord
  2
CENTER_DASH_DASH
 70
     0
  3
Center_Dash_Dash
 72
    65
 73
     6
 40
14.0
 49
9.0
 74
     0
 49
-1.0
 74
     0
 49
1.0
 74
     0
 49
-1.0
 74
     0
 49
1.0
 74
     0
 49
-1.0
 74
     0
  0
ENDTAB
  0
TABLE
  2
LAYER
  5
2
330
0
100
AcDbSymbolTable
 70
     2
  0
LAYER
  5
10
330
2
100
AcDbSymbolTableRecord
100
AcDbLayerTableRecord
  2
0
 70
     0
 62
     7
  6
Continuous
370
    -3
390
F
  0
LAYER
  5
46
330
2
100
AcDbSymbolTableRecord
100
AcDbLayerTableRecord
  2
1
 70
     0
 62
     7
  6
Continuous
370
    -3
390
F
  0
ENDTAB
  0
TABLE
  2
STYLE
  5
3
330
0
100
AcDbSymbolTable
 70
     5
  0
STYLE
  5
11
330
3
100
AcDbSymbolTableRecord
100
AcDbTextStyleTableRecord
  2
Standard
 70
     0
 40
0.0
 41
1.0
 50
0.0
 71
     0
 42
0.2
  3
txt
  4

  0
STYLE
  5
A8
330
3
100
AcDbSymbolTableRecord
100
AcDbTextStyleTableRecord
  2
CONVERTER_11
 70
     0
 40
0.0
 41
0.9
 50
0.0
 71
     0
 42
0.2
  3
txt.shx
  4

  0
STYLE
  5
2B5
330
3
100
AcDbSymbolTableRecord
100
AcDbTextStyleTableRecord
  2
CONVERTER_12
 70
     0
 40
0.0
 41
0.81
 50
0.0
 71
     0
 42
0.2
  3
txt.shx
  4

  0
STYLE
  5
2BB
330
3
100
AcDbSymbolTableRecord
100
AcDbTextStyleTableRecord
  2
CONVERTER_13
 70
     0
 40
0.0
 41
0.855
 50
0.0
 71
     0
 42
0.2
  3
txt.shx
  4

  0
STYLE
  5
2BE
330
3
100
AcDbSymbolTableRecord
100
AcDbTextStyleTableRecord
  2
CONVERTER_14
 70
     0
 40
0.0
 41
0.72
 50
0.0
 71
     0
 42
0.2
  3
txt.shx
  4

  0
ENDTAB
  0
TABLE
  2
VIEW
  5
6
330
0
100
AcDbSymbolTable
 70
     0
  0
ENDTAB
  0
TABLE
  2
UCS
  5
7
330
0
100
AcDbSymbolTable
 70
     0
  0
ENDTAB
  0
TABLE
  2
APPID
  5
9
330
0
100
AcDbSymbolTable
 70
     1
  0
APPID
  5
12
330
9
100
AcDbSymbolTableRecord
100
AcDbRegAppTableRecord
  2
ACAD
 70
     0
  0
ENDTAB
  0
TABLE
  2
DIMSTYLE
  5
A
330
0
100
AcDbSymbolTable
 70
     2
100
AcDbDimStyleTable
  0
DIMSTYLE
105
27
330
A
100
AcDbSymbolTableRecord
100
AcDbDimStyleTableRecord
  2
Standard
 70
     0
178
     0
340
11
  0
DIMSTYLE
105
1BC
102
{ACAD_REACTORS
330
1BD
102
}
330
A
100
AcDbSymbolTableRecord
100
AcDbDimStyleTableRecord
  2
ME10_DIM_10
 70
     0
 41
3.5
 42
0.0
 44
2.0
 73
     0
 74
     0
 77
     1
 78
     8
140
3.5
147
2.0
172
     1
173
     1
174
     1
175
     1
176
     2
177
     2
178
     3
340
A8
  0
ENDTAB
  0
TABLE
  2
BLOCK_RECORD
  5
1
330
0
100
AcDbSymbolTable
 70
    20
  0
BLOCK_RECORD
  5
1F
330
1
100
AcDbSymbolTableRecord
100
AcDbBlockTableRecord
  2
*Model_Space
340
22
  0
BLOCK_RECORD
  5
1B
330
1
100
AcDbSymbolTableRecord
100
AcDbBlockTableRecord
  2
*Paper_Space
340
1E
  0
BLOCK_RECORD
  5
23
330
1
100
AcDbSymbolTableRecord
100
AcDbBlockTableRecord
  2
*Paper_Space0
340
26
  0
BLOCK_RECORD
  5
47
330
1
100
AcDbSymbolTableRecord
100
AcDbBlockTableRecord
  2
D_PTI_3_select__1
340
0
102
{BLKREFS
331
4B
102
}
  0
BLOCK_RECORD
  5
4A
330
1
100
AcDbSymbolTableRecord
100
AcDbBlockTableRecord
  2
Back1
340
0
102
{BLKREFS
331
7D
102
}
  0
BLOCK_RECORD
  5
4E
330
1
100
AcDbSymbolTableRecord
100
AcDbBlockTableRecord
  2
D_PTI_3_select__2
340
0
102
{BLKREFS
331
52
102
}
  0
BLOCK_RECORD
  5
51
330
1
100
AcDbSymbolTableRecord
100
AcDbBlockTableRecord
  2
Front1
340
0
102
{BLKREFS
331
7E
102
}
  0
BLOCK_RECORD
  5
55
330
1
100
AcDbSymbolTableRecord
100
AcDbBlockTableRecord
  2
D_PTI_3_select__3
340
0
102
{BLKREFS
331
59
102
}
  0
BLOCK_RECORD
  5
58
330
1
100
AcDbSymbolTableRecord
100
AcDbBlockTableRecord
  2
Gen1
340
0
102
{BLKREFS
331
7F
102
}
  0
BLOCK_RECORD
  5
5C
330
1
100
AcDbSymbolTableRecord
100
AcDbBlockTableRecord
  2
D_PTI_3_select__4
340
0
102
{BLKREFS
331
60
102
}
  0
BLOCK_RECORD
  5
5F
330
1
100
AcDbSymbolTableRecord
100
AcDbBlockTableRecord
  2
Left1
340
0
102
{BLKREFS
331
80
102
}
  0
BLOCK_RECORD
  5
63
330
1
100
AcDbSymbolTableRecord
100
AcDbBlockTableRecord
  2
D_PTI_3_select__5
340
0
102
{BLKREFS
331
67
102
}
  0
BLOCK_RECORD
  5
66
330
1
100
AcDbSymbolTableRecord
100
AcDbBlockTableRecord
  2
Right1
340
0
102
{BLKREFS
331
81
102
}
  0
BLOCK_RECORD
  5
6A
330
1
100
AcDbSymbolTableRecord
100
AcDbBlockTableRecord
  2
D_PTI_3_select__6
340
0
102
{BLKREFS
331
6E
102
}
  0
BLOCK_RECORD
  5
6D
330
1
100
AcDbSymbolTableRecord
100
AcDbBlockTableRecord
  2
Top1
340
0
102
{BLKREFS
331
82
102
}
  0
BLOCK_RECORD
  5
71
330
1
100
AcDbSymbolTableRecord
100
AcDbBlockTableRecord
  2
_rahmen
340
0
102
{BLKREFS
331
78
102
}
  0
BLOCK_RECORD
  5
74
330
1
100
AcDbSymbolTableRecord
100
AcDbBlockTableRecord
  2
_punkt
340
0
102
{BLKREFS
331
79
102
}
  0
BLOCK_RECORD
  5
77
330
1
100
AcDbSymbolTableRecord
100
AcDbBlockTableRecord
  2
A4I_CS
340
0
102
{BLKREFS
331
83
102
}
  0
BLOCK_RECORD
  5
7C
330
1
100
AcDbSymbolTableRecord
100
AcDbBlockTableRecord
  2
1
340
0
102
{BLKREFS
331
86
102
}
  0
BLOCK_RECORD
  5
CC
330
1
100
AcDbSymbolTableRecord
100
AcDbBlockTableRecord
  2
*D17
340
0
102
{BLKREFS
331
D5
102
}
  0
BLOCK_RECORD
  5
D6
330
1
100
AcDbSymbolTableRecord
100
AcDbBlockTableRecord
  2
*D18
340
0
102
{BLKREFS
331
DF
102
}
  0
BLOCK_RECORD
  5
1B1
330
1
100
AcDbSymbolTableRecord
100
AcDbBlockTableRecord
  2
*D19
340
0
  0
ENDTAB
  0
ENDSEC
  0
SECTION
  2
BLOCKS
  0
BLOCK
  5
20
330
1F
100
AcDbEntity
  8
0
100
AcDbBlockBegin
  2
*Model_Space
 70
     0
 10
0.0
 20
0.0
 30
0.0
  3
*Model_Space
  1

  0
ENDBLK
  5
21
330
1F
100
AcDbEntity
  8
0
100
AcDbBlockEnd
  0
BLOCK
  5
1C
330
1B
100
AcDbEntity
 67
     1
  8
0
100
AcDbBlockBegin
  2
*Paper_Space
 70
     0
 10
0.0
 20
0.0
 30
0.0
  3
*Paper_Space
  1

  0
ENDBLK
  5
1D
330
1B
100
AcDbEntity
 67
     1
  8
0
100
AcDbBlockEnd
  0
BLOCK
  5
24
330
23
100
AcDbEntity
  8
0
100
AcDbBlockBegin
  2
*Paper_Space0
 70
     0
 10
0.0
 20
0.0
 30
0.0
  3
*Paper_Space0
  1

  0
ENDBLK
  5
25
330
23
100
AcDbEntity
  8
0
100
AcDbBlockEnd
  0
BLOCK
  5
48
330
47
100
AcDbEntity
  8
0
100
AcDbBlockBegin
  2
D_PTI_3_select__1
 70
     0
 10
-961.5686762234956
 20
-982.7977379051923
 30
0.0
  3
D_PTI_3_select__1
  1

  0
LINE
  5
87
330
47
100
AcDbEntity
  8
0
  6
Continuous
 62
     7
100
AcDbLine
 10
-958.7506365091901
 20
-962.4599143352668
 30
0.0
 11
-953.3427401127329
 21
-961.7479512711548
 31
0.0
  0
LINE
  5
88
330
47
100
AcDbEntity
  8
0
  6
Continuous
 62
     7
100
AcDbLine
 10
-958.7506365091901
 20
-962.4599143352668
 30
0.0
 11
-961.5289264071131
 21
-969.0049462316272
 31
0.0
  0
LINE
  5
89
330
47
100
AcDbEntity
  8
0
  6
Continuous
 62
     7
100
AcDbLine
 10
-953.3427401127329
 20
-961.7479512711548
 30
0.0
 11
-939.8048927685428
 21
-960.5635430999936
 31
0.0
  0
LINE
  5
8A
330
47
100
AcDbEntity
  8
0
  6
Continuous
 62
     7
100
AcDbLine
 10
-860.7060330464739
 20
-978.1964901340444
 30
0.0
 11
-860.7060330464982
 21
-960.5485271634255
 31
0.0
  0
LINE
  5
8B
330
47
100
AcDbEntity
  8
0
  6
Continuous
 62
     7
100
AcDbLine
 10
-956.9592917332112
 20
-982.670612897601
 30
0.0
 11
-961.5414355110571
 21
-969.3631011581405
 31
0.0
  0
LINE
  5
8C
330
47
100
AcDbEntity
  8
0
  6
Continuous
 62
     7
100
AcDbLine
 10
-892.0085554010793
 20
-942.7779246615966
 30
0.0
 11
-893.1605199324499
 21
-946.323306935204
 31
0.0
  0
LINE
  5
8D
330
47
100
AcDbEntity
  8
0
  6
Continuous
 62
     7
100
AcDbLine
 10
-893.1880977682887
 20
-941.0933635809997
 30
0.0
 11
-892.0085554010793
 21
-942.7779246615966
 31
0.0
  0
LINE
  5
8E
330
47
100
AcDbEntity
  8
0
  6
Continuous
 62
     7
100
AcDbLine
 10
-893.1880977682887
 20
-941.0933635809997
 30
0.0
 11
-897.9734000016787
 21
-944.4440682774618
 31
0.0
  0
LINE
  5
8F
330
47
100
AcDbEntity
  8
0
  6
Continuous
 62
     7
100
AcDbLine
 10
-900.0869738788588
 20
-976.5706128975953
 30
0.0
 11
-936.5482983337323
 21
-976.5706128975953
 31
0.0
  0
LINE
  5
90
330
47
100
AcDbEntity
  8
0
  6
Continuous
 62
     7
100
AcDbLine
 10
-896.8670192544184
 20
-982.1477379051923
 30
0.0
 11
-900.0869738788588
 21
-976.5706128975953
 31
0.0
  0
LINE
  5
91
330
47
100
AcDbEntity
  8
0
  6
Continuous
 62
     7
100
AcDbLine
 10
-918.3183652529575
 20
-937.8335883481438
 30
0.0
 11
-897.9734000016787
 21
-944.4440682774618
 31
0.0
  0
LINE
  5
92
330
47
100
AcDbEntity
  8
0
  6
Continuous
 62
     7
100
AcDbLine
 10
-918.3479479599594
 20
-934.736864630845
 30
0.0
 11
-917.6949480841657
 21
-935.914907590962
 31
0.0
  0
LINE
  5
93
330
47
100
AcDbEntity
  8
0
  6
Continuous
 62
     7
100
AcDbLine
 10
-937.5560333596399
 20
-951.6706128975143
 30
0.0
 11
-937.5560333596399
 21
-955.2655623411243
 31
0.0
  0
LINE
  5
94
330
47
100
AcDbEntity
  8
0
  6
Continuous
 62
     7
100
AcDbLine
 10
-926.710504763079
 20
-937.2289479134439
 30
0.0
 11
-924.9031606479176
 21
-937.7988013240418
 31
0.0
  0
LINE
  5
95
330
47
100
AcDbEntity
  8
0
  6
Continuous
 62
     7
100
AcDbLine
 10
-939.4089544016853
 20
-981.52541455027
 30
0.0
 11
-936.5482983337323
 21
-976.5706128975953
 31
0.0
  0
LINE
  5
96
330
47
100
AcDbEntity
  8
0
  6
Continuous
 62
     7
100
AcDbLine
 10
-917.6949480841657
 20
-935.914907590962
 30
0.0
 11
-918.3183652529575
 21
-937.8335883481438
 31
0.0
  0
LINE
  5
97
330
47
100
AcDbEntity
  8
0
  6
Continuous
 62
     7
100
AcDbLine
 10
-936.330773913861
 20
-938.0706124042055
 30
0.0
 11
-926.710504763079
 21
-937.2289479134439
 31
0.0
  0
LINE
  5
98
330
47
100
AcDbEntity
  8
0
  6
Continuous
 62
     7
100
AcDbLine
 10
-924.9031606479176
 20
-937.7988013240418
 30
0.0
 11
-919.0276626236522
 21
-934.5419595873987
 31
0.0
  0
LINE
  5
99
330
47
100
AcDbEntity
  8
0
  6
Continuous
 62
     7
100
AcDbLine
 10
-956.9592917332112
 20
-982.670612897601
 30
0.0
 11
-948.1075996124282
 21
-982.670612897601
 31
0.0
  0
LINE
  5
9A
330
47
100
AcDbEntity
  8
0
  6
Continuous
 62
     7
100
AcDbLine
 10
-939.8048927685428
 20
-960.5635430999936
 30
0.0
 11
-937.5560333596399
 21
-955.2655623411243
 31
0.0
  0
LINE
  5
9B
330
47
100
AcDbEntity
  8
0
  6
Continuous
 62
     7
100
AcDbLine
 10
-947.7060329212916
 20
-951.6706128975112
 30
0.0
 11
-937.5560333596399
 21
-951.6706128975143
 31
0.0
  0
LINE
  5
9C
330
47
100
AcDbEntity
  8
0
  6
Continuous
 62
     7
100
AcDbLine
 10
-948.8958787884028
 20
-938.0706124042055
 30
0.0
 11
-936.330773913861
 21
-938.0706124042055
 31
0.0
  0
LINE
  5
9D
330
47
100
AcDbEntity
  8
0
  6
Continuous
 62
     7
100
AcDbLine
 10
-948.1075996124282
 20
-982.670612897601
 30
0.0
 11
-939.4089544016853
 21
-981.52541455027
 31
0.0
  0
LINE
  5
9E
330
47
100
AcDbEntity
  8
0
  6
Continuous
 62
     7
100
AcDbLine
 10
-948.8958787884028
 20
-938.0706124042055
 30
0.0
 11
-947.7060329212916
 21
-951.6706128975112
 31
0.0
  0
LINE
  5
9F
330
47
100
AcDbEntity
  8
0
  6
Continuous
 62
     7
100
AcDbLine
 10
-869.7523738052025
 20
-957.6091928720864
 30
0.0
 11
-860.7060330464982
 21
-960.5485271634255
 31
0.0
  0
LINE
  5
A0
330
47
100
AcDbEntity
  8
0
  6
Continuous
 62
     7
100
AcDbLine
 10
-869.7523738052025
 20
-957.6091928720864
 30
0.0
 11
-867.5533396525154
 21
-950.8412616626787
 31
0.0
  0
LINE
  5
A1
330
47
100
AcDbEntity
  8
0
  6
Continuous
 62
     7
100
AcDbLine
 10
-868.5532047095398
 20
-949.4133063744791
 30
0.0
 11
-867.5533396525154
 21
-950.8412616626787
 31
0.0
  0
LINE
  5
A2
330
47
100
AcDbEntity
  8
0
  6
Continuous
 62
     7
100
AcDbLine
 10
-868.5532047095398
 20
-949.4133063744791
 30
0.0
 11
-873.3383687196742
 21
-952.7639142859451
 31
0.0
  0
LINE
  5
A3
330
47
100
AcDbEntity
  8
0
  6
Continuous
 62
     7
100
AcDbLine
 10
-893.1605199324499
 20
-946.323306935204
 30
0.0
 11
-873.3383687196742
 21
-952.7639142859451
 31
0.0
  0
LINE
  5
A4
330
47
100
AcDbEntity
  8
0
  6
Continuous
 62
     7
100
AcDbLine
 10
-895.5715021796126
 20
-982.7866162249783
 30
0.0
 11
-860.7060330464739
 21
-978.1964901340444
 31
0.0
  0
ARC
  5
A5
330
47
100
AcDbEntity
  8
0
  6
Continuous
 62
     7
100
AcDbCircle
 10
-961.0686762234956
 20
-969.2003170802204
 30
0.0
 40
0.5000000000000081
100
AcDbArc
 50
156.9993421618368
 51
199.0000000838024
  0
ARC
  5
A6
330
47
100
AcDbEntity
  8
0
  6
Continuous
 62
     7
100
AcDbCircle
 10
-895.7411862294987
 20
-981.4977379051924
 30
0.0
 40
1.299999999999977
100
AcDbArc
 50
209.9999999999994
 51
277.5000000000011
  0
ARC
  5
A7
330
47
100
AcDbEntity
  8
0
  6
Continuous
 62
     7
100
AcDbCircle
 10
-918.7852578135289
 20
-934.9792694409683
 30
0.0
 40
0.4999999999999304
100
AcDbArc
 50
29.00000000001846
 51
119.0000000000122
  0
ENDBLK
  5
49
330
47
100
AcDbEntity
  8
0
100
AcDbBlockEnd
  0
BLOCK
  5
4C
330
4A
100
AcDbEntity
  8
0
100
AcDbBlockBegin
  2
Back1
 70
     0
 10
-911.137355
 20
-958.690496
 30
0.0
  3
Back1
  1

  0
INSERT
  5
4B
330
4A
100
AcDbEntity
  8
0
100
AcDbBlockReference
  2
D_PTI_3_select__1
 10
-961.5686762234956
 20
-982.7977379051923
 30
0.0
  0
MTEXT
  5
A9
330
4A
100
AcDbEntity
  8
1
 62
     6
100
AcDbMText
 10
-911.1373541341585
 20
-987.8999976815074
 30
0.0
 40
5.0
 41
0.0
 71
     2
 72
     1
  1
 
  7
CONVERTER_11
 73
     1
 44
1.32052821128451
  0
ENDBLK
  5
4D
330
4A
100
AcDbEntity
  8
0
100
AcDbBlockEnd
  0
BLOCK
  5
4F
330
4E
100
AcDbEntity
  8
0
100
AcDbBlockBegin
  2
D_PTI_3_select__2
 70
     0
 10
-1106.43132196169
 20
-982.7977379051956
 30
0.0
  3
D_PTI_3_select__2
  1

  0
LINE
  5
AA
330
4E
100
AcDbEntity
  8
0
  6
Continuous
 62
     7
100
AcDbLine
 10
-1018.241476211612
 20
-938.0706124042102
 30
0.0
 11
-1019.431322078723
 21
-951.6706128975159
 31
0.0
  0
LINE
  5
AB
330
4E
100
AcDbEntity
  8
0
  6
Continuous
 62
     7
100
AcDbLine
 10
-1049.442406915849
 20
-935.9149075909668
 30
0.0
 11
-1048.789407040055
 21
-934.7368646308497
 31
0.0
  0
LINE
  5
AC
330
4E
100
AcDbEntity
  8
0
  6
Continuous
 62
     7
100
AcDbLine
 10
-1048.818989747057
 20
-937.8335883481486
 30
0.0
 11
-1049.442406915849
 21
-935.9149075909668
 31
0.0
  0
LINE
  5
AD
330
4E
100
AcDbEntity
  8
0
  6
Continuous
 62
     7
100
AcDbLine
 10
-1042.234194352097
 20
-937.7988013240465
 30
0.0
 11
-1040.426850236936
 21
-937.2289479134486
 31
0.0
  0
LINE
  5
AE
330
4E
100
AcDbEntity
  8
0
  6
Continuous
 62
     7
100
AcDbLine
 10
-1048.109692376362
 20
-934.5419595874033
 30
0.0
 11
-1042.234194352097
 21
-937.7988013240465
 31
0.0
  0
LINE
  5
AF
330
4E
100
AcDbEntity
  8
0
  6
Continuous
 62
     7
100
AcDbLine
 10
-1005.608428592901
 20
-969.0049462316318
 30
0.0
 11
-1008.386718490824
 21
-962.4599143352716
 31
0.0
  0
LINE
  5
B0
330
4E
100
AcDbEntity
  8
0
  6
Continuous
 62
     7
100
AcDbLine
 10
-1010.178063266803
 20
-982.6706128976057
 30
0.0
 11
-1019.029755387586
 21
-982.6706128976057
 31
0.0
  0
LINE
  5
B1
330
4E
100
AcDbEntity
  8
0
  6
Continuous
 62
     7
100
AcDbLine
 10
-1013.794614887282
 20
-961.7479512711594
 30
0.0
 11
-1008.386718490824
 21
-962.4599143352716
 31
0.0
  0
LINE
  5
B2
330
4E
100
AcDbEntity
  8
0
  6
Continuous
 62
     7
100
AcDbLine
 10
-1019.029755387586
 20
-982.6706128976057
 30
0.0
 11
-1027.728400598329
 21
-981.5254145502747
 31
0.0
  0
LINE
  5
B3
330
4E
100
AcDbEntity
  8
0
  6
Continuous
 62
     7
100
AcDbLine
 10
-1005.595919488957
 20
-969.3631011581451
 30
0.0
 11
-1010.178063266803
 21
-982.6706128976057
 31
0.0
  0
LINE
  5
B4
330
4E
100
AcDbEntity
  8
0
  6
Continuous
 62
     7
100
AcDbLine
 10
-1073.949257231726
 20
-941.0933635810045
 30
0.0
 11
-1069.163954998336
 21
-944.4440682774666
 31
0.0
  0
LINE
  5
B5
330
4E
100
AcDbEntity
  8
0
  6
Continuous
 62
     7
100
AcDbLine
 10
-1075.128799598935
 20
-942.7779246616012
 30
0.0
 11
-1073.949257231726
 21
-941.0933635810045
 31
0.0
  0
LINE
  5
B6
330
4E
100
AcDbEntity
  8
0
  6
Continuous
 62
     7
100
AcDbLine
 10
-1073.976835067565
 20
-946.3233069352087
 30
0.0
 11
-1075.128799598935
 21
-942.7779246616012
 31
0.0
  0
LINE
  5
B7
330
4E
100
AcDbEntity
  8
0
  6
Continuous
 62
     7
100
AcDbLine
 10
-1093.79898628034
 20
-952.7639142859498
 30
0.0
 11
-1073.976835067565
 21
-946.3233069352087
 31
0.0
  0
LINE
  5
B8
330
4E
100
AcDbEntity
  8
0
  6
Continuous
 62
     7
100
AcDbLine
 10
-1106.43132196169
 20
-978.1964901329748
 30
0.0
 11
-1106.431321961665
 21
-960.548527166078
 31
0.0
  0
LINE
  5
B9
330
4E
100
AcDbEntity
  8
0
  6
Continuous
 62
     7
100
AcDbLine
 10
-1030.806581086154
 20
-938.0706124042102
 30
0.0
 11
-1018.241476211612
 21
-938.0706124042102
 31
0.0
  0
LINE
  5
BA
330
4E
100
AcDbEntity
  8
0
  6
Continuous
 62
     7
100
AcDbLine
 10
-1029.581321640375
 20
-955.265562341129
 30
0.0
 11
-1029.581321640375
 21
-951.670612897519
 31
0.0
  0
LINE
  5
BB
330
4E
100
AcDbEntity
  8
0
  6
Continuous
 62
     7
100
AcDbLine
 10
-1097.384981194812
 20
-957.6091928720911
 30
0.0
 11
-1099.584015347499
 21
-950.8412616626833
 31
0.0
  0
LINE
  5
BC
330
4E
100
AcDbEntity
  8
0
  6
Continuous
 62
     7
100
AcDbLine
 10
-1027.332462231472
 20
-960.5635430999982
 30
0.0
 11
-1013.794614887282
 21
-961.7479512711594
 31
0.0
  0
LINE
  5
BD
330
4E
100
AcDbEntity
  8
0
  6
Continuous
 62
     7
100
AcDbLine
 10
-1106.431321961665
 20
-960.548527166078
 30
0.0
 11
-1097.384981194812
 21
-957.6091928720911
 31
0.0
  0
LINE
  5
BE
330
4E
100
AcDbEntity
  8
0
  6
Continuous
 62
     7
100
AcDbLine
 10
-1029.581321640375
 20
-951.670612897519
 30
0.0
 11
-1019.431322078723
 21
-951.6706128975159
 31
0.0
  0
LINE
  5
BF
330
4E
100
AcDbEntity
  8
0
  6
Continuous
 62
     7
100
AcDbLine
 10
-1098.584150290475
 20
-949.4133063744839
 30
0.0
 11
-1093.79898628034
 21
-952.7639142859498
 31
0.0
  0
LINE
  5
C0
330
4E
100
AcDbEntity
  8
0
  6
Continuous
 62
     7
100
AcDbLine
 10
-1099.584015347499
 20
-950.8412616626833
 30
0.0
 11
-1098.584150290475
 21
-949.4133063744839
 31
0.0
  0
LINE
  5
C1
330
4E
100
AcDbEntity
  8
0
  6
Continuous
 62
     7
100
AcDbLine
 10
-1040.426850236936
 20
-937.2289479134486
 30
0.0
 11
-1030.806581086154
 21
-938.0706124042102
 31
0.0
  0
LINE
  5
C2
330
4E
100
AcDbEntity
  8
0
  6
Continuous
 62
     7
100
AcDbLine
 10
-1069.163954998336
 20
-944.4440682774666
 30
0.0
 11
-1048.818989747057
 21
-937.8335883481486
 31
0.0
  0
LINE
  5
C3
330
4E
100
AcDbEntity
  8
0
  6
Continuous
 62
     7
100
AcDbLine
 10
-1027.728400598329
 20
-981.5254145502747
 30
0.0
 11
-1030.589056666282
 21
-976.5706128976
 31
0.0
  0
LINE
  5
C4
330
4E
100
AcDbEntity
  8
0
  6
Continuous
 62
     7
100
AcDbLine
 10
-1030.589056666282
 20
-976.5706128976
 30
0.0
 11
-1067.050381121156
 21
-976.5706128976
 31
0.0
  0
LINE
  5
C5
330
4E
100
AcDbEntity
  8
0
  6
Continuous
 62
     7
100
AcDbLine
 10
-1029.581321640375
 20
-955.265562341129
 30
0.0
 11
-1027.332462231472
 21
-960.5635430999982
 31
0.0
  0
LINE
  5
C6
330
4E
100
AcDbEntity
  8
0
  6
Continuous
 62
     7
100
AcDbLine
 10
-1067.050381121156
 20
-976.5706128976
 30
0.0
 11
-1070.270335745595
 21
-982.1477379051956
 31
0.0
  0
LINE
  5
C7
330
4E
100
AcDbEntity
  8
0
  6
Continuous
 62
     7
100
AcDbLine
 10
-1106.43132196169
 20
-978.1964901329748
 30
0.0
 11
-1071.565852820401
 21
-982.7866162249816
 31
0.0
  0
ARC
  5
C8
330
4E
100
AcDbEntity
  8
0
  6
Continuous
 62
     7
100
AcDbCircle
 10
-1006.068678776519
 20
-969.2003170802251
 30
0.0
 40
0.5000000000004996
100
AcDbArc
 50
340.9999999162188
 51
23.00065783813774
  0
ARC
  5
C9
330
4E
100
AcDbEntity
  8
0
  6
Continuous
 62
     7
100
AcDbCircle
 10
-1048.352097186486
 20
-934.9792694409731
 30
0.0
 40
0.5000000000004049
100
AcDbArc
 50
60.99999999993722
 51
150.9999999999449
  0
ARC
  5
CA
330
4E
100
AcDbEntity
  8
0
  6
Continuous
 62
     7
100
AcDbCircle
 10
-1071.396168770515
 20
-981.4977379051957
 30
0.0
 40
1.299999999999943
100
AcDbArc
 50
262.5000000000038
 51
330.0000000000056
  0
ENDBLK
  5
50
330
4E
100
AcDbEntity
  8
0
100
AcDbBlockEnd
  0
BLOCK
  5
53
330
51
100
AcDbEntity
  8
0
100
AcDbBlockBegin
  2
Front1
 70
     0
 10
-1056.0
 20
-958.690496
 30
0.0
  3
Front1
  1

  0
INSERT
  5
52
330
51
100
AcDbEntity
  8
0
100
AcDbBlockReference
  2
D_PTI_3_select__2
 10
-1106.43132196169
 20
-982.7977379051956
 30
0.0
  0
MTEXT
  5
CB
330
51
100
AcDbEntity
  8
1
 62
     6
100
AcDbMText
 10
-1056.000000931912
 20
-987.8999976815074
 30
0.0
 40
5.0
 41
0.0
 71
     2
 72
     1
  1
 
  7
CONVERTER_11
 73
     1
 44
1.32052821128451
  0
INSERT
  5
D5
330
51
100
AcDbEntity
  8
1
100
AcDbBlockReference
  2
*D17
 10
0.0
 20
0.0
 30
0.0
  0
INSERT
  5
DF
330
51
100
AcDbEntity
  8
1
100
AcDbBlockReference
  2
*D18
 10
0.0
 20
0.0
 30
0.0
  0
ENDBLK
  5
54
330
51
100
AcDbEntity
  8
0
100
AcDbBlockEnd
  0
BLOCK
  5
56
330
55
100
AcDbEntity
  8
0
100
AcDbBlockBegin
  2
D_PTI_3_select__3
 70
     0
 10
-972.2248059772941
 20
-1059.699188584585
 30
0.0
  3
D_PTI_3_select__3
  1

  0
LINE
  5
E0
330
55
100
AcDbEntity
  8
0
  6
Continuous
 62
     7
100
AcDbLine
 10
-888.8670387501714
 20
-1059.699188584585
 30
0.0
 11
-896.5328289932775
 21
-1057.486265554415
 31
0.0
  0
LINE
  5
E1
330
55
100
AcDbEntity
  8
0
  6
Continuous
 62
     7
100
AcDbLine
 10
-886.2156886672096
 20
-1041.691418451182
 30
0.0
 11
-887.3156886672097
 21
-1042.644046395345
 31
0.0
  0
LINE
  5
E2
330
55
100
AcDbEntity
  8
0
  6
Continuous
 62
     7
100
AcDbLine
 10
-888.8670387501714
 20
-1059.699188584585
 30
0.0
 11
-887.7670387501714
 21
-1058.746560640422
 31
0.0
  0
LINE
  5
E3
330
55
100
AcDbEntity
  8
0
  6
Continuous
 62
     7
100
AcDbLine
 10
-884.8987858347359
 20
-1049.32008130149
 30
0.0
 11
-888.8670387501714
 21
-1059.699188584585
 31
0.0
  0
LINE
  5
E4
330
55
100
AcDbEntity
  8
0
  6
Continuous
 62
     7
100
AcDbLine
 10
-887.7670387501714
 20
-1058.746560640422
 30
0.0
 11
-883.798785834736
 21
-1048.367453357327
 31
0.0
  0
LINE
  5
E5
330
55
100
AcDbEntity
  8
0
  6
Continuous
 62
     7
100
AcDbLine
 10
-896.5328289932775
 20
-1057.486265554415
 30
0.0
 11
-904.0660767243164
 21
-1054.319833390593
 31
0.0
  0
LINE
  5
E6
330
55
100
AcDbEntity
  8
0
  6
Continuous
 62
     7
100
AcDbLine
 10
-939.9324235162247
 20
-1043.409002355604
 30
0.0
 11
-941.0324235162241
 21
-1044.361630299766
 31
0.0
  0
LINE
  5
E7
330
55
100
AcDbEntity
  8
0
  6
Continuous
 62
     2
100
AcDbLine
 10
-939.8084732881449
 20
-1043.27066949447
 30
0.0
 11
-940.9084732881441
 21
-1044.223297438632
 31
0.0
  0
LINE
  5
E8
330
55
100
AcDbEntity
  8
0
  6
Continuous
 62
     7
100
AcDbLine
 10
-938.1199107843266
 20
-1040.198354158065
 30
0.0
 11
-940.9084732881441
 21
-1044.223297438632
 31
0.0
  0
LINE
  5
E9
330
55
100
AcDbEntity
  8
0
  6
Continuous
 62
     7
100
AcDbLine
 10
-939.8084732881449
 20
-1043.27066949447
 30
0.0
 11
-937.7532441176605
 21
-1040.304201707415
 31
0.0
  0
LINE
  5
EA
330
55
100
AcDbEntity
  8
0
  6
Continuous
 62
     7
100
AcDbLine
 10
-886.2156886672096
 20
-1041.691418451182
 30
0.0
 11
-890.8990643275931
 21
-1039.722866252006
 31
0.0
  0
LINE
  5
EB
330
55
100
AcDbEntity
  8
0
  6
Continuous
 62
     7
100
AcDbLine
 10
-891.9990643275937
 20
-1040.675494196168
 30
0.0
 11
-890.8990643275931
 21
-1039.722866252006
 31
0.0
  0
LINE
  5
EC
330
55
100
AcDbEntity
  8
0
  6
Continuous
 62
     2
100
AcDbLine
 10
-883.8096190365284
 20
-1048.054154816489
 30
0.0
 11
-884.9096190365283
 21
-1049.006782760651
 31
0.0
  0
LINE
  5
ED
330
55
100
AcDbEntity
  8
0
  6
Continuous
 62
     7
100
AcDbLine
 10
-884.9096190365283
 20
-1049.006782760651
 30
0.0
 11
-887.3156886672097
 21
-1042.644046395345
 31
0.0
  0
LINE
  5
EE
330
55
100
AcDbEntity
  8
0
  6
Continuous
 62
     7
100
AcDbLine
 10
-886.2156886672096
 20
-1041.691418451182
 30
0.0
 11
-883.8096190365284
 21
-1048.054154816489
 31
0.0
  0
LINE
  5
EF
330
55
100
AcDbEntity
  8
0
  6
Continuous
 62
     2
100
AcDbLine
 10
-883.798785834736
 20
-1048.367453357327
 30
0.0
 11
-884.8987858347359
 21
-1049.32008130149
 31
0.0
  0
LINE
  5
F0
330
55
100
AcDbEntity
  8
0
  6
Continuous
 62
     7
100
AcDbLine
 10
-891.9990643275937
 20
-1040.675494196168
 30
0.0
 11
-887.3156886672097
 21
-1042.644046395345
 31
0.0
  0
LINE
  5
F1
330
55
100
AcDbEntity
  8
0
  6
Continuous
 62
     7
100
AcDbLine
 10
-903.7231840402611
 20
-1036.265304795483
 30
0.0
 11
-891.9990643275937
 21
-1040.675494196168
 31
0.0
  0
LINE
  5
F2
330
55
100
AcDbEntity
  8
0
  6
Continuous
 62
     7
100
AcDbLine
 10
-906.543477550658
 20
-1049.313685271679
 30
0.0
 11
-938.1199107843266
 21
-1040.198354158065
 31
0.0
  0
LINE
  5
F3
330
55
100
AcDbEntity
  8
0
  6
Continuous
 62
     7
100
AcDbLine
 10
-922.5993158258237
 20
-1010.305918464966
 30
0.0
 11
-938.8503194547125
 21
-1010.894928967734
 31
0.0
  0
LINE
  5
F4
330
55
100
AcDbEntity
  8
0
  6
Continuous
 62
     7
100
AcDbLine
 10
-922.8709578132475
 20
-1009.391474104985
 30
0.0
 11
-922.3054433321375
 21
-1008.534508943719
 31
0.0
  0
LINE
  5
F5
330
55
100
AcDbEntity
  8
0
  6
Continuous
 62
     7
100
AcDbLine
 10
-966.2948645018515
 20
-1009.782673809219
 30
0.0
 11
-965.4289559621072
 21
-1008.795994518422
 31
0.0
  0
LINE
  5
F6
330
55
100
AcDbEntity
  8
0
  6
Continuous
 62
     7
100
AcDbLine
 10
-902.6231840402613
 20
-1035.312676851321
 30
0.0
 11
-903.7231840402611
 21
-1036.265304795483
 31
0.0
  0
LINE
  5
F7
330
55
100
AcDbEntity
  8
0
  6
Continuous
 62
     7
100
AcDbLine
 10
-902.6231840402613
 20
-1035.312676851321
 30
0.0
 11
-904.5707534179127
 21
-1030.162276073154
 31
0.0
  0
LINE
  5
F8
330
55
100
AcDbEntity
  8
0
  6
Continuous
 62
     7
100
AcDbLine
 10
-905.6707534179127
 20
-1031.114904017317
 30
0.0
 11
-903.7231840402611
 21
-1036.265304795483
 31
0.0
  0
LINE
  5
F9
330
55
100
AcDbEntity
  8
0
  6
Continuous
 62
     7
100
AcDbLine
 10
-904.5707534180663
 20
-1028.31912912183
 30
0.0
 11
-904.5707534179127
 21
-1030.162276073154
 31
0.0
  0
LINE
  5
FA
330
55
100
AcDbEntity
  8
0
  6
Continuous
 62
     7
100
AcDbLine
 10
-896.8805959490837
 20
-1030.539086364208
 30
0.0
 11
-895.7805959490838
 21
-1029.586458420045
 31
0.0
  0
LINE
  5
FB
330
55
100
AcDbEntity
  8
0
  6
Continuous
 62
     7
100
AcDbLine
 10
-895.8501592015589
 20
-1019.058601912286
 30
0.0
 11
-896.8805959490837
 21
-1030.539086364208
 31
0.0
  0
LINE
  5
FC
330
55
100
AcDbEntity
  8
0
  6
Continuous
 62
     7
100
AcDbLine
 10
-905.6707534179127
 20
-1031.114904017317
 30
0.0
 11
-905.6707534179087
 21
-1028.001586473827
 31
0.0
  0
LINE
  5
FD
330
55
100
AcDbEntity
  8
0
  6
Continuous
 62
     7
100
AcDbLine
 10
-905.6707534179127
 20
-1031.114904017317
 30
0.0
 11
-904.5707534179127
 21
-1030.162276073154
 31
0.0
  0
LINE
  5
FE
330
55
100
AcDbEntity
  8
0
  6
Continuous
 62
     7
100
AcDbLine
 10
-905.6707534179087
 20
-1028.001586473827
 30
0.0
 11
-896.8805959490837
 21
-1030.539086364208
 31
0.0
  0
LINE
  5
FF
330
55
100
AcDbEntity
  8
0
  6
Continuous
 62
     7
100
AcDbLine
 10
-904.0660767243164
 20
-1054.319833390593
 30
0.0
 11
-906.543477550658
 21
-1049.313685271679
 31
0.0
  0
LINE
  5
100
330
55
100
AcDbEntity
  8
0
  6
Continuous
 62
     7
100
AcDbLine
 10
-894.750159201559
 20
-1018.105973968123
 30
0.0
 11
-895.7805959490838
 21
-1029.586458420045
 31
0.0
  0
LINE
  5
101
330
55
100
AcDbEntity
  8
0
  6
Continuous
 62
     7
100
AcDbLine
 10
-890.8990643275931
 20
-1039.722866252006
 30
0.0
 11
-902.6231840402613
 21
-1035.312676851321
 31
0.0
  0
LINE
  5
102
330
55
100
AcDbEntity
  8
0
  6
Continuous
 62
     7
100
AcDbLine
 10
-972.2248059772941
 20
-1031.761169937316
 30
0.0
 11
-972.2248059772539
 21
-1016.477585682926
 31
0.0
  0
LINE
  5
103
330
55
100
AcDbEntity
  8
0
  6
Continuous
 62
     7
100
AcDbLine
 10
-964.3289559621072
 20
-1007.843366574259
 30
0.0
 11
-965.4289559621072
 21
-1008.795994518422
 31
0.0
  0
LINE
  5
104
330
55
100
AcDbEntity
  8
0
  6
Continuous
 62
     7
100
AcDbLine
 10
-938.8503194547125
 20
-1010.894928967734
 30
0.0
 11
-939.9503194547124
 21
-1011.847556911897
 31
0.0
  0
LINE
  5
105
330
55
100
AcDbEntity
  8
0
  6
Continuous
 62
     7
100
AcDbLine
 10
-944.094512753627
 20
-1007.749435965844
 30
0.0
 11
-939.9503194547124
 21
-1011.847556911897
 31
0.0
  0
LINE
  5
106
330
55
100
AcDbEntity
  8
0
  6
Continuous
 62
     7
100
AcDbLine
 10
-942.994512753627
 20
-1006.796808021681
 30
0.0
 11
-938.8503194547125
 21
-1010.894928967734
 31
0.0
  0
LINE
  5
107
330
55
100
AcDbEntity
  8
0
  6
Continuous
 62
     7
100
AcDbLine
 10
-942.994512753627
 20
-1006.796808021681
 30
0.0
 11
-944.094512753627
 21
-1007.749435965844
 31
0.0
  0
LINE
  5
108
330
55
100
AcDbEntity
  8
0
  6
Continuous
 62
     7
100
AcDbLine
 10
-945.1160264084759
 20
-1008.91342306407
 30
0.0
 11
-944.094512753627
 21
-1007.749435965844
 31
0.0
  0
LINE
  5
109
330
55
100
AcDbEntity
  8
0
  6
Continuous
 62
     7
100
AcDbLine
 10
-944.1183958600503
 20
-1012.271805311984
 30
0.0
 11
-945.1160264084759
 21
-1008.91342306407
 31
0.0
  0
LINE
  5
10A
330
55
100
AcDbEntity
  8
0
  6
Continuous
 62
     7
100
AcDbLine
 10
-965.4289559621072
 20
-1008.795994518422
 30
0.0
 11
-961.2848823680434
 21
-1012.893997090396
 31
0.0
  0
LINE
  5
10B
330
55
100
AcDbEntity
  8
0
  6
Continuous
 62
     7
100
AcDbLine
 10
-964.390445061835
 20
-1016.193632705803
 30
0.0
 11
-966.2948645018515
 21
-1009.782673809219
 31
0.0
  0
LINE
  5
10C
330
55
100
AcDbEntity
  8
0
  6
Continuous
 62
     7
100
AcDbLine
 10
-964.3289559621072
 20
-1007.843366574259
 30
0.0
 11
-960.1848823680434
 21
-1011.941369146233
 31
0.0
  0
LINE
  5
10D
330
55
100
AcDbEntity
  8
0
  6
Continuous
 62
     7
100
AcDbLine
 10
-972.2248059772539
 20
-1016.477585682926
 30
0.0
 11
-971.1248059701968
 21
-1015.524957738508
 31
0.0
  0
LINE
  5
10E
330
55
100
AcDbEntity
  8
0
  6
Continuous
 62
     7
100
AcDbLine
 10
-964.6586981796495
 20
-1015.290596496111
 30
0.0
 11
-971.1248059701968
 21
-1015.524957738508
 31
0.0
  0
LINE
  5
10F
330
55
100
AcDbEntity
  8
0
  6
Continuous
 62
     7
100
AcDbLine
 10
-906.7318592241696
 20
-1015.917325693687
 30
0.0
 11
-905.6318592241696
 21
-1014.964697749524
 31
0.0
  0
LINE
  5
110
330
55
100
AcDbEntity
  8
0
  6
Continuous
 62
     7
100
AcDbLine
 10
-905.6318592241696
 20
-1014.964697749524
 30
0.0
 11
-913.9632567000217
 21
-1011.830727631393
 31
0.0
  0
LINE
  5
111
330
55
100
AcDbEntity
  8
0
  6
Continuous
 62
     7
100
AcDbLine
 10
-915.0632567000216
 20
-1012.783355575555
 30
0.0
 11
-906.7318592241696
 21
-1015.917325693687
 31
0.0
  0
LINE
  5
112
330
55
100
AcDbEntity
  8
0
  6
Continuous
 62
     7
100
AcDbLine
 10
-972.2248059772539
 20
-1016.477585682926
 30
0.0
 11
-964.390445061835
 21
-1016.193632705803
 31
0.0
  0
LINE
  5
113
330
55
100
AcDbEntity
  8
0
  6
Continuous
 62
     7
100
AcDbLine
 10
-916.6284626171383
 20
-1012.825027076782
 30
0.0
 11
-915.0632567000216
 21
-1012.783355575555
 31
0.0
  0
LINE
  5
114
330
55
100
AcDbEntity
  8
0
  6
Continuous
 62
     7
100
AcDbLine
 10
-913.9632567000217
 20
-1011.830727631393
 30
0.0
 11
-915.0632567000216
 21
-1012.783355575555
 31
0.0
  0
LINE
  5
115
330
55
100
AcDbEntity
  8
0
  6
Continuous
 62
     7
100
AcDbLine
 10
-913.9632567000217
 20
-1011.830727631393
 30
0.0
 11
-915.5284626171384
 21
-1011.872399132619
 31
0.0
  0
LINE
  5
116
330
55
100
AcDbEntity
  8
0
  6
Continuous
 62
     7
100
AcDbLine
 10
-915.5284626171384
 20
-1011.872399132619
 30
0.0
 11
-916.6284626171383
 21
-1012.825027076782
 31
0.0
  0
LINE
  5
117
330
55
100
AcDbEntity
  8
0
  6
Continuous
 62
     7
100
AcDbLine
 10
-921.7167931661686
 20
-1008.53564489079
 30
0.0
 11
-916.6284626171383
 21
-1012.825027076782
 31
0.0
  0
LINE
  5
118
330
55
100
AcDbEntity
  8
0
  6
Continuous
 62
     2
100
AcDbLine
 10
-921.7167931661686
 20
-1008.53564489079
 30
0.0
 11
-920.6167931660548
 21
-1007.583016946529
 31
0.0
  0
LINE
  5
119
330
55
100
AcDbEntity
  8
0
  6
Continuous
 62
     7
100
AcDbLine
 10
-922.2540498533866
 20
-1008.475801730601
 30
0.0
 11
-921.1540498533858
 21
-1007.523173786438
 31
0.0
  0
LINE
  5
11A
330
55
100
AcDbEntity
  8
0
  6
Continuous
 62
     7
100
AcDbLine
 10
-915.5284626171384
 20
-1011.872399132619
 30
0.0
 11
-920.6167931660548
 21
-1007.583016946529
 31
0.0
  0
LINE
  5
11B
330
55
100
AcDbEntity
  8
0
  6
Continuous
 62
     7
100
AcDbLine
 10
-894.750159201559
 20
-1018.105973968123
 30
0.0
 11
-895.8501592015589
 21
-1019.058601912286
 31
0.0
  0
LINE
  5
11C
330
55
100
AcDbEntity
  8
0
  6
Continuous
 62
     7
100
AcDbLine
 10
-906.7318592241696
 20
-1015.917325693687
 30
0.0
 11
-895.8501592015589
 21
-1019.058601912286
 31
0.0
  0
LINE
  5
11D
330
55
100
AcDbEntity
  8
0
  6
Continuous
 62
     7
100
AcDbLine
 10
-894.750159201559
 20
-1018.105973968123
 30
0.0
 11
-905.6318592241696
 21
-1014.964697749524
 31
0.0
  0
LINE
  5
11E
330
55
100
AcDbEntity
  8
0
  6
Continuous
 62
     7
100
AcDbLine
 10
-960.1848823680434
 20
-1011.941369146233
 30
0.0
 11
-961.2848823680434
 21
-1012.893997090396
 31
0.0
  0
LINE
  5
11F
330
55
100
AcDbEntity
  8
0
  6
Continuous
 62
     7
100
AcDbLine
 10
-944.3866489779557
 20
-1011.368769102294
 30
0.0
 11
-960.1848823680434
 21
-1011.941369146233
 31
0.0
  0
LINE
  5
120
330
55
100
AcDbEntity
  8
0
  6
Continuous
 62
     7
100
AcDbLine
 10
-939.9503194547124
 20
-1011.847556911897
 30
0.0
 11
-922.3310627079185
 21
-1011.208954674655
 31
0.0
  0
LINE
  5
121
330
55
100
AcDbEntity
  8
0
  6
Continuous
 62
     7
100
AcDbLine
 10
-922.3310627079185
 20
-1011.208954674655
 30
0.0
 11
-922.8709578132475
 21
-1009.391474104985
 31
0.0
  0
LINE
  5
122
330
55
100
AcDbEntity
  8
0
  6
Continuous
 62
     7
100
AcDbLine
 10
-961.2848823680434
 20
-1012.893997090396
 30
0.0
 11
-944.1183958600503
 21
-1012.271805311984
 31
0.0
  0
LINE
  5
123
330
55
100
AcDbEntity
  8
0
  6
Continuous
 62
     7
100
AcDbLine
 10
-972.2248059772941
 20
-1031.761169937316
 30
0.0
 11
-942.0304239859645
 21
-1044.452703024794
 31
0.0
  0
SPLINE
  5
124
330
55
100
AcDbEntity
  8
0
  6
Continuous
 62
     7
100
AcDbSpline
210
0.0
220
0.0
230
1.0
 70
     8
 71
     3
 72
    11
 73
     7
 74
     5
 42
0.000000001
 43
0.0000000001
 44
0.00000001
 40
0.0
 40
0.0
 40
0.0
 40
0.0
 40
0.0739738580100019
 40
0.1519231424644949
 40
0.2340318914079823
 40
0.3199443646963046
 40
0.3199443646963046
 40
0.3199443646963046
 40
0.3199443646963046
 10
-883.798785834736
 20
-1048.367453357327
 30
0.0
 10
-883.791475228011
 20
-1048.343805606713
 30
0.0
 10
-883.7764611500643
 20
-1048.295239248899
 30
0.0
 10
-883.7734535951537
 20
-1048.21657447075
 30
0.0
 10
-883.7829372951956
 20
-1048.134708160018
 30
0.0
 10
-883.8005918942017
 20
-1048.081408137959
 30
0.0
 10
-883.8096190365284
 20
-1048.054154816489
 30
0.0
 11
-883.798785834736
 21
-1048.367453357327
 31
0.0
 11
-883.7799507862176
 21
-1048.295917542374
 31
0.0
 11
-883.7754585521349
 21
-1048.218097807625
 31
0.0
 11
-883.7854596360257
 21
-1048.136600413469
 31
0.0
 11
-883.8096190365284
 21
-1048.054154816489
 31
0.0
  0
SPLINE
  5
125
330
55
100
AcDbEntity
  8
0
  6
Continuous
 62
     7
100
AcDbSpline
210
0.0
220
0.0
230
1.0
 70
     8
 71
     3
 72
     9
 73
     5
 74
     3
 42
0.000000001
 43
0.0000000001
 44
0.00000001
 40
0.0
 40
0.0
 40
0.0
 40
0.0
 40
0.0927326406299489
 40
0.1861088118296363
 40
0.1861088118296363
 40
0.1861088118296363
 40
0.1861088118296363
 10
-941.0324235162241
 20
-1044.361630299766
 30
0.0
 10
-941.0096638989958
 20
-1044.340602180858
 30
0.0
 10
-940.9639867355418
 20
-1044.298400001831
 30
0.0
 10
-940.927020373172
 20
-1044.248389273339
 30
0.0
 10
-940.9084732881441
 20
-1044.223297438632
 30
0.0
 11
-941.0324235162241
 21
-1044.361630299766
 31
0.0
 11
-940.9663073375779
 21
-1044.296607275567
 31
0.0
 11
-940.9084732881441
 21
-1044.223297438632
 31
0.0
  0
SPLINE
  5
126
330
55
100
AcDbEntity
  8
0
  6
Continuous
 62
     7
100
AcDbSpline
210
0.0
220
0.0
230
1.0
 70
     8
 71
     3
 72
     9
 73
     5
 74
     3
 42
0.000000001
 43
0.0000000001
 44
0.00000001
 40
0.0
 40
0.0
 40
0.0
 40
0.0
 40
0.0927326406297084
 40
0.1861088118295744
 40
0.1861088118295744
 40
0.1861088118295744
 40
0.1861088118295744
 10
-939.9324235162247
 20
-1043.409002355604
 30
0.0
 10
-939.9096638989965
 20
-1043.387974236696
 30
0.0
 10
-939.8639867355428
 20
-1043.345772057669
 30
0.0
 10
-939.8270203731724
 20
-1043.295761329176
 30
0.0
 10
-939.8084732881449
 20
-1043.27066949447
 30
0.0
 11
-939.9324235162247
 21
-1043.409002355604
 31
0.0
 11
-939.8663073375786
 21
-1043.343979331405
 31
0.0
 11
-939.8084732881449
 21
-1043.27066949447
 31
0.0
  0
SPLINE
  5
127
330
55
100
AcDbEntity
  8
0
  6
Continuous
 62
     7
100
AcDbSpline
210
0.0
220
0.0
230
1.0
 70
     8
 71
     3
 72
    11
 73
     7
 74
     5
 42
0.000000001
 43
0.0000000001
 44
0.00000001
 40
0.0
 40
0.0
 40
0.0
 40
0.0
 40
0.2892604272159425
 40
0.5589694608385445
 40
0.8111247495550973
 40
1.052744461634433
 40
1.052744461634433
 40
1.052744461634433
 40
1.052744461634433
 10
-942.0304239859645
 20
-1044.452703024794
 30
0.0
 10
-941.9390159837933
 20
-1044.484974261216
 30
0.0
 10
-941.7623783314069
 20
-1044.547335475822
 30
0.0
 10
-941.4890712101184
 20
-1044.558205893672
 30
0.0
 10
-941.234363335597
 20
-1044.504590950712
 30
0.0
 10
-941.0987724283862
 20
-1044.40860114925
 30
0.0
 10
-941.0324235162241
 20
-1044.361630299766
 30
0.0
 11
-942.0304239859645
 21
-1044.452703024794
 31
0.0
 11
-941.7530651290864
 21
-1044.534822811433
 31
0.0
 11
-941.4836214767988
 21
-1044.546784517696
 31
0.0
 11
-941.2384473712486
 21
-1044.487861268854
 31
0.0
 11
-941.0324235162241
 21
-1044.361630299766
 31
0.0
  0
SPLINE
  5
128
330
55
100
AcDbEntity
  8
0
  6
Continuous
 62
     7
100
AcDbSpline
210
0.0
220
0.0
230
1.0
 70
     8
 71
     3
 72
    11
 73
     7
 74
     5
 42
0.000000001
 43
0.0000000001
 44
0.00000001
 40
0.0
 40
0.0
 40
0.0
 40
0.0
 40
0.0739738580104127
 40
0.1519231424644517
 40
0.2340318914083905
 40
0.3199443646973354
 40
0.3199443646973354
 40
0.3199443646973354
 40
0.3199443646973354
 10
-884.8987858347359
 20
-1049.32008130149
 30
0.0
 10
-884.8914752280108
 20
-1049.296433550876
 30
0.0
 10
-884.8764611500641
 20
-1049.247867193061
 30
0.0
 10
-884.873453595154
 20
-1049.169202414913
 30
0.0
 10
-884.8829372951952
 20
-1049.08733610418
 30
0.0
 10
-884.9005918942019
 20
-1049.034036082121
 30
0.0
 10
-884.9096190365283
 20
-1049.006782760651
 30
0.0
 11
-884.8987858347359
 21
-1049.32008130149
 31
0.0
 11
-884.8799507862176
 21
-1049.248545486536
 31
0.0
 11
-884.8754585521349
 21
-1049.170725751788
 31
0.0
 11
-884.8854596360258
 21
-1049.089228357632
 31
0.0
 11
-884.9096190365283
 21
-1049.006782760651
 31
0.0
  0
SPLINE
  5
129
330
55
100
AcDbEntity
  8
0
  6
Continuous
 62
     7
100
AcDbSpline
210
0.0
220
0.0
230
1.0
 70
     8
 71
     3
 72
     9
 73
     5
 74
     3
 42
0.000000001
 43
0.0000000001
 44
0.00000001
 40
0.0
 40
0.0
 40
0.0
 40
0.0
 40
0.0393443056758949
 40
0.0782083562467891
 40
0.0782083562467891
 40
0.0782083562467891
 40
0.0782083562467891
 10
-922.3054433321375
 20
-1008.534508943719
 30
0.0
 10
-922.2978369992985
 20
-1008.523777780184
 30
0.0
 10
-922.2827171646795
 20
-1008.502446455354
 30
0.0
 10
-922.2635664289002
 20
-1008.484646866943
 30
0.0
 10
-922.2540498533866
 20
-1008.475801730601
 30
0.0
 11
-922.3054433321375
 21
-1008.534508943719
 31
0.0
 11
-922.2816041860349
 21
-1008.5032092703
 31
0.0
 11
-922.2540498533866
 21
-1008.475801730601
 31
0.0
  0
SPLINE
  5
12A
330
55
100
AcDbEntity
  8
0
  6
Continuous
 62
     7
100
AcDbSpline
210
0.0
220
0.0
230
1.0
 70
     8
 71
     3
 72
    13
 73
     9
 74
     7
 42
0.000000001
 43
0.0000000001
 44
0.00000001
 40
0.0
 40
0.0
 40
0.0
 40
0.0
 40
0.05921559114831
 40
0.1197847524571997
 40
0.2245493917759293
 40
0.3374250084995478
 40
0.4584983474597485
 40
0.5858374214684412
 40
0.5858374214684412
 40
0.5858374214684412
 40
0.5858374214684412
 10
-921.1540498533858
 20
-1007.523173786438
 30
0.0
 10
-921.1383018490545
 20
-1007.511151136153
 30
0.0
 10
-921.1064458592598
 20
-1007.486831029203
 30
0.0
 10
-921.0364991449535
 20
-1007.458153453367
 30
0.0
 10
-920.9432419960507
 20
-1007.445133410613
 30
0.0
 10
-920.8304793404615
 20
-1007.462401637404
 30
0.0
 10
-920.7173032083222
 20
-1007.50752377953
 30
0.0
 10
-920.6508551862224
 20
-1007.557432932169
 30
0.0
 10
-920.6167931660548
 20
-1007.583016946529
 30
0.0
 11
-921.1540498533858
 21
-1007.523173786438
 31
0.0
 11
-921.1054723070104
 21
-1007.489310698919
 31
0.0
 11
-921.0497399181281
 21
-1007.465593098398
 31
0.0
 11
-920.946076334098
 21
-1007.450444113109
 31
0.0
 11
-920.8342790033998
 21
-1007.466008883848
 31
0.0
 11
-920.7219666639878
 21
-1007.511227153434
 31
0.0
 11
-920.6167931660548
 21
-1007.583016946529
 31
0.0
  0
SPLINE
  5
12B
330
55
100
AcDbEntity
  8
0
  6
Continuous
 62
     7
100
AcDbSpline
210
0.0
220
0.0
230
1.0
 70
     8
 71
     3
 72
    13
 73
     9
 74
     7
 42
0.000000001
 43
0.0000000001
 44
0.00000001
 40
0.0
 40
0.0
 40
0.0
 40
0.0
 40
0.05921559114818
 40
0.1197847524570252
 40
0.2245493917757548
 40
0.3374250084993262
 40
0.4584983474512259
 40
0.5858374214262676
 40
0.5858374214262676
 40
0.5858374214262676
 40
0.5858374214262676
 10
-922.2540498533866
 20
-1008.475801730601
 30
0.0
 10
-922.2383018490553
 20
-1008.463779080316
 30
0.0
 10
-922.2064458592602
 20
-1008.439458973366
 30
0.0
 10
-922.1364991449543
 20
-1008.410781397531
 30
0.0
 10
-922.0432419960512
 20
-1008.397761354776
 30
0.0
 10
-921.9304793404674
 20
-1008.415029581568
 30
0.0
 10
-921.8173032083291
 20
-1008.460151723681
 30
0.0
 10
-921.7508551862975
 20
-1008.510060876395
 30
0.0
 10
-921.7167931661686
 20
-1008.53564489079
 30
0.0
 11
-922.2540498533866
 21
-1008.475801730601
 31
0.0
 11
-922.2054723070112
 21
-1008.441938643082
 31
0.0
 11
-922.149739918129
 21
-1008.418221042562
 31
0.0
 11
-922.0460763340989
 21
-1008.403072057273
 31
0.0
 11
-921.9342790034007
 21
-1008.418636828011
 31
0.0
 11
-921.8219666640026
 21
-1008.463855097609
 31
0.0
 11
-921.7167931661686
 21
-1008.53564489079
 31
0.0
  0
ENDBLK
  5
57
330
55
100
AcDbEntity
  8
0
100
AcDbBlockEnd
  0
BLOCK
  5
5A
330
58
100
AcDbEntity
  8
0
100
AcDbBlockBegin
  2
Gen1
 70
     0
 10
-928.0
 20
-1027.0
 30
0.0
  3
Gen1
  1

  0
INSERT
  5
59
330
58
100
AcDbEntity
  8
0
100
AcDbBlockReference
  2
D_PTI_3_select__3
 10
-972.2248059772941
 20
-1059.699188584585
 30
0.0
  0
MTEXT
  5
12C
330
58
100
AcDbEntity
  8
1
 62
     6
100
AcDbMText
 10
-927.9999999999914
 20
-1065.961628380698
 30
0.0
 40
5.0
 41
0.0
 71
     2
 72
     1
  1
 
  7
CONVERTER_11
 73
     1
 44
1.32052821128451
  0
ENDBLK
  5
5B
330
58
100
AcDbEntity
  8
0
100
AcDbBlockEnd
  0
BLOCK
  5
5D
330
5C
100
AcDbEntity
  8
0
100
AcDbBlockBegin
  2
D_PTI_3_select__4
 70
     0
 10
-984.66867697629
 20
-982.7977379051956
 30
0.0
  3
D_PTI_3_select__4
  1

  0
LINE
  5
12D
330
5C
100
AcDbEntity
  8
0
  6
Continuous
 62
     7
100
AcDbLine
 10
-982.4686769762897
 20
-934.7368646308497
 30
0.0
 11
-982.4686769760586
 21
-934.4792694251132
 31
0.0
  0
LINE
  5
12E
330
5C
100
AcDbEntity
  8
0
  6
Continuous
 62
     7
100
AcDbLine
 10
-984.6686769762896
 20
-934.7368646308449
 30
0.0
 11
-984.6686769760602
 21
-934.4792694251084
 31
0.0
  0
LINE
  5
12F
330
5C
100
AcDbEntity
  8
0
  6
Continuous
 62
     2
100
AcDbLine
 10
-982.4686769762897
 20
-934.7368646308497
 30
0.0
 11
-984.6686769762896
 21
-934.7368646308449
 31
0.0
  0
LINE
  5
130
330
5C
100
AcDbEntity
  8
0
  6
Continuous
 62
     7
100
AcDbLine
 10
-984.6686769762871
 20
-942.7779246615964
 30
0.0
 11
-984.6686769762871
 21
-946.323306935204
 31
0.0
  0
LINE
  5
131
330
5C
100
AcDbEntity
  8
0
  6
Continuous
 62
     7
100
AcDbLine
 10
-984.6686769762871
 20
-942.7779246615964
 30
0.0
 11
-982.4686769762872
 21
-942.7779246616012
 31
0.0
  0
LINE
  5
132
330
5C
100
AcDbEntity
  8
0
  6
Continuous
 62
     7
100
AcDbLine
 10
-982.4686769762872
 20
-946.3233069352086
 30
0.0
 11
-984.6686769762871
 21
-946.323306935204
 31
0.0
  0
LINE
  5
133
330
5C
100
AcDbEntity
  8
0
  6
Continuous
 62
     7
100
AcDbLine
 10
-984.6686769762871
 20
-937.8335883481438
 30
0.0
 11
-982.4686769762872
 21
-937.8335883481486
 31
0.0
  0
LINE
  5
134
330
5C
100
AcDbEntity
  8
0
  6
Continuous
 62
     7
100
AcDbLine
 10
-984.6686769762871
 20
-935.914907590962
 30
0.0
 11
-984.6686769762871
 21
-937.8335883481438
 31
0.0
  0
LINE
  5
135
330
5C
100
AcDbEntity
  8
0
  6
Continuous
 62
     7
100
AcDbLine
 10
-982.4686769762872
 20
-935.9149075909668
 30
0.0
 11
-984.6686769762871
 21
-935.914907590962
 31
0.0
  0
LINE
  5
136
330
5C
100
AcDbEntity
  8
0
  6
Continuous
 62
     7
100
AcDbLine
 10
-984.6686769762871
 20
-949.4133063744791
 30
0.0
 11
-982.4686769762872
 21
-949.4133063744839
 31
0.0
  0
LINE
  5
137
330
5C
100
AcDbEntity
  8
0
  6
Continuous
 62
     7
100
AcDbLine
 10
-984.6686769762871
 20
-941.0933635809997
 30
0.0
 11
-982.4686769762872
 21
-941.0933635810045
 31
0.0
  0
LINE
  5
138
330
5C
100
AcDbEntity
  8
0
  6
Continuous
 62
     7
100
AcDbLine
 10
-982.4686769760586
 20
-934.4792694251132
 30
0.0
 11
-984.6686769760602
 21
-934.4792694251084
 31
0.0
  0
LINE
  5
139
330
5C
100
AcDbEntity
  8
0
  6
Continuous
 62
     7
100
AcDbLine
 10
-982.4686769762872
 20
-978.1964901329746
 30
0.0
 11
-982.4686769762872
 21
-960.548527166078
 31
0.0
  0
LINE
  5
13A
330
5C
100
AcDbEntity
  8
0
  6
Continuous
 62
     7
100
AcDbLine
 10
-982.4686769762872
 20
-982.7866162249816
 30
0.0
 11
-982.4686769762891
 21
-982.7977379051956
 31
0.0
  0
LINE
  5
13B
330
5C
100
AcDbEntity
  8
0
  6
Continuous
 62
     7
100
AcDbLine
 10
-982.4686769762872
 20
-942.7779246616012
 30
0.0
 11
-982.4686769762872
 21
-941.0933635810045
 31
0.0
  0
LINE
  5
13C
330
5C
100
AcDbEntity
  8
0
  6
Continuous
 62
     7
100
AcDbLine
 10
-982.4686769762872
 20
-949.4133063744839
 30
0.0
 11
-982.4686769762872
 21
-946.3233069352086
 31
0.0
  0
LINE
  5
13D
330
5C
100
AcDbEntity
  8
0
  6
Continuous
 62
     7
100
AcDbLine
 10
-982.4686769762872
 20
-946.3233069352086
 30
0.0
 11
-982.4686769762872
 21
-942.7779246616012
 31
0.0
  0
LINE
  5
13E
330
5C
100
AcDbEntity
  8
0
  6
Continuous
 62
     7
100
AcDbLine
 10
-982.4686769762872
 20
-937.8335883481486
 30
0.0
 11
-982.4686769762872
 21
-935.9149075909668
 31
0.0
  0
LINE
  5
13F
330
5C
100
AcDbEntity
  8
0
  6
Continuous
 62
     7
100
AcDbLine
 10
-982.4686769762872
 20
-935.9149075909668
 30
0.0
 11
-982.4686769762897
 21
-934.7368646308497
 31
0.0
  0
LINE
  5
140
330
5C
100
AcDbEntity
  8
0
  6
Continuous
 62
     7
100
AcDbLine
 10
-982.4686769762872
 20
-950.8412616626833
 30
0.0
 11
-982.4686769762872
 21
-949.4133063744839
 31
0.0
  0
LINE
  5
141
330
5C
100
AcDbEntity
  8
0
  6
Continuous
 62
     7
100
AcDbLine
 10
-982.4686769762872
 20
-941.0933635810045
 30
0.0
 11
-982.4686769762872
 21
-937.8335883481486
 31
0.0
  0
LINE
  5
142
330
5C
100
AcDbEntity
  8
0
  6
Continuous
 62
     7
100
AcDbLine
 10
-982.4686769762872
 20
-960.548527166078
 30
0.0
 11
-982.4686769762872
 21
-957.6091928720911
 31
0.0
  0
LINE
  5
143
330
5C
100
AcDbEntity
  8
0
  6
Continuous
 62
     7
100
AcDbLine
 10
-982.4686769762872
 20
-957.6091928720911
 30
0.0
 11
-982.4686769762872
 21
-950.8412616626833
 31
0.0
  0
LINE
  5
144
330
5C
100
AcDbEntity
  8
0
  6
Continuous
 62
     7
100
AcDbLine
 10
-982.4686769762872
 20
-957.6091928720911
 30
0.0
 11
-984.6686769762871
 21
-957.6091928720864
 31
0.0
  0
LINE
  5
145
330
5C
100
AcDbEntity
  8
0
  6
Continuous
 62
     7
100
AcDbLine
 10
-984.6686769762871
 20
-941.0933635809997
 30
0.0
 11
-984.6686769762871
 21
-942.7779246615964
 31
0.0
  0
LINE
  5
146
330
5C
100
AcDbEntity
  8
0
  6
Continuous
 62
     7
100
AcDbLine
 10
-984.6686769762871
 20
-946.323306935204
 30
0.0
 11
-984.6686769762871
 21
-949.4133063744791
 31
0.0
  0
LINE
  5
147
330
5C
100
AcDbEntity
  8
0
  6
Continuous
 62
     7
100
AcDbLine
 10
-984.6686769762896
 20
-934.7368646308449
 30
0.0
 11
-984.6686769762871
 21
-935.914907590962
 31
0.0
  0
LINE
  5
148
330
5C
100
AcDbEntity
  8
0
  6
Continuous
 62
     7
100
AcDbLine
 10
-984.6686769762871
 20
-949.4133063744791
 30
0.0
 11
-984.6686769762871
 21
-950.8412616626786
 31
0.0
  0
LINE
  5
149
330
5C
100
AcDbEntity
  8
0
  6
Continuous
 62
     7
100
AcDbLine
 10
-984.6686769762871
 20
-937.8335883481438
 30
0.0
 11
-984.6686769762871
 21
-941.0933635809997
 31
0.0
  0
LINE
  5
14A
330
5C
100
AcDbEntity
  8
0
  6
Continuous
 62
     7
100
AcDbLine
 10
-982.4686769762872
 20
-950.8412616626833
 30
0.0
 11
-984.6686769762871
 21
-950.8412616626786
 31
0.0
  0
LINE
  5
14B
330
5C
100
AcDbEntity
  8
0
  6
Continuous
 62
     7
100
AcDbLine
 10
-984.66867697629
 20
-982.7866162249782
 30
0.0
 11
-984.6686769762889
 21
-982.7977379051923
 31
0.0
  0
LINE
  5
14C
330
5C
100
AcDbEntity
  8
0
  6
Continuous
 62
     7
100
AcDbLine
 10
-982.4686769762872
 20
-978.1964901329746
 30
0.0
 11
-982.4686769762872
 21
-982.7866162249816
 31
0.0
  0
LINE
  5
14D
330
5C
100
AcDbEntity
  8
0
  6
Continuous
 62
     2
100
AcDbLine
 10
-984.66867697629
 20
-982.7866162249782
 30
0.0
 11
-982.4686769762872
 21
-982.7866162249816
 31
0.0
  0
LINE
  5
14E
330
5C
100
AcDbEntity
  8
0
  6
Continuous
 62
     7
100
AcDbLine
 10
-984.6686769762871
 20
-978.1964901340443
 30
0.0
 11
-982.4686769762872
 21
-978.1964901329746
 31
0.0
  0
LINE
  5
14F
330
5C
100
AcDbEntity
  8
0
  6
Continuous
 62
     7
100
AcDbLine
 10
-984.6686769762889
 20
-982.7977379051923
 30
0.0
 11
-982.4686769762891
 21
-982.7977379051956
 31
0.0
  0
LINE
  5
150
330
5C
100
AcDbEntity
  8
0
  6
Continuous
 62
     7
100
AcDbLine
 10
-982.4686769762872
 20
-960.548527166078
 30
0.0
 11
-984.6686769762871
 21
-960.5485271634254
 31
0.0
  0
LINE
  5
151
330
5C
100
AcDbEntity
  8
0
  6
Continuous
 62
     7
100
AcDbLine
 10
-984.6686769762871
 20
-978.1964901340443
 30
0.0
 11
-984.6686769762871
 21
-960.5485271634254
 31
0.0
  0
LINE
  5
152
330
5C
100
AcDbEntity
  8
0
  6
Continuous
 62
     7
100
AcDbLine
 10
-984.6686769762871
 20
-957.6091928720864
 30
0.0
 11
-984.6686769762871
 21
-960.5485271634254
 31
0.0
  0
LINE
  5
153
330
5C
100
AcDbEntity
  8
0
  6
Continuous
 62
     7
100
AcDbLine
 10
-984.66867697629
 20
-982.7866162249782
 30
0.0
 11
-984.6686769762871
 21
-978.1964901340443
 31
0.0
  0
LINE
  5
154
330
5C
100
AcDbEntity
  8
0
  6
Continuous
 62
     7
100
AcDbLine
 10
-984.6686769762871
 20
-957.6091928720864
 30
0.0
 11
-984.6686769762871
 21
-950.8412616626786
 31
0.0
  0
ENDBLK
  5
5E
330
5C
100
AcDbEntity
  8
0
100
AcDbBlockEnd
  0
BLOCK
  5
61
330
5F
100
AcDbEntity
  8
0
100
AcDbBlockBegin
  2
Left1
 70
     0
 10
-983.5686769999994
 20
-958.690496
 30
0.0
  3
Left1
  1

  0
INSERT
  5
60
330
5F
100
AcDbEntity
  8
0
100
AcDbBlockReference
  2
D_PTI_3_select__4
 10
-984.66867697629
 20
-982.7977379051956
 30
0.0
  0
MTEXT
  5
155
330
5F
100
AcDbEntity
  8
1
 62
     6
100
AcDbMText
 10
-983.5686774865865
 20
-987.8999976815074
 30
0.0
 40
5.0
 41
0.0
 71
     2
 72
     1
  1
 
  7
CONVERTER_11
 73
     1
 44
1.32052821128451
  0
ENDBLK
  5
62
330
5F
100
AcDbEntity
  8
0
100
AcDbBlockEnd
  0
BLOCK
  5
64
330
63
100
AcDbEntity
  8
0
100
AcDbBlockBegin
  2
D_PTI_3_select__5
 70
     0
 10
-1129.531324023942
 20
-982.7977379051957
 30
0.0
  3
D_PTI_3_select__5
  1

  0
LINE
  5
156
330
63
100
AcDbEntity
  8
0
  6
Continuous
 62
     7
100
AcDbLine
 10
-1127.331324023713
 20
-938.0706124042055
 30
0.0
 11
-1127.331324023713
 21
-951.6706128975112
 31
0.0
  0
LINE
  5
157
330
63
100
AcDbEntity
  8
0
  6
Continuous
 62
     7
100
AcDbLine
 10
-1127.331324023713
 20
-938.0706124042055
 30
0.0
 11
-1127.331324023713
 21
-937.2289479134439
 31
0.0
  0
LINE
  5
158
330
63
100
AcDbEntity
  8
0
  6
Continuous
 62
     7
100
AcDbLine
 10
-1127.33132402394
 20
-934.4792694251084
 30
0.0
 11
-1127.331324023716
 21
-934.5419595873987
 31
0.0
  0
LINE
  5
159
330
63
100
AcDbEntity
  8
0
  6
Continuous
 62
     7
100
AcDbLine
 10
-1127.331324023713
 20
-937.2289479134439
 30
0.0
 11
-1127.331324023716
 21
-934.5419595873987
 31
0.0
  0
LINE
  5
15A
330
63
100
AcDbEntity
  8
0
  6
Continuous
 62
     7
100
AcDbLine
 10
-1127.331324023711
 20
-982.7977379051923
 30
0.0
 11
-1127.331324023713
 21
-982.670612897601
 31
0.0
  0
LINE
  5
15B
330
63
100
AcDbEntity
  8
0
  6
Continuous
 62
     7
100
AcDbLine
 10
-1127.331324023713
 20
-938.0706124042055
 30
0.0
 11
-1129.531324023713
 21
-938.0706124042102
 31
0.0
  0
LINE
  5
15C
330
63
100
AcDbEntity
  8
0
  6
Continuous
 62
     7
100
AcDbLine
 10
-1127.331324023713
 20
-962.4599143352668
 30
0.0
 11
-1127.331324023713
 21
-961.7479512711548
 31
0.0
  0
LINE
  5
15D
330
63
100
AcDbEntity
  8
0
  6
Continuous
 62
     7
100
AcDbLine
 10
-1127.331324023713
 20
-961.7479512711548
 30
0.0
 11
-1127.331324023713
 21
-960.5635430999936
 31
0.0
  0
LINE
  5
15E
330
63
100
AcDbEntity
  8
0
  6
Continuous
 62
     7
100
AcDbLine
 10
-1127.331324023713
 20
-951.6706128975112
 30
0.0
 11
-1127.331324023713
 21
-955.2655623411243
 31
0.0
  0
LINE
  5
15F
330
63
100
AcDbEntity
  8
0
  6
Continuous
 62
     7
100
AcDbLine
 10
-1129.531324023713
 20
-955.2655623411291
 30
0.0
 11
-1127.331324023713
 21
-955.2655623411243
 31
0.0
  0
LINE
  5
160
330
63
100
AcDbEntity
  8
0
  6
Continuous
 62
     7
100
AcDbLine
 10
-1129.531324023713
 20
-951.670612897516
 30
0.0
 11
-1127.331324023713
 21
-951.6706128975112
 31
0.0
  0
LINE
  5
161
330
63
100
AcDbEntity
  8
0
  6
Continuous
 62
     7
100
AcDbLine
 10
-1127.331324023713
 20
-962.4599143352668
 30
0.0
 11
-1129.531324023713
 21
-962.4599143352716
 31
0.0
  0
LINE
  5
162
330
63
100
AcDbEntity
  8
0
  6
Continuous
 62
     7
100
AcDbLine
 10
-1127.331324023713
 20
-960.5635430999936
 30
0.0
 11
-1127.331324023713
 21
-955.2655623411243
 31
0.0
  0
LINE
  5
163
330
63
100
AcDbEntity
  8
0
  6
Continuous
 62
     7
100
AcDbLine
 10
-1127.331324023713
 20
-937.2289479134439
 30
0.0
 11
-1129.531324023713
 21
-937.2289479134487
 31
0.0
  0
LINE
  5
164
330
63
100
AcDbEntity
  8
0
  6
Continuous
 62
     7
100
AcDbLine
 10
-1129.531324023713
 20
-961.7479512711594
 30
0.0
 11
-1129.531324023713
 21
-962.4599143352716
 31
0.0
  0
LINE
  5
165
330
63
100
AcDbEntity
  8
0
  6
Continuous
 62
     7
100
AcDbLine
 10
-1129.531324023713
 20
-960.5635430999984
 30
0.0
 11
-1129.531324023713
 21
-961.7479512711594
 31
0.0
  0
LINE
  5
166
330
63
100
AcDbEntity
  8
0
  6
Continuous
 62
     7
100
AcDbLine
 10
-1127.331324023713
 20
-962.4599143352668
 30
0.0
 11
-1127.331324023713
 21
-969.0049462316272
 31
0.0
  0
LINE
  5
167
330
63
100
AcDbEntity
  8
0
  6
Continuous
 62
     7
100
AcDbLine
 10
-1127.331324023713
 20
-960.5635430999936
 30
0.0
 11
-1129.531324023713
 21
-960.5635430999984
 31
0.0
  0
LINE
  5
168
330
63
100
AcDbEntity
  8
0
  6
Continuous
 62
     7
100
AcDbLine
 10
-1129.531324023713
 20
-961.7479512711594
 30
0.0
 11
-1127.331324023713
 21
-961.7479512711548
 31
0.0
  0
LINE
  5
169
330
63
100
AcDbEntity
  8
0
  6
Continuous
 62
     7
100
AcDbLine
 10
-1129.531324023713
 20
-969.004946231632
 30
0.0
 11
-1129.531324023713
 21
-962.4599143352716
 31
0.0
  0
LINE
  5
16A
330
63
100
AcDbEntity
  8
0
  6
Continuous
 62
     7
100
AcDbLine
 10
-1129.531324023713
 20
-938.0706124042102
 30
0.0
 11
-1129.531324023713
 21
-951.670612897516
 31
0.0
  0
LINE
  5
16B
330
63
100
AcDbEntity
  8
0
  6
Continuous
 62
     7
100
AcDbLine
 10
-1129.531324023713
 20
-937.2289479134487
 30
0.0
 11
-1129.531324023713
 21
-938.0706124042102
 31
0.0
  0
LINE
  5
16C
330
63
100
AcDbEntity
  8
0
  6
Continuous
 62
     7
100
AcDbLine
 10
-1129.531324023711
 20
-982.7977379051957
 30
0.0
 11
-1129.531324023713
 21
-982.6706128976058
 31
0.0
  0
LINE
  5
16D
330
63
100
AcDbEntity
  8
0
  6
Continuous
 62
     7
100
AcDbLine
 10
-1127.331324023713
 20
-982.670612897601
 30
0.0
 11
-1127.331324023716
 21
-969.3631011581405
 31
0.0
  0
LINE
  5
16E
330
63
100
AcDbEntity
  8
0
  6
Continuous
 62
     7
100
AcDbLine
 10
-1127.331324023716
 20
-969.3631011581405
 30
0.0
 11
-1127.331324023713
 21
-969.0049462316272
 31
0.0
  0
LINE
  5
16F
330
63
100
AcDbEntity
  8
0
  6
Continuous
 62
     7
100
AcDbLine
 10
-1129.531324023716
 20
-969.3631011581452
 30
0.0
 11
-1129.531324023713
 21
-969.004946231632
 31
0.0
  0
LINE
  5
170
330
63
100
AcDbEntity
  8
0
  6
Continuous
 62
     7
100
AcDbLine
 10
-1129.531324023716
 20
-969.3631011581452
 30
0.0
 11
-1129.531324023713
 21
-982.6706128976058
 31
0.0
  0
LINE
  5
171
330
63
100
AcDbEntity
  8
0
  6
Continuous
 62
     2
100
AcDbLine
 10
-1127.331324023716
 20
-969.3631011581405
 30
0.0
 11
-1129.531324023716
 21
-969.3631011581452
 31
0.0
  0
LINE
  5
172
330
63
100
AcDbEntity
  8
0
  6
Continuous
 62
     7
100
AcDbLine
 10
-1129.531324023713
 20
-982.6706128976058
 30
0.0
 11
-1127.331324023713
 21
-982.670612897601
 31
0.0
  0
LINE
  5
173
330
63
100
AcDbEntity
  8
0
  6
Continuous
 62
     2
100
AcDbLine
 10
-1127.331324023713
 20
-969.0049462316272
 30
0.0
 11
-1129.531324023713
 21
-969.004946231632
 31
0.0
  0
LINE
  5
174
330
63
100
AcDbEntity
  8
0
  6
Continuous
 62
     7
100
AcDbLine
 10
-1127.331324023711
 20
-982.7977379051923
 30
0.0
 11
-1129.531324023711
 21
-982.7977379051957
 31
0.0
  0
LINE
  5
175
330
63
100
AcDbEntity
  8
0
  6
Continuous
 62
     2
100
AcDbLine
 10
-1129.531324023716
 20
-934.5419595874034
 30
0.0
 11
-1127.331324023716
 21
-934.5419595873987
 31
0.0
  0
LINE
  5
176
330
63
100
AcDbEntity
  8
0
  6
Continuous
 62
     7
100
AcDbLine
 10
-1129.531324023713
 20
-955.2655623411291
 30
0.0
 11
-1129.531324023713
 21
-951.670612897516
 31
0.0
  0
LINE
  5
177
330
63
100
AcDbEntity
  8
0
  6
Continuous
 62
     7
100
AcDbLine
 10
-1129.531324023942
 20
-934.4792694251132
 30
0.0
 11
-1129.531324023716
 21
-934.5419595874034
 31
0.0
  0
LINE
  5
178
330
63
100
AcDbEntity
  8
0
  6
Continuous
 62
     7
100
AcDbLine
 10
-1129.531324023716
 20
-934.5419595874034
 30
0.0
 11
-1129.531324023713
 21
-937.2289479134487
 31
0.0
  0
LINE
  5
179
330
63
100
AcDbEntity
  8
0
  6
Continuous
 62
     7
100
AcDbLine
 10
-1129.531324023713
 20
-955.2655623411291
 30
0.0
 11
-1129.531324023713
 21
-960.5635430999984
 31
0.0
  0
LINE
  5
17A
330
63
100
AcDbEntity
  8
0
  6
Continuous
 62
     7
100
AcDbLine
 10
-1129.531324023942
 20
-934.4792694251132
 30
0.0
 11
-1127.33132402394
 21
-934.4792694251084
 31
0.0
  0
ENDBLK
  5
65
330
63
100
AcDbEntity
  8
0
100
AcDbBlockEnd
  0
BLOCK
  5
68
330
66
100
AcDbEntity
  8
0
100
AcDbBlockBegin
  2
Right1
 70
     0
 10
-1128.431324000001
 20
-958.690496
 30
0.0
  3
Right1
  1

  0
INSERT
  5
67
330
66
100
AcDbEntity
  8
0
100
AcDbBlockReference
  2
D_PTI_3_select__5
 10
-1129.531324023942
 20
-982.7977379051957
 30
0.0
  0
MTEXT
  5
17B
330
66
100
AcDbEntity
  8
1
 62
     6
100
AcDbMText
 10
-1128.43132363904
 20
-987.8999976815074
 30
0.0
 40
5.0
 41
0.0
 71
     2
 72
     1
  1
 
  7
CONVERTER_11
 73
     1
 44
1.32052821128451
  0
ENDBLK
  5
69
330
66
100
AcDbEntity
  8
0
100
AcDbBlockEnd
  0
BLOCK
  5
6B
330
6A
100
AcDbEntity
  8
0
100
AcDbBlockBegin
  2
D_PTI_3_select__6
 70
     0
 10
-1106.431322330762
 20
-1035.100000070163
 30
0.0
  3
D_PTI_3_select__6
  1

  0
LINE
  5
17C
330
6A
100
AcDbEntity
  8
0
  6
Continuous
 62
     7
100
AcDbLine
 10
-1005.568679145601
 20
-1032.900000070163
 30
0.0
 11
-1005.608428961984
 21
-1032.900000070159
 31
0.0
  0
LINE
  5
17D
330
6A
100
AcDbEntity
  8
0
  6
Continuous
 62
     7
100
AcDbLine
 10
-1013.794615256379
 20
-1035.100000070159
 30
0.0
 11
-1008.386718859921
 21
-1035.100000070159
 31
0.0
  0
LINE
  5
17E
330
6A
100
AcDbEntity
  8
0
  6
Continuous
 62
     7
100
AcDbLine
 10
-1013.794615256379
 20
-1035.100000070159
 30
0.0
 11
-1013.794615256364
 21
-1032.900000070159
 31
0.0
  0
LINE
  5
17F
330
6A
100
AcDbEntity
  8
0
  6
Continuous
 62
     7
100
AcDbLine
 10
-1018.241476580709
 20
-1035.100000070159
 30
0.0
 11
-1013.794615256379
 21
-1035.100000070159
 31
0.0
  0
LINE
  5
180
330
6A
100
AcDbEntity
  8
0
  6
Continuous
 62
     7
100
AcDbLine
 10
-1030.806581455251
 20
-1035.100000070159
 30
0.0
 11
-1018.241476580709
 21
-1035.100000070159
 31
0.0
  0
LINE
  5
181
330
6A
100
AcDbEntity
  8
0
  6
Continuous
 62
     7
100
AcDbLine
 10
-1040.426850606033
 20
-1035.100000070159
 30
0.0
 11
-1030.806581455251
 21
-1035.100000070159
 31
0.0
  0
LINE
  5
182
330
6A
100
AcDbEntity
  8
0
  6
Continuous
 62
     7
100
AcDbLine
 10
-1018.241476580694
 20
-1032.900000070159
 30
0.0
 11
-1018.241476580709
 21
-1035.100000070159
 31
0.0
  0
LINE
  5
183
330
6A
100
AcDbEntity
  8
0
  6
Continuous
 62
     2
100
AcDbLine
 10
-1005.608428961984
 20
-1032.900000070159
 30
0.0
 11
-1005.608428961999
 21
-1035.100000070159
 31
0.0
  0
LINE
  5
184
330
6A
100
AcDbEntity
  8
0
  6
Continuous
 62
     7
100
AcDbLine
 10
-1040.426850606018
 20
-1032.900000070159
 30
0.0
 11
-1040.426850606033
 21
-1035.100000070159
 31
0.0
  0
LINE
  5
185
330
6A
100
AcDbEntity
  8
0
  6
Continuous
 62
     2
100
AcDbLine
 10
-1048.109692745459
 20
-1035.100000070162
 30
0.0
 11
-1048.109692745445
 21
-1032.900000070162
 31
0.0
  0
LINE
  5
186
330
6A
100
AcDbEntity
  8
0
  6
Continuous
 62
     7
100
AcDbLine
 10
-1042.234194721179
 20
-1032.900000070159
 30
0.0
 11
-1042.234194721194
 21
-1035.100000070159
 31
0.0
  0
LINE
  5
187
330
6A
100
AcDbEntity
  8
0
  6
Continuous
 62
     7
100
AcDbLine
 10
-1042.234194721179
 20
-1032.900000070159
 30
0.0
 11
-1048.109692745445
 21
-1032.900000070162
 31
0.0
  0
LINE
  5
188
330
6A
100
AcDbEntity
  8
0
  6
Continuous
 62
     7
100
AcDbLine
 10
-1005.568679145601
 20
-1032.900000070163
 30
0.0
 11
-1005.568679145616
 21
-1035.100000070163
 31
0.0
  0
LINE
  5
189
330
6A
100
AcDbEntity
  8
0
  6
Continuous
 62
     7
100
AcDbLine
 10
-1075.128799968018
 20
-1032.900000070159
 30
0.0
 11
-1075.128799968032
 21
-1035.100000070159
 31
0.0
  0
LINE
  5
18A
330
6A
100
AcDbEntity
  8
0
  6
Continuous
 62
     7
100
AcDbLine
 10
-1098.584150659557
 20
-1032.900000070159
 30
0.0
 11
-1098.584150659572
 21
-1035.100000070159
 31
0.0
  0
LINE
  5
18B
330
6A
100
AcDbEntity
  8
0
  6
Continuous
 62
     7
100
AcDbLine
 10
-1093.798986649423
 20
-1032.900000070159
 30
0.0
 11
-1093.798986649437
 21
-1035.100000070159
 31
0.0
  0
LINE
  5
18C
330
6A
100
AcDbEntity
  8
0
  6
Continuous
 62
     7
100
AcDbLine
 10
-1098.584150659572
 20
-1035.100000070159
 30
0.0
 11
-1093.798986649437
 21
-1035.100000070159
 31
0.0
  0
LINE
  5
18D
330
6A
100
AcDbEntity
  8
0
  6
Continuous
 62
     7
100
AcDbLine
 10
-1093.798986649423
 20
-1032.900000070159
 30
0.0
 11
-1098.584150659557
 21
-1032.900000070159
 31
0.0
  0
LINE
  5
18E
330
6A
100
AcDbEntity
  8
0
  6
Continuous
 62
     7
100
AcDbLine
 10
-1099.584015716582
 20
-1032.900000070159
 30
0.0
 11
-1106.431322322599
 21
-1032.900000070159
 31
0.0
  0
LINE
  5
18F
330
6A
100
AcDbEntity
  8
0
  6
Continuous
 62
     7
100
AcDbLine
 10
-1073.949257600808
 20
-1032.900000070159
 30
0.0
 11
-1075.128799968018
 21
-1032.900000070159
 31
0.0
  0
LINE
  5
190
330
6A
100
AcDbEntity
  8
0
  6
Continuous
 62
     7
100
AcDbLine
 10
-1048.789407409138
 20
-1032.900000070157
 30
0.0
 11
-1049.442407284931
 21
-1032.900000070159
 31
0.0
  0
LINE
  5
191
330
6A
100
AcDbEntity
  8
0
  6
Continuous
 62
     7
100
AcDbLine
 10
-1049.442407284931
 20
-1032.900000070159
 30
0.0
 11
-1069.163955367418
 21
-1032.900000070159
 31
0.0
  0
LINE
  5
192
330
6A
100
AcDbEntity
  8
0
  6
Continuous
 62
     7
100
AcDbLine
 10
-1073.949257600808
 20
-1032.900000070159
 30
0.0
 11
-1069.163955367418
 21
-1032.900000070159
 31
0.0
  0
LINE
  5
193
330
6A
100
AcDbEntity
  8
0
  6
Continuous
 62
     7
100
AcDbLine
 10
-1075.128799968018
 20
-1032.900000070159
 30
0.0
 11
-1093.798986649423
 21
-1032.900000070159
 31
0.0
  0
LINE
  5
194
330
6A
100
AcDbEntity
  8
0
  6
Continuous
 62
     7
100
AcDbLine
 10
-1075.128799968032
 20
-1035.100000070159
 30
0.0
 11
-1073.949257600823
 21
-1035.100000070159
 31
0.0
  0
LINE
  5
195
330
6A
100
AcDbEntity
  8
0
  6
Continuous
 62
     7
100
AcDbLine
 10
-1049.442407284946
 20
-1035.100000070159
 30
0.0
 11
-1048.789407409152
 21
-1035.100000070157
 31
0.0
  0
LINE
  5
196
330
6A
100
AcDbEntity
  8
0
  6
Continuous
 62
     7
100
AcDbLine
 10
-1073.949257600823
 20
-1035.100000070159
 30
0.0
 11
-1069.163955367433
 21
-1035.100000070159
 31
0.0
  0
LINE
  5
197
330
6A
100
AcDbEntity
  8
0
  6
Continuous
 62
     7
100
AcDbLine
 10
-1008.386718859907
 20
-1032.900000070159
 30
0.0
 11
-1008.386718859921
 21
-1035.100000070159
 31
0.0
  0
LINE
  5
198
330
6A
100
AcDbEntity
  8
0
  6
Continuous
 62
     2
100
AcDbLine
 10
-1048.789407409152
 20
-1035.100000070157
 30
0.0
 11
-1048.789407409138
 21
-1032.900000070157
 31
0.0
  0
LINE
  5
199
330
6A
100
AcDbEntity
  8
0
  6
Continuous
 62
     7
100
AcDbLine
 10
-1030.806581455251
 20
-1035.100000070159
 30
0.0
 11
-1030.806581455236
 21
-1032.900000070159
 31
0.0
  0
LINE
  5
19A
330
6A
100
AcDbEntity
  8
0
  6
Continuous
 62
     7
100
AcDbLine
 10
-1008.386718859907
 20
-1032.900000070159
 30
0.0
 11
-1013.794615256364
 21
-1032.900000070159
 31
0.0
  0
LINE
  5
19B
330
6A
100
AcDbEntity
  8
0
  6
Continuous
 62
     7
100
AcDbLine
 10
-1013.794615256364
 20
-1032.900000070159
 30
0.0
 11
-1018.241476580694
 21
-1032.900000070159
 31
0.0
  0
LINE
  5
19C
330
6A
100
AcDbEntity
  8
0
  6
Continuous
 62
     7
100
AcDbLine
 10
-1018.241476580694
 20
-1032.900000070159
 30
0.0
 11
-1030.806581455236
 21
-1032.900000070159
 31
0.0
  0
LINE
  5
19D
330
6A
100
AcDbEntity
  8
0
  6
Continuous
 62
     7
100
AcDbLine
 10
-1030.806581455236
 20
-1032.900000070159
 30
0.0
 11
-1040.426850606018
 21
-1032.900000070159
 31
0.0
  0
LINE
  5
19E
330
6A
100
AcDbEntity
  8
0
  6
Continuous
 62
     7
100
AcDbLine
 10
-1008.386718859907
 20
-1032.900000070159
 30
0.0
 11
-1005.608428961984
 21
-1032.900000070159
 31
0.0
  0
LINE
  5
19F
330
6A
100
AcDbEntity
  8
0
  6
Continuous
 62
     7
100
AcDbLine
 10
-1048.789407409138
 20
-1032.900000070157
 30
0.0
 11
-1048.109692745445
 21
-1032.900000070162
 31
0.0
  0
LINE
  5
1A0
330
6A
100
AcDbEntity
  8
0
  6
Continuous
 62
     7
100
AcDbLine
 10
-1040.426850606018
 20
-1032.900000070159
 30
0.0
 11
-1042.234194721179
 21
-1032.900000070159
 31
0.0
  0
LINE
  5
1A1
330
6A
100
AcDbEntity
  8
0
  6
Continuous
 62
     7
100
AcDbLine
 10
-1099.584015716596
 20
-1035.100000070159
 30
0.0
 11
-1098.584150659572
 21
-1035.100000070159
 31
0.0
  0
LINE
  5
1A2
330
6A
100
AcDbEntity
  8
0
  6
Continuous
 62
     7
100
AcDbLine
 10
-1106.431322330762
 20
-1035.100000070159
 30
0.0
 11
-1099.584015716596
 21
-1035.100000070159
 31
0.0
  0
LINE
  5
1A3
330
6A
100
AcDbEntity
  8
0
  6
Continuous
 62
     7
100
AcDbLine
 10
-1073.949257600808
 20
-1032.900000070159
 30
0.0
 11
-1073.949257600823
 21
-1035.100000070159
 31
0.0
  0
LINE
  5
1A4
330
6A
100
AcDbEntity
  8
0
  6
Continuous
 62
     7
100
AcDbLine
 10
-1049.442407284946
 20
-1035.100000070159
 30
0.0
 11
-1049.442407284931
 21
-1032.900000070159
 31
0.0
  0
LINE
  5
1A5
330
6A
100
AcDbEntity
  8
0
  6
Continuous
 62
     7
100
AcDbLine
 10
-1069.163955367418
 20
-1032.900000070159
 30
0.0
 11
-1069.163955367433
 21
-1035.100000070159
 31
0.0
  0
LINE
  5
1A6
330
6A
100
AcDbEntity
  8
0
  6
Continuous
 62
     7
100
AcDbLine
 10
-1069.163955367433
 20
-1035.100000070159
 30
0.0
 11
-1049.442407284946
 21
-1035.100000070159
 31
0.0
  0
LINE
  5
1A7
330
6A
100
AcDbEntity
  8
0
  6
Continuous
 62
     7
100
AcDbLine
 10
-1098.584150659557
 20
-1032.900000070159
 30
0.0
 11
-1099.584015716582
 21
-1032.900000070159
 31
0.0
  0
LINE
  5
1A8
330
6A
100
AcDbEntity
  8
0
  6
Continuous
 62
     7
100
AcDbLine
 10
-1099.584015716596
 20
-1035.100000070159
 30
0.0
 11
-1099.584015716582
 21
-1032.900000070159
 31
0.0
  0
LINE
  5
1A9
330
6A
100
AcDbEntity
  8
0
  6
Continuous
 62
     7
100
AcDbLine
 10
-1106.431322330762
 20
-1035.100000070159
 30
0.0
 11
-1106.431322322599
 21
-1032.900000070159
 31
0.0
  0
LINE
  5
1AA
330
6A
100
AcDbEntity
  8
0
  6
Continuous
 62
     7
100
AcDbLine
 10
-1048.789407409152
 20
-1035.100000070157
 30
0.0
 11
-1048.109692745459
 21
-1035.100000070162
 31
0.0
  0
LINE
  5
1AB
330
6A
100
AcDbEntity
  8
0
  6
Continuous
 62
     7
100
AcDbLine
 10
-1048.109692745459
 20
-1035.100000070162
 30
0.0
 11
-1042.234194721194
 21
-1035.100000070159
 31
0.0
  0
LINE
  5
1AC
330
6A
100
AcDbEntity
  8
0
  6
Continuous
 62
     7
100
AcDbLine
 10
-1042.234194721194
 20
-1035.100000070159
 30
0.0
 11
-1040.426850606033
 21
-1035.100000070159
 31
0.0
  0
LINE
  5
1AD
330
6A
100
AcDbEntity
  8
0
  6
Continuous
 62
     7
100
AcDbLine
 10
-1005.608428961999
 20
-1035.100000070159
 30
0.0
 11
-1008.386718859921
 21
-1035.100000070159
 31
0.0
  0
LINE
  5
1AE
330
6A
100
AcDbEntity
  8
0
  6
Continuous
 62
     7
100
AcDbLine
 10
-1005.568679145616
 20
-1035.100000070163
 30
0.0
 11
-1005.608428961999
 21
-1035.100000070159
 31
0.0
  0
LINE
  5
1AF
330
6A
100
AcDbEntity
  8
0
  6
Continuous
 62
     7
100
AcDbLine
 10
-1093.798986649437
 20
-1035.100000070159
 30
0.0
 11
-1075.128799968032
 21
-1035.100000070159
 31
0.0
  0
ENDBLK
  5
6C
330
6A
100
AcDbEntity
  8
0
100
AcDbBlockEnd
  0
BLOCK
  5
6F
330
6D
100
AcDbEntity
  8
0
100
AcDbBlockBegin
  2
Top1
 70
     0
 10
-1056.000000369097
 20
-1034.000000046447
 30
0.0
  3
Top1
  1

  0
INSERT
  5
6E
330
6D
100
AcDbEntity
  8
0
100
AcDbBlockReference
  2
D_PTI_3_select__6
 10
-1106.431322330762
 20
-1035.100000070163
 30
0.0
  0
MTEXT
  5
1B0
330
6D
100
AcDbEntity
  8
1
 62
     6
100
AcDbMText
 10
-1056.000000931912
 20
-1040.10000202448
 30
0.0
 40
5.0
 41
0.0
 71
     2
 72
     1
  1
 
  7
CONVERTER_11
 73
     1
 44
1.32052821128451
  0
DIMENSION
  5
1BD
330
6D
100
AcDbEntity
  8
1
100
AcDbDimension
  2
*D19
 10
-1117.53942071526
 20
-1032.900000070159
 30
0.0
 11
-1121.46442071526
 21
-1024.48581343341
 31
0.0
 70
    32
  1
<>
 71
     5
 42
-1.0
 53
90.0
  3
ME10_DIM_10
100
AcDbAlignedDimension
 13
-1106.431322330762
 23
-1035.100000070159
 33
0.0
 14
-1099.584015716582
 24
-1032.900000070159
 34
0.0
 50
90.0
100
AcDbRotatedDimension
  0
ENDBLK
  5
70
330
6D
100
AcDbEntity
  8
0
100
AcDbBlockEnd
  0
BLOCK
  5
72
330
71
100
AcDbEntity
  8
0
100
AcDbBlockBegin
  2
_rahmen
 70
     0
 10
-852.0686783427567
 20
-1104.789635724794
 30
0.0
  3
_rahmen
  1

  0
LINE
  5
1BE
330
71
100
AcDbEntity
  8
1
  6
DOT_CENTER
 62
     2
100
AcDbLine
 10
-977.6268279829442
 20
-1078.664635724794
 30
0.0
 11
-972.1268279829442
 21
-1078.664635724794
 31
0.0
  0
LINE
  5
1BF
330
71
100
AcDbEntity
  8
1
  6
PHANTOM
 62
     2
100
AcDbLine
 10
-968.8768279829442
 20
-1075.914635724794
 30
0.0
 11
-968.8768279829442
 21
-1081.414635724794
 31
0.0
  0
LINE
  5
1C0
330
71
100
AcDbEntity
  8
1
  6
PHANTOM
 62
     2
100
AcDbLine
 10
-966.1268279829442
 20
-1078.664635724794
 30
0.0
 11
-971.6268279829442
 21
-1078.664635724794
 31
0.0
  0
LINE
  5
1C1
330
71
100
AcDbEntity
  8
1
  6
Continuous
 62
     7
100
AcDbLine
 10
-917.3134828695067
 20
-1091.289635724794
 30
0.0
 11
-917.3134828695067
 21
-1082.789635724794
 31
0.0
  0
LINE
  5
1C2
330
71
100
AcDbEntity
  8
1
  6
Continuous
 62
     6
100
AcDbLine
 10
-945.2134828695068
 20
-1082.789635724794
 30
0.0
 11
-852.068678342755
 21
-1082.789635724794
 31
0.0
  0
LINE
  5
1C3
330
71
100
AcDbEntity
  8
1
  6
Continuous
 62
     7
100
AcDbLine
 10
-981.6134828695067
 20
-1082.789635724794
 30
0.0
 11
-981.6134828695067
 21
-1074.289635724794
 31
0.0
  0
LINE
  5
1C4
330
71
100
AcDbEntity
  8
1
  6
Continuous
 62
     7
100
AcDbLine
 10
-945.2134828695068
 20
-1082.789635724794
 30
0.0
 11
-945.2134828695068
 21
-1074.289635724794
 31
0.0
  0
LINE
  5
1C5
330
71
100
AcDbEntity
  8
1
  6
Continuous
 62
     7
100
AcDbLine
 10
-887.4870866244338
 20
-1074.289635724794
 30
0.0
 11
-887.4870866244338
 21
-1082.789635724794
 31
0.0
  0
LINE
  5
1C6
330
71
100
AcDbEntity
  8
1
  6
Continuous
 62
     7
100
AcDbLine
 10
-860.9870866244343
 20
-1074.289635724794
 30
0.0
 11
-860.9870866244343
 21
-1082.789635724794
 31
0.0
  0
LINE
  5
1C7
330
71
100
AcDbEntity
  8
1
  6
Continuous
 62
     6
100
AcDbLine
 10
-1050.613482869507
 20
-1099.789635724794
 30
0.0
 11
-1095.568678342757
 21
-1099.789635724794
 31
0.0
  0
LINE
  5
1C8
330
71
100
AcDbEntity
  8
1
  6
Continuous
 62
     7
100
AcDbLine
 10
-852.0686783427554
 20
-1091.289635724794
 30
0.0
 11
-945.2134828695068
 21
-1091.289635724794
 31
0.0
  0
LINE
  5
1C9
102
{ACAD_REACTORS
330
2DB
330
2DC
102
}
330
71
100
AcDbEntity
  8
0
  6
Continuous
 62
     2
100
AcDbLine
 10
-967.9060539277393
 20
-1090.489346609131
 30
0.0
 11
-967.9060539277393
 21
-1089.616829602327
 31
0.0
  0
LINE
  5
1CA
102
{ACAD_REACTORS
330
2DB
330
2DC
102
}
330
71
100
AcDbEntity
  8
0
  6
Continuous
 62
     2
100
AcDbLine
 10
-967.9060539277393
 20
-1091.449115316614
 30
0.0
 11
-967.9060539277393
 21
-1092.321632323417
 31
0.0
  0
LINE
  5
1CB
102
{ACAD_REACTORS
330
2DD
330
2DE
102
}
330
71
100
AcDbEntity
  8
0
  6
Continuous
 62
     2
100
AcDbLine
 10
-952.5730097914488
 20
-1090.22759150709
 30
0.0
 11
-951.4693704918807
 21
-1090.22759150709
 31
0.0
  0
LINE
  5
1CC
102
{ACAD_REACTORS
330
2DD
330
2DE
102
}
330
71
100
AcDbEntity
  8
0
  6
Continuous
 62
     2
100
AcDbLine
 10
-951.8033524484874
 20
-1091.449115316614
 30
0.0
 11
-951.8033524484874
 21
-1092.321632323417
 31
0.0
  0
LINE
  5
1CD
102
{ACAD_REACTORS
330
2E7
330
2E8
102
}
330
71
100
AcDbEntity
  8
0
  6
Continuous
 62
     2
100
AcDbLine
 10
-953.6641090638673
 20
-1089.136945248603
 30
0.0
 11
-952.266156016927
 21
-1087.556086254828
 31
0.0
  0
LINE
  5
1CE
102
{ACAD_REACTORS
330
2E7
330
2E8
102
}
330
71
100
AcDbEntity
  8
0
  6
Continuous
 62
     2
100
AcDbLine
 10
-953.5686856476946
 20
-1086.083135724792
 30
0.0
 11
-952.266156016927
 21
-1087.556086254828
 31
0.0
  0
LINE
  5
1CF
102
{ACAD_REACTORS
330
2E7
330
2E8
102
}
330
71
100
AcDbEntity
  8
0
  6
Continuous
 62
     2
100
AcDbLine
 10
-950.9636263861606
 20
-1086.083135724792
 30
0.0
 11
-949.5609021684133
 21
-1086.083135724792
 31
0.0
  0
LINE
  5
1D0
102
{ACAD_REACTORS
330
2E7
330
2E8
102
}
330
71
100
AcDbEntity
  8
0
  6
Continuous
 62
     2
100
AcDbLine
 10
-952.2613848461191
 20
-1089.136945248603
 30
0.0
 11
-951.5647939080534
 21
-1088.34921346331
 31
0.0
  0
LINE
  5
1D1
102
{ACAD_REACTORS
330
2E7
330
2E8
102
}
330
71
100
AcDbEntity
  8
0
  6
Continuous
 62
     2
100
AcDbLine
 10
-952.2613848461191
 20
-1089.136945248603
 30
0.0
 11
-953.6641090638673
 21
-1089.136945248603
 31
0.0
  0
LINE
  5
1D2
102
{ACAD_REACTORS
330
2E9
330
2EA
102
}
330
71
100
AcDbEntity
  8
0
  6
Continuous
 62
     2
100
AcDbLine
 10
-953.7833883340842
 20
-1089.136945248603
 30
0.0
 11
-955.0238927443371
 21
-1089.136945248603
 31
0.0
  0
LINE
  5
1D3
102
{ACAD_REACTORS
330
2EB
330
2EC
102
}
330
71
100
AcDbEntity
  8
0
  6
Continuous
 62
     2
100
AcDbLine
 10
-955.8918723524922
 20
-1091.274611915253
 30
0.0
 11
-956.1920375896823
 21
-1090.506796949266
 31
0.0
  0
LINE
  5
1D4
102
{ACAD_REACTORS
330
2EB
330
2EC
102
}
330
71
100
AcDbEntity
  8
0
  6
Continuous
 62
     2
100
AcDbLine
 10
-956.4922028268747
 20
-1091.274611915253
 30
0.0
 11
-955.8918723524922
 21
-1091.274611915253
 31
0.0
  0
LINE
  5
1D5
102
{ACAD_REACTORS
330
2EB
330
2EC
102
}
330
71
100
AcDbEntity
  8
0
  6
Continuous
 62
     2
100
AcDbLine
 10
-958.2102428417485
 20
-1092.496135724778
 30
0.0
 11
-956.9697384314956
 21
-1092.496135724778
 31
0.0
  0
LINE
  5
1D6
102
{ACAD_REACTORS
330
2EB
330
2EC
102
}
330
71
100
AcDbEntity
  8
0
  6
Continuous
 62
     2
100
AcDbLine
 10
-956.8122897948092
 20
-1089.442326200967
 30
0.0
 11
-955.5717853845565
 21
-1089.442326200967
 31
0.0
  0
LINE
  5
1D7
102
{ACAD_REACTORS
330
2EB
330
2EC
102
}
330
71
100
AcDbEntity
  8
0
  6
Continuous
 62
     2
100
AcDbLine
 10
-955.5717853845565
 20
-1089.442326200967
 30
0.0
 11
-954.1738323376162
 21
-1092.496135724778
 31
0.0
  0
LINE
  5
1D8
102
{ACAD_REACTORS
330
2EB
330
2EC
102
}
330
71
100
AcDbEntity
  8
0
  6
Continuous
 62
     2
100
AcDbLine
 10
-955.4143367478702
 20
-1092.496135724778
 30
0.0
 11
-955.6258168013459
 21
-1091.95517518056
 31
0.0
  0
LINE
  5
1D9
102
{ACAD_REACTORS
330
2ED
330
2EE
102
}
330
71
100
AcDbEntity
  8
0
  6
Continuous
 62
     2
100
AcDbLine
 10
-959.5566559434561
 20
-1092.496135724778
 30
0.0
 11
-958.3638632412897
 21
-1092.496135724778
 31
0.0
  0
LINE
  5
1DA
102
{ACAD_REACTORS
330
2ED
330
2EE
102
}
330
71
100
AcDbEntity
  8
0
  6
Continuous
 62
     2
100
AcDbLine
 10
-959.5566559434561
 20
-1090.22759150709
 30
0.0
 11
-959.5566559434561
 21
-1092.496135724778
 31
0.0
  0
LINE
  5
1DB
102
{ACAD_REACTORS
330
2ED
330
2EE
102
}
330
71
100
AcDbEntity
  8
0
  6
Continuous
 62
     2
100
AcDbLine
 10
-960.3677549809307
 20
-1089.442326200967
 30
0.0
 11
-960.3677549809307
 21
-1090.22759150709
 31
0.0
  0
LINE
  5
1DC
102
{ACAD_REACTORS
330
2EF
330
2F0
102
}
330
71
100
AcDbEntity
  8
0
  6
Continuous
 62
     2
100
AcDbLine
 10
-958.8885410993581
 20
-1089.136945248603
 30
0.0
 11
-957.6957483971917
 21
-1089.136945248603
 31
0.0
  0
LINE
  5
1DD
102
{ACAD_REACTORS
330
2EF
330
2F0
102
}
330
71
100
AcDbEntity
  8
0
  6
Continuous
 62
     2
100
AcDbLine
 10
-956.4552439869376
 20
-1087.391911234997
 30
0.0
 11
-957.6957483971917
 21
-1086.083135724792
 31
0.0
  0
LINE
  5
1DE
102
{ACAD_REACTORS
330
2EF
330
2F0
102
}
330
71
100
AcDbEntity
  8
0
  6
Continuous
 62
     2
100
AcDbLine
 10
-955.262451284771
 20
-1086.083135724792
 30
0.0
 11
-956.4552439869376
 21
-1086.083135724792
 31
0.0
  0
LINE
  5
1DF
102
{ACAD_REACTORS
330
2EF
330
2F0
102
}
330
71
100
AcDbEntity
  8
0
  6
Continuous
 62
     2
100
AcDbLine
 10
-955.262451284771
 20
-1089.136945248603
 30
0.0
 11
-955.262451284771
 21
-1086.083135724792
 31
0.0
  0
LINE
  5
1E0
102
{ACAD_REACTORS
330
2EF
330
2F0
102
}
330
71
100
AcDbEntity
  8
0
  6
Continuous
 62
     2
100
AcDbLine
 10
-956.4552439869376
 20
-1089.136945248603
 30
0.0
 11
-955.262451284771
 21
-1089.136945248603
 31
0.0
  0
LINE
  5
1E1
102
{ACAD_REACTORS
330
2EF
330
2F0
102
}
330
71
100
AcDbEntity
  8
0
  6
Continuous
 62
     2
100
AcDbLine
 10
-957.6957483971917
 20
-1087.828169738399
 30
0.0
 11
-956.4552439869376
 21
-1089.136945248603
 31
0.0
  0
LINE
  5
1E2
102
{ACAD_REACTORS
330
2F1
330
2F2
102
}
330
71
100
AcDbEntity
  8
0
  6
Continuous
 62
     2
100
AcDbLine
 10
-961.7036828073574
 20
-1090.751101711172
 30
0.0
 11
-962.9441872176102
 21
-1089.442326200967
 31
0.0
  0
LINE
  5
1E3
102
{ACAD_REACTORS
330
2F1
330
2F2
102
}
330
71
100
AcDbEntity
  8
0
  6
Continuous
 62
     2
100
AcDbLine
 10
-961.7036828073574
 20
-1089.442326200967
 30
0.0
 11
-961.7036828073574
 21
-1090.751101711172
 31
0.0
  0
LINE
  5
1E4
102
{ACAD_REACTORS
330
2F1
330
2F2
102
}
330
71
100
AcDbEntity
  8
0
  6
Continuous
 62
     2
100
AcDbLine
 10
-960.5108901051909
 20
-1089.442326200967
 30
0.0
 11
-961.7036828073574
 21
-1089.442326200967
 31
0.0
  0
LINE
  5
1E5
102
{ACAD_REACTORS
330
2F1
330
2F2
102
}
330
71
100
AcDbEntity
  8
0
  6
Continuous
 62
     2
100
AcDbLine
 10
-960.5108901051909
 20
-1092.496135724778
 30
0.0
 11
-960.5108901051909
 21
-1089.442326200967
 31
0.0
  0
LINE
  5
1E6
102
{ACAD_REACTORS
330
2F1
330
2F2
102
}
330
71
100
AcDbEntity
  8
0
  6
Continuous
 62
     2
100
AcDbLine
 10
-962.9441872176102
 20
-1091.187360214573
 30
0.0
 11
-961.7036828073574
 21
-1092.496135724778
 31
0.0
  0
LINE
  5
1E7
102
{ACAD_REACTORS
330
2F1
330
2F2
102
}
330
71
100
AcDbEntity
  8
0
  6
Continuous
 62
     2
100
AcDbLine
 10
-962.9441872176102
 20
-1092.496135724778
 30
0.0
 11
-962.9441872176102
 21
-1091.187360214573
 31
0.0
  0
LINE
  5
1E8
102
{ACAD_REACTORS
330
2E1
330
2E2
102
}
330
71
100
AcDbEntity
  8
0
  6
Continuous
 62
     2
100
AcDbLine
 10
-960.4630274662187
 20
-1086.781149330235
 30
0.0
 11
-959.127099639791
 21
-1086.781149330235
 31
0.0
  0
LINE
  5
1E9
102
{ACAD_REACTORS
330
2E1
330
2E2
102
}
330
71
100
AcDbEntity
  8
0
  6
Continuous
 62
     2
100
AcDbLine
 10
-960.4630274662187
 20
-1088.438931643161
 30
0.0
 11
-960.4630274662187
 21
-1087.959047289419
 31
0.0
  0
LINE
  5
1EA
102
{ACAD_REACTORS
330
2E1
330
2E2
102
}
330
71
100
AcDbEntity
  8
0
  6
Continuous
 62
     2
100
AcDbLine
 10
-959.127099639791
 20
-1088.438931643161
 30
0.0
 11
-960.4630274662187
 21
-1088.438931643161
 31
0.0
  0
LINE
  5
1EB
102
{ACAD_REACTORS
330
2E1
330
2E2
102
}
330
71
100
AcDbEntity
  8
0
  6
Continuous
 62
     2
100
AcDbLine
 10
-959.127099639791
 20
-1089.136945248603
 30
0.0
 11
-959.127099639791
 21
-1088.438931643161
 31
0.0
  0
LINE
  5
1EC
102
{ACAD_REACTORS
330
2E1
330
2E2
102
}
330
71
100
AcDbEntity
  8
0
  6
Continuous
 62
     2
100
AcDbLine
 10
-962.277419363572
 20
-1089.136945248603
 30
0.0
 11
-959.127099639791
 21
-1089.136945248603
 31
0.0
  0
LINE
  5
1ED
102
{ACAD_REACTORS
330
2E1
330
2E2
102
}
330
71
100
AcDbEntity
  8
0
  6
Continuous
 62
     2
100
AcDbLine
 10
-962.277419363572
 20
-1086.083135724792
 30
0.0
 11
-959.127099639791
 21
-1086.083135724792
 31
0.0
  0
LINE
  5
1EE
102
{ACAD_REACTORS
330
2E1
330
2E2
102
}
330
71
100
AcDbEntity
  8
0
  6
Continuous
 62
     2
100
AcDbLine
 10
-959.127099639791
 20
-1086.781149330235
 30
0.0
 11
-959.127099639791
 21
-1086.083135724792
 31
0.0
  0
LINE
  5
1EF
102
{ACAD_REACTORS
330
2F3
330
2F4
102
}
330
71
100
AcDbEntity
  8
0
  6
Continuous
 62
     2
100
AcDbLine
 10
-965.138774858712
 20
-1087.151969058127
 30
0.0
 11
-965.138774858712
 21
-1086.083135724792
 31
0.0
  0
LINE
  5
1F0
102
{ACAD_REACTORS
330
2F3
330
2F4
102
}
330
71
100
AcDbEntity
  8
0
  6
Continuous
 62
     2
100
AcDbLine
 10
-965.138774858712
 20
-1086.083135724792
 30
0.0
 11
-963.9459821565456
 21
-1086.083135724792
 31
0.0
  0
LINE
  5
1F1
102
{ACAD_REACTORS
330
2F3
330
2F4
102
}
330
71
100
AcDbEntity
  8
0
  6
Continuous
 62
     2
100
AcDbLine
 10
-965.138774858712
 20
-1088.00267313976
 30
0.0
 11
-966.1884324366195
 21
-1088.00267313976
 31
0.0
  0
LINE
  5
1F2
102
{ACAD_REACTORS
330
2F3
330
2F4
102
}
330
71
100
AcDbEntity
  8
0
  6
Continuous
 62
     2
100
AcDbLine
 10
-966.1884324366195
 20
-1088.00267313976
 30
0.0
 11
-966.1884324366195
 21
-1089.136945248603
 31
0.0
  0
LINE
  5
1F3
102
{ACAD_REACTORS
330
2F3
330
2F4
102
}
330
71
100
AcDbEntity
  8
0
  6
Continuous
 62
     2
100
AcDbLine
 10
-967.3812251387861
 20
-1086.083135724792
 30
0.0
 11
-967.3812251387861
 21
-1089.136945248603
 31
0.0
  0
LINE
  5
1F4
102
{ACAD_REACTORS
330
2E5
330
2E6
102
}
330
71
100
AcDbEntity
  8
0
  6
Continuous
 62
     2
100
AcDbLine
 10
-969.3374051703397
 20
-1087.451969219575
 30
0.0
 11
-969.3374051703397
 21
-1086.746241570232
 31
0.0
  0
LINE
  5
1F5
102
{ACAD_REACTORS
330
2E5
330
2E6
102
}
330
71
100
AcDbEntity
  8
0
  6
Continuous
 62
     2
100
AcDbLine
 10
-970.5779095805938
 20
-1089.136945248603
 30
0.0
 11
-969.3374051703397
 21
-1089.136945248603
 31
0.0
  0
LINE
  5
1F6
102
{ACAD_REACTORS
330
2E5
330
2E6
102
}
330
71
100
AcDbEntity
  8
0
  6
Continuous
 62
     2
100
AcDbLine
 10
-969.3374051703397
 20
-1089.136945248603
 30
0.0
 11
-969.3374051703397
 21
-1088.19386700746
 31
0.0
  0
LINE
  5
1F7
102
{ACAD_REACTORS
330
2DF
330
2E0
102
}
330
71
100
AcDbEntity
  8
0
  6
Continuous
 62
     2
100
AcDbLine
 10
-974.8828554298052
 20
-1091.783580169221
 30
0.0
 11
-976.3586886908148
 21
-1091.783580169221
 31
0.0
  0
LINE
  5
1F8
102
{ACAD_REACTORS
330
2DF
330
2E0
102
}
330
71
100
AcDbEntity
  8
0
  6
Continuous
 62
     2
100
AcDbLine
 10
-977.3768279829442
 20
-1086.507380340194
 30
0.0
 11
-977.3768279829442
 21
-1092.071891109394
 31
0.0
  0
LINE
  5
1F9
102
{ACAD_REACTORS
330
2DF
330
2E0
102
}
330
71
100
AcDbEntity
  8
0
  6
Continuous
 62
     2
100
AcDbLine
 10
-976.9525833675614
 20
-1086.08313572481
 30
0.0
 11
-971.4792712768445
 21
-1086.08313572481
 31
0.0
  0
LINE
  5
1FA
102
{ACAD_REACTORS
330
2DF
330
2E0
102
}
330
71
100
AcDbEntity
  8
0
  6
Continuous
 62
     2
100
AcDbLine
 10
-971.0550266614606
 20
-1086.507380340194
 30
0.0
 11
-971.0550266614606
 21
-1092.071891109394
 31
0.0
  0
LINE
  5
1FB
102
{ACAD_REACTORS
330
2DF
330
2E0
102
}
330
71
100
AcDbEntity
  8
0
  6
Continuous
 62
     2
100
AcDbLine
 10
-971.4792712768445
 20
-1092.496135724778
 30
0.0
 11
-976.9525833675614
 21
-1092.496135724778
 31
0.0
  0
LINE
  5
1FC
102
{ACAD_REACTORS
330
2DF
330
2E0
102
}
330
71
100
AcDbEntity
  8
0
  6
Continuous
 62
     2
100
AcDbLine
 10
-974.5671385067286
 20
-1091.467863246144
 30
0.0
 11
-974.5671385067286
 21
-1089.937092314613
 31
0.0
  0
LINE
  5
1FD
102
{ACAD_REACTORS
330
2DF
330
2E0
102
}
330
71
100
AcDbEntity
  8
0
  6
Continuous
 62
     2
100
AcDbLine
 10
-974.5671385067286
 20
-1087.715432822487
 30
0.0
 11
-974.5671385067286
 21
-1087.111408203427
 31
0.0
  0
LINE
  5
1FE
102
{ACAD_REACTORS
330
2DF
330
2E0
102
}
330
71
100
AcDbEntity
  8
0
  6
Continuous
 62
     2
100
AcDbLine
 10
-976.3586886908148
 20
-1086.795691280351
 30
0.0
 11
-974.8828554298052
 21
-1086.795691280351
 31
0.0
  0
LINE
  5
1FF
102
{ACAD_REACTORS
330
2DF
330
2E0
102
}
330
71
100
AcDbEntity
  8
0
  6
Continuous
 62
     2
100
AcDbLine
 10
-976.6744056138905
 20
-1087.111408203427
 30
0.0
 11
-976.6744056138905
 21
-1091.467863246144
 31
0.0
  0
LINE
  5
200
102
{ACAD_REACTORS
330
2E5
330
2E6
102
}
330
71
100
AcDbEntity
  8
0
  6
Continuous
 62
     2
100
AcDbLine
 10
-969.3374051703397
 20
-1088.19386700746
 30
0.0
 11
-968.5786375825594
 21
-1088.19386700746
 31
0.0
  0
LINE
  5
201
102
{ACAD_REACTORS
330
2E5
330
2E6
102
}
330
71
100
AcDbEntity
  8
0
  6
Continuous
 62
     2
100
AcDbLine
 10
-970.5779095805938
 20
-1086.083135724792
 30
0.0
 11
-968.5786375825594
 21
-1086.083135724792
 31
0.0
  0
LINE
  5
202
102
{ACAD_REACTORS
330
2E5
330
2E6
102
}
330
71
100
AcDbEntity
  8
0
  6
Continuous
 62
     2
100
AcDbLine
 10
-970.5779095805938
 20
-1086.083135724792
 30
0.0
 11
-970.5779095805938
 21
-1089.136945248603
 31
0.0
  0
LINE
  5
203
102
{ACAD_REACTORS
330
2E5
330
2E6
102
}
330
71
100
AcDbEntity
  8
0
  6
Continuous
 62
     2
100
AcDbLine
 10
-969.3374051703397
 20
-1087.451969219575
 30
0.0
 11
-969.0201101087978
 21
-1087.451969219575
 31
0.0
  0
LINE
  5
204
102
{ACAD_REACTORS
330
2E5
330
2E6
102
}
330
71
100
AcDbEntity
  8
0
  6
Continuous
 62
     2
100
AcDbLine
 10
-969.3374051703397
 20
-1086.746241570232
 30
0.0
 11
-969.0201101087978
 21
-1086.746241570232
 31
0.0
  0
LINE
  5
205
102
{ACAD_REACTORS
330
2F3
330
2F4
102
}
330
71
100
AcDbEntity
  8
0
  6
Continuous
 62
     2
100
AcDbLine
 10
-966.1884324366195
 20
-1087.151969058127
 30
0.0
 11
-965.138774858712
 21
-1087.151969058127
 31
0.0
  0
LINE
  5
206
102
{ACAD_REACTORS
330
2F3
330
2F4
102
}
330
71
100
AcDbEntity
  8
0
  6
Continuous
 62
     2
100
AcDbLine
 10
-966.1884324366195
 20
-1086.083135724792
 30
0.0
 11
-966.1884324366195
 21
-1087.151969058127
 31
0.0
  0
LINE
  5
207
102
{ACAD_REACTORS
330
2F3
330
2F4
102
}
330
71
100
AcDbEntity
  8
0
  6
Continuous
 62
     2
100
AcDbLine
 10
-967.3812251387861
 20
-1086.083135724792
 30
0.0
 11
-966.1884324366195
 21
-1086.083135724792
 31
0.0
  0
LINE
  5
208
102
{ACAD_REACTORS
330
2F3
330
2F4
102
}
330
71
100
AcDbEntity
  8
0
  6
Continuous
 62
     2
100
AcDbLine
 10
-966.1884324366195
 20
-1089.136945248603
 30
0.0
 11
-967.3812251387861
 21
-1089.136945248603
 31
0.0
  0
LINE
  5
209
102
{ACAD_REACTORS
330
2F3
330
2F4
102
}
330
71
100
AcDbEntity
  8
0
  6
Continuous
 62
     2
100
AcDbLine
 10
-965.138774858712
 20
-1089.136945248603
 30
0.0
 11
-965.138774858712
 21
-1088.00267313976
 31
0.0
  0
LINE
  5
20A
102
{ACAD_REACTORS
330
2F3
330
2F4
102
}
330
71
100
AcDbEntity
  8
0
  6
Continuous
 62
     2
100
AcDbLine
 10
-963.9459821565456
 20
-1089.136945248603
 30
0.0
 11
-965.138774858712
 21
-1089.136945248603
 31
0.0
  0
LINE
  5
20B
102
{ACAD_REACTORS
330
2F3
330
2F4
102
}
330
71
100
AcDbEntity
  8
0
  6
Continuous
 62
     2
100
AcDbLine
 10
-963.9459821565456
 20
-1086.083135724792
 30
0.0
 11
-963.9459821565456
 21
-1089.136945248603
 31
0.0
  0
LINE
  5
20C
102
{ACAD_REACTORS
330
2E1
330
2E2
102
}
330
71
100
AcDbEntity
  8
0
  6
Continuous
 62
     2
100
AcDbLine
 10
-960.4630274662187
 20
-1087.959047289419
 30
0.0
 11
-959.127099639791
 21
-1087.959047289419
 31
0.0
  0
LINE
  5
20D
102
{ACAD_REACTORS
330
2E1
330
2E2
102
}
330
71
100
AcDbEntity
  8
0
  6
Continuous
 62
     2
100
AcDbLine
 10
-959.127099639791
 20
-1087.959047289419
 30
0.0
 11
-959.127099639791
 21
-1087.261033683977
 31
0.0
  0
LINE
  5
20E
102
{ACAD_REACTORS
330
2E1
330
2E2
102
}
330
71
100
AcDbEntity
  8
0
  6
Continuous
 62
     2
100
AcDbLine
 10
-959.127099639791
 20
-1087.261033683977
 30
0.0
 11
-960.4630274662187
 21
-1087.261033683977
 31
0.0
  0
LINE
  5
20F
102
{ACAD_REACTORS
330
2E1
330
2E2
102
}
330
71
100
AcDbEntity
  8
0
  6
Continuous
 62
     2
100
AcDbLine
 10
-960.4630274662187
 20
-1087.261033683977
 30
0.0
 11
-960.4630274662187
 21
-1086.781149330235
 31
0.0
  0
LINE
  5
210
102
{ACAD_REACTORS
330
2F1
330
2F2
102
}
330
71
100
AcDbEntity
  8
0
  6
Continuous
 62
     2
100
AcDbLine
 10
-964.1369799197778
 20
-1092.496135724778
 30
0.0
 11
-962.9441872176102
 21
-1092.496135724778
 31
0.0
  0
LINE
  5
211
102
{ACAD_REACTORS
330
2F1
330
2F2
102
}
330
71
100
AcDbEntity
  8
0
  6
Continuous
 62
     2
100
AcDbLine
 10
-961.7036828073574
 20
-1092.496135724778
 30
0.0
 11
-960.5108901051909
 21
-1092.496135724778
 31
0.0
  0
LINE
  5
212
102
{ACAD_REACTORS
330
2F1
330
2F2
102
}
330
71
100
AcDbEntity
  8
0
  6
Continuous
 62
     2
100
AcDbLine
 10
-962.9441872176102
 20
-1089.442326200967
 30
0.0
 11
-964.1369799197778
 21
-1089.442326200967
 31
0.0
  0
LINE
  5
213
102
{ACAD_REACTORS
330
2F1
330
2F2
102
}
330
71
100
AcDbEntity
  8
0
  6
Continuous
 62
     2
100
AcDbLine
 10
-964.1369799197778
 20
-1089.442326200967
 30
0.0
 11
-964.1369799197778
 21
-1092.496135724778
 31
0.0
  0
LINE
  5
214
102
{ACAD_REACTORS
330
2EF
330
2F0
102
}
330
71
100
AcDbEntity
  8
0
  6
Continuous
 62
     2
100
AcDbLine
 10
-956.4552439869376
 20
-1086.083135724792
 30
0.0
 11
-956.4552439869376
 21
-1087.391911234997
 31
0.0
  0
LINE
  5
215
102
{ACAD_REACTORS
330
2EF
330
2F0
102
}
330
71
100
AcDbEntity
  8
0
  6
Continuous
 62
     2
100
AcDbLine
 10
-957.6957483971917
 20
-1086.083135724792
 30
0.0
 11
-958.8885410993581
 21
-1086.083135724792
 31
0.0
  0
LINE
  5
216
102
{ACAD_REACTORS
330
2EF
330
2F0
102
}
330
71
100
AcDbEntity
  8
0
  6
Continuous
 62
     2
100
AcDbLine
 10
-958.8885410993581
 20
-1086.083135724792
 30
0.0
 11
-958.8885410993581
 21
-1089.136945248603
 31
0.0
  0
LINE
  5
217
102
{ACAD_REACTORS
330
2EF
330
2F0
102
}
330
71
100
AcDbEntity
  8
0
  6
Continuous
 62
     2
100
AcDbLine
 10
-957.6957483971917
 20
-1089.136945248603
 30
0.0
 11
-957.6957483971917
 21
-1087.828169738399
 31
0.0
  0
LINE
  5
218
102
{ACAD_REACTORS
330
2ED
330
2EE
102
}
330
71
100
AcDbEntity
  8
0
  6
Continuous
 62
     2
100
AcDbLine
 10
-958.3638632412897
 20
-1092.496135724778
 30
0.0
 11
-958.3638632412897
 21
-1090.22759150709
 31
0.0
  0
LINE
  5
219
102
{ACAD_REACTORS
330
2ED
330
2EE
102
}
330
71
100
AcDbEntity
  8
0
  6
Continuous
 62
     2
100
AcDbLine
 10
-958.3638632412897
 20
-1090.22759150709
 30
0.0
 11
-957.5527642038171
 21
-1090.22759150709
 31
0.0
  0
LINE
  5
21A
102
{ACAD_REACTORS
330
2ED
330
2EE
102
}
330
71
100
AcDbEntity
  8
0
  6
Continuous
 62
     2
100
AcDbLine
 10
-957.5527642038171
 20
-1090.22759150709
 30
0.0
 11
-957.5527642038171
 21
-1089.442326200967
 31
0.0
  0
LINE
  5
21B
102
{ACAD_REACTORS
330
2ED
330
2EE
102
}
330
71
100
AcDbEntity
  8
0
  6
Continuous
 62
     2
100
AcDbLine
 10
-957.5527642038171
 20
-1089.442326200967
 30
0.0
 11
-960.3677549809307
 21
-1089.442326200967
 31
0.0
  0
LINE
  5
21C
102
{ACAD_REACTORS
330
2ED
330
2EE
102
}
330
71
100
AcDbEntity
  8
0
  6
Continuous
 62
     2
100
AcDbLine
 10
-960.3677549809307
 20
-1090.22759150709
 30
0.0
 11
-959.5566559434561
 21
-1090.22759150709
 31
0.0
  0
LINE
  5
21D
102
{ACAD_REACTORS
330
2EB
330
2EC
102
}
330
71
100
AcDbEntity
  8
0
  6
Continuous
 62
     2
100
AcDbLine
 10
-956.7582583780197
 20
-1091.95517518056
 30
0.0
 11
-955.6258168013459
 21
-1091.95517518056
 31
0.0
  0
LINE
  5
21E
102
{ACAD_REACTORS
330
2EB
330
2EC
102
}
330
71
100
AcDbEntity
  8
0
  6
Continuous
 62
     2
100
AcDbLine
 10
-954.1738323376162
 20
-1092.496135724778
 30
0.0
 11
-955.4143367478702
 21
-1092.496135724778
 31
0.0
  0
LINE
  5
21F
102
{ACAD_REACTORS
330
2EB
330
2EC
102
}
330
71
100
AcDbEntity
  8
0
  6
Continuous
 62
     2
100
AcDbLine
 10
-956.8122897948092
 20
-1089.442326200967
 30
0.0
 11
-958.2102428417485
 21
-1092.496135724778
 31
0.0
  0
LINE
  5
220
102
{ACAD_REACTORS
330
2EB
330
2EC
102
}
330
71
100
AcDbEntity
  8
0
  6
Continuous
 62
     2
100
AcDbLine
 10
-956.9697384314956
 20
-1092.496135724778
 30
0.0
 11
-956.7582583780197
 21
-1091.95517518056
 31
0.0
  0
LINE
  5
221
102
{ACAD_REACTORS
330
2EB
330
2EC
102
}
330
71
100
AcDbEntity
  8
0
  6
Continuous
 62
     2
100
AcDbLine
 10
-956.4922028268747
 20
-1091.274611915253
 30
0.0
 11
-956.1920375896823
 21
-1090.506796949266
 31
0.0
  0
LINE
  5
222
102
{ACAD_REACTORS
330
2E9
330
2EA
102
}
330
71
100
AcDbEntity
  8
0
  6
Continuous
 62
     2
100
AcDbLine
 10
-955.0238927443371
 20
-1089.136945248603
 30
0.0
 11
-955.0238927443371
 21
-1086.083135724792
 31
0.0
  0
LINE
  5
223
102
{ACAD_REACTORS
330
2E9
330
2EA
102
}
330
71
100
AcDbEntity
  8
0
  6
Continuous
 62
     2
100
AcDbLine
 10
-953.7833883340842
 20
-1086.083135724792
 30
0.0
 11
-953.7833883340842
 21
-1089.136945248603
 31
0.0
  0
LINE
  5
224
102
{ACAD_REACTORS
330
2E9
330
2EA
102
}
330
71
100
AcDbEntity
  8
0
  6
Continuous
 62
     2
100
AcDbLine
 10
-955.0238927443371
 20
-1086.083135724792
 30
0.0
 11
-953.7833883340842
 21
-1086.083135724792
 31
0.0
  0
LINE
  5
225
102
{ACAD_REACTORS
330
2E7
330
2E8
102
}
330
71
100
AcDbEntity
  8
0
  6
Continuous
 62
     2
100
AcDbLine
 10
-951.5647939080534
 20
-1088.34921346331
 30
0.0
 11
-950.8682029699879
 21
-1089.136945248603
 31
0.0
  0
LINE
  5
226
102
{ACAD_REACTORS
330
2E7
330
2E8
102
}
330
71
100
AcDbEntity
  8
0
  6
Continuous
 62
     2
100
AcDbLine
 10
-950.8682029699879
 20
-1089.136945248603
 30
0.0
 11
-949.4654787522396
 21
-1089.136945248603
 31
0.0
  0
LINE
  5
227
102
{ACAD_REACTORS
330
2E7
330
2E8
102
}
330
71
100
AcDbEntity
  8
0
  6
Continuous
 62
     2
100
AcDbLine
 10
-950.8634317991799
 20
-1087.556086254828
 30
0.0
 11
-949.4654787522396
 21
-1089.136945248603
 31
0.0
  0
LINE
  5
228
102
{ACAD_REACTORS
330
2E7
330
2E8
102
}
330
71
100
AcDbEntity
  8
0
  6
Continuous
 62
     2
100
AcDbLine
 10
-950.8634317991799
 20
-1087.556086254828
 30
0.0
 11
-949.5609021684133
 21
-1086.083135724792
 31
0.0
  0
LINE
  5
229
102
{ACAD_REACTORS
330
2E7
330
2E8
102
}
330
71
100
AcDbEntity
  8
0
  6
Continuous
 62
     2
100
AcDbLine
 10
-951.5647939080534
 20
-1086.762959046348
 30
0.0
 11
-950.9636263861606
 21
-1086.083135724792
 31
0.0
  0
LINE
  5
22A
102
{ACAD_REACTORS
330
2E7
330
2E8
102
}
330
71
100
AcDbEntity
  8
0
  6
Continuous
 62
     2
100
AcDbLine
 10
-952.1659614299452
 20
-1086.083135724792
 30
0.0
 11
-951.5647939080534
 21
-1086.762959046348
 31
0.0
  0
LINE
  5
22B
102
{ACAD_REACTORS
330
2E7
330
2E8
102
}
330
71
100
AcDbEntity
  8
0
  6
Continuous
 62
     2
100
AcDbLine
 10
-952.1659614299452
 20
-1086.083135724792
 30
0.0
 11
-953.5686856476946
 21
-1086.083135724792
 31
0.0
  0
LINE
  5
22C
102
{ACAD_REACTORS
330
2DD
330
2DE
102
}
330
71
100
AcDbEntity
  8
0
  6
Continuous
 62
     2
100
AcDbLine
 10
-951.4693704918807
 20
-1092.496135724778
 30
0.0
 11
-950.276577789713
 21
-1092.496135724778
 31
0.0
  0
LINE
  5
22D
102
{ACAD_REACTORS
330
2DD
330
2DE
102
}
330
71
100
AcDbEntity
  8
0
  6
Continuous
 62
     2
100
AcDbLine
 10
-950.276577789713
 20
-1092.496135724778
 30
0.0
 11
-950.276577789713
 21
-1090.22759150709
 31
0.0
  0
LINE
  5
22E
102
{ACAD_REACTORS
330
2DD
330
2DE
102
}
330
71
100
AcDbEntity
  8
0
  6
Continuous
 62
     2
100
AcDbLine
 10
-950.276577789713
 20
-1090.22759150709
 30
0.0
 11
-949.4654787522396
 21
-1090.22759150709
 31
0.0
  0
LINE
  5
22F
102
{ACAD_REACTORS
330
2DD
330
2DE
102
}
330
71
100
AcDbEntity
  8
0
  6
Continuous
 62
     2
100
AcDbLine
 10
-949.4654787522396
 20
-1090.22759150709
 30
0.0
 11
-949.4654787522396
 21
-1089.442326200967
 31
0.0
  0
LINE
  5
230
102
{ACAD_REACTORS
330
2DD
330
2DE
102
}
330
71
100
AcDbEntity
  8
0
  6
Continuous
 62
     2
100
AcDbLine
 10
-952.8504242708683
 20
-1089.442326200967
 30
0.0
 11
-949.4654787522396
 21
-1089.442326200967
 31
0.0
  0
LINE
  5
231
102
{ACAD_REACTORS
330
2DD
330
2DE
102
}
330
71
100
AcDbEntity
  8
0
  6
Continuous
 62
     2
100
AcDbLine
 10
-951.4693704918807
 20
-1090.22759150709
 30
0.0
 11
-951.4693704918807
 21
-1092.496135724778
 31
0.0
  0
LINE
  5
232
102
{ACAD_REACTORS
330
2DF
330
2E0
102
}
330
71
100
AcDbEntity
  8
0
  6
Continuous
 62
     2
100
AcDbLine
 10
-974.09885692736
 20
-1090.517255575213
 30
0.0
 11
-974.09885692736
 21
-1089.935404168518
 31
0.0
  0
LINE
  5
233
102
{ACAD_REACTORS
330
2DF
330
2E0
102
}
330
71
100
AcDbEntity
  8
0
  6
Continuous
 62
     2
100
AcDbLine
 10
-974.09885692736
 20
-1087.717120968582
 30
0.0
 11
-974.09885692736
 21
-1087.111585680075
 31
0.0
  0
LINE
  5
234
330
71
100
AcDbEntity
  8
1
  6
Continuous
 62
     6
100
AcDbLine
 10
-995.5686783427567
 20
-1099.789635724794
 30
0.0
 11
-981.6134828695067
 21
-1099.789635724794
 31
0.0
  0
LINE
  5
235
330
71
100
AcDbEntity
  8
1
  6
Continuous
 62
     6
100
AcDbLine
 10
-1045.568678342757
 20
-1099.789635724794
 30
0.0
 11
-1050.613482869507
 21
-1099.789635724794
 31
0.0
  0
LINE
  5
236
330
71
100
AcDbEntity
  8
1
  6
Continuous
 62
     6
100
AcDbLine
 10
-895.5686783427567
 20
-1099.789635724794
 30
0.0
 11
-852.0686783427567
 21
-1099.789635724794
 31
0.0
  0
LINE
  5
237
330
71
100
AcDbEntity
  8
1
  6
Continuous
 62
     6
100
AcDbLine
 10
-945.5686783427567
 20
-1099.789635724794
 30
0.0
 11
-963.4134828695067
 21
-1099.789635724794
 31
0.0
  0
LINE
  5
238
330
71
100
AcDbEntity
  8
1
  6
Continuous
 62
     2
100
AcDbLine
 10
-852.0686783427567
 20
-1099.789635724794
 30
0.0
 11
-847.0686783427577
 21
-1099.789635724794
 31
0.0
  0
LINE
  5
239
330
71
100
AcDbEntity
  8
1
  6
Continuous
 62
     2
100
AcDbLine
 10
-852.0686783427567
 20
-1099.789635724794
 30
0.0
 11
-852.0686783427567
 21
-1104.789635724794
 31
0.0
  0
LINE
  5
23A
330
71
100
AcDbEntity
  8
1
  6
Continuous
 62
     6
100
AcDbLine
 10
-981.6134828695067
 20
-1082.789635724794
 30
0.0
 11
-945.2134828695068
 21
-1082.789635724794
 31
0.0
  0
LINE
  5
23B
330
71
100
AcDbEntity
  8
1
  6
Continuous
 62
     2
100
AcDbLine
 10
-847.0686783427577
 20
-1104.789635724794
 30
0.0
 11
-847.0686783427577
 21
-1099.789635724794
 31
0.0
  0
LINE
  5
23C
330
71
100
AcDbEntity
  8
1
  6
Continuous
 62
     2
100
AcDbLine
 10
-847.0686783427577
 20
-1104.789635724794
 30
0.0
 11
-852.0686783427567
 21
-1104.789635724794
 31
0.0
  0
LINE
  5
23D
330
71
100
AcDbEntity
  8
1
  6
Continuous
 62
     2
100
AcDbLine
 10
-852.0686783427567
 20
-1104.789635724794
 30
0.0
 11
-895.5686783427567
 21
-1104.789635724794
 31
0.0
  0
LINE
  5
23E
330
71
100
AcDbEntity
  8
1
  6
Continuous
 62
     6
100
AcDbLine
 10
-852.068678342755
 20
-1082.789635724794
 30
0.0
 11
-852.0686783427558
 21
-1049.789635724794
 31
0.0
  0
LINE
  5
23F
330
71
100
AcDbEntity
  8
1
  6
Continuous
 62
     2
100
AcDbLine
 10
-847.0686783427577
 20
-894.7896357247939
 30
0.0
 11
-995.5686783427567
 21
-894.7896357247939
 31
0.0
  0
LINE
  5
240
330
71
100
AcDbEntity
  8
1
  6
Continuous
 62
     6
100
AcDbLine
 10
-852.0686783427577
 20
-914.7896357247939
 30
0.0
 11
-1139.068678342756
 21
-914.7896357247939
 31
0.0
  0
LINE
  5
241
330
71
100
AcDbEntity
  8
1
  6
Continuous
 62
     2
100
AcDbLine
 10
-852.0686783427558
 20
-1049.789635724794
 30
0.0
 11
-847.0686783427577
 21
-1049.789635724794
 31
0.0
  0
LINE
  5
242
330
71
100
AcDbEntity
  8
1
  6
Continuous
 62
     6
100
AcDbLine
 10
-852.0686783427558
 20
-1049.789635724794
 30
0.0
 11
-852.0686783427564
 21
-999.789635724794
 31
0.0
  0
LINE
  5
243
330
71
100
AcDbEntity
  8
1
  6
Continuous
 62
     2
100
AcDbLine
 10
-847.0686783427577
 20
-1049.789635724794
 30
0.0
 11
-847.0686783427577
 21
-999.789635724794
 31
0.0
  0
LINE
  5
244
330
71
100
AcDbEntity
  8
1
  6
Continuous
 62
     2
100
AcDbLine
 10
-852.0686783427564
 20
-999.789635724794
 30
0.0
 11
-847.0686783427577
 21
-999.789635724794
 31
0.0
  0
LINE
  5
245
330
71
100
AcDbEntity
  8
1
  6
Continuous
 62
     6
100
AcDbLine
 10
-852.0686783427564
 20
-999.789635724794
 30
0.0
 11
-852.0686783427575
 21
-949.7896357247939
 31
0.0
  0
LINE
  5
246
330
71
100
AcDbEntity
  8
1
  6
Continuous
 62
     2
100
AcDbLine
 10
-847.0686783427577
 20
-999.789635724794
 30
0.0
 11
-847.0686783427577
 21
-949.7896357247939
 31
0.0
  0
LINE
  5
247
330
71
100
AcDbEntity
  8
1
  6
Continuous
 62
     2
100
AcDbLine
 10
-852.0686783427575
 20
-949.7896357247939
 30
0.0
 11
-847.0686783427577
 21
-949.7896357247939
 31
0.0
  0
LINE
  5
248
330
71
100
AcDbEntity
  8
1
  6
Continuous
 62
     6
100
AcDbLine
 10
-852.0686783427575
 20
-949.7896357247939
 30
0.0
 11
-852.0686783427577
 21
-914.7896357247939
 31
0.0
  0
LINE
  5
249
330
71
100
AcDbEntity
  8
1
  6
Continuous
 62
     2
100
AcDbLine
 10
-847.0686783427577
 20
-949.7896357247939
 30
0.0
 11
-847.0686783427577
 21
-894.7896357247939
 31
0.0
  0
LINE
  5
24A
330
71
100
AcDbEntity
  8
1
  6
Continuous
 62
     2
100
AcDbLine
 10
-847.0686783427577
 20
-1099.789635724794
 30
0.0
 11
-847.0686783427577
 21
-1049.789635724794
 31
0.0
  0
LINE
  5
24B
330
71
100
AcDbEntity
  8
1
  6
Continuous
 62
     2
100
AcDbLine
 10
-995.5686783427567
 20
-894.7896357247939
 30
0.0
 11
-1144.068678342756
 21
-894.7896357247939
 31
0.0
  0
LINE
  5
24C
330
71
100
AcDbEntity
  8
1
  6
Continuous
 62
     2
100
AcDbLine
 10
-995.5686783427567
 20
-894.7896357247939
 30
0.0
 11
-995.5686783427567
 21
-903.9983275694952
 31
0.0
  0
LINE
  5
24D
330
71
100
AcDbEntity
  8
1
  6
Continuous
 62
     2
100
AcDbLine
 10
-1144.068678342756
 20
-1104.789635724794
 30
0.0
 11
-1139.068678342755
 21
-1104.789635724794
 31
0.0
  0
LINE
  5
24E
330
71
100
AcDbEntity
  8
1
  6
Continuous
 62
     2
100
AcDbLine
 10
-1144.068678342756
 20
-894.7896357247939
 30
0.0
 11
-1144.068678342756
 21
-949.7896357247939
 31
0.0
  0
LINE
  5
24F
330
71
100
AcDbEntity
  8
1
  6
Continuous
 62
     6
100
AcDbLine
 10
-1139.068678342756
 20
-914.7896357247939
 30
0.0
 11
-1139.068678342756
 21
-949.7896357247939
 31
0.0
  0
LINE
  5
250
330
71
100
AcDbEntity
  8
1
  6
Continuous
 62
     2
100
AcDbLine
 10
-1144.068678342756
 20
-949.7896357247939
 30
0.0
 11
-1139.068678342756
 21
-949.7896357247939
 31
0.0
  0
LINE
  5
251
330
71
100
AcDbEntity
  8
1
  6
Continuous
 62
     2
100
AcDbLine
 10
-1144.068678342756
 20
-949.7896357247939
 30
0.0
 11
-1144.068678342756
 21
-999.789635724794
 31
0.0
  0
LINE
  5
252
330
71
100
AcDbEntity
  8
1
  6
Continuous
 62
     6
100
AcDbLine
 10
-1139.068678342756
 20
-949.7896357247939
 30
0.0
 11
-1139.068678342755
 21
-999.789635724794
 31
0.0
  0
LINE
  5
253
330
71
100
AcDbEntity
  8
1
  6
Continuous
 62
     2
100
AcDbLine
 10
-1144.068678342756
 20
-999.789635724794
 30
0.0
 11
-1139.068678342755
 21
-999.789635724794
 31
0.0
  0
LINE
  5
254
330
71
100
AcDbEntity
  8
1
  6
Continuous
 62
     2
100
AcDbLine
 10
-1144.068678342756
 20
-999.789635724794
 30
0.0
 11
-1144.068678342756
 21
-1049.789635724794
 31
0.0
  0
LINE
  5
255
330
71
100
AcDbEntity
  8
1
  6
Continuous
 62
     6
100
AcDbLine
 10
-1139.068678342755
 20
-999.789635724794
 30
0.0
 11
-1139.068678342755
 21
-1049.789635724794
 31
0.0
  0
LINE
  5
256
330
71
100
AcDbEntity
  8
1
  6
Continuous
 62
     2
100
AcDbLine
 10
-1144.068678342756
 20
-1049.789635724794
 30
0.0
 11
-1139.068678342755
 21
-1049.789635724794
 31
0.0
  0
LINE
  5
257
330
71
100
AcDbEntity
  8
1
  6
Continuous
 62
     2
100
AcDbLine
 10
-1144.068678342756
 20
-1049.789635724794
 30
0.0
 11
-1144.068678342756
 21
-1099.789635724794
 31
0.0
  0
LINE
  5
258
330
71
100
AcDbEntity
  8
1
  6
Continuous
 62
     6
100
AcDbLine
 10
-1139.068678342755
 20
-1049.789635724794
 30
0.0
 11
-1139.068678342755
 21
-1099.789635724794
 31
0.0
  0
LINE
  5
259
330
71
100
AcDbEntity
  8
1
  6
Continuous
 62
     2
100
AcDbLine
 10
-1095.568678342757
 20
-1104.789635724794
 30
0.0
 11
-1095.568678342757
 21
-1099.789635724794
 31
0.0
  0
LINE
  5
25A
330
71
100
AcDbEntity
  8
1
  6
Continuous
 62
     2
100
AcDbLine
 10
-1095.568678342757
 20
-1104.789635724794
 30
0.0
 11
-1045.568678342757
 21
-1104.789635724794
 31
0.0
  0
LINE
  5
25B
330
71
100
AcDbEntity
  8
1
  6
Continuous
 62
     2
100
AcDbLine
 10
-1045.568678342757
 20
-1104.789635724794
 30
0.0
 11
-1045.568678342757
 21
-1099.789635724794
 31
0.0
  0
LINE
  5
25C
330
71
100
AcDbEntity
  8
1
  6
Continuous
 62
     2
100
AcDbLine
 10
-1045.568678342757
 20
-1104.789635724794
 30
0.0
 11
-995.5686783427567
 21
-1104.789635724794
 31
0.0
  0
LINE
  5
25D
330
71
100
AcDbEntity
  8
1
  6
Continuous
 62
     2
100
AcDbLine
 10
-995.5686783427567
 20
-1104.789635724794
 30
0.0
 11
-995.5686783427567
 21
-1099.789635724794
 31
0.0
  0
LINE
  5
25E
330
71
100
AcDbEntity
  8
1
  6
Continuous
 62
     2
100
AcDbLine
 10
-995.5686783427567
 20
-1104.789635724794
 30
0.0
 11
-945.5686783427567
 21
-1104.789635724794
 31
0.0
  0
LINE
  5
25F
330
71
100
AcDbEntity
  8
1
  6
Continuous
 62
     2
100
AcDbLine
 10
-945.5686783427567
 20
-1104.789635724794
 30
0.0
 11
-945.5686783427567
 21
-1099.789635724794
 31
0.0
  0
LINE
  5
260
330
71
100
AcDbEntity
  8
1
  6
Continuous
 62
     2
100
AcDbLine
 10
-895.5686783427567
 20
-1104.789635724794
 30
0.0
 11
-895.5686783427567
 21
-1099.789635724794
 31
0.0
  0
LINE
  5
261
330
71
100
AcDbEntity
  8
1
  6
Continuous
 62
     2
100
AcDbLine
 10
-895.5686783427567
 20
-1104.789635724794
 30
0.0
 11
-945.5686783427567
 21
-1104.789635724794
 31
0.0
  0
LINE
  5
262
330
71
100
AcDbEntity
  8
1
  6
Continuous
 62
     2
100
AcDbLine
 10
-1139.068678342755
 20
-1099.789635724794
 30
0.0
 11
-1139.068678342755
 21
-1104.789635724794
 31
0.0
  0
LINE
  5
263
330
71
100
AcDbEntity
  8
1
  6
Continuous
 62
     2
100
AcDbLine
 10
-1139.068678342755
 20
-1104.789635724794
 30
0.0
 11
-1095.568678342757
 21
-1104.789635724794
 31
0.0
  0
LINE
  5
264
330
71
100
AcDbEntity
  8
1
  6
Continuous
 62
     2
100
AcDbLine
 10
-1139.068678342755
 20
-1099.789635724794
 30
0.0
 11
-1144.068678342756
 21
-1099.789635724794
 31
0.0
  0
LINE
  5
265
330
71
100
AcDbEntity
  8
1
  6
Continuous
 62
     2
100
AcDbLine
 10
-1144.068678342756
 20
-1099.789635724794
 30
0.0
 11
-1144.068678342756
 21
-1104.789635724794
 31
0.0
  0
LINE
  5
266
330
71
100
AcDbEntity
  8
1
  6
Continuous
 62
     6
100
AcDbLine
 10
-852.0686783427567
 20
-1099.789635724794
 30
0.0
 11
-852.0686783427554
 21
-1091.289635724794
 31
0.0
  0
LINE
  5
267
330
71
100
AcDbEntity
  8
1
  6
Continuous
 62
     6
100
AcDbLine
 10
-945.2134828695068
 20
-1099.789635724794
 30
0.0
 11
-895.5686783427567
 21
-1099.789635724794
 31
0.0
  0
LINE
  5
268
330
71
100
AcDbEntity
  8
1
  6
Continuous
 62
     6
100
AcDbLine
 10
-1097.868678342757
 20
-1099.789635724794
 30
0.0
 11
-1095.568678342757
 21
-1099.789635724794
 31
0.0
  0
LINE
  5
269
330
71
100
AcDbEntity
  8
1
  6
Continuous
 62
     6
100
AcDbLine
 10
-995.5686783427567
 20
-1099.789635724794
 30
0.0
 11
-1045.568678342757
 21
-1099.789635724794
 31
0.0
  0
LINE
  5
26A
330
71
100
AcDbEntity
  8
1
  6
Continuous
 62
     7
100
AcDbLine
 10
-981.6134828695067
 20
-1082.789635724794
 30
0.0
 11
-981.6134828695067
 21
-1095.539635724794
 31
0.0
  0
LINE
  5
26B
330
71
100
AcDbEntity
  8
1
  6
Continuous
 62
     7
100
AcDbLine
 10
-945.2134828695068
 20
-1082.789635724794
 30
0.0
 11
-945.2134828695068
 21
-1095.539635724794
 31
0.0
  0
LINE
  5
26C
330
71
100
AcDbEntity
  8
1
  6
Continuous
 62
     6
100
AcDbLine
 10
-1097.868678342757
 20
-1099.789635724794
 30
0.0
 11
-1104.068678342755
 21
-1099.789635724794
 31
0.0
  0
LINE
  5
26D
330
71
100
AcDbEntity
  8
1
  6
Continuous
 62
     6
100
AcDbLine
 10
-945.2134828695068
 20
-1099.789635724794
 30
0.0
 11
-945.5686783427567
 21
-1099.789635724794
 31
0.0
  0
LINE
  5
26E
330
71
100
AcDbEntity
  8
1
  6
Continuous
 62
     6
100
AcDbLine
 10
-852.068678342755
 20
-1082.789635724794
 30
0.0
 11
-852.0686783427554
 21
-1091.289635724794
 31
0.0
  0
LINE
  5
26F
330
71
100
AcDbEntity
  8
1
  6
Continuous
 62
     6
100
AcDbLine
 10
-1104.068678342755
 20
-1099.789635724794
 30
0.0
 11
-1139.068678342755
 21
-1099.789635724794
 31
0.0
  0
LINE
  5
270
330
71
100
AcDbEntity
  8
1
  6
Continuous
 62
     2
100
AcDbLine
 10
-977.3768279829442
 20
-1077.414635724794
 30
0.0
 11
-972.3768279829442
 21
-1076.164635724794
 31
0.0
  0
LINE
  5
271
330
71
100
AcDbEntity
  8
1
  6
Continuous
 62
     2
100
AcDbLine
 10
-977.3768279829442
 20
-1079.914635724794
 30
0.0
 11
-977.3768279829442
 21
-1077.414635724794
 31
0.0
  0
LINE
  5
272
330
71
100
AcDbEntity
  8
1
  6
Continuous
 62
     2
100
AcDbLine
 10
-972.3768279829442
 20
-1081.164635724794
 30
0.0
 11
-977.3768279829442
 21
-1079.914635724794
 31
0.0
  0
LINE
  5
273
330
71
100
AcDbEntity
  8
1
  6
Continuous
 62
     2
100
AcDbLine
 10
-972.3768279829442
 20
-1076.164635724794
 30
0.0
 11
-972.3768279829442
 21
-1081.164635724794
 31
0.0
  0
LINE
  5
274
330
71
100
AcDbEntity
  8
1
  6
Continuous
 62
     7
100
AcDbLine
 10
-981.6134828695067
 20
-1095.539635724794
 30
0.0
 11
-963.4134828695067
 21
-1095.539635724794
 31
0.0
  0
LINE
  5
275
330
71
100
AcDbEntity
  8
1
  6
Continuous
 62
     7
100
AcDbLine
 10
-981.6134828695067
 20
-1095.539635724794
 30
0.0
 11
-981.6134828695067
 21
-1099.789635724794
 31
0.0
  0
LINE
  5
276
330
71
100
AcDbEntity
  8
1
  6
Continuous
 62
     7
100
AcDbLine
 10
-945.2134828695068
 20
-1095.539635724794
 30
0.0
 11
-945.2134828695068
 21
-1099.789635724794
 31
0.0
  0
LINE
  5
277
330
71
100
AcDbEntity
  8
1
  6
Continuous
 62
     7
100
AcDbLine
 10
-963.4134828695067
 20
-1095.539635724794
 30
0.0
 11
-963.4134828695067
 21
-1099.789635724794
 31
0.0
  0
LINE
  5
278
330
71
100
AcDbEntity
  8
1
  6
Continuous
 62
     6
100
AcDbLine
 10
-963.4134828695067
 20
-1099.789635724794
 30
0.0
 11
-981.6134828695067
 21
-1099.789635724794
 31
0.0
  0
LINE
  5
279
330
71
100
AcDbEntity
  8
1
  6
Continuous
 62
     7
100
AcDbLine
 10
-963.4134828695067
 20
-1095.539635724794
 30
0.0
 11
-945.2134828695068
 21
-1095.539635724794
 31
0.0
  0
LINE
  5
27A
330
71
100
AcDbEntity
  8
1
  6
Continuous
 62
     6
100
AcDbLine
 10
-981.6134828695067
 20
-1074.289635724794
 30
0.0
 11
-852.068678342755
 21
-1074.289635724794
 31
0.0
  0
ARC
  5
27B
102
{ACAD_REACTORS
330
2E3
330
2E4
102
}
330
71
100
AcDbEntity
  8
0
  6
Continuous
 62
     2
100
AcDbCircle
 10
-966.2218348705467
 20
-1090.969230962872
 30
0.0
 40
0.7717997786796852
100
AcDbArc
 50
321.8795802028358
 51
38.12041979716419
  0
ARC
  5
27C
102
{ACAD_REACTORS
330
2E3
330
2E4
102
}
330
71
100
AcDbEntity
  8
0
  6
Continuous
 62
     2
100
AcDbCircle
 10
-966.0220948342003
 20
-1091.125962140992
 30
0.0
 40
0.5179085730137529
100
AcDbArc
 50
218.1204197971956
 51
321.8795802027966
  0
ARC
  5
27D
102
{ACAD_REACTORS
330
2E3
330
2E4
102
}
330
71
100
AcDbEntity
  8
0
  6
Continuous
 62
     2
100
AcDbCircle
 10
-965.8223547978542
 20
-1090.969230962872
 30
0.0
 40
0.7717997786795062
100
AcDbArc
 50
141.8795802028254
 51
218.1204197971746
  0
ARC
  5
27E
102
{ACAD_REACTORS
330
2E3
330
2E4
102
}
330
71
100
AcDbEntity
  8
0
  6
Continuous
 62
     2
100
AcDbCircle
 10
-966.0220948342003
 20
-1090.812499784752
 30
0.0
 40
0.5179085730136636
100
AcDbArc
 50
38.1204197972034
 51
141.8795802028044
  0
ARC
  5
27F
102
{ACAD_REACTORS
330
2DB
330
2DC
102
}
330
71
100
AcDbEntity
  8
0
  6
Continuous
 62
     2
100
AcDbCircle
 10
-969.0841089697642
 20
-1092.379697328281
 30
0.0
 40
2.227384008973646
100
AcDbArc
 50
58.06909105004343
 51
71.55192388187278
  0
ARC
  5
280
102
{ACAD_REACTORS
330
2DB
330
2DC
102
}
330
71
100
AcDbEntity
  8
0
  6
Continuous
 62
     2
100
AcDbCircle
 10
-968.8223812688054
 20
-1090.764159533533
 30
0.0
 40
0.5115800601943187
100
AcDbArc
 50
113.3722778882227
 51
151.4785267423619
  0
ARC
  5
281
102
{ACAD_REACTORS
330
2DB
330
2DC
102
}
330
71
100
AcDbEntity
  8
0
  6
Continuous
 62
     2
100
AcDbCircle
 10
-968.4450240107251
 20
-1090.969230962872
 30
0.0
 40
0.9410597353329787
100
AcDbArc
 50
151.478526742305
 51
208.521473257695
  0
ARC
  5
282
102
{ACAD_REACTORS
330
2DB
330
2DC
102
}
330
71
100
AcDbEntity
  8
0
  6
Continuous
 62
     2
100
AcDbCircle
 10
-969.2419818448572
 20
-1087.656550017616
 30
0.0
 40
4.852596863497943
100
AcDbArc
 50
275.1581447696255
 51
285.9799912583526
  0
ARC
  5
283
102
{ACAD_REACTORS
330
2DB
330
2DC
102
}
330
71
100
AcDbEntity
  8
0
  6
Continuous
 62
     2
100
AcDbCircle
 10
-968.9531257501212
 20
-1090.856440600838
 30
0.0
 40
1.639695123939306
100
AcDbArc
 50
195.061891777079
 51
275.1581447696414
  0
ARC
  5
284
102
{ACAD_REACTORS
330
2DB
330
2DC
102
}
330
71
100
AcDbEntity
  8
0
  6
Continuous
 62
     2
100
AcDbCircle
 10
-969.372253593584
 20
-1090.969230962872
 30
0.0
 40
1.205656168390927
100
AcDbArc
 50
164.9381082228846
 51
195.0618917771153
  0
ARC
  5
285
102
{ACAD_REACTORS
330
2DB
330
2DC
102
}
330
71
100
AcDbEntity
  8
0
  6
Continuous
 62
     2
100
AcDbCircle
 10
-968.9531257501212
 20
-1091.082021324907
 30
0.0
 40
1.639695123940224
100
AcDbArc
 50
84.84185523036146
 51
164.9381082228903
  0
ARC
  5
286
102
{ACAD_REACTORS
330
2DF
330
2E0
102
}
330
71
100
AcDbEntity
  8
0
  6
Continuous
 62
     2
100
AcDbCircle
 10
-973.7831400042832
 20
-1089.935404168518
 30
0.0
 40
0.3157169230761855
100
AcDbArc
 50
115.3740086783875
 51
180.0
  0
ARC
  5
287
102
{ACAD_REACTORS
330
2DF
330
2E0
102
}
330
71
100
AcDbEntity
  8
0
  6
Continuous
 62
     2
100
AcDbCircle
 10
-973.7831400042832
 20
-1087.717120968582
 30
0.0
 40
0.3157169230768204
100
AcDbArc
 50
180.0
 51
244.6259913215949
  0
ARC
  5
288
102
{ACAD_REACTORS
330
2DF
330
2E0
102
}
330
71
100
AcDbEntity
  8
0
  6
Continuous
 62
     2
100
AcDbCircle
 10
-973.777523868973
 20
-1088.814420627644
 30
0.0
 40
2.018561131933152
100
AcDbArc
 50
269.8110329575842
 51
90.18896704241578
  0
ARC
  5
289
102
{ACAD_REACTORS
330
2DF
330
2E0
102
}
330
71
100
AcDbEntity
  8
0
  6
Continuous
 62
     2
100
AcDbCircle
 10
-973.7831400042832
 20
-1090.517255575213
 30
0.0
 40
0.3157169230768204
100
AcDbArc
 50
180.0
 51
269.8110329574592
  0
ARC
  5
28A
102
{ACAD_REACTORS
330
2DD
330
2DE
102
}
330
71
100
AcDbEntity
  8
0
  6
Continuous
 62
     2
100
AcDbCircle
 10
-952.7196797895525
 20
-1090.764159533533
 30
0.0
 40
0.5115800601937612
100
AcDbArc
 50
109.3371432195076
 51
151.4785267424227
  0
ARC
  5
28B
102
{ACAD_REACTORS
330
2DD
330
2DE
102
}
330
71
100
AcDbEntity
  8
0
  6
Continuous
 62
     2
100
AcDbCircle
 10
-952.7196797895525
 20
-1091.174302392211
 30
0.0
 40
0.5115800601958815
100
AcDbArc
 50
208.5214732576444
 51
246.6277221118294
  0
ARC
  5
28C
102
{ACAD_REACTORS
330
2DD
330
2DE
102
}
330
71
100
AcDbEntity
  8
0
  6
Continuous
 62
     2
100
AcDbCircle
 10
-953.2695521143299
 20
-1090.969230962872
 30
0.0
 40
1.205656168392903
100
AcDbArc
 50
164.9381082229099
 51
195.0618917771318
  0
ARC
  5
28D
102
{ACAD_REACTORS
330
2DD
330
2DE
102
}
330
71
100
AcDbEntity
  8
0
  6
Continuous
 62
     2
100
AcDbCircle
 10
-952.8504242708683
 20
-1091.082021324907
 30
0.0
 40
1.639695123939873
100
AcDbArc
 50
90.0
 51
164.9381082228985
  0
ARC
  5
28E
102
{ACAD_REACTORS
330
2E1
330
2E2
102
}
330
71
100
AcDbEntity
  8
0
  6
Continuous
 62
     2
100
AcDbCircle
 10
-962.277419363572
 20
-1087.610040486698
 30
0.0
 40
1.526904761905826
100
AcDbArc
 50
90.0
 51
270.0
  0
ARC
  5
28F
102
{ACAD_REACTORS
330
2E5
330
2E6
102
}
330
71
100
AcDbEntity
  8
0
  6
Continuous
 62
     2
100
AcDbCircle
 10
-969.0201101087978
 20
-1087.099105394903
 30
0.0
 40
0.3528638246718856
100
AcDbArc
 50
270.0
 51
90.0
  0
ARC
  5
290
102
{ACAD_REACTORS
330
2DF
330
2E0
102
}
330
71
100
AcDbEntity
  8
0
  6
Continuous
 62
     2
100
AcDbCircle
 10
-976.3586886908148
 20
-1087.111408203427
 30
0.0
 40
0.3157169230757972
100
AcDbArc
 50
90.0
 51
180.0
  0
ARC
  5
291
102
{ACAD_REACTORS
330
2DF
330
2E0
102
}
330
71
100
AcDbEntity
  8
0
  6
Continuous
 62
     2
100
AcDbCircle
 10
-974.3602709822302
 20
-1088.82626256855
 30
0.0
 40
0.9118975235580125
100
AcDbArc
 50
115.1944106485185
 51
244.8055893514816
  0
ARC
  5
292
102
{ACAD_REACTORS
330
2DF
330
2E0
102
}
330
71
100
AcDbEntity
  8
0
  6
Continuous
 62
     2
100
AcDbCircle
 10
-974.8828554298052
 20
-1089.937092314613
 30
0.0
 40
0.315716923076593
100
AcDbArc
 50
0.0
 51
64.80558935149101
  0
ARC
  5
293
102
{ACAD_REACTORS
330
2DF
330
2E0
102
}
330
71
100
AcDbEntity
  8
0
  6
Continuous
 62
     2
100
AcDbCircle
 10
-976.9525833675614
 20
-1092.071891109394
 30
0.0
 40
0.4242446153828041
100
AcDbArc
 50
180.0
 51
270.0
  0
ARC
  5
294
102
{ACAD_REACTORS
330
2E1
330
2E2
102
}
330
71
100
AcDbEntity
  8
0
  6
Continuous
 62
     2
100
AcDbCircle
 10
-962.0611473534068
 20
-1087.453309308577
 30
0.0
 40
0.517908573013281
100
AcDbArc
 50
38.12041979710871
 51
141.8795802028835
  0
ARC
  5
295
102
{ACAD_REACTORS
330
2E1
330
2E2
102
}
330
71
100
AcDbEntity
  8
0
  6
Continuous
 62
     2
100
AcDbCircle
 10
-961.8614073170605
 20
-1087.610040486698
 30
0.0
 40
0.7717997786796852
100
AcDbArc
 50
141.8795802028358
 51
218.1204197971642
  0
ARC
  5
296
102
{ACAD_REACTORS
330
2E3
330
2E4
102
}
330
71
100
AcDbEntity
  8
0
  6
Continuous
 62
     2
100
AcDbCircle
 10
-966.0220948342003
 20
-1090.430655952569
 30
0.0
 40
2.065479772208722
100
AcDbArc
 50
242.4518518243441
 51
297.5481481756838
  0
ARC
  5
297
102
{ACAD_REACTORS
330
2E3
330
2E4
102
}
330
71
100
AcDbEntity
  8
0
  6
Continuous
 62
     2
100
AcDbCircle
 10
-966.0220948342003
 20
-1091.507805973175
 30
0.0
 40
2.06547977220824
100
AcDbArc
 50
62.45185182430162
 51
117.5481481756704
  0
ARC
  5
298
102
{ACAD_REACTORS
330
2E3
330
2E4
102
}
330
71
100
AcDbEntity
  8
0
  6
Continuous
 62
     2
100
AcDbCircle
 10
-966.3030347260336
 20
-1090.969230962872
 30
0.0
 40
1.458034083650935
100
AcDbArc
 50
117.5481481756713
 51
242.4518518243493
  0
ARC
  5
299
102
{ACAD_REACTORS
330
2E3
330
2E4
102
}
330
71
100
AcDbEntity
  8
0
  6
Continuous
 62
     2
100
AcDbCircle
 10
-965.7411549423671
 20
-1090.969230962872
 30
0.0
 40
1.458034083652521
100
AcDbArc
 50
297.5481481756942
 51
62.45185182428514
  0
ARC
  5
29A
102
{ACAD_REACTORS
330
2E1
330
2E2
102
}
330
71
100
AcDbEntity
  8
0
  6
Continuous
 62
     2
100
AcDbCircle
 10
-962.0611473534068
 20
-1087.766771664818
 30
0.0
 40
0.5179085730137529
100
AcDbArc
 50
218.1204197971956
 51
321.8795802028121
  0
ARC
  5
29B
102
{ACAD_REACTORS
330
2E1
330
2E2
102
}
330
71
100
AcDbEntity
  8
0
  6
Continuous
 62
     2
100
AcDbCircle
 10
-962.260887389753
 20
-1087.610040486698
 30
0.0
 40
0.7717997786796852
100
AcDbArc
 50
321.8795802028358
 51
38.12041979716419
  0
ARC
  5
29C
102
{ACAD_REACTORS
330
2DF
330
2E0
102
}
330
71
100
AcDbEntity
  8
0
  6
Continuous
 62
     2
100
AcDbCircle
 10
-971.4792712768445
 20
-1092.071891109394
 30
0.0
 40
0.424244615383941
100
AcDbArc
 50
270.0
 51
0.0
  0
ARC
  5
29D
102
{ACAD_REACTORS
330
2DF
330
2E0
102
}
330
71
100
AcDbEntity
  8
0
  6
Continuous
 62
     2
100
AcDbCircle
 10
-971.4792712768445
 20
-1086.507380340194
 30
0.0
 40
0.424244615383941
100
AcDbArc
 50
0.0
 51
90.0
  0
ARC
  5
29E
102
{ACAD_REACTORS
330
2DF
330
2E0
102
}
330
71
100
AcDbEntity
  8
0
  6
Continuous
 62
     2
100
AcDbCircle
 10
-976.9525833675614
 20
-1086.507380340194
 30
0.0
 40
0.424244615383941
100
AcDbArc
 50
90.0
 51
180.0
  0
ARC
  5
29F
102
{ACAD_REACTORS
330
2DF
330
2E0
102
}
330
71
100
AcDbEntity
  8
0
  6
Continuous
 62
     2
100
AcDbCircle
 10
-974.8828554298052
 20
-1091.467863246144
 30
0.0
 40
0.3157169230771615
100
AcDbArc
 50
270.0
 51
0.0
  0
ARC
  5
2A0
102
{ACAD_REACTORS
330
2DF
330
2E0
102
}
330
71
100
AcDbEntity
  8
0
  6
Continuous
 62
     2
100
AcDbCircle
 10
-974.8828554298052
 20
-1087.715432822487
 30
0.0
 40
0.3157169230764803
100
AcDbArc
 50
295.194410648509
 51
0.0
  0
ARC
  5
2A1
102
{ACAD_REACTORS
330
2DF
330
2E0
102
}
330
71
100
AcDbEntity
  8
0
  6
Continuous
 62
     2
100
AcDbCircle
 10
-974.8828554298052
 20
-1087.111408203427
 30
0.0
 40
0.315716923076593
100
AcDbArc
 50
0.0
 51
90.0
  0
ARC
  5
2A2
102
{ACAD_REACTORS
330
2DF
330
2E0
102
}
330
71
100
AcDbEntity
  8
0
  6
Continuous
 62
     2
100
AcDbCircle
 10
-976.3586886908148
 20
-1091.467863246144
 30
0.0
 40
0.3157169230756836
100
AcDbArc
 50
180.0
 51
270.0
  0
ARC
  5
2A3
102
{ACAD_REACTORS
330
2E5
330
2E6
102
}
330
71
100
AcDbEntity
  8
0
  6
Continuous
 62
     2
100
AcDbCircle
 10
-968.5786375825594
 20
-1087.138501366126
 30
0.0
 40
1.055365641333992
100
AcDbArc
 50
270.0
 51
90.0
  0
ARC
  5
2A4
102
{ACAD_REACTORS
330
2DD
330
2DE
102
}
330
71
100
AcDbEntity
  8
0
  6
Continuous
 62
     2
100
AcDbCircle
 10
-952.8504242708683
 20
-1090.856440600838
 30
0.0
 40
1.639695123940421
100
AcDbArc
 50
195.0618917771015
 51
275.1581447696774
  0
ARC
  5
2A5
102
{ACAD_REACTORS
330
2DD
330
2DE
102
}
330
71
100
AcDbEntity
  8
0
  6
Continuous
 62
     2
100
AcDbCircle
 10
-953.1392803656041
 20
-1087.656550017616
 30
0.0
 40
4.852596863499167
100
AcDbArc
 50
275.1581447696363
 51
285.9799912583397
  0
ARC
  5
2A6
102
{ACAD_REACTORS
330
2DD
330
2DE
102
}
330
71
100
AcDbEntity
  8
0
  6
Continuous
 62
     2
100
AcDbCircle
 10
-952.9814074905113
 20
-1089.558764597464
 30
0.0
 40
2.227384008973474
100
AcDbArc
 50
288.4480761181272
 51
301.9309089499342
  0
ARC
  5
2A7
102
{ACAD_REACTORS
330
2DD
330
2DE
102
}
330
71
100
AcDbEntity
  8
0
  6
Continuous
 62
     2
100
AcDbCircle
 10
-952.5632397568494
 20
-1090.812310373501
 30
0.0
 40
0.9059297849850417
100
AcDbArc
 50
246.6277221118078
 51
288.448076118076
  0
ARC
  5
2A8
102
{ACAD_REACTORS
330
2DD
330
2DE
102
}
330
71
100
AcDbEntity
  8
0
  6
Continuous
 62
     2
100
AcDbCircle
 10
-952.3423225314712
 20
-1090.969230962872
 30
0.0
 40
0.9410597353348766
100
AcDbArc
 50
151.4785267423678
 51
208.5214732576808
  0
ARC
  5
2A9
102
{ACAD_REACTORS
330
2DD
330
2DE
102
}
330
71
100
AcDbEntity
  8
0
  6
Continuous
 62
     2
100
AcDbCircle
 10
-952.5730097914488
 20
-1091.182114513916
 30
0.0
 40
0.9545230068260935
100
AcDbArc
 50
90.0
 51
109.3371432194401
  0
ARC
  5
2AA
102
{ACAD_REACTORS
330
2DF
330
2E0
102
}
330
71
100
AcDbEntity
  8
0
  6
Continuous
 62
     2
100
AcDbCircle
 10
-973.7831400042832
 20
-1087.111585680075
 30
0.0
 40
0.3157169230760141
100
AcDbArc
 50
90.18896704254082
 51
180.0
  0
ARC
  5
2AB
102
{ACAD_REACTORS
330
2DF
330
2E0
102
}
330
71
100
AcDbEntity
  8
0
  6
Continuous
 62
     2
100
AcDbCircle
 10
-974.309182702371
 20
-1088.82626256855
 30
0.0
 40
0.9118481501445116
100
AcDbArc
 50
295.374008678171
 51
64.62599132182905
  0
ARC
  5
2AC
102
{ACAD_REACTORS
330
2DB
330
2DC
102
}
330
71
100
AcDbEntity
  8
0
  6
Continuous
 62
     2
100
AcDbCircle
 10
-969.0841089697642
 20
-1089.558764597464
 30
0.0
 40
2.227384008972611
100
AcDbArc
 50
288.4480761181346
 51
301.9309089499566
  0
ARC
  5
2AD
102
{ACAD_REACTORS
330
2DB
330
2DC
102
}
330
71
100
AcDbEntity
  8
0
  6
Continuous
 62
     2
100
AcDbCircle
 10
-968.6659412361034
 20
-1090.812310373501
 30
0.0
 40
0.9059297849846357
100
AcDbArc
 50
246.6277221118672
 51
288.4480761181624
  0
ARC
  5
2AE
102
{ACAD_REACTORS
330
2DB
330
2DC
102
}
330
71
100
AcDbEntity
  8
0
  6
Continuous
 62
     2
100
AcDbCircle
 10
-968.8223812688054
 20
-1091.174302392211
 30
0.0
 40
0.5115800601944485
100
AcDbArc
 50
208.5214732576157
 51
246.6277221118177
  0
ARC
  5
2AF
102
{ACAD_REACTORS
330
2DB
330
2DC
102
}
330
71
100
AcDbEntity
  8
0
  6
Continuous
 62
     2
100
AcDbCircle
 10
-968.6659412361034
 20
-1091.126151552244
 30
0.0
 40
0.9059297849856105
100
AcDbArc
 50
71.55192388185576
 51
113.3722778881328
  0
ARC
  5
2B0
102
{ACAD_REACTORS
330
2DB
330
2DC
102
}
330
71
100
AcDbEntity
  8
0
  6
Continuous
 62
     2
100
AcDbCircle
 10
-969.2419818448572
 20
-1094.281911908128
 30
0.0
 40
4.852596863498158
100
AcDbArc
 50
74.02000874164733
 51
84.8418552303745
  0
CIRCLE
  5
2B1
102
{ACAD_REACTORS
330
2DF
330
2E0
102
}
330
71
100
AcDbEntity
  8
0
  6
Continuous
 62
     2
100
AcDbCircle
 10
-974.3329977170438
 20
-1088.82626256855
 30
0.0
 40
0.4709789327785074
  0
CIRCLE
  5
2B2
330
71
100
AcDbEntity
  8
1
  6
Continuous
 62
     2
100
AcDbCircle
 10
-968.8768279829442
 20
-1078.664635724794
 30
0.0
 40
1.25
  0
CIRCLE
  5
2B3
330
71
100
AcDbEntity
  8
1
  6
Continuous
 62
     2
100
AcDbCircle
 10
-968.8768279829442
 20
-1078.664635724794
 30
0.0
 40
2.5
  0
TEXT
  5
2B4
330
71
100
AcDbEntity
  8
1
 62
     7
100
AcDbText
 10
-926.2399351474929
 20
-1081.489635724794
 30
0.0
 40
2.5
  1
/
 41
0.9
  7
CONVERTER_11
100
AcDbText
  0
TEXT
  5
2B6
330
71
100
AcDbEntity
  8
1
 62
     7
100
AcDbText
 10
-924.083570650451
 20
-1081.489635724794
 30
0.0
 40
2.5
  1
03
 41
0.81
  7
CONVERTER_12
100
AcDbText
  0
TEXT
  5
2B7
330
71
100
AcDbEntity
  8
1
 62
     3
100
AcDbText
 10
-886.4870866244338
 20
-1081.489635724794
 30
0.0
 40
2.5
  1
17.11.2017
 41
0.81
  7
CONVERTER_12
100
AcDbText
  0
MTEXT
  5
2B8
330
71
100
AcDbEntity
  8
1
 62
     2
100
AcDbMText
 10
-886.4870866244338
 20
-1075.289635724794
 30
0.0
 40
1.8
 41
0.0
 71
     1
 72
     1
  1
date
  7
CONVERTER_11
 73
     1
 44
1.32052821128451
  0
MTEXT
  5
2B9
330
71
100
AcDbEntity
  8
1
 62
     2
100
AcDbMText
 10
-916.3134828695067
 20
-1083.789635724794
 30
0.0
 40
1.8
 41
0.0
 71
     1
 72
     1
  1
document-type
  7
CONVERTER_11
 73
     1
 44
1.20048019207683
  0
TEXT
  5
2BA
330
71
100
AcDbEntity
  8
1
 62
     3
100
AcDbText
 10
-916.3134828695067
 20
-1089.989635724794
 30
0.0
 40
2.5
  1
TECDOC 2D-PRODUCTDRAWING
 41
0.81
  7
CONVERTER_12
100
AcDbText
  0
MTEXT
  5
2BC
330
71
100
AcDbEntity
  8
1
 62
     2
100
AcDbMText
 10
-944.1134828695067
 20
-1075.289635724794
 30
0.0
 40
1.8
 41
0.0
 71
     1
 72
     1
  1
document-No. / RI
  7
CONVERTER_13
 73
     1
 44
1.32052821128451
  0
TEXT
  5
2BD
330
71
100
AcDbEntity
  8
1
 62
     7
100
AcDbText
 10
-944.1134828695067
 20
-1081.489635724794
 30
0.0
 40
2.5
  1
00582184
 41
0.81
  7
CONVERTER_12
100
AcDbText
  0
MTEXT
  5
2BF
330
71
100
AcDbEntity
  8
1
 62
     3
100
AcDbMText
 10
-856.5278824835945
 20
-1081.489635724794
 30
0.0
 40
2.5
 41
0.0
 71
     8
 72
     1
  1
1:1
  7
CONVERTER_14
 73
     1
 44
1.32052821128451
  0
MTEXT
  5
2C0
330
71
100
AcDbEntity
  8
1
 62
     2
100
AcDbMText
 10
-859.887086624434
 20
-1075.289635724794
 30
0.0
 40
1.8
 41
0.0
 71
     1
 72
     1
  1
scale
  7
CONVERTER_11
 73
     1
 44
1.20048019207683
  0
MTEXT
  5
2C1
330
71
100
AcDbEntity
  8
1
 62
     2
100
AcDbMText
 10
-944.1134828695067
 20
-1083.789635724794
 30
0.0
 40
1.8
 41
0.0
 71
     1
 72
     1
  1
ident.-No.
  7
CONVERTER_11
 73
     1
 44
1.20048019207683
  0
TEXT
  5
2C2
330
71
100
AcDbEntity
  8
1
 62
     7
100
AcDbText
 10
-943.7134828695071
 20
-1089.989635724794
 30
0.0
 40
2.5
  1
3213975
 41
0.81
  7
CONVERTER_12
100
AcDbText
  0
MTEXT
  5
2C3
330
71
100
AcDbEntity
  8
1
 62
     2
100
AcDbMText
 10
-1016.051497594554
 20
-1087.039635724794
 30
0.0
 40
2.0
 41
0.0
 71
     5
 72
     1
  1
General Information\P- Simplified representation\P- Document excluded from change process\P- Linear dimensions [mm]
  7
CONVERTER_11
 73
     1
 44
1.20048019207683
  0
MTEXT
  5
2C4
330
71
100
AcDbEntity
  8
1
 62
     7
100
AcDbMText
 10
-849.5686783427577
 20
-1024.789635724792
 30
0.0
 40
3.5
 41
0.0
 71
     5
 72
     1
  1
C
  7
CONVERTER_11
 73
     1
 44
1.20048019207683
  0
MTEXT
  5
2C5
330
71
100
AcDbEntity
  8
1
 62
     7
100
AcDbMText
 10
-849.5686783427577
 20
-922.2896357247939
 30
0.0
 40
3.5
 41
0.0
 71
     5
 72
     1
  1
A
  7
CONVERTER_11
 73
     1
 44
1.20048019207683
  0
MTEXT
  5
2C6
330
71
100
AcDbEntity
  8
1
 62
     7
100
AcDbMText
 10
-849.5686783427577
 20
-974.789635724792
 30
0.0
 40
3.5
 41
0.0
 71
     5
 72
     1
  1
B
  7
CONVERTER_11
 73
     1
 44
1.20048019207683
  0
MTEXT
  5
2C7
330
71
100
AcDbEntity
  8
1
 62
     7
100
AcDbMText
 10
-849.5686783427577
 20
-1077.289635724794
 30
0.0
 40
3.5
 41
0.0
 71
     5
 72
     1
  1
D
  7
CONVERTER_11
 73
     1
 44
1.20048019207683
  0
MTEXT
  5
2C8
330
71
100
AcDbEntity
  8
1
 62
     7
100
AcDbMText
 10
-1119.818678342756
 20
-1102.289635724794
 30
0.0
 40
3.5
 41
0.0
 71
     5
 72
     1
  1
1
  7
CONVERTER_11
 73
     1
 44
1.20048019207683
  0
MTEXT
  5
2C9
330
71
100
AcDbEntity
  8
1
 62
     7
100
AcDbMText
 10
-1070.568678342757
 20
-1102.289635724794
 30
0.0
 40
3.5
 41
0.0
 71
     5
 72
     1
  1
2
  7
CONVERTER_11
 73
     1
 44
1.20048019207683
  0
MTEXT
  5
2CA
330
71
100
AcDbEntity
  8
1
 62
     7
100
AcDbMText
 10
-1020.568678342757
 20
-1102.289635724794
 30
0.0
 40
3.5
 41
0.0
 71
     5
 72
     1
  1
3
  7
CONVERTER_11
 73
     1
 44
1.20048019207683
  0
MTEXT
  5
2CB
330
71
100
AcDbEntity
  8
1
 62
     7
100
AcDbMText
 10
-970.5686783427568
 20
-1102.289635724794
 30
0.0
 40
3.5
 41
0.0
 71
     5
 72
     1
  1
4
  7
CONVERTER_11
 73
     1
 44
1.20048019207683
  0
MTEXT
  5
2CC
330
71
100
AcDbEntity
  8
1
 62
     7
100
AcDbMText
 10
-920.5686783427567
 20
-1102.289635724794
 30
0.0
 40
3.5
 41
0.0
 71
     5
 72
     1
  1
5
  7
CONVERTER_11
 73
     1
 44
1.20048019207683
  0
MTEXT
  5
2CD
330
71
100
AcDbEntity
  8
1
 62
     7
100
AcDbMText
 10
-871.3186783427575
 20
-1102.289635724794
 30
0.0
 40
3.5
 41
0.0
 71
     5
 72
     1
  1
6
  7
CONVERTER_11
 73
     1
 44
1.20048019207683
  0
MTEXT
  5
2CE
330
71
100
AcDbEntity
  8
1
 62
     7
100
AcDbMText
 10
-1141.568678342756
 20
-922.2896357247939
 30
0.0
 40
3.5
 41
0.0
 71
     5
 72
     1
  1
A
  7
CONVERTER_11
 73
     1
 44
1.20048019207683
  0
MTEXT
  5
2CF
330
71
100
AcDbEntity
  8
1
 62
     7
100
AcDbMText
 10
-1141.568678342756
 20
-974.7896357247939
 30
0.0
 40
3.5
 41
0.0
 71
     5
 72
     1
  1
B
  7
CONVERTER_11
 73
     1
 44
1.20048019207683
  0
MTEXT
  5
2D0
330
71
100
AcDbEntity
  8
1
 62
     7
100
AcDbMText
 10
-1141.568678342756
 20
-1024.789635724794
 30
0.0
 40
3.5
 41
0.0
 71
     5
 72
     1
  1
C
  7
CONVERTER_11
 73
     1
 44
1.20048019207683
  0
MTEXT
  5
2D1
330
71
100
AcDbEntity
  8
1
 62
     7
100
AcDbMText
 10
-1141.568678342756
 20
-1077.289635724794
 30
0.0
 40
3.5
 41
0.0
 71
     5
 72
     1
  1
D
  7
CONVERTER_11
 73
     1
 44
1.20048019207683
  0
MTEXT
  5
2D2
330
71
100
AcDbEntity
  8
1
 62
     3
100
AcDbMText
 10
-955.4134828695069
 20
-1078.664635724794
 30
0.0
 40
2.5
 41
0.0
 71
     5
 72
     1
  1
DIN A4
  7
CONVERTER_11
 73
     1
 44
1.20048019207683
  0
MTEXT
  5
2D3
330
71
100
AcDbEntity
  8
1
 62
     2
100
AcDbMText
 10
-944.2134828695068
 20
-1092.289635724794
 30
0.0
 40
1.8
 41
0.0
 71
     1
 72
     1
  1
description
  7
CONVERTER_11
 73
     1
 44
1.20048019207683
  0
MTEXT
  5
2D4
330
71
100
AcDbEntity
  8
1
 62
     7
100
AcDbMText
 10
-898.6410806061313
 20
-1096.539635724794
 30
0.0
 40
3.0
 41
0.0
 71
     5
 72
     1
  1
D-PTI/3
  7
CONVERTER_12
 73
     1
 44
1.20048019207683
  0
TEXT
  5
2D5
330
71
100
AcDbEntity
  8
1
 62
     2
100
AcDbText
 10
-957.1781740596932
 20
-1098.539635724794
 30
0.0
 40
1.8
  1
1
 41
0.9
  7
CONVERTER_11
100
AcDbText
  0
TEXT
  5
2D6
330
71
100
AcDbEntity
  8
1
 62
     2
100
AcDbText
 10
-971.9672178991648
 20
-1098.588884378596
 30
0.0
 40
1.8
  1
1
 41
0.9
  7
CONVERTER_11
100
AcDbText
  0
TEXT
  5
2D7
330
71
100
AcDbEntity
  8
1
 62
     2
100
AcDbText
 10
-980.6134828695067
 20
-1098.548652939786
 30
0.0
 40
1.8
  1
page
 41
0.9
  7
CONVERTER_11
100
AcDbText
  0
TEXT
  5
2D8
330
71
100
AcDbEntity
  8
1
 62
     2
100
AcDbText
 10
-962.4134828695069
 20
-1098.548652939786
 30
0.0
 40
1.8
  1
of
 41
0.9
  7
CONVERTER_11
100
AcDbText
  0
MTEXT
  5
2D9
330
71
100
AcDbEntity
  8
1
 62
     3
100
AcDbMText
 10
-956.2105007178968
 20
-912.9983275694951
 30
0.0
 40
1.8
 41
0.0
 71
     7
 72
     1
  3
Transfer or duplication of this document as well as the utilisation or\Pcommunication of its content are not permitted unless express consent\Pis granted. Violations give rise to claims for damages. All rights reserved\Pin case of patent, utility mo
  1
del or design patent registrations.
  7
CONVERTER_11
 73
     1
 44
0.99639855942377
  0
MTEXT
  5
2DA
330
71
100
AcDbEntity
  8
1
 62
     3
100
AcDbMText
 10
-1139.063610556685
 20
-912.9983275694951
 30
0.0
 40
1.8
 41
0.0
 71
     7
 72
     1
  3
Weitergabe sowie Vervielf\U+00e4ltigung dieses Dokuments, Verwertung und \PMitteilung seines Inhalts sind verboten, soweit nicht ausdr\U+00fccklich gestattet. \PZuwiderhandlungen verpflichten zu Schadenersatz. Alle Rechte f\U+00fcr den Fall\Pder Pat
  1
ent-, Gebrauchsmuster- oder Designeintragung vorbehalten.
  7
CONVERTER_11
 73
     1
 44
0.99639855942377
  0
HATCH
  5
2DB
330
71
100
AcDbEntity
  8
1
  6
Continuous
 62
     2
100
AcDbHatch
 10
0.0
 20
0.0
 30
0.0
210
0.0
220
0.0
230
1.0
  2
_USER
 70
     0
 71
     1
 91
        1
 92
        1
 93
       14
 72
     2
 10
-969.372253593584
 20
-1090.969230962872
 40
1.205656168390927
 50
164.9381082228846
 51
195.0618917771153
 73
     1
 72
     2
 10
-968.9531257501212
 20
-1090.856440600838
 40
1.639695123939306
 50
195.061891777079
 51
275.1581447696414
 73
     1
 72
     2
 10
-969.2419818448572
 20
-1087.656550017616
 40
4.852596863497943
 50
275.1581447696255
 51
285.9799912583526
 73
     1
 72
     1
 10
-967.9060539277393
 20
-1092.321632323417
 11
-967.9060539277393
 21
-1091.449115316614
 72
     2
 10
-969.0841089697642
 20
-1089.558764597464
 40
2.227384008972611
 50
58.0690910500434
 51
71.5519238818654
 73
     0
 72
     2
 10
-968.6659412361034
 20
-1090.812310373501
 40
0.9059297849846357
 50
71.55192388183757
 51
113.3722778881328
 73
     0
 72
     2
 10
-968.8223812688054
 20
-1091.174302392211
 40
0.5115800601944485
 50
113.3722778881823
 51
151.4785267423843
 73
     0
 72
     2
 10
-968.4450240107251
 20
-1090.969230962872
 40
0.9410597353329787
 50
151.478526742305
 51
208.521473257695
 73
     0
 72
     2
 10
-968.8223812688054
 20
-1090.764159533533
 40
0.5115800601943187
 50
208.5214732576381
 51
246.6277221117773
 73
     0
 72
     2
 10
-968.6659412361034
 20
-1091.126151552244
 40
0.9059297849856105
 50
246.6277221118672
 51
288.4480761181443
 73
     0
 72
     2
 10
-969.0841089697642
 20
-1092.379697328281
 40
2.227384008973646
 50
288.4480761181272
 51
301.9309089499566
 73
     0
 72
     1
 10
-967.9060539277393
 20
-1090.489346609131
 11
-967.9060539277393
 21
-1089.616829602327
 72
     2
 10
-969.2419818448572
 20
-1094.281911908128
 40
4.852596863498158
 50
74.02000874164733
 51
84.8418552303745
 73
     1
 72
     2
 10
-968.9531257501212
 20
-1091.082021324907
 40
1.639695123940224
 50
84.84185523036146
 51
164.9381082228903
 73
     1
 97
       14
330
2B0
330
1C9
330
27F
330
2AF
330
280
330
281
330
2AE
330
2AD
330
2AC
330
1CA
330
282
330
283
330
284
330
285
 75
     1
 76
     0
 52
45.0
 41
0.1
 77
     0
 78
     1
 53
45.0
 43
0.0
 44
0.0
 45
-0.0707106781186548
 46
0.0707106781186548
 79
     0
 98
        1
 10
0.0
 20
0.0
  0
HATCH
  5
2DC
330
71
100
AcDbEntity
  8
1
  6
Continuous
 62
     2
100
AcDbHatch
 10
0.0
 20
0.0
 30
0.0
210
0.0
220
0.0
230
1.0
  2
_USER
 70
     0
 71
     1
 91
        1
 92
        1
 93
       14
 72
     2
 10
-969.372253593584
 20
-1090.969230962872
 40
1.205656168390927
 50
164.9381082228846
 51
195.0618917771153
 73
     1
 72
     2
 10
-968.9531257501212
 20
-1090.856440600838
 40
1.639695123939306
 50
195.061891777079
 51
275.1581447696414
 73
     1
 72
     2
 10
-969.2419818448572
 20
-1087.656550017616
 40
4.852596863497943
 50
275.1581447696255
 51
285.9799912583526
 73
     1
 72
     1
 10
-967.9060539277393
 20
-1092.321632323417
 11
-967.9060539277393
 21
-1091.449115316614
 72
     2
 10
-969.0841089697642
 20
-1089.558764597464
 40
2.227384008972611
 50
58.0690910500434
 51
71.5519238818654
 73
     0
 72
     2
 10
-968.6659412361034
 20
-1090.812310373501
 40
0.9059297849846357
 50
71.55192388183757
 51
113.3722778881328
 73
     0
 72
     2
 10
-968.8223812688054
 20
-1091.174302392211
 40
0.5115800601944485
 50
113.3722778881823
 51
151.4785267423843
 73
     0
 72
     2
 10
-968.4450240107251
 20
-1090.969230962872
 40
0.9410597353329787
 50
151.478526742305
 51
208.521473257695
 73
     0
 72
     2
 10
-968.8223812688054
 20
-1090.764159533533
 40
0.5115800601943187
 50
208.5214732576381
 51
246.6277221117773
 73
     0
 72
     2
 10
-968.6659412361034
 20
-1091.126151552244
 40
0.9059297849856105
 50
246.6277221118672
 51
288.4480761181443
 73
     0
 72
     2
 10
-969.0841089697642
 20
-1092.379697328281
 40
2.227384008973646
 50
288.4480761181272
 51
301.9309089499566
 73
     0
 72
     1
 10
-967.9060539277393
 20
-1090.489346609131
 11
-967.9060539277393
 21
-1089.616829602327
 72
     2
 10
-969.2419818448572
 20
-1094.281911908128
 40
4.852596863498158
 50
74.02000874164733
 51
84.8418552303745
 73
     1
 72
     2
 10
-968.9531257501212
 20
-1091.082021324907
 40
1.639695123940224
 50
84.84185523036146
 51
164.9381082228903
 73
     1
 97
       14
330
2B0
330
1C9
330
27F
330
2AF
330
280
330
281
330
2AE
330
2AD
330
2AC
330
1CA
330
282
330
283
330
284
330
285
 75
     1
 76
     0
 52
45.0
 41
0.1
 77
     0
 78
     1
 53
45.0
 43
0.0
 44
0.0
 45
-0.0707106781186548
 46
0.0707106781186548
 79
     0
 98
        1
 10
0.0
 20
0.0
  0
HATCH
  5
2DD
330
71
100
AcDbEntity
  8
1
  6
Continuous
 62
     2
100
AcDbHatch
 10
0.0
 20
0.0
 30
0.0
210
0.0
220
0.0
230
1.0
  2
_USER
 70
     0
 71
     1
 91
        1
 92
        1
 93
       18
 72
     2
 10
-952.8504242708683
 20
-1091.082021324907
 40
1.639695123939873
 50
90.0
 51
164.9381082228985
 73
     1
 72
     2
 10
-953.2695521143299
 20
-1090.969230962872
 40
1.205656168392903
 50
164.9381082229099
 51
195.0618917771318
 73
     1
 72
     2
 10
-952.8504242708683
 20
-1090.856440600838
 40
1.639695123940421
 50
195.0618917771015
 51
275.1581447696774
 73
     1
 72
     2
 10
-953.1392803656041
 20
-1087.656550017616
 40
4.852596863499167
 50
275.1581447696363
 51
285.9799912583397
 73
     1
 72
     1
 10
-951.8033524484874
 20
-1092.321632323417
 11
-951.8033524484874
 21
-1091.449115316614
 72
     2
 10
-952.9814074905113
 20
-1089.558764597464
 40
2.227384008973474
 50
58.06909105006579
 51
71.55192388187278
 73
     0
 72
     2
 10
-952.5632397568494
 20
-1090.812310373501
 40
0.9059297849850417
 50
71.55192388192397
 51
113.3722778881922
 73
     0
 72
     2
 10
-952.7196797895525
 20
-1091.174302392211
 40
0.5115800601958815
 50
113.3722778881707
 51
151.4785267423556
 73
     0
 72
     2
 10
-952.3423225314712
 20
-1090.969230962872
 40
0.9410597353348766
 50
151.4785267423192
 51
208.5214732576322
 73
     0
 72
     2
 10
-952.7196797895525
 20
-1090.764159533533
 40
0.5115800601937612
 50
208.5214732575773
 51
250.6628567804924
 73
     0
 72
     2
 10
-952.5730097914488
 20
-1091.182114513916
 40
0.9545230068260935
 50
250.6628567805599
 51
270.0
 73
     0
 72
     1
 10
-952.5730097914488
 20
-1090.22759150709
 11
-951.4693704918807
 21
-1090.22759150709
 72
     1
 10
-951.4693704918807
 20
-1090.22759150709
 11
-951.4693704918807
 21
-1092.496135724778
 72
     1
 10
-951.4693704918807
 20
-1092.496135724778
 11
-950.276577789713
 21
-1092.496135724778
 72
     1
 10
-950.276577789713
 20
-1092.496135724778
 11
-950.276577789713
 21
-1090.22759150709
 72
     1
 10
-950.276577789713
 20
-1090.22759150709
 11
-949.4654787522396
 21
-1090.22759150709
 72
     1
 10
-949.4654787522396
 20
-1090.22759150709
 11
-949.4654787522396
 21
-1089.442326200967
 72
     1
 10
-949.4654787522396
 20
-1089.442326200967
 11
-952.8504242708683
 21
-1089.442326200967
 97
       18
330
22F
330
22E
330
22D
330
22C
330
231
330
1CB
330
2A9
330
28A
330
2A8
330
28B
330
2A7
330
2A6
330
1CC
330
2A5
330
2A4
330
28C
330
28D
330
230
 75
     1
 76
     0
 52
45.0
 41
0.1
 77
     0
 78
     1
 53
45.0
 43
0.0
 44
0.0
 45
-0.0707106781186548
 46
0.0707106781186548
 79
     0
 98
        1
 10
0.0
 20
0.0
  0
HATCH
  5
2DE
330
71
100
AcDbEntity
  8
1
  6
Continuous
 62
     2
100
AcDbHatch
 10
0.0
 20
0.0
 30
0.0
210
0.0
220
0.0
230
1.0
  2
_USER
 70
     0
 71
     1
 91
        1
 92
        1
 93
       18
 72
     2
 10
-952.8504242708683
 20
-1091.082021324907
 40
1.639695123939873
 50
90.0
 51
164.9381082228985
 73
     1
 72
     2
 10
-953.2695521143299
 20
-1090.969230962872
 40
1.205656168392903
 50
164.9381082229099
 51
195.0618917771318
 73
     1
 72
     2
 10
-952.8504242708683
 20
-1090.856440600838
 40
1.639695123940421
 50
195.0618917771015
 51
275.1581447696774
 73
     1
 72
     2
 10
-953.1392803656041
 20
-1087.656550017616
 40
4.852596863499167
 50
275.1581447696363
 51
285.9799912583397
 73
     1
 72
     1
 10
-951.8033524484874
 20
-1092.321632323417
 11
-951.8033524484874
 21
-1091.449115316614
 72
     2
 10
-952.9814074905113
 20
-1089.558764597464
 40
2.227384008973474
 50
58.06909105006579
 51
71.55192388187278
 73
     0
 72
     2
 10
-952.5632397568494
 20
-1090.812310373501
 40
0.9059297849850417
 50
71.55192388192397
 51
113.3722778881922
 73
     0
 72
     2
 10
-952.7196797895525
 20
-1091.174302392211
 40
0.5115800601958815
 50
113.3722778881707
 51
151.4785267423556
 73
     0
 72
     2
 10
-952.3423225314712
 20
-1090.969230962872
 40
0.9410597353348766
 50
151.4785267423192
 51
208.5214732576322
 73
     0
 72
     2
 10
-952.7196797895525
 20
-1090.764159533533
 40
0.5115800601937612
 50
208.5214732575773
 51
250.6628567804924
 73
     0
 72
     2
 10
-952.5730097914488
 20
-1091.182114513916
 40
0.9545230068260935
 50
250.6628567805599
 51
270.0
 73
     0
 72
     1
 10
-952.5730097914488
 20
-1090.22759150709
 11
-951.4693704918807
 21
-1090.22759150709
 72
     1
 10
-951.4693704918807
 20
-1090.22759150709
 11
-951.4693704918807
 21
-1092.496135724778
 72
     1
 10
-951.4693704918807
 20
-1092.496135724778
 11
-950.276577789713
 21
-1092.496135724778
 72
     1
 10
-950.276577789713
 20
-1092.496135724778
 11
-950.276577789713
 21
-1090.22759150709
 72
     1
 10
-950.276577789713
 20
-1090.22759150709
 11
-949.4654787522396
 21
-1090.22759150709
 72
     1
 10
-949.4654787522396
 20
-1090.22759150709
 11
-949.4654787522396
 21
-1089.442326200967
 72
     1
 10
-949.4654787522396
 20
-1089.442326200967
 11
-952.8504242708683
 21
-1089.442326200967
 97
       18
330
22F
330
22E
330
22D
330
22C
330
231
330
1CB
330
2A9
330
28A
330
2A8
330
28B
330
2A7
330
2A6
330
1CC
330
2A5
330
2A4
330
28C
330
28D
330
230
 75
     1
 76
     0
 52
45.0
 41
0.1
 77
     0
 78
     1
 53
45.0
 43
0.0
 44
0.0
 45
-0.0707106781186548
 46
0.0707106781186548
 79
     0
 98
        1
 10
0.0
 20
0.0
  0
HATCH
  5
2DF
330
71
100
AcDbEntity
  8
1
  6
Continuous
 62
     2
100
AcDbHatch
 10
0.0
 20
0.0
 30
0.0
210
0.0
220
0.0
230
1.0
  2
_USER
 70
     0
 71
     1
 91
        4
 92
        1
 93
        8
 72
     2
 10
-976.9525833675614
 20
-1086.507380340194
 40
0.424244615383941
 50
90.0
 51
180.0
 73
     1
 72
     1
 10
-977.3768279829442
 20
-1086.507380340194
 11
-977.3768279829442
 21
-1092.071891109394
 72
     2
 10
-976.9525833675614
 20
-1092.071891109394
 40
0.4242446153828041
 50
180.0
 51
270.0
 73
     1
 72
     1
 10
-976.9525833675614
 20
-1092.496135724778
 11
-971.4792712768445
 21
-1092.496135724778
 72
     2
 10
-971.4792712768445
 20
-1092.071891109394
 40
0.424244615383941
 50
270.0
 51
360.0
 73
     1
 72
     1
 10
-971.0550266614606
 20
-1092.071891109394
 11
-971.0550266614606
 21
-1086.507380340194
 72
     2
 10
-971.4792712768445
 20
-1086.507380340194
 40
0.424244615383941
 50
0.0
 51
90.0
 73
     1
 72
     1
 10
-971.4792712768445
 20
-1086.08313572481
 11
-976.9525833675614
 21
-1086.08313572481
 97
        8
330
29D
330
1FA
330
29C
330
1FB
330
293
330
1F8
330
29E
330
1F9
 92
       16
 93
        1
 72
     2
 10
-974.3329977170438
 20
-1088.82626256855
 40
0.4709789327785074
 50
0.0
 51
360.0
 73
     1
 97
        1
330
2B1
 92
       16
 93
        8
 72
     2
 10
-974.309182702371
 20
-1088.82626256855
 40
0.9118481501445116
 50
295.374008678171
 51
424.6259913218291
 73
     1
 72
     2
 10
-973.7831400042832
 20
-1087.717120968582
 40
0.3157169230768204
 50
115.3740086784052
 51
180.0
 73
     0
 72
     1
 10
-974.09885692736
 20
-1087.717120968582
 11
-974.09885692736
 21
-1087.111585680075
 72
     2
 10
-973.7831400042832
 20
-1087.111585680075
 40
0.3157169230760141
 50
180.0
 51
269.8110329574592
 73
     0
 72
     2
 10
-973.777523868973
 20
-1088.814420627644
 40
2.018561131933152
 50
269.8110329575842
 51
450.1889670424158
 73
     0
 72
     2
 10
-973.7831400042832
 20
-1090.517255575213
 40
0.3157169230768204
 50
90.18896704254082
 51
180.0
 73
     0
 72
     1
 10
-974.09885692736
 20
-1090.517255575213
 11
-974.09885692736
 21
-1089.935404168518
 72
     2
 10
-973.7831400042832
 20
-1089.935404168518
 40
0.3157169230761855
 50
180.0
 51
244.6259913216126
 73
     0
 97
        8
330
2AB
330
287
330
233
330
2AA
330
288
330
289
330
232
330
286
 92
       16
 93
       12
 72
     1
 10
-976.3586886908148
 20
-1091.783580169221
 11
-974.8828554298052
 21
-1091.783580169221
 72
     2
 10
-974.8828554298052
 20
-1091.467863246144
 40
0.3157169230771615
 50
270.0
 51
360.0
 73
     1
 72
     1
 10
-974.5671385067286
 20
-1091.467863246144
 11
-974.5671385067286
 21
-1089.937092314613
 72
     2
 10
-974.8828554298052
 20
-1089.937092314613
 40
0.315716923076593
 50
0.0
 51
64.80558935149101
 73
     1
 72
     2
 10
-974.3602709822302
 20
-1088.82626256855
 40
0.9118975235580125
 50
115.1944106485185
 51
244.8055893514816
 73
     0
 72
     2
 10
-974.8828554298052
 20
-1087.715432822487
 40
0.3157169230764803
 50
295.194410648509
 51
360.0
 73
     1
 72
     1
 10
-974.5671385067286
 20
-1087.715432822487
 11
-974.5671385067286
 21
-1087.111408203427
 72
     2
 10
-974.8828554298052
 20
-1087.111408203427
 40
0.315716923076593
 50
0.0
 51
90.0
 73
     1
 72
     1
 10
-974.8828554298052
 20
-1086.795691280351
 11
-976.3586886908148
 21
-1086.795691280351
 72
     2
 10
-976.3586886908148
 20
-1087.111408203427
 40
0.3157169230757972
 50
90.0
 51
180.0
 73
     1
 72
     1
 10
-976.6744056138905
 20
-1087.111408203427
 11
-976.6744056138905
 21
-1091.467863246144
 72
     2
 10
-976.3586886908148
 20
-1091.467863246144
 40
0.3157169230756836
 50
180.0
 51
270.0
 73
     1
 97
       12
330
1FF
330
290
330
1FE
330
2A1
330
1FD
330
2A0
330
291
330
292
330
1FC
330
29F
330
1F7
330
2A2
 75
     1
 76
     0
 52
45.0
 41
0.1
 77
     0
 78
     1
 53
45.0
 43
0.0
 44
0.0
 45
-0.0707106781186548
 46
0.0707106781186548
 79
     0
 98
        1
 10
0.0
 20
0.0
  0
HATCH
  5
2E0
330
71
100
AcDbEntity
  8
1
  6
Continuous
 62
     2
100
AcDbHatch
 10
0.0
 20
0.0
 30
0.0
210
0.0
220
0.0
230
1.0
  2
_USER
 70
     0
 71
     1
 91
        4
 92
        1
 93
        8
 72
     2
 10
-976.9525833675614
 20
-1086.507380340194
 40
0.424244615383941
 50
90.0
 51
180.0
 73
     1
 72
     1
 10
-977.3768279829442
 20
-1086.507380340194
 11
-977.3768279829442
 21
-1092.071891109394
 72
     2
 10
-976.9525833675614
 20
-1092.071891109394
 40
0.4242446153828041
 50
180.0
 51
270.0
 73
     1
 72
     1
 10
-976.9525833675614
 20
-1092.496135724778
 11
-971.4792712768445
 21
-1092.496135724778
 72
     2
 10
-971.4792712768445
 20
-1092.071891109394
 40
0.424244615383941
 50
270.0
 51
360.0
 73
     1
 72
     1
 10
-971.0550266614606
 20
-1092.071891109394
 11
-971.0550266614606
 21
-1086.507380340194
 72
     2
 10
-971.4792712768445
 20
-1086.507380340194
 40
0.424244615383941
 50
0.0
 51
90.0
 73
     1
 72
     1
 10
-971.4792712768445
 20
-1086.08313572481
 11
-976.9525833675614
 21
-1086.08313572481
 97
        8
330
29D
330
1FA
330
29C
330
1FB
330
293
330
1F8
330
29E
330
1F9
 92
       16
 93
        1
 72
     2
 10
-974.3329977170438
 20
-1088.82626256855
 40
0.4709789327785074
 50
0.0
 51
360.0
 73
     1
 97
        1
330
2B1
 92
       16
 93
        8
 72
     2
 10
-974.309182702371
 20
-1088.82626256855
 40
0.9118481501445116
 50
295.374008678171
 51
424.6259913218291
 73
     1
 72
     2
 10
-973.7831400042832
 20
-1087.717120968582
 40
0.3157169230768204
 50
115.3740086784052
 51
180.0
 73
     0
 72
     1
 10
-974.09885692736
 20
-1087.717120968582
 11
-974.09885692736
 21
-1087.111585680075
 72
     2
 10
-973.7831400042832
 20
-1087.111585680075
 40
0.3157169230760141
 50
180.0
 51
269.8110329574592
 73
     0
 72
     2
 10
-973.777523868973
 20
-1088.814420627644
 40
2.018561131933152
 50
269.8110329575842
 51
450.1889670424158
 73
     0
 72
     2
 10
-973.7831400042832
 20
-1090.517255575213
 40
0.3157169230768204
 50
90.18896704254082
 51
180.0
 73
     0
 72
     1
 10
-974.09885692736
 20
-1090.517255575213
 11
-974.09885692736
 21
-1089.935404168518
 72
     2
 10
-973.7831400042832
 20
-1089.935404168518
 40
0.3157169230761855
 50
180.0
 51
244.6259913216126
 73
     0
 97
        8
330
2AB
330
287
330
233
330
2AA
330
288
330
289
330
232
330
286
 92
       16
 93
       12
 72
     1
 10
-976.3586886908148
 20
-1091.783580169221
 11
-974.8828554298052
 21
-1091.783580169221
 72
     2
 10
-974.8828554298052
 20
-1091.467863246144
 40
0.3157169230771615
 50
270.0
 51
360.0
 73
     1
 72
     1
 10
-974.5671385067286
 20
-1091.467863246144
 11
-974.5671385067286
 21
-1089.937092314613
 72
     2
 10
-974.8828554298052
 20
-1089.937092314613
 40
0.315716923076593
 50
0.0
 51
64.80558935149101
 73
     1
 72
     2
 10
-974.3602709822302
 20
-1088.82626256855
 40
0.9118975235580125
 50
115.1944106485185
 51
244.8055893514816
 73
     0
 72
     2
 10
-974.8828554298052
 20
-1087.715432822487
 40
0.3157169230764803
 50
295.194410648509
 51
360.0
 73
     1
 72
     1
 10
-974.5671385067286
 20
-1087.715432822487
 11
-974.5671385067286
 21
-1087.111408203427
 72
     2
 10
-974.8828554298052
 20
-1087.111408203427
 40
0.315716923076593
 50
0.0
 51
90.0
 73
     1
 72
     1
 10
-974.8828554298052
 20
-1086.795691280351
 11
-976.3586886908148
 21
-1086.795691280351
 72
     2
 10
-976.3586886908148
 20
-1087.111408203427
 40
0.3157169230757972
 50
90.0
 51
180.0
 73
     1
 72
     1
 10
-976.6744056138905
 20
-1087.111408203427
 11
-976.6744056138905
 21
-1091.467863246144
 72
     2
 10
-976.3586886908148
 20
-1091.467863246144
 40
0.3157169230756836
 50
180.0
 51
270.0
 73
     1
 97
       12
330
1FF
330
290
330
1FE
330
2A1
330
1FD
330
2A0
330
291
330
292
330
1FC
330
29F
330
1F7
330
2A2
 75
     1
 76
     0
 52
45.0
 41
0.1
 77
     0
 78
     1
 53
45.0
 43
0.0
 44
0.0
 45
-0.0707106781186548
 46
0.0707106781186548
 79
     0
 98
        1
 10
0.0
 20
0.0
  0
HATCH
  5
2E1
330
71
100
AcDbEntity
  8
1
  6
Continuous
 62
     2
100
AcDbHatch
 10
0.0
 20
0.0
 30
0.0
210
0.0
220
0.0
230
1.0
  2
_USER
 70
     0
 71
     1
 91
        2
 92
        1
 93
       12
 72
     2
 10
-962.277419363572
 20
-1087.610040486698
 40
1.526904761905826
 50
90.0
 51
270.0
 73
     1
 72
     1
 10
-962.277419363572
 20
-1089.136945248603
 11
-959.127099639791
 21
-1089.136945248603
 72
     1
 10
-959.127099639791
 20
-1089.136945248603
 11
-959.127099639791
 21
-1088.438931643161
 72
     1
 10
-959.127099639791
 20
-1088.438931643161
 11
-960.4630274662187
 21
-1088.438931643161
 72
     1
 10
-960.4630274662187
 20
-1088.438931643161
 11
-960.4630274662187
 21
-1087.959047289419
 72
     1
 10
-960.4630274662187
 20
-1087.959047289419
 11
-959.127099639791
 21
-1087.959047289419
 72
     1
 10
-959.127099639791
 20
-1087.959047289419
 11
-959.127099639791
 21
-1087.261033683977
 72
     1
 10
-959.127099639791
 20
-1087.261033683977
 11
-960.4630274662187
 21
-1087.261033683977
 72
     1
 10
-960.4630274662187
 20
-1087.261033683977
 11
-960.4630274662187
 21
-1086.781149330235
 72
     1
 10
-960.4630274662187
 20
-1086.781149330235
 11
-959.127099639791
 21
-1086.781149330235
 72
     1
 10
-959.127099639791
 20
-1086.781149330235
 11
-959.127099639791
 21
-1086.083135724792
 72
     1
 10
-959.127099639791
 20
-1086.083135724792
 11
-962.277419363572
 21
-1086.083135724792
 97
       12
330
1EE
330
1E8
330
20F
330
20E
330
20D
330
20C
330
1E9
330
1EA
330
1EB
330
1EC
330
28E
330
1ED
 92
       16
 93
        4
 72
     2
 10
-961.8614073170605
 20
-1087.610040486698
 40
0.7717997786796852
 50
141.8795802028358
 51
218.1204197971642
 73
     1
 72
     2
 10
-962.0611473534068
 20
-1087.766771664818
 40
0.5179085730137529
 50
218.1204197971956
 51
321.8795802028121
 73
     1
 72
     2
 10
-962.260887389753
 20
-1087.610040486698
 40
0.7717997786796852
 50
321.8795802028358
 51
398.1204197971642
 73
     1
 72
     2
 10
-962.0611473534068
 20
-1087.453309308577
 40
0.517908573013281
 50
38.12041979710871
 51
141.8795802028835
 73
     1
 97
        4
330
29B
330
29A
330
295
330
294
 75
     1
 76
     0
 52
45.0
 41
0.1
 77
     0
 78
     1
 53
45.0
 43
0.0
 44
0.0
 45
-0.0707106781186548
 46
0.0707106781186548
 79
     0
 98
        1
 10
0.0
 20
0.0
  0
HATCH
  5
2E2
330
71
100
AcDbEntity
  8
1
  6
Continuous
 62
     2
100
AcDbHatch
 10
0.0
 20
0.0
 30
0.0
210
0.0
220
0.0
230
1.0
  2
_USER
 70
     0
 71
     1
 91
        2
 92
        1
 93
       12
 72
     2
 10
-962.277419363572
 20
-1087.610040486698
 40
1.526904761905826
 50
90.0
 51
270.0
 73
     1
 72
     1
 10
-962.277419363572
 20
-1089.136945248603
 11
-959.127099639791
 21
-1089.136945248603
 72
     1
 10
-959.127099639791
 20
-1089.136945248603
 11
-959.127099639791
 21
-1088.438931643161
 72
     1
 10
-959.127099639791
 20
-1088.438931643161
 11
-960.4630274662187
 21
-1088.438931643161
 72
     1
 10
-960.4630274662187
 20
-1088.438931643161
 11
-960.4630274662187
 21
-1087.959047289419
 72
     1
 10
-960.4630274662187
 20
-1087.959047289419
 11
-959.127099639791
 21
-1087.959047289419
 72
     1
 10
-959.127099639791
 20
-1087.959047289419
 11
-959.127099639791
 21
-1087.261033683977
 72
     1
 10
-959.127099639791
 20
-1087.261033683977
 11
-960.4630274662187
 21
-1087.261033683977
 72
     1
 10
-960.4630274662187
 20
-1087.261033683977
 11
-960.4630274662187
 21
-1086.781149330235
 72
     1
 10
-960.4630274662187
 20
-1086.781149330235
 11
-959.127099639791
 21
-1086.781149330235
 72
     1
 10
-959.127099639791
 20
-1086.781149330235
 11
-959.127099639791
 21
-1086.083135724792
 72
     1
 10
-959.127099639791
 20
-1086.083135724792
 11
-962.277419363572
 21
-1086.083135724792
 97
       12
330
1EE
330
1E8
330
20F
330
20E
330
20D
330
20C
330
1E9
330
1EA
330
1EB
330
1EC
330
28E
330
1ED
 92
       16
 93
        4
 72
     2
 10
-961.8614073170605
 20
-1087.610040486698
 40
0.7717997786796852
 50
141.8795802028358
 51
218.1204197971642
 73
     1
 72
     2
 10
-962.0611473534068
 20
-1087.766771664818
 40
0.5179085730137529
 50
218.1204197971956
 51
321.8795802028121
 73
     1
 72
     2
 10
-962.260887389753
 20
-1087.610040486698
 40
0.7717997786796852
 50
321.8795802028358
 51
398.1204197971642
 73
     1
 72
     2
 10
-962.0611473534068
 20
-1087.453309308577
 40
0.517908573013281
 50
38.12041979710871
 51
141.8795802028835
 73
     1
 97
        4
330
29B
330
29A
330
295
330
294
 75
     1
 76
     0
 52
45.0
 41
0.1
 77
     0
 78
     1
 53
45.0
 43
0.0
 44
0.0
 45
-0.0707106781186548
 46
0.0707106781186548
 79
     0
 98
        1
 10
0.0
 20
0.0
  0
HATCH
  5
2E3
330
71
100
AcDbEntity
  8
1
  6
Continuous
 62
     2
100
AcDbHatch
 10
0.0
 20
0.0
 30
0.0
210
0.0
220
0.0
230
1.0
  2
_USER
 70
     0
 71
     1
 91
        2
 92
        1
 93
        4
 72
     2
 10
-966.3030347260336
 20
-1090.969230962872
 40
1.458034083650935
 50
117.5481481756713
 51
242.4518518243493
 73
     1
 72
     2
 10
-966.0220948342003
 20
-1090.430655952569
 40
2.065479772208722
 50
242.4518518243441
 51
297.5481481756838
 73
     1
 72
     2
 10
-965.7411549423671
 20
-1090.969230962872
 40
1.458034083652521
 50
297.5481481756942
 51
422.4518518242851
 73
     1
 72
     2
 10
-966.0220948342003
 20
-1091.507805973175
 40
2.06547977220824
 50
62.45185182430162
 51
117.5481481756704
 73
     1
 97
        4
330
299
330
296
330
298
330
297
 92
       16
 93
        4
 72
     2
 10
-966.0220948342003
 20
-1090.812499784752
 40
0.5179085730136636
 50
38.1204197972034
 51
141.8795802028044
 73
     1
 72
     2
 10
-965.8223547978542
 20
-1090.969230962872
 40
0.7717997786795062
 50
141.8795802028254
 51
218.1204197971746
 73
     1
 72
     2
 10
-966.0220948342003
 20
-1091.125962140992
 40
0.5179085730137529
 50
218.1204197971956
 51
321.8795802027966
 73
     1
 72
     2
 10
-966.2218348705467
 20
-1090.969230962872
 40
0.7717997786796852
 50
321.8795802028358
 51
398.1204197971642
 73
     1
 97
        4
330
27C
330
27D
330
27E
330
27B
 75
     1
 76
     0
 52
45.0
 41
0.1
 77
     0
 78
     1
 53
45.0
 43
0.0
 44
0.0
 45
-0.0707106781186548
 46
0.0707106781186548
 79
     0
 98
        1
 10
0.0
 20
0.0
  0
HATCH
  5
2E4
330
71
100
AcDbEntity
  8
1
  6
Continuous
 62
     2
100
AcDbHatch
 10
0.0
 20
0.0
 30
0.0
210
0.0
220
0.0
230
1.0
  2
_USER
 70
     0
 71
     1
 91
        2
 92
        1
 93
        4
 72
     2
 10
-966.3030347260336
 20
-1090.969230962872
 40
1.458034083650935
 50
117.5481481756713
 51
242.4518518243493
 73
     1
 72
     2
 10
-966.0220948342003
 20
-1090.430655952569
 40
2.065479772208722
 50
242.4518518243441
 51
297.5481481756838
 73
     1
 72
     2
 10
-965.7411549423671
 20
-1090.969230962872
 40
1.458034083652521
 50
297.5481481756942
 51
422.4518518242851
 73
     1
 72
     2
 10
-966.0220948342003
 20
-1091.507805973175
 40
2.06547977220824
 50
62.45185182430162
 51
117.5481481756704
 73
     1
 97
        4
330
299
330
296
330
298
330
297
 92
       16
 93
        4
 72
     2
 10
-966.0220948342003
 20
-1090.812499784752
 40
0.5179085730136636
 50
38.1204197972034
 51
141.8795802028044
 73
     1
 72
     2
 10
-965.8223547978542
 20
-1090.969230962872
 40
0.7717997786795062
 50
141.8795802028254
 51
218.1204197971746
 73
     1
 72
     2
 10
-966.0220948342003
 20
-1091.125962140992
 40
0.5179085730137529
 50
218.1204197971956
 51
321.8795802027966
 73
     1
 72
     2
 10
-966.2218348705467
 20
-1090.969230962872
 40
0.7717997786796852
 50
321.8795802028358
 51
398.1204197971642
 73
     1
 97
        4
330
27C
330
27D
330
27E
330
27B
 75
     1
 76
     0
 52
45.0
 41
0.1
 77
     0
 78
     1
 53
45.0
 43
0.0
 44
0.0
 45
-0.0707106781186548
 46
0.0707106781186548
 79
     0
 98
        1
 10
0.0
 20
0.0
  0
HATCH
  5
2E5
330
71
100
AcDbEntity
  8
1
  6
Continuous
 62
     2
100
AcDbHatch
 10
0.0
 20
0.0
 30
0.0
210
0.0
220
0.0
230
1.0
  2
_USER
 70
     0
 71
     1
 91
        2
 92
        1
 93
        6
 72
     1
 10
-970.5779095805938
 20
-1086.083135724792
 11
-970.5779095805938
 21
-1089.136945248603
 72
     1
 10
-970.5779095805938
 20
-1089.136945248603
 11
-969.3374051703397
 21
-1089.136945248603
 72
     1
 10
-969.3374051703397
 20
-1089.136945248603
 11
-969.3374051703397
 21
-1088.19386700746
 72
     1
 10
-969.3374051703397
 20
-1088.19386700746
 11
-968.5786375825594
 21
-1088.19386700746
 72
     2
 10
-968.5786375825594
 20
-1087.138501366126
 40
1.055365641333992
 50
270.0
 51
450.0
 73
     1
 72
     1
 10
-968.5786375825594
 20
-1086.083135724792
 11
-970.5779095805938
 21
-1086.083135724792
 97
        6
330
2A3
330
200
330
1F6
330
1F5
330
202
330
201
 92
       16
 93
        4
 72
     1
 10
-969.0201101087978
 20
-1086.746241570232
 11
-969.3374051703397
 21
-1086.746241570232
 72
     1
 10
-969.3374051703397
 20
-1086.746241570232
 11
-969.3374051703397
 21
-1087.451969219575
 72
     1
 10
-969.3374051703397
 20
-1087.451969219575
 11
-969.0201101087978
 21
-1087.451969219575
 72
     2
 10
-969.0201101087978
 20
-1087.099105394903
 40
0.3528638246718856
 50
270.0
 51
450.0
 73
     1
 97
        4
330
203
330
1F4
330
204
330
28F
 75
     1
 76
     0
 52
45.0
 41
0.1
 77
     0
 78
     1
 53
45.0
 43
0.0
 44
0.0
 45
-0.0707106781186548
 46
0.0707106781186548
 79
     0
 98
        1
 10
0.0
 20
0.0
  0
HATCH
  5
2E6
330
71
100
AcDbEntity
  8
1
  6
Continuous
 62
     2
100
AcDbHatch
 10
0.0
 20
0.0
 30
0.0
210
0.0
220
0.0
230
1.0
  2
_USER
 70
     0
 71
     1
 91
        2
 92
        1
 93
        6
 72
     1
 10
-970.5779095805938
 20
-1086.083135724792
 11
-970.5779095805938
 21
-1089.136945248603
 72
     1
 10
-970.5779095805938
 20
-1089.136945248603
 11
-969.3374051703397
 21
-1089.136945248603
 72
     1
 10
-969.3374051703397
 20
-1089.136945248603
 11
-969.3374051703397
 21
-1088.19386700746
 72
     1
 10
-969.3374051703397
 20
-1088.19386700746
 11
-968.5786375825594
 21
-1088.19386700746
 72
     2
 10
-968.5786375825594
 20
-1087.138501366126
 40
1.055365641333992
 50
270.0
 51
450.0
 73
     1
 72
     1
 10
-968.5786375825594
 20
-1086.083135724792
 11
-970.5779095805938
 21
-1086.083135724792
 97
        6
330
2A3
330
200
330
1F6
330
1F5
330
202
330
201
 92
       16
 93
        4
 72
     1
 10
-969.0201101087978
 20
-1086.746241570232
 11
-969.3374051703397
 21
-1086.746241570232
 72
     1
 10
-969.3374051703397
 20
-1086.746241570232
 11
-969.3374051703397
 21
-1087.451969219575
 72
     1
 10
-969.3374051703397
 20
-1087.451969219575
 11
-969.0201101087978
 21
-1087.451969219575
 72
     2
 10
-969.0201101087978
 20
-1087.099105394903
 40
0.3528638246718856
 50
270.0
 51
450.0
 73
     1
 97
        4
330
203
330
1F4
330
204
330
28F
 75
     1
 76
     0
 52
45.0
 41
0.1
 77
     0
 78
     1
 53
45.0
 43
0.0
 44
0.0
 45
-0.0707106781186548
 46
0.0707106781186548
 79
     0
 98
        1
 10
0.0
 20
0.0
  0
HATCH
  5
2E7
330
71
100
AcDbEntity
  8
1
  6
Continuous
 62
     2
100
AcDbHatch
 10
0.0
 20
0.0
 30
0.0
210
0.0
220
0.0
230
1.0
  2
_USER
 70
     0
 71
     1
 91
        1
 92
        1
 93
       12
 72
     1
 10
-950.9636263861606
 20
-1086.083135724792
 11
-949.5609021684133
 21
-1086.083135724792
 72
     1
 10
-949.5609021684133
 20
-1086.083135724792
 11
-950.8634317991799
 21
-1087.556086254828
 72
     1
 10
-950.8634317991799
 20
-1087.556086254828
 11
-949.4654787522396
 21
-1089.136945248603
 72
     1
 10
-949.4654787522396
 20
-1089.136945248603
 11
-950.8682029699879
 21
-1089.136945248603
 72
     1
 10
-950.8682029699879
 20
-1089.136945248603
 11
-951.5647939080534
 21
-1088.34921346331
 72
     1
 10
-951.5647939080534
 20
-1088.34921346331
 11
-952.2613848461191
 21
-1089.136945248603
 72
     1
 10
-952.2613848461191
 20
-1089.136945248603
 11
-953.6641090638673
 21
-1089.136945248603
 72
     1
 10
-953.6641090638673
 20
-1089.136945248603
 11
-952.266156016927
 21
-1087.556086254828
 72
     1
 10
-952.266156016927
 20
-1087.556086254828
 11
-953.5686856476946
 21
-1086.083135724792
 72
     1
 10
-953.5686856476946
 20
-1086.083135724792
 11
-952.1659614299452
 21
-1086.083135724792
 72
     1
 10
-952.1659614299452
 20
-1086.083135724792
 11
-951.5647939080534
 21
-1086.762959046348
 72
     1
 10
-951.5647939080534
 20
-1086.762959046348
 11
-950.9636263861606
 21
-1086.083135724792
 97
       12
330
1CF
330
228
330
227
330
226
330
225
330
1D0
330
1D1
330
1CD
330
1CE
330
22B
330
22A
330
229
 75
     1
 76
     0
 52
45.0
 41
0.1
 77
     0
 78
     1
 53
45.0
 43
0.0
 44
0.0
 45
-0.0707106781186548
 46
0.0707106781186548
 79
     0
 98
        1
 10
0.0
 20
0.0
  0
HATCH
  5
2E8
330
71
100
AcDbEntity
  8
1
  6
Continuous
 62
     2
100
AcDbHatch
 10
0.0
 20
0.0
 30
0.0
210
0.0
220
0.0
230
1.0
  2
_USER
 70
     0
 71
     1
 91
        1
 92
        1
 93
       12
 72
     1
 10
-950.9636263861606
 20
-1086.083135724792
 11
-949.5609021684133
 21
-1086.083135724792
 72
     1
 10
-949.5609021684133
 20
-1086.083135724792
 11
-950.8634317991799
 21
-1087.556086254828
 72
     1
 10
-950.8634317991799
 20
-1087.556086254828
 11
-949.4654787522396
 21
-1089.136945248603
 72
     1
 10
-949.4654787522396
 20
-1089.136945248603
 11
-950.8682029699879
 21
-1089.136945248603
 72
     1
 10
-950.8682029699879
 20
-1089.136945248603
 11
-951.5647939080534
 21
-1088.34921346331
 72
     1
 10
-951.5647939080534
 20
-1088.34921346331
 11
-952.2613848461191
 21
-1089.136945248603
 72
     1
 10
-952.2613848461191
 20
-1089.136945248603
 11
-953.6641090638673
 21
-1089.136945248603
 72
     1
 10
-953.6641090638673
 20
-1089.136945248603
 11
-952.266156016927
 21
-1087.556086254828
 72
     1
 10
-952.266156016927
 20
-1087.556086254828
 11
-953.5686856476946
 21
-1086.083135724792
 72
     1
 10
-953.5686856476946
 20
-1086.083135724792
 11
-952.1659614299452
 21
-1086.083135724792
 72
     1
 10
-952.1659614299452
 20
-1086.083135724792
 11
-951.5647939080534
 21
-1086.762959046348
 72
     1
 10
-951.5647939080534
 20
-1086.762959046348
 11
-950.9636263861606
 21
-1086.083135724792
 97
       12
330
1CF
330
228
330
227
330
226
330
225
330
1D0
330
1D1
330
1CD
330
1CE
330
22B
330
22A
330
229
 75
     1
 76
     0
 52
45.0
 41
0.1
 77
     0
 78
     1
 53
45.0
 43
0.0
 44
0.0
 45
-0.0707106781186548
 46
0.0707106781186548
 79
     0
 98
        1
 10
0.0
 20
0.0
  0
HATCH
  5
2E9
330
71
100
AcDbEntity
  8
1
  6
Continuous
 62
     2
100
AcDbHatch
 10
0.0
 20
0.0
 30
0.0
210
0.0
220
0.0
230
1.0
  2
_USER
 70
     0
 71
     1
 91
        1
 92
        1
 93
        4
 72
     1
 10
-953.7833883340842
 20
-1086.083135724792
 11
-953.7833883340842
 21
-1089.136945248603
 72
     1
 10
-953.7833883340842
 20
-1089.136945248603
 11
-955.0238927443371
 21
-1089.136945248603
 72
     1
 10
-955.0238927443371
 20
-1089.136945248603
 11
-955.0238927443371
 21
-1086.083135724792
 72
     1
 10
-955.0238927443371
 20
-1086.083135724792
 11
-953.7833883340842
 21
-1086.083135724792
 97
        4
330
223
330
1D2
330
222
330
224
 75
     1
 76
     0
 52
45.0
 41
0.1
 77
     0
 78
     1
 53
45.0
 43
0.0
 44
0.0
 45
-0.0707106781186548
 46
0.0707106781186548
 79
     0
 98
        1
 10
0.0
 20
0.0
  0
HATCH
  5
2EA
330
71
100
AcDbEntity
  8
1
  6
Continuous
 62
     2
100
AcDbHatch
 10
0.0
 20
0.0
 30
0.0
210
0.0
220
0.0
230
1.0
  2
_USER
 70
     0
 71
     1
 91
        1
 92
        1
 93
        4
 72
     1
 10
-953.7833883340842
 20
-1086.083135724792
 11
-953.7833883340842
 21
-1089.136945248603
 72
     1
 10
-953.7833883340842
 20
-1089.136945248603
 11
-955.0238927443371
 21
-1089.136945248603
 72
     1
 10
-955.0238927443371
 20
-1089.136945248603
 11
-955.0238927443371
 21
-1086.083135724792
 72
     1
 10
-955.0238927443371
 20
-1086.083135724792
 11
-953.7833883340842
 21
-1086.083135724792
 97
        4
330
223
330
1D2
330
222
330
224
 75
     1
 76
     0
 52
45.0
 41
0.1
 77
     0
 78
     1
 53
45.0
 43
0.0
 44
0.0
 45
-0.0707106781186548
 46
0.0707106781186548
 79
     0
 98
        1
 10
0.0
 20
0.0
  0
HATCH
  5
2EB
330
71
100
AcDbEntity
  8
1
  6
Continuous
 62
     2
100
AcDbHatch
 10
0.0
 20
0.0
 30
0.0
210
0.0
220
0.0
230
1.0
  2
_USER
 70
     0
 71
     1
 91
        2
 92
        1
 93
        8
 72
     1
 10
-954.1738323376162
 20
-1092.496135724778
 11
-955.4143367478702
 21
-1092.496135724778
 72
     1
 10
-955.4143367478702
 20
-1092.496135724778
 11
-955.6258168013459
 21
-1091.95517518056
 72
     1
 10
-955.6258168013459
 20
-1091.95517518056
 11
-956.7582583780197
 21
-1091.95517518056
 72
     1
 10
-956.7582583780197
 20
-1091.95517518056
 11
-956.9697384314956
 21
-1092.496135724778
 72
     1
 10
-956.9697384314956
 20
-1092.496135724778
 11
-958.2102428417485
 21
-1092.496135724778
 72
     1
 10
-958.2102428417485
 20
-1092.496135724778
 11
-956.8122897948092
 21
-1089.442326200967
 72
     1
 10
-956.8122897948092
 20
-1089.442326200967
 11
-955.5717853845565
 21
-1089.442326200967
 72
     1
 10
-955.5717853845565
 20
-1089.442326200967
 11
-954.1738323376162
 21
-1092.496135724778
 97
        8
330
21E
330
1D8
330
21D
330
220
330
1D5
330
21F
330
1D6
330
1D7
 92
       16
 93
        3
 72
     1
 10
-956.4922028268747
 20
-1091.274611915253
 11
-955.8918723524922
 21
-1091.274611915253
 72
     1
 10
-955.8918723524922
 20
-1091.274611915253
 11
-956.1920375896823
 21
-1090.506796949266
 72
     1
 10
-956.1920375896823
 20
-1090.506796949266
 11
-956.4922028268747
 21
-1091.274611915253
 97
        3
330
1D4
330
1D3
330
221
 75
     1
 76
     0
 52
45.0
 41
0.1
 77
     0
 78
     1
 53
45.0
 43
0.0
 44
0.0
 45
-0.0707106781186548
 46
0.0707106781186548
 79
     0
 98
        1
 10
0.0
 20
0.0
  0
HATCH
  5
2EC
330
71
100
AcDbEntity
  8
1
  6
Continuous
 62
     2
100
AcDbHatch
 10
0.0
 20
0.0
 30
0.0
210
0.0
220
0.0
230
1.0
  2
_USER
 70
     0
 71
     1
 91
        2
 92
        1
 93
        8
 72
     1
 10
-954.1738323376162
 20
-1092.496135724778
 11
-955.4143367478702
 21
-1092.496135724778
 72
     1
 10
-955.4143367478702
 20
-1092.496135724778
 11
-955.6258168013459
 21
-1091.95517518056
 72
     1
 10
-955.6258168013459
 20
-1091.95517518056
 11
-956.7582583780197
 21
-1091.95517518056
 72
     1
 10
-956.7582583780197
 20
-1091.95517518056
 11
-956.9697384314956
 21
-1092.496135724778
 72
     1
 10
-956.9697384314956
 20
-1092.496135724778
 11
-958.2102428417485
 21
-1092.496135724778
 72
     1
 10
-958.2102428417485
 20
-1092.496135724778
 11
-956.8122897948092
 21
-1089.442326200967
 72
     1
 10
-956.8122897948092
 20
-1089.442326200967
 11
-955.5717853845565
 21
-1089.442326200967
 72
     1
 10
-955.5717853845565
 20
-1089.442326200967
 11
-954.1738323376162
 21
-1092.496135724778
 97
        8
330
21E
330
1D8
330
21D
330
220
330
1D5
330
21F
330
1D6
330
1D7
 92
       16
 93
        3
 72
     1
 10
-956.4922028268747
 20
-1091.274611915253
 11
-955.8918723524922
 21
-1091.274611915253
 72
     1
 10
-955.8918723524922
 20
-1091.274611915253
 11
-956.1920375896823
 21
-1090.506796949266
 72
     1
 10
-956.1920375896823
 20
-1090.506796949266
 11
-956.4922028268747
 21
-1091.274611915253
 97
        3
330
1D4
330
1D3
330
221
 75
     1
 76
     0
 52
45.0
 41
0.1
 77
     0
 78
     1
 53
45.0
 43
0.0
 44
0.0
 45
-0.0707106781186548
 46
0.0707106781186548
 79
     0
 98
        1
 10
0.0
 20
0.0
  0
HATCH
  5
2ED
330
71
100
AcDbEntity
  8
1
  6
Continuous
 62
     2
100
AcDbHatch
 10
0.0
 20
0.0
 30
0.0
210
0.0
220
0.0
230
1.0
  2
_USER
 70
     0
 71
     1
 91
        1
 92
        1
 93
        8
 72
     1
 10
-960.3677549809307
 20
-1089.442326200967
 11
-960.3677549809307
 21
-1090.22759150709
 72
     1
 10
-960.3677549809307
 20
-1090.22759150709
 11
-959.5566559434561
 21
-1090.22759150709
 72
     1
 10
-959.5566559434561
 20
-1090.22759150709
 11
-959.5566559434561
 21
-1092.496135724778
 72
     1
 10
-959.5566559434561
 20
-1092.496135724778
 11
-958.3638632412897
 21
-1092.496135724778
 72
     1
 10
-958.3638632412897
 20
-1092.496135724778
 11
-958.3638632412897
 21
-1090.22759150709
 72
     1
 10
-958.3638632412897
 20
-1090.22759150709
 11
-957.5527642038171
 21
-1090.22759150709
 72
     1
 10
-957.5527642038171
 20
-1090.22759150709
 11
-957.5527642038171
 21
-1089.442326200967
 72
     1
 10
-957.5527642038171
 20
-1089.442326200967
 11
-960.3677549809307
 21
-1089.442326200967
 97
        8
330
21A
330
219
330
218
330
1D9
330
1DA
330
21C
330
1DB
330
21B
 75
     1
 76
     0
 52
45.0
 41
0.1
 77
     0
 78
     1
 53
45.0
 43
0.0
 44
0.0
 45
-0.0707106781186548
 46
0.0707106781186548
 79
     0
 98
        1
 10
0.0
 20
0.0
  0
HATCH
  5
2EE
330
71
100
AcDbEntity
  8
1
  6
Continuous
 62
     2
100
AcDbHatch
 10
0.0
 20
0.0
 30
0.0
210
0.0
220
0.0
230
1.0
  2
_USER
 70
     0
 71
     1
 91
        1
 92
        1
 93
        8
 72
     1
 10
-960.3677549809307
 20
-1089.442326200967
 11
-960.3677549809307
 21
-1090.22759150709
 72
     1
 10
-960.3677549809307
 20
-1090.22759150709
 11
-959.5566559434561
 21
-1090.22759150709
 72
     1
 10
-959.5566559434561
 20
-1090.22759150709
 11
-959.5566559434561
 21
-1092.496135724778
 72
     1
 10
-959.5566559434561
 20
-1092.496135724778
 11
-958.3638632412897
 21
-1092.496135724778
 72
     1
 10
-958.3638632412897
 20
-1092.496135724778
 11
-958.3638632412897
 21
-1090.22759150709
 72
     1
 10
-958.3638632412897
 20
-1090.22759150709
 11
-957.5527642038171
 21
-1090.22759150709
 72
     1
 10
-957.5527642038171
 20
-1090.22759150709
 11
-957.5527642038171
 21
-1089.442326200967
 72
     1
 10
-957.5527642038171
 20
-1089.442326200967
 11
-960.3677549809307
 21
-1089.442326200967
 97
        8
330
21A
330
219
330
218
330
1D9
330
1DA
330
21C
330
1DB
330
21B
 75
     1
 76
     0
 52
45.0
 41
0.1
 77
     0
 78
     1
 53
45.0
 43
0.0
 44
0.0
 45
-0.0707106781186548
 46
0.0707106781186548
 79
     0
 98
        1
 10
0.0
 20
0.0
  0
HATCH
  5
2EF
330
71
100
AcDbEntity
  8
1
  6
Continuous
 62
     2
100
AcDbHatch
 10
0.0
 20
0.0
 30
0.0
210
0.0
220
0.0
230
1.0
  2
_USER
 70
     0
 71
     1
 91
        1
 92
        1
 93
       10
 72
     1
 10
-957.6957483971917
 20
-1086.083135724792
 11
-958.8885410993581
 21
-1086.083135724792
 72
     1
 10
-958.8885410993581
 20
-1086.083135724792
 11
-958.8885410993581
 21
-1089.136945248603
 72
     1
 10
-958.8885410993581
 20
-1089.136945248603
 11
-957.6957483971917
 21
-1089.136945248603
 72
     1
 10
-957.6957483971917
 20
-1089.136945248603
 11
-957.6957483971917
 21
-1087.828169738399
 72
     1
 10
-957.6957483971917
 20
-1087.828169738399
 11
-956.4552439869376
 21
-1089.136945248603
 72
     1
 10
-956.4552439869376
 20
-1089.136945248603
 11
-955.262451284771
 21
-1089.136945248603
 72
     1
 10
-955.262451284771
 20
-1089.136945248603
 11
-955.262451284771
 21
-1086.083135724792
 72
     1
 10
-955.262451284771
 20
-1086.083135724792
 11
-956.4552439869376
 21
-1086.083135724792
 72
     1
 10
-956.4552439869376
 20
-1086.083135724792
 11
-956.4552439869376
 21
-1087.391911234997
 72
     1
 10
-956.4552439869376
 20
-1087.391911234997
 11
-957.6957483971917
 21
-1086.083135724792
 97
       10
330
214
330
1DE
330
1DF
330
1E0
330
1E1
330
217
330
1DC
330
216
330
215
330
1DD
 75
     1
 76
     0
 52
45.0
 41
0.1
 77
     0
 78
     1
 53
45.0
 43
0.0
 44
0.0
 45
-0.0707106781186548
 46
0.0707106781186548
 79
     0
 98
        1
 10
0.0
 20
0.0
  0
HATCH
  5
2F0
330
71
100
AcDbEntity
  8
1
  6
Continuous
 62
     2
100
AcDbHatch
 10
0.0
 20
0.0
 30
0.0
210
0.0
220
0.0
230
1.0
  2
_USER
 70
     0
 71
     1
 91
        1
 92
        1
 93
       10
 72
     1
 10
-957.6957483971917
 20
-1086.083135724792
 11
-958.8885410993581
 21
-1086.083135724792
 72
     1
 10
-958.8885410993581
 20
-1086.083135724792
 11
-958.8885410993581
 21
-1089.136945248603
 72
     1
 10
-958.8885410993581
 20
-1089.136945248603
 11
-957.6957483971917
 21
-1089.136945248603
 72
     1
 10
-957.6957483971917
 20
-1089.136945248603
 11
-957.6957483971917
 21
-1087.828169738399
 72
     1
 10
-957.6957483971917
 20
-1087.828169738399
 11
-956.4552439869376
 21
-1089.136945248603
 72
     1
 10
-956.4552439869376
 20
-1089.136945248603
 11
-955.262451284771
 21
-1089.136945248603
 72
     1
 10
-955.262451284771
 20
-1089.136945248603
 11
-955.262451284771
 21
-1086.083135724792
 72
     1
 10
-955.262451284771
 20
-1086.083135724792
 11
-956.4552439869376
 21
-1086.083135724792
 72
     1
 10
-956.4552439869376
 20
-1086.083135724792
 11
-956.4552439869376
 21
-1087.391911234997
 72
     1
 10
-956.4552439869376
 20
-1087.391911234997
 11
-957.6957483971917
 21
-1086.083135724792
 97
       10
330
214
330
1DE
330
1DF
330
1E0
330
1E1
330
217
330
1DC
330
216
330
215
330
1DD
 75
     1
 76
     0
 52
45.0
 41
0.1
 77
     0
 78
     1
 53
45.0
 43
0.0
 44
0.0
 45
-0.0707106781186548
 46
0.0707106781186548
 79
     0
 98
        1
 10
0.0
 20
0.0
  0
HATCH
  5
2F1
330
71
100
AcDbEntity
  8
1
  6
Continuous
 62
     2
100
AcDbHatch
 10
0.0
 20
0.0
 30
0.0
210
0.0
220
0.0
230
1.0
  2
_USER
 70
     0
 71
     1
 91
        1
 92
        1
 93
       10
 72
     1
 10
-962.9441872176102
 20
-1089.442326200967
 11
-964.1369799197778
 21
-1089.442326200967
 72
     1
 10
-964.1369799197778
 20
-1089.442326200967
 11
-964.1369799197778
 21
-1092.496135724778
 72
     1
 10
-964.1369799197778
 20
-1092.496135724778
 11
-962.9441872176102
 21
-1092.496135724778
 72
     1
 10
-962.9441872176102
 20
-1092.496135724778
 11
-962.9441872176102
 21
-1091.187360214573
 72
     1
 10
-962.9441872176102
 20
-1091.187360214573
 11
-961.7036828073574
 21
-1092.496135724778
 72
     1
 10
-961.7036828073574
 20
-1092.496135724778
 11
-960.5108901051909
 21
-1092.496135724778
 72
     1
 10
-960.5108901051909
 20
-1092.496135724778
 11
-960.5108901051909
 21
-1089.442326200967
 72
     1
 10
-960.5108901051909
 20
-1089.442326200967
 11
-961.7036828073574
 21
-1089.442326200967
 72
     1
 10
-961.7036828073574
 20
-1089.442326200967
 11
-961.7036828073574
 21
-1090.751101711172
 72
     1
 10
-961.7036828073574
 20
-1090.751101711172
 11
-962.9441872176102
 21
-1089.442326200967
 97
       10
330
1E3
330
1E4
330
1E5
330
211
330
1E6
330
1E7
330
210
330
213
330
212
330
1E2
 75
     1
 76
     0
 52
45.0
 41
0.1
 77
     0
 78
     1
 53
45.0
 43
0.0
 44
0.0
 45
-0.0707106781186548
 46
0.0707106781186548
 79
     0
 98
        1
 10
0.0
 20
0.0
  0
HATCH
  5
2F2
330
71
100
AcDbEntity
  8
1
  6
Continuous
 62
     2
100
AcDbHatch
 10
0.0
 20
0.0
 30
0.0
210
0.0
220
0.0
230
1.0
  2
_USER
 70
     0
 71
     1
 91
        1
 92
        1
 93
       10
 72
     1
 10
-962.9441872176102
 20
-1089.442326200967
 11
-964.1369799197778
 21
-1089.442326200967
 72
     1
 10
-964.1369799197778
 20
-1089.442326200967
 11
-964.1369799197778
 21
-1092.496135724778
 72
     1
 10
-964.1369799197778
 20
-1092.496135724778
 11
-962.9441872176102
 21
-1092.496135724778
 72
     1
 10
-962.9441872176102
 20
-1092.496135724778
 11
-962.9441872176102
 21
-1091.187360214573
 72
     1
 10
-962.9441872176102
 20
-1091.187360214573
 11
-961.7036828073574
 21
-1092.496135724778
 72
     1
 10
-961.7036828073574
 20
-1092.496135724778
 11
-960.5108901051909
 21
-1092.496135724778
 72
     1
 10
-960.5108901051909
 20
-1092.496135724778
 11
-960.5108901051909
 21
-1089.442326200967
 72
     1
 10
-960.5108901051909
 20
-1089.442326200967
 11
-961.7036828073574
 21
-1089.442326200967
 72
     1
 10
-961.7036828073574
 20
-1089.442326200967
 11
-961.7036828073574
 21
-1090.751101711172
 72
     1
 10
-961.7036828073574
 20
-1090.751101711172
 11
-962.9441872176102
 21
-1089.442326200967
 97
       10
330
1E3
330
1E4
330
1E5
330
211
330
1E6
330
1E7
330
210
330
213
330
212
330
1E2
 75
     1
 76
     0
 52
45.0
 41
0.1
 77
     0
 78
     1
 53
45.0
 43
0.0
 44
0.0
 45
-0.0707106781186548
 46
0.0707106781186548
 79
     0
 98
        1
 10
0.0
 20
0.0
  0
HATCH
  5
2F3
330
71
100
AcDbEntity
  8
1
  6
Continuous
 62
     2
100
AcDbHatch
 10
0.0
 20
0.0
 30
0.0
210
0.0
220
0.0
230
1.0
  2
_USER
 70
     0
 71
     1
 91
        1
 92
        1
 93
       12
 72
     1
 10
-963.9459821565456
 20
-1086.083135724792
 11
-963.9459821565456
 21
-1089.136945248603
 72
     1
 10
-963.9459821565456
 20
-1089.136945248603
 11
-965.138774858712
 21
-1089.136945248603
 72
     1
 10
-965.138774858712
 20
-1089.136945248603
 11
-965.138774858712
 21
-1088.00267313976
 72
     1
 10
-965.138774858712
 20
-1088.00267313976
 11
-966.1884324366195
 21
-1088.00267313976
 72
     1
 10
-966.1884324366195
 20
-1088.00267313976
 11
-966.1884324366195
 21
-1089.136945248603
 72
     1
 10
-966.1884324366195
 20
-1089.136945248603
 11
-967.3812251387861
 21
-1089.136945248603
 72
     1
 10
-967.3812251387861
 20
-1089.136945248603
 11
-967.3812251387861
 21
-1086.083135724792
 72
     1
 10
-967.3812251387861
 20
-1086.083135724792
 11
-966.1884324366195
 21
-1086.083135724792
 72
     1
 10
-966.1884324366195
 20
-1086.083135724792
 11
-966.1884324366195
 21
-1087.151969058127
 72
     1
 10
-966.1884324366195
 20
-1087.151969058127
 11
-965.138774858712
 21
-1087.151969058127
 72
     1
 10
-965.138774858712
 20
-1087.151969058127
 11
-965.138774858712
 21
-1086.083135724792
 72
     1
 10
-965.138774858712
 20
-1086.083135724792
 11
-963.9459821565456
 21
-1086.083135724792
 97
       12
330
20B
330
20A
330
209
330
1F1
330
1F2
330
208
330
1F3
330
207
330
206
330
205
330
1EF
330
1F0
 75
     1
 76
     0
 52
45.0
 41
0.1
 77
     0
 78
     1
 53
45.0
 43
0.0
 44
0.0
 45
-0.0707106781186548
 46
0.0707106781186548
 79
     0
 98
        1
 10
0.0
 20
0.0
  0
HATCH
  5
2F4
330
71
100
AcDbEntity
  8
1
  6
Continuous
 62
     2
100
AcDbHatch
 10
0.0
 20
0.0
 30
0.0
210
0.0
220
0.0
230
1.0
  2
_USER
 70
     0
 71
     1
 91
        1
 92
        1
 93
       12
 72
     1
 10
-963.9459821565456
 20
-1086.083135724792
 11
-963.9459821565456
 21
-1089.136945248603
 72
     1
 10
-963.9459821565456
 20
-1089.136945248603
 11
-965.138774858712
 21
-1089.136945248603
 72
     1
 10
-965.138774858712
 20
-1089.136945248603
 11
-965.138774858712
 21
-1088.00267313976
 72
     1
 10
-965.138774858712
 20
-1088.00267313976
 11
-966.1884324366195
 21
-1088.00267313976
 72
     1
 10
-966.1884324366195
 20
-1088.00267313976
 11
-966.1884324366195
 21
-1089.136945248603
 72
     1
 10
-966.1884324366195
 20
-1089.136945248603
 11
-967.3812251387861
 21
-1089.136945248603
 72
     1
 10
-967.3812251387861
 20
-1089.136945248603
 11
-967.3812251387861
 21
-1086.083135724792
 72
     1
 10
-967.3812251387861
 20
-1086.083135724792
 11
-966.1884324366195
 21
-1086.083135724792
 72
     1
 10
-966.1884324366195
 20
-1086.083135724792
 11
-966.1884324366195
 21
-1087.151969058127
 72
     1
 10
-966.1884324366195
 20
-1087.151969058127
 11
-965.138774858712
 21
-1087.151969058127
 72
     1
 10
-965.138774858712
 20
-1087.151969058127
 11
-965.138774858712
 21
-1086.083135724792
 72
     1
 10
-965.138774858712
 20
-1086.083135724792
 11
-963.9459821565456
 21
-1086.083135724792
 97
       12
330
20B
330
20A
330
209
330
1F1
330
1F2
330
208
330
1F3
330
207
330
206
330
205
330
1EF
330
1F0
 75
     1
 76
     0
 52
45.0
 41
0.1
 77
     0
 78
     1
 53
45.0
 43
0.0
 44
0.0
 45
-0.0707106781186548
 46
0.0707106781186548
 79
     0
 98
        1
 10
0.0
 20
0.0
  0
ENDBLK
  5
73
330
71
100
AcDbEntity
  8
0
100
AcDbBlockEnd
  0
BLOCK
  5
75
330
74
100
AcDbEntity
  8
0
100
AcDbBlockBegin
  2
_punkt
 70
     0
 10
-852.0686783427567
 20
-1099.789635724794
 30
0.0
  3
_punkt
  1

  0
LINE
  5
2F5
330
74
100
AcDbEntity
  8
1
  6
Continuous
 62
     2
100
AcDbLine
 10
-852.0686783427567
 20
-1099.789635724794
 30
0.0
 11
-852.0686783427567
 21
-1104.789635724794
 31
0.0
  0
LINE
  5
2F6
330
74
100
AcDbEntity
  8
1
  6
Continuous
 62
     2
100
AcDbLine
 10
-852.0686783427567
 20
-1099.789635724794
 30
0.0
 11
-847.0686783427577
 21
-1099.789635724794
 31
0.0
  0
ENDBLK
  5
76
330
74
100
AcDbEntity
  8
0
100
AcDbBlockEnd
  0
BLOCK
  5
7A
330
77
100
AcDbEntity
  8
0
100
AcDbBlockBegin
  2
A4I_CS
 70
     0
 10
-852.0686783427567
 20
-1104.789635724794
 30
0.0
  3
A4I_CS
  1

  0
INSERT
  5
78
330
77
100
AcDbEntity
  8
1
100
AcDbBlockReference
  2
_rahmen
 10
-852.0686783427567
 20
-1104.789635724794
 30
0.0
  0
INSERT
  5
79
330
77
100
AcDbEntity
  8
1
100
AcDbBlockReference
  2
_punkt
 10
-852.0686783427567
 20
-1099.789635724794
 30
0.0
  0
ENDBLK
  5
7B
330
77
100
AcDbEntity
  8
0
100
AcDbBlockEnd
  0
BLOCK
  5
84
330
7C
100
AcDbEntity
  8
0
100
AcDbBlockBegin
  2
1
 70
     0
 10
0.0
 20
0.0
 30
0.0
  3
1
  1

  0
INSERT
  5
7D
330
7C
100
AcDbEntity
  8
0
100
AcDbBlockReference
  2
Back1
 10
-911.137355
 20
-958.690496
 30
0.0
  0
INSERT
  5
7E
330
7C
100
AcDbEntity
  8
0
100
AcDbBlockReference
  2
Front1
 10
-1056.0
 20
-958.690496
 30
0.0
  0
INSERT
  5
7F
330
7C
100
AcDbEntity
  8
0
100
AcDbBlockReference
  2
Gen1
 10
-928.0
 20
-1027.0
 30
0.0
  0
INSERT
  5
80
330
7C
100
AcDbEntity
  8
0
100
AcDbBlockReference
  2
Left1
 10
-983.5686769999994
 20
-958.690496
 30
0.0
  0
INSERT
  5
81
330
7C
100
AcDbEntity
  8
0
100
AcDbBlockReference
  2
Right1
 10
-1128.431324000001
 20
-958.690496
 30
0.0
  0
INSERT
  5
82
330
7C
100
AcDbEntity
  8
0
100
AcDbBlockReference
  2
Top1
 10
-1056.000000369097
 20
-1034.000000046447
 30
0.0
  0
INSERT
  5
83
330
7C
100
AcDbEntity
  8
0
100
AcDbBlockReference
  2
A4I_CS
 10
-852.0686783427567
 20
-1104.789635724794
 30
0.0
  0
ENDBLK
  5
85
330
7C
100
AcDbEntity
  8
0
100
AcDbBlockEnd
  0
BLOCK
  5
D3
330
CC
100
AcDbEntity
  8
0
100
AcDbBlockBegin
  2
*D17
 70
     1
 10
0.0
 20
0.0
 30
0.0
  3
*D17
  1

  0
LINE
  5
CD
330
CC
100
AcDbEntity
  8
1
  6
Continuous
 62
     2
100
AcDbLine
 10
-1106.43132196169
 20
-998.632476921592
 30
0.0
 11
-1005.568678776519
 21
-998.632476921592
 31
0.0
  0
LINE
  5
CE
330
CC
100
AcDbEntity
  8
1
  6
Continuous
 62
     2
100
AcDbLine
 10
-1106.43132196169
 20
-978.1964901329748
 30
0.0
 11
-1106.43132196169
 21
-1000.132476921592
 31
0.0
  0
LINE
  5
CF
330
CC
100
AcDbEntity
  8
1
  6
Continuous
 62
     2
100
AcDbLine
 10
-1005.568678776519
 20
-969.2003170802251
 30
0.0
 11
-1005.568678776519
 21
-1000.132476921592
 31
0.0
  0
SOLID
  5
D0
330
CC
100
AcDbEntity
  8
1
 62
     2
100
AcDbTrace
 10
-1102.93132196169
 20
-998.1716931800361
 30
0.0
 11
-1102.93132196169
 21
-999.0932606631479
 31
0.0
 12
-1106.43132196169
 22
-998.632476921592
 32
0.0
 13
-1106.43132196169
 23
-998.632476921592
 33
0.0
  0
SOLID
  5
D1
330
CC
100
AcDbEntity
  8
1
 62
     2
100
AcDbTrace
 10
-1009.068678776519
 20
-999.0932606631479
 30
0.0
 11
-1009.068678776519
 21
-998.1716931800361
 31
0.0
 12
-1005.568678776519
 22
-998.632476921592
 32
0.0
 13
-1005.568678776519
 23
-998.632476921592
 33
0.0
  0
MTEXT
  5
D2
330
CC
100
AcDbEntity
  8
1
 62
     3
100
AcDbMText
 10
-1066.57739923461
 20
-996.7824769215921
 30
0.0
 40
3.5
 41
0.0
 71
     7
 72
     1
  1
100,86
  7
CONVERTER_11
 11
0.9999999999970619
 21
2.424068405545306E-6
 31
0.0
 73
     1
 44
0.60024009603842
  0
ENDBLK
  5
D4
330
CC
100
AcDbEntity
  8
0
100
AcDbBlockEnd
  0
BLOCK
  5
DD
330
D6
100
AcDbEntity
  8
0
100
AcDbBlockBegin
  2
*D18
 70
     1
 10
0.0
 20
0.0
 30
0.0
  3
*D18
  1

  0
LINE
  5
D7
330
D6
100
AcDbEntity
  8
1
  6
Continuous
 62
     2
100
AcDbLine
 10
-1116.760686580165
 20
-982.7074031715838
 30
0.0
 11
-1116.664375867888
 21
-934.3432337714671
 31
0.0
  0
LINE
  5
D8
330
D6
100
AcDbEntity
  8
1
  6
Continuous
 62
     2
100
AcDbLine
 10
-1071.39875753983
 20
-982.7977353276057
 30
0.0
 11
-1118.260683606023
 21
-982.704416130066
 31
0.0
  0
LINE
  5
D9
330
D6
100
AcDbEntity
  8
1
  6
Continuous
 62
     2
100
AcDbLine
 10
-1048.351101505979
 20
-934.4792704323538
 30
0.0
 11
-1118.164372893746
 21
-934.3402467299493
 31
0.0
  0
SOLID
  5
DA
330
D6
100
AcDbEntity
  8
1
 62
     2
100
AcDbTrace
 10
-1117.214499644555
 20
-979.2064925244705
 30
0.0
 11
-1116.292933988692
 21
-979.2083276980262
 31
0.0
 12
-1116.760686580165
 22
-982.7074031715838
 32
0.0
 13
-1116.760686580165
 23
-982.7074031715838
 33
0.0
  0
SOLID
  5
DB
330
D6
100
AcDbEntity
  8
1
 62
     2
100
AcDbTrace
 10
-1116.210562803499
 20
-937.8441444185804
 30
0.0
 11
-1117.132128459362
 21
-937.8423092450247
 31
0.0
 12
-1116.664375867888
 22
-934.3432337714671
 32
0.0
 13
-1116.664375867888
 23
-934.3432337714671
 33
0.0
  0
MTEXT
  5
DC
330
D6
100
AcDbEntity
  8
1
 62
     3
100
AcDbMText
 10
-1118.582369153024
 20
-968.4854519867732
 30
0.0
 40
3.5
 41
0.0
 71
     7
 72
     1
  1
48,36
  7
CONVERTER_11
 11
0.001991361011886384
 21
0.9999980172386945
 31
0.0
 73
     1
 44
0.60024009603842
  0
ENDBLK
  5
DE
330
D6
100
AcDbEntity
  8
0
100
AcDbBlockEnd
  0
BLOCK
  5
1BA
330
1B1
100
AcDbEntity
  8
0
100
AcDbBlockBegin
  2
*D19
 70
     1
 10
0.0
 20
0.0
 30
0.0
  3
*D19
  1

  0
LINE
  5
1B2
330
1B1
100
AcDbEntity
  8
1
  6
Continuous
 62
     2
100
AcDbLine
 10
-1117.53942071526
 20
-1021.24831343341
 30
0.0
 11
-1117.53942071526
 21
-1032.900000070159
 31
0.0
  0
LINE
  5
1B3
330
1B1
100
AcDbEntity
  8
1
  6
Continuous
 62
     2
100
AcDbLine
 10
-1117.53942071526
 20
-1032.900000070159
 30
0.0
 11
-1117.53942071526
 21
-1035.100000070159
 31
0.0
  0
LINE
  5
1B4
330
1B1
100
AcDbEntity
  8
1
  6
Continuous
 62
     2
100
AcDbLine
 10
-1117.53942071526
 20
-1035.100000070159
 30
0.0
 11
-1117.53942071526
 21
-1042.100000070159
 31
0.0
  0
LINE
  5
1B5
330
1B1
100
AcDbEntity
  8
1
  6
Continuous
 62
     2
100
AcDbLine
 10
-1099.584015716582
 20
-1032.900000070159
 30
0.0
 11
-1119.53942071526
 21
-1032.900000070159
 31
0.0
  0
LINE
  5
1B6
330
1B1
100
AcDbEntity
  8
1
  6
Continuous
 62
     2
100
AcDbLine
 10
-1106.431322330764
 20
-1035.100000070159
 30
0.0
 11
-1119.53942071526
 21
-1035.100000070159
 31
0.0
  0
SOLID
  5
1B7
330
1B1
100
AcDbEntity
  8
1
 62
     2
100
AcDbTrace
 10
-1118.000204456816
 20
-1029.400000070159
 30
0.0
 11
-1117.078636973704
 21
-1029.400000070159
 31
0.0
 12
-1117.53942071526
 22
-1032.900000070159
 32
0.0
 13
-1117.53942071526
 23
-1032.900000070159
 33
0.0
  0
SOLID
  5
1B8
330
1B1
100
AcDbEntity
  8
1
 62
     2
100
AcDbTrace
 10
-1117.078636973704
 20
-1038.600000070159
 30
0.0
 11
-1118.000204456816
 21
-1038.600000070159
 31
0.0
 12
-1117.53942071526
 22
-1035.100000070159
 32
0.0
 13
-1117.53942071526
 23
-1035.100000070159
 33
0.0
  0
MTEXT
  5
1B9
330
1B1
100
AcDbEntity
  8
1
 62
     3
100
AcDbMText
 10
-1119.88942071526
 20
-1027.72331343341
 30
0.0
 40
3.5
 41
0.0
 71
     7
 72
     1
  1
2,2
  7
CONVERTER_11
 11
0.0
 21
1.0
 31
0.0
 73
     1
 44
0.60024009603842
  0
ENDBLK
  5
1BB
330
1B1
100
AcDbEntity
  8
0
100
AcDbBlockEnd
  0
ENDSEC
  0
SECTION
  2
ENTITIES
  0
INSERT
  5
86
330
1F
100
AcDbEntity
  8
1
100
AcDbBlockReference
  2
1
 10
0.0
 20
0.0
 30
0.0
  0
ENDSEC
  0
SECTION
  2
OBJECTS
  0
DICTIONARY
  5
C
330
0
100
AcDbDictionary
281
     1
  3
ACAD_GROUP
350
D
  3
ACAD_LAYOUT
350
1A
  3
ACAD_MATERIAL
350
3B
  3
ACAD_MLEADERSTYLE
350
31E
  3
ACAD_MLINESTYLE
350
17
  3
ACAD_PLOTSETTINGS
350
19
  3
ACAD_PLOTSTYLENAME
350
E
  3
ACAD_TABLESTYLE
350
31D
  3
ACAD_VISUALSTYLE
350
2A
  0
DICTIONARY
  5
D
102
{ACAD_REACTORS
330
C
102
}
330
C
100
AcDbDictionary
281
     1
  0
DICTIONARY
  5
1A
102
{ACAD_REACTORS
330
C
102
}
330
C
100
AcDbDictionary
281
     1
  3
Layout1
350
1E
  3
Layout2
350
26
  3
Model
350
22
  0
DICTIONARY
  5
3B
102
{ACAD_REACTORS
330
C
102
}
330
C
100
AcDbDictionary
281
     1
  3
ByBlock
350
3D
  3
ByLayer
350
3C
  3
Global
350
3E
  0
DICTIONARY
  5
31E
102
{ACAD_REACTORS
330
C
102
}
330
C
100
AcDbDictionary
281
     1
  0
DICTIONARY
  5
17
102
{ACAD_REACTORS
330
C
102
}
330
C
100
AcDbDictionary
281
     1
  3
Standard
350
18
  0
DICTIONARY
  5
19
102
{ACAD_REACTORS
330
C
102
}
330
C
100
AcDbDictionary
281
     1
  0
ACDBDICTIONARYWDFLT
  5
E
102
{ACAD_REACTORS
330
C
102
}
330
C
100
AcDbDictionary
281
     1
  3
Normal
350
F
100
AcDbDictionaryWithDefault
340
F
  0
DICTIONARY
  5
31D
102
{ACAD_REACTORS
330
C
102
}
330
C
100
AcDbDictionary
281
     1
  0
DICTIONARY
  5
2A
102
{ACAD_REACTORS
330
C
102
}
330
C
100
AcDbDictionary
281
     1
  3
2dWireframe
350
2F
  3
3D Hidden
350
31
  3
3dWireframe
350
30
  3
Basic
350
32
  3
Brighten
350
36
  3
ColorChange
350
3A
  3
Conceptual
350
34
  3
Dim
350
35
  3
Facepattern
350
39
  3
Flat
350
2B
  3
FlatWithEdges
350
2C
  3
Gouraud
350
2D
  3
GouraudWithEdges
350
2E
  3
Linepattern
350
38
  3
Realistic
350
33
  3
Thicken
350
37
  0
LAYOUT
  5
1E
102
{ACAD_REACTORS
330
1A
102
}
330
1A
100
AcDbPlotSettings
  1

  2
none_device
  4

  6

 40
0.0
 41
0.0
 42
0.0
 43
0.0
 44
0.0
 45
0.0
 46
0.0
 47
0.0
 48
0.0
 49
0.0
140
0.0
141
0.0
142
1.0
143
1.0
 70
   688
 72
     0
 73
     0
 74
     5
  7

 75
    16
 76
     0
 77
     2
 78
   300
147
1.0
148
0.0
149
0.0
100
AcDbLayout
  1
Layout1
 70
     1
 71
     1
 10
0.0
 20
0.0
 11
12.0
 21
9.0
 12
0.0
 22
0.0
 32
0.0
 14
1.00000000000000E+20
 24
1.00000000000000E+20
 34
1.00000000000000E+20
 15
-1.00000000000000E+20
 25
-1.00000000000000E+20
 35
-1.00000000000000E+20
146
0.0
 13
0.0
 23
0.0
 33
0.0
 16
1.0
 26
0.0
 36
0.0
 17
0.0
 27
1.0
 37
0.0
 76
     0
330
1B
  0
LAYOUT
  5
26
102
{ACAD_REACTORS
330
1A
102
}
330
1A
100
AcDbPlotSettings
  1

  2
none_device
  4

  6

 40
0.0
 41
0.0
 42
0.0
 43
0.0
 44
0.0
 45
0.0
 46
0.0
 47
0.0
 48
0.0
 49
0.0
140
0.0
141
0.0
142
1.0
143
1.0
 70
   688
 72
     0
 73
     0
 74
     5
  7

 75
    16
 76
     0
 77
     2
 78
   300
147
1.0
148
0.0
149
0.0
100
AcDbLayout
  1
Layout2
 70
     1
 71
     2
 10
0.0
 20
0.0
 11
0.0
 21
0.0
 12
0.0
 22
0.0
 32
0.0
 14
0.0
 24
0.0
 34
0.0
 15
0.0
 25
0.0
 35
0.0
146
0.0
 13
0.0
 23
0.0
 33
0.0
 16
1.0
 26
0.0
 36
0.0
 17
0.0
 27
1.0
 37
0.0
 76
     0
330
23
  0
LAYOUT
  5
22
102
{ACAD_REACTORS
330
1A
102
}
330
1A
100
AcDbPlotSettings
  1

  2
none_device
  4

  6

 40
0.0
 41
0.0
 42
0.0
 43
0.0
 44
0.0
 45
0.0
 46
0.0
 47
0.0
 48
0.0
 49
0.0
140
0.0
141
0.0
142
1.0
143
1.0
 70
  1712
 72
     0
 73
     0
 74
     0
  7

 75
     0
 76
     0
 77
     2
 78
   300
147
1.0
148
0.0
149
0.0
100
AcDbLayout
  1
Model
 70
     1
 71
     0
 10
0.0
 20
0.0
 11
12.0
 21
9.0
 12
0.0
 22
0.0
 32
0.0
 14
-1144.068678342756
 24
-1104.789635724794
 34
0.0
 15
-847.0686783427577
 25
-894.7896357247939
 35
0.0
146
0.0
 13
0.0
 23
0.0
 33
0.0
 16
1.0
 26
0.0
 36
0.0
 17
0.0
 27
1.0
 37
0.0
 76
     0
330
1F
331
29
  0
MATERIAL
  5
3D
102
{ACAD_REACTORS
330
3B
102
}
102
{ACAD_XDICTIONARY
360
319
102
}
330
3B
100
AcDbMaterial
  1
ByBlock
  0
MATERIAL
  5
3C
102
{ACAD_REACTORS
330
3B
102
}
102
{ACAD_XDICTIONARY
360
317
102
}
330
3B
100
AcDbMaterial
  1
ByLayer
  0
MATERIAL
  5
3E
102
{ACAD_REACTORS
330
3B
102
}
102
{ACAD_XDICTIONARY
360
31B
102
}
330
3B
100
AcDbMaterial
  1
Global
  0
MLINESTYLE
  5
18
102
{ACAD_REACTORS
330
17
102
}
330
17
100
AcDbMlineStyle
  2
Standard
 70
     0
  3

 62
   256
 51
90.0
 52
90.0
 71
     2
 49
0.5
 62
   256
  6
BYLAYER
 49
-0.5
 62
   256
  6
BYLAYER
  0
ACDBPLACEHOLDER
  5
F
102
{ACAD_REACTORS
330
E
102
}
330
E
  0
VISUALSTYLE
  5
2F
102
{ACAD_REACTORS
330
2A
102
}
102
{ACAD_XDICTIONARY
360
2FF
102
}
330
2A
100
AcDbVisualStyle
  2
2dWireframe
 70
     4
 71
     0
 72
     2
 73
     0
 90
        0
 40
-0.6
 41
-30.0
 62
     5
 63
     7
421
 16777215
 74
     1
 91
        4
 64
     7
 65
   257
 75
     1
175
     1
 42
1.0
 92
        0
 66
   257
 43
1.0
 76
     1
 77
     6
 78
     2
 67
     7
 79
     5
170
     0
171
     0
290
     0
174
     0
 93
        1
 44
0.0
173
     0
291
     0
 45
0.0
1001
ACAD
1000
AcDbSavedByObjectVersion
1070
     0
  0
VISUALSTYLE
  5
31
102
{ACAD_REACTORS
330
2A
102
}
102
{ACAD_XDICTIONARY
360
303
102
}
330
2A
100
AcDbVisualStyle
  2
3D Hidden
 70
     6
 71
     1
 72
     2
 73
     2
 90
        0
 40
-0.6
 41
-30.0
 62
     5
 63
     7
421
 16777215
 74
     2
 91
        2
 64
     7
 65
   257
 75
     2
175
     1
 42
40.0
 92
        0
 66
   257
 43
1.0
 76
     1
 77
     6
 78
     2
 67
     7
 79
     3
170
     0
171
     0
290
     0
174
     0
 93
        1
 44
0.0
173
     0
291
     0
 45
0.0
1001
ACAD
1000
AcDbSavedByObjectVersion
1070
     0
  0
VISUALSTYLE
  5
30
102
{ACAD_REACTORS
330
2A
102
}
102
{ACAD_XDICTIONARY
360
301
102
}
330
2A
100
AcDbVisualStyle
  2
3dWireframe
 70
     5
 71
     0
 72
     2
 73
     0
 90
        0
 40
-0.6
 41
-30.0
 62
     5
 63
     7
421
 16777215
 74
     1
 91
        4
 64
     7
 65
   257
 75
     1
175
     1
 42
1.0
 92
        0
 66
   257
 43
1.0
 76
     1
 77
     6
 78
     2
 67
     7
 79
     5
170
     0
171
     0
290
     0
174
     0
 93
        1
 44
0.0
173
     0
291
     0
 45
0.0
1001
ACAD
1000
AcDbSavedByObjectVersion
1070
     0
  0
VISUALSTYLE
  5
32
102
{ACAD_REACTORS
330
2A
102
}
102
{ACAD_XDICTIONARY
360
305
102
}
330
2A
100
AcDbVisualStyle
  2
Basic
 70
     7
 71
     1
 72
     0
 73
     1
 90
        0
 40
-0.6
 41
-30.0
 62
     5
 63
     7
421
 16777215
 74
     0
 91
        4
 64
     7
 65
   257
 75
     1
175
     1
 42
1.0
 92
        8
 66
     7
 43
1.0
 76
     1
 77
     6
 78
     2
 67
     7
 79
     5
170
     0
171
     0
290
     0
174
     0
 93
        1
 44
0.0
173
     0
291
     1
 45
0.0
1001
ACAD
1000
AcDbSavedByObjectVersion
1070
     0
  0
VISUALSTYLE
  5
36
102
{ACAD_REACTORS
330
2A
102
}
102
{ACAD_XDICTIONARY
360
30D
102
}
330
2A
100
AcDbVisualStyle
  2
Brighten
 70
    12
 71
     2
 72
     2
 73
     0
 90
        0
 40
-0.6
 41
-30.0
 62
     5
 63
     7
421
 16777215
 74
     1
 91
        4
 64
     7
 65
   257
 75
     1
175
     1
 42
1.0
 92
        8
 66
     7
 43
1.0
 76
     1
 77
     6
 78
     2
 67
     7
 79
     5
170
     0
171
     0
290
     0
174
     0
 93
        1
 44
50.0
173
     0
291
     1
 45
0.0
1001
ACAD
1000
AcDbSavedByObjectVersion
1070
     0
  0
VISUALSTYLE
  5
3A
102
{ACAD_REACTORS
330
2A
102
}
102
{ACAD_XDICTIONARY
360
315
102
}
330
2A
100
AcDbVisualStyle
  2
ColorChange
 70
    16
 71
     2
 72
     2
 73
     3
 90
        0
 40
-0.6
 41
-30.0
 62
     5
 63
     8
421
  8421504
 74
     1
 91
        4
 64
     7
 65
   257
 75
     1
175
     1
 42
1.0
 92
        8
 66
     8
424
  8421504
 43
1.0
 76
     1
 77
     6
 78
     2
 67
     7
 79
     5
170
     0
171
     0
290
     0
174
     0
 93
        1
 44
0.0
173
     0
291
     1
 45
0.0
1001
ACAD
1000
AcDbSavedByObjectVersion
1070
     0
  0
VISUALSTYLE
  5
34
102
{ACAD_REACTORS
330
2A
102
}
102
{ACAD_XDICTIONARY
360
309
102
}
330
2A
100
AcDbVisualStyle
  2
Conceptual
 70
     9
 71
     3
 72
     2
 73
     0
 90
        0
 40
-0.6
 41
-30.0
 62
     5
 63
     7
421
 16777215
 74
     2
 91
        2
 64
     7
 65
   257
 75
     1
175
     1
 42
40.0
 92
        8
 66
     7
 43
1.0
 76
     1
 77
     6
 78
     2
 67
     7
 79
     3
170
     0
171
     0
290
     0
174
     0
 93
        1
 44
0.0
173
     0
291
     0
 45
0.0
1001
ACAD
1000
AcDbSavedByObjectVersion
1070
     0
  0
VISUALSTYLE
  5
35
102
{ACAD_REACTORS
330
2A
102
}
102
{ACAD_XDICTIONARY
360
30B
102
}
330
2A
100
AcDbVisualStyle
  2
Dim
 70
    11
 71
     2
 72
     2
 73
     0
 90
        0
 40
-0.6
 41
-30.0
 62
     5
 63
     7
421
 16777215
 74
     1
 91
        4
 64
     7
 65
   257
 75
     1
175
     1
 42
1.0
 92
        8
 66
     7
 43
1.0
 76
     1
 77
     6
 78
     2
 67
     7
 79
     5
170
     0
171
     0
290
     0
174
     0
 93
        1
 44
-50.0
173
     0
291
     1
 45
0.0
1001
ACAD
1000
AcDbSavedByObjectVersion
1070
     0
  0
VISUALSTYLE
  5
39
102
{ACAD_REACTORS
330
2A
102
}
102
{ACAD_XDICTIONARY
360
313
102
}
330
2A
100
AcDbVisualStyle
  2
Facepattern
 70
    15
 71
     2
 72
     2
 73
     0
 90
        0
 40
-0.6
 41
-30.0
 62
     5
 63
     7
421
 16777215
 74
     1
 91
        4
 64
     7
 65
   257
 75
     1
175
     1
 42
1.0
 92
        8
 66
     7
 43
1.0
 76
     1
 77
     6
 78
     2
 67
     7
 79
     5
170
     0
171
     0
290
     0
174
     0
 93
        1
 44
0.0
173
     0
291
     1
 45
0.0
1001
ACAD
1000
AcDbSavedByObjectVersion
1070
     0
  0
VISUALSTYLE
  5
2B
102
{ACAD_REACTORS
330
2A
102
}
102
{ACAD_XDICTIONARY
360
2F7
102
}
330
2A
100
AcDbVisualStyle
  2
Flat
 70
     0
 71
     2
 72
     1
 73
     1
 90
        2
 40
-0.6
 41
30.0
 62
     5
 63
     7
421
 16777215
 74
     0
 91
        4
 64
     7
 65
   257
 75
     1
175
     1
 42
1.0
 92
        8
 66
     7
 43
1.0
 76
     1
 77
     6
 78
     2
 67
     7
 79
     5
170
     0
171
     0
290
     0
174
     0
 93
       13
 44
0.0
173
     0
291
     1
 45
0.0
1001
ACAD
1000
AcDbSavedByObjectVersion
1070
     0
  0
VISUALSTYLE
  5
2C
102
{ACAD_REACTORS
330
2A
102
}
102
{ACAD_XDICTIONARY
360
2F9
102
}
330
2A
100
AcDbVisualStyle
  2
FlatWithEdges
 70
     1
 71
     2
 72
     1
 73
     1
 90
        2
 40
-0.6
 41
30.0
 62
     5
 63
     7
421
 16777215
 74
     1
 91
        4
 64
     7
 65
   257
 75
     1
175
     1
 42
1.0
 92
        0
 66
   257
 43
1.0
 76
     1
 77
     6
 78
     2
 67
     7
 79
     5
170
     0
171
     0
290
     0
174
     0
 93
       13
 44
0.0
173
     0
291
     1
 45
0.0
1001
ACAD
1000
AcDbSavedByObjectVersion
1070
     0
  0
VISUALSTYLE
  5
2D
102
{ACAD_REACTORS
330
2A
102
}
102
{ACAD_XDICTIONARY
360
2FB
102
}
330
2A
100
AcDbVisualStyle
  2
Gouraud
 70
     2
 71
     2
 72
     2
 73
     1
 90
        2
 40
-0.6
 41
30.0
 62
     5
 63
     7
421
 16777215
 74
     0
 91
        4
 64
     7
 65
   257
 75
     1
175
     1
 42
1.0
 92
        0
 66
     7
 43
1.0
 76
     1
 77
     6
 78
     2
 67
     7
 79
     5
170
     0
171
     0
290
     0
174
     0
 93
       13
 44
0.0
173
     0
291
     1
 45
0.0
1001
ACAD
1000
AcDbSavedByObjectVersion
1070
     0
  0
VISUALSTYLE
  5
2E
102
{ACAD_REACTORS
330
2A
102
}
102
{ACAD_XDICTIONARY
360
2FD
102
}
330
2A
100
AcDbVisualStyle
  2
GouraudWithEdges
 70
     3
 71
     2
 72
     2
 73
     1
 90
        2
 40
-0.6
 41
30.0
 62
     5
 63
     7
421
 16777215
 74
     1
 91
        4
 64
     7
 65
   257
 75
     1
175
     1
 42
1.0
 92
        0
 66
   257
 43
1.0
 76
     1
 77
     6
 78
     2
 67
     7
 79
     5
170
     0
171
     0
290
     0
174
     0
 93
       13
 44
0.0
173
     0
291
     1
 45
0.0
1001
ACAD
1000
AcDbSavedByObjectVersion
1070
     0
  0
VISUALSTYLE
  5
38
102
{ACAD_REACTORS
330
2A
102
}
102
{ACAD_XDICTIONARY
360
311
102
}
330
2A
100
AcDbVisualStyle
  2
Linepattern
 70
    14
 71
     2
 72
     2
 73
     0
 90
        0
 40
-0.6
 41
-30.0
 62
     5
 63
     7
421
 16777215
 74
     1
 91
        4
 64
     7
 65
   257
 75
     7
175
     7
 42
1.0
 92
        8
 66
     7
 43
1.0
 76
     1
 77
     6
 78
     2
 67
     7
 79
     5
170
     0
171
     0
290
     0
174
     0
 93
        1
 44
0.0
173
     0
291
     1
 45
0.0
1001
ACAD
1000
AcDbSavedByObjectVersion
1070
     0
  0
VISUALSTYLE
  5
33
102
{ACAD_REACTORS
330
2A
102
}
102
{ACAD_XDICTIONARY
360
307
102
}
330
2A
100
AcDbVisualStyle
  2
Realistic
 70
     8
 71
     2
 72
     2
 73
     0
 90
        0
 40
-0.6
 41
-30.0
 62
     5
 63
     7
421
 16777215
 74
     1
 91
        0
 64
     7
 65
   257
 75
     1
175
     1
 42
1.0
 92
        8
 66
     8
424
  7895160
 43
1.0
 76
     1
 77
     6
 78
     2
 67
     7
 79
     5
170
     0
171
     0
290
     0
174
     0
 93
       13
 44
0.0
173
     0
291
     0
 45
0.0
1001
ACAD
1000
AcDbSavedByObjectVersion
1070
     0
  0
VISUALSTYLE
  5
37
102
{ACAD_REACTORS
330
2A
102
}
102
{ACAD_XDICTIONARY
360
30F
102
}
330
2A
100
AcDbVisualStyle
  2
Thicken
 70
    13
 71
     2
 72
     2
 73
     0
 90
        0
 40
-0.6
 41
-30.0
 62
     5
 63
     7
421
 16777215
 74
     1
 91
        4
 64
     7
 65
   257
 75
     1
175
     1
 42
1.0
 92
       12
 66
     7
 43
1.0
 76
     1
 77
     6
 78
     2
 67
     7
 79
     5
170
     0
171
     0
290
     0
174
     0
 93
        1
 44
0.0
173
     0
291
     1
 45
0.0
1001
ACAD
1000
AcDbSavedByObjectVersion
1070
     0
  0
DICTIONARY
  5
319
330
3D
100
AcDbDictionary
280
     1
281
     1
  3
ACAD_XREC_ROUNDTRIP
360
31A
  0
DICTIONARY
  5
317
330
3C
100
AcDbDictionary
280
     1
281
     1
  3
ACAD_XREC_ROUNDTRIP
360
318
  0
DICTIONARY
  5
31B
330
3E
100
AcDbDictionary
280
     1
281
     1
  3
ACAD_XREC_ROUNDTRIP
360
31C
  0
DICTIONARY
  5
2FF
330
2F
100
AcDbDictionary
280
     1
281
     1
  3
ACAD_XREC_ROUNDTRIP
360
300
  0
DICTIONARY
  5
303
330
31
100
AcDbDictionary
280
     1
281
     1
  3
ACAD_XREC_ROUNDTRIP
360
304
  0
DICTIONARY
  5
301
330
30
100
AcDbDictionary
280
     1
281
     1
  3
ACAD_XREC_ROUNDTRIP
360
302
  0
DICTIONARY
  5
305
330
32
100
AcDbDictionary
280
     1
281
     1
  3
ACAD_XREC_ROUNDTRIP
360
306
  0
DICTIONARY
  5
30D
330
36
100
AcDbDictionary
280
     1
281
     1
  3
ACAD_XREC_ROUNDTRIP
360
30E
  0
DICTIONARY
  5
315
330
3A
100
AcDbDictionary
280
     1
281
     1
  3
ACAD_XREC_ROUNDTRIP
360
316
  0
DICTIONARY
  5
309
330
34
100
AcDbDictionary
280
     1
281
     1
  3
ACAD_XREC_ROUNDTRIP
360
30A
  0
DICTIONARY
  5
30B
330
35
100
AcDbDictionary
280
     1
281
     1
  3
ACAD_XREC_ROUNDTRIP
360
30C
  0
DICTIONARY
  5
313
330
39
100
AcDbDictionary
280
     1
281
     1
  3
ACAD_XREC_ROUNDTRIP
360
314
  0
DICTIONARY
  5
2F7
330
2B
100
AcDbDictionary
280
     1
281
     1
  3
ACAD_XREC_ROUNDTRIP
360
2F8
  0
DICTIONARY
  5
2F9
330
2C
100
AcDbDictionary
280
     1
281
     1
  3
ACAD_XREC_ROUNDTRIP
360
2FA
  0
DICTIONARY
  5
2FB
330
2D
100
AcDbDictionary
280
     1
281
     1
  3
ACAD_XREC_ROUNDTRIP
360
2FC
  0
DICTIONARY
  5
2FD
330
2E
100
AcDbDictionary
280
     1
281
     1
  3
ACAD_XREC_ROUNDTRIP
360
2FE
  0
DICTIONARY
  5
311
330
38
100
AcDbDictionary
280
     1
281
     1
  3
ACAD_XREC_ROUNDTRIP
360
312
  0
DICTIONARY
  5
307
330
33
100
AcDbDictionary
280
     1
281
     1
  3
ACAD_XREC_ROUNDTRIP
360
308
  0
DICTIONARY
  5
30F
330
37
100
AcDbDictionary
280
     1
281
     1
  3
ACAD_XREC_ROUNDTRIP
360
310
  0
XRECORD
  5
31A
102
{ACAD_REACTORS
330
319
102
}
330
319
100
AcDbXrecord
280
     1
102
MATERIAL
148
0.0
149
0.0
149
0.0
 93
        0
 94
      127
282
     0
 72
     1
 77
     1
171
     1
175
     1
179
     1
273
     0
  0
XRECORD
  5
318
102
{ACAD_REACTORS
330
317
102
}
330
317
100
AcDbXrecord
280
     1
102
MATERIAL
148
0.0
149
0.0
149
0.0
 93
        0
 94
      127
282
     0
 72
     1
 77
     1
171
     1
175
     1
179
     1
273
     0
  0
XRECORD
  5
31C
102
{ACAD_REACTORS
330
31B
102
}
330
31B
100
AcDbXrecord
280
     1
102
MATERIAL
148
0.0
149
0.0
149
0.0
 93
        0
 94
      127
282
     0
 72
     1
 77
     1
171
     1
175
     1
179
     1
273
     0
  0
XRECORD
  5
300
102
{ACAD_REACTORS
330
2FF
102
}
330
2FF
100
AcDbXrecord
280
     1
102
RTVSPropertyOp0
 70
     1
102
RTVSPropertyOp1
 70
     1
102
RTVSPropertyOp2
 70
     1
102
RTVSPropertyOp3
 70
     1
102
RTVSPropertyOp4
 70
     1
102
RTVSPropertyOp5
 70
     1
102
RTVSPropertyOp6
 70
     1
102
RTVSPropertyOp7
 70
     1
102
RTVSPropertyOp8
 70
     1
102
RTVSPropertyOp9
 70
     1
102
RTVSPropertyOp10
 70
     1
102
RTVSPropertyOp11
 70
     1
102
RTVSPropertyOp12
 70
     1
102
RTVSPropertyOp13
 70
     1
102
RTVSPropertyOp14
 70
     1
102
RTVSPropertyOp15
 70
     1
102
RTVSPropertyOp16
 70
     1
102
RTVSPropertyOp17
 70
     1
102
RTVSPropertyOp18
 70
     1
102
RTVSPropertyOp19
 70
     1
102
RTVSPropertyOp20
 70
     1
102
RTVSPropertyOp21
 70
     1
102
RTVSPropertyOp22
 70
     1
102
RTVSPropertyOp23
 70
     1
102
RTVSPropertyOp24
 70
     1
102
RTVSPropertyOp25
 70
     1
102
RTVSPropertyOp26
 70
     1
102
RTVSPropertyOp27
 70
     1
102
RTVSPropertyOp28
 70
     1
102
RTVSPropertyOp29
 70
     1
102
RTVSPropertyOp30
 70
     1
102
RTVSPropertyOp31
 70
     1
102
RTVSPropertyOp32
 70
     1
  0
XRECORD
  5
304
102
{ACAD_REACTORS
330
303
102
}
330
303
100
AcDbXrecord
280
     1
102
RTVSPropertyOp0
 70
     1
102
RTVSPropertyOp1
 70
     1
102
RTVSPropertyOp2
 70
     1
102
RTVSPropertyOp3
 70
     1
102
RTVSPropertyOp4
 70
     1
102
RTVSPropertyOp5
 70
     1
102
RTVSPropertyOp6
 70
     1
102
RTVSPropertyOp7
 70
     1
102
RTVSPropertyOp8
 70
     1
102
RTVSPropertyOp9
 70
     1
102
RTVSPropertyOp10
 70
     1
102
RTVSPropertyOp11
 70
     1
102
RTVSPropertyOp12
 70
     1
102
RTVSPropertyOp13
 70
     1
102
RTVSPropertyOp14
 70
     1
102
RTVSPropertyOp15
 70
     1
102
RTVSPropertyOp16
 70
     1
102
RTVSPropertyOp17
 70
     1
102
RTVSPropertyOp18
 70
     1
102
RTVSPropertyOp19
 70
     1
102
RTVSPropertyOp20
 70
     1
102
RTVSPropertyOp21
 70
     1
102
RTVSPropertyOp22
 70
     1
102
RTVSPropertyOp23
 70
     1
102
RTVSPropertyOp24
 70
     1
102
RTVSPropertyOp25
 70
     1
102
RTVSPropertyOp26
 70
     1
102
RTVSPropertyOp27
 70
     1
102
RTVSPropertyOp28
 70
     1
102
RTVSPropertyOp29
 70
     1
102
RTVSPropertyOp30
 70
     1
102
RTVSPropertyOp31
 70
     1
102
RTVSPropertyOp32
 70
     1
  0
XRECORD
  5
302
102
{ACAD_REACTORS
330
301
102
}
330
301
100
AcDbXrecord
280
     1
102
RTVSPropertyOp0
 70
     1
102
RTVSPropertyOp1
 70
     1
102
RTVSPropertyOp2
 70
     1
102
RTVSPropertyOp3
 70
     1
102
RTVSPropertyOp4
 70
     1
102
RTVSPropertyOp5
 70
     1
102
RTVSPropertyOp6
 70
     1
102
RTVSPropertyOp7
 70
     1
102
RTVSPropertyOp8
 70
     1
102
RTVSPropertyOp9
 70
     1
102
RTVSPropertyOp10
 70
     1
102
RTVSPropertyOp11
 70
     1
102
RTVSPropertyOp12
 70
     1
102
RTVSPropertyOp13
 70
     1
102
RTVSPropertyOp14
 70
     1
102
RTVSPropertyOp15
 70
     1
102
RTVSPropertyOp16
 70
     1
102
RTVSPropertyOp17
 70
     1
102
RTVSPropertyOp18
 70
     1
102
RTVSPropertyOp19
 70
     1
102
RTVSPropertyOp20
 70
     1
102
RTVSPropertyOp21
 70
     1
102
RTVSPropertyOp22
 70
     1
102
RTVSPropertyOp23
 70
     1
102
RTVSPropertyOp24
 70
     1
102
RTVSPropertyOp25
 70
     1
102
RTVSPropertyOp26
 70
     1
102
RTVSPropertyOp27
 70
     1
102
RTVSPropertyOp28
 70
     1
102
RTVSPropertyOp29
 70
     1
102
RTVSPropertyOp30
 70
     1
102
RTVSPropertyOp31
 70
     1
102
RTVSPropertyOp32
 70
     1
  0
XRECORD
  5
306
102
{ACAD_REACTORS
330
305
102
}
330
305
100
AcDbXrecord
280
     1
102
RTVSPropertyOp0
 70
     1
102
RTVSPropertyOp1
 70
     1
102
RTVSPropertyOp2
 70
     1
102
RTVSPropertyOp3
 70
     1
102
RTVSPropertyOp4
 70
     1
102
RTVSPropertyOp5
 70
     1
102
RTVSPropertyOp6
 70
     1
102
RTVSPropertyOp7
 70
     1
102
RTVSPropertyOp8
 70
     1
102
RTVSPropertyOp9
 70
     1
102
RTVSPropertyOp10
 70
     1
102
RTVSPropertyOp11
 70
     1
102
RTVSPropertyOp12
 70
     1
102
RTVSPropertyOp13
 70
     1
102
RTVSPropertyOp14
 70
     1
102
RTVSPropertyOp15
 70
     1
102
RTVSPropertyOp16
 70
     1
102
RTVSPropertyOp17
 70
     1
102
RTVSPropertyOp18
 70
     1
102
RTVSPropertyOp19
 70
     1
102
RTVSPropertyOp20
 70
     1
102
RTVSPropertyOp21
 70
     1
102
RTVSPropertyOp22
 70
     1
102
RTVSPropertyOp23
 70
     1
102
RTVSPropertyOp24
 70
     1
102
RTVSPropertyOp25
 70
     1
102
RTVSPropertyOp26
 70
     1
102
RTVSPropertyOp27
 70
     1
102
RTVSPropertyOp28
 70
     1
102
RTVSPropertyOp29
 70
     1
102
RTVSPropertyOp30
 70
     1
102
RTVSPropertyOp31
 70
     1
102
RTVSPropertyOp32
 70
     1
  0
XRECORD
  5
30E
102
{ACAD_REACTORS
330
30D
102
}
330
30D
100
AcDbXrecord
280
     1
102
RTVSPropertyOp0
 70
     1
102
RTVSPropertyOp1
 70
     1
102
RTVSPropertyOp2
 70
     1
102
RTVSPropertyOp3
 70
     1
102
RTVSPropertyOp4
 70
     1
102
RTVSPropertyOp5
 70
     1
102
RTVSPropertyOp6
 70
     1
102
RTVSPropertyOp7
 70
     1
102
RTVSPropertyOp8
 70
     1
102
RTVSPropertyOp9
 70
     1
102
RTVSPropertyOp10
 70
     1
102
RTVSPropertyOp11
 70
     1
102
RTVSPropertyOp12
 70
     1
102
RTVSPropertyOp13
 70
     1
102
RTVSPropertyOp14
 70
     1
102
RTVSPropertyOp15
 70
     1
102
RTVSPropertyOp16
 70
     1
102
RTVSPropertyOp17
 70
     1
102
RTVSPropertyOp18
 70
     1
102
RTVSPropertyOp19
 70
     1
102
RTVSPropertyOp20
 70
     1
102
RTVSPropertyOp21
 70
     1
102
RTVSPropertyOp22
 70
     1
102
RTVSPropertyOp23
 70
     1
102
RTVSPropertyOp24
 70
     1
102
RTVSPropertyOp25
 70
     1
102
RTVSPropertyOp26
 70
     1
102
RTVSPropertyOp27
 70
     1
102
RTVSPropertyOp28
 70
     1
102
RTVSPropertyOp29
 70
     1
102
RTVSPropertyOp30
 70
     1
102
RTVSPropertyOp31
 70
     1
102
RTVSPropertyOp32
 70
     1
  0
XRECORD
  5
316
102
{ACAD_REACTORS
330
315
102
}
330
315
100
AcDbXrecord
280
     1
102
RTVSPropertyOp0
 70
     1
102
RTVSPropertyOp1
 70
     1
102
RTVSPropertyOp2
 70
     1
102
RTVSPropertyOp3
 70
     1
102
RTVSPropertyOp4
 70
     1
102
RTVSPropertyOp5
 70
     1
102
RTVSPropertyOp6
 70
     1
102
RTVSPropertyOp7
 70
     1
102
RTVSPropertyOp8
 70
     1
102
RTVSPropertyOp9
 70
     1
102
RTVSPropertyOp10
 70
     1
102
RTVSPropertyOp11
 70
     1
102
RTVSPropertyOp12
 70
     1
102
RTVSPropertyOp13
 70
     1
102
RTVSPropertyOp14
 70
     1
102
RTVSPropertyOp15
 70
     1
102
RTVSPropertyOp16
 70
     1
102
RTVSPropertyOp17
 70
     1
102
RTVSPropertyOp18
 70
     1
102
RTVSPropertyOp19
 70
     1
102
RTVSPropertyOp20
 70
     1
102
RTVSPropertyOp21
 70
     1
102
RTVSPropertyOp22
 70
     1
102
RTVSPropertyOp23
 70
     1
102
RTVSPropertyOp24
 70
     1
102
RTVSPropertyOp25
 70
     1
102
RTVSPropertyOp26
 70
     1
102
RTVSPropertyOp27
 70
     1
102
RTVSPropertyOp28
 70
     1
102
RTVSPropertyOp29
 70
     1
102
RTVSPropertyOp30
 70
     1
102
RTVSPropertyOp31
 70
     1
102
RTVSPropertyOp32
 70
     1
  0
XRECORD
  5
30A
102
{ACAD_REACTORS
330
309
102
}
330
309
100
AcDbXrecord
280
     1
102
RTVSPropertyOp0
 70
     1
102
RTVSPropertyOp1
 70
     1
102
RTVSPropertyOp2
 70
     1
102
RTVSPropertyOp3
 70
     1
102
RTVSPropertyOp4
 70
     1
102
RTVSPropertyOp5
 70
     1
102
RTVSPropertyOp6
 70
     1
102
RTVSPropertyOp7
 70
     1
102
RTVSPropertyOp8
 70
     1
102
RTVSPropertyOp9
 70
     1
102
RTVSPropertyOp10
 70
     1
102
RTVSPropertyOp11
 70
     1
102
RTVSPropertyOp12
 70
     1
102
RTVSPropertyOp13
 70
     1
102
RTVSPropertyOp14
 70
     1
102
RTVSPropertyOp15
 70
     1
102
RTVSPropertyOp16
 70
     1
102
RTVSPropertyOp17
 70
     1
102
RTVSPropertyOp18
 70
     1
102
RTVSPropertyOp19
 70
     1
102
RTVSPropertyOp20
 70
     1
102
RTVSPropertyOp21
 70
     1
102
RTVSPropertyOp22
 70
     1
102
RTVSPropertyOp23
 70
     1
102
RTVSPropertyOp24
 70
     1
102
RTVSPropertyOp25
 70
     1
102
RTVSPropertyOp26
 70
     1
102
RTVSPropertyOp27
 70
     1
102
RTVSPropertyOp28
 70
     1
102
RTVSPropertyOp29
 70
     1
102
RTVSPropertyOp30
 70
     1
102
RTVSPropertyOp31
 70
     1
102
RTVSPropertyOp32
 70
     1
  0
XRECORD
  5
30C
102
{ACAD_REACTORS
330
30B
102
}
330
30B
100
AcDbXrecord
280
     1
102
RTVSPropertyOp0
 70
     1
102
RTVSPropertyOp1
 70
     1
102
RTVSPropertyOp2
 70
     1
102
RTVSPropertyOp3
 70
     1
102
RTVSPropertyOp4
 70
     1
102
RTVSPropertyOp5
 70
     1
102
RTVSPropertyOp6
 70
     1
102
RTVSPropertyOp7
 70
     1
102
RTVSPropertyOp8
 70
     1
102
RTVSPropertyOp9
 70
     1
102
RTVSPropertyOp10
 70
     1
102
RTVSPropertyOp11
 70
     1
102
RTVSPropertyOp12
 70
     1
102
RTVSPropertyOp13
 70
     1
102
RTVSPropertyOp14
 70
     1
102
RTVSPropertyOp15
 70
     1
102
RTVSPropertyOp16
 70
     1
102
RTVSPropertyOp17
 70
     1
102
RTVSPropertyOp18
 70
     1
102
RTVSPropertyOp19
 70
     1
102
RTVSPropertyOp20
 70
     1
102
RTVSPropertyOp21
 70
     1
102
RTVSPropertyOp22
 70
     1
102
RTVSPropertyOp23
 70
     1
102
RTVSPropertyOp24
 70
     1
102
RTVSPropertyOp25
 70
     1
102
RTVSPropertyOp26
 70
     1
102
RTVSPropertyOp27
 70
     1
102
RTVSPropertyOp28
 70
     1
102
RTVSPropertyOp29
 70
     1
102
RTVSPropertyOp30
 70
     1
102
RTVSPropertyOp31
 70
     1
102
RTVSPropertyOp32
 70
     1
  0
XRECORD
  5
314
102
{ACAD_REACTORS
330
313
102
}
330
313
100
AcDbXrecord
280
     1
102
RTVSPropertyOp0
 70
     1
102
RTVSPropertyOp1
 70
     1
102
RTVSPropertyOp2
 70
     1
102
RTVSPropertyOp3
 70
     1
102
RTVSPropertyOp4
 70
     1
102
RTVSPropertyOp5
 70
     1
102
RTVSPropertyOp6
 70
     1
102
RTVSPropertyOp7
 70
     1
102
RTVSPropertyOp8
 70
     1
102
RTVSPropertyOp9
 70
     1
102
RTVSPropertyOp10
 70
     1
102
RTVSPropertyOp11
 70
     1
102
RTVSPropertyOp12
 70
     1
102
RTVSPropertyOp13
 70
     1
102
RTVSPropertyOp14
 70
     1
102
RTVSPropertyOp15
 70
     1
102
RTVSPropertyOp16
 70
     1
102
RTVSPropertyOp17
 70
     1
102
RTVSPropertyOp18
 70
     1
102
RTVSPropertyOp19
 70
     1
102
RTVSPropertyOp20
 70
     1
102
RTVSPropertyOp21
 70
     1
102
RTVSPropertyOp22
 70
     1
102
RTVSPropertyOp23
 70
     1
102
RTVSPropertyOp24
 70
     1
102
RTVSPropertyOp25
 70
     1
102
RTVSPropertyOp26
 70
     1
102
RTVSPropertyOp27
 70
     1
102
RTVSPropertyOp28
 70
     1
102
RTVSPropertyOp29
 70
     1
102
RTVSPropertyOp30
 70
     1
102
RTVSPropertyOp31
 70
     1
102
RTVSPropertyOp32
 70
     1
  0
XRECORD
  5
2F8
102
{ACAD_REACTORS
330
2F7
102
}
330
2F7
100
AcDbXrecord
280
     1
102
RTVSPropertyOp0
 70
     1
102
RTVSPropertyOp1
 70
     1
102
RTVSPropertyOp2
 70
     1
102
RTVSPropertyOp3
 70
     1
102
RTVSPropertyOp4
 70
     1
102
RTVSPropertyOp5
 70
     1
102
RTVSPropertyOp6
 70
     1
102
RTVSPropertyOp7
 70
     1
102
RTVSPropertyOp8
 70
     1
102
RTVSPropertyOp9
 70
     1
102
RTVSPropertyOp10
 70
     1
102
RTVSPropertyOp11
 70
     1
102
RTVSPropertyOp12
 70
     1
102
RTVSPropertyOp13
 70
     1
102
RTVSPropertyOp14
 70
     1
102
RTVSPropertyOp15
 70
     1
102
RTVSPropertyOp16
 70
     1
102
RTVSPropertyOp17
 70
     1
102
RTVSPropertyOp18
 70
     1
102
RTVSPropertyOp19
 70
     1
102
RTVSPropertyOp20
 70
     1
102
RTVSPropertyOp21
 70
     1
102
RTVSPropertyOp22
 70
     1
102
RTVSPropertyOp23
 70
     1
102
RTVSPropertyOp24
 70
     1
102
RTVSPropertyOp25
 70
     1
102
RTVSPropertyOp26
 70
     1
102
RTVSPropertyOp27
 70
     1
102
RTVSPropertyOp28
 70
     1
102
RTVSPropertyOp29
 70
     1
102
RTVSPropertyOp30
 70
     1
102
RTVSPropertyOp31
 70
     1
102
RTVSPropertyOp32
 70
     1
  0
XRECORD
  5
2FA
102
{ACAD_REACTORS
330
2F9
102
}
330
2F9
100
AcDbXrecord
280
     1
102
RTVSPropertyOp0
 70
     1
102
RTVSPropertyOp1
 70
     1
102
RTVSPropertyOp2
 70
     1
102
RTVSPropertyOp3
 70
     1
102
RTVSPropertyOp4
 70
     1
102
RTVSPropertyOp5
 70
     1
102
RTVSPropertyOp6
 70
     1
102
RTVSPropertyOp7
 70
     1
102
RTVSPropertyOp8
 70
     1
102
RTVSPropertyOp9
 70
     1
102
RTVSPropertyOp10
 70
     1
102
RTVSPropertyOp11
 70
     1
102
RTVSPropertyOp12
 70
     1
102
RTVSPropertyOp13
 70
     1
102
RTVSPropertyOp14
 70
     1
102
RTVSPropertyOp15
 70
     1
102
RTVSPropertyOp16
 70
     1
102
RTVSPropertyOp17
 70
     1
102
RTVSPropertyOp18
 70
     1
102
RTVSPropertyOp19
 70
     1
102
RTVSPropertyOp20
 70
     1
102
RTVSPropertyOp21
 70
     1
102
RTVSPropertyOp22
 70
     1
102
RTVSPropertyOp23
 70
     1
102
RTVSPropertyOp24
 70
     1
102
RTVSPropertyOp25
 70
     1
102
RTVSPropertyOp26
 70
     1
102
RTVSPropertyOp27
 70
     1
102
RTVSPropertyOp28
 70
     1
102
RTVSPropertyOp29
 70
     1
102
RTVSPropertyOp30
 70
     1
102
RTVSPropertyOp31
 70
     1
102
RTVSPropertyOp32
 70
     1
  0
XRECORD
  5
2FC
102
{ACAD_REACTORS
330
2FB
102
}
330
2FB
100
AcDbXrecord
280
     1
102
RTVSPropertyOp0
 70
     1
102
RTVSPropertyOp1
 70
     1
102
RTVSPropertyOp2
 70
     1
102
RTVSPropertyOp3
 70
     1
102
RTVSPropertyOp4
 70
     1
102
RTVSPropertyOp5
 70
     1
102
RTVSPropertyOp6
 70
     1
102
RTVSPropertyOp7
 70
     1
102
RTVSPropertyOp8
 70
     1
102
RTVSPropertyOp9
 70
     1
102
RTVSPropertyOp10
 70
     1
102
RTVSPropertyOp11
 70
     1
102
RTVSPropertyOp12
 70
     1
102
RTVSPropertyOp13
 70
     1
102
RTVSPropertyOp14
 70
     1
102
RTVSPropertyOp15
 70
     1
102
RTVSPropertyOp16
 70
     1
102
RTVSPropertyOp17
 70
     1
102
RTVSPropertyOp18
 70
     1
102
RTVSPropertyOp19
 70
     1
102
RTVSPropertyOp20
 70
     1
102
RTVSPropertyOp21
 70
     1
102
RTVSPropertyOp22
 70
     1
102
RTVSPropertyOp23
 70
     1
102
RTVSPropertyOp24
 70
     1
102
RTVSPropertyOp25
 70
     1
102
RTVSPropertyOp26
 70
     1
102
RTVSPropertyOp27
 70
     1
102
RTVSPropertyOp28
 70
     1
102
RTVSPropertyOp29
 70
     1
102
RTVSPropertyOp30
 70
     1
102
RTVSPropertyOp31
 70
     1
102
RTVSPropertyOp32
 70
     1
  0
XRECORD
  5
2FE
102
{ACAD_REACTORS
330
2FD
102
}
330
2FD
100
AcDbXrecord
280
     1
102
RTVSPropertyOp0
 70
     1
102
RTVSPropertyOp1
 70
     1
102
RTVSPropertyOp2
 70
     1
102
RTVSPropertyOp3
 70
     1
102
RTVSPropertyOp4
 70
     1
102
RTVSPropertyOp5
 70
     1
102
RTVSPropertyOp6
 70
     1
102
RTVSPropertyOp7
 70
     1
102
RTVSPropertyOp8
 70
     1
102
RTVSPropertyOp9
 70
     1
102
RTVSPropertyOp10
 70
     1
102
RTVSPropertyOp11
 70
     1
102
RTVSPropertyOp12
 70
     1
102
RTVSPropertyOp13
 70
     1
102
RTVSPropertyOp14
 70
     1
102
RTVSPropertyOp15
 70
     1
102
RTVSPropertyOp16
 70
     1
102
RTVSPropertyOp17
 70
     1
102
RTVSPropertyOp18
 70
     1
102
RTVSPropertyOp19
 70
     1
102
RTVSPropertyOp20
 70
     1
102
RTVSPropertyOp21
 70
     1
102
RTVSPropertyOp22
 70
     1
102
RTVSPropertyOp23
 70
     1
102
RTVSPropertyOp24
 70
     1
102
RTVSPropertyOp25
 70
     1
102
RTVSPropertyOp26
 70
     1
102
RTVSPropertyOp27
 70
     1
102
RTVSPropertyOp28
 70
     1
102
RTVSPropertyOp29
 70
     1
102
RTVSPropertyOp30
 70
     1
102
RTVSPropertyOp31
 70
     1
102
RTVSPropertyOp32
 70
     1
  0
XRECORD
  5
312
102
{ACAD_REACTORS
330
311
102
}
330
311
100
AcDbXrecord
280
     1
102
RTVSPropertyOp0
 70
     1
102
RTVSPropertyOp1
 70
     1
102
RTVSPropertyOp2
 70
     1
102
RTVSPropertyOp3
 70
     1
102
RTVSPropertyOp4
 70
     1
102
RTVSPropertyOp5
 70
     1
102
RTVSPropertyOp6
 70
     1
102
RTVSPropertyOp7
 70
     1
102
RTVSPropertyOp8
 70
     1
102
RTVSPropertyOp9
 70
     1
102
RTVSPropertyOp10
 70
     1
102
RTVSPropertyOp11
 70
     1
102
RTVSPropertyOp12
 70
     1
102
RTVSPropertyOp13
 70
     1
102
RTVSPropertyOp14
 70
     1
102
RTVSPropertyOp15
 70
     1
102
RTVSPropertyOp16
 70
     1
102
RTVSPropertyOp17
 70
     1
102
RTVSPropertyOp18
 70
     1
102
RTVSPropertyOp19
 70
     1
102
RTVSPropertyOp20
 70
     1
102
RTVSPropertyOp21
 70
     1
102
RTVSPropertyOp22
 70
     1
102
RTVSPropertyOp23
 70
     1
102
RTVSPropertyOp24
 70
     1
102
RTVSPropertyOp25
 70
     1
102
RTVSPropertyOp26
 70
     1
102
RTVSPropertyOp27
 70
     1
102
RTVSPropertyOp28
 70
     1
102
RTVSPropertyOp29
 70
     1
102
RTVSPropertyOp30
 70
     1
102
RTVSPropertyOp31
 70
     1
102
RTVSPropertyOp32
 70
     1
  0
XRECORD
  5
308
102
{ACAD_REACTORS
330
307
102
}
330
307
100
AcDbXrecord
280
     1
102
RTVSPropertyOp0
 70
     1
102
RTVSPropertyOp1
 70
     1
102
RTVSPropertyOp2
 70
     1
102
RTVSPropertyOp3
 70
     1
102
RTVSPropertyOp4
 70
     1
102
RTVSPropertyOp5
 70
     1
102
RTVSPropertyOp6
 70
     1
102
RTVSPropertyOp7
 70
     1
102
RTVSPropertyOp8
 70
     1
102
RTVSPropertyOp9
 70
     1
102
RTVSPropertyOp10
 70
     1
102
RTVSPropertyOp11
 70
     1
102
RTVSPropertyOp12
 70
     1
102
RTVSPropertyOp13
 70
     1
102
RTVSPropertyOp14
 70
     1
102
RTVSPropertyOp15
 70
     1
102
RTVSPropertyOp16
 70
     1
102
RTVSPropertyOp17
 70
     1
102
RTVSPropertyOp18
 70
     1
102
RTVSPropertyOp19
 70
     1
102
RTVSPropertyOp20
 70
     1
102
RTVSPropertyOp21
 70
     1
102
RTVSPropertyOp22
 70
     1
102
RTVSPropertyOp23
 70
     1
102
RTVSPropertyOp24
 70
     1
102
RTVSPropertyOp25
 70
     1
102
RTVSPropertyOp26
 70
     1
102
RTVSPropertyOp27
 70
     1
102
RTVSPropertyOp28
 70
     1
102
RTVSPropertyOp29
 70
     1
102
RTVSPropertyOp30
 70
     1
102
RTVSPropertyOp31
 70
     1
102
RTVSPropertyOp32
 70
     1
  0
XRECORD
  5
310
102
{ACAD_REACTORS
330
30F
102
}
330
30F
100
AcDbXrecord
280
     1
102
RTVSPropertyOp0
 70
     1
102
RTVSPropertyOp1
 70
     1
102
RTVSPropertyOp2
 70
     1
102
RTVSPropertyOp3
 70
     1
102
RTVSPropertyOp4
 70
     1
102
RTVSPropertyOp5
 70
     1
102
RTVSPropertyOp6
 70
     1
102
RTVSPropertyOp7
 70
     1
102
RTVSPropertyOp8
 70
     1
102
RTVSPropertyOp9
 70
     1
102
RTVSPropertyOp10
 70
     1
102
RTVSPropertyOp11
 70
     1
102
RTVSPropertyOp12
 70
     1
102
RTVSPropertyOp13
 70
     1
102
RTVSPropertyOp14
 70
     1
102
RTVSPropertyOp15
 70
     1
102
RTVSPropertyOp16
 70
     1
102
RTVSPropertyOp17
 70
     1
102
RTVSPropertyOp18
 70
     1
102
RTVSPropertyOp19
 70
     1
102
RTVSPropertyOp20
 70
     1
102
RTVSPropertyOp21
 70
     1
102
RTVSPropertyOp22
 70
     1
102
RTVSPropertyOp23
 70
     1
102
RTVSPropertyOp24
 70
     1
102
RTVSPropertyOp25
 70
     1
102
RTVSPropertyOp26
 70
     1
102
RTVSPropertyOp27
 70
     1
102
RTVSPropertyOp28
 70
     1
102
RTVSPropertyOp29
 70
     1
102
RTVSPropertyOp30
 70
     1
102
RTVSPropertyOp31
 70
     1
102
RTVSPropertyOp32
 70
     1
  0
ENDSEC
  0
EOF
