  0
SECTION
  2
HEADER
  9
$ACADVER
  1
AC1018
  9
$ACADMAINTVER
 70
     0
  9
$DWGCODEPAGE
  3
ANSI_1252
  9
$INSBASE
 10
0.0
 20
0.0
 30
0.0
  9
$EXTMIN
 10
-232.483687039732
 20
0.89739801397008
 30
0.0
  9
$EXTMAX
 10
64.51631296026608
 20
210.8973980139702
 30
0.0
  9
$LIMMIN
 10
0.0
 20
0.0
  9
$LIMMAX
 10
12.0
 20
9.0
  9
$ORTHOMODE
 70
     0
  9
$REGENMODE
 70
     1
  9
$FILLMODE
 70
     1
  9
$QTEXTMODE
 70
     0
  9
$MIRRTEXT
 70
     1
  9
$LTSCALE
 40
1.0
  9
$ATTMODE
 70
     1
  9
$TEXTSIZE
 40
0.2
  9
$TRACEWID
 40
0.05
  9
$TEXTSTYLE
  7
Standard
  9
$CLAYER
  8
0
  9
$CELTYPE
  6
ByLayer
  9
$CECOLOR
 62
   256
  9
$CELTSCALE
 40
1.0
  9
$DISPSILH
 70
     0
  9
$DIMSCALE
 40
1.0
  9
$DIMASZ
 40
0.18
  9
$DIMEXO
 40
0.0625
  9
$DIMDLI
 40
0.38
  9
$DIMRND
 40
0.0
  9
$DIMDLE
 40
0.0
  9
$DIMEXE
 40
0.18
  9
$DIMTP
 40
0.0
  9
$DIMTM
 40
0.0
  9
$DIMTXT
 40
0.18
  9
$DIMCEN
 40
0.09
  9
$DIMTSZ
 40
0.0
  9
$DIMTOL
 70
     0
  9
$DIMLIM
 70
     0
  9
$DIMTIH
 70
     1
  9
$DIMTOH
 70
     1
  9
$DIMSE1
 70
     0
  9
$DIMSE2
 70
     0
  9
$DIMTAD
 70
     0
  9
$DIMZIN
 70
     0
  9
$DIMBLK
  1

  9
$DIMASO
 70
     1
  9
$DIMSHO
 70
     1
  9
$DIMPOST
  1

  9
$DIMAPOST
  1

  9
$DIMALT
 70
     0
  9
$DIMALTD
 70
     2
  9
$DIMALTF
 40
25.4
  9
$DIMLFAC
 40
1.0
  9
$DIMTOFL
 70
     0
  9
$DIMTVP
 40
0.0
  9
$DIMTIX
 70
     0
  9
$DIMSOXD
 70
     0
  9
$DIMSAH
 70
     0
  9
$DIMBLK1
  1

  9
$DIMBLK2
  1

  9
$DIMSTYLE
  2
Standard
  9
$DIMCLRD
 70
     0
  9
$DIMCLRE
 70
     0
  9
$DIMCLRT
 70
     0
  9
$DIMTFAC
 40
1.0
  9
$DIMGAP
 40
0.09
  9
$DIMJUST
 70
     0
  9
$DIMSD1
 70
     0
  9
$DIMSD2
 70
     0
  9
$DIMTOLJ
 70
     1
  9
$DIMTZIN
 70
     0
  9
$DIMALTZ
 70
     0
  9
$DIMALTTZ
 70
     0
  9
$DIMUPT
 70
     0
  9
$DIMDEC
 70
     4
  9
$DIMTDEC
 70
     4
  9
$DIMALTU
 70
     2
  9
$DIMALTTD
 70
     2
  9
$DIMTXSTY
  7
Standard
  9
$DIMAUNIT
 70
     0
  9
$DIMADEC
 70
     0
  9
$DIMALTRND
 40
0.0
  9
$DIMAZIN
 70
     0
  9
$DIMDSEP
 70
    46
  9
$DIMATFIT
 70
     3
  9
$DIMFRAC
 70
     0
  9
$DIMLDRBLK
  1

  9
$DIMLUNIT
 70
     2
  9
$DIMLWD
 70
    -2
  9
$DIMLWE
 70
    -2
  9
$DIMTMOVE
 70
     0
  9
$LUNITS
 70
     2
  9
$LUPREC
 70
     4
  9
$SKETCHINC
 40
0.1
  9
$FILLETRAD
 40
0.5
  9
$AUNITS
 70
     0
  9
$AUPREC
 70
     0
  9
$MENU
  1
.
  9
$ELEVATION
 40
0.0
  9
$PELEVATION
 40
0.0
  9
$THICKNESS
 40
0.0
  9
$LIMCHECK
 70
     0
  9
$CHAMFERA
 40
0.5
  9
$CHAMFERB
 40
0.5
  9
$CHAMFERC
 40
1.0
  9
$CHAMFERD
 40
0.0
  9
$SKPOLY
 70
     0
  9
$TDCREATE
 40
2458481.448018993
  9
$TDUCREATE
 40
2458481.406352326
  9
$TDUPDATE
 40
2458481.44801963
  9
$TDUUPDATE
 40
2458481.406352963
  9
$TDINDWG
 40
0.0000000116
  9
$TDUSRTIMER
 40
0.0000000116
  9
$USRTIMER
 70
     1
  9
$ANGBASE
 50
0.0
  9
$ANGDIR
 70
     0
  9
$PDMODE
 70
     0
  9
$PDSIZE
 40
0.0
  9
$PLINEWID
 40
0.0
  9
$SPLFRAME
 70
     0
  9
$SPLINETYPE
 70
     6
  9
$SPLINESEGS
 70
     8
  9
$HANDSEED
  5
530
  9
$SURFTAB1
 70
     6
  9
$SURFTAB2
 70
     6
  9
$SURFTYPE
 70
     6
  9
$SURFU
 70
     6
  9
$SURFV
 70
     6
  9
$UCSBASE
  2

  9
$UCSNAME
  2

  9
$UCSORG
 10
0.0
 20
0.0
 30
0.0
  9
$UCSXDIR
 10
1.0
 20
0.0
 30
0.0
  9
$UCSYDIR
 10
0.0
 20
1.0
 30
0.0
  9
$UCSORTHOREF
  2

  9
$UCSORTHOVIEW
 70
     0
  9
$UCSORGTOP
 10
0.0
 20
0.0
 30
0.0
  9
$UCSORGBOTTOM
 10
0.0
 20
0.0
 30
0.0
  9
$UCSORGLEFT
 10
0.0
 20
0.0
 30
0.0
  9
$UCSORGRIGHT
 10
0.0
 20
0.0
 30
0.0
  9
$UCSORGFRONT
 10
0.0
 20
0.0
 30
0.0
  9
$UCSORGBACK
 10
0.0
 20
0.0
 30
0.0
  9
$PUCSBASE
  2

  9
$PUCSNAME
  2

  9
$PUCSORG
 10
0.0
 20
0.0
 30
0.0
  9
$PUCSXDIR
 10
1.0
 20
0.0
 30
0.0
  9
$PUCSYDIR
 10
0.0
 20
1.0
 30
0.0
  9
$PUCSORTHOREF
  2

  9
$PUCSORTHOVIEW
 70
     0
  9
$PUCSORGTOP
 10
0.0
 20
0.0
 30
0.0
  9
$PUCSORGBOTTOM
 10
0.0
 20
0.0
 30
0.0
  9
$PUCSORGLEFT
 10
0.0
 20
0.0
 30
0.0
  9
$PUCSORGRIGHT
 10
0.0
 20
0.0
 30
0.0
  9
$PUCSORGFRONT
 10
0.0
 20
0.0
 30
0.0
  9
$PUCSORGBACK
 10
0.0
 20
0.0
 30
0.0
  9
$USERI1
 70
     0
  9
$USERI2
 70
     0
  9
$USERI3
 70
     0
  9
$USERI4
 70
     0
  9
$USERI5
 70
     0
  9
$USERR1
 40
18.1
  9
$USERR2
 40
0.0
  9
$USERR3
 40
0.0
  9
$USERR4
 40
0.0
  9
$USERR5
 40
0.0
  9
$WORLDVIEW
 70
     1
  9
$SHADEDGE
 70
     3
  9
$SHADEDIF
 70
    70
  9
$TILEMODE
 70
     1
  9
$MAXACTVP
 70
    64
  9
$PINSBASE
 10
0.0
 20
0.0
 30
0.0
  9
$PLIMCHECK
 70
     0
  9
$PEXTMIN
 10
1.00000000000000E+20
 20
1.00000000000000E+20
 30
1.00000000000000E+20
  9
$PEXTMAX
 10
-1.00000000000000E+20
 20
-1.00000000000000E+20
 30
-1.00000000000000E+20
  9
$PLIMMIN
 10
0.0
 20
0.0
  9
$PLIMMAX
 10
12.0
 20
9.0
  9
$UNITMODE
 70
     0
  9
$VISRETAIN
 70
     1
  9
$PLINEGEN
 70
     0
  9
$PSLTSCALE
 70
     1
  9
$TREEDEPTH
 70
  3020
  9
$CMLSTYLE
  2
Standard
  9
$CMLJUST
 70
     0
  9
$CMLSCALE
 40
1.0
  9
$PROXYGRAPHICS
 70
     1
  9
$MEASUREMENT
 70
     1
  9
$CELWEIGHT
370
    -1
  9
$ENDCAPS
280
     0
  9
$JOINSTYLE
280
     0
  9
$LWDISPLAY
290
     0
  9
$INSUNITS
 70
     4
  9
$HYPERLINKBASE
  1

  9
$STYLESHEET
  1

  9
$XEDIT
290
     1
  9
$CEPSNTYPE
380
     0
  9
$PSTYLEMODE
290
     1
  9
$FINGERPRINTGUID
  2
{62F6E0DE-81C0-49BB-BD11-E94FE9E72E33}
  9
$VERSIONGUID
  2
{FAEB1C32-E019-11D5-929B-00C0DF256EC4}
  9
$EXTNAMES
290
     1
  9
$PSVPSCALE
 40
0.0
  9
$OLESTARTUP
290
     0
  9
$SORTENTS
280
   127
  9
$INDEXCTL
280
     0
  9
$HIDETEXT
280
     1
  9
$XCLIPFRAME
290
     0
  9
$HALOGAP
280
     0
  9
$OBSCOLOR
 70
   257
  9
$OBSLTYPE
280
     0
  9
$INTERSECTIONDISPLAY
280
     0
  9
$INTERSECTIONCOLOR
 70
   257
  9
$DIMASSOC
280
     2
  9
$PROJECTNAME
  1

  0
ENDSEC
  0
SECTION
  2
CLASSES
  0
CLASS
  1
ACDBDICTIONARYWDFLT
  2
AcDbDictionaryWithDefault
  3
ObjectDBX Classes
 90
        0
 91
        4
280
     0
281
     0
  0
CLASS
  1
VISUALSTYLE
  2
AcDbVisualStyle
  3
ObjectDBX Classes
 90
     4095
 91
        4
280
     0
281
     0
  0
CLASS
  1
MATERIAL
  2
AcDbMaterial
  3
ObjectDBX Classes
 90
     1153
 91
        4
280
     0
281
     0
  0
ENDSEC
  0
SECTION
  2
TABLES
  0
TABLE
  2
VPORT
  5
8
330
0
100
AcDbSymbolTable
 70
     1
  0
VPORT
  5
29
330
8
100
AcDbSymbolTableRecord
100
AcDbViewportTableRecord
  2
*Active
 70
     0
 10
0.0
 20
0.0
 11
1.0
 21
1.0
 12
-83.98368703973296
 22
105.8973980139701
 13
0.0
 23
0.0
 14
0.5
 24
0.5
 15
0.5
 25
0.5
 16
0.0
 26
0.0
 36
1.0
 17
0.0
 27
0.0
 37
0.0
 40
231.0000000000001
 41
1.60267857142857
 42
50.0
 43
0.0
 44
0.0
 50
0.0
 51
0.0
 71
     0
 72
   100
 73
     1
 74
     3
 75
     0
 76
     0
 77
     0
 78
     0
281
     0
 65
     1
110
0.0
120
0.0
130
0.0
111
1.0
121
0.0
131
0.0
112
0.0
122
1.0
132
0.0
 79
     0
146
0.0
  0
ENDTAB
  0
TABLE
  2
LTYPE
  5
5
330
0
100
AcDbSymbolTable
 70
     8
  0
LTYPE
  5
14
330
5
100
AcDbSymbolTableRecord
100
AcDbLinetypeTableRecord
  2
ByBlock
 70
     0
  3

 72
    65
 73
     0
 40
0.0
  0
LTYPE
  5
15
330
5
100
AcDbSymbolTableRecord
100
AcDbLinetypeTableRecord
  2
ByLayer
 70
     0
  3

 72
    65
 73
     0
 40
0.0
  0
LTYPE
  5
16
330
5
100
AcDbSymbolTableRecord
100
AcDbLinetypeTableRecord
  2
Continuous
 70
     0
  3
Solid line
 72
    65
 73
     0
 40
0.0
  0
LTYPE
  5
3F
330
5
100
AcDbSymbolTableRecord
100
AcDbLinetypeTableRecord
  2
DASHED
 70
     0
  3
Dashed
 72
    65
 73
     2
 40
15.0
 49
7.0
 74
     0
 49
-8.0
 74
     0
  0
LTYPE
  5
40
330
5
100
AcDbSymbolTableRecord
100
AcDbLinetypeTableRecord
  2
DOTTED
 70
     0
  3
Dotted
 72
    65
 73
     2
 40
1.0
 49
0.0
 74
     0
 49
-1.0
 74
     0
  0
LTYPE
  5
41
330
5
100
AcDbSymbolTableRecord
100
AcDbLinetypeTableRecord
  2
DOT_CENTER
 70
     0
  3
Dot_Center
 72
    65
 73
     4
 40
14.0
 49
12.0
 74
     0
 49
-1.0
 74
     0
 49
0.0
 74
     0
 49
-1.0
 74
     0
  0
LTYPE
  5
42
330
5
100
AcDbSymbolTableRecord
100
AcDbLinetypeTableRecord
  2
LONG_DASHED
 70
     0
  3
Long_Dashed
 72
    65
 73
     2
 40
15.0
 49
10.0
 74
     0
 49
-5.0
 74
     0
  0
LTYPE
  5
43
330
5
100
AcDbSymbolTableRecord
100
AcDbLinetypeTableRecord
  2
DASH_CENTER
 70
     0
  3
Dash_Center
 72
    65
 73
     4
 40
14.0
 49
11.0
 74
     0
 49
-1.0
 74
     0
 49
1.0
 74
     0
 49
-1.0
 74
     0
  0
LTYPE
  5
44
330
5
100
AcDbSymbolTableRecord
100
AcDbLinetypeTableRecord
  2
PHANTOM
 70
     0
  3
Phantom
 72
    65
 73
     6
 40
13.0
 49
10.0
 74
     0
 49
-1.0
 74
     0
 49
0.0
 74
     0
 49
-1.0
 74
     0
 49
0.0
 74
     0
 49
-1.0
 74
     0
  0
LTYPE
  5
45
330
5
100
AcDbSymbolTableRecord
100
AcDbLinetypeTableRecord
  2
CENTER_DASH_DASH
 70
     0
  3
Center_Dash_Dash
 72
    65
 73
     6
 40
14.0
 49
9.0
 74
     0
 49
-1.0
 74
     0
 49
1.0
 74
     0
 49
-1.0
 74
     0
 49
1.0
 74
     0
 49
-1.0
 74
     0
  0
ENDTAB
  0
TABLE
  2
LAYER
  5
2
330
0
100
AcDbSymbolTable
 70
     2
  0
LAYER
  5
10
330
2
100
AcDbSymbolTableRecord
100
AcDbLayerTableRecord
  2
0
 70
     0
 62
     7
  6
Continuous
370
    -3
390
F
  0
LAYER
  5
46
330
2
100
AcDbSymbolTableRecord
100
AcDbLayerTableRecord
  2
1
 70
     0
 62
     7
  6
Continuous
370
    -3
390
F
  0
ENDTAB
  0
TABLE
  2
STYLE
  5
3
330
0
100
AcDbSymbolTable
 70
     5
  0
STYLE
  5
11
330
3
100
AcDbSymbolTableRecord
100
AcDbTextStyleTableRecord
  2
Standard
 70
     0
 40
0.0
 41
1.0
 50
0.0
 71
     0
 42
0.2
  3
txt
  4

  0
STYLE
  5
C3
330
3
100
AcDbSymbolTableRecord
100
AcDbTextStyleTableRecord
  2
CONVERTER_11
 70
     0
 40
0.0
 41
0.9
 50
0.0
 71
     0
 42
0.2
  3
txt.shx
  4

  0
STYLE
  5
4CB
330
3
100
AcDbSymbolTableRecord
100
AcDbTextStyleTableRecord
  2
CONVERTER_12
 70
     0
 40
0.0
 41
0.81
 50
0.0
 71
     0
 42
0.2
  3
txt.shx
  4

  0
STYLE
  5
4E1
330
3
100
AcDbSymbolTableRecord
100
AcDbTextStyleTableRecord
  2
CONVERTER_13
 70
     0
 40
0.0
 41
0.72
 50
0.0
 71
     0
 42
0.2
  3
txt.shx
  4

  0
STYLE
  5
4E4
330
3
100
AcDbSymbolTableRecord
100
AcDbTextStyleTableRecord
  2
CONVERTER_14
 70
     0
 40
0.0
 41
0.855
 50
0.0
 71
     0
 42
0.2
  3
txt.shx
  4

  0
ENDTAB
  0
TABLE
  2
VIEW
  5
6
330
0
100
AcDbSymbolTable
 70
     0
  0
ENDTAB
  0
TABLE
  2
UCS
  5
7
330
0
100
AcDbSymbolTable
 70
     0
  0
ENDTAB
  0
TABLE
  2
APPID
  5
9
330
0
100
AcDbSymbolTable
 70
     1
  0
APPID
  5
12
330
9
100
AcDbSymbolTableRecord
100
AcDbRegAppTableRecord
  2
ACAD
 70
     0
  0
ENDTAB
  0
TABLE
  2
DIMSTYLE
  5
A
330
0
100
AcDbSymbolTable
 70
     4
100
AcDbDimStyleTable
  0
DIMSTYLE
105
27
330
A
100
AcDbSymbolTableRecord
100
AcDbDimStyleTableRecord
  2
Standard
 70
     0
178
     0
340
11
  0
DIMSTYLE
105
C7
102
{ACAD_REACTORS
330
C8
102
}
330
A
100
AcDbSymbolTableRecord
100
AcDbDimStyleTableRecord
  2
ME10_DIM_10
 70
     0
 41
1.75
 42
0.0
 44
0.75
 73
     0
 74
     0
 77
     1
 78
     8
140
1.75
147
0.75
172
     1
173
     1
174
     1
175
     1
176
     2
177
     2
271
     2
178
     3
271
     2
340
C3
  0
DIMSTYLE
105
D2
102
{ACAD_REACTORS
330
D3
102
}
330
A
100
AcDbSymbolTableRecord
100
AcDbDimStyleTableRecord
  2
ME10_DIM_11
 70
     0
 41
1.75
 42
0.0
 44
0.75
 73
     0
 74
     0
 77
     1
 78
     8
140
1.75
147
0.75
172
     1
173
     1
174
     1
175
     1
176
     2
177
     2
271
     2
178
     3
271
     2
340
C3
  0
DIMSTYLE
105
3CD
102
{ACAD_REACTORS
330
3CE
102
}
330
A
100
AcDbSymbolTableRecord
100
AcDbDimStyleTableRecord
  2
ME10_DIM_12
 70
     0
 41
1.75
 42
0.0
 44
0.75
 73
     0
 74
     0
 77
     1
 78
     8
140
1.75
147
0.75
172
     1
173
     1
174
     1
175
     1
176
     2
177
     2
178
     3
340
C3
  0
ENDTAB
  0
TABLE
  2
BLOCK_RECORD
  5
1
330
0
100
AcDbSymbolTable
 70
    20
  0
BLOCK_RECORD
  5
1F
330
1
100
AcDbSymbolTableRecord
100
AcDbBlockTableRecord
  2
*Model_Space
340
22
  0
BLOCK_RECORD
  5
1B
330
1
100
AcDbSymbolTableRecord
100
AcDbBlockTableRecord
  2
*Paper_Space
340
1E
  0
BLOCK_RECORD
  5
23
330
1
100
AcDbSymbolTableRecord
100
AcDbBlockTableRecord
  2
*Paper_Space0
340
26
  0
BLOCK_RECORD
  5
47
330
1
100
AcDbSymbolTableRecord
100
AcDbBlockTableRecord
  2
PPC_1_5_S_5-select__1
340
0
102
{BLKREFS
331
4B
102
}
  0
BLOCK_RECORD
  5
4A
330
1
100
AcDbSymbolTableRecord
100
AcDbBlockTableRecord
  2
Back1
340
0
102
{BLKREFS
331
7D
102
}
  0
BLOCK_RECORD
  5
4E
330
1
100
AcDbSymbolTableRecord
100
AcDbBlockTableRecord
  2
PPC_1_5_S_5-select__2
340
0
102
{BLKREFS
331
52
102
}
  0
BLOCK_RECORD
  5
51
330
1
100
AcDbSymbolTableRecord
100
AcDbBlockTableRecord
  2
Front1
340
0
102
{BLKREFS
331
7E
102
}
  0
BLOCK_RECORD
  5
55
330
1
100
AcDbSymbolTableRecord
100
AcDbBlockTableRecord
  2
PPC_1_5_S_5-select__3
340
0
102
{BLKREFS
331
59
102
}
  0
BLOCK_RECORD
  5
58
330
1
100
AcDbSymbolTableRecord
100
AcDbBlockTableRecord
  2
Gen1
340
0
102
{BLKREFS
331
7F
102
}
  0
BLOCK_RECORD
  5
5C
330
1
100
AcDbSymbolTableRecord
100
AcDbBlockTableRecord
  2
PPC_1_5_S_5-select__4
340
0
102
{BLKREFS
331
60
102
}
  0
BLOCK_RECORD
  5
5F
330
1
100
AcDbSymbolTableRecord
100
AcDbBlockTableRecord
  2
Left1
340
0
102
{BLKREFS
331
80
102
}
  0
BLOCK_RECORD
  5
63
330
1
100
AcDbSymbolTableRecord
100
AcDbBlockTableRecord
  2
PPC_1_5_S_5-select__5
340
0
102
{BLKREFS
331
67
102
}
  0
BLOCK_RECORD
  5
66
330
1
100
AcDbSymbolTableRecord
100
AcDbBlockTableRecord
  2
Right1
340
0
102
{BLKREFS
331
81
102
}
  0
BLOCK_RECORD
  5
6A
330
1
100
AcDbSymbolTableRecord
100
AcDbBlockTableRecord
  2
PPC_1_5_S_5-select__6
340
0
102
{BLKREFS
331
6E
102
}
  0
BLOCK_RECORD
  5
6D
330
1
100
AcDbSymbolTableRecord
100
AcDbBlockTableRecord
  2
Top1
340
0
102
{BLKREFS
331
82
102
}
  0
BLOCK_RECORD
  5
71
330
1
100
AcDbSymbolTableRecord
100
AcDbBlockTableRecord
  2
_rahmen
340
0
102
{BLKREFS
331
78
102
}
  0
BLOCK_RECORD
  5
74
330
1
100
AcDbSymbolTableRecord
100
AcDbBlockTableRecord
  2
_punkt
340
0
102
{BLKREFS
331
79
102
}
  0
BLOCK_RECORD
  5
77
330
1
100
AcDbSymbolTableRecord
100
AcDbBlockTableRecord
  2
A4I_CS
340
0
102
{BLKREFS
331
83
102
}
  0
BLOCK_RECORD
  5
7C
330
1
100
AcDbSymbolTableRecord
100
AcDbBlockTableRecord
  2
1
340
0
102
{BLKREFS
331
86
102
}
  0
BLOCK_RECORD
  5
BC
330
1
100
AcDbSymbolTableRecord
100
AcDbBlockTableRecord
  2
*D17
340
0
  0
BLOCK_RECORD
  5
C9
330
1
100
AcDbSymbolTableRecord
100
AcDbBlockTableRecord
  2
*D18
340
0
  0
BLOCK_RECORD
  5
3C4
330
1
100
AcDbSymbolTableRecord
100
AcDbBlockTableRecord
  2
*D19
340
0
  0
ENDTAB
  0
ENDSEC
  0
SECTION
  2
BLOCKS
  0
BLOCK
  5
20
330
1F
100
AcDbEntity
  8
0
100
AcDbBlockBegin
  2
*Model_Space
 70
     0
 10
0.0
 20
0.0
 30
0.0
  3
*Model_Space
  1

  0
ENDBLK
  5
21
330
1F
100
AcDbEntity
  8
0
100
AcDbBlockEnd
  0
BLOCK
  5
1C
330
1B
100
AcDbEntity
 67
     1
  8
0
100
AcDbBlockBegin
  2
*Paper_Space
 70
     0
 10
0.0
 20
0.0
 30
0.0
  3
*Paper_Space
  1

  0
ENDBLK
  5
1D
330
1B
100
AcDbEntity
 67
     1
  8
0
100
AcDbBlockEnd
  0
BLOCK
  5
24
330
23
100
AcDbEntity
  8
0
100
AcDbBlockBegin
  2
*Paper_Space0
 70
     0
 10
0.0
 20
0.0
 30
0.0
  3
*Paper_Space0
  1

  0
ENDBLK
  5
25
330
23
100
AcDbEntity
  8
0
100
AcDbBlockEnd
  0
BLOCK
  5
48
330
47
100
AcDbEntity
  8
0
100
AcDbBlockBegin
  2
PPC_1_5_S_5-select__1
 70
     0
 10
-4.50000017898219
 20
69.24999989640277
 30
0.0
  3
PPC_1_5_S_5-select__1
  1

  0
LINE
  5
87
330
47
100
AcDbEntity
  8
0
  6
Continuous
 62
     7
100
AcDbLine
 10
8.3134715534906
 20
85.84999940969018
 30
0.0
 11
13.84585542945551
 21
85.84999940740563
 31
0.0
  0
LINE
  5
88
330
47
100
AcDbEntity
  8
0
  6
Continuous
 62
     7
100
AcDbLine
 10
13.84585541958961
 20
70.44999988926992
 30
0.0
 11
-4.50000017898219
 21
70.44999988946589
 31
0.0
  0
LINE
  5
89
330
47
100
AcDbEntity
  8
0
  6
Continuous
 62
     7
100
AcDbLine
 10
-4.50000017894031
 20
84.01539470889249
 30
0.0
 11
-4.50000017898219
 21
70.44999988946589
 31
0.0
  0
LINE
  5
8A
330
47
100
AcDbEntity
  8
0
  6
Continuous
 62
     7
100
AcDbLine
 10
6.71132468859453
 20
83.07499964127686
 30
0.0
 11
8.3134715534906
 21
85.84999940969018
 31
0.0
  0
LINE
  5
8B
330
47
100
AcDbEntity
  8
0
  6
Continuous
 62
     7
100
AcDbLine
 10
22.49999987328616
 20
85.76052423350366
 30
0.0
 11
22.49999987336696
 21
71.13947455453243
 31
0.0
  0
LINE
  5
8C
330
47
100
AcDbEntity
  8
0
  6
Continuous
 62
     7
100
AcDbLine
 10
13.84585542945551
 20
85.84999940740563
 30
0.0
 11
13.74086903241624
 21
87.04999940844685
 31
0.0
  0
LINE
  5
8D
330
47
100
AcDbEntity
  8
0
  6
Continuous
 62
     7
100
AcDbLine
 10
13.74086902475074
 20
69.24999989640277
 30
0.0
 11
13.84585541958961
 21
70.44999988926992
 31
0.0
  0
LINE
  5
8E
330
47
100
AcDbEntity
  8
0
  6
Continuous
 62
     7
100
AcDbLine
 10
13.74086902475074
 20
69.24999989640277
 30
0.0
 11
15.19177837936459
 21
69.24999989726318
 31
0.0
  0
LINE
  5
8F
330
47
100
AcDbEntity
  8
0
  6
Continuous
 62
     7
100
AcDbLine
 10
15.19177837936459
 20
69.24999989726318
 30
0.0
 11
15.63607997429213
 21
70.29670886079731
 31
0.0
  0
LINE
  5
90
330
47
100
AcDbEntity
  8
0
  6
Continuous
 62
     7
100
AcDbLine
 10
22.49999987336696
 20
71.13947455453243
 30
0.0
 11
15.63607997429213
 21
70.29670886079731
 31
0.0
  0
LINE
  5
91
330
47
100
AcDbEntity
  8
0
  6
Continuous
 62
     7
100
AcDbLine
 10
4.29999982038107
 20
84.64999964136071
 30
0.0
 11
3.72674670137967
 21
83.07499964127649
 31
0.0
  0
LINE
  5
92
330
47
100
AcDbEntity
  8
0
  6
Continuous
 62
     7
100
AcDbLine
 10
2.75356738742968
 20
84.64999964096324
 30
0.0
 11
4.29999982038107
 21
84.64999964136071
 31
0.0
  0
LINE
  5
93
330
47
100
AcDbEntity
  8
0
  6
Continuous
 62
     7
100
AcDbLine
 10
-4.50000017894031
 20
84.01539470889249
 30
0.0
 11
2.75356738742968
 21
84.64999964096324
 31
0.0
  0
LINE
  5
94
330
47
100
AcDbEntity
  8
0
  6
Continuous
 62
     7
100
AcDbLine
 10
6.71132468859453
 20
83.07499964127686
 30
0.0
 11
3.72674670137967
 21
83.07499964127649
 31
0.0
  0
LINE
  5
95
330
47
100
AcDbEntity
  8
0
  6
Continuous
 62
     7
100
AcDbLine
 10
13.74086903241624
 20
87.04999940844685
 30
0.0
 11
15.44646290803352
 21
87.0499994087317
 31
0.0
  0
LINE
  5
96
330
47
100
AcDbEntity
  8
0
  6
Continuous
 62
     7
100
AcDbLine
 10
22.49999987328616
 20
85.76052423350366
 30
0.0
 11
15.44646290803352
 21
87.0499994087317
 31
0.0
  0
ENDBLK
  5
49
330
47
100
AcDbEntity
  8
0
100
AcDbBlockEnd
  0
BLOCK
  5
4C
330
4A
100
AcDbEntity
  8
0
100
AcDbBlockBegin
  2
Back1
 70
     0
 10
8.99999990488561
 20
78.1500001158306
 30
0.0
  3
Back1
  1

  0
INSERT
  5
4B
330
4A
100
AcDbEntity
  8
0
100
AcDbBlockReference
  2
PPC_1_5_S_5-select__1
 10
-4.50000017898219
 20
69.24999989640277
 30
0.0
  0
ENDBLK
  5
4D
330
4A
100
AcDbEntity
  8
0
100
AcDbBlockEnd
  0
BLOCK
  5
4F
330
4E
100
AcDbEntity
  8
0
100
AcDbBlockBegin
  2
PPC_1_5_S_5-select__2
 70
     0
 10
-71.99999996909436
 20
69.24999988801636
 30
0.0
  3
PPC_1_5_S_5-select__2
  1

  0
LINE
  5
97
330
4E
100
AcDbEntity
  8
0
  6
Continuous
 62
     7
100
AcDbLine
 10
-71.99999996909436
 20
85.76052423438549
 30
0.0
 11
-71.50144275674762
 21
85.85166675648738
 31
0.0
  0
LINE
  5
98
330
4E
100
AcDbEntity
  8
0
  6
Continuous
 62
     7
100
AcDbLine
 10
-63.24086911958204
 20
69.2499998964028
 30
0.0
 11
-63.34585551449656
 21
70.4499998786374
 31
0.0
  0
LINE
  5
99
330
4E
100
AcDbEntity
  8
0
  6
Continuous
 62
     7
100
AcDbLine
 10
-71.48080066319743
 20
71.07572623556749
 30
0.0
 11
-71.99999996814526
 21
71.1394752711636
 31
0.0
  0
LINE
  5
9A
330
4E
100
AcDbEntity
  8
0
  6
Continuous
 62
     7
100
AcDbLine
 10
-65.37519652056672
 20
70.86003191875619
 30
0.0
 11
-65.10491864438906
 21
70.82684596626069
 31
0.0
  0
LINE
  5
9B
330
4E
100
AcDbEntity
  8
0
  6
Continuous
 62
     7
100
AcDbLine
 10
-63.24086911958204
 20
69.2499998964028
 30
0.0
 11
-64.69177847021956
 21
69.24999988801636
 31
0.0
  0
LINE
  5
9C
330
4E
100
AcDbEntity
  8
0
  6
Continuous
 62
     7
100
AcDbLine
 10
-71.48080066319743
 20
71.07572623556749
 30
0.0
 11
-65.13608006914056
 21
70.29670886096254
 31
0.0
  0
LINE
  5
9D
330
4E
100
AcDbEntity
  8
0
  6
Continuous
 62
     7
100
AcDbLine
 10
-65.37519653531692
 20
86.0399675789584
 30
0.0
 11
-65.1049186499693
 21
86.07315353919677
 31
0.0
  0
LINE
  5
9E
330
4E
100
AcDbEntity
  8
0
  6
Continuous
 62
     7
100
AcDbLine
 10
-64.94646346392877
 20
87.04999939948485
 30
0.0
 11
-65.37519653531692
 21
86.0399675789584
 31
0.0
  0
LINE
  5
9F
330
4E
100
AcDbEntity
  8
0
  6
Continuous
 62
     7
100
AcDbLine
 10
-48.89999991546297
 20
70.4499998785113
 30
0.0
 11
-44.99999991579782
 21
70.44999987855296
 31
0.0
  0
LINE
  5
A0
330
4E
100
AcDbEntity
  8
0
  6
Continuous
 62
     7
100
AcDbLine
 10
-50.79999991455402
 20
70.74999987672142
 30
0.0
 11
-49.19999991455403
 21
70.7499998773621
 31
0.0
  0
LINE
  5
A1
330
4E
100
AcDbEntity
  8
0
  6
Continuous
 62
     7
100
AcDbLine
 10
-71.11249517558304
 20
71.56448361581897
 30
0.0
 11
-71.48080066319743
 21
71.07572623556749
 31
0.0
  0
LINE
  5
A2
330
4E
100
AcDbEntity
  8
0
  6
Continuous
 62
     7
100
AcDbLine
 10
-63.34585551449656
 20
70.4499998786374
 30
0.0
 11
-51.09999991335045
 21
70.44999987768475
 31
0.0
  0
LINE
  5
A3
330
4E
100
AcDbEntity
  8
0
  6
Continuous
 62
     7
100
AcDbLine
 10
-51.09999991335045
 20
70.44999987768475
 30
0.0
 11
-50.79999991455402
 21
70.74999987672142
 31
0.0
  0
LINE
  5
A4
330
4E
100
AcDbEntity
  8
0
  6
Continuous
 62
     7
100
AcDbLine
 10
-49.19999991455403
 20
70.7499998773621
 30
0.0
 11
-48.89999991546297
 21
70.4499998785113
 31
0.0
  0
LINE
  5
A5
330
4E
100
AcDbEntity
  8
0
  6
Continuous
 62
     7
100
AcDbLine
 10
-71.11249517926848
 20
85.33551589310797
 30
0.0
 11
-71.38277306067434
 21
85.30232994199929
 31
0.0
  0
LINE
  5
A6
330
4E
100
AcDbEntity
  8
0
  6
Continuous
 62
     7
100
AcDbLine
 10
-71.50144275674762
 20
85.85166675648738
 30
0.0
 11
-71.11249517926848
 21
85.33551589310797
 31
0.0
  0
LINE
  5
A7
330
4E
100
AcDbEntity
  8
0
  6
Continuous
 62
     7
100
AcDbLine
 10
-65.1049186499693
 20
86.07315353919677
 30
0.0
 11
-64.97451845288708
 21
85.01112915983455
 31
0.0
  0
LINE
  5
A8
330
4E
100
AcDbEntity
  8
0
  6
Continuous
 62
     7
100
AcDbLine
 10
-65.10491864438906
 20
70.82684596626069
 30
0.0
 11
-64.97451844434687
 21
71.88887035881854
 31
0.0
  0
LINE
  5
A9
330
4E
100
AcDbEntity
  8
0
  6
Continuous
 62
     7
100
AcDbLine
 10
-65.13608006914056
 20
70.29670886096254
 30
0.0
 11
-65.37519652056672
 21
70.86003191875619
 31
0.0
  0
LINE
  5
AA
330
4E
100
AcDbEntity
  8
0
  6
Continuous
 62
     7
100
AcDbLine
 10
-64.69177847021956
 20
69.24999988801636
 30
0.0
 11
-65.13608006914056
 21
70.29670886096254
 31
0.0
  0
LINE
  5
AB
330
4E
100
AcDbEntity
  8
0
  6
Continuous
 62
     7
100
AcDbLine
 10
-51.09999991335045
 20
70.44999987768475
 30
0.0
 11
-48.89999991546297
 21
70.4499998785113
 31
0.0
  0
LINE
  5
AC
330
4E
100
AcDbEntity
  8
0
  6
Continuous
 62
     7
100
AcDbLine
 10
-63.34585552422867
 20
85.84999939618432
 30
0.0
 11
-63.24086912722598
 21
87.04999939680731
 31
0.0
  0
LINE
  5
AD
330
4E
100
AcDbEntity
  8
0
  6
Continuous
 62
     7
100
AcDbLine
 10
-57.81347164815293
 20
85.84999939857636
 30
0.0
 11
-63.34585552422867
 21
85.84999939618432
 31
0.0
  0
LINE
  5
AE
330
4E
100
AcDbEntity
  8
0
  6
Continuous
 62
     7
100
AcDbLine
 10
-53.7999999150136
 20
84.64999963004723
 30
0.0
 11
-53.2267467961597
 21
83.07499963036358
 31
0.0
  0
LINE
  5
AF
330
4E
100
AcDbEntity
  8
0
  6
Continuous
 62
     7
100
AcDbLine
 10
-56.21132478337454
 20
83.07499963036393
 30
0.0
 11
-53.2267467961597
 21
83.07499963036358
 31
0.0
  0
LINE
  5
B0
330
4E
100
AcDbEntity
  8
0
  6
Continuous
 62
     7
100
AcDbLine
 10
-44.99999991579782
 20
70.44999987855296
 30
0.0
 11
-44.99999991579782
 21
84.01539469797603
 31
0.0
  0
LINE
  5
B1
330
4E
100
AcDbEntity
  8
0
  6
Continuous
 62
     7
100
AcDbLine
 10
-52.25356748217062
 20
84.64999963004703
 30
0.0
 11
-53.7999999150136
 21
84.64999963004723
 31
0.0
  0
LINE
  5
B2
330
4E
100
AcDbEntity
  8
0
  6
Continuous
 62
     7
100
AcDbLine
 10
-63.24086912722598
 20
87.04999939680731
 30
0.0
 11
-64.94646346392877
 21
87.04999939948485
 31
0.0
  0
LINE
  5
B3
330
4E
100
AcDbEntity
  8
0
  6
Continuous
 62
     7
100
AcDbLine
 10
-56.21132478337454
 20
83.07499963036393
 30
0.0
 11
-57.81347164815293
 21
85.84999939857636
 31
0.0
  0
LINE
  5
B4
330
4E
100
AcDbEntity
  8
0
  6
Continuous
 62
     7
100
AcDbLine
 10
-71.99999996909436
 20
85.76052423438549
 30
0.0
 11
-71.99999996814526
 21
71.1394752711636
 31
0.0
  0
LINE
  5
B5
330
4E
100
AcDbEntity
  8
0
  6
Continuous
 62
     7
100
AcDbLine
 10
-44.99999991579782
 20
84.01539469797603
 30
0.0
 11
-52.25356748217062
 21
84.64999963004703
 31
0.0
  0
LINE
  5
B6
330
4E
100
AcDbEntity
  8
0
  6
Continuous
 62
     7
100
AcDbLine
 10
-71.38277306067434
 20
85.30232994199929
 30
0.0
 11
-71.25237286282263
 21
84.24030556021401
 31
0.0
  0
LINE
  5
B7
330
4E
100
AcDbEntity
  8
0
  6
Continuous
 62
     7
100
AcDbLine
 10
-64.97451845288708
 20
85.01112915983455
 30
0.0
 11
-71.25237286282263
 21
84.24030556021401
 31
0.0
  0
LINE
  5
B8
330
4E
100
AcDbEntity
  8
0
  6
Continuous
 62
     7
100
AcDbLine
 10
-71.38277305046597
 20
71.59766957338263
 30
0.0
 11
-71.11249517558304
 21
71.56448361581897
 31
0.0
  0
LINE
  5
B9
330
4E
100
AcDbEntity
  8
0
  6
Continuous
 62
     7
100
AcDbLine
 10
-71.25237285366704
 20
72.65969395775068
 30
0.0
 11
-71.38277305046597
 21
71.59766957338263
 31
0.0
  0
LINE
  5
BA
330
4E
100
AcDbEntity
  8
0
  6
Continuous
 62
     7
100
AcDbLine
 10
-71.25237285366704
 20
72.65969395775068
 30
0.0
 11
-64.97451844434687
 21
71.88887035881854
 31
0.0
  0
LINE
  5
BB
330
4E
100
AcDbEntity
  8
0
  6
Continuous
 62
     7
100
AcDbLine
 10
-71.50144275674762
 20
85.85166675648738
 30
0.0
 11
-64.94646346392877
 21
87.04999939948485
 31
0.0
  0
ENDBLK
  5
50
330
4E
100
AcDbEntity
  8
0
100
AcDbBlockEnd
  0
BLOCK
  5
53
330
51
100
AcDbEntity
  8
0
100
AcDbBlockBegin
  2
Front1
 70
     0
 10
-58.49999999966392
 20
78.15000011583062
 30
0.0
  3
Front1
  1

  0
INSERT
  5
52
330
51
100
AcDbEntity
  8
0
100
AcDbBlockReference
  2
PPC_1_5_S_5-select__2
 10
-71.99999996909436
 20
69.24999988801636
 30
0.0
  0
DIMENSION
  5
C8
330
51
100
AcDbEntity
  8
1
100
AcDbDimension
  2
*D17
 10
-76.92570831714795
 20
87.04999939680731
 30
0.0
 11
-78.63820831714796
 21
78.04708307429351
 31
0.0
 70
    32
  1
<>
 71
     5
 42
-1.0
 53
90.0
  3
ME10_DIM_10
100
AcDbAlignedDimension
 13
-63.24086911958204
 23
69.2499998964028
 33
0.0
 14
-63.24086912722598
 24
87.04999939680731
 34
0.0
 50
90.0
100
AcDbRotatedDimension
  0
DIMENSION
  5
D3
330
51
100
AcDbEntity
  8
1
100
AcDbDimension
  2
*D18
 10
-71.99999996909436
 20
62.30351876862501
 30
0.0
 11
-57.62094648937796
 21
63.92851876862501
 31
0.0
 70
    32
  1
<>
 71
     5
 42
-1.0
 53
0.00013888888889
  3
ME10_DIM_11
100
AcDbAlignedDimension
 13
-44.99999991579782
 23
84.01539469797603
 33
0.0
 14
-71.99999996909436
 24
85.76052423438549
 34
0.0
100
AcDbRotatedDimension
  0
ENDBLK
  5
54
330
51
100
AcDbEntity
  8
0
100
AcDbBlockEnd
  0
BLOCK
  5
56
330
55
100
AcDbEntity
  8
0
100
AcDbBlockBegin
  2
PPC_1_5_S_5-select__3
 70
     0
 10
-13.31634282408002
 20
28.51822405456911
 30
0.0
  3
PPC_1_5_S_5-select__3
  1

  0
LINE
  5
D4
330
55
100
AcDbEntity
  8
0
  6
Continuous
 62
     7
100
AcDbLine
 10
-13.31634282408002
 20
48.52752710485046
 30
0.0
 11
-13.3163428228065
 21
35.86532727279717
 31
0.0
  0
LINE
  5
D5
330
55
100
AcDbEntity
  8
0
  6
Continuous
 62
     7
100
AcDbLine
 10
18.81634312382684
 20
46.51916094407183
 30
0.0
 11
18.81634312385845
 21
40.53432632640617
 31
0.0
  0
LINE
  5
D6
330
55
100
AcDbEntity
  8
0
  6
Continuous
 62
     7
100
AcDbLine
 10
-7.34502724056785
 20
47.0745016950296
 30
0.0
 11
-7.23209735720334
 21
46.12216155381613
 31
0.0
  0
LINE
  5
D7
330
55
100
AcDbEntity
  8
0
  6
Continuous
 62
     7
100
AcDbLine
 10
-7.23209735720334
 20
46.12216155381613
 30
0.0
 11
-12.66887875744389
 21
47.02407233717837
 31
0.0
  0
LINE
  5
D8
330
55
100
AcDbEntity
  8
0
  6
Continuous
 62
     7
100
AcDbLine
 10
2.92836611278187
 20
54.01920105015958
 30
0.0
 11
-5.8216338868091
 21
46.44147875679906
 31
0.0
  0
LINE
  5
D9
330
55
100
AcDbEntity
  8
0
  6
Continuous
 62
     7
100
AcDbLine
 10
-12.5477411300973
 20
47.93758288704064
 30
0.0
 11
-3.79774112941149
 21
55.51530517035983
 31
0.0
  0
LINE
  5
DA
330
55
100
AcDbEntity
  8
0
  6
Continuous
 62
     7
100
AcDbLine
 10
-0.1660120136514
 20
53.97922940497094
 30
0.0
 11
-3.91887875678666
 21
54.6017946204728
 31
0.0
  0
LINE
  5
DB
330
55
100
AcDbEntity
  8
0
  6
Continuous
 62
     7
100
AcDbLine
 10
-4.13457960905848
 20
56.05954182353982
 30
0.0
 11
-3.79774112941149
 21
55.51530517035983
 31
0.0
  0
LINE
  5
DC
330
55
100
AcDbEntity
  8
0
  6
Continuous
 62
     7
100
AcDbLine
 10
-4.13457960905848
 20
56.05954182353982
 30
0.0
 11
1.54219903919623
 21
55.45858364438851
 31
0.0
  0
LINE
  5
DD
330
55
100
AcDbEntity
  8
0
  6
Continuous
 62
     7
100
AcDbLine
 10
-4.0058341504626
 20
55.3350913277605
 30
0.0
 11
-3.91887875678666
 21
54.6017946204728
 31
0.0
  0
LINE
  5
DE
330
55
100
AcDbEntity
  8
0
  6
Continuous
 62
     7
100
AcDbLine
 10
-13.31634282408002
 20
48.52752710485046
 30
0.0
 11
-12.88457961295058
 21
48.48181954126944
 31
0.0
  0
LINE
  5
DF
330
55
100
AcDbEntity
  8
0
  6
Continuous
 62
     7
100
AcDbLine
 10
-12.88457961295058
 20
48.48181954126944
 30
0.0
 11
-4.13457960905848
 21
56.05954182353982
 31
0.0
  0
LINE
  5
E0
330
55
100
AcDbEntity
  8
0
  6
Continuous
 62
     7
100
AcDbLine
 10
3.04219937218929
 20
56.75762150891763
 30
0.0
 11
1.54219903919623
 21
55.45858364438851
 31
0.0
  0
LINE
  5
E1
330
55
100
AcDbEntity
  8
0
  6
Continuous
 62
     7
100
AcDbLine
 10
-3.06634282624593
 20
57.40428749089838
 30
0.0
 11
3.04219937218929
 21
56.75762150891763
 31
0.0
  0
LINE
  5
E2
330
55
100
AcDbEntity
  8
0
  6
Continuous
 62
     7
100
AcDbLine
 10
-12.5477411300973
 20
47.93758288704064
 30
0.0
 11
-12.78180864147478
 21
47.97641248068264
 31
0.0
  0
LINE
  5
E3
330
55
100
AcDbEntity
  8
0
  6
Continuous
 62
     7
100
AcDbLine
 10
-12.88457961295058
 20
48.48181954126944
 30
0.0
 11
-12.5477411300973
 21
47.93758288704064
 31
0.0
  0
LINE
  5
E4
330
55
100
AcDbEntity
  8
0
  6
Continuous
 62
     7
100
AcDbLine
 10
-7.20780102412552
 20
47.88086122909063
 30
0.0
 11
1.54219903919623
 21
55.45858364438851
 31
0.0
  0
LINE
  5
E5
330
55
100
AcDbEntity
  8
0
  6
Continuous
 62
     7
100
AcDbLine
 10
-5.73071299999005
 20
47.45446264260428
 30
0.0
 11
3.01928699959731
 21
55.03218493560277
 31
0.0
  0
LINE
  5
E6
330
55
100
AcDbEntity
  8
0
  6
Continuous
 62
     7
100
AcDbLine
 10
-3.06634282624593
 20
57.40428749089838
 30
0.0
 11
-13.31634282408002
 21
48.52752710485046
 31
0.0
  0
LINE
  5
E7
330
55
100
AcDbEntity
  8
0
  6
Continuous
 62
     7
100
AcDbLine
 10
-3.91887875678666
 20
54.6017946204728
 30
0.0
 11
-12.66887875744389
 21
47.02407233717837
 31
0.0
  0
LINE
  5
E8
330
55
100
AcDbEntity
  8
0
  6
Continuous
 62
     7
100
AcDbLine
 10
10.34134312384084
 20
39.17959563649946
 30
0.0
 11
10.34134312429866
 21
33.19476101918455
 31
0.0
  0
LINE
  5
E9
330
55
100
AcDbEntity
  8
0
  6
Continuous
 62
     7
100
AcDbLine
 10
11.81634312457058
 20
34.47214849044805
 30
0.0
 11
11.81634312435715
 21
40.45698310795753
 31
0.0
  0
LINE
  5
EA
330
55
100
AcDbEntity
  8
0
  6
Continuous
 62
     7
100
AcDbLine
 10
-7.57909474211609
 20
33.96712136883668
 30
0.0
 11
-7.34502723526431
 21
33.87081202188438
 31
0.0
  0
LINE
  5
EB
330
55
100
AcDbEntity
  8
0
  6
Continuous
 62
     7
100
AcDbLine
 10
-7.579094755359
 20
47.1133312817505
 30
0.0
 11
-7.34502724056785
 21
47.0745016950296
 31
0.0
  0
LINE
  5
EC
330
55
100
AcDbEntity
  8
0
  6
Continuous
 62
     7
100
AcDbLine
 10
-7.34502723526431
 20
33.87081202188438
 30
0.0
 11
-7.23209734940201
 21
34.75795207524575
 31
0.0
  0
LINE
  5
ED
330
55
100
AcDbEntity
  8
0
  6
Continuous
 62
     7
100
AcDbLine
 10
-6.98723734906089
 20
32.40193821675996
 30
0.0
 11
-7.57909474211609
 21
33.96712136883668
 31
0.0
  0
LINE
  5
EE
330
55
100
AcDbEntity
  8
0
  6
Continuous
 62
     7
100
AcDbLine
 10
13.26634312428899
 20
35.72788532812186
 30
0.0
 11
13.26634312442693
 21
34.42884722255639
 31
0.0
  0
LINE
  5
EF
330
55
100
AcDbEntity
  8
0
  6
Continuous
 62
     7
100
AcDbLine
 10
14.09134312461906
 20
35.14331818308623
 30
0.0
 11
14.09134312448094
 21
36.44235628865154
 31
0.0
  0
LINE
  5
F0
330
55
100
AcDbEntity
  8
0
  6
Continuous
 62
     7
100
AcDbLine
 10
13.76634312462053
 20
34.8618599267593
 30
0.0
 11
13.76634312476323
 21
33.51952055100843
 31
0.0
  0
LINE
  5
F1
330
55
100
AcDbEntity
  8
0
  6
Continuous
 62
     7
100
AcDbLine
 10
14.09134312461906
 20
35.14331818308623
 30
0.0
 11
13.76634312462053
 21
34.8618599267593
 31
0.0
  0
LINE
  5
F2
330
55
100
AcDbEntity
  8
0
  6
Continuous
 62
     7
100
AcDbLine
 10
13.84134312429865
 20
36.22584993747198
 30
0.0
 11
14.09134312448094
 21
36.44235628865154
 31
0.0
  0
LINE
  5
F3
330
55
100
AcDbEntity
  8
0
  6
Continuous
 62
     7
100
AcDbLine
 10
13.36634312461895
 20
34.51544976313137
 30
0.0
 11
13.26634312442693
 21
34.42884722255639
 31
0.0
  0
LINE
  5
F4
330
55
100
AcDbEntity
  8
0
  6
Continuous
 62
     7
100
AcDbLine
 10
12.34134312461906
 20
33.62777372394252
 30
0.0
 11
12.34134312448094
 21
34.92681182950783
 31
0.0
  0
LINE
  5
F5
330
55
100
AcDbEntity
  8
0
  6
Continuous
 62
     7
100
AcDbLine
 10
11.51634312428899
 20
34.21234086897815
 30
0.0
 11
11.51634312442693
 21
32.91330276341268
 31
0.0
  0
LINE
  5
F6
330
55
100
AcDbEntity
  8
0
  6
Continuous
 62
     7
100
AcDbLine
 10
11.61634312461895
 20
32.99990530398765
 30
0.0
 11
11.51634312442693
 21
32.91330276341268
 31
0.0
  0
LINE
  5
F7
330
55
100
AcDbEntity
  8
0
  6
Continuous
 62
     7
100
AcDbLine
 10
12.3413431245055
 20
34.69587172203369
 30
0.0
 11
13.26634312442693
 21
34.42884722255639
 31
0.0
  0
LINE
  5
F8
330
55
100
AcDbEntity
  8
0
  6
Continuous
 62
     7
100
AcDbLine
 10
11.51634312428899
 20
34.21234086897815
 30
0.0
 11
11.81634312457058
 21
34.47214849044805
 31
0.0
  0
LINE
  5
F9
330
55
100
AcDbEntity
  8
0
  6
Continuous
 62
     7
100
AcDbLine
 10
15.11634312461895
 20
36.03099422227508
 30
0.0
 11
15.01634312442693
 21
35.9443916817001
 31
0.0
  0
LINE
  5
FA
330
55
100
AcDbEntity
  8
0
  6
Continuous
 62
     7
100
AcDbLine
 10
13.26634312428899
 20
35.72788532812186
 30
0.0
 11
13.56634312457058
 21
35.98769294959176
 31
0.0
  0
LINE
  5
FB
330
55
100
AcDbEntity
  8
0
  6
Continuous
 62
     7
100
AcDbLine
 10
12.09134312429866
 20
34.71030547832826
 30
0.0
 11
12.34134312448094
 21
34.92681182950783
 31
0.0
  0
LINE
  5
FC
330
55
100
AcDbEntity
  8
0
  6
Continuous
 62
     7
100
AcDbLine
 10
14.09134312448094
 20
36.44235628865154
 30
0.0
 11
13.84134312427656
 21
36.51452507235913
 31
0.0
  0
LINE
  5
FD
330
55
100
AcDbEntity
  8
0
  6
Continuous
 62
     7
100
AcDbLine
 10
15.01634312428899
 20
37.24342978726558
 30
0.0
 11
15.01634312442693
 21
35.9443916817001
 31
0.0
  0
LINE
  5
FE
330
55
100
AcDbEntity
  8
0
  6
Continuous
 62
     7
100
AcDbLine
 10
15.11634312476164
 20
34.6886548465242
 30
0.0
 11
15.11634312461895
 21
36.03099422227508
 31
0.0
  0
LINE
  5
FF
330
55
100
AcDbEntity
  8
0
  6
Continuous
 62
     7
100
AcDbLine
 10
14.0913431245055
 20
36.21141618117741
 30
0.0
 11
15.01634312442693
 21
35.9443916817001
 31
0.0
  0
LINE
  5
100
330
55
100
AcDbEntity
  8
0
  6
Continuous
 62
     7
100
AcDbLine
 10
13.95384312505836
 20
35.02423969040474
 30
0.0
 11
15.11634312476164
 21
34.6886548465242
 31
0.0
  0
LINE
  5
101
330
55
100
AcDbEntity
  8
0
  6
Continuous
 62
     7
100
AcDbLine
 10
10.34134312416836
 20
34.8979443140915
 30
0.0
 11
11.81634312457058
 21
34.47214849044805
 31
0.0
  0
LINE
  5
102
330
55
100
AcDbEntity
  8
0
  6
Continuous
 62
     7
100
AcDbLine
 10
15.84134312546495
 20
36.65886264532523
 30
0.0
 11
15.51634312546642
 21
36.3774043889983
 31
0.0
  0
LINE
  5
103
330
55
100
AcDbEntity
  8
0
  6
Continuous
 62
     7
100
AcDbLine
 10
15.70384312590424
 20
36.53978415264374
 30
0.0
 11
16.86634312560753
 21
36.2041993087632
 31
0.0
  0
LINE
  5
104
330
55
100
AcDbEntity
  8
0
  6
Continuous
 62
     7
100
AcDbLine
 10
10.59134312461906
 20
32.11222926479881
 30
0.0
 11
10.26634312462053
 21
31.83077100847189
 31
0.0
  0
LINE
  5
105
330
55
100
AcDbEntity
  8
0
  6
Continuous
 62
     7
100
AcDbLine
 10
10.26634312462053
 20
31.83077100847189
 30
0.0
 11
10.26634312476323
 21
30.488431632721
 31
0.0
  0
LINE
  5
106
330
55
100
AcDbEntity
  8
0
  6
Continuous
 62
     7
100
AcDbLine
 10
10.45384312505836
 20
31.99315077211731
 30
0.0
 11
11.61634312476164
 21
31.65756592823678
 31
0.0
  0
LINE
  5
107
330
55
100
AcDbEntity
  8
0
  6
Continuous
 62
     7
100
AcDbLine
 10
10.34134312429866
 20
33.19476101918455
 30
0.0
 11
10.59134312448094
 21
33.41126737036412
 31
0.0
  0
LINE
  5
108
330
55
100
AcDbEntity
  8
0
  6
Continuous
 62
     7
100
AcDbLine
 10
10.59134312448094
 20
33.41126737036412
 30
0.0
 11
10.34134312427658
 21
33.48343615407171
 31
0.0
  0
LINE
  5
109
330
55
100
AcDbEntity
  8
0
  6
Continuous
 62
     7
100
AcDbLine
 10
11.51634312428899
 20
34.21234086897815
 30
0.0
 11
10.34134312419486
 21
34.55153415215394
 31
0.0
  0
LINE
  5
10A
330
55
100
AcDbEntity
  8
0
  6
Continuous
 62
     7
100
AcDbLine
 10
10.5913431245055
 20
33.18032726288998
 30
0.0
 11
11.51634312442693
 21
32.91330276341268
 31
0.0
  0
LINE
  5
10B
330
55
100
AcDbEntity
  8
0
  6
Continuous
 62
     7
100
AcDbLine
 10
10.59134312461906
 20
32.11222926479881
 30
0.0
 11
10.59134312448094
 21
33.41126737036412
 31
0.0
  0
LINE
  5
10C
330
55
100
AcDbEntity
  8
0
  6
Continuous
 62
     7
100
AcDbLine
 10
11.61634312476164
 20
31.65756592823678
 30
0.0
 11
11.61634312461895
 21
32.99990530398765
 31
0.0
  0
LINE
  5
10D
330
55
100
AcDbEntity
  8
0
  6
Continuous
 62
     7
100
AcDbLine
 10
12.01634312462053
 20
33.34631546761559
 30
0.0
 11
12.01634312476323
 21
32.00397609186472
 31
0.0
  0
LINE
  5
10E
330
55
100
AcDbEntity
  8
0
  6
Continuous
 62
     7
100
AcDbLine
 10
15.11634312476164
 20
34.6886548465242
 30
0.0
 11
13.76634312476323
 21
33.51952055100843
 31
0.0
  0
LINE
  5
10F
330
55
100
AcDbEntity
  8
0
  6
Continuous
 62
     7
100
AcDbLine
 10
13.36634312476164
 20
33.17311038738049
 30
0.0
 11
13.36634312461895
 21
34.51544976313137
 31
0.0
  0
LINE
  5
110
330
55
100
AcDbEntity
  8
0
  6
Continuous
 62
     7
100
AcDbLine
 10
13.36634312476164
 20
33.17311038738049
 30
0.0
 11
12.01634312476323
 21
32.00397609186472
 31
0.0
  0
LINE
  5
111
330
55
100
AcDbEntity
  8
0
  6
Continuous
 62
     7
100
AcDbLine
 10
12.34134312461906
 20
33.62777372394252
 30
0.0
 11
12.01634312462053
 21
33.34631546761559
 31
0.0
  0
LINE
  5
112
330
55
100
AcDbEntity
  8
0
  6
Continuous
 62
     7
100
AcDbLine
 10
12.20384312505836
 20
33.50869523126103
 30
0.0
 11
13.36634312476164
 21
33.17311038738049
 31
0.0
  0
LINE
  5
113
330
55
100
AcDbEntity
  8
0
  6
Continuous
 62
     7
100
AcDbLine
 10
11.61634312476164
 20
31.65756592823678
 30
0.0
 11
10.26634312476323
 21
30.488431632721
 31
0.0
  0
LINE
  5
114
330
55
100
AcDbEntity
  8
0
  6
Continuous
 62
     7
100
AcDbLine
 10
15.51634312546642
 20
36.3774043889983
 30
0.0
 11
15.51634312560911
 21
35.03506501324742
 31
0.0
  0
LINE
  5
115
330
55
100
AcDbEntity
  8
0
  6
Continuous
 62
     7
100
AcDbLine
 10
16.86634312560753
 20
36.2041993087632
 30
0.0
 11
15.51634312560911
 21
35.03506501324742
 31
0.0
  0
LINE
  5
116
330
55
100
AcDbEntity
  8
0
  6
Continuous
 62
     7
100
AcDbLine
 10
16.86634312560753
 20
36.2041993087632
 30
0.0
 11
16.86634312546484
 21
37.54653868451408
 31
0.0
  0
LINE
  5
117
330
55
100
AcDbEntity
  8
0
  6
Continuous
 62
     7
100
AcDbLine
 10
18.61634312476164
 20
37.71974376481163
 30
0.0
 11
17.26634312476323
 21
36.55060946929585
 31
0.0
  0
LINE
  5
118
330
55
100
AcDbEntity
  8
0
  6
Continuous
 62
     7
100
AcDbLine
 10
-12.86670303509247
 20
35.68031916227106
 30
0.0
 11
-13.3163428228065
 21
35.86532727279717
 31
0.0
  0
LINE
  5
119
330
55
100
AcDbEntity
  8
0
  6
Continuous
 62
     7
100
AcDbLine
 10
4.78358816376328
 20
30.04322405317618
 30
0.0
 11
5.04339578384702
 21
30.2280316737732
 31
0.0
  0
LINE
  5
11A
330
55
100
AcDbEntity
  8
0
  6
Continuous
 62
     7
100
AcDbLine
 10
5.04339578384702
 20
30.2280316737732
 30
0.0
 11
6.42903642990211
 21
29.82803167433571
 31
0.0
  0
LINE
  5
11B
330
55
100
AcDbEntity
  8
0
  6
Continuous
 62
     7
100
AcDbLine
 10
6.42903642990211
 20
29.82803167433571
 30
0.0
 11
6.68884405025955
 21
29.49322405443065
 31
0.0
  0
LINE
  5
11C
330
55
100
AcDbEntity
  8
0
  6
Continuous
 62
     7
100
AcDbLine
 10
6.68884405025955
 20
29.49322405443065
 30
0.0
 11
10.06634312472887
 21
28.51822405456911
 31
0.0
  0
LINE
  5
11D
330
55
100
AcDbEntity
  8
0
  6
Continuous
 62
     7
100
AcDbLine
 10
-5.82163387790522
 20
33.10468795422911
 30
0.0
 11
4.78358816376328
 21
30.04322405317618
 31
0.0
  0
LINE
  5
11E
330
55
100
AcDbEntity
  8
0
  6
Continuous
 62
     7
100
AcDbLine
 10
18.81634312385845
 20
40.53432632640617
 30
0.0
 11
17.34134312416836
 21
40.96012214984405
 31
0.0
  0
LINE
  5
11F
330
55
100
AcDbEntity
  8
0
  6
Continuous
 62
     7
100
AcDbLine
 10
20.31634312117171
 20
49.14296097676103
 30
0.0
 11
20.31634312127292
 21
37.39498445074258
 31
0.0
  0
LINE
  5
120
330
55
100
AcDbEntity
  8
0
  6
Continuous
 62
     7
100
AcDbLine
 10
15.01634312428899
 20
37.24342978726558
 30
0.0
 11
15.31634312541647
 21
37.50323740946804
 31
0.0
  0
LINE
  5
121
330
55
100
AcDbEntity
  8
0
  6
Continuous
 62
     7
100
AcDbLine
 10
15.01634312428899
 20
37.24342978726558
 30
0.0
 11
13.84134312419486
 21
37.58262307044137
 31
0.0
  0
LINE
  5
122
330
55
100
AcDbEntity
  8
0
  6
Continuous
 62
     7
100
AcDbLine
 10
13.84134312416836
 20
37.92903323335568
 30
0.0
 11
15.31634312541647
 21
37.50323740946804
 31
0.0
  0
LINE
  5
123
330
55
100
AcDbEntity
  8
0
  6
Continuous
 62
     7
100
AcDbLine
 10
16.86634312546484
 20
37.54653868451408
 30
0.0
 11
16.76634312527281
 21
37.4599361439391
 31
0.0
  0
LINE
  5
124
330
55
100
AcDbEntity
  8
0
  6
Continuous
 62
     7
100
AcDbLine
 10
15.84134312535139
 20
37.72696064341641
 30
0.0
 11
16.76634312527281
 21
37.4599361439391
 31
0.0
  0
LINE
  5
125
330
55
100
AcDbEntity
  8
0
  6
Continuous
 62
     7
100
AcDbLine
 10
15.31634312541647
 20
37.50323740946804
 30
0.0
 11
15.31634312520303
 21
43.48807202697751
 31
0.0
  0
LINE
  5
126
330
55
100
AcDbEntity
  8
0
  6
Continuous
 62
     7
100
AcDbLine
 10
15.84134312546495
 20
36.65886264532523
 30
0.0
 11
15.84134312532683
 21
37.95790075089054
 31
0.0
  0
LINE
  5
127
330
55
100
AcDbEntity
  8
0
  6
Continuous
 62
     7
100
AcDbLine
 10
17.45384312505836
 20
38.05532860869216
 30
0.0
 11
18.61634312476164
 21
37.71974376481163
 31
0.0
  0
LINE
  5
128
330
55
100
AcDbEntity
  8
0
  6
Continuous
 62
     7
100
AcDbLine
 10
16.76634312513488
 20
38.75897424950457
 30
0.0
 11
16.76634312527281
 21
37.4599361439391
 31
0.0
  0
LINE
  5
129
330
55
100
AcDbEntity
  8
0
  6
Continuous
 62
     7
100
AcDbLine
 10
17.26634312462053
 20
37.89294884504673
 30
0.0
 11
17.26634312476323
 21
36.55060946929585
 31
0.0
  0
LINE
  5
12A
330
55
100
AcDbEntity
  8
0
  6
Continuous
 62
     7
100
AcDbLine
 10
15.59134312514455
 20
37.74139439971098
 30
0.0
 11
15.84134312532683
 21
37.95790075089054
 31
0.0
  0
LINE
  5
12B
330
55
100
AcDbEntity
  8
0
  6
Continuous
 62
     7
100
AcDbLine
 10
17.5913431245055
 20
39.24250509946482
 30
0.0
 11
18.51634312442693
 21
38.97548059998753
 31
0.0
  0
LINE
  5
12C
330
55
100
AcDbEntity
  8
0
  6
Continuous
 62
     7
100
AcDbLine
 10
15.59134312468675
 20
43.72622901702588
 30
0.0
 11
15.59134312514455
 21
37.74139439971098
 31
0.0
  0
LINE
  5
12D
330
55
100
AcDbEntity
  8
0
  6
Continuous
 62
     7
100
AcDbLine
 10
16.76634312513488
 20
38.75897424950457
 30
0.0
 11
17.06634312457058
 21
39.01878187024191
 31
0.0
  0
LINE
  5
12E
330
55
100
AcDbEntity
  8
0
  6
Continuous
 62
     7
100
AcDbLine
 10
16.76634312513488
 20
38.75897424950457
 30
0.0
 11
15.59134312504075
 21
39.09816753268036
 31
0.0
  0
LINE
  5
12F
330
55
100
AcDbEntity
  8
0
  6
Continuous
 62
     7
100
AcDbLine
 10
15.84134312532683
 20
37.95790075089054
 30
0.0
 11
15.59134312512246
 21
38.03006953459813
 31
0.0
  0
LINE
  5
130
330
55
100
AcDbEntity
  8
0
  6
Continuous
 62
     7
100
AcDbLine
 10
17.59134312461906
 20
38.17440710137365
 30
0.0
 11
17.26634312462053
 21
37.89294884504673
 31
0.0
  0
LINE
  5
131
330
55
100
AcDbEntity
  8
0
  6
Continuous
 62
     7
100
AcDbLine
 10
18.61634312476164
 20
37.71974376481163
 30
0.0
 11
18.61634312461894
 21
39.06208314056251
 31
0.0
  0
LINE
  5
132
330
55
100
AcDbEntity
  8
0
  6
Continuous
 62
     7
100
AcDbLine
 10
17.59134312461906
 20
38.17440710137365
 30
0.0
 11
17.59134312448094
 21
39.47344520693897
 31
0.0
  0
LINE
  5
133
330
55
100
AcDbEntity
  8
0
  6
Continuous
 62
     7
100
AcDbLine
 10
17.59134312448094
 20
39.47344520693897
 30
0.0
 11
17.34134312427656
 21
39.54561399064656
 31
0.0
  0
LINE
  5
134
330
55
100
AcDbEntity
  8
0
  6
Continuous
 62
     7
100
AcDbLine
 10
17.34134312429865
 20
39.2569388557594
 30
0.0
 11
17.59134312448094
 21
39.47344520693897
 31
0.0
  0
LINE
  5
135
330
55
100
AcDbEntity
  8
0
  6
Continuous
 62
     7
100
AcDbLine
 10
17.06634312457058
 20
39.01878187024191
 30
0.0
 11
15.59134312501425
 21
39.44457769364118
 31
0.0
  0
LINE
  5
136
330
55
100
AcDbEntity
  8
0
  6
Continuous
 62
     7
100
AcDbLine
 10
17.06634312457058
 20
39.01878187024191
 30
0.0
 11
17.06634312435715
 21
45.00361648775139
 31
0.0
  0
LINE
  5
137
330
55
100
AcDbEntity
  8
0
  6
Continuous
 62
     7
100
AcDbLine
 10
18.61634312461894
 20
39.06208314056251
 30
0.0
 11
18.51634312442693
 21
38.97548059998753
 31
0.0
  0
LINE
  5
138
330
55
100
AcDbEntity
  8
0
  6
Continuous
 62
     7
100
AcDbLine
 10
17.34134312384084
 20
45.24177347307431
 30
0.0
 11
17.34134312429865
 21
39.2569388557594
 31
0.0
  0
LINE
  5
139
330
55
100
AcDbEntity
  8
0
  6
Continuous
 62
     7
100
AcDbLine
 10
18.51634312428899
 20
40.274518705553
 30
0.0
 11
18.51634312442693
 21
38.97548059998753
 31
0.0
  0
LINE
  5
13A
330
55
100
AcDbEntity
  8
0
  6
Continuous
 62
     7
100
AcDbLine
 10
13.84134312384084
 20
42.21068455478688
 30
0.0
 11
15.31634312520303
 21
43.48807202697751
 31
0.0
  0
LINE
  5
13B
330
55
100
AcDbEntity
  8
0
  6
Continuous
 62
     7
100
AcDbLine
 10
12.09134312384084
 20
40.69514009564317
 30
0.0
 11
13.56634312435715
 21
41.97252756710124
 31
0.0
  0
LINE
  5
13C
330
55
100
AcDbEntity
  8
0
  6
Continuous
 62
     7
100
AcDbLine
 10
18.51634312428899
 20
40.274518705553
 30
0.0
 11
18.81634312385845
 21
40.53432632640617
 31
0.0
  0
LINE
  5
13D
330
55
100
AcDbEntity
  8
0
  6
Continuous
 62
     7
100
AcDbLine
 10
18.51634312428899
 20
40.274518705553
 30
0.0
 11
17.34134312419486
 21
40.61371198872879
 31
0.0
  0
LINE
  5
13E
330
55
100
AcDbEntity
  8
0
  6
Continuous
 62
     7
100
AcDbLine
 10
17.34134312384084
 20
45.24177347307431
 30
0.0
 11
18.81634312382684
 21
46.51916094407183
 31
0.0
  0
LINE
  5
13F
330
55
100
AcDbEntity
  8
0
  6
Continuous
 62
     7
100
AcDbLine
 10
15.59134312468675
 20
43.72622901702588
 30
0.0
 11
17.06634312435715
 21
45.00361648775139
 31
0.0
  0
LINE
  5
140
330
55
100
AcDbEntity
  8
0
  6
Continuous
 62
     7
100
AcDbLine
 10
-7.20780102412552
 20
47.88086122909063
 30
0.0
 11
-7.579094755359
 21
47.1133312817505
 31
0.0
  0
LINE
  5
141
330
55
100
AcDbEntity
  8
0
  6
Continuous
 62
     7
100
AcDbLine
 10
-1.03044890664009
 20
45.05838278987817
 30
0.0
 11
-5.8216338868091
 21
46.44147875679906
 31
0.0
  0
LINE
  5
142
330
55
100
AcDbEntity
  8
0
  6
Continuous
 62
     7
100
AcDbLine
 10
0.35705097893728
 20
42.25462577898225
 30
0.0
 11
-1.03044890664009
 21
45.05838278987817
 31
0.0
  0
LINE
  5
143
330
55
100
AcDbEntity
  8
0
  6
Continuous
 62
     7
100
AcDbLine
 10
0.35705097893728
 20
42.25462577898225
 30
0.0
 11
2.94177133544117
 21
41.5084812821925
 31
0.0
  0
LINE
  5
144
330
55
100
AcDbEntity
  8
0
  6
Continuous
 62
     7
100
AcDbLine
 10
2.44531957166639
 20
43.01578457255634
 30
0.0
 11
2.94177133544117
 21
41.5084812821925
 31
0.0
  0
LINE
  5
145
330
55
100
AcDbEntity
  8
0
  6
Continuous
 62
     7
100
AcDbLine
 10
3.78456934374458
 20
42.62917646435284
 30
0.0
 11
2.44531957166639
 21
43.01578457255634
 31
0.0
  0
LINE
  5
146
330
55
100
AcDbEntity
  8
0
  6
Continuous
 62
     7
100
AcDbLine
 10
10.0663431243099
 20
40.26620058026743
 30
0.0
 11
3.78456934374458
 21
42.62917646435284
 31
0.0
  0
LINE
  5
147
330
55
100
AcDbEntity
  8
0
  6
Continuous
 62
     7
100
AcDbLine
 10
18.81634312377148
 20
47.84392287321484
 30
0.0
 11
10.0663431243099
 21
40.26620058026743
 31
0.0
  0
LINE
  5
148
330
55
100
AcDbEntity
  8
0
  6
Continuous
 62
     7
100
AcDbLine
 10
12.34134312448094
 20
34.92681182950783
 30
0.0
 11
12.09134312427656
 21
34.99898061321542
 31
0.0
  0
LINE
  5
149
330
55
100
AcDbEntity
  8
0
  6
Continuous
 62
     7
100
AcDbLine
 10
13.26634312428899
 20
35.72788532812186
 30
0.0
 11
12.09134312419486
 21
36.06707861129765
 31
0.0
  0
LINE
  5
14A
330
55
100
AcDbEntity
  8
0
  6
Continuous
 62
     7
100
AcDbLine
 10
12.09134312384084
 20
40.69514009564317
 30
0.0
 11
12.09134312429866
 21
34.71030547832826
 31
0.0
  0
LINE
  5
14B
330
55
100
AcDbEntity
  8
0
  6
Continuous
 62
     7
100
AcDbLine
 10
12.09134312416836
 20
36.41348877323522
 30
0.0
 11
13.56634312457058
 21
35.98769294959176
 31
0.0
  0
LINE
  5
14C
330
55
100
AcDbEntity
  8
0
  6
Continuous
 62
     7
100
AcDbLine
 10
13.56634312457058
 20
35.98769294959176
 30
0.0
 11
13.56634312435715
 21
41.97252756710124
 31
0.0
  0
LINE
  5
14D
330
55
100
AcDbEntity
  8
0
  6
Continuous
 62
     7
100
AcDbLine
 10
10.34134312384084
 20
39.17959563649946
 30
0.0
 11
11.81634312435715
 21
40.45698310795753
 31
0.0
  0
LINE
  5
14E
330
55
100
AcDbEntity
  8
0
  6
Continuous
 62
     7
100
AcDbLine
 10
9.21955109020396
 20
53.93514318660314
 30
0.0
 11
7.71955109275677
 21
52.63610508317117
 31
0.0
  0
LINE
  5
14F
330
55
100
AcDbEntity
  8
0
  6
Continuous
 62
     7
100
AcDbLine
 10
13.84134312384084
 20
42.21068455478688
 30
0.0
 11
13.84134312429865
 21
36.22584993747198
 31
0.0
  0
LINE
  5
150
330
55
100
AcDbEntity
  8
0
  6
Continuous
 62
     7
100
AcDbLine
 10
12.69531956845331
 20
51.89254496943454
 30
0.0
 11
11.19531957119111
 21
50.59350686550058
 31
0.0
  0
LINE
  5
151
330
55
100
AcDbEntity
  8
0
  6
Continuous
 62
     7
100
AcDbLine
 10
10.60705097581085
 20
51.13138617544107
 30
0.0
 11
9.21955109020396
 21
53.93514318660314
 31
0.0
  0
LINE
  5
152
330
55
100
AcDbEntity
  8
0
  6
Continuous
 62
     7
100
AcDbLine
 10
9.21955109020396
 20
53.93514318660314
 30
0.0
 11
4.42836611013094
 21
55.3182391535894
 31
0.0
  0
LINE
  5
153
330
55
100
AcDbEntity
  8
0
  6
Continuous
 62
     7
100
AcDbLine
 10
4.42836611013094
 20
55.3182391535894
 30
0.0
 11
4.519286997013
 21
56.33122303977479
 31
0.0
  0
LINE
  5
154
330
55
100
AcDbEntity
  8
0
  6
Continuous
 62
     7
100
AcDbLine
 10
4.519286997013
 20
56.33122303977479
 30
0.0
 11
3.01928699959731
 21
55.03218493560277
 31
0.0
  0
LINE
  5
155
330
55
100
AcDbEntity
  8
0
  6
Continuous
 62
     7
100
AcDbLine
 10
4.519286997013
 20
56.33122303977479
 30
0.0
 11
3.04219937218929
 21
56.75762150891763
 31
0.0
  0
LINE
  5
156
330
55
100
AcDbEntity
  8
0
  6
Continuous
 62
     7
100
AcDbLine
 10
4.42836611013094
 20
55.3182391535894
 30
0.0
 11
2.92836611278187
 21
54.01920105015958
 31
0.0
  0
LINE
  5
157
330
55
100
AcDbEntity
  8
0
  6
Continuous
 62
     7
100
AcDbLine
 10
2.44531957166639
 20
43.01578457255634
 30
0.0
 11
11.19531957119111
 21
50.59350686550058
 31
0.0
  0
LINE
  5
158
330
55
100
AcDbEntity
  8
0
  6
Continuous
 62
     7
100
AcDbLine
 10
12.53456934322516
 20
50.20689875731368
 30
0.0
 11
3.78456934374458
 21
42.62917646435284
 31
0.0
  0
LINE
  5
159
330
55
100
AcDbEntity
  8
0
  6
Continuous
 62
     7
100
AcDbLine
 10
-5.73071299282042
 20
32.03921088637041
 30
0.0
 11
-5.82163387790522
 21
33.10468795422911
 31
0.0
  0
LINE
  5
15A
330
55
100
AcDbEntity
  8
0
  6
Continuous
 62
     7
100
AcDbLine
 10
-5.8216338868091
 20
46.44147875679906
 30
0.0
 11
-5.73071299999005
 21
47.45446264260428
 31
0.0
  0
LINE
  5
15B
330
55
100
AcDbEntity
  8
0
  6
Continuous
 62
     7
100
AcDbLine
 10
-5.73071299999005
 20
47.45446264260428
 30
0.0
 11
-7.20780102412552
 21
47.88086122909063
 31
0.0
  0
LINE
  5
15C
330
55
100
AcDbEntity
  8
0
  6
Continuous
 62
     7
100
AcDbLine
 10
-5.73071299282042
 20
32.03921088637041
 30
0.0
 11
-6.98723734906089
 21
32.40193821675996
 31
0.0
  0
LINE
  5
15D
330
55
100
AcDbEntity
  8
0
  6
Continuous
 62
     7
100
AcDbLine
 10
9.1070509784209
 20
49.83234807189088
 30
0.0
 11
0.35705097893728
 21
42.25462577898225
 31
0.0
  0
LINE
  5
15E
330
55
100
AcDbEntity
  8
0
  6
Continuous
 62
     7
100
AcDbLine
 10
14.03456934062541
 20
51.50593686085987
 30
0.0
 11
12.69531956845331
 21
51.89254496943454
 31
0.0
  0
LINE
  5
15F
330
55
100
AcDbEntity
  8
0
  6
Continuous
 62
     7
100
AcDbLine
 10
10.60705097581085
 20
51.13138617544107
 30
0.0
 11
11.51406956881286
 21
50.86955246142453
 31
0.0
  0
LINE
  5
160
330
55
100
AcDbEntity
  8
0
  6
Continuous
 62
     7
100
AcDbLine
 10
10.60705097581085
 20
51.13138617544107
 30
0.0
 11
9.1070509784209
 21
49.83234807189088
 31
0.0
  0
LINE
  5
161
330
55
100
AcDbEntity
  8
0
  6
Continuous
 62
     7
100
AcDbLine
 10
14.03456934062541
 20
51.50593686085987
 30
0.0
 11
12.53456934322516
 21
50.20689875731368
 31
0.0
  0
LINE
  5
162
330
55
100
AcDbEntity
  8
0
  6
Continuous
 62
     7
100
AcDbLine
 10
-12.78180864147478
 20
47.97641248068264
 30
0.0
 11
-12.66887875744389
 21
47.02407233717837
 31
0.0
  0
LINE
  5
163
330
55
100
AcDbEntity
  8
0
  6
Continuous
 62
     7
100
AcDbLine
 10
20.31634312117171
 20
49.14296097676103
 30
0.0
 11
18.81634312377148
 21
47.84392287321484
 31
0.0
  0
LINE
  5
164
330
55
100
AcDbEntity
  8
0
  6
Continuous
 62
     7
100
AcDbLine
 10
20.31634312117171
 20
49.14296097676103
 30
0.0
 11
14.03456934062541
 21
51.50593686085987
 31
0.0
  0
LINE
  5
165
330
55
100
AcDbEntity
  8
0
  6
Continuous
 62
     7
100
AcDbLine
 10
-1.03044890664009
 20
45.05838278987817
 30
0.0
 11
7.71955109275677
 21
52.63610508317117
 31
0.0
  0
LINE
  5
166
330
55
100
AcDbEntity
  8
0
  6
Continuous
 62
     7
100
AcDbLine
 10
-7.57909474211609
 20
33.96712136883668
 30
0.0
 11
-7.30224713164922
 21
34.20687844443613
 31
0.0
  0
LINE
  5
167
330
55
100
AcDbEntity
  8
0
  6
Continuous
 62
     7
100
AcDbLine
 10
-12.5477411264803
 20
36.01151909794377
 30
0.0
 11
-12.86670303509247
 21
35.68031916227106
 31
0.0
  0
LINE
  5
168
330
55
100
AcDbEntity
  8
0
  6
Continuous
 62
     7
100
AcDbLine
 10
-12.78180863221081
 20
36.10782844896154
 30
0.0
 11
-12.5477411264803
 21
36.01151909794377
 31
0.0
  0
LINE
  5
169
330
55
100
AcDbEntity
  8
0
  6
Continuous
 62
     7
100
AcDbLine
 10
-12.66887874915724
 20
36.99496849604116
 30
0.0
 11
-12.78180863221081
 21
36.10782844896154
 31
0.0
  0
LINE
  5
16A
330
55
100
AcDbEntity
  8
0
  6
Continuous
 62
     7
100
AcDbLine
 10
-12.66887874915724
 20
36.99496849604116
 30
0.0
 11
-7.23209734940201
 21
34.75795207524575
 31
0.0
  0
LINE
  5
16B
330
55
100
AcDbEntity
  8
0
  6
Continuous
 62
     7
100
AcDbLine
 10
-12.5477411264803
 20
36.01151909794377
 30
0.0
 11
-11.81692544167274
 21
36.64442404732015
 31
0.0
  0
LINE
  5
16C
330
55
100
AcDbEntity
  8
0
  6
Continuous
 62
     7
100
AcDbLine
 10
-12.05099295287816
 20
36.740733394274
 30
0.0
 11
-12.78180863221081
 21
36.10782844896154
 31
0.0
  0
LINE
  5
16D
330
55
100
AcDbEntity
  8
0
  6
Continuous
 62
     7
100
AcDbLine
 10
-12.86670303509247
 20
35.68031916227106
 30
0.0
 11
-11.77389463804857
 21
36.62671860595155
 31
0.0
  0
LINE
  5
16E
330
55
100
AcDbEntity
  8
0
  6
Continuous
 62
     7
100
AcDbLine
 10
-5.73071299282042
 20
32.03921088637041
 30
0.0
 11
-4.83071300644309
 21
32.8186337380602
 31
0.0
  0
LINE
  5
16F
330
55
100
AcDbEntity
  8
0
  6
Continuous
 62
     7
100
AcDbLine
 10
10.06634312472887
 20
28.51822405456911
 30
0.0
 11
10.0663431243099
 21
40.26620058026743
 31
0.0
  0
LINE
  5
170
330
55
100
AcDbEntity
  8
0
  6
Continuous
 62
     7
100
AcDbLine
 10
10.06634312472887
 20
28.51822405456911
 30
0.0
 11
20.31634312127292
 21
37.39498445074258
 31
0.0
  0
ENDBLK
  5
57
330
55
100
AcDbEntity
  8
0
100
AcDbBlockEnd
  0
BLOCK
  5
5A
330
58
100
AcDbEntity
  8
0
100
AcDbBlockBegin
  2
Gen1
 70
     0
 10
3.50000000030406
 20
42.999999997788
 30
0.0
  3
Gen1
  1

  0
INSERT
  5
59
330
58
100
AcDbEntity
  8
0
100
AcDbBlockReference
  2
PPC_1_5_S_5-select__3
 10
-13.31634282408002
 20
28.51822405456911
 30
0.0
  0
ENDBLK
  5
5B
330
58
100
AcDbEntity
  8
0
100
AcDbBlockEnd
  0
BLOCK
  5
5D
330
5C
100
AcDbEntity
  8
0
100
AcDbBlockBegin
  2
PPC_1_5_S_5-select__4
 70
     0
 10
-35.00000024229968
 20
69.24999988801633
 30
0.0
  3
PPC_1_5_S_5-select__4
  1

  0
LINE
  5
171
330
5C
100
AcDbEntity
  8
0
  6
Continuous
 62
     7
100
AcDbLine
 10
-32.00000024668891
 20
71.07572619148029
 30
0.0
 11
-32.00000024667764
 21
70.86003192800305
 31
0.0
  0
LINE
  5
172
330
5C
100
AcDbEntity
  8
0
  6
Continuous
 62
     7
100
AcDbLine
 10
-32.00000024667764
 20
70.86003192800305
 30
0.0
 11
-32.00000024664824
 21
70.29670886096253
 31
0.0
  0
LINE
  5
173
330
5C
100
AcDbEntity
  8
0
  6
Continuous
 62
     7
100
AcDbLine
 10
-35.00000024223236
 20
85.76052423350367
 30
0.0
 11
-35.00000024146917
 21
71.13947455453244
 31
0.0
  0
LINE
  5
174
330
5C
100
AcDbEntity
  8
0
  6
Continuous
 62
     7
100
AcDbLine
 10
-35.00000024223236
 20
85.76052423350367
 30
0.0
 11
-35.00000024229968
 21
87.04999940873171
 31
0.0
  0
LINE
  5
175
330
5C
100
AcDbEntity
  8
0
  6
Continuous
 62
     7
100
AcDbLine
 10
-35.00000024146917
 20
71.13947455453244
 30
0.0
 11
-35.00000024142517
 21
70.29670886079731
 31
0.0
  0
LINE
  5
176
330
5C
100
AcDbEntity
  8
0
  6
Continuous
 62
     7
100
AcDbLine
 10
-32.00000024664824
 20
70.29670886096253
 30
0.0
 11
-35.00000024142517
 21
70.29670886079731
 31
0.0
  0
LINE
  5
177
330
5C
100
AcDbEntity
  8
0
  6
Continuous
 62
     7
100
AcDbLine
 10
-35.00000024137053
 20
69.2499998972632
 30
0.0
 11
-32.0000002465936
 21
69.2499998972632
 31
0.0
  0
LINE
  5
178
330
5C
100
AcDbEntity
  8
0
  6
Continuous
 62
     7
100
AcDbLine
 10
-14.50000024834801
 20
86.03996757895837
 30
0.0
 11
-32.00000024747003
 21
86.03996758820523
 31
0.0
  0
LINE
  5
179
330
5C
100
AcDbEntity
  8
0
  6
Continuous
 62
     7
100
AcDbLine
 10
-35.00000024223236
 20
85.76052423350367
 30
0.0
 11
-14.50000024834801
 21
85.76052423438547
 31
0.0
  0
LINE
  5
17A
330
5C
100
AcDbEntity
  8
0
  6
Continuous
 62
     7
100
AcDbLine
 10
-14.50000024834801
 20
69.24999988801633
 30
0.0
 11
-32.0000002465936
 21
69.2499998972632
 31
0.0
  0
LINE
  5
17B
330
5C
100
AcDbEntity
  8
0
  6
Continuous
 62
     7
100
AcDbLine
 10
-14.50000024834801
 20
69.24999988801633
 30
0.0
 11
-14.50000024834801
 21
70.86003191875619
 31
0.0
  0
LINE
  5
17C
330
5C
100
AcDbEntity
  8
0
  6
Continuous
 62
     7
100
AcDbLine
 10
-22.30000024679295
 20
74.92499961941718
 30
0.0
 11
-22.30000024684011
 21
76.12499961998789
 31
0.0
  0
LINE
  5
17D
330
5C
100
AcDbEntity
  8
0
  6
Continuous
 62
     2
100
AcDbLine
 10
-31.93015017745853
 20
75.32154056656009
 30
0.0
 11
-32.00000024691108
 21
75.32154056655733
 31
0.0
  0
LINE
  5
17E
330
5C
100
AcDbEntity
  8
0
  6
Continuous
 62
     2
100
AcDbLine
 10
-31.89595954072494
 20
74.55479467285092
 30
0.0
 11
-32.00000024687927
 21
74.55479467284665
 31
0.0
  0
LINE
  5
17F
330
5C
100
AcDbEntity
  8
0
  6
Continuous
 62
     7
100
AcDbLine
 10
-35.00000024146917
 20
71.13947455453244
 30
0.0
 11
-14.50000024834802
 21
71.13947527116358
 31
0.0
  0
LINE
  5
180
330
5C
100
AcDbEntity
  8
0
  6
Continuous
 62
     2
100
AcDbLine
 10
-28.43015017915031
 20
75.32154056656009
 30
0.0
 11
-28.50000024834857
 21
75.32154056655733
 31
0.0
  0
LINE
  5
181
330
5C
100
AcDbEntity
  8
0
  6
Continuous
 62
     7
100
AcDbLine
 10
-28.43015017898028
 20
74.60593968370434
 30
0.0
 11
-28.43015017915031
 21
75.32154056656009
 31
0.0
  0
LINE
  5
182
330
5C
100
AcDbEntity
  8
0
  6
Continuous
 62
     2
100
AcDbLine
 10
-24.93015017745853
 20
75.3215405611036
 30
0.0
 11
-25.00000025004034
 21
75.32154056110086
 31
0.0
  0
LINE
  5
183
330
5C
100
AcDbEntity
  8
0
  6
Continuous
 62
     7
100
AcDbLine
 10
-24.9301501772885
 20
74.60593967824786
 30
0.0
 11
-24.93015017745853
 21
75.3215405611036
 31
0.0
  0
LINE
  5
184
330
5C
100
AcDbEntity
  8
0
  6
Continuous
 62
     7
100
AcDbLine
 10
-31.9301501772885
 20
74.60593968370434
 30
0.0
 11
-31.93015017745853
 21
75.32154056656009
 31
0.0
  0
LINE
  5
185
330
5C
100
AcDbEntity
  8
0
  6
Continuous
 62
     7
100
AcDbLine
 10
-28.50000024831676
 20
74.55479467284665
 30
0.0
 11
-28.50000024834802
 21
74.4249996236602
 31
0.0
  0
LINE
  5
186
330
5C
100
AcDbEntity
  8
0
  6
Continuous
 62
     7
100
AcDbLine
 10
-28.50000024834857
 20
75.32154056655733
 30
0.0
 11
-28.50000024831676
 21
74.55479467284665
 31
0.0
  0
LINE
  5
187
330
5C
100
AcDbEntity
  8
0
  6
Continuous
 62
     7
100
AcDbLine
 10
-24.30000024778542
 20
74.53377764540579
 30
0.0
 11
-24.30000024778418
 21
74.62499962354921
 31
0.0
  0
LINE
  5
188
330
5C
100
AcDbEntity
  8
0
  6
Continuous
 62
     7
100
AcDbLine
 10
-24.30000024778418
 20
74.62499962354921
 30
0.0
 11
-24.30000024778386
 21
74.76753236667399
 31
0.0
  0
LINE
  5
189
330
5C
100
AcDbEntity
  8
0
  6
Continuous
 62
     7
100
AcDbLine
 10
-22.30000024677905
 20
74.62499962352666
 30
0.0
 11
-22.30000024678609
 21
74.76753236663066
 31
0.0
  0
LINE
  5
18A
330
5C
100
AcDbEntity
  8
0
  6
Continuous
 62
     7
100
AcDbLine
 10
-22.30000024676619
 20
74.3208401617476
 30
0.0
 11
-22.30000024677905
 21
74.62499962352666
 31
0.0
  0
LINE
  5
18B
330
5C
100
AcDbEntity
  8
0
  6
Continuous
 62
     7
100
AcDbLine
 10
-21.50000024831676
 20
74.55479466466194
 30
0.0
 11
-21.50000024834802
 21
74.42499961547549
 31
0.0
  0
LINE
  5
18C
330
5C
100
AcDbEntity
  8
0
  6
Continuous
 62
     7
100
AcDbLine
 10
-21.50000024834802
 20
74.42499961547549
 30
0.0
 11
-21.29614838621959
 21
74.4249996154959
 31
0.0
  0
LINE
  5
18D
330
5C
100
AcDbEntity
  8
0
  6
Continuous
 62
     7
100
AcDbLine
 10
-18.00000024831675
 20
74.5547946619337
 30
0.0
 11
-18.00000024665624
 21
74.42499961274724
 31
0.0
  0
LINE
  5
18E
330
5C
100
AcDbEntity
  8
0
  6
Continuous
 62
     7
100
AcDbLine
 10
-18.00000024665624
 20
74.42499961274724
 30
0.0
 11
-17.79614838621959
 21
74.42499961276766
 31
0.0
  0
LINE
  5
18F
330
5C
100
AcDbEntity
  8
0
  6
Continuous
 62
     7
100
AcDbLine
 10
-24.57510288734476
 20
74.20812669059286
 30
0.0
 11
-24.30000024778542
 21
74.53377764540579
 31
0.0
  0
LINE
  5
190
330
5C
100
AcDbEntity
  8
0
  6
Continuous
 62
     7
100
AcDbLine
 10
-25.80000024847082
 20
74.62499962898315
 30
0.0
 11
-25.80000024847787
 21
74.76753237208715
 31
0.0
  0
LINE
  5
191
330
5C
100
AcDbEntity
  8
0
  6
Continuous
 62
     7
100
AcDbLine
 10
-25.80000024845796
 20
74.32084016720408
 30
0.0
 11
-25.80000024847082
 21
74.62499962898315
 31
0.0
  0
LINE
  5
192
330
5C
100
AcDbEntity
  8
0
  6
Continuous
 62
     7
100
AcDbLine
 10
-29.30000024676618
 20
74.32084016720408
 30
0.0
 11
-29.30000024677905
 21
74.62499962898315
 31
0.0
  0
LINE
  5
193
330
5C
100
AcDbEntity
  8
0
  6
Continuous
 62
     7
100
AcDbLine
 10
-29.30000024677905
 20
74.62499962898315
 30
0.0
 11
-31.30000024778418
 21
74.6249996290057
 31
0.0
  0
LINE
  5
194
330
5C
100
AcDbEntity
  8
0
  6
Continuous
 62
     7
100
AcDbLine
 10
-29.30000024677905
 20
74.62499962898315
 30
0.0
 11
-29.3000002467861
 21
74.76753237208715
 31
0.0
  0
LINE
  5
195
330
5C
100
AcDbEntity
  8
0
  6
Continuous
 62
     7
100
AcDbLine
 10
-31.30000024778542
 20
74.53377765086228
 30
0.0
 11
-31.30000024778418
 21
74.6249996290057
 31
0.0
  0
LINE
  5
196
330
5C
100
AcDbEntity
  8
0
  6
Continuous
 62
     7
100
AcDbLine
 10
-31.30000024778418
 20
74.6249996290057
 30
0.0
 11
-31.30000024778386
 21
74.76753237213046
 31
0.0
  0
LINE
  5
197
330
5C
100
AcDbEntity
  8
0
  6
Continuous
 62
     7
100
AcDbLine
 10
-29.3000002467861
 20
74.76753237208715
 30
0.0
 11
-29.30000024679295
 21
74.92499962487365
 31
0.0
  0
LINE
  5
198
330
5C
100
AcDbEntity
  8
0
  6
Continuous
 62
     7
100
AcDbLine
 10
-27.8000002494772
 20
74.53377765086228
 30
0.0
 11
-27.80000024947596
 21
74.6249996290057
 31
0.0
  0
LINE
  5
199
330
5C
100
AcDbEntity
  8
0
  6
Continuous
 62
     7
100
AcDbLine
 10
-27.80000024947596
 20
74.6249996290057
 30
0.0
 11
-27.80000024947564
 21
74.76753237213046
 31
0.0
  0
LINE
  5
19A
330
5C
100
AcDbEntity
  8
0
  6
Continuous
 62
     7
100
AcDbLine
 10
-28.50000024834802
 20
74.4249996236602
 30
0.0
 11
-28.29614838791137
 21
74.42499962368062
 31
0.0
  0
LINE
  5
19B
330
5C
100
AcDbEntity
  8
0
  6
Continuous
 62
     7
100
AcDbLine
 10
-25.00000025000853
 20
74.55479466739017
 30
0.0
 11
-25.0000002500398
 21
74.42499961820373
 31
0.0
  0
LINE
  5
19C
330
5C
100
AcDbEntity
  8
0
  6
Continuous
 62
     2
100
AcDbLine
 10
-24.89595954072493
 20
74.55479466739445
 30
0.0
 11
-25.00000025000853
 21
74.55479466739017
 31
0.0
  0
LINE
  5
19D
330
5C
100
AcDbEntity
  8
0
  6
Continuous
 62
     7
100
AcDbLine
 10
-25.0000002500398
 20
74.42499961820373
 30
0.0
 11
-24.79614838621959
 21
74.42499961822413
 31
0.0
  0
LINE
  5
19E
330
5C
100
AcDbEntity
  8
0
  6
Continuous
 62
     7
100
AcDbLine
 10
-25.00000025004034
 20
75.32154056110086
 30
0.0
 11
-25.00000025000853
 21
74.55479466739017
 31
0.0
  0
LINE
  5
19F
330
5C
100
AcDbEntity
  8
0
  6
Continuous
 62
     7
100
AcDbLine
 10
-28.07510288903654
 20
74.20812669604933
 30
0.0
 11
-27.8000002494772
 21
74.53377765086228
 31
0.0
  0
LINE
  5
1A0
330
5C
100
AcDbEntity
  8
0
  6
Continuous
 62
     7
100
AcDbLine
 10
-25.80000024847082
 20
74.62499962898315
 30
0.0
 11
-27.80000024947596
 21
74.6249996290057
 31
0.0
  0
LINE
  5
1A1
330
5C
100
AcDbEntity
  8
0
  6
Continuous
 62
     2
100
AcDbLine
 10
-28.39595954241672
 20
74.55479467285092
 30
0.0
 11
-28.50000024831676
 21
74.55479467284665
 31
0.0
  0
LINE
  5
1A2
330
5C
100
AcDbEntity
  8
0
  6
Continuous
 62
     7
100
AcDbLine
 10
-22.30000024677905
 20
74.62499962352666
 30
0.0
 11
-24.30000024778418
 21
74.62499962354921
 31
0.0
  0
LINE
  5
1A3
330
5C
100
AcDbEntity
  8
0
  6
Continuous
 62
     7
100
AcDbLine
 10
-24.30000024778386
 20
74.76753236667399
 30
0.0
 11
-24.30000024778203
 21
74.9249996194605
 31
0.0
  0
LINE
  5
1A4
330
5C
100
AcDbEntity
  8
0
  6
Continuous
 62
     7
100
AcDbLine
 10
-31.30000024778386
 20
74.76753237213046
 30
0.0
 11
-31.30000024778203
 21
74.92499962491698
 31
0.0
  0
LINE
  5
1A5
330
5C
100
AcDbEntity
  8
0
  6
Continuous
 62
     7
100
AcDbLine
 10
-29.30000024679295
 20
74.92499962487365
 30
0.0
 11
-31.30000024778203
 21
74.92499962491698
 31
0.0
  0
LINE
  5
1A6
330
5C
100
AcDbEntity
  8
0
  6
Continuous
 62
     7
100
AcDbLine
 10
-25.80000024847787
 20
74.76753237208715
 30
0.0
 11
-25.80000024848473
 21
74.92499962487365
 31
0.0
  0
LINE
  5
1A7
330
5C
100
AcDbEntity
  8
0
  6
Continuous
 62
     7
100
AcDbLine
 10
-27.80000024947564
 20
74.76753237213046
 30
0.0
 11
-27.80000024947381
 21
74.92499962491698
 31
0.0
  0
LINE
  5
1A8
330
5C
100
AcDbEntity
  8
0
  6
Continuous
 62
     7
100
AcDbLine
 10
-25.80000024848473
 20
74.92499962487365
 30
0.0
 11
-27.80000024947381
 21
74.92499962491698
 31
0.0
  0
LINE
  5
1A9
330
5C
100
AcDbEntity
  8
0
  6
Continuous
 62
     7
100
AcDbLine
 10
-22.30000024678609
 20
74.76753236663066
 30
0.0
 11
-22.30000024679295
 21
74.92499961941718
 31
0.0
  0
LINE
  5
1AA
330
5C
100
AcDbEntity
  8
0
  6
Continuous
 62
     7
100
AcDbLine
 10
-22.30000024679295
 20
74.92499961941718
 30
0.0
 11
-24.30000024778203
 21
74.9249996194605
 31
0.0
  0
LINE
  5
1AB
330
5C
100
AcDbEntity
  8
0
  6
Continuous
 62
     7
100
AcDbLine
 10
-31.30000024778386
 20
74.76753237213046
 30
0.0
 11
-29.3000002467861
 21
74.76753237208715
 31
0.0
  0
LINE
  5
1AC
330
5C
100
AcDbEntity
  8
0
  6
Continuous
 62
     7
100
AcDbLine
 10
-27.80000024947564
 20
74.76753237213046
 30
0.0
 11
-25.80000024847787
 21
74.76753237208715
 31
0.0
  0
LINE
  5
1AD
330
5C
100
AcDbEntity
  8
0
  6
Continuous
 62
     7
100
AcDbLine
 10
-24.30000024778386
 20
74.76753236667399
 30
0.0
 11
-22.30000024678609
 21
74.76753236663066
 31
0.0
  0
LINE
  5
1AE
330
5C
100
AcDbEntity
  8
0
  6
Continuous
 62
     7
100
AcDbLine
 10
-14.50000024834801
 20
70.86003191875619
 30
0.0
 11
-32.00000024667764
 21
70.86003192800305
 31
0.0
  0
LINE
  5
1AF
330
5C
100
AcDbEntity
  8
0
  6
Continuous
 62
     7
100
AcDbLine
 10
-14.50000024834802
 20
71.07572623556747
 30
0.0
 11
-14.50000024834802
 21
71.13947527116358
 31
0.0
  0
LINE
  5
1B0
330
5C
100
AcDbEntity
  8
0
  6
Continuous
 62
     7
100
AcDbLine
 10
-14.50000024834801
 20
70.86003191875619
 30
0.0
 11
-14.50000024834802
 21
71.07572623556747
 31
0.0
  0
LINE
  5
1B1
330
5C
100
AcDbEntity
  8
0
  6
Continuous
 62
     7
100
AcDbLine
 10
-14.50000024834802
 20
71.07572623556747
 30
0.0
 11
-32.00000024668891
 21
71.07572619148029
 31
0.0
  0
LINE
  5
1B2
330
5C
100
AcDbEntity
  8
0
  6
Continuous
 62
     7
100
AcDbLine
 10
-31.57510288734476
 20
74.20812669604933
 30
0.0
 11
-31.30000024778542
 21
74.53377765086228
 31
0.0
  0
LINE
  5
1B3
330
5C
100
AcDbEntity
  8
0
  6
Continuous
 62
     7
100
AcDbLine
 10
-14.50000024834801
 20
85.85166675648736
 30
0.0
 11
-32.00000024746019
 21
85.85166675648918
 31
0.0
  0
LINE
  5
1B4
330
5C
100
AcDbEntity
  8
0
  6
Continuous
 62
     7
100
AcDbLine
 10
-35.00000024229968
 20
87.04999940873171
 30
0.0
 11
-32.00000024752275
 21
87.04999957286176
 31
0.0
  0
LINE
  5
1B5
330
5C
100
AcDbEntity
  8
0
  6
Continuous
 62
     7
100
AcDbLine
 10
-35.00000024137053
 20
69.2499998972632
 30
0.0
 11
-35.00000024142517
 21
70.29670886079731
 31
0.0
  0
LINE
  5
1B6
330
5C
100
AcDbEntity
  8
0
  6
Continuous
 62
     7
100
AcDbLine
 10
-23.98738660187631
 20
79.97499962100149
 30
0.0
 11
-24.60000024679045
 21
79.9749996210741
 31
0.0
  0
LINE
  5
1B7
330
5C
100
AcDbEntity
  8
0
  6
Continuous
 62
     7
100
AcDbLine
 10
-24.6000002467851
 20
79.3749996210741
 30
0.0
 11
-23.98738660518125
 21
79.37499962100149
 31
0.0
  0
LINE
  5
1B8
330
5C
100
AcDbEntity
  8
0
  6
Continuous
 62
     7
100
AcDbLine
 10
-22.44292882231982
 20
77.17499962292936
 30
0.0
 11
-24.15707167230242
 21
77.17499962294869
 31
0.0
  0
LINE
  5
1B9
330
5C
100
AcDbEntity
  8
0
  6
Continuous
 62
     7
100
AcDbLine
 10
-24.30000024704841
 20
76.64484417989846
 30
0.0
 11
-24.30000024774977
 21
76.82499962303858
 31
0.0
  0
LINE
  5
1BA
330
5C
100
AcDbEntity
  8
0
  6
Continuous
 62
     7
100
AcDbLine
 10
-24.60000024679045
 20
79.9749996210741
 30
0.0
 11
-24.6000002467851
 21
79.3749996210741
 31
0.0
  0
LINE
  5
1BB
330
5C
100
AcDbEntity
  8
0
  6
Continuous
 62
     7
100
AcDbLine
 10
-24.6000002467851
 20
79.3749996210741
 30
0.0
 11
-24.60000024677751
 21
78.37499961823725
 31
0.0
  0
LINE
  5
1BC
330
5C
100
AcDbEntity
  8
0
  6
Continuous
 62
     7
100
AcDbLine
 10
-24.60000024680072
 20
80.97499962072553
 30
0.0
 11
-24.60000024679045
 21
79.9749996210741
 31
0.0
  0
LINE
  5
1BD
330
5C
100
AcDbEntity
  8
0
  6
Continuous
 62
     7
100
AcDbLine
 10
-22.00000024700384
 20
79.9749996207659
 30
0.0
 11
-22.00000024704615
 21
80.97499962081417
 31
0.0
  0
LINE
  5
1BE
330
5C
100
AcDbEntity
  8
0
  6
Continuous
 62
     7
100
AcDbLine
 10
-21.1000002467851
 20
79.37499961834585
 30
0.0
 11
-21.10000024677751
 21
78.37499961550901
 31
0.0
  0
LINE
  5
1BF
330
5C
100
AcDbEntity
  8
0
  6
Continuous
 62
     7
100
AcDbLine
 10
-18.50000024700384
 20
79.97499961803766
 30
0.0
 11
-18.50000024704365
 21
80.97499961808593
 31
0.0
  0
LINE
  5
1C0
330
5C
100
AcDbEntity
  8
0
  6
Continuous
 62
     7
100
AcDbLine
 10
-21.80000024653083
 20
75.52499961912
 30
0.0
 11
-21.80000024685383
 21
76.12499961843768
 31
0.0
  0
LINE
  5
1C1
330
5C
100
AcDbEntity
  8
0
  6
Continuous
 62
     7
100
AcDbLine
 10
-21.29614838631397
 20
77.22499961548382
 30
0.0
 11
-21.50000024665624
 21
77.22499961547547
 31
0.0
  0
LINE
  5
1C2
330
5C
100
AcDbEntity
  8
0
  6
Continuous
 62
     7
100
AcDbLine
 10
-18.30000024682943
 20
75.52499961639177
 30
0.0
 11
-18.30000024662228
 21
76.12499961570944
 31
0.0
  0
LINE
  5
1C3
330
5C
100
AcDbEntity
  8
0
  6
Continuous
 62
     7
100
AcDbLine
 10
-18.00000024834856
 20
75.32154055564438
 30
0.0
 11
-18.00000024831675
 21
74.5547946619337
 31
0.0
  0
LINE
  5
1C4
330
5C
100
AcDbEntity
  8
0
  6
Continuous
 62
     7
100
AcDbLine
 10
-23.05000024998444
 20
80.87499961985282
 30
0.0
 11
-23.55000024599103
 21
80.87499961983143
 31
0.0
  0
LINE
  5
1C5
330
5C
100
AcDbEntity
  8
0
  6
Continuous
 62
     7
100
AcDbLine
 10
-20.05000024599103
 20
80.8749996171032
 30
0.0
 11
-20.15000024699377
 21
80.97499961802968
 31
0.0
  0
LINE
  5
1C6
330
5C
100
AcDbEntity
  8
0
  6
Continuous
 62
     7
100
AcDbLine
 10
-19.55000024998444
 20
80.87499961712457
 30
0.0
 11
-20.05000024599103
 21
80.8749996171032
 31
0.0
  0
LINE
  5
1C7
330
5C
100
AcDbEntity
  8
0
  6
Continuous
 62
     7
100
AcDbLine
 10
-19.4500002489911
 20
80.97499961805354
 30
0.0
 11
-19.55000024998444
 21
80.87499961712457
 31
0.0
  0
LINE
  5
1C8
330
5C
100
AcDbEntity
  8
0
  6
Continuous
 62
     7
100
AcDbLine
 10
-17.79614838631397
 20
77.2249996127556
 30
0.0
 11
-18.00000024665624
 21
77.22499961274724
 31
0.0
  0
LINE
  5
1C9
330
5C
100
AcDbEntity
  8
0
  6
Continuous
 62
     7
100
AcDbLine
 10
-24.60000024677751
 20
78.37499961823725
 30
0.0
 11
-22.00000024695063
 21
78.37499961820792
 31
0.0
  0
LINE
  5
1CA
330
5C
100
AcDbEntity
  8
0
  6
Continuous
 62
     7
100
AcDbLine
 10
-21.10000024677751
 20
78.37499961550901
 30
0.0
 11
-18.50000024693962
 21
78.3749996154797
 31
0.0
  0
LINE
  5
1CB
330
5C
100
AcDbEntity
  8
0
  6
Continuous
 62
     7
100
AcDbLine
 10
-23.65000024699377
 20
80.97499962075793
 30
0.0
 11
-24.60000024680072
 21
80.97499962072553
 31
0.0
  0
LINE
  5
1CC
330
5C
100
AcDbEntity
  8
0
  6
Continuous
 62
     7
100
AcDbLine
 10
-20.15000024699377
 20
80.97499961802968
 30
0.0
 11
-21.10000024680072
 21
80.97499961799728
 31
0.0
  0
LINE
  5
1CD
330
5C
100
AcDbEntity
  8
0
  6
Continuous
 62
     7
100
AcDbLine
 10
-18.50000024704365
 20
80.97499961808593
 30
0.0
 11
-19.4500002489911
 21
80.97499961805354
 31
0.0
  0
LINE
  5
1CE
330
5C
100
AcDbEntity
  8
0
  6
Continuous
 62
     7
100
AcDbLine
 10
-22.00000024697926
 20
79.37499962076593
 30
0.0
 11
-22.00000024700384
 21
79.9749996207659
 31
0.0
  0
LINE
  5
1CF
330
5C
100
AcDbEntity
  8
0
  6
Continuous
 62
     7
100
AcDbLine
 10
-22.00000024700384
 20
79.9749996207659
 30
0.0
 11
-22.61261389662338
 21
79.97499962083853
 31
0.0
  0
LINE
  5
1D0
330
5C
100
AcDbEntity
  8
0
  6
Continuous
 62
     7
100
AcDbLine
 10
-22.00000024695063
 20
78.37499961820792
 30
0.0
 11
-22.00000024697926
 21
79.37499962076593
 31
0.0
  0
LINE
  5
1D1
330
5C
100
AcDbEntity
  8
0
  6
Continuous
 62
     7
100
AcDbLine
 10
-22.61261389346067
 20
79.37499962083854
 30
0.0
 11
-22.00000024697926
 21
79.37499962076593
 31
0.0
  0
LINE
  5
1D2
330
5C
100
AcDbEntity
  8
0
  6
Continuous
 62
     7
100
AcDbLine
 10
-22.30000024684011
 20
76.12499961998789
 30
0.0
 11
-22.30000024683568
 21
76.824999622747
 31
0.0
  0
LINE
  5
1D3
330
5C
100
AcDbEntity
  8
0
  6
Continuous
 62
     2
100
AcDbLine
 10
-22.30000024684011
 20
76.12499961998789
 30
0.0
 11
-21.80000024685383
 21
76.12499961843768
 31
0.0
  0
LINE
  5
1D4
330
5C
100
AcDbEntity
  8
0
  6
Continuous
 62
     7
100
AcDbLine
 10
-23.55000024599103
 20
80.87499961983143
 30
0.0
 11
-23.65000024699377
 21
80.97499962075793
 31
0.0
  0
LINE
  5
1D5
330
5C
100
AcDbEntity
  8
0
  6
Continuous
 62
     7
100
AcDbLine
 10
-22.00000024704615
 20
80.97499962081417
 30
0.0
 11
-22.9500002489911
 21
80.97499962078179
 31
0.0
  0
LINE
  5
1D6
330
5C
100
AcDbEntity
  8
0
  6
Continuous
 62
     7
100
AcDbLine
 10
-24.34230326632791
 20
82.67690271652012
 30
0.0
 11
-22.25769722710524
 21
82.67690271647496
 31
0.0
  0
LINE
  5
1D7
330
5C
100
AcDbEntity
  8
0
  6
Continuous
 62
     7
100
AcDbLine
 10
-22.9500002489911
 20
80.97499962078179
 30
0.0
 11
-23.05000024998444
 21
80.87499961985282
 31
0.0
  0
LINE
  5
1D8
330
5C
100
AcDbEntity
  8
0
  6
Continuous
 62
     7
100
AcDbLine
 10
-14.80000024682943
 20
75.52499961366352
 30
0.0
 11
-14.80000024685383
 21
76.1249996129812
 31
0.0
  0
LINE
  5
1D9
330
5C
100
AcDbEntity
  8
0
  6
Continuous
 62
     7
100
AcDbLine
 10
-15.00000024700384
 20
79.97499961530943
 30
0.0
 11
-15.00000024704616
 21
80.9749996153577
 31
0.0
  0
LINE
  5
1DA
330
5C
100
AcDbEntity
  8
0
  6
Continuous
 62
     7
100
AcDbLine
 10
-16.05000024998444
 20
80.87499961439634
 30
0.0
 11
-16.55000024599103
 21
80.87499961437496
 31
0.0
  0
LINE
  5
1DB
330
5C
100
AcDbEntity
  8
0
  6
Continuous
 62
     7
100
AcDbLine
 10
-16.55000024599103
 20
80.87499961437496
 30
0.0
 11
-16.65000024699377
 21
80.97499961530144
 31
0.0
  0
LINE
  5
1DC
330
5C
100
AcDbEntity
  8
0
  6
Continuous
 62
     7
100
AcDbLine
 10
-15.9500002489911
 20
80.9749996153253
 30
0.0
 11
-16.05000024998444
 21
80.87499961439634
 31
0.0
  0
LINE
  5
1DD
330
5C
100
AcDbEntity
  8
0
  6
Continuous
 62
     7
100
AcDbLine
 10
-17.6000002467851
 20
79.37499961561763
 30
0.0
 11
-17.60000024671664
 21
78.37499961278077
 31
0.0
  0
LINE
  5
1DE
330
5C
100
AcDbEntity
  8
0
  6
Continuous
 62
     7
100
AcDbLine
 10
-17.60000024671664
 20
78.37499961278077
 30
0.0
 11
-15.00000024693962
 21
78.37499961275145
 31
0.0
  0
LINE
  5
1DF
330
5C
100
AcDbEntity
  8
0
  6
Continuous
 62
     7
100
AcDbLine
 10
-16.65000024699377
 20
80.97499961530144
 30
0.0
 11
-17.60000024680072
 21
80.97499961526906
 31
0.0
  0
LINE
  5
1E0
330
5C
100
AcDbEntity
  8
0
  6
Continuous
 62
     7
100
AcDbLine
 10
-15.00000024704616
 20
80.9749996153577
 30
0.0
 11
-15.9500002489911
 21
80.9749996153253
 31
0.0
  0
LINE
  5
1E1
330
5C
100
AcDbEntity
  8
0
  6
Continuous
 62
     7
100
AcDbLine
 10
-14.50000024834801
 20
85.76052423438547
 30
0.0
 11
-14.50000024834802
 21
71.13947527116358
 31
0.0
  0
LINE
  5
1E2
330
5C
100
AcDbEntity
  8
0
  6
Continuous
 62
     7
100
AcDbLine
 10
-29.30000024679295
 20
74.92499962487365
 30
0.0
 11
-29.30000024684011
 21
76.12499962544436
 31
0.0
  0
LINE
  5
1E3
330
5C
100
AcDbEntity
  8
0
  6
Continuous
 62
     7
100
AcDbLine
 10
-31.93015017745853
 20
75.32154056656009
 30
0.0
 11
-31.93015017755009
 21
76.32845868345743
 31
0.0
  0
LINE
  5
1E4
330
5C
100
AcDbEntity
  8
0
  6
Continuous
 62
     2
100
AcDbLine
 10
-31.8959595409166
 20
77.09520457679304
 30
0.0
 11
-32.00000024699467
 21
77.09520457678877
 31
0.0
  0
LINE
  5
1E5
330
5C
100
AcDbEntity
  8
0
  6
Continuous
 62
     7
100
AcDbLine
 10
-32.00000024686374
 20
74.4249996236602
 30
0.0
 11
-31.79614838621959
 21
74.42499962368062
 31
0.0
  0
LINE
  5
1E6
330
5C
100
AcDbEntity
  8
0
  6
Continuous
 62
     7
100
AcDbLine
 10
-32.00000024700989
 20
77.2249996236602
 30
0.0
 11
-32.00000024699467
 21
77.09520457678877
 31
0.0
  0
LINE
  5
1E7
330
5C
100
AcDbEntity
  8
0
  6
Continuous
 62
     7
100
AcDbLine
 10
-32.00000024746019
 20
85.85166675648918
 30
0.0
 11
-32.00000024747003
 21
86.03996758820523
 31
0.0
  0
LINE
  5
1E8
330
5C
100
AcDbEntity
  8
0
  6
Continuous
 62
     7
100
AcDbLine
 10
-32.00000024687927
 20
74.55479467284665
 30
0.0
 11
-32.00000024686374
 21
74.4249996236602
 31
0.0
  0
LINE
  5
1E9
330
5C
100
AcDbEntity
  8
0
  6
Continuous
 62
     7
100
AcDbLine
 10
-31.30000024778203
 20
74.92499962491698
 30
0.0
 11
-31.30000024704841
 21
76.64484418535494
 31
0.0
  0
LINE
  5
1EA
330
5C
100
AcDbEntity
  8
0
  6
Continuous
 62
     7
100
AcDbLine
 10
-32.00000024691108
 20
75.32154056655733
 30
0.0
 11
-32.00000024687927
 21
74.55479467284665
 31
0.0
  0
LINE
  5
1EB
330
5C
100
AcDbEntity
  8
0
  6
Continuous
 62
     7
100
AcDbLine
 10
-14.50000024834801
 20
85.76052423438547
 30
0.0
 11
-14.50000024834801
 21
85.85166675648736
 31
0.0
  0
LINE
  5
1EC
330
5C
100
AcDbEntity
  8
0
  6
Continuous
 62
     7
100
AcDbLine
 10
-14.50000024834801
 20
86.03996757895837
 30
0.0
 11
-14.50000024834801
 21
85.85166675648736
 31
0.0
  0
LINE
  5
1ED
330
5C
100
AcDbEntity
  8
0
  6
Continuous
 62
     7
100
AcDbLine
 10
-18.80000024679295
 20
74.92499961668894
 30
0.0
 11
-20.80000024778203
 21
74.92499961673225
 31
0.0
  0
LINE
  5
1EE
330
5C
100
AcDbEntity
  8
0
  6
Continuous
 62
     7
100
AcDbLine
 10
-15.30000024679295
 20
74.9249996139607
 30
0.0
 11
-17.30000024778203
 21
74.92499961400402
 31
0.0
  0
LINE
  5
1EF
330
5C
100
AcDbEntity
  8
0
  6
Continuous
 62
     7
100
AcDbLine
 10
-15.30000024678609
 20
74.76753236117419
 30
0.0
 11
-15.30000024679295
 21
74.9249996139607
 31
0.0
  0
LINE
  5
1F0
330
5C
100
AcDbEntity
  8
0
  6
Continuous
 62
     7
100
AcDbLine
 10
-17.30000024778386
 20
74.7675323612175
 30
0.0
 11
-17.30000024778203
 21
74.92499961400402
 31
0.0
  0
LINE
  5
1F1
330
5C
100
AcDbEntity
  8
0
  6
Continuous
 62
     7
100
AcDbLine
 10
-17.30000024778418
 20
74.62499961809274
 30
0.0
 11
-17.30000024778386
 21
74.7675323612175
 31
0.0
  0
LINE
  5
1F2
330
5C
100
AcDbEntity
  8
0
  6
Continuous
 62
     7
100
AcDbLine
 10
-17.57510288734476
 20
74.20812668513639
 30
0.0
 11
-17.30000024778542
 21
74.53377763994932
 31
0.0
  0
LINE
  5
1F3
330
5C
100
AcDbEntity
  8
0
  6
Continuous
 62
     7
100
AcDbLine
 10
-17.30000024778203
 20
74.92499961400402
 30
0.0
 11
-17.30000024704841
 21
76.64484417444199
 31
0.0
  0
LINE
  5
1F4
330
5C
100
AcDbEntity
  8
0
  6
Continuous
 62
     7
100
AcDbLine
 10
-17.30000024778542
 20
74.53377763994932
 30
0.0
 11
-17.30000024778418
 21
74.62499961809274
 31
0.0
  0
LINE
  5
1F5
330
5C
100
AcDbEntity
  8
0
  6
Continuous
 62
     7
100
AcDbLine
 10
-15.30000024677905
 20
74.62499961807019
 30
0.0
 11
-17.30000024778418
 21
74.62499961809274
 31
0.0
  0
LINE
  5
1F6
330
5C
100
AcDbEntity
  8
0
  6
Continuous
 62
     7
100
AcDbLine
 10
-15.30000024677905
 20
74.62499961807019
 30
0.0
 11
-15.30000024678609
 21
74.76753236117419
 31
0.0
  0
LINE
  5
1F7
330
5C
100
AcDbEntity
  8
0
  6
Continuous
 62
     7
100
AcDbLine
 10
-15.30000024676619
 20
74.32084015629113
 30
0.0
 11
-15.30000024677905
 21
74.62499961807019
 31
0.0
  0
LINE
  5
1F8
330
5C
100
AcDbEntity
  8
0
  6
Continuous
 62
     2
100
AcDbLine
 10
-17.89595954072493
 20
74.55479466193796
 30
0.0
 11
-18.00000024831675
 21
74.5547946619337
 31
0.0
  0
LINE
  5
1F9
330
5C
100
AcDbEntity
  8
0
  6
Continuous
 62
     7
100
AcDbLine
 10
-20.80000024778386
 20
74.76753236394575
 30
0.0
 11
-18.80000024678609
 21
74.76753236390243
 31
0.0
  0
LINE
  5
1FA
330
5C
100
AcDbEntity
  8
0
  6
Continuous
 62
     7
100
AcDbLine
 10
-18.80000024677904
 20
74.62499962079842
 30
0.0
 11
-20.80000024778418
 21
74.62499962082097
 31
0.0
  0
LINE
  5
1FB
330
5C
100
AcDbEntity
  8
0
  6
Continuous
 62
     7
100
AcDbLine
 10
-17.30000024778386
 20
74.7675323612175
 30
0.0
 11
-15.30000024678609
 21
74.76753236117419
 31
0.0
  0
LINE
  5
1FC
330
5C
100
AcDbEntity
  8
0
  6
Continuous
 62
     7
100
AcDbLine
 10
-18.80000024679295
 20
74.92499961668894
 30
0.0
 11
-18.80000024684011
 21
76.12499961725965
 31
0.0
  0
LINE
  5
1FD
330
5C
100
AcDbEntity
  8
0
  6
Continuous
 62
     7
100
AcDbLine
 10
-15.30000024679295
 20
74.9249996139607
 30
0.0
 11
-15.30000024684011
 21
76.1249996145314
 31
0.0
  0
LINE
  5
1FE
330
5C
100
AcDbEntity
  8
0
  6
Continuous
 62
     7
100
AcDbLine
 10
-21.4301501772885
 20
74.60593967551962
 30
0.0
 11
-21.43015017745853
 21
75.32154055837537
 31
0.0
  0
LINE
  5
1FF
330
5C
100
AcDbEntity
  8
0
  6
Continuous
 62
     2
100
AcDbLine
 10
-21.39595954072494
 20
74.5547946646662
 30
0.0
 11
-21.50000024831676
 21
74.55479466466194
 31
0.0
  0
LINE
  5
200
330
5C
100
AcDbEntity
  8
0
  6
Continuous
 62
     7
100
AcDbLine
 10
-21.50000024834857
 20
75.32154055837262
 30
0.0
 11
-21.50000024831676
 21
74.55479466466194
 31
0.0
  0
LINE
  5
201
330
5C
100
AcDbEntity
  8
0
  6
Continuous
 62
     7
100
AcDbLine
 10
-20.80000024778386
 20
74.76753236394575
 30
0.0
 11
-20.80000024778203
 21
74.92499961673225
 31
0.0
  0
LINE
  5
202
330
5C
100
AcDbEntity
  8
0
  6
Continuous
 62
     7
100
AcDbLine
 10
-20.80000024778542
 20
74.53377764267755
 30
0.0
 11
-20.80000024778418
 21
74.62499962082097
 31
0.0
  0
LINE
  5
203
330
5C
100
AcDbEntity
  8
0
  6
Continuous
 62
     7
100
AcDbLine
 10
-20.80000024778418
 20
74.62499962082097
 30
0.0
 11
-20.80000024778386
 21
74.76753236394575
 31
0.0
  0
LINE
  5
204
330
5C
100
AcDbEntity
  8
0
  6
Continuous
 62
     7
100
AcDbLine
 10
-20.80000024778203
 20
74.92499961673225
 30
0.0
 11
-20.8000002470484
 21
76.64484417717023
 31
0.0
  0
LINE
  5
205
330
5C
100
AcDbEntity
  8
0
  6
Continuous
 62
     7
100
AcDbLine
 10
-17.93015017732424
 20
74.6059396727914
 30
0.0
 11
-17.93015017745853
 21
75.32154055564713
 31
0.0
  0
LINE
  5
206
330
5C
100
AcDbEntity
  8
0
  6
Continuous
 62
     7
100
AcDbLine
 10
-18.80000024678609
 20
74.76753236390243
 30
0.0
 11
-18.80000024679295
 21
74.92499961668894
 31
0.0
  0
LINE
  5
207
330
5C
100
AcDbEntity
  8
0
  6
Continuous
 62
     7
100
AcDbLine
 10
-18.80000024677904
 20
74.62499962079842
 30
0.0
 11
-18.80000024678609
 21
74.76753236390243
 31
0.0
  0
LINE
  5
208
330
5C
100
AcDbEntity
  8
0
  6
Continuous
 62
     7
100
AcDbLine
 10
-18.80000024676619
 20
74.32084015901935
 30
0.0
 11
-18.80000024677904
 21
74.62499962079842
 31
0.0
  0
LINE
  5
209
330
5C
100
AcDbEntity
  8
0
  6
Continuous
 62
     7
100
AcDbLine
 10
-21.07510288734476
 20
74.20812668786462
 30
0.0
 11
-20.80000024778542
 21
74.53377764267755
 31
0.0
  0
LINE
  5
20A
330
5C
100
AcDbEntity
  8
0
  6
Continuous
 62
     7
100
AcDbLine
 10
-15.00000024697926
 20
79.37499961530945
 30
0.0
 11
-15.00000024700384
 21
79.97499961530943
 31
0.0
  0
LINE
  5
20B
330
5C
100
AcDbEntity
  8
0
  6
Continuous
 62
     7
100
AcDbLine
 10
-15.00000024700384
 20
79.97499961530943
 30
0.0
 11
-15.61261389662338
 21
79.97499961538205
 31
0.0
  0
LINE
  5
20C
330
5C
100
AcDbEntity
  8
0
  6
Continuous
 62
     7
100
AcDbLine
 10
-15.00000024693962
 20
78.37499961275145
 30
0.0
 11
-15.00000024697926
 21
79.37499961530945
 31
0.0
  0
LINE
  5
20D
330
5C
100
AcDbEntity
  8
0
  6
Continuous
 62
     7
100
AcDbLine
 10
-16.98738660187631
 20
79.974999615545
 30
0.0
 11
-17.60000024679045
 21
79.97499961561763
 31
0.0
  0
LINE
  5
20E
330
5C
100
AcDbEntity
  8
0
  6
Continuous
 62
     7
100
AcDbLine
 10
-17.6000002467851
 20
79.37499961561763
 30
0.0
 11
-16.98738660518125
 21
79.37499961554501
 31
0.0
  0
LINE
  5
20F
330
5C
100
AcDbEntity
  8
0
  6
Continuous
 62
     7
100
AcDbLine
 10
-18.50000024697926
 20
79.37499961803769
 30
0.0
 11
-18.50000024700384
 21
79.97499961803766
 31
0.0
  0
LINE
  5
210
330
5C
100
AcDbEntity
  8
0
  6
Continuous
 62
     7
100
AcDbLine
 10
-18.80000024684011
 20
76.12499961725965
 30
0.0
 11
-18.80000024683568
 21
76.82499962001876
 31
0.0
  0
LINE
  5
211
330
5C
100
AcDbEntity
  8
0
  6
Continuous
 62
     7
100
AcDbLine
 10
-19.11261389346067
 20
79.3749996181103
 30
0.0
 11
-18.50000024697926
 21
79.37499961803769
 31
0.0
  0
LINE
  5
212
330
5C
100
AcDbEntity
  8
0
  6
Continuous
 62
     7
100
AcDbLine
 10
-18.50000024700384
 20
79.97499961803766
 30
0.0
 11
-19.11261389662338
 21
79.97499961811029
 31
0.0
  0
LINE
  5
213
330
5C
100
AcDbEntity
  8
0
  6
Continuous
 62
     7
100
AcDbLine
 10
-15.61261389346067
 20
79.37499961538207
 30
0.0
 11
-15.00000024697926
 21
79.37499961530945
 31
0.0
  0
LINE
  5
214
330
5C
100
AcDbEntity
  8
0
  6
Continuous
 62
     7
100
AcDbLine
 10
-17.60000024679045
 20
79.97499961561763
 30
0.0
 11
-17.6000002467851
 21
79.37499961561763
 31
0.0
  0
LINE
  5
215
330
5C
100
AcDbEntity
  8
0
  6
Continuous
 62
     7
100
AcDbLine
 10
-17.60000024680072
 20
80.97499961526906
 30
0.0
 11
-17.60000024679045
 21
79.97499961561763
 31
0.0
  0
LINE
  5
216
330
5C
100
AcDbEntity
  8
0
  6
Continuous
 62
     2
100
AcDbLine
 10
-18.80000024684011
 20
76.12499961725965
 30
0.0
 11
-18.30000024662228
 21
76.12499961570944
 31
0.0
  0
LINE
  5
217
330
5C
100
AcDbEntity
  8
0
  6
Continuous
 62
     7
100
AcDbLine
 10
-18.50000024693962
 20
78.3749996154797
 30
0.0
 11
-18.50000024697926
 21
79.37499961803769
 31
0.0
  0
LINE
  5
218
330
5C
100
AcDbEntity
  8
0
  6
Continuous
 62
     7
100
AcDbLine
 10
-17.93015017745853
 20
75.32154055564713
 30
0.0
 11
-17.93015017755009
 21
76.32845867254447
 31
0.0
  0
LINE
  5
219
330
5C
100
AcDbEntity
  8
0
  6
Continuous
 62
     7
100
AcDbLine
 10
-18.00000024834802
 20
76.32845867262353
 30
0.0
 11
-18.00000024834856
 21
75.32154055564438
 31
0.0
  0
LINE
  5
21A
330
5C
100
AcDbEntity
  8
0
  6
Continuous
 62
     7
100
AcDbLine
 10
-20.84230326632791
 20
82.67690271379188
 30
0.0
 11
-18.75769722710524
 21
82.67690271374671
 31
0.0
  0
LINE
  5
21B
330
5C
100
AcDbEntity
  8
0
  6
Continuous
 62
     7
100
AcDbLine
 10
-21.10000024679045
 20
79.97499961834586
 30
0.0
 11
-21.1000002467851
 21
79.37499961834585
 31
0.0
  0
LINE
  5
21C
330
5C
100
AcDbEntity
  8
0
  6
Continuous
 62
     7
100
AcDbLine
 10
-21.43015017745853
 20
75.32154055837537
 30
0.0
 11
-21.43015017755009
 21
76.32845867527271
 31
0.0
  0
LINE
  5
21D
330
5C
100
AcDbEntity
  8
0
  6
Continuous
 62
     2
100
AcDbLine
 10
-21.43015017745853
 20
75.32154055837537
 30
0.0
 11
-21.50000024834857
 21
75.32154055837262
 31
0.0
  0
LINE
  5
21E
330
5C
100
AcDbEntity
  8
0
  6
Continuous
 62
     2
100
AcDbLine
 10
-21.43015017755009
 20
76.32845867527271
 30
0.0
 11
-21.50000024834802
 21
76.32845867535177
 31
0.0
  0
LINE
  5
21F
330
5C
100
AcDbEntity
  8
0
  6
Continuous
 62
     7
100
AcDbLine
 10
-21.10000024680072
 20
80.97499961799728
 30
0.0
 11
-21.10000024679045
 21
79.97499961834586
 31
0.0
  0
LINE
  5
220
330
5C
100
AcDbEntity
  8
0
  6
Continuous
 62
     7
100
AcDbLine
 10
-20.8000002470484
 20
76.64484417717023
 30
0.0
 11
-20.80000024774977
 21
76.82499962031034
 31
0.0
  0
LINE
  5
221
330
5C
100
AcDbEntity
  8
0
  6
Continuous
 62
     7
100
AcDbLine
 10
-17.93015017755009
 20
76.32845867254447
 30
0.0
 11
-17.93015024676727
 21
77.04405944727353
 31
0.0
  0
LINE
  5
222
330
5C
100
AcDbEntity
  8
0
  6
Continuous
 62
     7
100
AcDbLine
 10
-18.00000024837959
 20
77.09520456587582
 30
0.0
 11
-18.00000024834802
 21
76.32845867262353
 31
0.0
  0
LINE
  5
223
330
5C
100
AcDbEntity
  8
0
  6
Continuous
 62
     2
100
AcDbLine
 10
-17.93015017755009
 20
76.32845867254447
 30
0.0
 11
-18.00000024834802
 21
76.32845867262353
 31
0.0
  0
LINE
  5
224
330
5C
100
AcDbEntity
  8
0
  6
Continuous
 62
     7
100
AcDbLine
 10
-15.30000024684011
 20
76.1249996145314
 30
0.0
 11
-15.30000024683568
 21
76.82499961729052
 31
0.0
  0
LINE
  5
225
330
5C
100
AcDbEntity
  8
0
  6
Continuous
 62
     7
100
AcDbLine
 10
-15.44292882231983
 20
77.17499961747288
 30
0.0
 11
-17.15707167230242
 21
77.17499961749222
 31
0.0
  0
LINE
  5
226
330
5C
100
AcDbEntity
  8
0
  6
Continuous
 62
     7
100
AcDbLine
 10
-17.30000024704841
 20
76.64484417444199
 30
0.0
 11
-17.30000024774977
 21
76.8249996175821
 31
0.0
  0
LINE
  5
227
330
5C
100
AcDbEntity
  8
0
  6
Continuous
 62
     7
100
AcDbLine
 10
-18.00000024665624
 20
77.22499961274724
 30
0.0
 11
-18.00000024837959
 21
77.09520456587582
 31
0.0
  0
LINE
  5
228
330
5C
100
AcDbEntity
  8
0
  6
Continuous
 62
     2
100
AcDbLine
 10
-17.8959595409166
 20
77.09520456588008
 30
0.0
 11
-18.00000024837959
 21
77.09520456587582
 31
0.0
  0
LINE
  5
229
330
5C
100
AcDbEntity
  8
0
  6
Continuous
 62
     2
100
AcDbLine
 10
-21.3959595409166
 20
77.09520456860832
 30
0.0
 11
-21.50000024837959
 21
77.09520456860406
 31
0.0
  0
LINE
  5
22A
330
5C
100
AcDbEntity
  8
0
  6
Continuous
 62
     7
100
AcDbLine
 10
-18.94292882231982
 20
77.17499962020112
 30
0.0
 11
-20.65707167230242
 21
77.17499962022045
 31
0.0
  0
LINE
  5
22B
330
5C
100
AcDbEntity
  8
0
  6
Continuous
 62
     2
100
AcDbLine
 10
-17.93015017745853
 20
75.32154055564713
 30
0.0
 11
-18.00000024834856
 21
75.32154055564438
 31
0.0
  0
LINE
  5
22C
330
5C
100
AcDbEntity
  8
0
  6
Continuous
 62
     2
100
AcDbLine
 10
-15.30000024684011
 20
76.1249996145314
 30
0.0
 11
-14.80000024685383
 21
76.1249996129812
 31
0.0
  0
LINE
  5
22D
330
5C
100
AcDbEntity
  8
0
  6
Continuous
 62
     7
100
AcDbLine
 10
-21.50000024837959
 20
77.09520456860406
 30
0.0
 11
-21.50000024834802
 21
76.32845867535177
 31
0.0
  0
LINE
  5
22E
330
5C
100
AcDbEntity
  8
0
  6
Continuous
 62
     7
100
AcDbLine
 10
-21.50000024665624
 20
77.22499961547547
 30
0.0
 11
-21.50000024837959
 21
77.09520456860406
 31
0.0
  0
LINE
  5
22F
330
5C
100
AcDbEntity
  8
0
  6
Continuous
 62
     7
100
AcDbLine
 10
-21.50000024834802
 20
76.32845867535177
 30
0.0
 11
-21.50000024834857
 21
75.32154055837262
 31
0.0
  0
LINE
  5
230
330
5C
100
AcDbEntity
  8
0
  6
Continuous
 62
     7
100
AcDbLine
 10
-21.43015017755009
 20
76.32845867527271
 30
0.0
 11
-21.4301502037864
 21
77.04405957408949
 31
0.0
  0
LINE
  5
231
330
5C
100
AcDbEntity
  8
0
  6
Continuous
 62
     7
100
AcDbLine
 10
-21.1000002467851
 20
79.37499961834585
 30
0.0
 11
-20.48738660518125
 21
79.37499961827325
 31
0.0
  0
LINE
  5
232
330
5C
100
AcDbEntity
  8
0
  6
Continuous
 62
     7
100
AcDbLine
 10
-20.48738660187631
 20
79.97499961827324
 30
0.0
 11
-21.10000024679045
 21
79.97499961834586
 31
0.0
  0
LINE
  5
233
330
5C
100
AcDbEntity
  8
0
  6
Continuous
 62
     7
100
AcDbLine
 10
-14.50000024834801
 20
87.04999939948483
 30
0.0
 11
-14.50000024834801
 21
86.03996757895837
 31
0.0
  0
LINE
  5
234
330
5C
100
AcDbEntity
  8
0
  6
Continuous
 62
     7
100
AcDbLine
 10
-17.34230326632791
 20
82.67690271106363
 30
0.0
 11
-15.25769722710524
 21
82.67690271101849
 31
0.0
  0
LINE
  5
235
330
5C
100
AcDbEntity
  8
0
  6
Continuous
 62
     7
100
AcDbLine
 10
-14.50000024834801
 20
87.04999939948483
 30
0.0
 11
-32.00000024752275
 21
87.04999957286176
 31
0.0
  0
LINE
  5
236
330
5C
100
AcDbEntity
  8
0
  6
Continuous
 62
     7
100
AcDbLine
 10
-25.80000024848473
 20
74.92499962487365
 30
0.0
 11
-25.80000024853189
 21
76.12499962544436
 31
0.0
  0
LINE
  5
237
330
5C
100
AcDbEntity
  8
0
  6
Continuous
 62
     7
100
AcDbLine
 10
-27.80000024947381
 20
74.92499962491698
 30
0.0
 11
-27.80000024874018
 21
76.64484418535494
 31
0.0
  0
LINE
  5
238
330
5C
100
AcDbEntity
  8
0
  6
Continuous
 62
     7
100
AcDbLine
 10
-24.30000024778203
 20
74.9249996194605
 30
0.0
 11
-24.30000024704841
 21
76.64484417989846
 31
0.0
  0
LINE
  5
239
330
5C
100
AcDbEntity
  8
0
  6
Continuous
 62
     7
100
AcDbLine
 10
-24.93015017755009
 20
76.32845867800094
 30
0.0
 11
-24.9301502037864
 21
77.04405957681773
 31
0.0
  0
LINE
  5
23A
330
5C
100
AcDbEntity
  8
0
  6
Continuous
 62
     2
100
AcDbLine
 10
-24.8959595409166
 20
77.09520457133657
 30
0.0
 11
-25.00000025007137
 21
77.0952045713323
 31
0.0
  0
LINE
  5
23B
330
5C
100
AcDbEntity
  8
0
  6
Continuous
 62
     7
100
AcDbLine
 10
-24.93015017745853
 20
75.3215405611036
 30
0.0
 11
-24.93015017755009
 21
76.32845867800094
 31
0.0
  0
LINE
  5
23C
330
5C
100
AcDbEntity
  8
0
  6
Continuous
 62
     2
100
AcDbLine
 10
-24.93015017755009
 20
76.32845867800094
 30
0.0
 11
-25.0000002500398
 21
76.32845867808
 31
0.0
  0
LINE
  5
23D
330
5C
100
AcDbEntity
  8
0
  6
Continuous
 62
     7
100
AcDbLine
 10
-24.79614838631397
 20
77.22499961821207
 30
0.0
 11
-25.0000002500398
 21
77.22499961820371
 31
0.0
  0
LINE
  5
23E
330
5C
100
AcDbEntity
  8
0
  6
Continuous
 62
     2
100
AcDbLine
 10
-25.80000024853189
 20
76.12499962544436
 30
0.0
 11
-25.30000024854561
 21
76.12499962389415
 31
0.0
  0
LINE
  5
23F
330
5C
100
AcDbEntity
  8
0
  6
Continuous
 62
     7
100
AcDbLine
 10
-25.30000024852121
 20
75.52499962457648
 30
0.0
 11
-25.30000024854561
 21
76.12499962389415
 31
0.0
  0
LINE
  5
240
330
5C
100
AcDbEntity
  8
0
  6
Continuous
 62
     7
100
AcDbLine
 10
-25.0000002500398
 20
77.22499961820371
 30
0.0
 11
-25.00000025007137
 21
77.0952045713323
 31
0.0
  0
LINE
  5
241
330
5C
100
AcDbEntity
  8
0
  6
Continuous
 62
     7
100
AcDbLine
 10
-25.00000025007137
 20
77.0952045713323
 30
0.0
 11
-25.0000002500398
 21
76.32845867808
 31
0.0
  0
LINE
  5
242
330
5C
100
AcDbEntity
  8
0
  6
Continuous
 62
     7
100
AcDbLine
 10
-25.0000002500398
 20
76.32845867808
 30
0.0
 11
-25.00000025004034
 21
75.32154056110086
 31
0.0
  0
LINE
  5
243
330
5C
100
AcDbEntity
  8
0
  6
Continuous
 62
     7
100
AcDbLine
 10
-27.80000024874018
 20
76.64484418535494
 30
0.0
 11
-27.80000024944155
 21
76.82499962849505
 31
0.0
  0
LINE
  5
244
330
5C
100
AcDbEntity
  8
0
  6
Continuous
 62
     7
100
AcDbLine
 10
-28.50000024834802
 20
77.2249996236602
 30
0.0
 11
-28.50000024837959
 21
77.09520457678877
 31
0.0
  0
LINE
  5
245
330
5C
100
AcDbEntity
  8
0
  6
Continuous
 62
     2
100
AcDbLine
 10
-28.39595954260839
 20
77.09520457679304
 30
0.0
 11
-28.50000024837959
 21
77.09520457678877
 31
0.0
  0
LINE
  5
246
330
5C
100
AcDbEntity
  8
0
  6
Continuous
 62
     7
100
AcDbLine
 10
-29.44292882231982
 20
77.17499962838583
 30
0.0
 11
-31.15707167230242
 21
77.17499962840517
 31
0.0
  0
LINE
  5
247
330
5C
100
AcDbEntity
  8
0
  6
Continuous
 62
     7
100
AcDbLine
 10
-31.30000024704841
 20
76.64484418535494
 30
0.0
 11
-31.30000024774977
 21
76.82499962849505
 31
0.0
  0
LINE
  5
248
330
5C
100
AcDbEntity
  8
0
  6
Continuous
 62
     7
100
AcDbLine
 10
-31.79614838631397
 20
77.22499962366855
 30
0.0
 11
-32.00000024700989
 21
77.2249996236602
 31
0.0
  0
LINE
  5
249
330
5C
100
AcDbEntity
  8
0
  6
Continuous
 62
     7
100
AcDbLine
 10
-28.29614838800575
 20
77.22499962366855
 30
0.0
 11
-28.50000024834802
 21
77.2249996236602
 31
0.0
  0
LINE
  5
24A
330
5C
100
AcDbEntity
  8
0
  6
Continuous
 62
     7
100
AcDbLine
 10
-25.9429288240116
 20
77.17499962838583
 30
0.0
 11
-27.6570716739942
 21
77.17499962840517
 31
0.0
  0
LINE
  5
24B
330
5C
100
AcDbEntity
  8
0
  6
Continuous
 62
     7
100
AcDbLine
 10
-31.93015017755009
 20
76.32845868345743
 30
0.0
 11
-31.93015022773478
 21
77.0440594879339
 31
0.0
  0
LINE
  5
24C
330
5C
100
AcDbEntity
  8
0
  6
Continuous
 62
     7
100
AcDbLine
 10
-32.00000024699467
 20
77.09520457678877
 30
0.0
 11
-32.00000024696309
 21
76.32845868353648
 31
0.0
  0
LINE
  5
24D
330
5C
100
AcDbEntity
  8
0
  6
Continuous
 62
     2
100
AcDbLine
 10
-31.93015017755009
 20
76.32845868345743
 30
0.0
 11
-32.00000024696309
 21
76.32845868353648
 31
0.0
  0
LINE
  5
24E
330
5C
100
AcDbEntity
  8
0
  6
Continuous
 62
     7
100
AcDbLine
 10
-31.60000024679045
 20
79.97499962653059
 30
0.0
 11
-31.6000002467851
 21
79.37499962653058
 31
0.0
  0
LINE
  5
24F
330
5C
100
AcDbEntity
  8
0
  6
Continuous
 62
     7
100
AcDbLine
 10
-31.6000002467851
 20
79.37499962653058
 30
0.0
 11
-31.60000024677751
 21
78.37499962369372
 31
0.0
  0
LINE
  5
250
330
5C
100
AcDbEntity
  8
0
  6
Continuous
 62
     7
100
AcDbLine
 10
-32.00000024747003
 20
86.03996758820523
 30
0.0
 11
-32.00000024752275
 21
87.04999957286176
 31
0.0
  0
LINE
  5
251
330
5C
100
AcDbEntity
  8
0
  6
Continuous
 62
     7
100
AcDbLine
 10
-31.60000024680072
 20
80.97499962618201
 30
0.0
 11
-31.60000024679045
 21
79.97499962653059
 31
0.0
  0
LINE
  5
252
330
5C
100
AcDbEntity
  8
0
  6
Continuous
 62
     7
100
AcDbLine
 10
-32.00000024696309
 20
76.32845868353648
 30
0.0
 11
-32.00000024691108
 21
75.32154056655733
 31
0.0
  0
LINE
  5
253
330
5C
100
AcDbEntity
  8
0
  6
Continuous
 62
     7
100
AcDbLine
 10
-28.1000002484925
 20
80.97499962618201
 30
0.0
 11
-28.10000024848223
 21
79.97499962653059
 31
0.0
  0
LINE
  5
254
330
5C
100
AcDbEntity
  8
0
  6
Continuous
 62
     7
100
AcDbLine
 10
-27.48738660356809
 20
79.97499962645796
 30
0.0
 11
-28.10000024848223
 21
79.97499962653059
 31
0.0
  0
LINE
  5
255
330
5C
100
AcDbEntity
  8
0
  6
Continuous
 62
     7
100
AcDbLine
 10
-29.00000024700384
 20
79.97499962622238
 30
0.0
 11
-29.61261389662338
 21
79.974999626295
 31
0.0
  0
LINE
  5
256
330
5C
100
AcDbEntity
  8
0
  6
Continuous
 62
     7
100
AcDbLine
 10
-30.98738660187631
 20
79.97499962645796
 30
0.0
 11
-31.60000024679045
 21
79.97499962653059
 31
0.0
  0
LINE
  5
257
330
5C
100
AcDbEntity
  8
0
  6
Continuous
 62
     7
100
AcDbLine
 10
-30.05000024998444
 20
80.8749996253093
 30
0.0
 11
-30.55000024599103
 21
80.87499962528791
 31
0.0
  0
LINE
  5
258
330
5C
100
AcDbEntity
  8
0
  6
Continuous
 62
     7
100
AcDbLine
 10
-30.65000024699377
 20
80.9749996262144
 30
0.0
 11
-31.60000024680072
 21
80.97499962618201
 31
0.0
  0
LINE
  5
259
330
5C
100
AcDbEntity
  8
0
  6
Continuous
 62
     7
100
AcDbLine
 10
-27.15000024868555
 20
80.9749996262144
 30
0.0
 11
-28.1000002484925
 21
80.97499962618201
 31
0.0
  0
LINE
  5
25A
330
5C
100
AcDbEntity
  8
0
  6
Continuous
 62
     7
100
AcDbLine
 10
-25.50000024873793
 20
80.97499962627066
 30
0.0
 11
-26.45000025068288
 21
80.97499962623826
 31
0.0
  0
LINE
  5
25B
330
5C
100
AcDbEntity
  8
0
  6
Continuous
 62
     7
100
AcDbLine
 10
-29.00000024704615
 20
80.97499962627066
 30
0.0
 11
-29.9500002489911
 21
80.97499962623826
 31
0.0
  0
LINE
  5
25C
330
5C
100
AcDbEntity
  8
0
  6
Continuous
 62
     7
100
AcDbLine
 10
-29.9500002489911
 20
80.97499962623826
 30
0.0
 11
-30.05000024998444
 21
80.8749996253093
 31
0.0
  0
LINE
  5
25D
330
5C
100
AcDbEntity
  8
0
  6
Continuous
 62
     7
100
AcDbLine
 10
-30.55000024599103
 20
80.87499962528791
 30
0.0
 11
-30.65000024699377
 21
80.9749996262144
 31
0.0
  0
LINE
  5
25E
330
5C
100
AcDbEntity
  8
0
  6
Continuous
 62
     7
100
AcDbLine
 10
-25.50000024867104
 20
79.3749996262224
 30
0.0
 11
-25.50000024869562
 21
79.97499962622238
 31
0.0
  0
LINE
  5
25F
330
5C
100
AcDbEntity
  8
0
  6
Continuous
 62
     7
100
AcDbLine
 10
-25.50000024869562
 20
79.97499962622238
 30
0.0
 11
-26.11261389831516
 21
79.974999626295
 31
0.0
  0
LINE
  5
260
330
5C
100
AcDbEntity
  8
0
  6
Continuous
 62
     7
100
AcDbLine
 10
-25.5000002486314
 20
78.37499962366441
 30
0.0
 11
-25.50000024867104
 21
79.3749996262224
 31
0.0
  0
LINE
  5
261
330
5C
100
AcDbEntity
  8
0
  6
Continuous
 62
     7
100
AcDbLine
 10
-26.11261389515245
 20
79.37499962629502
 30
0.0
 11
-25.50000024867104
 21
79.3749996262224
 31
0.0
  0
LINE
  5
262
330
5C
100
AcDbEntity
  8
0
  6
Continuous
 62
     7
100
AcDbLine
 10
-26.55000025167622
 20
80.8749996253093
 30
0.0
 11
-27.05000024768281
 21
80.87499962528791
 31
0.0
  0
LINE
  5
263
330
5C
100
AcDbEntity
  8
0
  6
Continuous
 62
     7
100
AcDbLine
 10
-26.45000025068288
 20
80.97499962623826
 30
0.0
 11
-26.55000025167622
 21
80.8749996253093
 31
0.0
  0
LINE
  5
264
330
5C
100
AcDbEntity
  8
0
  6
Continuous
 62
     7
100
AcDbLine
 10
-25.50000024869562
 20
79.97499962622238
 30
0.0
 11
-25.50000024873793
 21
80.97499962627066
 31
0.0
  0
LINE
  5
265
330
5C
100
AcDbEntity
  8
0
  6
Continuous
 62
     7
100
AcDbLine
 10
-28.43015017924187
 20
76.32845868345743
 30
0.0
 11
-28.43015020547819
 21
77.0440595822742
 31
0.0
  0
LINE
  5
266
330
5C
100
AcDbEntity
  8
0
  6
Continuous
 62
     2
100
AcDbLine
 10
-28.43015017924187
 20
76.32845868345743
 30
0.0
 11
-28.50000024834802
 21
76.32845868353648
 31
0.0
  0
LINE
  5
267
330
5C
100
AcDbEntity
  8
0
  6
Continuous
 62
     7
100
AcDbLine
 10
-29.30000024684011
 20
76.12499962544436
 30
0.0
 11
-29.30000024683568
 21
76.82499962820347
 31
0.0
  0
LINE
  5
268
330
5C
100
AcDbEntity
  8
0
  6
Continuous
 62
     2
100
AcDbLine
 10
-29.30000024684011
 20
76.12499962544436
 30
0.0
 11
-28.80000024662228
 21
76.12499962389415
 31
0.0
  0
LINE
  5
269
330
5C
100
AcDbEntity
  8
0
  6
Continuous
 62
     7
100
AcDbLine
 10
-28.80000024682943
 20
75.52499962457648
 30
0.0
 11
-28.80000024662228
 21
76.12499962389415
 31
0.0
  0
LINE
  5
26A
330
5C
100
AcDbEntity
  8
0
  6
Continuous
 62
     7
100
AcDbLine
 10
-28.50000024837959
 20
77.09520457678877
 30
0.0
 11
-28.50000024834802
 21
76.32845868353648
 31
0.0
  0
LINE
  5
26B
330
5C
100
AcDbEntity
  8
0
  6
Continuous
 62
     7
100
AcDbLine
 10
-28.50000024834802
 20
76.32845868353648
 30
0.0
 11
-28.50000024834857
 21
75.32154056655733
 31
0.0
  0
LINE
  5
26C
330
5C
100
AcDbEntity
  8
0
  6
Continuous
 62
     7
100
AcDbLine
 10
-28.43015017915031
 20
75.32154056656009
 30
0.0
 11
-28.43015017924187
 21
76.32845868345743
 31
0.0
  0
LINE
  5
26D
330
5C
100
AcDbEntity
  8
0
  6
Continuous
 62
     7
100
AcDbLine
 10
-31.34230326632791
 20
82.67690272197659
 30
0.0
 11
-29.25769722710524
 21
82.67690272193144
 31
0.0
  0
LINE
  5
26E
330
5C
100
AcDbEntity
  8
0
  6
Continuous
 62
     7
100
AcDbLine
 10
-28.10000024846929
 20
78.37499962369372
 30
0.0
 11
-25.5000002486314
 21
78.37499962366441
 31
0.0
  0
LINE
  5
26F
330
5C
100
AcDbEntity
  8
0
  6
Continuous
 62
     7
100
AcDbLine
 10
-31.60000024677751
 20
78.37499962369372
 30
0.0
 11
-29.00000024693961
 21
78.37499962366441
 31
0.0
  0
LINE
  5
270
330
5C
100
AcDbEntity
  8
0
  6
Continuous
 62
     7
100
AcDbLine
 10
-31.6000002467851
 20
79.37499962653058
 30
0.0
 11
-30.98738660518125
 21
79.37499962645796
 31
0.0
  0
LINE
  5
271
330
5C
100
AcDbEntity
  8
0
  6
Continuous
 62
     7
100
AcDbLine
 10
-25.80000024853189
 20
76.12499962544436
 30
0.0
 11
-25.80000024852746
 21
76.82499962820347
 31
0.0
  0
LINE
  5
272
330
5C
100
AcDbEntity
  8
0
  6
Continuous
 62
     7
100
AcDbLine
 10
-27.84230326801969
 20
82.67690272197659
 30
0.0
 11
-25.75769722879702
 21
82.67690272193144
 31
0.0
  0
LINE
  5
273
330
5C
100
AcDbEntity
  8
0
  6
Continuous
 62
     7
100
AcDbLine
 10
-27.05000024768281
 20
80.87499962528791
 30
0.0
 11
-27.15000024868555
 21
80.9749996262144
 31
0.0
  0
LINE
  5
274
330
5C
100
AcDbEntity
  8
0
  6
Continuous
 62
     7
100
AcDbLine
 10
-28.10000024847687
 20
79.37499962653058
 30
0.0
 11
-27.48738660687303
 21
79.37499962645796
 31
0.0
  0
LINE
  5
275
330
5C
100
AcDbEntity
  8
0
  6
Continuous
 62
     7
100
AcDbLine
 10
-29.61261389346067
 20
79.37499962629502
 30
0.0
 11
-29.00000024697926
 21
79.3749996262224
 31
0.0
  0
LINE
  5
276
330
5C
100
AcDbEntity
  8
0
  6
Continuous
 62
     7
100
AcDbLine
 10
-29.00000024697926
 20
79.3749996262224
 30
0.0
 11
-29.00000024700384
 21
79.97499962622238
 31
0.0
  0
LINE
  5
277
330
5C
100
AcDbEntity
  8
0
  6
Continuous
 62
     7
100
AcDbLine
 10
-28.10000024847687
 20
79.37499962653058
 30
0.0
 11
-28.10000024846929
 21
78.37499962369372
 31
0.0
  0
LINE
  5
278
330
5C
100
AcDbEntity
  8
0
  6
Continuous
 62
     7
100
AcDbLine
 10
-29.00000024700384
 20
79.97499962622238
 30
0.0
 11
-29.00000024704615
 21
80.97499962627066
 31
0.0
  0
LINE
  5
279
330
5C
100
AcDbEntity
  8
0
  6
Continuous
 62
     7
100
AcDbLine
 10
-29.00000024693961
 20
78.37499962366441
 30
0.0
 11
-29.00000024697926
 21
79.3749996262224
 31
0.0
  0
LINE
  5
27A
330
5C
100
AcDbEntity
  8
0
  6
Continuous
 62
     7
100
AcDbLine
 10
-28.10000024848223
 20
79.97499962653059
 30
0.0
 11
-28.10000024847687
 21
79.37499962653058
 31
0.0
  0
LINE
  5
27B
330
5C
100
AcDbEntity
  8
1
  6
DOT_CENTER
 62
     2
100
AcDbLine
 10
-15.14500024672072
 20
82.5499995381119
 30
0.0
 11
-17.45500024679698
 21
82.5499995381119
 31
0.0
  0
LINE
  5
27C
330
5C
100
AcDbEntity
  8
1
  6
DOT_CENTER
 62
     2
100
AcDbLine
 10
-16.30000024675885
 20
83.70499953815005
 30
0.0
 11
-16.30000024675885
 21
81.39499953807376
 31
0.0
  0
LINE
  5
27D
330
5C
100
AcDbEntity
  8
1
  6
DOT_CENTER
 62
     2
100
AcDbLine
 10
-18.64500024672072
 20
82.54999954084015
 30
0.0
 11
-20.95500024679698
 21
82.54999954084015
 31
0.0
  0
LINE
  5
27E
330
5C
100
AcDbEntity
  8
1
  6
DOT_CENTER
 62
     2
100
AcDbLine
 10
-19.80000024675885
 20
83.70499954087828
 30
0.0
 11
-19.80000024675885
 21
81.39499954080202
 31
0.0
  0
LINE
  5
27F
330
5C
100
AcDbEntity
  8
1
  6
DOT_CENTER
 62
     2
100
AcDbLine
 10
-22.14500024672072
 20
82.54999954356838
 30
0.0
 11
-24.45500024679698
 21
82.54999954356838
 31
0.0
  0
LINE
  5
280
330
5C
100
AcDbEntity
  8
1
  6
DOT_CENTER
 62
     2
100
AcDbLine
 10
-23.30000024675885
 20
83.70499954360652
 30
0.0
 11
-23.30000024675885
 21
81.39499954353023
 31
0.0
  0
LINE
  5
281
330
5C
100
AcDbEntity
  8
1
  6
DOT_CENTER
 62
     2
100
AcDbLine
 10
-25.6450002484125
 20
82.54999954902486
 30
0.0
 11
-27.95500024848876
 21
82.54999954902486
 31
0.0
  0
LINE
  5
282
330
5C
100
AcDbEntity
  8
1
  6
DOT_CENTER
 62
     2
100
AcDbLine
 10
-26.80000024845063
 20
83.70499954906299
 30
0.0
 11
-26.80000024845063
 21
81.39499954898673
 31
0.0
  0
LINE
  5
283
330
5C
100
AcDbEntity
  8
1
  6
DOT_CENTER
 62
     2
100
AcDbLine
 10
-29.14500024672072
 20
82.54999954902486
 30
0.0
 11
-31.45500024679698
 21
82.54999954902486
 31
0.0
  0
LINE
  5
284
330
5C
100
AcDbEntity
  8
1
  6
DOT_CENTER
 62
     2
100
AcDbLine
 10
-30.30000024675885
 20
83.70499954906299
 30
0.0
 11
-30.30000024675885
 21
81.39499954898673
 31
0.0
  0
ARC
  5
285
330
5C
100
AcDbEntity
  8
0
  6
Continuous
 62
     7
100
AcDbCircle
 10
-27.00000024778906
 20
75.52499962471627
 30
0.0
 40
1.699999999267852
100
AcDbArc
 50
314.9008721487361
 51
359.9999999952885
  0
ARC
  5
286
330
5C
100
AcDbEntity
  8
0
  6
Continuous
 62
     7
100
AcDbCircle
 10
-16.50000025138192
 20
75.52499961751872
 30
0.0
 40
1.699999999381024
100
AcDbArc
 50
220.3202152976938
 51
230.771602141822
  0
ARC
  5
287
330
5C
100
AcDbEntity
  8
0
  6
Continuous
 62
     7
100
AcDbCircle
 10
-30.50000024609728
 20
75.52499962471627
 30
0.0
 40
1.699999999267849
100
AcDbArc
 50
314.900872148736
 51
359.9999999952885
  0
ARC
  5
288
330
5C
100
AcDbEntity
  8
0
  6
Continuous
 62
     7
100
AcDbCircle
 10
-20.00000025138192
 20
75.52499962024694
 30
0.0
 40
1.699999999381015
100
AcDbArc
 50
220.3202152976935
 51
230.771602141822
  0
ARC
  5
289
330
5C
100
AcDbEntity
  8
0
  6
Continuous
 62
     7
100
AcDbCircle
 10
-23.50000025138192
 20
75.52499962297519
 30
0.0
 40
1.699999999381024
100
AcDbArc
 50
220.3202152976938
 51
230.771602141822
  0
ARC
  5
28A
330
5C
100
AcDbEntity
  8
0
  6
Continuous
 62
     7
100
AcDbCircle
 10
-30.50000024214686
 20
75.52499961797122
 30
0.0
 40
1.699999999653675
100
AcDbArc
 50
214.7996667323372
 51
220.3202148274945
  0
ARC
  5
28B
330
5C
100
AcDbEntity
  8
0
  6
Continuous
 62
     7
100
AcDbCircle
 10
-27.00000025307369
 20
75.52499962843167
 30
0.0
 40
1.699999999381033
100
AcDbArc
 50
220.3202152976936
 51
230.771602141822
  0
ARC
  5
28C
330
5C
100
AcDbEntity
  8
0
  6
Continuous
 62
     7
100
AcDbCircle
 10
-23.50000024214678
 20
75.52499961251463
 30
0.0
 40
1.699999999653668
100
AcDbArc
 50
214.7996667323327
 51
220.3202148274902
  0
ARC
  5
28D
330
5C
100
AcDbEntity
  8
0
  6
Continuous
 62
     7
100
AcDbCircle
 10
-27.00000024383864
 20
75.5249996179712
 30
0.0
 40
1.699999999653664
100
AcDbArc
 50
214.7996667323368
 51
220.3202148274941
  0
ARC
  5
28E
330
5C
100
AcDbEntity
  8
0
  6
Continuous
 62
     7
100
AcDbCircle
 10
-30.50000025138192
 20
75.52499962843167
 30
0.0
 40
1.699999999381024
100
AcDbArc
 50
220.3202152976938
 51
230.7716021418223
  0
ARC
  5
28F
330
5C
100
AcDbEntity
  8
0
  6
Continuous
 62
     7
100
AcDbCircle
 10
-23.50000024594798
 20
75.52499961961935
 30
0.0
 40
1.699999999417146
100
AcDbArc
 50
314.9008721366174
 51
359.99999998317
  0
ARC
  5
290
330
5C
100
AcDbEntity
  8
0
  6
Continuous
 62
     7
100
AcDbCircle
 10
-30.50000024647697
 20
75.52499962367482
 30
0.0
 40
1.699999998798178
100
AcDbArc
 50
230.7716019123754
 51
314.9008721825773
  0
ARC
  5
291
330
5C
100
AcDbEntity
  8
0
  6
Continuous
 62
     7
100
AcDbCircle
 10
-23.50000024647697
 20
75.52499961821835
 30
0.0
 40
1.699999998798178
100
AcDbArc
 50
230.7716019123754
 51
314.9008721825768
  0
ARC
  5
292
330
5C
100
AcDbEntity
  8
0
  6
Continuous
 62
     7
100
AcDbCircle
 10
-27.00000024816875
 20
75.52499962367482
 30
0.0
 40
1.699999998798178
100
AcDbArc
 50
230.7716019123754
 51
314.9008721825774
  0
ARC
  5
293
330
5C
100
AcDbEntity
  8
0
  6
Continuous
 62
     7
100
AcDbCircle
 10
-23.3000002492854
 20
79.67499961721519
 30
0.0
 40
0.7499999999999992
100
AcDbArc
 50
23.57817878021835
 51
156.421821206199
  0
ARC
  5
294
330
5C
100
AcDbEntity
  8
0
  6
Continuous
 62
     7
100
AcDbCircle
 10
-23.80000025074467
 20
76.82499962242218
 30
0.0
 40
0.5000000004618244
100
AcDbArc
 50
89.99999967612528
 51
135.5729959665842
  0
ARC
  5
295
330
5C
100
AcDbEntity
  8
0
  6
Continuous
 62
     7
100
AcDbCircle
 10
-23.80000024689043
 20
76.82499962578642
 30
0.0
 40
0.5000000008593387
100
AcDbArc
 50
135.5729965510598
 51
180.0000003148792
  0
ARC
  5
296
330
5C
100
AcDbEntity
  8
0
  6
Continuous
 62
     7
100
AcDbCircle
 10
-23.3000002492854
 20
79.67499961721519
 30
0.0
 40
0.749999999999997
100
AcDbArc
 50
203.5781781626021
 51
336.4218218238151
  0
ARC
  5
297
330
5C
100
AcDbEntity
  8
0
  6
Continuous
 62
     7
100
AcDbCircle
 10
-20.00000024591786
 20
76.12499961741442
 30
0.0
 40
1.699999999295581
100
AcDbArc
 50
359.9999999425365
 51
139.6797849952222
  0
ARC
  5
298
330
5C
100
AcDbEntity
  8
0
  6
Continuous
 62
     7
100
AcDbCircle
 10
-22.80000024771159
 20
76.82499962572278
 30
0.0
 40
0.5000000008759109
100
AcDbArc
 50
359.9999996590006
 51
44.42700345418803
  0
ARC
  5
299
330
5C
100
AcDbEntity
  8
0
  6
Continuous
 62
     7
100
AcDbCircle
 10
-22.80000024372258
 20
76.8249996223453
 30
0.0
 40
0.5000000003914279
100
AcDbArc
 50
44.42700405055816
 51
90.00000034407027
  0
ARC
  5
29A
330
5C
100
AcDbEntity
  8
0
  6
Continuous
 62
     7
100
AcDbCircle
 10
-19.80000024675885
 20
82.54999954084015
 30
0.0
 40
1.050000000034665
100
AcDbArc
 50
197.7527901060126
 51
6.94174771280553
  0
ARC
  5
29B
330
5C
100
AcDbEntity
  8
0
  6
Continuous
 62
     7
100
AcDbCircle
 10
-23.30000024677597
 20
82.54999954338246
 30
0.0
 40
1.049999999961667
100
AcDbArc
 50
173.0582522740061
 51
197.7527900966346
  0
ARC
  5
29C
330
5C
100
AcDbEntity
  8
0
  6
Continuous
 62
     7
100
AcDbCircle
 10
-23.30000024671932
 20
82.54999954356094
 30
0.0
 40
1.049999999996322
100
AcDbArc
 50
6.94174771346957
 51
173.0582522840479
  0
ARC
  5
29D
330
5C
100
AcDbEntity
  8
0
  6
Continuous
 62
     7
100
AcDbCircle
 10
-23.30000024675885
 20
82.54999954356838
 30
0.0
 40
1.050000000034661
100
AcDbArc
 50
197.7527901060118
 51
6.9417477128063
  0
ARC
  5
29E
330
5C
100
AcDbEntity
  8
0
  6
Continuous
 62
     7
100
AcDbCircle
 10
-16.30000024675885
 20
82.5499995381119
 30
0.0
 40
1.050000000034661
100
AcDbArc
 50
197.7527901060118
 51
6.9417477128063
  0
ARC
  5
29F
330
5C
100
AcDbEntity
  8
0
  6
Continuous
 62
     7
100
AcDbCircle
 10
-16.50000024603364
 20
76.12499961472868
 30
0.0
 40
1.699999999179809
100
AcDbArc
 50
359.999999941104
 51
139.6797849937891
  0
ARC
  5
2A0
330
5C
100
AcDbEntity
  8
0
  6
Continuous
 62
     7
100
AcDbCircle
 10
-23.50000024603364
 20
76.12499962018516
 30
0.0
 40
1.699999999179809
100
AcDbArc
 50
359.999999941104
 51
139.6797849937895
  0
ARC
  5
2A1
330
5C
100
AcDbEntity
  8
0
  6
Continuous
 62
     7
100
AcDbCircle
 10
-30.5000002510357
 20
76.12499961794123
 30
0.0
 40
1.700000000348661
100
AcDbArc
 50
139.6797846868278
 51
145.2003327203459
  0
ARC
  5
2A2
330
5C
100
AcDbEntity
  8
0
  6
Continuous
 62
     7
100
AcDbCircle
 10
-16.50000024214678
 20
75.52499960705816
 30
0.0
 40
1.699999999653676
100
AcDbArc
 50
214.7996667323331
 51
220.3202148274902
  0
ARC
  5
2A3
330
5C
100
AcDbEntity
  8
0
  6
Continuous
 62
     7
100
AcDbCircle
 10
-20.00000024214685
 20
75.52499960978648
 30
0.0
 40
1.699999999653667
100
AcDbArc
 50
214.7996667323362
 51
220.3202148274935
  0
ARC
  5
2A4
330
5C
100
AcDbEntity
  8
0
  6
Continuous
 62
     7
100
AcDbCircle
 10
-20.00000024609728
 20
75.52499961653156
 30
0.0
 40
1.699999999267855
100
AcDbArc
 50
314.9008721487355
 51
359.9999999952885
  0
ARC
  5
2A5
330
5C
100
AcDbEntity
  8
0
  6
Continuous
 62
     7
100
AcDbCircle
 10
-16.50000024609728
 20
75.52499961380332
 30
0.0
 40
1.699999999267843
100
AcDbArc
 50
314.9008721487358
 51
359.9999999952885
  0
ARC
  5
2A6
330
5C
100
AcDbEntity
  8
0
  6
Continuous
 62
     7
100
AcDbCircle
 10
-20.00000024647697
 20
75.5249996154901
 30
0.0
 40
1.699999998798178
100
AcDbArc
 50
230.7716019123754
 51
314.9008721825768
  0
ARC
  5
2A7
330
5C
100
AcDbEntity
  8
0
  6
Continuous
 62
     7
100
AcDbCircle
 10
-16.50000024647697
 20
75.52499961276186
 30
0.0
 40
1.699999998798167
100
AcDbArc
 50
230.771601912375
 51
314.9008721825771
  0
ARC
  5
2A8
330
5C
100
AcDbEntity
  8
0
  6
Continuous
 62
     7
100
AcDbCircle
 10
-19.30000024771159
 20
76.82499962299455
 30
0.0
 40
0.5000000008759109
100
AcDbArc
 50
359.9999996589989
 51
44.42700345418687
  0
ARC
  5
2A9
330
5C
100
AcDbEntity
  8
0
  6
Continuous
 62
     7
100
AcDbCircle
 10
-16.3000002492854
 20
79.67499961175872
 30
0.0
 40
0.7500000000000028
100
AcDbArc
 50
203.5781781626031
 51
336.421821823815
  0
ARC
  5
2AA
330
5C
100
AcDbEntity
  8
0
  6
Continuous
 62
     7
100
AcDbCircle
 10
-16.3000002492854
 20
79.67499961175872
 30
0.0
 40
0.7499999999999937
100
AcDbArc
 50
23.57817878021736
 51
156.4218212062
  0
ARC
  5
2AB
330
5C
100
AcDbEntity
  8
0
  6
Continuous
 62
     7
100
AcDbCircle
 10
-16.30000024677597
 20
82.54999953792598
 30
0.0
 40
1.049999999961666
100
AcDbArc
 50
173.0582522740068
 51
197.7527900966346
  0
ARC
  5
2AC
330
5C
100
AcDbEntity
  8
0
  6
Continuous
 62
     7
100
AcDbCircle
 10
-19.30000024372258
 20
76.82499961961707
 30
0.0
 40
0.500000000391418
100
AcDbArc
 50
44.427004050557
 51
90.00000034407027
  0
ARC
  5
2AD
330
5C
100
AcDbEntity
  8
0
  6
Continuous
 62
     7
100
AcDbCircle
 10
-19.8000002492854
 20
79.67499961448695
 30
0.0
 40
0.7499999999999992
100
AcDbArc
 50
23.57817878021835
 51
156.421821206199
  0
ARC
  5
2AE
330
5C
100
AcDbEntity
  8
0
  6
Continuous
 62
     7
100
AcDbCircle
 10
-20.30000024689043
 20
76.82499962305818
 30
0.0
 40
0.5000000008593387
100
AcDbArc
 50
135.5729965510598
 51
180.0000003148792
  0
ARC
  5
2AF
330
5C
100
AcDbEntity
  8
0
  6
Continuous
 62
     7
100
AcDbCircle
 10
-20.30000025074948
 20
76.82499961969192
 30
0.0
 40
0.5000000004597922
100
AcDbArc
 50
89.99999965201536
 51
135.5729959660332
  0
ARC
  5
2B0
330
5C
100
AcDbEntity
  8
0
  6
Continuous
 62
     7
100
AcDbCircle
 10
-19.80000024677597
 20
82.54999954065423
 30
0.0
 40
1.049999999961666
100
AcDbArc
 50
173.0582522740068
 51
197.7527900966354
  0
ARC
  5
2B1
330
5C
100
AcDbEntity
  8
0
  6
Continuous
 62
     7
100
AcDbCircle
 10
-15.80000024771159
 20
76.82499962026631
 30
0.0
 40
0.5000000008759109
100
AcDbArc
 50
359.9999996589989
 51
44.42700345418758
  0
ARC
  5
2B2
330
5C
100
AcDbEntity
  8
0
  6
Continuous
 62
     7
100
AcDbCircle
 10
-16.50000025209193
 20
76.12499960784048
 30
0.0
 40
1.699999999017804
100
AcDbArc
 50
139.6797846846646
 51
145.2003327225079
  0
ARC
  5
2B3
330
5C
100
AcDbEntity
  8
0
  6
Continuous
 62
     7
100
AcDbCircle
 10
-16.80000024689043
 20
76.82499962032995
 30
0.0
 40
0.5000000008593387
100
AcDbArc
 50
135.5729965510598
 51
180.0000003148808
  0
ARC
  5
2B4
330
5C
100
AcDbEntity
  8
0
  6
Continuous
 62
     7
100
AcDbCircle
 10
-15.80000024372258
 20
76.82499961688883
 30
0.0
 40
0.5000000003914129
100
AcDbArc
 50
44.42700405055757
 51
90.00000034407027
  0
ARC
  5
2B5
330
5C
100
AcDbEntity
  8
0
  6
Continuous
 62
     7
100
AcDbCircle
 10
-16.80000025074949
 20
76.82499961696368
 30
0.0
 40
0.5000000004598064
100
AcDbArc
 50
89.99999965201414
 51
135.5729959660312
  0
ARC
  5
2B6
330
5C
100
AcDbEntity
  8
0
  6
Continuous
 62
     7
100
AcDbCircle
 10
-20.00000025209192
 20
76.12499961056872
 30
0.0
 40
1.699999999017803
100
AcDbArc
 50
139.6797846846652
 51
145.2003327225081
  0
ARC
  5
2B7
330
5C
100
AcDbEntity
  8
0
  6
Continuous
 62
     7
100
AcDbCircle
 10
-19.8000002492854
 20
79.67499961448695
 30
0.0
 40
0.749999999999997
100
AcDbArc
 50
203.5781781626021
 51
336.4218218238151
  0
ARC
  5
2B8
330
5C
100
AcDbEntity
  8
0
  6
Continuous
 62
     7
100
AcDbCircle
 10
-19.80000024671932
 20
82.5499995408327
 30
0.0
 40
1.049999999996322
100
AcDbArc
 50
6.94174771346957
 51
173.0582522840479
  0
ARC
  5
2B9
330
5C
100
AcDbEntity
  8
0
  6
Continuous
 62
     7
100
AcDbCircle
 10
-23.50000025209194
 20
76.12499961329694
 30
0.0
 40
1.699999999017805
100
AcDbArc
 50
139.679784684664
 51
145.2003327225069
  0
ARC
  5
2BA
330
5C
100
AcDbEntity
  8
0
  6
Continuous
 62
     7
100
AcDbCircle
 10
-26.3000002454187
 20
76.8249996278036
 30
0.0
 40
0.5000000003932477
100
AcDbArc
 50
44.42700405005962
 51
90.00000034167849
  0
ARC
  5
2BB
330
5C
100
AcDbEntity
  8
0
  6
Continuous
 62
     7
100
AcDbCircle
 10
-29.80000024372692
 20
76.8249996278036
 30
0.0
 40
0.5000000003932451
100
AcDbArc
 50
44.42700405005989
 51
90.00000034167971
  0
ARC
  5
2BC
330
5C
100
AcDbEntity
  8
0
  6
Continuous
 62
     7
100
AcDbCircle
 10
-30.80000024689043
 20
76.8249996312429
 30
0.0
 40
0.5000000008593387
100
AcDbArc
 50
135.5729965510598
 51
180.0000003148808
  0
ARC
  5
2BD
330
5C
100
AcDbEntity
  8
0
  6
Continuous
 62
     7
100
AcDbCircle
 10
-29.80000024771159
 20
76.82499963117927
 30
0.0
 40
0.5000000008759109
100
AcDbArc
 50
359.9999996589989
 51
44.42700345418687
  0
ARC
  5
2BE
330
5C
100
AcDbEntity
  8
0
  6
Continuous
 62
     7
100
AcDbCircle
 10
-30.80000025074948
 20
76.82499962787664
 30
0.0
 40
0.5000000004598064
100
AcDbArc
 50
89.99999965201536
 51
135.572995966032
  0
ARC
  5
2BF
330
5C
100
AcDbEntity
  8
0
  6
Continuous
 62
     7
100
AcDbCircle
 10
-27.00000025272753
 20
76.12499961794116
 30
0.0
 40
1.700000000348669
100
AcDbArc
 50
139.6797846868248
 51
145.2003327203431
  0
ARC
  5
2C0
330
5C
100
AcDbEntity
  8
0
  6
Continuous
 62
     7
100
AcDbCircle
 10
-27.30000024858222
 20
76.8249996312429
 30
0.0
 40
0.5000000008593336
100
AcDbArc
 50
135.5729965510593
 51
180.0000003148808
  0
ARC
  5
2C1
330
5C
100
AcDbEntity
  8
0
  6
Continuous
 62
     7
100
AcDbCircle
 10
-26.30000024940337
 20
76.82499963117927
 30
0.0
 40
0.5000000008759109
100
AcDbArc
 50
359.9999996589989
 51
44.42700345418658
  0
ARC
  5
2C2
330
5C
100
AcDbEntity
  8
0
  6
Continuous
 62
     7
100
AcDbCircle
 10
-27.30000025244127
 20
76.82499962787664
 30
0.0
 40
0.5000000004598064
100
AcDbArc
 50
89.99999965201414
 51
135.5729959660315
  0
ARC
  5
2C3
330
5C
100
AcDbEntity
  8
0
  6
Continuous
 62
     7
100
AcDbCircle
 10
-30.3000002492854
 20
79.67499962267168
 30
0.0
 40
0.7499999999999937
100
AcDbArc
 50
23.57817878021736
 51
156.4218212062
  0
ARC
  5
2C4
330
5C
100
AcDbEntity
  8
0
  6
Continuous
 62
     7
100
AcDbCircle
 10
-26.80000025097718
 20
79.67499962267168
 30
0.0
 40
0.7499999999999937
100
AcDbArc
 50
23.57817878021736
 51
156.4218212062
  0
ARC
  5
2C5
330
5C
100
AcDbEntity
  8
0
  6
Continuous
 62
     7
100
AcDbCircle
 10
-26.80000025097718
 20
79.67499962267168
 30
0.0
 40
0.7500000000000028
100
AcDbArc
 50
203.5781781626031
 51
336.4218218238151
  0
ARC
  5
2C6
330
5C
100
AcDbEntity
  8
0
  6
Continuous
 62
     7
100
AcDbCircle
 10
-30.30000024677597
 20
82.54999954883894
 30
0.0
 40
1.049999999961666
100
AcDbArc
 50
173.0582522740068
 51
197.7527900966346
  0
ARC
  5
2C7
330
5C
100
AcDbEntity
  8
0
  6
Continuous
 62
     7
100
AcDbCircle
 10
-30.30000024675885
 20
82.54999954902486
 30
0.0
 40
1.050000000034661
100
AcDbArc
 50
197.7527901060118
 51
6.9417477128063
  0
ARC
  5
2C8
330
5C
100
AcDbEntity
  8
0
  6
Continuous
 62
     7
100
AcDbCircle
 10
-30.3000002492854
 20
79.67499962267168
 30
0.0
 40
0.7500000000000028
100
AcDbArc
 50
203.5781781626031
 51
336.4218218238151
  0
ARC
  5
2C9
330
5C
100
AcDbEntity
  8
0
  6
Continuous
 62
     7
100
AcDbCircle
 10
-26.80000024846775
 20
82.54999954883894
 30
0.0
 40
1.049999999961666
100
AcDbArc
 50
173.0582522740068
 51
197.7527900966354
  0
ARC
  5
2CA
330
5C
100
AcDbEntity
  8
0
  6
Continuous
 62
     7
100
AcDbCircle
 10
-26.80000024845063
 20
82.54999954902486
 30
0.0
 40
1.050000000034665
100
AcDbArc
 50
197.7527901060126
 51
6.9417477128063
  0
ARC
  5
2CB
330
5C
100
AcDbEntity
  8
0
  6
Continuous
 62
     7
100
AcDbCircle
 10
-30.50000024662228
 20
76.12499962368047
 30
0.0
 40
1.700000000000003
100
AcDbArc
 50
0.00000000720203
 51
139.6797849305561
  0
ARC
  5
2CC
330
5C
100
AcDbEntity
  8
0
  6
Continuous
 62
     7
100
AcDbCircle
 10
-30.30000024671932
 20
82.54999954901741
 30
0.0
 40
1.049999999996324
100
AcDbArc
 50
6.94174771347034
 51
173.0582522840479
  0
ARC
  5
2CD
330
5C
100
AcDbEntity
  8
0
  6
Continuous
 62
     7
100
AcDbCircle
 10
-27.00000024842983
 20
76.12499962372299
 30
0.0
 40
1.69999999988422
100
AcDbArc
 50
0.000000005769
 51
139.679784929124
  0
ARC
  5
2CE
330
5C
100
AcDbEntity
  8
0
  6
Continuous
 62
     7
100
AcDbCircle
 10
-26.8000002484111
 20
82.54999954901741
 30
0.0
 40
1.04999999999632
100
AcDbArc
 50
6.94174771347036
 51
173.0582522840479
  0
ARC
  5
2CF
330
5C
100
AcDbEntity
  8
0
  6
Continuous
 62
     7
100
AcDbCircle
 10
-16.30000024671932
 20
82.54999953810446
 30
0.0
 40
1.049999999996324
100
AcDbArc
 50
6.94174771347034
 51
173.0582522840479
  0
SPLINE
  5
2D0
330
5C
100
AcDbEntity
  8
0
  6
Continuous
 62
     7
100
AcDbSpline
210
0.0
220
0.0
230
1.0
 70
     8
 71
     3
 72
    11
 73
     7
 74
     5
 42
0.000000001
 43
0.0000000001
 44
0.00000001
 40
0.0
 40
0.0
 40
0.0
 40
0.0
 40
0.013852710151961
 40
0.0277169061464167
 40
0.0446153394985436
 40
0.0615239650738537
 40
0.0615239650738537
 40
0.0615239650738537
 40
0.0615239650738537
 10
-24.89595954072493
 20
74.55479466739445
 30
0.0
 10
-24.89858601013598
 20
74.55859254706041
 30
0.0
 10
-24.90384111441697
 20
74.56619146380163
 30
0.0
 10
-24.91217157337971
 20
74.57851132947646
 30
0.0
 10
-24.92097034092874
 20
74.59174381624304
 30
0.0
 10
-24.92708962111886
 20
74.60120677051941
 30
0.0
 10
-24.9301501772885
 20
74.60593967824786
 30
0.0
 11
-24.89595954072493
 21
74.55479466739445
 31
0.0
 11
-24.90381899242199
 21
74.56620197202673
 31
0.0
 11
-24.91159163032562
 21
74.57768247867884
 31
0.0
 11
-24.92093834920064
 21
74.59176068521852
 31
0.0
 11
-24.9301501772885
 21
74.60593967824786
 31
0.0
  0
SPLINE
  5
2D1
330
5C
100
AcDbEntity
  8
0
  6
Continuous
 62
     7
100
AcDbSpline
210
0.0
220
0.0
230
1.0
 70
     8
 71
     3
 72
    11
 73
     7
 74
     5
 42
0.000000001
 43
0.0000000001
 44
0.00000001
 40
0.0
 40
0.0
 40
0.0
 40
0.0
 40
0.0138534814069835
 40
0.027716906146476
 40
0.0446237741854718
 40
0.0615239650738567
 40
0.0615239650738567
 40
0.0615239650738567
 40
0.0615239650738567
 10
-31.89595954072494
 20
74.55479467285092
 30
0.0
 10
-31.89858615589798
 20
74.55859276429412
 30
0.0
 10
-31.90384125924355
 20
74.56619168169294
 30
0.0
 10
-31.91217329112847
 20
74.57851387777083
 30
0.0
 10
-31.92097188517282
 20
74.59174617154002
 30
0.0
 10
-31.92709115368458
 20
74.60120913322925
 30
0.0
 10
-31.9301501772885
 20
74.60593968370434
 30
0.0
 11
-31.89595954072494
 21
74.55479467285092
 31
0.0
 11
-31.9038194274122
 21
74.56620261437224
 31
0.0
 11
-31.91159163032562
 21
74.57768248413531
 31
0.0
 11
-31.92094297958051
 21
74.59176774087246
 31
0.0
 11
-31.9301501772885
 21
74.60593968370434
 31
0.0
  0
SPLINE
  5
2D2
330
5C
100
AcDbEntity
  8
0
  6
Continuous
 62
     7
100
AcDbSpline
210
0.0
220
0.0
230
1.0
 70
     8
 71
     3
 72
    11
 73
     7
 74
     5
 42
0.000000001
 43
0.0000000001
 44
0.00000001
 40
0.0
 40
0.0
 40
0.0
 40
0.0
 40
0.0138527101519687
 40
0.0277169061464243
 40
0.0446153405997759
 40
0.0615239650738494
 40
0.0615239650738494
 40
0.0615239650738494
 40
0.0615239650738494
 10
-28.39595954241672
 20
74.55479467285092
 30
0.0
 10
-28.39858601182776
 20
74.55859255251691
 30
0.0
 10
-28.40384111610873
 20
74.56619146925813
 30
0.0
 10
-28.41217157527718
 20
74.57851133523695
 30
0.0
 10
-28.42097034282213
 20
74.59174382200632
 30
0.0
 10
-28.42708962301072
 20
74.60120677628362
 30
0.0
 10
-28.43015017898028
 20
74.60593968370434
 30
0.0
 11
-28.39595954241672
 21
74.55479467285092
 31
0.0
 11
-28.40381899411377
 21
74.56620197748322
 31
0.0
 11
-28.4115916320174
 21
74.57768248413532
 31
0.0
 11
-28.42093835149696
 21
74.59176069159547
 31
0.0
 11
-28.43015017898028
 21
74.60593968370434
 31
0.0
  0
SPLINE
  5
2D3
330
5C
100
AcDbEntity
  8
0
  6
Continuous
 62
     7
100
AcDbSpline
210
0.0
220
0.0
230
1.0
 70
    24
 71
     3
 72
    17
 73
    13
 74
    11
 42
0.000000001
 43
0.0000000001
 44
0.00000001
 40
0.0
 40
0.0
 40
0.0
 40
0.0
 40
0.0229114954269498
 40
0.0702031024681666
 40
0.1369122435891192
 40
0.2180763412552551
 40
0.3370369621756204
 40
0.4634186294450018
 40
0.5968818650761847
 40
0.7338323359005692
 40
0.8505617300284349
 40
1.000000001193172
 40
1.000000001193172
 40
1.000000001193172
 40
1.000000001193172
 10
-22.80000024672516
 20
77.32499962273673
 30
0.0
 10
-22.80763741186747
 20
77.32499962274098
 30
0.0
 10
-22.83103844602353
 20
77.32499962275375
 30
0.0
 10
-22.87667586055324
 20
77.32499962277699
 30
0.0
 10
-22.94173080916267
 20
77.32499962280662
 30
0.0
 10
-23.03067542906515
 20
77.32499962284095
 30
0.0
 10
-23.13951089101711
 20
77.32499962287338
 30
0.0
 10
-23.26577939895742
 20
77.32499962289836
 30
0.0
 10
-23.39804452353241
 20
77.32499962291173
 30
0.0
 10
-23.52709222372688
 20
77.32499962291307
 30
0.0
 10
-23.66146493576589
 20
77.32499962290436
 30
0.0
 10
-23.75018749086341
 20
77.32499962289239
 30
0.0
 10
-23.80000024791833
 20
77.32499962288401
 30
0.0
 11
-22.80000024672516
 21
77.32499962273673
 31
0.0
 11
-22.8229117421521
 21
77.32499962274913
 31
0.0
 11
-22.87020334919332
 21
77.32499962277048
 31
0.0
 11
-22.93691249031427
 21
77.32499962279738
 31
0.0
 11
-23.0180765879804
 21
77.32499962282644
 31
0.0
 11
-23.13703720890077
 21
77.32499962285708
 31
0.0
 11
-23.26341887617015
 21
77.32499962288007
 31
0.0
 11
-23.39688211180134
 21
77.32499962290265
 31
0.0
 11
-23.53383258262573
 21
77.32499962291263
 31
0.0
 11
-23.6505619767536
 21
77.32499962290615
 31
0.0
 11
-23.80000024791833
 21
77.32499962288401
 31
0.0
  0
SPLINE
  5
2D4
330
5C
100
AcDbEntity
  8
0
  6
Continuous
 62
     7
100
AcDbSpline
210
0.0
220
0.0
230
1.0
 70
     8
 71
     3
 72
    11
 73
     7
 74
     5
 42
0.000000001
 43
0.0000000001
 44
0.00000001
 40
0.0
 40
0.0
 40
0.0
 40
0.0
 40
0.0138618989749422
 40
0.0277169061465714
 40
0.0446209636574383
 40
0.0615239650934472
 40
0.0615239650934472
 40
0.0615239650934472
 40
0.0615239650934472
 10
-17.89595954072493
 20
74.55479466193796
 30
0.0
 10
-17.89858774724092
 20
74.55859506440005
 30
0.0
 10
-17.90384284134375
 20
74.56619398828532
 30
0.0
 10
-17.91217431907051
 20
74.57851542789913
 30
0.0
 10
-17.92097137082206
 20
74.59174537751315
 30
0.0
 10
-17.92709064310954
 20
74.60120833681154
 30
0.0
 10
-17.93015017732424
 20
74.6059396727914
 30
0.0
 11
-17.89595954072493
 21
74.55479466193796
 31
0.0
 11
-17.90382417492794
 21
74.56620955455429
 31
0.0
 11
-17.91159163032562
 21
74.57768247322237
 31
0.0
 11
-17.92094143669527
 21
74.59176538075349
 31
0.0
 11
-17.93015017732424
 21
74.6059396727914
 31
0.0
  0
SPLINE
  5
2D5
330
5C
100
AcDbEntity
  8
0
  6
Continuous
 62
     7
100
AcDbSpline
210
0.0
220
0.0
230
1.0
 70
     8
 71
     3
 72
    11
 73
     7
 74
     5
 42
0.000000001
 43
0.0000000001
 44
0.00000001
 40
0.0
 40
0.0
 40
0.0
 40
0.0
 40
0.0138526942364258
 40
0.0277169061464478
 40
0.0446229842317719
 40
0.0615239650738534
 40
0.0615239650738534
 40
0.0615239650738534
 40
0.0615239650738534
 10
-21.39595954072494
 20
74.5547946646662
 30
0.0
 10
-21.39858600708832
 20
74.55859253999036
 30
0.0
 10
-21.40384111130903
 20
74.56619145677489
 30
0.0
 10
-21.41217299835784
 20
74.57851343294519
 30
0.0
 10
-21.42097174052927
 20
74.59174594329065
 30
0.0
 10
-21.42709101014614
 20
74.60120890427848
 30
0.0
 10
-21.4301501772885
 20
74.60593967551962
 30
0.0
 11
-21.39595954072494
 21
74.5547946646662
 31
0.0
 11
-21.40381898344556
 21
74.5662019561557
 31
0.0
 11
-21.41159163032562
 21
74.5776824759506
 31
0.0
 11
-21.42094254592207
 21
74.59176707239794
 31
0.0
 11
-21.4301501772885
 21
74.60593967551962
 31
0.0
  0
SPLINE
  5
2D6
330
5C
100
AcDbEntity
  8
0
  6
Continuous
 62
     7
100
AcDbSpline
210
0.0
220
0.0
230
1.0
 70
    24
 71
     3
 72
    17
 73
    13
 74
    11
 42
0.000000001
 43
0.0000000001
 44
0.00000001
 40
0.0
 40
0.0
 40
0.0
 40
0.0
 40
0.0230468330225122
 40
0.0703512484125461
 40
0.1369991249101155
 40
0.218076341255248
 40
0.3370369621756133
 40
0.4634186294449769
 40
0.596881865076174
 40
0.7338323359005514
 40
0.8505617300026245
 40
1.000000000987583
 40
1.000000000987583
 40
1.000000000987583
 40
1.000000000987583
 10
-19.30000024672516
 20
77.32499962000848
 30
0.0
 10
-19.30768252439933
 20
77.32499962001273
 30
0.0
 10
-19.33113294053685
 20
77.32499962002544
 30
0.0
 10
-19.37679931550688
 20
77.32499962004876
 30
0.0
 10
-19.44180915158447
 20
77.32499962007834
 30
0.0
 10
-19.53070438950548
 20
77.32499962011299
 30
0.0
 10
-19.6395108910171
 20
77.32499962014589
 30
0.0
 10
-19.76577939895742
 20
77.32499962017138
 30
0.0
 10
-19.89804452353238
 20
77.32499962018491
 30
0.0
 10
-20.02709222371828
 20
77.32499962018576
 30
0.0
 10
-20.16146493568874
 20
77.32499962017548
 30
0.0
 10
-20.25018749071775
 20
77.32499962016155
 30
0.0
 10
-20.30000024771274
 20
77.32499962015171
 30
0.0
 11
-19.30000024672516
 21
77.32499962000848
 31
0.0
 11
-19.32304707974767
 21
77.32499962002095
 31
0.0
 11
-19.3703514951377
 21
77.32499962004229
 31
0.0
 11
-19.43699937163527
 21
77.32499962006915
 31
0.0
 11
-19.5180765879804
 21
77.3249996200982
 31
0.0
 11
-19.63703720890076
 21
77.32499962012882
 31
0.0
 11
-19.76341887617014
 21
77.32499962015183
 31
0.0
 11
-19.89688211180134
 21
77.32499962017441
 31
0.0
 11
-20.03383258262572
 21
77.32499962018439
 31
0.0
 11
-20.15056197672779
 21
77.32499962017742
 31
0.0
 11
-20.30000024771274
 21
77.32499962015171
 31
0.0
  0
SPLINE
  5
2D7
330
5C
100
AcDbEntity
  8
0
  6
Continuous
 62
     7
100
AcDbSpline
210
0.0
220
0.0
230
1.0
 70
    24
 71
     3
 72
    17
 73
    13
 74
    11
 42
0.000000001
 43
0.0000000001
 44
0.00000001
 40
0.0
 40
0.0
 40
0.0
 40
0.0
 40
0.0230468330224003
 40
0.0703512484124076
 40
0.1369991249100071
 40
0.2180763412551929
 40
0.3370369621755511
 40
0.4634186294449325
 40
0.5968818650761474
 40
0.7338323359005425
 40
0.8505617300019264
 40
1.000000000987582
 40
1.000000000987582
 40
1.000000000987582
 40
1.000000000987582
 10
-15.80000024672516
 20
77.32499961728026
 30
0.0
 10
-15.80768252439929
 20
77.32499961728452
 30
0.0
 10
-15.83113294053676
 20
77.32499961729725
 30
0.0
 10
-15.87679931550677
 20
77.32499961732063
 30
0.0
 10
-15.94180915158436
 20
77.32499961735031
 30
0.0
 10
-16.03070438950541
 20
77.32499961738503
 30
0.0
 10
-16.13951089101705
 20
77.32499961741792
 30
0.0
 10
-16.26577939895737
 20
77.32499961744341
 30
0.0
 10
-16.39804452353236
 20
77.32499961745688
 30
0.0
 10
-16.52709222371804
 20
77.3249996174576
 30
0.0
 10
-16.66146493568851
 20
77.32499961744728
 30
0.0
 10
-16.75018749071752
 20
77.32499961743332
 30
0.0
 10
-16.80000024771274
 20
77.32499961742349
 30
0.0
 11
-15.80000024672516
 21
77.32499961728026
 31
0.0
 11
-15.82304707974757
 21
77.32499961729273
 31
0.0
 11
-15.87035149513759
 21
77.32499961731406
 31
0.0
 11
-15.9369993716352
 21
77.32499961734095
 31
0.0
 11
-16.0180765879804
 21
77.32499961736997
 31
0.0
 11
-16.13703720890076
 21
77.32499961740061
 31
0.0
 11
-16.26341887617014
 21
77.3249996174236
 31
0.0
 11
-16.39688211180134
 21
77.32499961744617
 31
0.0
 11
-16.53383258262572
 21
77.32499961745614
 31
0.0
 11
-16.65056197672709
 21
77.32499961744917
 31
0.0
 11
-16.80000024771274
 21
77.32499961742349
 31
0.0
  0
SPLINE
  5
2D8
330
5C
100
AcDbEntity
  8
0
  6
Continuous
 62
     7
100
AcDbSpline
210
0.0
220
0.0
230
1.0
 70
     8
 71
     3
 72
    11
 73
     7
 74
     5
 42
0.000000001
 43
0.0000000001
 44
0.00000001
 40
0.0
 40
0.0
 40
0.0
 40
0.0
 40
0.1714513621283247
 40
0.3729847666358537
 40
0.5594747159212599
 40
0.7459637098470795
 40
0.7459637098470795
 40
0.7459637098470795
 40
0.7459637098470795
 10
-17.30000024704841
 20
76.64484417444199
 30
0.0
 10
-17.34827680584306
 20
76.67543090798185
 30
0.0
 10
-17.45330030782426
 20
76.74197096479269
 30
0.0
 10
-17.6108382300034
 20
76.8417753209248
 30
0.0
 10
-17.77261169147426
 20
76.94426031286417
 30
0.0
 10
-17.8776374819935
 20
77.0107931301764
 30
0.0
 10
-17.93015024676727
 20
77.04405944727353
 30
0.0
 11
-17.30000024704841
 21
76.64484417444199
 31
0.0
 11
-17.44483039842765
 21
76.73660362532951
 31
0.0
 11
-17.61507440991717
 21
76.84445857275658
 31
0.0
 11
-17.7726121808874
 21
76.944260135381
 31
0.0
 11
-17.93015024676727
 21
77.04405944727353
 31
0.0
  0
SPLINE
  5
2D9
330
5C
100
AcDbEntity
  8
0
  6
Continuous
 62
     7
100
AcDbSpline
210
0.0
220
0.0
230
1.0
 70
     8
 71
     3
 72
    11
 73
     7
 74
     5
 42
0.000000001
 43
0.0000000001
 44
0.00000001
 40
0.0
 40
0.0
 40
0.0
 40
0.0
 40
0.0138561366846143
 40
0.0277169601234016
 40
0.0446205009345013
 40
0.0615240931803996
 40
0.0615240931803996
 40
0.0615240931803996
 40
0.0615240931803996
 10
-17.8959595409166
 20
77.09520456588008
 30
0.0
 10
-17.89858665808419
 20
77.09140574544794
 30
0.0
 10
-17.90384176877452
 20
77.08380681122341
 30
0.0
 10
-17.91217317980814
 20
77.07148551252936
 30
0.0
 10
-17.92097131962652
 20
77.05825392850397
 30
0.0
 10
-17.92709060551795
 20
77.04879094857216
 30
0.0
 10
-17.93015024676727
 20
77.04405944727353
 30
0.0
 11
-17.8959595409166
 21
77.09520456588008
 31
0.0
 11
-17.903820925195
 21
77.08379443168072
 31
0.0
 11
-17.9115916606115
 21
77.07231670978638
 31
0.0
 11
-17.92094118288642
 21
77.05823423384881
 31
0.0
 11
-17.93015024676727
 21
77.04405944727353
 31
0.0
  0
SPLINE
  5
2DA
330
5C
100
AcDbEntity
  8
0
  6
Continuous
 62
     7
100
AcDbSpline
210
0.0
220
0.0
230
1.0
 70
     8
 71
     3
 72
    11
 73
     7
 74
     5
 42
0.000000001
 43
0.0000000001
 44
0.00000001
 40
0.0
 40
0.0
 40
0.0
 40
0.0
 40
0.013862578579821
 40
0.0277169601234542
 40
0.0446204799781637
 40
0.0615239657487075
 40
0.0615239657487075
 40
0.0615239657487075
 40
0.0615239657487075
 10
-21.3959595409166
 20
77.09520456860832
 30
0.0
 10
-21.39858787588843
 20
77.09140397954855
 30
0.0
 10
-21.40384297943229
 20
77.08380504031325
 30
0.0
 10
-21.4121743646565
 20
77.07148373276777
 30
0.0
 10
-21.42097129083864
 20
77.05825397157393
 30
0.0
 10
-21.42709057242781
 20
77.04879103949351
 30
0.0
 10
-21.4301502037864
 20
77.04405957408949
 30
0.0
 11
-21.3959595409166
 21
77.09520456860832
 31
0.0
 11
-21.40382455842438
 21
77.08378911478981
 31
0.0
 11
-21.4115916606115
 21
77.0723167125146
 31
0.0
 11
-21.4209411747347
 21
77.05823425631948
 31
0.0
 11
-21.4301502037864
 21
77.04405957408949
 31
0.0
  0
SPLINE
  5
2DB
330
5C
100
AcDbEntity
  8
0
  6
Continuous
 62
     7
100
AcDbSpline
210
0.0
220
0.0
230
1.0
 70
     8
 71
     3
 72
    11
 73
     7
 74
     5
 42
0.000000001
 43
0.0000000001
 44
0.00000001
 40
0.0
 40
0.0
 40
0.0
 40
0.0
 40
0.1714513583593135
 40
0.3729847666358521
 40
0.5594747196839089
 40
0.7459637399442348
 40
0.7459637399442348
 40
0.7459637399442348
 40
0.7459637399442348
 10
-20.8000002470484
 20
76.64484417717023
 30
0.0
 10
-20.84827680487169
 20
76.67543090989578
 30
0.0
 10
-20.95330030704846
 20
76.7419709663979
 30
0.0
 10
-21.11083822866589
 20
76.84177532576047
 30
0.0
 10
-21.2726117055786
 20
76.94426031441823
 30
0.0
 10
-21.37763745592234
 20
77.01079321389626
 30
0.0
 10
-21.4301502037864
 20
77.04405957408949
 30
0.0
 11
-20.8000002470484
 21
76.64484417717023
 31
0.0
 11
-20.94483039524384
 21
76.73660362604063
 31
0.0
 11
-21.11507440991717
 21
76.84445857548481
 31
0.0
 11
-21.27261217551469
 21
76.94426015362103
 31
0.0
 11
-21.4301502037864
 21
77.04405957408949
 31
0.0
  0
SPLINE
  5
2DC
330
5C
100
AcDbEntity
  8
0
  6
Continuous
 62
     7
100
AcDbSpline
210
0.0
220
0.0
230
1.0
 70
     8
 71
     3
 72
    11
 73
     7
 74
     5
 42
0.000000001
 43
0.0000000001
 44
0.00000001
 40
0.0
 40
0.0
 40
0.0
 40
0.0
 40
0.0138552275486292
 40
0.0277169601233691
 40
0.0446171964426663
 40
0.0615239657487175
 40
0.0615239657487175
 40
0.0615239657487175
 40
0.0615239657487175
 10
-24.8959595409166
 20
77.09520457133657
 30
0.0
 10
-24.89858648620429
 20
77.09140600050237
 30
0.0
 10
-24.90384159787811
 20
77.08380706697336
 30
0.0
 10
-24.91217239519945
 20
77.07148668292693
 30
0.0
 10
-24.92097068951649
 20
77.05825488896839
 30
0.0
 10
-24.92708997576008
 20
77.04879195984103
 30
0.0
 10
-24.9301502037864
 20
77.04405957681773
 30
0.0
 11
-24.8959595409166
 21
77.09520457133657
 31
0.0
 11
-24.90382041244063
 21
77.08379518788674
 31
0.0
 11
-24.9115916606115
 21
77.07231671524285
 31
0.0
 11
-24.92093937217508
 21
77.05823700361516
 31
0.0
 11
-24.9301502037864
 21
77.04405957681773
 31
0.0
  0
SPLINE
  5
2DD
330
5C
100
AcDbEntity
  8
0
  6
Continuous
 62
     7
100
AcDbSpline
210
0.0
220
0.0
230
1.0
 70
    24
 71
     3
 72
    17
 73
    13
 74
    11
 42
0.000000001
 43
0.0000000001
 44
0.00000001
 40
0.0
 40
0.0
 40
0.0
 40
0.0
 40
0.0231819008530181
 40
0.0704991469771059
 40
0.1370859049305402
 40
0.2180763412716082
 40
0.3370369621919593
 40
0.4634186294613478
 40
0.5968818650925947
 40
0.7338323359170325
 40
0.8508475600515268
 40
1.000000001004103
 40
1.000000001004103
 40
1.000000001004103
 40
1.000000001004103
 10
-29.80000024670864
 20
77.32499962819685
 30
0.0
 10
-29.80772754699297
 20
77.32499962820033
 30
0.0
 10
-29.83122726265202
 20
77.32499962821079
 30
0.0
 10
-29.87692256429553
 20
77.32499962823013
 30
0.0
 10
-29.9418873777684
 20
77.32499962825557
 30
0.0
 10
-30.03073331617333
 20
77.32499962828633
 30
0.0
 10
-30.13951089101695
 20
77.32499962831756
 30
0.0
 10
-30.26577939895727
 20
77.32499962834407
 30
0.0
 10
-30.3980445235323
 20
77.32499962836081
 30
0.0
 10
-30.5271875003957
 20
77.32499962836567
 30
0.0
 10
-30.66156021236619
 20
77.32499962835892
 30
0.0
 10
-30.75028276739522
 20
77.32499962834625
 30
0.0
 10
-30.80000024771274
 20
77.32499962833644
 30
0.0
 11
-29.80000024670864
 21
77.32499962819685
 31
0.0
 11
-29.82318214756168
 21
77.32499962820728
 31
0.0
 11
-29.87049939368582
 21
77.32499962822754
 31
0.0
 11
-29.9370861516393
 21
77.32499962825398
 31
0.0
 11
-30.0180765879804
 21
77.32499962828292
 31
0.0
 11
-30.13703720890077
 21
77.32499962831356
 31
0.0
 11
-30.26341887617014
 21
77.32499962833656
 31
0.0
 11
-30.39688211180134
 21
77.32499962835912
 31
0.0
 11
-30.53383258262573
 21
77.3249996283691
 31
0.0
 11
-30.65084780676019
 21
77.3249996283621
 31
0.0
 11
-30.80000024771274
 21
77.32499962833644
 31
0.0
  0
SPLINE
  5
2DE
330
5C
100
AcDbEntity
  8
0
  6
Continuous
 62
     7
100
AcDbSpline
210
0.0
220
0.0
230
1.0
 70
     8
 71
     3
 72
    11
 73
     7
 74
     5
 42
0.000000001
 43
0.0000000001
 44
0.00000001
 40
0.0
 40
0.0
 40
0.0
 40
0.0
 40
0.0138564451787228
 40
0.0277169601233665
 40
0.0446171855143552
 40
0.0615239657487267
 40
0.0615239657487267
 40
0.0615239657487267
 40
0.0615239657487267
 10
-28.39595954260839
 20
77.09520457679304
 30
0.0
 10
-28.39858671808744
 20
77.09140567166072
 30
0.0
 10
-28.40384182842017
 20
77.08380673719049
 30
0.0
 10
-28.41217261948314
 20
77.0714863533467
 30
0.0
 10
-28.42097068923639
 20
77.05825489748742
 30
0.0
 10
-28.42708997547583
 20
77.04879196835763
 30
0.0
 10
-28.43015020547819
 20
77.0440595822742
 30
0.0
 11
-28.39595954260839
 21
77.09520457679304
 31
0.0
 11
-28.40382110087796
 21
77.0837941878442
 31
0.0
 11
-28.41159166230328
 21
77.07231672069933
 31
0.0
 11
-28.42093936786754
 21
77.05823701820614
 31
0.0
 11
-28.43015020547819
 21
77.0440595822742
 31
0.0
  0
SPLINE
  5
2DF
330
5C
100
AcDbEntity
  8
0
  6
Continuous
 62
     7
100
AcDbSpline
210
0.0
220
0.0
230
1.0
 70
     8
 71
     3
 72
    11
 73
     7
 74
     5
 42
0.000000001
 43
0.0000000001
 44
0.00000001
 40
0.0
 40
0.0
 40
0.0
 40
0.0
 40
0.0138564360848851
 40
0.0277169601233706
 40
0.044615502331275
 40
0.061524057866837
 40
0.061524057866837
 40
0.061524057866837
 40
0.061524057866837
 10
-31.8959595409166
 20
77.09520457679304
 30
0.0
 10
-31.89858671471162
 20
77.09140567417978
 30
0.0
 10
-31.90384182512467
 20
77.08380673976126
 30
0.0
 10
-31.91217230137423
 20
77.07148682036512
 30
0.0
 10
-31.92097039801862
 20
77.05825534183666
 30
0.0
 10
-31.92708968457342
 20
77.04879237627013
 30
0.0
 10
-31.93015022773478
 20
77.0440594879339
 30
0.0
 11
-31.8959595409166
 21
77.09520457679304
 31
0.0
 11
-31.90382109405724
 21
77.08379419535376
 31
0.0
 11
-31.9115916606115
 21
77.07231672069933
 31
0.0
 11
-31.92093843884938
 21
77.0582384229091
 31
0.0
 11
-31.93015022773478
 21
77.0440594879339
 31
0.0
  0
SPLINE
  5
2E0
330
5C
100
AcDbEntity
  8
0
  6
Continuous
 62
     7
100
AcDbSpline
210
0.0
220
0.0
230
1.0
 70
     8
 71
     3
 72
    11
 73
     7
 74
     5
 42
0.000000001
 43
0.0000000001
 44
0.00000001
 40
0.0
 40
0.0
 40
0.0
 40
0.0
 40
0.1714513979113123
 40
0.3729847666358431
 40
0.5594747159014842
 40
0.7459637096885706
 40
0.7459637096885706
 40
0.7459637096885706
 40
0.7459637096885706
 10
-31.30000024704841
 20
76.64484418535494
 30
0.0
 10
-31.34827681594358
 20
76.67543092523914
 30
0.0
 10
-31.45330031797894
 20
76.7419709819645
 30
0.0
 10
-31.61083823970468
 20
76.8417753388
 30
0.0
 10
-31.7726116926868
 20
76.94426032175195
 30
0.0
 10
-31.8776374697205
 20
77.01079316025293
 30
0.0
 10
-31.93015022773478
 20
77.0440594879339
 30
0.0
 11
-31.30000024704841
 21
76.64484418535494
 31
0.0
 11
-31.44483042865488
 21
76.73660365539284
 31
0.0
 11
-31.61507440991717
 21
76.84445858366952
 31
0.0
 11
-31.77261217850835
 21
76.94426015001237
 31
0.0
 11
-31.93015022773478
 21
77.0440594879339
 31
0.0
  0
SPLINE
  5
2E1
330
5C
100
AcDbEntity
  8
0
  6
Continuous
 62
     7
100
AcDbSpline
210
0.0
220
0.0
230
1.0
 70
    24
 71
     3
 72
    17
 73
    13
 74
    11
 42
0.000000001
 43
0.0000000001
 44
0.00000001
 40
0.0
 40
0.0
 40
0.0
 40
0.0
 40
0.0230468330318843
 40
0.0703512484267854
 40
0.136999124926227
 40
0.2180763412717148
 40
0.337036962192073
 40
0.4634186294614544
 40
0.5968818650926622
 40
0.7338323359170715
 40
0.8502800068775116
 40
1.000000001004111
 40
1.000000001004111
 40
1.000000001004111
 40
1.000000001004111
 10
-26.30000024840041
 20
77.32499962819685
 30
0.0
 10
-26.3076825260777
 20
77.32499962820033
 30
0.0
 10
-26.33113294221998
 20
77.32499962821085
 30
0.0
 10
-26.37679931719536
 20
77.32499962823027
 30
0.0
 10
-26.44180915327532
 20
77.32499962825581
 30
0.0
 10
-26.53070439119708
 20
77.32499962828675
 30
0.0
 10
-26.63951089270882
 20
77.32499962831797
 30
0.0
 10
-26.76577940064914
 20
77.32499962834447
 30
0.0
 10
-26.89804452522413
 20
77.32499962836107
 30
0.0
 10
-27.02699831769615
 20
77.32499962836577
 30
0.0
 10
-27.16137102966664
 20
77.324999628359
 30
0.0
 10
-27.25009358469565
 20
77.32499962834628
 30
0.0
 10
-27.30000024940452
 20
77.32499962833644
 30
0.0
 11
-26.30000024840041
 21
77.32499962819685
 31
0.0
 11
-26.3230470814323
 21
77.32499962820721
 31
0.0
 11
-26.37035149682722
 21
77.32499962822747
 31
0.0
 11
-26.43699937332668
 21
77.32499962825395
 31
0.0
 11
-26.51807658967218
 21
77.32499962828292
 31
0.0
 11
-26.63703721059255
 21
77.32499962831356
 31
0.0
 11
-26.76341887786192
 21
77.32499962833656
 31
0.0
 11
-26.89688211349311
 21
77.32499962835911
 31
0.0
 11
-27.0338325843175
 21
77.3249996283691
 31
0.0
 11
-27.15028025527793
 21
77.32499962836215
 31
0.0
 11
-27.30000024940452
 21
77.32499962833644
 31
0.0
  0
SPLINE
  5
2E2
330
5C
100
AcDbEntity
  8
0
  6
Continuous
 62
     7
100
AcDbSpline
210
0.0
220
0.0
230
1.0
 70
     8
 71
     3
 72
    11
 73
     7
 74
     5
 42
0.000000001
 43
0.0000000001
 44
0.00000001
 40
0.0
 40
0.0
 40
0.0
 40
0.0
 40
0.1714513663433118
 40
0.3729847666358507
 40
0.5594747196839029
 40
0.7459637399442335
 40
0.7459637399442335
 40
0.7459637399442335
 40
0.7459637399442335
 10
-24.30000024704841
 20
76.64484417989846
 30
0.0
 10
-24.34827680711981
 20
76.67543091404833
 30
0.0
 10
-24.45330030929659
 20
76.74197097055043
 30
0.0
 10
-24.61083823091406
 20
76.84177532991295
 30
0.0
 10
-24.7726117055786
 20
76.94426031714644
 30
0.0
 10
-24.87763745592234
 20
77.0107932166245
 30
0.0
 10
-24.9301502037864
 20
77.04405957681773
 30
0.0
 11
-24.30000024704841
 21
76.64484417989846
 31
0.0
 11
-24.44483040198822
 21
76.73660363304177
 31
0.0
 11
-24.61507440991717
 21
76.84445857821305
 31
0.0
 11
-24.77261217551469
 21
76.94426015634926
 31
0.0
 11
-24.9301502037864
 21
77.04405957681773
 31
0.0
  0
SPLINE
  5
2E3
330
5C
100
AcDbEntity
  8
0
  6
Continuous
 62
     7
100
AcDbSpline
210
0.0
220
0.0
230
1.0
 70
     8
 71
     3
 72
    11
 73
     7
 74
     5
 42
0.000000001
 43
0.0000000001
 44
0.00000001
 40
0.0
 40
0.0
 40
0.0
 40
0.0
 40
0.171451362605207
 40
0.3729847666358521
 40
0.5594747196839059
 40
0.7459637399442408
 40
0.7459637399442408
 40
0.7459637399442408
 40
0.7459637399442408
 10
-27.80000024874018
 20
76.64484418535494
 30
0.0
 10
-27.848276807759
 20
76.67543091883793
 30
0.0
 10
-27.9533003099358
 20
76.74197097534005
 30
0.0
 10
-28.11083823155326
 20
76.84177533470259
 30
0.0
 10
-28.27261170727037
 20
76.94426032260293
 30
0.0
 10
-28.37763745761413
 20
77.01079322208098
 30
0.0
 10
-28.43015020547819
 20
77.0440595822742
 30
0.0
 11
-27.80000024874018
 21
76.64484418535494
 31
0.0
 11
-27.94483040052228
 21
76.73660363649768
 31
0.0
 11
-28.11507441160895
 21
76.84445858366952
 31
0.0
 11
-28.27261217720647
 21
76.94426016180574
 31
0.0
 11
-28.43015020547819
 21
77.0440595822742
 31
0.0
  0
ENDBLK
  5
5E
330
5C
100
AcDbEntity
  8
0
100
AcDbBlockEnd
  0
BLOCK
  5
61
330
5F
100
AcDbEntity
  8
0
100
AcDbBlockBegin
  2
Left1
 70
     0
 10
-24.75000004741423
 20
78.15000011583061
 30
0.0
  3
Left1
  1

  0
INSERT
  5
60
330
5F
100
AcDbEntity
  8
0
100
AcDbBlockReference
  2
PPC_1_5_S_5-select__4
 10
-35.00000024229968
 20
69.24999988801633
 30
0.0
  0
ENDBLK
  5
62
330
5F
100
AcDbEntity
  8
0
100
AcDbBlockEnd
  0
BLOCK
  5
64
330
63
100
AcDbEntity
  8
0
100
AcDbBlockBegin
  2
PPC_1_5_S_5-select__5
 70
     0
 10
-106.999999751652
 20
69.24999989640278
 30
0.0
  3
PPC_1_5_S_5-select__5
  1

  0
LINE
  5
2E4
330
63
100
AcDbEntity
  8
0
  6
Continuous
 62
     7
100
AcDbLine
 10
-106.999999751652
 20
70.44999987863739
 30
0.0
 11
-106.999999751652
 21
84.01539469797602
 31
0.0
  0
LINE
  5
2E5
330
63
100
AcDbEntity
  8
0
  6
Continuous
 62
     7
100
AcDbLine
 10
-106.999999751652
 20
69.24999989640278
 30
0.0
 11
-106.999999751652
 21
70.44999987863739
 31
0.0
  0
LINE
  5
2E6
330
63
100
AcDbEntity
  8
0
  6
Continuous
 62
     7
100
AcDbLine
 10
-106.999999751652
 20
70.44999987863739
 30
0.0
 11
-86.49999975856689
 21
70.44999988926995
 31
0.0
  0
LINE
  5
2E7
330
63
100
AcDbEntity
  8
0
  6
Continuous
 62
     7
100
AcDbLine
 10
-86.49999975862951
 20
69.24999989640278
 30
0.0
 11
-89.49999975340646
 21
69.2499998970302
 31
0.0
  0
LINE
  5
2E8
330
63
100
AcDbEntity
  8
0
  6
Continuous
 62
     7
100
AcDbLine
 10
-106.999999751652
 20
69.24999989640278
 30
0.0
 11
-89.49999975340646
 21
69.2499998970302
 31
0.0
  0
LINE
  5
2E9
330
63
100
AcDbEntity
  8
0
  6
Continuous
 62
     7
100
AcDbLine
 10
-86.49999975785879
 20
84.01539470889249
 30
0.0
 11
-86.49999975782565
 21
84.64999964096326
 31
0.0
  0
LINE
  5
2EA
330
63
100
AcDbEntity
  8
0
  6
Continuous
 62
     7
100
AcDbLine
 10
-86.49999975862951
 20
69.24999989640278
 30
0.0
 11
-86.49999975856689
 21
70.44999988926995
 31
0.0
  0
LINE
  5
2EB
330
63
100
AcDbEntity
  8
0
  6
Continuous
 62
     7
100
AcDbLine
 10
-86.49999975785879
 20
84.01539470889249
 30
0.0
 11
-86.49999975856689
 21
70.44999988926995
 31
0.0
  0
LINE
  5
2EC
330
63
100
AcDbEntity
  8
0
  6
Continuous
 62
     7
100
AcDbLine
 10
-86.49999975785879
 20
84.01539470889249
 30
0.0
 11
-89.49999975263572
 21
84.01539470889368
 31
0.0
  0
LINE
  5
2ED
330
63
100
AcDbEntity
  8
0
  6
Continuous
 62
     7
100
AcDbLine
 10
-86.49999975782565
 20
84.64999964096326
 30
0.0
 11
-89.49999975260259
 21
84.64999964096444
 31
0.0
  0
LINE
  5
2EE
330
63
100
AcDbEntity
  8
0
  6
Continuous
 62
     7
100
AcDbLine
 10
-86.49999975782565
 20
84.64999964096326
 30
0.0
 11
-86.49999975776302
 21
85.8499994096902
 31
0.0
  0
LINE
  5
2EF
330
63
100
AcDbEntity
  8
0
  6
Continuous
 62
     7
100
AcDbLine
 10
-86.49999975776302
 20
85.8499994096902
 30
0.0
 11
-89.49999975253995
 21
85.84999940980765
 31
0.0
  0
LINE
  5
2F0
330
63
100
AcDbEntity
  8
0
  6
Continuous
 62
     7
100
AcDbLine
 10
-86.49999975776302
 20
85.8499994096902
 30
0.0
 11
-86.49999975770038
 21
87.04999940844687
 31
0.0
  0
LINE
  5
2F1
330
63
100
AcDbEntity
  8
0
  6
Continuous
 62
     7
100
AcDbLine
 10
-86.49999975770038
 20
87.04999940844687
 30
0.0
 11
-89.49999975247731
 21
87.04999940772025
 31
0.0
  0
LINE
  5
2F2
330
63
100
AcDbEntity
  8
0
  6
Continuous
 62
     7
100
AcDbLine
 10
-106.999999751652
 20
87.0499993968073
 30
0.0
 11
-89.49999975247731
 21
87.04999940772025
 31
0.0
  0
LINE
  5
2F3
330
63
100
AcDbEntity
  8
0
  6
Continuous
 62
     7
100
AcDbLine
 10
-106.999999751652
 20
85.84999939857634
 30
0.0
 11
-106.999999751652
 21
87.0499993968073
 31
0.0
  0
LINE
  5
2F4
330
63
100
AcDbEntity
  8
0
  6
Continuous
 62
     7
100
AcDbLine
 10
-106.999999751652
 20
85.84999939857634
 30
0.0
 11
-89.49999975253995
 21
85.84999940980765
 31
0.0
  0
LINE
  5
2F5
330
63
100
AcDbEntity
  8
0
  6
Continuous
 62
     7
100
AcDbLine
 10
-106.999999751652
 20
84.64999963004702
 30
0.0
 11
-106.999999751652
 21
85.84999939857634
 31
0.0
  0
LINE
  5
2F6
330
63
100
AcDbEntity
  8
0
  6
Continuous
 62
     7
100
AcDbLine
 10
-89.49999975260259
 20
84.64999964096444
 30
0.0
 11
-106.999999751652
 21
84.64999963004702
 31
0.0
  0
LINE
  5
2F7
330
63
100
AcDbEntity
  8
0
  6
Continuous
 62
     7
100
AcDbLine
 10
-106.999999751652
 20
84.01539469797602
 30
0.0
 11
-106.999999751652
 21
84.64999963004702
 31
0.0
  0
LINE
  5
2F8
330
63
100
AcDbEntity
  8
0
  6
Continuous
 62
     7
100
AcDbLine
 10
-106.4499997521959
 20
75.57499962971367
 30
0.0
 11
-105.9499997518313
 21
75.57499962977485
 31
0.0
  0
LINE
  5
2F9
330
63
100
AcDbEntity
  8
0
  6
Continuous
 62
     7
100
AcDbLine
 10
-105.9499997517757
 20
75.07499917036853
 30
0.0
 11
-104.0999997521571
 21
75.0749991705949
 31
0.0
  0
LINE
  5
2FA
330
63
100
AcDbEntity
  8
0
  6
Continuous
 62
     7
100
AcDbLine
 10
-105.9499997516477
 20
74.07499962977488
 30
0.0
 11
-105.9499997517757
 21
75.07499917036853
 31
0.0
  0
LINE
  5
2FB
330
63
100
AcDbEntity
  8
0
  6
Continuous
 62
     7
100
AcDbLine
 10
-105.9499997517757
 20
75.07499917036853
 30
0.0
 11
-105.9499997518313
 21
75.57499962977485
 31
0.0
  0
LINE
  5
2FC
330
63
100
AcDbEntity
  8
0
  6
Continuous
 62
     7
100
AcDbLine
 10
-104.0999997521571
 20
75.0749991705949
 30
0.0
 11
-104.099999752032
 21
74.07499963000124
 31
0.0
  0
LINE
  5
2FD
330
63
100
AcDbEntity
  8
0
  6
Continuous
 62
     7
100
AcDbLine
 10
-104.0999997522152
 20
75.57499963000122
 30
0.0
 11
-104.0999997521571
 21
75.0749991705949
 31
0.0
  0
LINE
  5
2FE
330
63
100
AcDbEntity
  8
0
  6
Continuous
 62
     7
100
AcDbLine
 10
-100.5999997522152
 20
75.57499963272946
 30
0.0
 11
-100.5999997521571
 21
75.07499917332314
 31
0.0
  0
LINE
  5
2FF
330
63
100
AcDbEntity
  8
0
  6
Continuous
 62
     7
100
AcDbLine
 10
-104.0999997522152
 20
75.57499963000122
 30
0.0
 11
-103.499999751652
 21
75.57499963007463
 31
0.0
  0
LINE
  5
300
330
63
100
AcDbEntity
  8
0
  6
Continuous
 62
     7
100
AcDbLine
 10
-98.94999975164774
 20
74.07499963523136
 30
0.0
 11
-99.5999997516448
 21
74.07499963515183
 31
0.0
  0
LINE
  5
301
330
63
100
AcDbEntity
  8
0
  6
Continuous
 62
     7
100
AcDbLine
 10
-102.4499997516477
 20
74.07499963250312
 30
0.0
 11
-102.4499997517757
 21
75.07499917309677
 31
0.0
  0
LINE
  5
302
330
63
100
AcDbEntity
  8
0
  6
Continuous
 62
     7
100
AcDbLine
 10
-102.4499997517757
 20
75.07499917309677
 30
0.0
 11
-100.5999997521571
 21
75.07499917332314
 31
0.0
  0
LINE
  5
303
330
63
100
AcDbEntity
  8
0
  6
Continuous
 62
     7
100
AcDbLine
 10
-89.49999975263572
 20
84.01539470889368
 30
0.0
 11
-106.999999751652
 21
84.01539469797602
 31
0.0
  0
LINE
  5
304
330
63
100
AcDbEntity
  8
0
  6
Continuous
 62
     7
100
AcDbLine
 10
-102.9499997526498
 20
81.97499963570267
 30
0.0
 11
-99.99999975165204
 21
81.97499963590846
 31
0.0
  0
LINE
  5
305
330
63
100
AcDbEntity
  8
0
  6
Continuous
 62
     7
100
AcDbLine
 10
-99.99999975165203
 20
75.88970487126112
 30
0.0
 11
-102.9499997522257
 21
75.88970487056275
 31
0.0
  0
LINE
  5
306
330
63
100
AcDbEntity
  8
0
  6
Continuous
 62
     7
100
AcDbLine
 10
-95.94999975095807
 20
81.97499964388739
 30
0.0
 11
-92.99999975165203
 21
81.97499964409317
 31
0.0
  0
LINE
  5
307
330
63
100
AcDbEntity
  8
0
  6
Continuous
 62
     7
100
AcDbLine
 10
-92.99999975165203
 20
75.88970487944583
 30
0.0
 11
-95.94999975053392
 21
75.88970487874747
 31
0.0
  0
LINE
  5
308
330
63
100
AcDbEntity
  8
0
  6
Continuous
 62
     7
100
AcDbLine
 10
-106.4499997526846
 20
82.48569138485169
 30
0.0
 11
-103.499999751652
 21
82.48569138519295
 31
0.0
  0
LINE
  5
309
330
63
100
AcDbEntity
  8
0
  6
Continuous
 62
     7
100
AcDbLine
 10
-106.4499997526498
 20
81.97499963297443
 30
0.0
 11
-103.499999751652
 21
81.97499963318022
 31
0.0
  0
LINE
  5
30A
330
63
100
AcDbEntity
  8
0
  6
Continuous
 62
     7
100
AcDbLine
 10
-104.2749997521035
 20
79.07499963119685
 30
0.0
 11
-105.6749997521311
 21
79.07499963122147
 31
0.0
  0
LINE
  5
30B
330
63
100
AcDbEntity
  8
0
  6
Continuous
 62
     7
100
AcDbLine
 10
-104.4749997521185
 20
78.87499963150921
 30
0.0
 11
-105.4749997521183
 21
78.8749996315268
 31
0.0
  0
LINE
  5
30C
330
63
100
AcDbEntity
  8
0
  6
Continuous
 62
     7
100
AcDbLine
 10
-106.4499997526846
 20
82.48569138485169
 30
0.0
 11
-106.4499997526498
 21
81.97499963297443
 31
0.0
  0
LINE
  5
30D
330
63
100
AcDbEntity
  8
0
  6
Continuous
 62
     7
100
AcDbLine
 10
-106.4499997522257
 20
75.88970486783451
 30
0.0
 11
-106.4499997521959
 21
75.57499962971367
 31
0.0
  0
LINE
  5
30E
330
63
100
AcDbEntity
  8
0
  6
Continuous
 62
     7
100
AcDbLine
 10
-106.4499997526498
 20
81.97499963297443
 30
0.0
 11
-106.4499997522257
 21
75.88970486783451
 31
0.0
  0
LINE
  5
30F
330
63
100
AcDbEntity
  8
0
  6
Continuous
 62
     7
100
AcDbLine
 10
-105.4749997521218
 20
78.67499963154158
 30
0.0
 11
-104.474999752122
 21
78.67499963152399
 31
0.0
  0
LINE
  5
310
330
63
100
AcDbEntity
  8
0
  6
Continuous
 62
     7
100
AcDbLine
 10
-104.474999752122
 20
78.67499963152399
 30
0.0
 11
-104.4749997521185
 21
78.87499963150921
 31
0.0
  0
LINE
  5
311
330
63
100
AcDbEntity
  8
0
  6
Continuous
 62
     7
100
AcDbLine
 10
-104.274999752128
 20
78.47499963119776
 30
0.0
 11
-104.2749997521035
 21
79.07499963119685
 31
0.0
  0
LINE
  5
312
330
63
100
AcDbEntity
  8
0
  6
Continuous
 62
     7
100
AcDbLine
 10
-103.499999751652
 20
75.88970486853287
 30
0.0
 11
-106.4499997522257
 21
75.88970486783451
 31
0.0
  0
LINE
  5
313
330
63
100
AcDbEntity
  8
0
  6
Continuous
 62
     7
100
AcDbLine
 10
-105.6749997521278
 20
78.4749996312224
 30
0.0
 11
-104.274999752128
 21
78.47499963119776
 31
0.0
  0
LINE
  5
314
330
63
100
AcDbEntity
  8
0
  6
Continuous
 62
     7
100
AcDbLine
 10
-105.4749997521183
 20
78.8749996315268
 30
0.0
 11
-105.4749997521218
 21
78.67499963154158
 31
0.0
  0
LINE
  5
315
330
63
100
AcDbEntity
  8
0
  6
Continuous
 62
     7
100
AcDbLine
 10
-105.6749997521278
 20
78.4749996312224
 30
0.0
 11
-105.6749997521311
 21
79.07499963122147
 31
0.0
  0
LINE
  5
316
330
63
100
AcDbEntity
  8
0
  6
Continuous
 62
     7
100
AcDbLine
 10
-103.499999751652
 20
81.97499963318022
 30
0.0
 11
-103.499999751652
 21
82.48569138519295
 31
0.0
  0
LINE
  5
317
330
63
100
AcDbEntity
  8
0
  6
Continuous
 62
     7
100
AcDbLine
 10
-103.499999751652
 20
75.57499963007463
 30
0.0
 11
-103.499999751652
 21
75.88970486853287
 31
0.0
  0
LINE
  5
318
330
63
100
AcDbEntity
  8
0
  6
Continuous
 62
     7
100
AcDbLine
 10
-100.5999997522152
 20
75.57499963272946
 30
0.0
 11
-99.99999975165203
 21
75.57499963280287
 31
0.0
  0
LINE
  5
319
330
63
100
AcDbEntity
  8
0
  6
Continuous
 62
     7
100
AcDbLine
 10
-102.9499997521959
 20
75.57499963244192
 30
0.0
 11
-102.4499997518313
 21
75.5749996325031
 31
0.0
  0
LINE
  5
31A
330
63
100
AcDbEntity
  8
0
  6
Continuous
 62
     7
100
AcDbLine
 10
-103.499999751652
 20
75.88970486853287
 30
0.0
 11
-103.499999751652
 21
81.97499963318022
 31
0.0
  0
LINE
  5
31B
330
63
100
AcDbEntity
  8
0
  6
Continuous
 62
     7
100
AcDbLine
 10
-104.2749997521035
 20
79.07499963119685
 30
0.0
 11
-104.4749997521185
 21
78.87499963150921
 31
0.0
  0
LINE
  5
31C
330
63
100
AcDbEntity
  8
0
  6
Continuous
 62
     7
100
AcDbLine
 10
-105.6749997521311
 20
79.07499963122147
 30
0.0
 11
-105.4749997521183
 21
78.8749996315268
 31
0.0
  0
LINE
  5
31D
330
63
100
AcDbEntity
  8
0
  6
Continuous
 62
     7
100
AcDbLine
 10
-105.9499997516477
 20
74.07499962977488
 30
0.0
 11
-106.5999997516448
 21
74.07499962969536
 31
0.0
  0
LINE
  5
31E
330
63
100
AcDbEntity
  8
0
  6
Continuous
 62
     7
100
AcDbLine
 10
-102.4499997516477
 20
74.07499963250312
 30
0.0
 11
-103.0999997516448
 21
74.0749996324236
 31
0.0
  0
LINE
  5
31F
330
63
100
AcDbEntity
  8
0
  6
Continuous
 62
     7
100
AcDbLine
 10
-100.399999751648
 20
74.07499963275396
 30
0.0
 11
-100.599999752032
 21
74.07499963272949
 31
0.0
  0
LINE
  5
320
330
63
100
AcDbEntity
  8
0
  6
Continuous
 62
     7
100
AcDbLine
 10
-103.0999997516448
 20
74.0749996324236
 30
0.0
 11
-103.0999997514552
 21
72.52499963242357
 31
0.0
  0
LINE
  5
321
330
63
100
AcDbEntity
  8
0
  6
Continuous
 62
     7
100
AcDbLine
 10
-106.5999997516448
 20
74.07499962969536
 30
0.0
 11
-106.5999997514552
 21
72.52499962969534
 31
0.0
  0
LINE
  5
322
330
63
100
AcDbEntity
  8
0
  6
Continuous
 62
     7
100
AcDbLine
 10
-100.3999997514583
 20
72.52499963275395
 30
0.0
 11
-100.399999751648
 21
74.07499963275396
 31
0.0
  0
LINE
  5
323
330
63
100
AcDbEntity
  8
0
  6
Continuous
 62
     7
100
AcDbLine
 10
-102.9499997526846
 20
82.48569138757992
 30
0.0
 11
-99.99999975165203
 21
82.48569138792118
 31
0.0
  0
LINE
  5
324
330
63
100
AcDbEntity
  8
0
  6
Continuous
 62
     7
100
AcDbLine
 10
-99.99999975165203
 20
75.57499963280287
 30
0.0
 11
-99.99999975165203
 21
75.88970487126112
 31
0.0
  0
LINE
  5
325
330
63
100
AcDbEntity
  8
0
  6
Continuous
 62
     7
100
AcDbLine
 10
-99.99999975165204
 20
81.97499963590846
 30
0.0
 11
-99.99999975165203
 21
82.48569138792118
 31
0.0
  0
LINE
  5
326
330
63
100
AcDbEntity
  8
0
  6
Continuous
 62
     7
100
AcDbLine
 10
-99.99999975165203
 20
75.88970487126112
 30
0.0
 11
-99.99999975165204
 21
81.97499963590846
 31
0.0
  0
LINE
  5
327
330
63
100
AcDbEntity
  8
0
  6
Continuous
 62
     7
100
AcDbLine
 10
-101.9749997521183
 20
78.87499963425505
 30
0.0
 11
-101.9749997521218
 21
78.67499963426982
 31
0.0
  0
LINE
  5
328
330
63
100
AcDbEntity
  8
0
  6
Continuous
 62
     7
100
AcDbLine
 10
-102.1749997521311
 20
79.07499963394972
 30
0.0
 11
-101.9749997521183
 21
78.87499963425505
 31
0.0
  0
LINE
  5
329
330
63
100
AcDbEntity
  8
0
  6
Continuous
 62
     7
100
AcDbLine
 10
-100.774999752128
 20
78.474999633926
 30
0.0
 11
-100.7749997521035
 21
79.07499963392507
 31
0.0
  0
LINE
  5
32A
330
63
100
AcDbEntity
  8
0
  6
Continuous
 62
     7
100
AcDbLine
 10
-102.9499997526846
 20
82.48569138757992
 30
0.0
 11
-102.9499997526498
 21
81.97499963570267
 31
0.0
  0
LINE
  5
32B
330
63
100
AcDbEntity
  8
0
  6
Continuous
 62
     7
100
AcDbLine
 10
-102.9499997522257
 20
75.88970487056275
 30
0.0
 11
-102.9499997521959
 21
75.57499963244192
 31
0.0
  0
LINE
  5
32C
330
63
100
AcDbEntity
  8
0
  6
Continuous
 62
     7
100
AcDbLine
 10
-102.9499997526498
 20
81.97499963570267
 30
0.0
 11
-102.9499997522257
 21
75.88970487056275
 31
0.0
  0
LINE
  5
32D
330
63
100
AcDbEntity
  8
0
  6
Continuous
 62
     7
100
AcDbLine
 10
-100.7749997521035
 20
79.07499963392507
 30
0.0
 11
-102.1749997521311
 21
79.07499963394972
 31
0.0
  0
LINE
  5
32E
330
63
100
AcDbEntity
  8
0
  6
Continuous
 62
     7
100
AcDbLine
 10
-100.9749997521185
 20
78.87499963423745
 30
0.0
 11
-101.9749997521183
 21
78.87499963425505
 31
0.0
  0
LINE
  5
32F
330
63
100
AcDbEntity
  8
0
  6
Continuous
 62
     7
100
AcDbLine
 10
-102.1749997521278
 20
78.47499963395063
 30
0.0
 11
-102.1749997521311
 21
79.07499963394972
 31
0.0
  0
LINE
  5
330
330
63
100
AcDbEntity
  8
0
  6
Continuous
 62
     7
100
AcDbLine
 10
-101.9749997521218
 20
78.67499963426982
 30
0.0
 11
-100.974999752122
 21
78.67499963425222
 31
0.0
  0
LINE
  5
331
330
63
100
AcDbEntity
  8
0
  6
Continuous
 62
     7
100
AcDbLine
 10
-100.974999752122
 20
78.67499963425222
 30
0.0
 11
-100.9749997521185
 21
78.87499963423745
 31
0.0
  0
LINE
  5
332
330
63
100
AcDbEntity
  8
0
  6
Continuous
 62
     7
100
AcDbLine
 10
-100.7749997521035
 20
79.07499963392507
 30
0.0
 11
-100.9749997521185
 21
78.87499963423745
 31
0.0
  0
LINE
  5
333
330
63
100
AcDbEntity
  8
0
  6
Continuous
 62
     7
100
AcDbLine
 10
-102.1749997521278
 20
78.47499963395063
 30
0.0
 11
-100.774999752128
 21
78.474999633926
 31
0.0
  0
LINE
  5
334
330
63
100
AcDbEntity
  8
0
  6
Continuous
 62
     7
100
AcDbLine
 10
-100.5999997521571
 20
75.07499917332314
 30
0.0
 11
-100.599999752032
 21
74.07499963272949
 31
0.0
  0
LINE
  5
335
330
63
100
AcDbEntity
  8
0
  6
Continuous
 62
     7
100
AcDbLine
 10
-102.4499997517757
 20
75.07499917309677
 30
0.0
 11
-102.4499997518313
 21
75.5749996325031
 31
0.0
  0
LINE
  5
336
330
63
100
AcDbEntity
  8
0
  6
Continuous
 62
     7
100
AcDbLine
 10
-100.974999752122
 20
78.67499963425222
 30
0.0
 11
-100.774999752128
 21
78.474999633926
 31
0.0
  0
LINE
  5
337
330
63
100
AcDbEntity
  8
0
  6
Continuous
 62
     7
100
AcDbLine
 10
-96.89999975145831
 20
72.52499963548217
 30
0.0
 11
-99.59999975145516
 21
72.52499963515181
 31
0.0
  0
LINE
  5
338
330
63
100
AcDbEntity
  8
0
  6
Continuous
 62
     7
100
AcDbLine
 10
-103.8999997514583
 20
72.5249996300257
 30
0.0
 11
-106.5999997514552
 21
72.52499962969534
 31
0.0
  0
LINE
  5
339
330
63
100
AcDbEntity
  8
0
  6
Continuous
 62
     7
100
AcDbLine
 10
-99.5999997516448
 20
74.07499963515183
 30
0.0
 11
-99.59999975145516
 21
72.52499963515181
 31
0.0
  0
LINE
  5
33A
330
63
100
AcDbEntity
  8
0
  6
Continuous
 62
     7
100
AcDbLine
 10
-103.899999751648
 20
74.07499963002572
 30
0.0
 11
-104.099999752032
 21
74.07499963000124
 31
0.0
  0
LINE
  5
33B
330
63
100
AcDbEntity
  8
0
  6
Continuous
 62
     7
100
AcDbLine
 10
-100.3999997514583
 20
72.52499963275395
 30
0.0
 11
-103.0999997514552
 21
72.52499963242357
 31
0.0
  0
LINE
  5
33C
330
63
100
AcDbEntity
  8
0
  6
Continuous
 62
     7
100
AcDbLine
 10
-103.8999997514583
 20
72.5249996300257
 30
0.0
 11
-103.899999751648
 21
74.07499963002572
 31
0.0
  0
LINE
  5
33D
330
63
100
AcDbEntity
  8
0
  6
Continuous
 62
     7
100
AcDbLine
 10
-94.97499975043002
 20
78.67499964245454
 30
0.0
 11
-93.97499975043019
 21
78.67499964243694
 31
0.0
  0
LINE
  5
33E
330
63
100
AcDbEntity
  8
0
  6
Continuous
 62
     7
100
AcDbLine
 10
-95.17499975043603
 20
78.47499964213536
 30
0.0
 11
-93.7749997504362
 21
78.47499964211072
 31
0.0
  0
LINE
  5
33F
330
63
100
AcDbEntity
  8
0
  6
Continuous
 62
     7
100
AcDbLine
 10
-95.44999975008392
 20
75.07499918128148
 30
0.0
 11
-93.59999975046532
 21
75.07499918150785
 31
0.0
  0
LINE
  5
340
330
63
100
AcDbEntity
  8
0
  6
Continuous
 62
     7
100
AcDbLine
 10
-94.97499975042649
 20
78.87499964243976
 30
0.0
 11
-94.97499975043002
 21
78.67499964245454
 31
0.0
  0
LINE
  5
341
330
63
100
AcDbEntity
  8
0
  6
Continuous
 62
     7
100
AcDbLine
 10
-95.17499975043603
 20
78.47499964213536
 30
0.0
 11
-95.17499975043933
 21
79.07499964213443
 31
0.0
  0
LINE
  5
342
330
63
100
AcDbEntity
  8
0
  6
Continuous
 62
     7
100
AcDbLine
 10
-95.17499975043933
 20
79.07499964213443
 30
0.0
 11
-94.97499975042649
 21
78.87499964243976
 31
0.0
  0
LINE
  5
343
330
63
100
AcDbEntity
  8
0
  6
Continuous
 62
     7
100
AcDbLine
 10
-93.97499975042666
 20
78.87499964242217
 30
0.0
 11
-94.97499975042649
 21
78.87499964243976
 31
0.0
  0
LINE
  5
344
330
63
100
AcDbEntity
  8
0
  6
Continuous
 62
     7
100
AcDbLine
 10
-93.97499975043019
 20
78.67499964243694
 30
0.0
 11
-93.97499975042666
 21
78.87499964242217
 31
0.0
  0
LINE
  5
345
330
63
100
AcDbEntity
  8
0
  6
Continuous
 62
     7
100
AcDbLine
 10
-93.77499975041175
 20
79.0749996421098
 30
0.0
 11
-95.17499975043933
 21
79.07499964213443
 31
0.0
  0
LINE
  5
346
330
63
100
AcDbEntity
  8
0
  6
Continuous
 62
     7
100
AcDbLine
 10
-93.77499975041175
 20
79.0749996421098
 30
0.0
 11
-93.97499975042666
 21
78.87499964242217
 31
0.0
  0
LINE
  5
347
330
63
100
AcDbEntity
  8
0
  6
Continuous
 62
     7
100
AcDbLine
 10
-93.7749997504362
 20
78.47499964211072
 30
0.0
 11
-93.77499975041175
 21
79.0749996421098
 31
0.0
  0
LINE
  5
348
330
63
100
AcDbEntity
  8
0
  6
Continuous
 62
     7
100
AcDbLine
 10
-92.99999975165203
 20
81.97499964409317
 30
0.0
 11
-92.99999975165203
 21
82.4856913961059
 31
0.0
  0
LINE
  5
349
330
63
100
AcDbEntity
  8
0
  6
Continuous
 62
     7
100
AcDbLine
 10
-92.99999975165203
 20
75.57499964098758
 30
0.0
 11
-92.99999975165203
 21
75.88970487944583
 31
0.0
  0
LINE
  5
34A
330
63
100
AcDbEntity
  8
0
  6
Continuous
 62
     7
100
AcDbLine
 10
-92.99999975165203
 20
75.88970487944583
 30
0.0
 11
-92.99999975165203
 21
81.97499964409317
 31
0.0
  0
LINE
  5
34B
330
63
100
AcDbEntity
  8
0
  6
Continuous
 62
     7
100
AcDbLine
 10
-95.94999975099284
 20
82.48569139576463
 30
0.0
 11
-92.99999975165203
 21
82.4856913961059
 31
0.0
  0
LINE
  5
34C
330
63
100
AcDbEntity
  8
0
  6
Continuous
 62
     7
100
AcDbLine
 10
-89.49999975271557
 20
82.48569139610636
 30
0.0
 11
-89.49999975274221
 21
81.97499964409317
 31
0.0
  0
LINE
  5
34D
330
63
100
AcDbEntity
  8
0
  6
Continuous
 62
     7
100
AcDbLine
 10
-89.49999975274221
 20
81.97499964409317
 30
0.0
 11
-89.49999975305985
 21
75.88970487944584
 31
0.0
  0
LINE
  5
34E
330
63
100
AcDbEntity
  8
0
  6
Continuous
 62
     7
100
AcDbLine
 10
-92.44999975264983
 20
81.97499964388739
 30
0.0
 11
-89.49999975274221
 21
81.97499964409317
 31
0.0
  0
LINE
  5
34F
330
63
100
AcDbEntity
  8
0
  6
Continuous
 62
     7
100
AcDbLine
 10
-92.44999975268462
 20
82.48569139576465
 30
0.0
 11
-89.49999975271557
 21
82.48569139610636
 31
0.0
  0
LINE
  5
350
330
63
100
AcDbEntity
  8
0
  6
Continuous
 62
     7
100
AcDbLine
 10
-89.49999975305985
 20
75.88970487944584
 30
0.0
 11
-92.4499997522257
 21
75.88970487874747
 31
0.0
  0
LINE
  5
351
330
63
100
AcDbEntity
  8
0
  6
Continuous
 62
     7
100
AcDbLine
 10
-89.49999975305985
 20
75.88970487944584
 30
0.0
 11
-89.49999975307628
 21
75.57499964098758
 31
0.0
  0
LINE
  5
352
330
63
100
AcDbEntity
  8
0
  6
Continuous
 62
     7
100
AcDbLine
 10
-92.44999975268462
 20
82.48569139576465
 30
0.0
 11
-92.44999975264983
 21
81.97499964388739
 31
0.0
  0
LINE
  5
353
330
63
100
AcDbEntity
  8
0
  6
Continuous
 62
     7
100
AcDbLine
 10
-92.4499997522257
 20
75.88970487874747
 30
0.0
 11
-92.4499997521959
 21
75.57499964062663
 31
0.0
  0
LINE
  5
354
330
63
100
AcDbEntity
  8
0
  6
Continuous
 62
     7
100
AcDbLine
 10
-92.44999975264983
 20
81.97499964388739
 30
0.0
 11
-92.4499997522257
 21
75.88970487874747
 31
0.0
  0
LINE
  5
355
330
63
100
AcDbEntity
  8
0
  6
Continuous
 62
     7
100
AcDbLine
 10
-90.27499975212797
 20
78.47499964211072
 30
0.0
 11
-90.27499975210354
 21
79.0749996421098
 31
0.0
  0
LINE
  5
356
330
63
100
AcDbEntity
  8
0
  6
Continuous
 62
     7
100
AcDbLine
 10
-91.6749997521278
 20
78.47499964213536
 30
0.0
 11
-90.27499975212797
 21
78.47499964211072
 31
0.0
  0
LINE
  5
357
330
63
100
AcDbEntity
  8
0
  6
Continuous
 62
     7
100
AcDbLine
 10
-91.6749997521278
 20
78.47499964213536
 30
0.0
 11
-91.6749997521311
 21
79.07499964213443
 31
0.0
  0
LINE
  5
358
330
63
100
AcDbEntity
  8
0
  6
Continuous
 62
     7
100
AcDbLine
 10
-91.4749997521218
 20
78.67499964245454
 30
0.0
 11
-90.47499975212196
 21
78.67499964243694
 31
0.0
  0
LINE
  5
359
330
63
100
AcDbEntity
  8
0
  6
Continuous
 62
     7
100
AcDbLine
 10
-90.47499975212196
 20
78.67499964243694
 30
0.0
 11
-90.47499975211844
 21
78.87499964242217
 31
0.0
  0
LINE
  5
35A
330
63
100
AcDbEntity
  8
0
  6
Continuous
 62
     7
100
AcDbLine
 10
-90.47499975211844
 20
78.87499964242217
 30
0.0
 11
-91.47499975211828
 21
78.87499964243976
 31
0.0
  0
LINE
  5
35B
330
63
100
AcDbEntity
  8
0
  6
Continuous
 62
     7
100
AcDbLine
 10
-90.27499975210354
 20
79.0749996421098
 30
0.0
 11
-91.6749997521311
 21
79.07499964213443
 31
0.0
  0
LINE
  5
35C
330
63
100
AcDbEntity
  8
0
  6
Continuous
 62
     7
100
AcDbLine
 10
-91.47499975211828
 20
78.87499964243976
 30
0.0
 11
-91.4749997521218
 21
78.67499964245454
 31
0.0
  0
LINE
  5
35D
330
63
100
AcDbEntity
  8
0
  6
Continuous
 62
     7
100
AcDbLine
 10
-92.4499997521959
 20
75.57499964062663
 30
0.0
 11
-91.94999975183131
 21
75.5749996406878
 31
0.0
  0
LINE
  5
35E
330
63
100
AcDbEntity
  8
0
  6
Continuous
 62
     7
100
AcDbLine
 10
-91.94999975177569
 20
75.07499918128148
 30
0.0
 11
-91.94999975183131
 21
75.5749996406878
 31
0.0
  0
LINE
  5
35F
330
63
100
AcDbEntity
  8
0
  6
Continuous
 62
     7
100
AcDbLine
 10
-90.09999975215709
 20
75.07499918150785
 30
0.0
 11
-90.099999752032
 21
74.0749996409142
 31
0.0
  0
LINE
  5
360
330
63
100
AcDbEntity
  8
0
  6
Continuous
 62
     7
100
AcDbLine
 10
-89.89999975164797
 20
74.07499964093867
 30
0.0
 11
-90.099999752032
 21
74.0749996409142
 31
0.0
  0
LINE
  5
361
330
63
100
AcDbEntity
  8
0
  6
Continuous
 62
     7
100
AcDbLine
 10
-90.09999975221521
 20
75.57499964091417
 30
0.0
 11
-89.49999975307628
 21
75.57499964098758
 31
0.0
  0
LINE
  5
362
330
63
100
AcDbEntity
  8
0
  6
Continuous
 62
     7
100
AcDbLine
 10
-89.89999975145832
 20
72.52499964093866
 30
0.0
 11
-89.89999975164797
 21
74.07499964093867
 31
0.0
  0
LINE
  5
363
330
63
100
AcDbEntity
  8
0
  6
Continuous
 62
     7
100
AcDbLine
 10
-90.27499975210354
 20
79.0749996421098
 30
0.0
 11
-90.47499975211844
 21
78.87499964242217
 31
0.0
  0
LINE
  5
364
330
63
100
AcDbEntity
  8
0
  6
Continuous
 62
     7
100
AcDbLine
 10
-91.6749997521311
 20
79.07499964213443
 30
0.0
 11
-91.47499975211828
 21
78.87499964243976
 31
0.0
  0
LINE
  5
365
330
63
100
AcDbEntity
  8
0
  6
Continuous
 62
     7
100
AcDbLine
 10
-90.47499975212196
 20
78.67499964243694
 30
0.0
 11
-90.27499975212797
 21
78.47499964211072
 31
0.0
  0
LINE
  5
366
330
63
100
AcDbEntity
  8
0
  6
Continuous
 62
     7
100
AcDbLine
 10
-93.97499975043019
 20
78.67499964243694
 30
0.0
 11
-93.7749997504362
 21
78.47499964211072
 31
0.0
  0
LINE
  5
367
330
63
100
AcDbEntity
  8
0
  6
Continuous
 62
     7
100
AcDbLine
 10
-91.4749997521218
 20
78.67499964245454
 30
0.0
 11
-91.6749997521278
 21
78.47499964213536
 31
0.0
  0
LINE
  5
368
330
63
100
AcDbEntity
  8
0
  6
Continuous
 62
     7
100
AcDbLine
 10
-104.474999752122
 20
78.67499963152399
 30
0.0
 11
-104.274999752128
 21
78.47499963119776
 31
0.0
  0
LINE
  5
369
330
63
100
AcDbEntity
  8
0
  6
Continuous
 62
     7
100
AcDbLine
 10
-105.4749997521218
 20
78.67499963154158
 30
0.0
 11
-105.6749997521278
 21
78.4749996312224
 31
0.0
  0
LINE
  5
36A
330
63
100
AcDbEntity
  8
0
  6
Continuous
 62
     7
100
AcDbLine
 10
-101.9749997521218
 20
78.67499963426982
 30
0.0
 11
-102.1749997521278
 21
78.47499963395063
 31
0.0
  0
LINE
  5
36B
330
63
100
AcDbEntity
  8
0
  6
Continuous
 62
     7
100
AcDbLine
 10
-93.39999974976655
 20
72.52499964093866
 30
0.0
 11
-96.09999974976337
 21
72.5249996406083
 31
0.0
  0
LINE
  5
36C
330
63
100
AcDbEntity
  8
0
  6
Continuous
 62
     7
100
AcDbLine
 10
-93.59999975052344
 20
75.57499964091417
 30
0.0
 11
-93.59999975046532
 21
75.07499918150785
 31
0.0
  0
LINE
  5
36D
330
63
100
AcDbEntity
  8
0
  6
Continuous
 62
     7
100
AcDbLine
 10
-93.59999975046532
 20
75.07499918150785
 30
0.0
 11
-93.59999975034023
 21
74.0749996409142
 31
0.0
  0
LINE
  5
36E
330
63
100
AcDbEntity
  8
0
  6
Continuous
 62
     7
100
AcDbLine
 10
-93.39999974995618
 20
74.07499964093867
 30
0.0
 11
-93.59999975034023
 21
74.0749996409142
 31
0.0
  0
LINE
  5
36F
330
63
100
AcDbEntity
  8
0
  6
Continuous
 62
     7
100
AcDbLine
 10
-93.39999974976655
 20
72.52499964093866
 30
0.0
 11
-93.39999974995618
 21
74.07499964093867
 31
0.0
  0
LINE
  5
370
330
63
100
AcDbEntity
  8
0
  6
Continuous
 62
     7
100
AcDbLine
 10
-90.09999975221521
 20
75.57499964091417
 30
0.0
 11
-90.09999975215709
 21
75.07499918150785
 31
0.0
  0
LINE
  5
371
330
63
100
AcDbEntity
  8
0
  6
Continuous
 62
     7
100
AcDbLine
 10
-91.94999975164774
 20
74.07499964068785
 30
0.0
 11
-91.94999975177569
 21
75.07499918128148
 31
0.0
  0
LINE
  5
372
330
63
100
AcDbEntity
  8
0
  6
Continuous
 62
     7
100
AcDbLine
 10
-93.59999975052344
 20
75.57499964091417
 30
0.0
 11
-92.99999975165203
 21
75.57499964098758
 31
0.0
  0
LINE
  5
373
330
63
100
AcDbEntity
  8
0
  6
Continuous
 62
     7
100
AcDbLine
 10
-91.94999975164774
 20
74.07499964068785
 30
0.0
 11
-92.5999997516448
 21
74.07499964060831
 31
0.0
  0
LINE
  5
374
330
63
100
AcDbEntity
  8
0
  6
Continuous
 62
     7
100
AcDbLine
 10
-89.89999975145832
 20
72.52499964093866
 30
0.0
 11
-92.59999975145516
 21
72.5249996406083
 31
0.0
  0
LINE
  5
375
330
63
100
AcDbEntity
  8
0
  6
Continuous
 62
     7
100
AcDbLine
 10
-92.5999997516448
 20
74.07499964060831
 30
0.0
 11
-92.59999975145516
 21
72.5249996406083
 31
0.0
  0
LINE
  5
376
330
63
100
AcDbEntity
  8
0
  6
Continuous
 62
     7
100
AcDbLine
 10
-91.94999975177569
 20
75.07499918128148
 30
0.0
 11
-90.09999975215709
 21
75.07499918150785
 31
0.0
  0
LINE
  5
377
330
63
100
AcDbEntity
  8
0
  6
Continuous
 62
     7
100
AcDbLine
 10
-99.44999975268462
 20
82.48569139030816
 30
0.0
 11
-96.49999974996027
 21
82.48569139064942
 31
0.0
  0
LINE
  5
378
330
63
100
AcDbEntity
  8
0
  6
Continuous
 62
     7
100
AcDbLine
 10
-99.44999975264984
 20
81.97499963843092
 30
0.0
 11
-96.49999974996027
 21
81.9749996386367
 31
0.0
  0
LINE
  5
379
330
63
100
AcDbEntity
  8
0
  6
Continuous
 62
     7
100
AcDbLine
 10
-96.49999974996027
 20
81.9749996386367
 30
0.0
 11
-96.49999974996027
 21
82.48569139064942
 31
0.0
  0
LINE
  5
37A
330
63
100
AcDbEntity
  8
0
  6
Continuous
 62
     7
100
AcDbLine
 10
-96.49999974996025
 20
75.5749996355311
 30
0.0
 11
-96.49999974996025
 21
75.88970487398936
 31
0.0
  0
LINE
  5
37B
330
63
100
AcDbEntity
  8
0
  6
Continuous
 62
     7
100
AcDbLine
 10
-96.49999974996025
 20
75.88970487398936
 30
0.0
 11
-96.49999974996027
 21
81.9749996386367
 31
0.0
  0
LINE
  5
37C
330
63
100
AcDbEntity
  8
0
  6
Continuous
 62
     7
100
AcDbLine
 10
-97.47499975211844
 20
78.8749996369657
 30
0.0
 11
-98.47499975211828
 21
78.87499963698329
 31
0.0
  0
LINE
  5
37D
330
63
100
AcDbEntity
  8
0
  6
Continuous
 62
     7
100
AcDbLine
 10
-97.27499975210354
 20
79.07499963665332
 30
0.0
 11
-98.67499975213111
 21
79.07499963667794
 31
0.0
  0
LINE
  5
37E
330
63
100
AcDbEntity
  8
0
  6
Continuous
 62
     7
100
AcDbLine
 10
-98.4749997521218
 20
78.67499963699805
 30
0.0
 11
-97.47499975212196
 21
78.67499963698046
 31
0.0
  0
LINE
  5
37F
330
63
100
AcDbEntity
  8
0
  6
Continuous
 62
     7
100
AcDbLine
 10
-98.6749997521278
 20
78.47499963667887
 30
0.0
 11
-97.27499975212797
 21
78.47499963665425
 31
0.0
  0
LINE
  5
380
330
63
100
AcDbEntity
  8
0
  6
Continuous
 62
     7
100
AcDbLine
 10
-97.47499975212196
 20
78.67499963698046
 30
0.0
 11
-97.47499975211844
 21
78.8749996369657
 31
0.0
  0
LINE
  5
381
330
63
100
AcDbEntity
  8
0
  6
Continuous
 62
     7
100
AcDbLine
 10
-97.27499975210354
 20
79.07499963665332
 30
0.0
 11
-97.47499975211844
 21
78.8749996369657
 31
0.0
  0
LINE
  5
382
330
63
100
AcDbEntity
  8
0
  6
Continuous
 62
     7
100
AcDbLine
 10
-97.47499975212196
 20
78.67499963698046
 30
0.0
 11
-97.27499975212797
 21
78.47499963665425
 31
0.0
  0
LINE
  5
383
330
63
100
AcDbEntity
  8
0
  6
Continuous
 62
     7
100
AcDbLine
 10
-97.27499975212797
 20
78.47499963665425
 30
0.0
 11
-97.27499975210354
 21
79.07499963665332
 31
0.0
  0
LINE
  5
384
330
63
100
AcDbEntity
  8
0
  6
Continuous
 62
     7
100
AcDbLine
 10
-96.49999974996025
 20
75.88970487398936
 30
0.0
 11
-99.4499997522257
 21
75.889704873291
 31
0.0
  0
LINE
  5
385
330
63
100
AcDbEntity
  8
0
  6
Continuous
 62
     7
100
AcDbLine
 10
-98.47499975211828
 20
78.87499963698329
 30
0.0
 11
-98.4749997521218
 21
78.67499963699805
 31
0.0
  0
LINE
  5
386
330
63
100
AcDbEntity
  8
0
  6
Continuous
 62
     7
100
AcDbLine
 10
-98.67499975213111
 20
79.07499963667794
 30
0.0
 11
-98.47499975211828
 21
78.87499963698329
 31
0.0
  0
LINE
  5
387
330
63
100
AcDbEntity
  8
0
  6
Continuous
 62
     7
100
AcDbLine
 10
-98.6749997521278
 20
78.47499963667887
 30
0.0
 11
-98.67499975213111
 21
79.07499963667794
 31
0.0
  0
LINE
  5
388
330
63
100
AcDbEntity
  8
0
  6
Continuous
 62
     7
100
AcDbLine
 10
-99.44999975268462
 20
82.48569139030816
 30
0.0
 11
-99.44999975264984
 21
81.97499963843092
 31
0.0
  0
LINE
  5
389
330
63
100
AcDbEntity
  8
0
  6
Continuous
 62
     7
100
AcDbLine
 10
-99.4499997522257
 20
75.889704873291
 30
0.0
 11
-99.4499997521959
 21
75.57499963517016
 31
0.0
  0
LINE
  5
38A
330
63
100
AcDbEntity
  8
0
  6
Continuous
 62
     7
100
AcDbLine
 10
-99.44999975264984
 20
81.97499963843092
 30
0.0
 11
-99.4499997522257
 21
75.889704873291
 31
0.0
  0
LINE
  5
38B
330
63
100
AcDbEntity
  8
0
  6
Continuous
 62
     7
100
AcDbLine
 10
-95.94999975099284
 20
82.48569139576463
 30
0.0
 11
-95.94999975095807
 21
81.97499964388739
 31
0.0
  0
LINE
  5
38C
330
63
100
AcDbEntity
  8
0
  6
Continuous
 62
     7
100
AcDbLine
 10
-95.94999975053392
 20
75.88970487874747
 30
0.0
 11
-95.9499997505041
 21
75.57499964062663
 31
0.0
  0
LINE
  5
38D
330
63
100
AcDbEntity
  8
0
  6
Continuous
 62
     7
100
AcDbLine
 10
-95.94999975095807
 20
81.97499964388739
 30
0.0
 11
-95.94999975053392
 21
75.88970487874747
 31
0.0
  0
LINE
  5
38E
330
63
100
AcDbEntity
  8
0
  6
Continuous
 62
     7
100
AcDbLine
 10
-95.9499997505041
 20
75.57499964062663
 30
0.0
 11
-95.44999975013954
 21
75.5749996406878
 31
0.0
  0
LINE
  5
38F
330
63
100
AcDbEntity
  8
0
  6
Continuous
 62
     7
100
AcDbLine
 10
-98.94999975177569
 20
75.07499917582501
 30
0.0
 11
-97.09999975215709
 21
75.07499917605138
 31
0.0
  0
LINE
  5
390
330
63
100
AcDbEntity
  8
0
  6
Continuous
 62
     7
100
AcDbLine
 10
-97.09999975221521
 20
75.57499963545769
 30
0.0
 11
-97.09999975215709
 21
75.07499917605138
 31
0.0
  0
LINE
  5
391
330
63
100
AcDbEntity
  8
0
  6
Continuous
 62
     7
100
AcDbLine
 10
-97.09999975215709
 20
75.07499917605138
 30
0.0
 11
-97.099999752032
 21
74.07499963545773
 31
0.0
  0
LINE
  5
392
330
63
100
AcDbEntity
  8
0
  6
Continuous
 62
     7
100
AcDbLine
 10
-99.4499997521959
 20
75.57499963517016
 30
0.0
 11
-98.9499997518313
 21
75.57499963523134
 31
0.0
  0
LINE
  5
393
330
63
100
AcDbEntity
  8
0
  6
Continuous
 62
     7
100
AcDbLine
 10
-98.94999975177569
 20
75.07499917582501
 30
0.0
 11
-98.9499997518313
 21
75.57499963523134
 31
0.0
  0
LINE
  5
394
330
63
100
AcDbEntity
  8
0
  6
Continuous
 62
     7
100
AcDbLine
 10
-98.94999975164774
 20
74.07499963523136
 30
0.0
 11
-98.94999975177569
 21
75.07499917582501
 31
0.0
  0
LINE
  5
395
330
63
100
AcDbEntity
  8
0
  6
Continuous
 62
     7
100
AcDbLine
 10
-95.44999975008392
 20
75.07499918128148
 30
0.0
 11
-95.44999975013954
 21
75.5749996406878
 31
0.0
  0
LINE
  5
396
330
63
100
AcDbEntity
  8
0
  6
Continuous
 62
     7
100
AcDbLine
 10
-95.44999974995596
 20
74.07499964068784
 30
0.0
 11
-95.44999975008392
 21
75.07499918128148
 31
0.0
  0
LINE
  5
397
330
63
100
AcDbEntity
  8
0
  6
Continuous
 62
     7
100
AcDbLine
 10
-97.09999975221521
 20
75.57499963545769
 30
0.0
 11
-96.49999974996025
 21
75.5749996355311
 31
0.0
  0
LINE
  5
398
330
63
100
AcDbEntity
  8
0
  6
Continuous
 62
     7
100
AcDbLine
 10
-95.44999974995596
 20
74.07499964068784
 30
0.0
 11
-96.09999974995301
 21
74.07499964060831
 31
0.0
  0
LINE
  5
399
330
63
100
AcDbEntity
  8
0
  6
Continuous
 62
     7
100
AcDbLine
 10
-96.09999974995301
 20
74.07499964060831
 30
0.0
 11
-96.09999974976337
 21
72.5249996406083
 31
0.0
  0
LINE
  5
39A
330
63
100
AcDbEntity
  8
0
  6
Continuous
 62
     7
100
AcDbLine
 10
-96.89999975145831
 20
72.52499963548217
 30
0.0
 11
-96.89999975164795
 21
74.0749996354822
 31
0.0
  0
LINE
  5
39B
330
63
100
AcDbEntity
  8
0
  6
Continuous
 62
     7
100
AcDbLine
 10
-96.89999975164795
 20
74.0749996354822
 30
0.0
 11
-97.099999752032
 21
74.07499963545773
 31
0.0
  0
LINE
  5
39C
330
63
100
AcDbEntity
  8
0
  6
Continuous
 62
     7
100
AcDbLine
 10
-98.4749997521218
 20
78.67499963699805
 30
0.0
 11
-98.6749997521278
 21
78.47499963667887
 31
0.0
  0
LINE
  5
39D
330
63
100
AcDbEntity
  8
0
  6
Continuous
 62
     7
100
AcDbLine
 10
-94.97499975043002
 20
78.67499964245454
 30
0.0
 11
-95.17499975043603
 21
78.47499964213536
 31
0.0
  0
ENDBLK
  5
65
330
63
100
AcDbEntity
  8
0
100
AcDbBlockEnd
  0
BLOCK
  5
68
330
66
100
AcDbEntity
  8
0
100
AcDbBlockBegin
  2
Right1
 70
     0
 10
-96.74999995258582
 20
78.15000011583061
 30
0.0
  3
Right1
  1

  0
INSERT
  5
67
330
66
100
AcDbEntity
  8
0
100
AcDbBlockReference
  2
PPC_1_5_S_5-select__5
 10
-106.999999751652
 20
69.24999989640278
 30
0.0
  0
ENDBLK
  5
69
330
66
100
AcDbEntity
  8
0
100
AcDbBlockEnd
  0
BLOCK
  5
6B
330
6A
100
AcDbEntity
  8
0
100
AcDbBlockBegin
  2
PPC_1_5_S_5-select__6
 70
     0
 10
-71.99999996909445
 20
33.75000020095882
 30
0.0
  3
PPC_1_5_S_5-select__6
  1

  0
LINE
  5
39E
330
6A
100
AcDbEntity
  8
0
  6
Continuous
 62
     7
100
AcDbLine
 10
-65.375196535317
 20
33.75000020095882
 30
0.0
 11
-65.37519653139195
 21
51.25000020008083
 31
0.0
  0
LINE
  5
39F
330
6A
100
AcDbEntity
  8
0
  6
Continuous
 62
     7
100
AcDbLine
 10
-65.375196535317
 20
33.75000020095882
 30
0.0
 11
-71.11249517926856
 21
33.75000020095882
 31
0.0
  0
LINE
  5
3A0
330
6A
100
AcDbEntity
  8
0
  6
Continuous
 62
     7
100
AcDbLine
 10
-56.21132478337291
 20
54.25000019470299
 30
0.0
 11
-53.79999991515947
 21
54.2500001947852
 31
0.0
  0
LINE
  5
3A1
330
6A
100
AcDbEntity
  8
0
  6
Continuous
 62
     7
100
AcDbLine
 10
-52.25356748220807
 20
54.2500001947852
 30
0.0
 11
-53.79999991515947
 21
54.2500001947852
 31
0.0
  0
LINE
  5
3A2
330
6A
100
AcDbEntity
  8
0
  6
Continuous
 62
     7
100
AcDbLine
 10
-52.25356748220807
 20
54.2500001947852
 30
0.0
 11
-52.25356748222167
 21
51.25000020000827
 31
0.0
  0
LINE
  5
3A3
330
6A
100
AcDbEntity
  8
0
  6
Continuous
 62
     7
100
AcDbLine
 10
-63.24086912719463
 20
54.25000019491048
 30
0.0
 11
-63.24086912722606
 21
51.25000020013356
 31
0.0
  0
LINE
  5
3A4
330
6A
100
AcDbEntity
  8
0
  6
Continuous
 62
     7
100
AcDbLine
 10
-53.79999991515947
 20
54.2500001947852
 30
0.0
 11
-53.79999991501368
 21
51.25000020000827
 31
0.0
  0
LINE
  5
3A5
330
6A
100
AcDbEntity
  8
0
  6
Continuous
 62
     7
100
AcDbLine
 10
-56.21132478337463
 20
51.25000019992606
 30
0.0
 11
-56.21132478337462
 21
33.75000020095882
 31
0.0
  0
LINE
  5
3A6
330
6A
100
AcDbEntity
  8
0
  6
Continuous
 62
     7
100
AcDbLine
 10
-53.79999991501368
 20
33.75000020095882
 30
0.0
 11
-53.79999991501368
 21
51.25000020000827
 31
0.0
  0
LINE
  5
3A7
330
6A
100
AcDbEntity
  8
0
  6
Continuous
 62
     7
100
AcDbLine
 10
-63.24086912722606
 20
33.75000020095882
 30
0.0
 11
-63.24086912722606
 21
51.25000020013356
 31
0.0
  0
LINE
  5
3A8
330
6A
100
AcDbEntity
  8
0
  6
Continuous
 62
     7
100
AcDbLine
 10
-52.25356748222167
 20
51.25000020000827
 30
0.0
 11
-52.2535674821707
 21
33.75000020095882
 31
0.0
  0
LINE
  5
3A9
330
6A
100
AcDbEntity
  8
0
  6
Continuous
 62
     7
100
AcDbLine
 10
-64.94646300281191
 20
54.25000019491048
 30
0.0
 11
-64.94646339033471
 21
51.25000020013356
 31
0.0
  0
LINE
  5
3AA
330
6A
100
AcDbEntity
  8
0
  6
Continuous
 62
     7
100
AcDbLine
 10
-56.21132478337291
 20
54.25000019470299
 30
0.0
 11
-56.21132478337463
 21
51.25000019992606
 31
0.0
  0
LINE
  5
3AB
330
6A
100
AcDbEntity
  8
0
  6
Continuous
 62
     7
100
AcDbLine
 10
-64.94646346392884
 20
33.75000020095882
 30
0.0
 11
-64.94646339033471
 21
51.25000020013356
 31
0.0
  0
LINE
  5
3AC
330
6A
100
AcDbEntity
  8
0
  6
Continuous
 62
     7
100
AcDbLine
 10
-57.81347164815301
 20
33.75000020095882
 30
0.0
 11
-57.8134716483368
 21
51.25000020007092
 31
0.0
  0
LINE
  5
3AD
330
6A
100
AcDbEntity
  8
0
  6
Continuous
 62
     7
100
AcDbLine
 10
-56.21132478337462
 20
33.75000020095882
 30
0.0
 11
-57.81347164815301
 21
33.75000020095882
 31
0.0
  0
LINE
  5
3AE
330
6A
100
AcDbEntity
  8
0
  6
Continuous
 62
     7
100
AcDbLine
 10
-63.24086912722606
 20
33.75000020095882
 30
0.0
 11
-64.94646346392884
 21
33.75000020095882
 31
0.0
  0
LINE
  5
3AF
330
6A
100
AcDbEntity
  8
0
  6
Continuous
 62
     7
100
AcDbLine
 10
-64.94646346392884
 20
33.75000020095882
 30
0.0
 11
-65.375196535317
 21
33.75000020095882
 31
0.0
  0
LINE
  5
3B0
330
6A
100
AcDbEntity
  8
0
  6
Continuous
 62
     7
100
AcDbLine
 10
-57.81347164815301
 20
33.75000020095882
 30
0.0
 11
-63.24086912722606
 21
33.75000020095882
 31
0.0
  0
LINE
  5
3B1
330
6A
100
AcDbEntity
  8
0
  6
Continuous
 62
     7
100
AcDbLine
 10
-52.2535674821707
 20
33.75000020095882
 30
0.0
 11
-53.79999991501368
 21
33.75000020095882
 31
0.0
  0
LINE
  5
3B2
330
6A
100
AcDbEntity
  8
0
  6
Continuous
 62
     7
100
AcDbLine
 10
-56.21132478337462
 20
33.75000020095882
 30
0.0
 11
-53.79999991501368
 21
33.75000020095882
 31
0.0
  0
LINE
  5
3B3
330
6A
100
AcDbEntity
  8
0
  6
Continuous
 62
     7
100
AcDbLine
 10
-44.9999999157979
 20
33.75000020095882
 30
0.0
 11
-52.2535674821707
 21
33.75000020095882
 31
0.0
  0
LINE
  5
3B4
330
6A
100
AcDbEntity
  8
0
  6
Continuous
 62
     7
100
AcDbLine
 10
-44.99999991585167
 20
51.25000019997515
 30
0.0
 11
-44.9999999157979
 21
33.75000020095882
 31
0.0
  0
LINE
  5
3B5
330
6A
100
AcDbEntity
  8
0
  6
Continuous
 62
     7
100
AcDbLine
 10
-71.99999996806454
 20
54.25000019484317
 30
0.0
 11
-71.99999996909445
 21
33.75000020095882
 31
0.0
  0
LINE
  5
3B6
330
6A
100
AcDbEntity
  8
0
  6
Continuous
 62
     7
100
AcDbLine
 10
-71.99999996909445
 20
33.75000020095882
 30
0.0
 11
-71.5014427567477
 21
33.75000020095882
 31
0.0
  0
LINE
  5
3B7
330
6A
100
AcDbEntity
  8
0
  6
Continuous
 62
     7
100
AcDbLine
 10
-71.5014427567477
 20
33.75000020095882
 30
0.0
 11
-71.11249517926856
 21
33.75000020095882
 31
0.0
  0
LINE
  5
3B8
330
6A
100
AcDbEntity
  8
0
  6
Continuous
 62
     7
100
AcDbLine
 10
-71.5014427567477
 20
33.75000020095882
 30
0.0
 11
-71.50144275174088
 21
51.250000200071
 31
0.0
  0
LINE
  5
3B9
330
6A
100
AcDbEntity
  8
0
  6
Continuous
 62
     7
100
AcDbLine
 10
-71.11249517926856
 20
33.75000020095882
 30
0.0
 11
-71.11249517794852
 21
51.25000020004406
 31
0.0
  0
LINE
  5
3BA
330
6A
100
AcDbEntity
  8
0
  6
Continuous
 62
     7
100
AcDbLine
 10
-56.21132478337291
 20
54.25000019470299
 30
0.0
 11
-57.81347164826899
 21
54.25000019484784
 31
0.0
  0
LINE
  5
3BB
330
6A
100
AcDbEntity
  8
0
  6
Continuous
 62
     7
100
AcDbLine
 10
-57.81347164826899
 20
54.25000019484784
 30
0.0
 11
-63.24086912719463
 21
54.25000019491048
 31
0.0
  0
LINE
  5
3BC
330
6A
100
AcDbEntity
  8
0
  6
Continuous
 62
     7
100
AcDbLine
 10
-57.81347164826899
 20
54.25000019484784
 30
0.0
 11
-57.8134716483368
 21
51.25000020007092
 31
0.0
  0
LINE
  5
3BD
330
6A
100
AcDbEntity
  8
0
  6
Continuous
 62
     7
100
AcDbLine
 10
-44.99999991583808
 20
54.25000019475208
 30
0.0
 11
-44.99999991585167
 21
51.25000019997515
 31
0.0
  0
LINE
  5
3BE
330
6A
100
AcDbEntity
  8
0
  6
Continuous
 62
     7
100
AcDbLine
 10
-63.24086912719463
 20
54.25000019491048
 30
0.0
 11
-64.94646300281191
 21
54.25000019491048
 31
0.0
  0
LINE
  5
3BF
330
6A
100
AcDbEntity
  8
0
  6
Continuous
 62
     7
100
AcDbLine
 10
-71.99999996806454
 20
54.25000019484317
 30
0.0
 11
-64.94646300281191
 21
54.25000019491048
 31
0.0
  0
LINE
  5
3C0
330
6A
100
AcDbEntity
  8
0
  6
Continuous
 62
     7
100
AcDbLine
 10
-44.99999991583808
 20
54.25000019475208
 30
0.0
 11
-52.25356748220807
 21
54.2500001947852
 31
0.0
  0
LINE
  5
3C1
330
6A
100
AcDbEntity
  8
0
  6
Continuous
 62
     7
100
AcDbLine
 10
-71.50144275174088
 20
51.250000200071
 30
0.0
 11
-71.11249517794852
 21
51.25000020004406
 31
0.0
  0
LINE
  5
3C2
330
6A
100
AcDbEntity
  8
0
  6
Continuous
 62
     7
100
AcDbLine
 10
-71.11249517794852
 20
51.25000020004406
 30
0.0
 11
-65.37519653139195
 21
51.25000020008083
 31
0.0
  0
LINE
  5
3C3
330
6A
100
AcDbEntity
  8
0
  6
Continuous
 62
     7
100
AcDbLine
 10
-65.37519653139195
 20
51.25000020008083
 30
0.0
 11
-64.94646339033471
 21
51.25000020013356
 31
0.0
  0
ENDBLK
  5
6C
330
6A
100
AcDbEntity
  8
0
100
AcDbBlockEnd
  0
BLOCK
  5
6F
330
6D
100
AcDbEntity
  8
0
100
AcDbBlockBegin
  2
Top1
 70
     0
 10
-58.499999999664
 20
44.00000000002505
 30
0.0
  3
Top1
  1

  0
INSERT
  5
6E
330
6D
100
AcDbEntity
  8
0
100
AcDbBlockReference
  2
PPC_1_5_S_5-select__6
 10
-71.99999996909445
 20
33.75000020095882
 30
0.0
  0
DIMENSION
  5
3CE
330
6D
100
AcDbEntity
  8
1
100
AcDbDimension
  2
*D19
 10
-76.925708317148
 20
54.25000019491047
 30
0.0
 11
-78.638208317148
 21
43.28502376071162
 31
0.0
 70
    32
  1
<>
 71
     5
 42
-1.0
 53
90.0
  3
ME10_DIM_12
100
AcDbAlignedDimension
 13
-63.24086912722606
 23
33.75000020095882
 33
0.0
 14
-63.24086912719463
 24
54.25000019491048
 34
0.0
 50
90.0
100
AcDbRotatedDimension
  0
ENDBLK
  5
70
330
6D
100
AcDbEntity
  8
0
100
AcDbBlockEnd
  0
BLOCK
  5
72
330
71
100
AcDbEntity
  8
0
100
AcDbBlockBegin
  2
_rahmen
 70
     0
 10
59.51631296026709
 20
0.89739801397008
 30
0.0
  3
_rahmen
  1

  0
LINE
  5
3CF
330
71
100
AcDbEntity
  8
1
  6
Continuous
 62
     6
100
AcDbLine
 10
-70.02849156648293
 20
31.39739801397019
 30
0.0
 11
59.51631296026878
 21
31.39739801397019
 31
0.0
  0
LINE
  5
3D0
330
71
100
AcDbEntity
  8
1
  6
Continuous
 62
     7
100
AcDbLine
 10
-51.82849156648291
 20
10.14739801397019
 30
0.0
 11
-33.62849156648301
 21
10.14739801397019
 31
0.0
  0
LINE
  5
3D1
330
71
100
AcDbEntity
  8
1
  6
Continuous
 62
     6
100
AcDbLine
 10
-51.82849156648291
 20
5.89739801397019
 30
0.0
 11
-70.02849156648293
 21
5.89739801397008
 31
0.0
  0
LINE
  5
3D2
330
71
100
AcDbEntity
  8
1
  6
Continuous
 62
     7
100
AcDbLine
 10
-51.82849156648291
 20
10.14739801397019
 30
0.0
 11
-51.82849156648291
 21
5.89739801397019
 31
0.0
  0
LINE
  5
3D3
330
71
100
AcDbEntity
  8
1
  6
Continuous
 62
     7
100
AcDbLine
 10
-33.62849156648301
 20
10.14739801397019
 30
0.0
 11
-33.62849156648301
 21
5.89739801397008
 31
0.0
  0
LINE
  5
3D4
330
71
100
AcDbEntity
  8
1
  6
Continuous
 62
     7
100
AcDbLine
 10
-70.02849156648293
 20
10.14739801397008
 30
0.0
 11
-70.02849156648293
 21
5.89739801397008
 31
0.0
  0
LINE
  5
3D5
330
71
100
AcDbEntity
  8
1
  6
Continuous
 62
     7
100
AcDbLine
 10
-70.02849156648293
 20
10.14739801397008
 30
0.0
 11
-51.82849156648291
 21
10.14739801397019
 31
0.0
  0
LINE
  5
3D6
330
71
100
AcDbEntity
  8
1
  6
Continuous
 62
     2
100
AcDbLine
 10
-60.79183667992032
 20
29.5223980139701
 30
0.0
 11
-60.79183667992032
 21
24.5223980139701
 31
0.0
  0
LINE
  5
3D7
330
71
100
AcDbEntity
  8
1
  6
Continuous
 62
     2
100
AcDbLine
 10
-60.79183667992032
 20
24.5223980139701
 30
0.0
 11
-65.79183667992032
 21
25.7723980139701
 31
0.0
  0
LINE
  5
3D8
330
71
100
AcDbEntity
  8
1
  6
Continuous
 62
     2
100
AcDbLine
 10
-65.79183667992032
 20
25.7723980139701
 30
0.0
 11
-65.79183667992032
 21
28.2723980139701
 31
0.0
  0
LINE
  5
3D9
330
71
100
AcDbEntity
  8
1
  6
Continuous
 62
     2
100
AcDbLine
 10
-65.79183667992032
 20
28.2723980139701
 30
0.0
 11
-60.79183667992032
 21
29.5223980139701
 31
0.0
  0
LINE
  5
3DA
330
71
100
AcDbEntity
  8
1
  6
Continuous
 62
     6
100
AcDbLine
 10
-192.4836870397311
 20
5.89739801397019
 30
0.0
 11
-227.483687039731
 21
5.89739801397019
 31
0.0
  0
LINE
  5
3DB
330
71
100
AcDbEntity
  8
1
  6
Continuous
 62
     6
100
AcDbLine
 10
59.51631296026878
 20
22.89739801397019
 30
0.0
 11
59.51631296026838
 21
14.39739801397019
 31
0.0
  0
LINE
  5
3DC
330
71
100
AcDbEntity
  8
1
  6
Continuous
 62
     6
100
AcDbLine
 10
-33.62849156648301
 20
5.89739801397008
 30
0.0
 11
-33.98368703973293
 21
5.89739801397019
 31
0.0
  0
LINE
  5
3DD
330
71
100
AcDbEntity
  8
1
  6
Continuous
 62
     6
100
AcDbLine
 10
-186.2836870397331
 20
5.89739801397008
 30
0.0
 11
-192.4836870397311
 21
5.89739801397019
 31
0.0
  0
LINE
  5
3DE
330
71
100
AcDbEntity
  8
1
  6
Continuous
 62
     7
100
AcDbLine
 10
-33.62849156648301
 20
22.89739801397019
 30
0.0
 11
-33.62849156648301
 21
10.14739801397019
 31
0.0
  0
LINE
  5
3DF
330
71
100
AcDbEntity
  8
1
  6
Continuous
 62
     7
100
AcDbLine
 10
-70.02849156648293
 20
22.89739801397019
 30
0.0
 11
-70.02849156648293
 21
10.14739801397008
 31
0.0
  0
LINE
  5
3E0
330
71
100
AcDbEntity
  8
1
  6
Continuous
 62
     6
100
AcDbLine
 10
-83.9836870397329
 20
5.89739801397019
 30
0.0
 11
-133.9836870397331
 21
5.89739801397019
 31
0.0
  0
LINE
  5
3E1
330
71
100
AcDbEntity
  8
1
  6
Continuous
 62
     6
100
AcDbLine
 10
-186.2836870397331
 20
5.89739801397008
 30
0.0
 11
-183.9836870397329
 21
5.89739801397019
 31
0.0
  0
LINE
  5
3E2
330
71
100
AcDbEntity
  8
1
  6
Continuous
 62
     6
100
AcDbLine
 10
-33.62849156648301
 20
5.89739801397008
 30
0.0
 11
16.01631296026707
 21
5.89739801397019
 31
0.0
  0
LINE
  5
3E3
330
71
100
AcDbEntity
  8
1
  6
Continuous
 62
     6
100
AcDbLine
 10
59.51631296026709
 20
5.89739801397019
 30
0.0
 11
59.51631296026838
 21
14.39739801397019
 31
0.0
  0
LINE
  5
3E4
330
71
100
AcDbEntity
  8
1
  6
Continuous
 62
     2
100
AcDbLine
 10
-232.483687039732
 20
5.89739801397019
 30
0.0
 11
-232.483687039732
 21
0.89739801397008
 31
0.0
  0
LINE
  5
3E5
330
71
100
AcDbEntity
  8
1
  6
Continuous
 62
     2
100
AcDbLine
 10
-227.483687039731
 20
5.89739801397019
 30
0.0
 11
-232.483687039732
 21
5.89739801397019
 31
0.0
  0
LINE
  5
3E6
330
71
100
AcDbEntity
  8
1
  6
Continuous
 62
     2
100
AcDbLine
 10
-227.483687039731
 20
0.89739801397008
 30
0.0
 11
-183.9836870397329
 21
0.89739801397008
 31
0.0
  0
LINE
  5
3E7
330
71
100
AcDbEntity
  8
1
  6
Continuous
 62
     2
100
AcDbLine
 10
-227.483687039731
 20
5.89739801397019
 30
0.0
 11
-227.483687039731
 21
0.89739801397008
 31
0.0
  0
LINE
  5
3E8
330
71
100
AcDbEntity
  8
1
  6
Continuous
 62
     2
100
AcDbLine
 10
16.01631296026707
 20
0.89739801397008
 30
0.0
 11
-33.98368703973293
 21
0.89739801397008
 31
0.0
  0
LINE
  5
3E9
330
71
100
AcDbEntity
  8
1
  6
Continuous
 62
     2
100
AcDbLine
 10
16.01631296026707
 20
0.89739801397008
 30
0.0
 11
16.01631296026707
 21
5.89739801397019
 31
0.0
  0
LINE
  5
3EA
330
71
100
AcDbEntity
  8
1
  6
Continuous
 62
     2
100
AcDbLine
 10
-33.98368703973293
 20
0.89739801397008
 30
0.0
 11
-33.98368703973293
 21
5.89739801397019
 31
0.0
  0
LINE
  5
3EB
330
71
100
AcDbEntity
  8
1
  6
Continuous
 62
     2
100
AcDbLine
 10
-83.9836870397329
 20
0.89739801397008
 30
0.0
 11
-33.98368703973293
 21
0.89739801397008
 31
0.0
  0
LINE
  5
3EC
330
71
100
AcDbEntity
  8
1
  6
Continuous
 62
     2
100
AcDbLine
 10
-83.9836870397329
 20
0.89739801397008
 30
0.0
 11
-83.9836870397329
 21
5.89739801397019
 31
0.0
  0
LINE
  5
3ED
330
71
100
AcDbEntity
  8
1
  6
Continuous
 62
     2
100
AcDbLine
 10
-133.9836870397331
 20
0.89739801397008
 30
0.0
 11
-83.9836870397329
 21
0.89739801397008
 31
0.0
  0
LINE
  5
3EE
330
71
100
AcDbEntity
  8
1
  6
Continuous
 62
     2
100
AcDbLine
 10
-133.9836870397331
 20
0.89739801397008
 30
0.0
 11
-133.9836870397331
 21
5.89739801397019
 31
0.0
  0
LINE
  5
3EF
330
71
100
AcDbEntity
  8
1
  6
Continuous
 62
     2
100
AcDbLine
 10
-183.9836870397329
 20
0.89739801397008
 30
0.0
 11
-133.9836870397331
 21
0.89739801397008
 31
0.0
  0
LINE
  5
3F0
330
71
100
AcDbEntity
  8
1
  6
Continuous
 62
     2
100
AcDbLine
 10
-183.9836870397329
 20
0.89739801397008
 30
0.0
 11
-183.9836870397329
 21
5.89739801397019
 31
0.0
  0
LINE
  5
3F1
330
71
100
AcDbEntity
  8
1
  6
Continuous
 62
     6
100
AcDbLine
 10
-227.4836870397312
 20
55.8973980139703
 30
0.0
 11
-227.483687039731
 21
5.89739801397019
 31
0.0
  0
LINE
  5
3F2
330
71
100
AcDbEntity
  8
1
  6
Continuous
 62
     2
100
AcDbLine
 10
-232.483687039732
 20
55.8973980139703
 30
0.0
 11
-232.483687039732
 21
5.89739801397019
 31
0.0
  0
LINE
  5
3F3
330
71
100
AcDbEntity
  8
1
  6
Continuous
 62
     2
100
AcDbLine
 10
-232.483687039732
 20
55.8973980139703
 30
0.0
 11
-227.4836870397312
 21
55.8973980139703
 31
0.0
  0
LINE
  5
3F4
330
71
100
AcDbEntity
  8
1
  6
Continuous
 62
     6
100
AcDbLine
 10
-227.4836870397314
 20
105.8973980139701
 30
0.0
 11
-227.4836870397312
 21
55.8973980139703
 31
0.0
  0
LINE
  5
3F5
330
71
100
AcDbEntity
  8
1
  6
Continuous
 62
     2
100
AcDbLine
 10
-232.483687039732
 20
105.8973980139701
 30
0.0
 11
-232.483687039732
 21
55.8973980139703
 31
0.0
  0
LINE
  5
3F6
330
71
100
AcDbEntity
  8
1
  6
Continuous
 62
     2
100
AcDbLine
 10
-232.483687039732
 20
105.8973980139701
 30
0.0
 11
-227.4836870397314
 21
105.8973980139701
 31
0.0
  0
LINE
  5
3F7
330
71
100
AcDbEntity
  8
1
  6
Continuous
 62
     6
100
AcDbLine
 10
-227.4836870397319
 20
155.8973980139702
 30
0.0
 11
-227.4836870397314
 21
105.8973980139701
 31
0.0
  0
LINE
  5
3F8
330
71
100
AcDbEntity
  8
1
  6
Continuous
 62
     2
100
AcDbLine
 10
-232.483687039732
 20
155.8973980139702
 30
0.0
 11
-232.483687039732
 21
105.8973980139701
 31
0.0
  0
LINE
  5
3F9
330
71
100
AcDbEntity
  8
1
  6
Continuous
 62
     2
100
AcDbLine
 10
-232.483687039732
 20
155.8973980139702
 30
0.0
 11
-227.4836870397319
 21
155.8973980139702
 31
0.0
  0
LINE
  5
3FA
330
71
100
AcDbEntity
  8
1
  6
Continuous
 62
     6
100
AcDbLine
 10
-227.483687039732
 20
190.8973980139702
 30
0.0
 11
-227.4836870397319
 21
155.8973980139702
 31
0.0
  0
LINE
  5
3FB
330
71
100
AcDbEntity
  8
1
  6
Continuous
 62
     2
100
AcDbLine
 10
-232.483687039732
 20
210.8973980139702
 30
0.0
 11
-232.483687039732
 21
155.8973980139702
 31
0.0
  0
LINE
  5
3FC
330
71
100
AcDbEntity
  8
1
  6
Continuous
 62
     2
100
AcDbLine
 10
-232.483687039732
 20
0.89739801397008
 30
0.0
 11
-227.483687039731
 21
0.89739801397008
 31
0.0
  0
LINE
  5
3FD
330
71
100
AcDbEntity
  8
1
  6
Continuous
 62
     2
100
AcDbLine
 10
-83.9836870397329
 20
210.8973980139702
 30
0.0
 11
-83.9836870397329
 21
201.6887061692689
 31
0.0
  0
LINE
  5
3FE
330
71
100
AcDbEntity
  8
1
  6
Continuous
 62
     2
100
AcDbLine
 10
-83.9836870397329
 20
210.8973980139702
 30
0.0
 11
-232.483687039732
 21
210.8973980139702
 31
0.0
  0
LINE
  5
3FF
330
71
100
AcDbEntity
  8
1
  6
Continuous
 62
     2
100
AcDbLine
 10
64.51631296026608
 20
5.89739801397019
 30
0.0
 11
64.51631296026608
 21
55.8973980139703
 31
0.0
  0
LINE
  5
400
330
71
100
AcDbEntity
  8
1
  6
Continuous
 62
     2
100
AcDbLine
 10
64.51631296026608
 20
155.8973980139702
 30
0.0
 11
64.51631296026608
 21
210.8973980139702
 31
0.0
  0
LINE
  5
401
330
71
100
AcDbEntity
  8
1
  6
Continuous
 62
     6
100
AcDbLine
 10
59.51631296026628
 20
155.8973980139702
 30
0.0
 11
59.51631296026608
 21
190.8973980139702
 31
0.0
  0
LINE
  5
402
330
71
100
AcDbEntity
  8
1
  6
Continuous
 62
     2
100
AcDbLine
 10
59.51631296026628
 20
155.8973980139702
 30
0.0
 11
64.51631296026608
 21
155.8973980139702
 31
0.0
  0
LINE
  5
403
330
71
100
AcDbEntity
  8
1
  6
Continuous
 62
     2
100
AcDbLine
 10
64.51631296026608
 20
105.8973980139701
 30
0.0
 11
64.51631296026608
 21
155.8973980139702
 31
0.0
  0
LINE
  5
404
330
71
100
AcDbEntity
  8
1
  6
Continuous
 62
     6
100
AcDbLine
 10
59.51631296026748
 20
105.8973980139701
 30
0.0
 11
59.51631296026628
 21
155.8973980139702
 31
0.0
  0
LINE
  5
405
330
71
100
AcDbEntity
  8
1
  6
Continuous
 62
     2
100
AcDbLine
 10
59.51631296026748
 20
105.8973980139701
 30
0.0
 11
64.51631296026608
 21
105.8973980139701
 31
0.0
  0
LINE
  5
406
330
71
100
AcDbEntity
  8
1
  6
Continuous
 62
     2
100
AcDbLine
 10
64.51631296026608
 20
55.8973980139703
 30
0.0
 11
64.51631296026608
 21
105.8973980139701
 31
0.0
  0
LINE
  5
407
330
71
100
AcDbEntity
  8
1
  6
Continuous
 62
     6
100
AcDbLine
 10
59.51631296026798
 20
55.8973980139703
 30
0.0
 11
59.51631296026748
 21
105.8973980139701
 31
0.0
  0
LINE
  5
408
330
71
100
AcDbEntity
  8
1
  6
Continuous
 62
     2
100
AcDbLine
 10
59.51631296026798
 20
55.8973980139703
 30
0.0
 11
64.51631296026608
 21
55.8973980139703
 31
0.0
  0
LINE
  5
409
330
71
100
AcDbEntity
  8
1
  6
Continuous
 62
     6
100
AcDbLine
 10
59.51631296026608
 20
190.8973980139702
 30
0.0
 11
-227.483687039732
 21
190.8973980139702
 31
0.0
  0
LINE
  5
40A
330
71
100
AcDbEntity
  8
1
  6
Continuous
 62
     2
100
AcDbLine
 10
64.51631296026608
 20
210.8973980139702
 30
0.0
 11
-83.9836870397329
 21
210.8973980139702
 31
0.0
  0
LINE
  5
40B
330
71
100
AcDbEntity
  8
1
  6
Continuous
 62
     6
100
AcDbLine
 10
59.51631296026878
 20
22.89739801397019
 30
0.0
 11
59.51631296026798
 21
55.8973980139703
 31
0.0
  0
LINE
  5
40C
330
71
100
AcDbEntity
  8
1
  6
Continuous
 62
     2
100
AcDbLine
 10
59.51631296026709
 20
0.89739801397008
 30
0.0
 11
16.01631296026707
 21
0.89739801397008
 31
0.0
  0
LINE
  5
40D
330
71
100
AcDbEntity
  8
1
  6
Continuous
 62
     2
100
AcDbLine
 10
64.51631296026608
 20
0.89739801397008
 30
0.0
 11
59.51631296026709
 21
0.89739801397008
 31
0.0
  0
LINE
  5
40E
330
71
100
AcDbEntity
  8
1
  6
Continuous
 62
     2
100
AcDbLine
 10
64.51631296026608
 20
0.89739801397008
 30
0.0
 11
64.51631296026608
 21
5.89739801397019
 31
0.0
  0
LINE
  5
40F
330
71
100
AcDbEntity
  8
1
  6
Continuous
 62
     6
100
AcDbLine
 10
-70.02849156648293
 20
22.89739801397019
 30
0.0
 11
-33.62849156648301
 21
22.89739801397019
 31
0.0
  0
LINE
  5
410
330
71
100
AcDbEntity
  8
1
  6
Continuous
 62
     2
100
AcDbLine
 10
59.51631296026709
 20
5.89739801397019
 30
0.0
 11
59.51631296026709
 21
0.89739801397008
 31
0.0
  0
LINE
  5
411
330
71
100
AcDbEntity
  8
1
  6
Continuous
 62
     2
100
AcDbLine
 10
59.51631296026709
 20
5.89739801397019
 30
0.0
 11
64.51631296026608
 21
5.89739801397019
 31
0.0
  0
LINE
  5
412
330
71
100
AcDbEntity
  8
1
  6
Continuous
 62
     6
100
AcDbLine
 10
-33.98368703973293
 20
5.89739801397019
 30
0.0
 11
-51.82849156648291
 21
5.89739801397019
 31
0.0
  0
LINE
  5
413
330
71
100
AcDbEntity
  8
1
  6
Continuous
 62
     6
100
AcDbLine
 10
16.01631296026707
 20
5.89739801397019
 30
0.0
 11
59.51631296026709
 21
5.89739801397019
 31
0.0
  0
LINE
  5
414
330
71
100
AcDbEntity
  8
1
  6
Continuous
 62
     6
100
AcDbLine
 10
-133.9836870397331
 20
5.89739801397019
 30
0.0
 11
-139.0284915664829
 21
5.89739801397019
 31
0.0
  0
LINE
  5
415
330
71
100
AcDbEntity
  8
1
  6
Continuous
 62
     6
100
AcDbLine
 10
-83.9836870397329
 20
5.89739801397019
 30
0.0
 11
-70.02849156648293
 21
5.89739801397008
 31
0.0
  0
LINE
  5
416
102
{ACAD_REACTORS
330
500
330
501
102
}
330
71
100
AcDbEntity
  8
0
  6
Continuous
 62
     2
100
AcDbLine
 10
-62.51386562433612
 20
17.9699127701823
 30
0.0
 11
-62.51386562433612
 21
18.57544805868909
 31
0.0
  0
LINE
  5
417
102
{ACAD_REACTORS
330
500
330
501
102
}
330
71
100
AcDbEntity
  8
0
  6
Continuous
 62
     2
100
AcDbLine
 10
-62.51386562433612
 20
15.169778163551
 30
0.0
 11
-62.51386562433612
 21
15.75162957024608
 31
0.0
  0
LINE
  5
418
102
{ACAD_REACTORS
330
502
330
503
102
}
330
71
100
AcDbEntity
  8
0
  6
Continuous
 62
     2
100
AcDbLine
 10
-39.88437918885691
 20
15.45944223167399
 30
0.0
 11
-39.88437918885691
 21
13.1908980139865
 31
0.0
  0
LINE
  5
419
102
{ACAD_REACTORS
330
502
330
503
102
}
330
71
100
AcDbEntity
  8
0
  6
Continuous
 62
     2
100
AcDbLine
 10
-41.2654329678445
 20
16.2447075377971
 30
0.0
 11
-37.88048744921582
 21
16.24470753779758
 31
0.0
  0
LINE
  5
41A
102
{ACAD_REACTORS
330
502
330
503
102
}
330
71
100
AcDbEntity
  8
0
  6
Continuous
 62
     2
100
AcDbLine
 10
-37.88048744921582
 20
15.45944223167399
 30
0.0
 11
-37.88048744921582
 21
16.24470753779758
 31
0.0
  0
LINE
  5
41B
102
{ACAD_REACTORS
330
502
330
503
102
}
330
71
100
AcDbEntity
  8
0
  6
Continuous
 62
     2
100
AcDbLine
 10
-38.6915864866892
 20
15.45944223167399
 30
0.0
 11
-37.88048744921582
 21
15.45944223167399
 31
0.0
  0
LINE
  5
41C
102
{ACAD_REACTORS
330
502
330
503
102
}
330
71
100
AcDbEntity
  8
0
  6
Continuous
 62
     2
100
AcDbLine
 10
-38.6915864866892
 20
13.1908980139865
 30
0.0
 11
-38.6915864866892
 21
15.45944223167399
 31
0.0
  0
LINE
  5
41D
102
{ACAD_REACTORS
330
502
330
503
102
}
330
71
100
AcDbEntity
  8
0
  6
Continuous
 62
     2
100
AcDbLine
 10
-39.88437918885691
 20
13.1908980139865
 30
0.0
 11
-38.6915864866892
 21
13.1908980139865
 31
0.0
  0
LINE
  5
41E
102
{ACAD_REACTORS
330
4F8
330
4F9
102
}
330
71
100
AcDbEntity
  8
0
  6
Continuous
 62
     2
100
AcDbLine
 10
-40.58097012692141
 20
19.60389801397199
 30
0.0
 11
-41.98369434467071
 21
19.60389801397199
 31
0.0
  0
LINE
  5
41F
102
{ACAD_REACTORS
330
4F8
330
4F9
102
}
330
71
100
AcDbEntity
  8
0
  6
Continuous
 62
     2
100
AcDbLine
 10
-40.58097012692141
 20
19.60389801397199
 30
0.0
 11
-39.97980260502962
 21
18.9240746924165
 31
0.0
  0
LINE
  5
420
102
{ACAD_REACTORS
330
4F8
330
4F9
102
}
330
71
100
AcDbEntity
  8
0
  6
Continuous
 62
     2
100
AcDbLine
 10
-39.97980260502962
 20
18.9240746924165
 30
0.0
 11
-39.37863508313683
 21
19.60389801397199
 31
0.0
  0
LINE
  5
421
102
{ACAD_REACTORS
330
4F8
330
4F9
102
}
330
71
100
AcDbEntity
  8
0
  6
Continuous
 62
     2
100
AcDbLine
 10
-39.27844049615612
 20
18.13094748393579
 30
0.0
 11
-37.97591086538961
 21
19.60389801397199
 31
0.0
  0
LINE
  5
422
102
{ACAD_REACTORS
330
4F8
330
4F9
102
}
330
71
100
AcDbEntity
  8
0
  6
Continuous
 62
     2
100
AcDbLine
 10
-39.27844049615612
 20
18.13094748393579
 30
0.0
 11
-37.88048744921582
 21
16.55008849016079
 31
0.0
  0
LINE
  5
423
102
{ACAD_REACTORS
330
4F8
330
4F9
102
}
330
71
100
AcDbEntity
  8
0
  6
Continuous
 62
     2
100
AcDbLine
 10
-39.28321166696412
 20
16.55008849016079
 30
0.0
 11
-37.88048744921582
 21
16.55008849016079
 31
0.0
  0
LINE
  5
424
102
{ACAD_REACTORS
330
4F8
330
4F9
102
}
330
71
100
AcDbEntity
  8
0
  6
Continuous
 62
     2
100
AcDbLine
 10
-39.97980260502962
 20
17.3378202754545
 30
0.0
 11
-39.28321166696412
 21
16.55008849016079
 31
0.0
  0
LINE
  5
425
102
{ACAD_REACTORS
330
4F6
330
4F7
102
}
330
71
100
AcDbEntity
  8
0
  6
Continuous
 62
     2
100
AcDbLine
 10
-43.43890144131331
 20
19.60389801397199
 30
0.0
 11
-42.19839703106041
 21
19.60389801397199
 31
0.0
  0
LINE
  5
426
102
{ACAD_REACTORS
330
4F6
330
4F7
102
}
330
71
100
AcDbEntity
  8
0
  6
Continuous
 62
     2
100
AcDbLine
 10
-42.19839703106041
 20
19.60389801397199
 30
0.0
 11
-42.19839703106041
 21
16.55008849016079
 31
0.0
  0
LINE
  5
427
102
{ACAD_REACTORS
330
4F6
330
4F7
102
}
330
71
100
AcDbEntity
  8
0
  6
Continuous
 62
     2
100
AcDbLine
 10
-43.43890144131331
 20
16.55008849016079
 30
0.0
 11
-43.43890144131331
 21
19.60389801397199
 31
0.0
  0
LINE
  5
428
102
{ACAD_REACTORS
330
4F4
330
4F5
102
}
330
71
100
AcDbEntity
  8
0
  6
Continuous
 62
     2
100
AcDbLine
 10
-44.90721152385092
 20
14.41242182351098
 30
0.0
 11
-44.60704628665852
 21
15.18023678949768
 31
0.0
  0
LINE
  5
429
102
{ACAD_REACTORS
330
4F4
330
4F5
102
}
330
71
100
AcDbEntity
  8
0
  6
Continuous
 62
     2
100
AcDbLine
 10
-45.38474712847173
 20
13.1908980139865
 30
0.0
 11
-45.17326707499592
 21
13.73185855820438
 31
0.0
  0
LINE
  5
42A
102
{ACAD_REACTORS
330
4F4
330
4F5
102
}
330
71
100
AcDbEntity
  8
0
  6
Continuous
 62
     2
100
AcDbLine
 10
-45.22729849178541
 20
16.24470753779758
 30
0.0
 11
-46.62525153872471
 21
13.1908980139865
 31
0.0
  0
LINE
  5
42B
102
{ACAD_REACTORS
330
4F4
330
4F5
102
}
330
71
100
AcDbEntity
  8
0
  6
Continuous
 62
     2
100
AcDbLine
 10
-42.58884103459241
 20
13.1908980139865
 30
0.0
 11
-43.82934544484633
 21
13.1908980139865
 31
0.0
  0
LINE
  5
42C
102
{ACAD_REACTORS
330
4F4
330
4F5
102
}
330
71
100
AcDbEntity
  8
0
  6
Continuous
 62
     2
100
AcDbLine
 10
-45.17326707499592
 20
13.73185855820438
 30
0.0
 11
-44.04082549832211
 21
13.73185855820438
 31
0.0
  0
LINE
  5
42D
102
{ACAD_REACTORS
330
4F2
330
4F3
102
}
330
71
100
AcDbEntity
  8
0
  6
Continuous
 62
     2
100
AcDbLine
 10
-48.78276367790693
 20
15.45944223167399
 30
0.0
 11
-47.97166464043232
 21
15.45944223167399
 31
0.0
  0
LINE
  5
42E
102
{ACAD_REACTORS
330
4F2
330
4F3
102
}
330
71
100
AcDbEntity
  8
0
  6
Continuous
 62
     2
100
AcDbLine
 10
-45.96777290079331
 20
16.24470753779758
 30
0.0
 11
-48.78276367790693
 21
16.24470753779758
 31
0.0
  0
LINE
  5
42F
102
{ACAD_REACTORS
330
4F2
330
4F3
102
}
330
71
100
AcDbEntity
  8
0
  6
Continuous
 62
     2
100
AcDbLine
 10
-45.96777290079331
 20
15.45944223167399
 30
0.0
 11
-45.96777290079331
 21
16.24470753779758
 31
0.0
  0
LINE
  5
430
102
{ACAD_REACTORS
330
4F2
330
4F3
102
}
330
71
100
AcDbEntity
  8
0
  6
Continuous
 62
     2
100
AcDbLine
 10
-46.77887193826581
 20
15.45944223167399
 30
0.0
 11
-45.96777290079331
 21
15.45944223167399
 31
0.0
  0
LINE
  5
431
102
{ACAD_REACTORS
330
4F2
330
4F3
102
}
330
71
100
AcDbEntity
  8
0
  6
Continuous
 62
     2
100
AcDbLine
 10
-46.77887193826581
 20
13.1908980139865
 30
0.0
 11
-46.77887193826581
 21
15.45944223167399
 31
0.0
  0
LINE
  5
432
102
{ACAD_REACTORS
330
4F0
330
4F1
102
}
330
71
100
AcDbEntity
  8
0
  6
Continuous
 62
     2
100
AcDbLine
 10
-46.11075709416781
 20
16.55008849016079
 30
0.0
 11
-46.11075709416781
 21
17.85886400036549
 31
0.0
  0
LINE
  5
433
102
{ACAD_REACTORS
330
4F0
330
4F1
102
}
330
71
100
AcDbEntity
  8
0
  6
Continuous
 62
     2
100
AcDbLine
 10
-47.30354979633432
 20
19.60389801397199
 30
0.0
 11
-47.30354979633432
 21
16.55008849016079
 31
0.0
  0
LINE
  5
434
102
{ACAD_REACTORS
330
4F0
330
4F1
102
}
330
71
100
AcDbEntity
  8
0
  6
Continuous
 62
     2
100
AcDbLine
 10
-46.11075709416781
 20
19.60389801397199
 30
0.0
 11
-47.30354979633432
 21
19.60389801397199
 31
0.0
  0
LINE
  5
435
102
{ACAD_REACTORS
330
4F0
330
4F1
102
}
330
71
100
AcDbEntity
  8
0
  6
Continuous
 62
     2
100
AcDbLine
 10
-44.87025268391381
 20
19.60389801397199
 30
0.0
 11
-44.87025268391381
 21
18.29512250376681
 31
0.0
  0
LINE
  5
436
102
{ACAD_REACTORS
330
4EE
330
4EF
102
}
330
71
100
AcDbEntity
  8
0
  6
Continuous
 62
     2
100
AcDbLine
 10
-52.55198861675402
 20
16.24470753779758
 30
0.0
 11
-52.55198861675402
 21
13.1908980139865
 31
0.0
  0
LINE
  5
437
102
{ACAD_REACTORS
330
4EE
330
4EF
102
}
330
71
100
AcDbEntity
  8
0
  6
Continuous
 62
     2
100
AcDbLine
 10
-51.35919591458642
 20
16.24470753779758
 30
0.0
 11
-52.55198861675402
 21
16.24470753779758
 31
0.0
  0
LINE
  5
438
102
{ACAD_REACTORS
330
4EE
330
4EF
102
}
330
71
100
AcDbEntity
  8
0
  6
Continuous
 62
     2
100
AcDbLine
 10
-50.11869150433353
 20
13.1908980139865
 30
0.0
 11
-48.92589880216713
 21
13.1908980139865
 31
0.0
  0
LINE
  5
439
102
{ACAD_REACTORS
330
4EE
330
4EF
102
}
330
71
100
AcDbEntity
  8
0
  6
Continuous
 62
     2
100
AcDbLine
 10
-52.55198861675402
 20
13.1908980139865
 30
0.0
 11
-51.35919591458642
 21
13.1908980139865
 31
0.0
  0
LINE
  5
43A
102
{ACAD_REACTORS
330
4FE
330
4FF
102
}
330
71
100
AcDbEntity
  8
0
  6
Continuous
 62
     2
100
AcDbLine
 10
-48.87803616319491
 20
18.4260000547873
 30
0.0
 11
-48.87803616319491
 21
18.90588440852901
 31
0.0
  0
LINE
  5
43B
102
{ACAD_REACTORS
330
4FE
330
4FF
102
}
330
71
100
AcDbEntity
  8
0
  6
Continuous
 62
     2
100
AcDbLine
 10
-47.54210833676723
 20
18.4260000547873
 30
0.0
 11
-48.87803616319491
 21
18.4260000547873
 31
0.0
  0
LINE
  5
43C
102
{ACAD_REACTORS
330
4FE
330
4FF
102
}
330
71
100
AcDbEntity
  8
0
  6
Continuous
 62
     2
100
AcDbLine
 10
-47.54210833676723
 20
17.727986449345
 30
0.0
 11
-47.54210833676723
 21
18.4260000547873
 31
0.0
  0
LINE
  5
43D
102
{ACAD_REACTORS
330
4FE
330
4FF
102
}
330
71
100
AcDbEntity
  8
0
  6
Continuous
 62
     2
100
AcDbLine
 10
-48.87803616319491
 20
17.727986449345
 30
0.0
 11
-47.54210833676723
 21
17.727986449345
 31
0.0
  0
LINE
  5
43E
102
{ACAD_REACTORS
330
4EC
330
4ED
102
}
330
71
100
AcDbEntity
  8
0
  6
Continuous
 62
     2
100
AcDbLine
 10
-52.36099085352183
 20
19.60389801397199
 30
0.0
 11
-52.36099085352183
 21
16.55008849016079
 31
0.0
  0
LINE
  5
43F
102
{ACAD_REACTORS
330
4EC
330
4ED
102
}
330
71
100
AcDbEntity
  8
0
  6
Continuous
 62
     2
100
AcDbLine
 10
-52.36099085352183
 20
16.55008849016079
 30
0.0
 11
-53.55378355568823
 21
16.55008849016079
 31
0.0
  0
LINE
  5
440
102
{ACAD_REACTORS
330
4EC
330
4ED
102
}
330
71
100
AcDbEntity
  8
0
  6
Continuous
 62
     2
100
AcDbLine
 10
-53.55378355568823
 20
16.55008849016079
 30
0.0
 11
-53.55378355568823
 21
17.68436059900461
 31
0.0
  0
LINE
  5
441
102
{ACAD_REACTORS
330
4EC
330
4ED
102
}
330
71
100
AcDbEntity
  8
0
  6
Continuous
 62
     2
100
AcDbLine
 10
-54.60344113359571
 20
16.55008849016079
 30
0.0
 11
-55.79623383576231
 21
16.55008849016079
 31
0.0
  0
LINE
  5
442
102
{ACAD_REACTORS
330
4EC
330
4ED
102
}
330
71
100
AcDbEntity
  8
0
  6
Continuous
 62
     2
100
AcDbLine
 10
-55.79623383576231
 20
19.60389801397199
 30
0.0
 11
-54.60344113359571
 21
19.60389801397199
 31
0.0
  0
LINE
  5
443
102
{ACAD_REACTORS
330
4EC
330
4ED
102
}
330
71
100
AcDbEntity
  8
0
  6
Continuous
 62
     2
100
AcDbLine
 10
-54.60344113359571
 20
19.60389801397199
 30
0.0
 11
-54.60344113359571
 21
18.53506468063739
 31
0.0
  0
LINE
  5
444
102
{ACAD_REACTORS
330
4EC
330
4ED
102
}
330
71
100
AcDbEntity
  8
0
  6
Continuous
 62
     2
100
AcDbLine
 10
-54.60344113359571
 20
18.53506468063739
 30
0.0
 11
-53.55378355568823
 21
18.53506468063739
 31
0.0
  0
LINE
  5
445
102
{ACAD_REACTORS
330
4FA
330
4FB
102
}
330
71
100
AcDbEntity
  8
0
  6
Continuous
 62
     2
100
AcDbLine
 10
-57.75241386731591
 20
18.94079216853189
 30
0.0
 11
-57.43511880577401
 21
18.94079216853189
 31
0.0
  0
LINE
  5
446
102
{ACAD_REACTORS
330
4FA
330
4FB
102
}
330
71
100
AcDbEntity
  8
0
  6
Continuous
 62
     2
100
AcDbLine
 10
-57.75241386731591
 20
18.23506451918968
 30
0.0
 11
-57.43511880577401
 21
18.23506451918968
 31
0.0
  0
LINE
  5
447
102
{ACAD_REACTORS
330
4FA
330
4FB
102
}
330
71
100
AcDbEntity
  8
0
  6
Continuous
 62
     2
100
AcDbLine
 10
-58.99291827757003
 20
19.60389801397199
 30
0.0
 11
-58.99291827757003
 21
16.55008849016079
 31
0.0
  0
LINE
  5
448
102
{ACAD_REACTORS
330
4FA
330
4FB
102
}
330
71
100
AcDbEntity
  8
0
  6
Continuous
 62
     2
100
AcDbLine
 10
-58.99291827757003
 20
19.60389801397199
 30
0.0
 11
-56.99364627953563
 21
19.60389801397199
 31
0.0
  0
LINE
  5
449
102
{ACAD_REACTORS
330
4FA
330
4FB
102
}
330
71
100
AcDbEntity
  8
0
  6
Continuous
 62
     2
100
AcDbLine
 10
-57.75241386731591
 20
17.4931667313046
 30
0.0
 11
-56.99364627953563
 21
17.4931667313046
 31
0.0
  0
LINE
  5
44A
102
{ACAD_REACTORS
330
500
330
501
102
}
330
71
100
AcDbEntity
  8
0
  6
Continuous
 62
     2
100
AcDbLine
 10
-65.08941431086672
 20
18.5756255353372
 30
0.0
 11
-65.08941431086672
 21
14.21917049262009
 31
0.0
  0
LINE
  5
44B
102
{ACAD_REACTORS
330
500
330
501
102
}
330
71
100
AcDbEntity
  8
0
  6
Continuous
 62
     2
100
AcDbLine
 10
-64.77369738779103
 20
18.89134245841339
 30
0.0
 11
-63.29786412678141
 21
18.89134245841339
 31
0.0
  0
LINE
  5
44C
102
{ACAD_REACTORS
330
500
330
501
102
}
330
71
100
AcDbEntity
  8
0
  6
Continuous
 62
     2
100
AcDbLine
 10
-62.98214720370481
 20
17.97160091627669
 30
0.0
 11
-62.98214720370481
 21
18.5756255353372
 31
0.0
  0
LINE
  5
44D
102
{ACAD_REACTORS
330
500
330
501
102
}
330
71
100
AcDbEntity
  8
0
  6
Continuous
 62
     2
100
AcDbLine
 10
-62.98214720370481
 20
14.21917049262009
 30
0.0
 11
-62.98214720370481
 21
15.7499414241517
 31
0.0
  0
LINE
  5
44E
102
{ACAD_REACTORS
330
500
330
501
102
}
330
71
100
AcDbEntity
  8
0
  6
Continuous
 62
     2
100
AcDbLine
 10
-59.89427997382072
 20
13.1908980139865
 30
0.0
 11
-65.36759206453752
 21
13.1908980139865
 31
0.0
  0
LINE
  5
44F
102
{ACAD_REACTORS
330
500
330
501
102
}
330
71
100
AcDbEntity
  8
0
  6
Continuous
 62
     2
100
AcDbLine
 10
-59.47003535843683
 20
19.17965339857
 30
0.0
 11
-59.47003535843683
 21
13.61514262936979
 31
0.0
  0
LINE
  5
450
102
{ACAD_REACTORS
330
500
330
501
102
}
330
71
100
AcDbEntity
  8
0
  6
Continuous
 62
     2
100
AcDbLine
 10
-65.36759206453752
 20
19.6038980139538
 30
0.0
 11
-59.89427997382072
 21
19.6038980139538
 31
0.0
  0
LINE
  5
451
102
{ACAD_REACTORS
330
500
330
501
102
}
330
71
100
AcDbEntity
  8
0
  6
Continuous
 62
     2
100
AcDbLine
 10
-65.79183667992032
 20
19.17965339857
 30
0.0
 11
-65.79183667992032
 21
13.61514262936979
 31
0.0
  0
LINE
  5
452
102
{ACAD_REACTORS
330
500
330
501
102
}
330
71
100
AcDbEntity
  8
0
  6
Continuous
 62
     2
100
AcDbLine
 10
-63.29786412678141
 20
13.90345356954339
 30
0.0
 11
-64.77369738779103
 21
13.90345356954339
 31
0.0
  0
LINE
  5
453
102
{ACAD_REACTORS
330
4FA
330
4FB
102
}
330
71
100
AcDbEntity
  8
0
  6
Continuous
 62
     2
100
AcDbLine
 10
-57.75241386731591
 20
16.55008849016079
 30
0.0
 11
-57.75241386731591
 21
17.4931667313046
 31
0.0
  0
LINE
  5
454
102
{ACAD_REACTORS
330
4FA
330
4FB
102
}
330
71
100
AcDbEntity
  8
0
  6
Continuous
 62
     2
100
AcDbLine
 10
-58.99291827757003
 20
16.55008849016079
 30
0.0
 11
-57.75241386731591
 21
16.55008849016079
 31
0.0
  0
LINE
  5
455
102
{ACAD_REACTORS
330
4FA
330
4FB
102
}
330
71
100
AcDbEntity
  8
0
  6
Continuous
 62
     2
100
AcDbLine
 10
-57.75241386731591
 20
18.23506451918968
 30
0.0
 11
-57.75241386731591
 21
18.94079216853189
 31
0.0
  0
LINE
  5
456
102
{ACAD_REACTORS
330
4EC
330
4ED
102
}
330
71
100
AcDbEntity
  8
0
  6
Continuous
 62
     2
100
AcDbLine
 10
-55.79623383576231
 20
19.60389801397199
 30
0.0
 11
-55.79623383576231
 21
16.55008849016079
 31
0.0
  0
LINE
  5
457
102
{ACAD_REACTORS
330
4EC
330
4ED
102
}
330
71
100
AcDbEntity
  8
0
  6
Continuous
 62
     2
100
AcDbLine
 10
-54.60344113359571
 20
17.68436059900461
 30
0.0
 11
-54.60344113359571
 21
16.55008849016079
 31
0.0
  0
LINE
  5
458
102
{ACAD_REACTORS
330
4EC
330
4ED
102
}
330
71
100
AcDbEntity
  8
0
  6
Continuous
 62
     2
100
AcDbLine
 10
-53.55378355568823
 20
17.68436059900461
 30
0.0
 11
-54.60344113359571
 21
17.68436059900461
 31
0.0
  0
LINE
  5
459
102
{ACAD_REACTORS
330
4EC
330
4ED
102
}
330
71
100
AcDbEntity
  8
0
  6
Continuous
 62
     2
100
AcDbLine
 10
-53.55378355568823
 20
19.60389801397199
 30
0.0
 11
-52.36099085352183
 21
19.60389801397199
 31
0.0
  0
LINE
  5
45A
102
{ACAD_REACTORS
330
4EC
330
4ED
102
}
330
71
100
AcDbEntity
  8
0
  6
Continuous
 62
     2
100
AcDbLine
 10
-53.55378355568823
 20
18.53506468063739
 30
0.0
 11
-53.55378355568823
 21
19.60389801397199
 31
0.0
  0
LINE
  5
45B
102
{ACAD_REACTORS
330
4FE
330
4FF
102
}
330
71
100
AcDbEntity
  8
0
  6
Continuous
 62
     2
100
AcDbLine
 10
-47.54210833676723
 20
18.90588440852901
 30
0.0
 11
-47.54210833676723
 21
19.60389801397199
 31
0.0
  0
LINE
  5
45C
102
{ACAD_REACTORS
330
4FE
330
4FF
102
}
330
71
100
AcDbEntity
  8
0
  6
Continuous
 62
     2
100
AcDbLine
 10
-50.69242806054822
 20
19.60389801397199
 30
0.0
 11
-47.54210833676723
 21
19.60389801397199
 31
0.0
  0
LINE
  5
45D
102
{ACAD_REACTORS
330
4FE
330
4FF
102
}
330
71
100
AcDbEntity
  8
0
  6
Continuous
 62
     2
100
AcDbLine
 10
-50.69242806054822
 20
16.55008849016079
 30
0.0
 11
-47.54210833676723
 21
16.55008849016079
 31
0.0
  0
LINE
  5
45E
102
{ACAD_REACTORS
330
4FE
330
4FF
102
}
330
71
100
AcDbEntity
  8
0
  6
Continuous
 62
     2
100
AcDbLine
 10
-47.54210833676723
 20
16.55008849016079
 30
0.0
 11
-47.54210833676723
 21
17.24810209560329
 31
0.0
  0
LINE
  5
45F
102
{ACAD_REACTORS
330
4FE
330
4FF
102
}
330
71
100
AcDbEntity
  8
0
  6
Continuous
 62
     2
100
AcDbLine
 10
-47.54210833676723
 20
17.24810209560329
 30
0.0
 11
-48.87803616319491
 21
17.24810209560329
 31
0.0
  0
LINE
  5
460
102
{ACAD_REACTORS
330
4FE
330
4FF
102
}
330
71
100
AcDbEntity
  8
0
  6
Continuous
 62
     2
100
AcDbLine
 10
-48.87803616319491
 20
17.24810209560329
 30
0.0
 11
-48.87803616319491
 21
17.727986449345
 31
0.0
  0
LINE
  5
461
102
{ACAD_REACTORS
330
4FE
330
4FF
102
}
330
71
100
AcDbEntity
  8
0
  6
Continuous
 62
     2
100
AcDbLine
 10
-48.87803616319491
 20
18.90588440852901
 30
0.0
 11
-47.54210833676723
 21
18.90588440852901
 31
0.0
  0
LINE
  5
462
102
{ACAD_REACTORS
330
4EE
330
4EF
102
}
330
71
100
AcDbEntity
  8
0
  6
Continuous
 62
     2
100
AcDbLine
 10
-51.35919591458642
 20
13.1908980139865
 30
0.0
 11
-51.35919591458642
 21
14.49967352419108
 31
0.0
  0
LINE
  5
463
102
{ACAD_REACTORS
330
4EE
330
4EF
102
}
330
71
100
AcDbEntity
  8
0
  6
Continuous
 62
     2
100
AcDbLine
 10
-51.35919591458642
 20
14.49967352419108
 30
0.0
 11
-50.11869150433353
 21
13.1908980139865
 31
0.0
  0
LINE
  5
464
102
{ACAD_REACTORS
330
4EE
330
4EF
102
}
330
71
100
AcDbEntity
  8
0
  6
Continuous
 62
     2
100
AcDbLine
 10
-48.92589880216713
 20
13.1908980139865
 30
0.0
 11
-48.92589880216713
 21
16.24470753779758
 31
0.0
  0
LINE
  5
465
102
{ACAD_REACTORS
330
4EE
330
4EF
102
}
330
71
100
AcDbEntity
  8
0
  6
Continuous
 62
     2
100
AcDbLine
 10
-48.92589880216713
 20
16.24470753779758
 30
0.0
 11
-50.11869150433353
 21
16.24470753779758
 31
0.0
  0
LINE
  5
466
102
{ACAD_REACTORS
330
4EE
330
4EF
102
}
330
71
100
AcDbEntity
  8
0
  6
Continuous
 62
     2
100
AcDbLine
 10
-50.11869150433353
 20
16.24470753779758
 30
0.0
 11
-50.11869150433353
 21
14.93593202759249
 31
0.0
  0
LINE
  5
467
102
{ACAD_REACTORS
330
4EE
330
4EF
102
}
330
71
100
AcDbEntity
  8
0
  6
Continuous
 62
     2
100
AcDbLine
 10
-50.11869150433353
 20
14.93593202759249
 30
0.0
 11
-51.35919591458642
 21
16.24470753779758
 31
0.0
  0
LINE
  5
468
102
{ACAD_REACTORS
330
4F0
330
4F1
102
}
330
71
100
AcDbEntity
  8
0
  6
Continuous
 62
     2
100
AcDbLine
 10
-46.11075709416781
 20
17.85886400036549
 30
0.0
 11
-44.87025268391381
 21
16.55008849016079
 31
0.0
  0
LINE
  5
469
102
{ACAD_REACTORS
330
4F0
330
4F1
102
}
330
71
100
AcDbEntity
  8
0
  6
Continuous
 62
     2
100
AcDbLine
 10
-44.87025268391381
 20
16.55008849016079
 30
0.0
 11
-43.67745998174721
 21
16.55008849016079
 31
0.0
  0
LINE
  5
46A
102
{ACAD_REACTORS
330
4F0
330
4F1
102
}
330
71
100
AcDbEntity
  8
0
  6
Continuous
 62
     2
100
AcDbLine
 10
-43.67745998174721
 20
16.55008849016079
 30
0.0
 11
-43.67745998174721
 21
19.60389801397199
 31
0.0
  0
LINE
  5
46B
102
{ACAD_REACTORS
330
4F0
330
4F1
102
}
330
71
100
AcDbEntity
  8
0
  6
Continuous
 62
     2
100
AcDbLine
 10
-43.67745998174721
 20
19.60389801397199
 30
0.0
 11
-44.87025268391381
 21
19.60389801397199
 31
0.0
  0
LINE
  5
46C
102
{ACAD_REACTORS
330
4F0
330
4F1
102
}
330
71
100
AcDbEntity
  8
0
  6
Continuous
 62
     2
100
AcDbLine
 10
-44.87025268391381
 20
18.29512250376681
 30
0.0
 11
-46.11075709416781
 21
19.60389801397199
 31
0.0
  0
LINE
  5
46D
102
{ACAD_REACTORS
330
4F0
330
4F1
102
}
330
71
100
AcDbEntity
  8
0
  6
Continuous
 62
     2
100
AcDbLine
 10
-47.30354979633432
 20
16.55008849016079
 30
0.0
 11
-46.11075709416781
 21
16.55008849016079
 31
0.0
  0
LINE
  5
46E
102
{ACAD_REACTORS
330
4F2
330
4F3
102
}
330
71
100
AcDbEntity
  8
0
  6
Continuous
 62
     2
100
AcDbLine
 10
-48.78276367790693
 20
16.24470753779758
 30
0.0
 11
-48.78276367790693
 21
15.45944223167399
 31
0.0
  0
LINE
  5
46F
102
{ACAD_REACTORS
330
4F2
330
4F3
102
}
330
71
100
AcDbEntity
  8
0
  6
Continuous
 62
     2
100
AcDbLine
 10
-47.97166464043232
 20
15.45944223167399
 30
0.0
 11
-47.97166464043232
 21
13.1908980139865
 31
0.0
  0
LINE
  5
470
102
{ACAD_REACTORS
330
4F2
330
4F3
102
}
330
71
100
AcDbEntity
  8
0
  6
Continuous
 62
     2
100
AcDbLine
 10
-47.97166464043232
 20
13.1908980139865
 30
0.0
 11
-46.77887193826581
 21
13.1908980139865
 31
0.0
  0
LINE
  5
471
102
{ACAD_REACTORS
330
4F4
330
4F5
102
}
330
71
100
AcDbEntity
  8
0
  6
Continuous
 62
     2
100
AcDbLine
 10
-43.82934544484633
 20
13.1908980139865
 30
0.0
 11
-44.04082549832211
 21
13.73185855820438
 31
0.0
  0
LINE
  5
472
102
{ACAD_REACTORS
330
4F4
330
4F5
102
}
330
71
100
AcDbEntity
  8
0
  6
Continuous
 62
     2
100
AcDbLine
 10
-43.98679408153271
 20
16.24470753779758
 30
0.0
 11
-42.58884103459241
 21
13.1908980139865
 31
0.0
  0
LINE
  5
473
102
{ACAD_REACTORS
330
4F4
330
4F5
102
}
330
71
100
AcDbEntity
  8
0
  6
Continuous
 62
     2
100
AcDbLine
 10
-45.22729849178541
 20
16.24470753779758
 30
0.0
 11
-43.98679408153271
 21
16.24470753779758
 31
0.0
  0
LINE
  5
474
102
{ACAD_REACTORS
330
4F4
330
4F5
102
}
330
71
100
AcDbEntity
  8
0
  6
Continuous
 62
     2
100
AcDbLine
 10
-46.62525153872471
 20
13.1908980139865
 30
0.0
 11
-45.38474712847173
 21
13.1908980139865
 31
0.0
  0
LINE
  5
475
102
{ACAD_REACTORS
330
4F4
330
4F5
102
}
330
71
100
AcDbEntity
  8
0
  6
Continuous
 62
     2
100
AcDbLine
 10
-44.90721152385092
 20
14.41242182351098
 30
0.0
 11
-44.30688104946842
 21
14.41242182351098
 31
0.0
  0
LINE
  5
476
102
{ACAD_REACTORS
330
4F4
330
4F5
102
}
330
71
100
AcDbEntity
  8
0
  6
Continuous
 62
     2
100
AcDbLine
 10
-44.30688104946842
 20
14.41242182351098
 30
0.0
 11
-44.60704628665852
 21
15.18023678949768
 31
0.0
  0
LINE
  5
477
102
{ACAD_REACTORS
330
4F6
330
4F7
102
}
330
71
100
AcDbEntity
  8
0
  6
Continuous
 62
     2
100
AcDbLine
 10
-42.19839703106041
 20
16.55008849016079
 30
0.0
 11
-43.43890144131331
 21
16.55008849016079
 31
0.0
  0
LINE
  5
478
102
{ACAD_REACTORS
330
4F8
330
4F9
102
}
330
71
100
AcDbEntity
  8
0
  6
Continuous
 62
     2
100
AcDbLine
 10
-40.67639354309532
 20
16.55008849016079
 30
0.0
 11
-42.07911776084353
 21
16.55008849016079
 31
0.0
  0
LINE
  5
479
102
{ACAD_REACTORS
330
4F8
330
4F9
102
}
330
71
100
AcDbEntity
  8
0
  6
Continuous
 62
     2
100
AcDbLine
 10
-40.67639354309532
 20
16.55008849016079
 30
0.0
 11
-39.97980260502962
 21
17.3378202754545
 31
0.0
  0
LINE
  5
47A
102
{ACAD_REACTORS
330
4F8
330
4F9
102
}
330
71
100
AcDbEntity
  8
0
  6
Continuous
 62
     2
100
AcDbLine
 10
-39.37863508313683
 20
19.60389801397199
 30
0.0
 11
-37.97591086538961
 21
19.60389801397199
 31
0.0
  0
LINE
  5
47B
102
{ACAD_REACTORS
330
4F8
330
4F9
102
}
330
71
100
AcDbEntity
  8
0
  6
Continuous
 62
     2
100
AcDbLine
 10
-41.98369434467071
 20
19.60389801397199
 30
0.0
 11
-40.68116471390323
 21
18.13094748393579
 31
0.0
  0
LINE
  5
47C
102
{ACAD_REACTORS
330
4F8
330
4F9
102
}
330
71
100
AcDbEntity
  8
0
  6
Continuous
 62
     2
100
AcDbLine
 10
-42.07911776084353
 20
16.55008849016079
 30
0.0
 11
-40.68116471390323
 21
18.13094748393579
 31
0.0
  0
LINE
  5
47D
102
{ACAD_REACTORS
330
502
330
503
102
}
330
71
100
AcDbEntity
  8
0
  6
Continuous
 62
     2
100
AcDbLine
 10
-40.2183611454636
 20
14.2379184221501
 30
0.0
 11
-40.2183611454636
 21
13.36540141534678
 31
0.0
  0
LINE
  5
47E
102
{ACAD_REACTORS
330
502
330
503
102
}
330
71
100
AcDbEntity
  8
0
  6
Continuous
 62
     2
100
AcDbLine
 10
-40.98801848842501
 20
15.45944223167399
 30
0.0
 11
-39.88437918885691
 21
15.45944223167399
 31
0.0
  0
LINE
  5
47F
102
{ACAD_REACTORS
330
504
330
505
102
}
330
71
100
AcDbEntity
  8
0
  6
Continuous
 62
     2
100
AcDbLine
 10
-56.32106262471552
 20
14.23791842215059
 30
0.0
 11
-56.32106262471552
 21
13.36540141534738
 31
0.0
  0
LINE
  5
480
102
{ACAD_REACTORS
330
504
330
505
102
}
330
71
100
AcDbEntity
  8
0
  6
Continuous
 62
     2
100
AcDbLine
 10
-56.32106262471552
 20
15.19768712963349
 30
0.0
 11
-56.32106262471552
 21
16.07020413643679
 31
0.0
  0
LINE
  5
481
330
71
100
AcDbEntity
  8
1
  6
Continuous
 62
     7
100
AcDbLine
 10
59.51631296026838
 20
14.39739801397019
 30
0.0
 11
-33.62849156648301
 21
14.39739801397019
 31
0.0
  0
LINE
  5
482
330
71
100
AcDbEntity
  8
1
  6
Continuous
 62
     6
100
AcDbLine
 10
-139.0284915664829
 20
5.89739801397019
 30
0.0
 11
-183.9836870397329
 21
5.89739801397019
 31
0.0
  0
LINE
  5
483
330
71
100
AcDbEntity
  8
1
  6
Continuous
 62
     7
100
AcDbLine
 10
50.59790467858957
 20
31.39739801397019
 30
0.0
 11
50.59790467858957
 21
22.89739801397019
 31
0.0
  0
LINE
  5
484
330
71
100
AcDbEntity
  8
1
  6
Continuous
 62
     7
100
AcDbLine
 10
24.09790467858997
 20
31.39739801397019
 30
0.0
 11
24.09790467858997
 21
22.89739801397019
 31
0.0
  0
LINE
  5
485
330
71
100
AcDbEntity
  8
1
  6
Continuous
 62
     7
100
AcDbLine
 10
-33.62849156648301
 20
22.89739801397019
 30
0.0
 11
-33.62849156648301
 21
31.39739801397019
 31
0.0
  0
LINE
  5
486
330
71
100
AcDbEntity
  8
1
  6
Continuous
 62
     7
100
AcDbLine
 10
-70.02849156648293
 20
22.89739801397019
 30
0.0
 11
-70.02849156648293
 21
31.39739801397019
 31
0.0
  0
LINE
  5
487
330
71
100
AcDbEntity
  8
1
  6
Continuous
 62
     6
100
AcDbLine
 10
-33.62849156648301
 20
22.89739801397019
 30
0.0
 11
59.51631296026878
 21
22.89739801397019
 31
0.0
  0
LINE
  5
488
330
71
100
AcDbEntity
  8
1
  6
Continuous
 62
     7
100
AcDbLine
 10
-5.72849156648292
 20
14.3973980139701
 30
0.0
 11
-5.72849156648292
 21
22.89739801397019
 31
0.0
  0
LINE
  5
489
330
71
100
AcDbEntity
  8
1
  6
PHANTOM
 62
     2
100
AcDbLine
 10
-54.54183667992032
 20
27.0223980139701
 30
0.0
 11
-60.04183667992032
 21
27.0223980139701
 31
0.0
  0
LINE
  5
48A
330
71
100
AcDbEntity
  8
1
  6
PHANTOM
 62
     2
100
AcDbLine
 10
-57.29183667992032
 20
29.7723980139701
 30
0.0
 11
-57.29183667992032
 21
24.2723980139701
 31
0.0
  0
LINE
  5
48B
330
71
100
AcDbEntity
  8
1
  6
DOT_CENTER
 62
     2
100
AcDbLine
 10
-66.04183667992032
 20
27.0223980139701
 30
0.0
 11
-60.54183667992032
 21
27.0223980139701
 31
0.0
  0
ARC
  5
48C
102
{ACAD_REACTORS
330
504
330
505
102
}
330
71
100
AcDbEntity
  8
0
  6
Continuous
 62
     2
100
AcDbCircle
 10
-57.65699054183332
 20
11.40512183063589
 30
0.0
 40
4.852596863498073
100
AcDbArc
 50
74.02000874164739
 51
84.84185523037506
  0
ARC
  5
48D
102
{ACAD_REACTORS
330
504
330
505
102
}
330
71
100
AcDbEntity
  8
0
  6
Continuous
 62
     2
100
AcDbCircle
 10
-57.08094993307961
 20
14.56088218652019
 30
0.0
 40
0.9059297849853211
100
AcDbArc
 50
71.55192388185344
 51
113.3722778881295
  0
ARC
  5
48E
102
{ACAD_REACTORS
330
504
330
505
102
}
330
71
100
AcDbEntity
  8
0
  6
Continuous
 62
     2
100
AcDbCircle
 10
-57.23738996578163
 20
14.5127313465533
 30
0.0
 40
0.5115800601948034
100
AcDbArc
 50
208.5214732576956
 51
246.6277221118268
  0
ARC
  5
48F
102
{ACAD_REACTORS
330
504
330
505
102
}
330
71
100
AcDbEntity
  8
0
  6
Continuous
 62
     2
100
AcDbCircle
 10
-57.08094993307961
 20
14.87472336526329
 30
0.0
 40
0.9059297849849188
100
AcDbArc
 50
246.6277221118705
 51
288.4480761181586
  0
ARC
  5
490
102
{ACAD_REACTORS
330
504
330
505
102
}
330
71
100
AcDbEntity
  8
0
  6
Continuous
 62
     2
100
AcDbCircle
 10
-57.4991176667404
 20
16.12826914130048
 30
0.0
 40
2.227384008972735
100
AcDbArc
 50
288.4480761181328
 51
301.9309089499593
  0
ARC
  5
491
102
{ACAD_REACTORS
330
500
330
501
102
}
330
71
100
AcDbEntity
  8
0
  6
Continuous
 62
     2
100
AcDbCircle
 10
-62.72419139934721
 20
16.86077117021449
 30
0.0
 40
0.9118481501444621
100
AcDbArc
 50
295.3740086781768
 51
64.62599132180716
  0
ARC
  5
492
102
{ACAD_REACTORS
330
500
330
501
102
}
330
71
100
AcDbEntity
  8
0
  6
Continuous
 62
     2
100
AcDbCircle
 10
-62.19814870125933
 20
18.57544805868909
 30
0.0
 40
0.3157169230760746
100
AcDbArc
 50
90.18896704254722
 51
180.0
  0
ARC
  5
493
102
{ACAD_REACTORS
330
502
330
503
102
}
330
71
100
AcDbEntity
  8
0
  6
Continuous
 62
     2
100
AcDbCircle
 10
-40.98801848842501
 20
14.5049192248479
 30
0.0
 40
0.9545230068260899
100
AcDbArc
 50
90.0
 51
109.337143219432
  0
ARC
  5
494
102
{ACAD_REACTORS
330
502
330
503
102
}
330
71
100
AcDbEntity
  8
0
  6
Continuous
 62
     2
100
AcDbCircle
 10
-40.75733122844733
 20
14.71780277589178
 30
0.0
 40
0.9410597353348958
100
AcDbArc
 50
151.478526742362
 51
208.5214732576695
  0
ARC
  5
495
102
{ACAD_REACTORS
330
502
330
503
102
}
330
71
100
AcDbEntity
  8
0
  6
Continuous
 62
     2
100
AcDbCircle
 10
-40.97824845382561
 20
14.87472336526329
 30
0.0
 40
0.9059297849852797
100
AcDbArc
 50
246.6277221118177
 51
288.4480761180809
  0
ARC
  5
496
102
{ACAD_REACTORS
330
502
330
503
102
}
330
71
100
AcDbEntity
  8
0
  6
Continuous
 62
     2
100
AcDbCircle
 10
-41.39641618748752
 20
16.12826914129988
 30
0.0
 40
2.227384008972745
100
AcDbArc
 50
288.4480761181333
 51
301.9309089499399
  0
ARC
  5
497
102
{ACAD_REACTORS
330
502
330
503
102
}
330
71
100
AcDbEntity
  8
0
  6
Continuous
 62
     2
100
AcDbCircle
 10
-41.55428906258032
 20
18.03048372114819
 30
0.0
 40
4.852596863498824
100
AcDbArc
 50
275.1581447696362
 51
285.9799912583387
  0
ARC
  5
498
102
{ACAD_REACTORS
330
502
330
503
102
}
330
71
100
AcDbEntity
  8
0
  6
Continuous
 62
     2
100
AcDbCircle
 10
-41.2654329678445
 20
14.8305931379266
 30
0.0
 40
1.639695123940456
100
AcDbArc
 50
195.0618917771012
 51
275.158144769676
  0
ARC
  5
499
102
{ACAD_REACTORS
330
4FA
330
4FB
102
}
330
71
100
AcDbEntity
  8
0
  6
Continuous
 62
     2
100
AcDbCircle
 10
-56.99364627953563
 20
18.54853237263831
 30
0.0
 40
1.055365641333708
100
AcDbArc
 50
270.0
 51
90.0
  0
ARC
  5
49A
102
{ACAD_REACTORS
330
500
330
501
102
}
330
71
100
AcDbEntity
  8
0
  6
Continuous
 62
     2
100
AcDbCircle
 10
-64.77369738779103
 20
14.21917049262009
 30
0.0
 40
0.3157169230756836
100
AcDbArc
 50
180.0
 51
270.0
  0
ARC
  5
49B
102
{ACAD_REACTORS
330
500
330
501
102
}
330
71
100
AcDbEntity
  8
0
  6
Continuous
 62
     2
100
AcDbCircle
 10
-63.29786412678141
 20
18.5756255353372
 30
0.0
 40
0.3157169230766002
100
AcDbArc
 50
0.0
 51
90.0
  0
ARC
  5
49C
102
{ACAD_REACTORS
330
500
330
501
102
}
330
71
100
AcDbEntity
  8
0
  6
Continuous
 62
     2
100
AcDbCircle
 10
-63.29786412678141
 20
17.97160091627669
 30
0.0
 40
0.3157169230761233
100
AcDbArc
 50
295.1944106485409
 51
0.0
  0
ARC
  5
49D
102
{ACAD_REACTORS
330
500
330
501
102
}
330
71
100
AcDbEntity
  8
0
  6
Continuous
 62
     2
100
AcDbCircle
 10
-63.29786412678141
 20
14.21917049262009
 30
0.0
 40
0.3157169230767014
100
AcDbArc
 50
270.0
 51
0.0
  0
ARC
  5
49E
102
{ACAD_REACTORS
330
500
330
501
102
}
330
71
100
AcDbEntity
  8
0
  6
Continuous
 62
     2
100
AcDbCircle
 10
-65.36759206453752
 20
19.17965339857
 30
0.0
 40
0.4242446153837989
100
AcDbArc
 50
90.0
 51
180.0
  0
ARC
  5
49F
102
{ACAD_REACTORS
330
500
330
501
102
}
330
71
100
AcDbEntity
  8
0
  6
Continuous
 62
     2
100
AcDbCircle
 10
-59.89427997382072
 20
19.17965339857
 30
0.0
 40
0.4242446153838912
100
AcDbArc
 50
0.0
 51
90.0
  0
ARC
  5
4A0
102
{ACAD_REACTORS
330
500
330
501
102
}
330
71
100
AcDbEntity
  8
0
  6
Continuous
 62
     2
100
AcDbCircle
 10
-59.89427997382072
 20
13.61514262936979
 30
0.0
 40
0.4242446153832908
100
AcDbArc
 50
270.0
 51
0.0
  0
ARC
  5
4A1
102
{ACAD_REACTORS
330
4FE
330
4FF
102
}
330
71
100
AcDbEntity
  8
0
  6
Continuous
 62
     2
100
AcDbCircle
 10
-50.67589608672921
 20
18.0769932520661
 30
0.0
 40
0.7717997786796351
100
AcDbArc
 50
321.879580202844
 51
38.12041979715956
  0
ARC
  5
4A2
102
{ACAD_REACTORS
330
4FE
330
4FF
102
}
330
71
100
AcDbEntity
  8
0
  6
Continuous
 62
     2
100
AcDbCircle
 10
-50.47615605038303
 20
17.92026207394568
 30
0.0
 40
0.5179085730134315
100
AcDbArc
 50
218.1204197971516
 51
321.8795802028571
  0
ARC
  5
4A3
102
{ACAD_REACTORS
330
4FC
330
4FD
102
}
330
71
100
AcDbEntity
  8
0
  6
Continuous
 62
     2
100
AcDbCircle
 10
-54.15616363934322
 20
14.71780277589178
 30
0.0
 40
1.458034083651995
100
AcDbArc
 50
297.5481481757013
 51
62.45185182429896
  0
ARC
  5
4A4
102
{ACAD_REACTORS
330
4FC
330
4FD
102
}
330
71
100
AcDbEntity
  8
0
  6
Continuous
 62
     2
100
AcDbCircle
 10
-54.71804342300982
 20
14.71780277589178
 30
0.0
 40
1.458034083651493
100
AcDbArc
 50
117.5481481756627
 51
242.4518518243371
  0
ARC
  5
4A5
102
{ACAD_REACTORS
330
4FC
330
4FD
102
}
330
71
100
AcDbEntity
  8
0
  6
Continuous
 62
     2
100
AcDbCircle
 10
-54.43710353117652
 20
14.17922776558899
 30
0.0
 40
2.065479772208564
100
AcDbArc
 50
62.45185182430632
 51
117.5481481756666
  0
ARC
  5
4A6
102
{ACAD_REACTORS
330
4FC
330
4FD
102
}
330
71
100
AcDbEntity
  8
0
  6
Continuous
 62
     2
100
AcDbCircle
 10
-54.43710353117652
 20
15.25637778619509
 30
0.0
 40
2.065479772208509
100
AcDbArc
 50
242.45185182434
 51
297.5481481756871
  0
ARC
  5
4A7
102
{ACAD_REACTORS
330
4FE
330
4FF
102
}
330
71
100
AcDbEntity
  8
0
  6
Continuous
 62
     2
100
AcDbCircle
 10
-50.27641601403673
 20
18.0769932520661
 30
0.0
 40
0.7717997786796724
100
AcDbArc
 50
141.8795802028404
 51
218.120419797156
  0
ARC
  5
4A8
102
{ACAD_REACTORS
330
4FE
330
4FF
102
}
330
71
100
AcDbEntity
  8
0
  6
Continuous
 62
     2
100
AcDbCircle
 10
-50.47615605038303
 20
18.23372443018658
 30
0.0
 40
0.5179085730135321
100
AcDbArc
 50
38.12041979714286
 51
141.8795802028484
  0
ARC
  5
4A9
102
{ACAD_REACTORS
330
500
330
501
102
}
330
71
100
AcDbEntity
  8
0
  6
Continuous
 62
     2
100
AcDbCircle
 10
-65.36759206453752
 20
13.61514262936979
 30
0.0
 40
0.4242446153828041
100
AcDbArc
 50
180.0
 51
270.0
  0
ARC
  5
4AA
102
{ACAD_REACTORS
330
500
330
501
102
}
330
71
100
AcDbEntity
  8
0
  6
Continuous
 62
     2
100
AcDbCircle
 10
-63.29786412678141
 20
15.7499414241517
 30
0.0
 40
0.3157169230766002
100
AcDbArc
 50
0.0
 51
64.8055893514591
  0
ARC
  5
4AB
102
{ACAD_REACTORS
330
500
330
501
102
}
330
71
100
AcDbEntity
  8
0
  6
Continuous
 62
     2
100
AcDbCircle
 10
-62.77527967920642
 20
16.86077117021449
 30
0.0
 40
0.9118975235576178
100
AcDbArc
 50
115.1944106485281
 51
244.8055893514878
  0
ARC
  5
4AC
102
{ACAD_REACTORS
330
500
330
501
102
}
330
71
100
AcDbEntity
  8
0
  6
Continuous
 62
     2
100
AcDbCircle
 10
-64.77369738779103
 20
18.5756255353372
 30
0.0
 40
0.3157169230761916
100
AcDbArc
 50
90.0
 51
180.0
  0
ARC
  5
4AD
102
{ACAD_REACTORS
330
4FA
330
4FB
102
}
330
71
100
AcDbEntity
  8
0
  6
Continuous
 62
     2
100
AcDbCircle
 10
-57.43511880577401
 20
18.5879283438608
 30
0.0
 40
0.3528638246711182
100
AcDbArc
 50
270.0
 51
90.0
  0
ARC
  5
4AE
102
{ACAD_REACTORS
330
4FE
330
4FF
102
}
330
71
100
AcDbEntity
  8
0
  6
Continuous
 62
     2
100
AcDbCircle
 10
-50.69242806054822
 20
18.0769932520661
 30
0.0
 40
1.52690476190589
100
AcDbArc
 50
90.0
 51
270.0
  0
ARC
  5
4AF
102
{ACAD_REACTORS
330
502
330
503
102
}
330
71
100
AcDbEntity
  8
0
  6
Continuous
 62
     2
100
AcDbCircle
 10
-41.2654329678445
 20
14.60501241385688
 30
0.0
 40
1.639695123940221
100
AcDbArc
 50
90.0
 51
164.9381082228948
  0
ARC
  5
4B0
102
{ACAD_REACTORS
330
502
330
503
102
}
330
71
100
AcDbEntity
  8
0
  6
Continuous
 62
     2
100
AcDbCircle
 10
-41.68456081130611
 20
14.71780277589178
 30
0.0
 40
1.205656168393004
100
AcDbArc
 50
164.9381082229025
 51
195.0618917770958
  0
ARC
  5
4B1
102
{ACAD_REACTORS
330
502
330
503
102
}
330
71
100
AcDbEntity
  8
0
  6
Continuous
 62
     2
100
AcDbCircle
 10
-41.13468848652872
 20
14.5127313465533
 30
0.0
 40
0.5115800601960259
100
AcDbArc
 50
208.5214732576875
 51
246.6277221118451
  0
ARC
  5
4B2
102
{ACAD_REACTORS
330
502
330
503
102
}
330
71
100
AcDbEntity
  8
0
  6
Continuous
 62
     2
100
AcDbCircle
 10
-41.13468848652872
 20
14.92287420523078
 30
0.0
 40
0.5115800601944194
100
AcDbArc
 50
109.3371432194851
 51
151.4785267424218
  0
ARC
  5
4B3
102
{ACAD_REACTORS
330
500
330
501
102
}
330
71
100
AcDbEntity
  8
0
  6
Continuous
 62
     2
100
AcDbCircle
 10
-62.19814870125933
 20
15.169778163551
 30
0.0
 40
0.315716923076792
100
AcDbArc
 50
180.0
 51
269.8110329574529
  0
ARC
  5
4B4
102
{ACAD_REACTORS
330
500
330
501
102
}
330
71
100
AcDbEntity
  8
0
  6
Continuous
 62
     2
100
AcDbCircle
 10
-62.19253256594931
 20
16.87261311111999
 30
0.0
 40
2.018561131933266
100
AcDbArc
 50
269.8110329575857
 51
90.18896704241436
  0
ARC
  5
4B5
102
{ACAD_REACTORS
330
500
330
501
102
}
330
71
100
AcDbEntity
  8
0
  6
Continuous
 62
     2
100
AcDbCircle
 10
-62.19814870125933
 20
17.9699127701823
 30
0.0
 40
0.315716923076792
100
AcDbArc
 50
180.0
 51
244.6259913216475
  0
ARC
  5
4B6
102
{ACAD_REACTORS
330
500
330
501
102
}
330
71
100
AcDbEntity
  8
0
  6
Continuous
 62
     2
100
AcDbCircle
 10
-62.19814870125933
 20
15.75162957024608
 30
0.0
 40
0.3157169230765344
100
AcDbArc
 50
115.3740086783517
 51
180.0
  0
ARC
  5
4B7
102
{ACAD_REACTORS
330
504
330
505
102
}
330
71
100
AcDbEntity
  8
0
  6
Continuous
 62
     2
100
AcDbCircle
 10
-57.36813444709742
 20
14.60501241385688
 30
0.0
 40
1.639695123940514
100
AcDbArc
 50
84.84185523036238
 51
164.9381082228861
  0
ARC
  5
4B8
102
{ACAD_REACTORS
330
504
330
505
102
}
330
71
100
AcDbEntity
  8
0
  6
Continuous
 62
     2
100
AcDbCircle
 10
-57.78726229056022
 20
14.71780277589178
 30
0.0
 40
1.205656168390939
100
AcDbArc
 50
164.9381082228761
 51
195.0618917770946
  0
ARC
  5
4B9
102
{ACAD_REACTORS
330
504
330
505
102
}
330
71
100
AcDbEntity
  8
0
  6
Continuous
 62
     2
100
AcDbCircle
 10
-57.36813444709742
 20
14.8305931379266
 30
0.0
 40
1.63969512393938
100
AcDbArc
 50
195.0618917770896
 51
275.1581447696395
  0
ARC
  5
4BA
102
{ACAD_REACTORS
330
504
330
505
102
}
330
71
100
AcDbEntity
  8
0
  6
Continuous
 62
     2
100
AcDbCircle
 10
-57.65699054183332
 20
18.03048372114819
 30
0.0
 40
4.852596863498145
100
AcDbArc
 50
275.1581447696249
 51
285.9799912583529
  0
ARC
  5
4BB
102
{ACAD_REACTORS
330
504
330
505
102
}
330
71
100
AcDbEntity
  8
0
  6
Continuous
 62
     2
100
AcDbCircle
 10
-56.86003270770132
 20
14.71780277589178
 30
0.0
 40
0.9410597353332545
100
AcDbArc
 50
151.4785267422669
 51
208.5214732577053
  0
ARC
  5
4BC
102
{ACAD_REACTORS
330
504
330
505
102
}
330
71
100
AcDbEntity
  8
0
  6
Continuous
 62
     2
100
AcDbCircle
 10
-57.23738996578163
 20
14.92287420523078
 30
0.0
 40
0.5115800601948823
100
AcDbArc
 50
113.3722778881998
 51
151.4785267423044
  0
ARC
  5
4BD
102
{ACAD_REACTORS
330
504
330
505
102
}
330
71
100
AcDbEntity
  8
0
  6
Continuous
 62
     2
100
AcDbCircle
 10
-57.4991176667404
 20
13.3073364104836
 30
0.0
 40
2.227384008973474
100
AcDbArc
 50
58.06909105004068
 51
71.55192388186722
  0
ARC
  5
4BE
102
{ACAD_REACTORS
330
4FC
330
4FD
102
}
330
71
100
AcDbEntity
  8
0
  6
Continuous
 62
     2
100
AcDbCircle
 10
-54.43710353117652
 20
14.87453395401229
 30
0.0
 40
0.5179085730133032
100
AcDbArc
 50
38.1204197971475
 51
141.8795802028583
  0
ARC
  5
4BF
102
{ACAD_REACTORS
330
4FC
330
4FD
102
}
330
71
100
AcDbEntity
  8
0
  6
Continuous
 62
     2
100
AcDbCircle
 10
-54.23736349483042
 20
14.71780277589178
 30
0.0
 40
0.7717997786794665
100
AcDbArc
 50
141.879580202836
 51
218.1204197971687
  0
ARC
  5
4C0
102
{ACAD_REACTORS
330
4FC
330
4FD
102
}
330
71
100
AcDbEntity
  8
0
  6
Continuous
 62
     2
100
AcDbCircle
 10
-54.43710353117652
 20
14.56107159777179
 30
0.0
 40
0.5179085730137397
100
AcDbArc
 50
218.1204197971938
 51
321.8795802028004
  0
ARC
  5
4C1
102
{ACAD_REACTORS
330
4FC
330
4FD
102
}
330
71
100
AcDbEntity
  8
0
  6
Continuous
 62
     2
100
AcDbCircle
 10
-54.63684356752293
 20
14.71780277589178
 30
0.0
 40
0.7717997786796947
100
AcDbArc
 50
321.8795802028417
 51
38.12041979715359
  0
CIRCLE
  5
4C2
330
71
100
AcDbEntity
  8
1
  6
Continuous
 62
     2
100
AcDbCircle
 10
-57.29183667992032
 20
27.0223980139701
 30
0.0
 40
2.5
  0
CIRCLE
  5
4C3
330
71
100
AcDbEntity
  8
1
  6
Continuous
 62
     2
100
AcDbCircle
 10
-57.29183667992032
 20
27.0223980139701
 30
0.0
 40
1.249999999999915
  0
CIRCLE
  5
4C4
102
{ACAD_REACTORS
330
500
330
501
102
}
330
71
100
AcDbEntity
  8
0
  6
Continuous
 62
     2
100
AcDbCircle
 10
-62.74800641402001
 20
16.86077117021449
 30
0.0
 40
0.4709789327785145
  0
MTEXT
  5
4C5
330
71
100
AcDbEntity
  8
1
 62
     3
100
AcDbMText
 10
-227.4786192536611
 20
192.688706169269
 30
0.0
 40
1.8
 41
0.0
 71
     7
 72
     1
  3
Weitergabe sowie Vervielf\U+00e4ltigung dieses Dokuments, Verwertung und \PMitteilung seines Inhalts sind verboten, soweit nicht ausdr\U+00fccklich gestattet. \PZuwiderhandlungen verpflichten zu Schadenersatz. Alle Rechte f\U+00fcr den Fall\Pder Pat
  1
ent-, Gebrauchsmuster- oder Designeintragung vorbehalten.
  7
CONVERTER_11
 73
     1
 44
0.99639855942377
  0
MTEXT
  5
4C6
330
71
100
AcDbEntity
  8
1
 62
     3
100
AcDbMText
 10
-44.62550941487302
 20
192.688706169269
 30
0.0
 40
1.8
 41
0.0
 71
     7
 72
     1
  3
Transfer or duplication of this document as well as the utilisation or\Pcommunication of its content are not permitted unless express consent\Pis granted. Violations give rise to claims for damages. All rights reserved\Pin case of patent, utility mo
  1
del or design patent registrations.
  7
CONVERTER_11
 73
     1
 44
0.99639855942377
  0
TEXT
  5
4C7
330
71
100
AcDbEntity
  8
1
 62
     2
100
AcDbText
 10
-50.82849156648311
 20
7.13838079897857
 30
0.0
 40
1.8
  1
of
 41
0.9
  7
CONVERTER_11
100
AcDbText
  0
TEXT
  5
4C8
330
71
100
AcDbEntity
  8
1
 62
     2
100
AcDbText
 10
-69.02849156648293
 20
7.13838079897852
 30
0.0
 40
1.8
  1
page
 41
0.9
  7
CONVERTER_11
100
AcDbText
  0
TEXT
  5
4C9
330
71
100
AcDbEntity
  8
1
 62
     2
100
AcDbText
 10
-60.38222659614092
 20
7.09814936016818
 30
0.0
 40
1.8
  1
1
 41
0.9
  7
CONVERTER_11
100
AcDbText
  0
TEXT
  5
4CA
330
71
100
AcDbEntity
  8
1
 62
     2
100
AcDbText
 10
-45.59318275666942
 20
7.14739801397008
 30
0.0
 40
1.8
  1
1
 41
0.9
  7
CONVERTER_11
100
AcDbText
  0
MTEXT
  5
4CC
330
71
100
AcDbEntity
  8
1
 62
     7
100
AcDbMText
 10
12.94391069689257
 20
9.14739801397042
 30
0.0
 40
3.0
 41
0.0
 71
     5
 72
     1
  1
PPC 1,5/S/ 5
  7
CONVERTER_12
 73
     1
 44
1.20048019207683
  0
MTEXT
  5
4CD
330
71
100
AcDbEntity
  8
1
 62
     2
100
AcDbMText
 10
-32.62849156648301
 20
13.39739801397019
 30
0.0
 40
1.8
 41
0.0
 71
     1
 72
     1
  1
description
  7
CONVERTER_11
 73
     1
 44
1.20048019207683
  0
MTEXT
  5
4CE
330
71
100
AcDbEntity
  8
1
 62
     3
100
AcDbMText
 10
-43.82849156648302
 20
27.02239801397019
 30
0.0
 40
2.5
 41
0.0
 71
     5
 72
     1
  1
DIN A4
  7
CONVERTER_11
 73
     1
 44
1.20048019207683
  0
MTEXT
  5
4CF
330
71
100
AcDbEntity
  8
1
 62
     7
100
AcDbMText
 10
-229.983687039732
 20
28.39739801397019
 30
0.0
 40
3.5
 41
0.0
 71
     5
 72
     1
  1
D
  7
CONVERTER_11
 73
     1
 44
1.20048019207683
  0
MTEXT
  5
4D0
330
71
100
AcDbEntity
  8
1
 62
     7
100
AcDbMText
 10
-229.983687039732
 20
80.89739801397019
 30
0.0
 40
3.5
 41
0.0
 71
     5
 72
     1
  1
C
  7
CONVERTER_11
 73
     1
 44
1.20048019207683
  0
MTEXT
  5
4D1
330
71
100
AcDbEntity
  8
1
 62
     7
100
AcDbMText
 10
-229.983687039732
 20
130.8973980139702
 30
0.0
 40
3.5
 41
0.0
 71
     5
 72
     1
  1
B
  7
CONVERTER_11
 73
     1
 44
1.20048019207683
  0
MTEXT
  5
4D2
330
71
100
AcDbEntity
  8
1
 62
     7
100
AcDbMText
 10
-229.983687039732
 20
183.3973980139702
 30
0.0
 40
3.5
 41
0.0
 71
     5
 72
     1
  1
A
  7
CONVERTER_11
 73
     1
 44
1.20048019207683
  0
MTEXT
  5
4D3
330
71
100
AcDbEntity
  8
1
 62
     7
100
AcDbMText
 10
40.26631296026628
 20
3.39739801397008
 30
0.0
 40
3.5
 41
0.0
 71
     5
 72
     1
  1
6
  7
CONVERTER_11
 73
     1
 44
1.20048019207683
  0
MTEXT
  5
4D4
330
71
100
AcDbEntity
  8
1
 62
     7
100
AcDbMText
 10
-8.98368703973293
 20
3.39739801397008
 30
0.0
 40
3.5
 41
0.0
 71
     5
 72
     1
  1
5
  7
CONVERTER_11
 73
     1
 44
1.20048019207683
  0
MTEXT
  5
4D5
330
71
100
AcDbEntity
  8
1
 62
     7
100
AcDbMText
 10
-58.98368703973301
 20
3.39739801397008
 30
0.0
 40
3.5
 41
0.0
 71
     5
 72
     1
  1
4
  7
CONVERTER_11
 73
     1
 44
1.20048019207683
  0
MTEXT
  5
4D6
330
71
100
AcDbEntity
  8
1
 62
     7
100
AcDbMText
 10
-108.9836870397329
 20
3.39739801397008
 30
0.0
 40
3.5
 41
0.0
 71
     5
 72
     1
  1
3
  7
CONVERTER_11
 73
     1
 44
1.20048019207683
  0
MTEXT
  5
4D7
330
71
100
AcDbEntity
  8
1
 62
     7
100
AcDbMText
 10
-158.9836870397329
 20
3.39739801397008
 30
0.0
 40
3.5
 41
0.0
 71
     5
 72
     1
  1
2
  7
CONVERTER_11
 73
     1
 44
1.20048019207683
  0
MTEXT
  5
4D8
330
71
100
AcDbEntity
  8
1
 62
     7
100
AcDbMText
 10
-208.2336870397325
 20
3.39739801397008
 30
0.0
 40
3.5
 41
0.0
 71
     5
 72
     1
  1
1
  7
CONVERTER_11
 73
     1
 44
1.20048019207683
  0
MTEXT
  5
4D9
330
71
100
AcDbEntity
  8
1
 62
     7
100
AcDbMText
 10
62.01631296026608
 20
28.39739801397019
 30
0.0
 40
3.5
 41
0.0
 71
     5
 72
     1
  1
D
  7
CONVERTER_11
 73
     1
 44
1.20048019207683
  0
MTEXT
  5
4DA
330
71
100
AcDbEntity
  8
1
 62
     7
100
AcDbMText
 10
62.01631296026608
 20
130.8973980139721
 30
0.0
 40
3.5
 41
0.0
 71
     5
 72
     1
  1
B
  7
CONVERTER_11
 73
     1
 44
1.20048019207683
  0
MTEXT
  5
4DB
330
71
100
AcDbEntity
  8
1
 62
     7
100
AcDbMText
 10
62.01631296026608
 20
183.3973980139702
 30
0.0
 40
3.5
 41
0.0
 71
     5
 72
     1
  1
A
  7
CONVERTER_11
 73
     1
 44
1.20048019207683
  0
MTEXT
  5
4DC
330
71
100
AcDbEntity
  8
1
 62
     7
100
AcDbMText
 10
62.01631296026608
 20
80.8973980139721
 30
0.0
 40
3.5
 41
0.0
 71
     5
 72
     1
  1
C
  7
CONVERTER_11
 73
     1
 44
1.20048019207683
  0
MTEXT
  5
4DD
330
71
100
AcDbEntity
  8
1
 62
     2
100
AcDbMText
 10
-104.4665062915304
 20
18.6473980139701
 30
0.0
 40
2.0
 41
0.0
 71
     5
 72
     1
  1
General Information\P- Simplified representation\P- Document excluded from change process\P- Linear dimensions [mm]
  7
CONVERTER_11
 73
     1
 44
1.20048019207683
  0
TEXT
  5
4DE
330
71
100
AcDbEntity
  8
1
 62
     7
100
AcDbText
 10
-32.12849156648321
 20
15.69739801397009
 30
0.0
 40
2.5
  1
3213412
 41
0.81
  7
CONVERTER_12
100
AcDbText
  0
MTEXT
  5
4DF
330
71
100
AcDbEntity
  8
1
 62
     2
100
AcDbMText
 10
-32.52849156648293
 20
21.89739801397019
 30
0.0
 40
1.8
 41
0.0
 71
     1
 72
     1
  1
ident.-No.
  7
CONVERTER_11
 73
     1
 44
1.20048019207683
  0
MTEXT
  5
4E0
330
71
100
AcDbEntity
  8
1
 62
     2
100
AcDbMText
 10
51.69790467858979
 20
30.39739801397019
 30
0.0
 40
1.8
 41
0.0
 71
     1
 72
     1
  1
scale
  7
CONVERTER_11
 73
     1
 44
1.20048019207683
  0
MTEXT
  5
4E2
330
71
100
AcDbEntity
  8
1
 62
     3
100
AcDbMText
 10
55.05710881942939
 20
24.19739801397029
 30
0.0
 40
2.5
 41
0.0
 71
     8
 72
     1
  1
2:1
  7
CONVERTER_13
 73
     1
 44
1.32052821128451
  0
TEXT
  5
4E3
330
71
100
AcDbEntity
  8
1
 62
     7
100
AcDbText
 10
-32.52849156648293
 20
24.19739801397009
 30
0.0
 40
2.5
  1
00580468
 41
0.81
  7
CONVERTER_12
100
AcDbText
  0
MTEXT
  5
4E5
330
71
100
AcDbEntity
  8
1
 62
     2
100
AcDbMText
 10
-32.52849156648293
 20
30.39739801397019
 30
0.0
 40
1.8
 41
0.0
 71
     1
 72
     1
  1
document-No. / RI
  7
CONVERTER_14
 73
     1
 44
1.32052821128451
  0
TEXT
  5
4E6
330
71
100
AcDbEntity
  8
1
 62
     3
100
AcDbText
 10
-4.72849156648292
 20
15.69739801397009
 30
0.0
 40
2.5
  1
TECDOC 2D_Productdrawing
 41
0.81
  7
CONVERTER_12
100
AcDbText
  0
MTEXT
  5
4E7
330
71
100
AcDbEntity
  8
1
 62
     2
100
AcDbMText
 10
-4.72849156648292
 20
21.8973980139701
 30
0.0
 40
1.8
 41
0.0
 71
     1
 72
     1
  1
document-type
  7
CONVERTER_11
 73
     1
 44
1.20048019207683
  0
MTEXT
  5
4E8
330
71
100
AcDbEntity
  8
1
 62
     2
100
AcDbMText
 10
25.09790467858997
 20
30.3973980139701
 30
0.0
 40
1.8
 41
0.0
 71
     1
 72
     1
  1
date
  7
CONVERTER_11
 73
     1
 44
1.32052821128451
  0
TEXT
  5
4E9
330
71
100
AcDbEntity
  8
1
 62
     3
100
AcDbText
 10
25.09790467858997
 20
24.19739801397009
 30
0.0
 40
2.5
  1
28.12.2018
 41
0.81
  7
CONVERTER_12
100
AcDbText
  0
TEXT
  5
4EA
330
71
100
AcDbEntity
  8
1
 62
     7
100
AcDbText
 10
-12.49857934742713
 20
24.19739801397009
 30
0.0
 40
2.5
  1
03
 41
0.81
  7
CONVERTER_12
100
AcDbText
  0
TEXT
  5
4EB
330
71
100
AcDbEntity
  8
1
 62
     7
100
AcDbText
 10
-14.65494384446913
 20
24.19739801397009
 30
0.0
 40
2.5
  1
/
 41
0.9
  7
CONVERTER_11
100
AcDbText
  0
HATCH
  5
4EC
330
71
100
AcDbEntity
  8
1
  6
Continuous
 62
     2
100
AcDbHatch
 10
0.0
 20
0.0
 30
0.0
210
0.0
220
0.0
230
1.0
  2
_USER
 70
     0
 71
     1
 91
        1
 92
        1
 93
       12
 72
     1
 10
-52.36099085352183
 20
16.55008849016079
 11
-53.55378355568823
 21
16.55008849016079
 72
     1
 10
-53.55378355568823
 20
16.55008849016079
 11
-53.55378355568823
 21
17.68436059900461
 72
     1
 10
-53.55378355568823
 20
17.68436059900461
 11
-54.60344113359571
 21
17.68436059900461
 72
     1
 10
-54.60344113359571
 20
17.68436059900461
 11
-54.60344113359571
 21
16.55008849016079
 72
     1
 10
-54.60344113359571
 20
16.55008849016079
 11
-55.79623383576231
 21
16.55008849016079
 72
     1
 10
-55.79623383576231
 20
16.55008849016079
 11
-55.79623383576231
 21
19.60389801397199
 72
     1
 10
-55.79623383576231
 20
19.60389801397199
 11
-54.60344113359571
 21
19.60389801397199
 72
     1
 10
-54.60344113359571
 20
19.60389801397199
 11
-54.60344113359571
 21
18.53506468063739
 72
     1
 10
-54.60344113359571
 20
18.53506468063739
 11
-53.55378355568823
 21
18.53506468063739
 72
     1
 10
-53.55378355568823
 20
18.53506468063739
 11
-53.55378355568823
 21
19.60389801397199
 72
     1
 10
-53.55378355568823
 20
19.60389801397199
 11
-52.36099085352183
 21
19.60389801397199
 72
     1
 10
-52.36099085352183
 20
19.60389801397199
 11
-52.36099085352183
 21
16.55008849016079
 97
       12
330
459
330
45A
330
444
330
443
330
442
330
456
330
441
330
457
330
458
330
440
330
43F
330
43E
 75
     1
 76
     0
 52
45.0
 41
0.1
 77
     0
 78
     1
 53
45.0
 43
0.0
 44
0.0
 45
-0.0707106781186548
 46
0.0707106781186548
 79
     0
 98
        1
 10
0.0
 20
0.0
  0
HATCH
  5
4ED
330
71
100
AcDbEntity
  8
1
  6
Continuous
 62
     2
100
AcDbHatch
 10
0.0
 20
0.0
 30
0.0
210
0.0
220
0.0
230
1.0
  2
_USER
 70
     0
 71
     1
 91
        1
 92
        1
 93
       12
 72
     1
 10
-52.36099085352183
 20
16.55008849016079
 11
-53.55378355568823
 21
16.55008849016079
 72
     1
 10
-53.55378355568823
 20
16.55008849016079
 11
-53.55378355568823
 21
17.68436059900461
 72
     1
 10
-53.55378355568823
 20
17.68436059900461
 11
-54.60344113359571
 21
17.68436059900461
 72
     1
 10
-54.60344113359571
 20
17.68436059900461
 11
-54.60344113359571
 21
16.55008849016079
 72
     1
 10
-54.60344113359571
 20
16.55008849016079
 11
-55.79623383576231
 21
16.55008849016079
 72
     1
 10
-55.79623383576231
 20
16.55008849016079
 11
-55.79623383576231
 21
19.60389801397199
 72
     1
 10
-55.79623383576231
 20
19.60389801397199
 11
-54.60344113359571
 21
19.60389801397199
 72
     1
 10
-54.60344113359571
 20
19.60389801397199
 11
-54.60344113359571
 21
18.53506468063739
 72
     1
 10
-54.60344113359571
 20
18.53506468063739
 11
-53.55378355568823
 21
18.53506468063739
 72
     1
 10
-53.55378355568823
 20
18.53506468063739
 11
-53.55378355568823
 21
19.60389801397199
 72
     1
 10
-53.55378355568823
 20
19.60389801397199
 11
-52.36099085352183
 21
19.60389801397199
 72
     1
 10
-52.36099085352183
 20
19.60389801397199
 11
-52.36099085352183
 21
16.55008849016079
 97
       12
330
459
330
45A
330
444
330
443
330
442
330
456
330
441
330
457
330
458
330
440
330
43F
330
43E
 75
     1
 76
     0
 52
45.0
 41
0.1
 77
     0
 78
     1
 53
45.0
 43
0.0
 44
0.0
 45
-0.0707106781186548
 46
0.0707106781186548
 79
     0
 98
        1
 10
0.0
 20
0.0
  0
HATCH
  5
4EE
330
71
100
AcDbEntity
  8
1
  6
Continuous
 62
     2
100
AcDbHatch
 10
0.0
 20
0.0
 30
0.0
210
0.0
220
0.0
230
1.0
  2
_USER
 70
     0
 71
     1
 91
        1
 92
        1
 93
       10
 72
     1
 10
-50.11869150433353
 20
14.93593202759249
 11
-51.35919591458642
 21
16.24470753779758
 72
     1
 10
-51.35919591458642
 20
16.24470753779758
 11
-52.55198861675402
 21
16.24470753779758
 72
     1
 10
-52.55198861675402
 20
16.24470753779758
 11
-52.55198861675402
 21
13.1908980139865
 72
     1
 10
-52.55198861675402
 20
13.1908980139865
 11
-51.35919591458642
 21
13.1908980139865
 72
     1
 10
-51.35919591458642
 20
13.1908980139865
 11
-51.35919591458642
 21
14.49967352419108
 72
     1
 10
-51.35919591458642
 20
14.49967352419108
 11
-50.11869150433353
 21
13.1908980139865
 72
     1
 10
-50.11869150433353
 20
13.1908980139865
 11
-48.92589880216713
 21
13.1908980139865
 72
     1
 10
-48.92589880216713
 20
13.1908980139865
 11
-48.92589880216713
 21
16.24470753779758
 72
     1
 10
-48.92589880216713
 20
16.24470753779758
 11
-50.11869150433353
 21
16.24470753779758
 72
     1
 10
-50.11869150433353
 20
16.24470753779758
 11
-50.11869150433353
 21
14.93593202759249
 97
       10
330
467
330
437
330
436
330
439
330
462
330
463
330
438
330
464
330
465
330
466
 75
     1
 76
     0
 52
45.0
 41
0.1
 77
     0
 78
     1
 53
45.0
 43
0.0
 44
0.0
 45
-0.0707106781186548
 46
0.0707106781186548
 79
     0
 98
        1
 10
0.0
 20
0.0
  0
HATCH
  5
4EF
330
71
100
AcDbEntity
  8
1
  6
Continuous
 62
     2
100
AcDbHatch
 10
0.0
 20
0.0
 30
0.0
210
0.0
220
0.0
230
1.0
  2
_USER
 70
     0
 71
     1
 91
        1
 92
        1
 93
       10
 72
     1
 10
-50.11869150433353
 20
14.93593202759249
 11
-51.35919591458642
 21
16.24470753779758
 72
     1
 10
-51.35919591458642
 20
16.24470753779758
 11
-52.55198861675402
 21
16.24470753779758
 72
     1
 10
-52.55198861675402
 20
16.24470753779758
 11
-52.55198861675402
 21
13.1908980139865
 72
     1
 10
-52.55198861675402
 20
13.1908980139865
 11
-51.35919591458642
 21
13.1908980139865
 72
     1
 10
-51.35919591458642
 20
13.1908980139865
 11
-51.35919591458642
 21
14.49967352419108
 72
     1
 10
-51.35919591458642
 20
14.49967352419108
 11
-50.11869150433353
 21
13.1908980139865
 72
     1
 10
-50.11869150433353
 20
13.1908980139865
 11
-48.92589880216713
 21
13.1908980139865
 72
     1
 10
-48.92589880216713
 20
13.1908980139865
 11
-48.92589880216713
 21
16.24470753779758
 72
     1
 10
-48.92589880216713
 20
16.24470753779758
 11
-50.11869150433353
 21
16.24470753779758
 72
     1
 10
-50.11869150433353
 20
16.24470753779758
 11
-50.11869150433353
 21
14.93593202759249
 97
       10
330
467
330
437
330
436
330
439
330
462
330
463
330
438
330
464
330
465
330
466
 75
     1
 76
     0
 52
45.0
 41
0.1
 77
     0
 78
     1
 53
45.0
 43
0.0
 44
0.0
 45
-0.0707106781186548
 46
0.0707106781186548
 79
     0
 98
        1
 10
0.0
 20
0.0
  0
HATCH
  5
4F0
330
71
100
AcDbEntity
  8
1
  6
Continuous
 62
     2
100
AcDbHatch
 10
0.0
 20
0.0
 30
0.0
210
0.0
220
0.0
230
1.0
  2
_USER
 70
     0
 71
     1
 91
        1
 92
        1
 93
       10
 72
     1
 10
-44.87025268391381
 20
18.29512250376681
 11
-46.11075709416781
 21
19.60389801397199
 72
     1
 10
-46.11075709416781
 20
19.60389801397199
 11
-47.30354979633432
 21
19.60389801397199
 72
     1
 10
-47.30354979633432
 20
19.60389801397199
 11
-47.30354979633432
 21
16.55008849016079
 72
     1
 10
-47.30354979633432
 20
16.55008849016079
 11
-46.11075709416781
 21
16.55008849016079
 72
     1
 10
-46.11075709416781
 20
16.55008849016079
 11
-46.11075709416781
 21
17.85886400036549
 72
     1
 10
-46.11075709416781
 20
17.85886400036549
 11
-44.87025268391381
 21
16.55008849016079
 72
     1
 10
-44.87025268391381
 20
16.55008849016079
 11
-43.67745998174721
 21
16.55008849016079
 72
     1
 10
-43.67745998174721
 20
16.55008849016079
 11
-43.67745998174721
 21
19.60389801397199
 72
     1
 10
-43.67745998174721
 20
19.60389801397199
 11
-44.87025268391381
 21
19.60389801397199
 72
     1
 10
-44.87025268391381
 20
19.60389801397199
 11
-44.87025268391381
 21
18.29512250376681
 97
       10
330
46C
330
434
330
433
330
46D
330
432
330
468
330
469
330
46A
330
46B
330
435
 75
     1
 76
     0
 52
45.0
 41
0.1
 77
     0
 78
     1
 53
45.0
 43
0.0
 44
0.0
 45
-0.0707106781186548
 46
0.0707106781186548
 79
     0
 98
        1
 10
0.0
 20
0.0
  0
HATCH
  5
4F1
330
71
100
AcDbEntity
  8
1
  6
Continuous
 62
     2
100
AcDbHatch
 10
0.0
 20
0.0
 30
0.0
210
0.0
220
0.0
230
1.0
  2
_USER
 70
     0
 71
     1
 91
        1
 92
        1
 93
       10
 72
     1
 10
-44.87025268391381
 20
18.29512250376681
 11
-46.11075709416781
 21
19.60389801397199
 72
     1
 10
-46.11075709416781
 20
19.60389801397199
 11
-47.30354979633432
 21
19.60389801397199
 72
     1
 10
-47.30354979633432
 20
19.60389801397199
 11
-47.30354979633432
 21
16.55008849016079
 72
     1
 10
-47.30354979633432
 20
16.55008849016079
 11
-46.11075709416781
 21
16.55008849016079
 72
     1
 10
-46.11075709416781
 20
16.55008849016079
 11
-46.11075709416781
 21
17.85886400036549
 72
     1
 10
-46.11075709416781
 20
17.85886400036549
 11
-44.87025268391381
 21
16.55008849016079
 72
     1
 10
-44.87025268391381
 20
16.55008849016079
 11
-43.67745998174721
 21
16.55008849016079
 72
     1
 10
-43.67745998174721
 20
16.55008849016079
 11
-43.67745998174721
 21
19.60389801397199
 72
     1
 10
-43.67745998174721
 20
19.60389801397199
 11
-44.87025268391381
 21
19.60389801397199
 72
     1
 10
-44.87025268391381
 20
19.60389801397199
 11
-44.87025268391381
 21
18.29512250376681
 97
       10
330
46C
330
434
330
433
330
46D
330
432
330
468
330
469
330
46A
330
46B
330
435
 75
     1
 76
     0
 52
45.0
 41
0.1
 77
     0
 78
     1
 53
45.0
 43
0.0
 44
0.0
 45
-0.0707106781186548
 46
0.0707106781186548
 79
     0
 98
        1
 10
0.0
 20
0.0
  0
HATCH
  5
4F2
330
71
100
AcDbEntity
  8
1
  6
Continuous
 62
     2
100
AcDbHatch
 10
0.0
 20
0.0
 30
0.0
210
0.0
220
0.0
230
1.0
  2
_USER
 70
     0
 71
     1
 91
        1
 92
        1
 93
        8
 72
     1
 10
-45.96777290079331
 20
16.24470753779758
 11
-48.78276367790693
 21
16.24470753779758
 72
     1
 10
-48.78276367790693
 20
16.24470753779758
 11
-48.78276367790693
 21
15.45944223167399
 72
     1
 10
-48.78276367790693
 20
15.45944223167399
 11
-47.97166464043232
 21
15.45944223167399
 72
     1
 10
-47.97166464043232
 20
15.45944223167399
 11
-47.97166464043232
 21
13.1908980139865
 72
     1
 10
-47.97166464043232
 20
13.1908980139865
 11
-46.77887193826581
 21
13.1908980139865
 72
     1
 10
-46.77887193826581
 20
13.1908980139865
 11
-46.77887193826581
 21
15.45944223167399
 72
     1
 10
-46.77887193826581
 20
15.45944223167399
 11
-45.96777290079331
 21
15.45944223167399
 72
     1
 10
-45.96777290079331
 20
15.45944223167399
 11
-45.96777290079331
 21
16.24470753779758
 97
        8
330
42E
330
46E
330
42D
330
46F
330
470
330
431
330
430
330
42F
 75
     1
 76
     0
 52
45.0
 41
0.1
 77
     0
 78
     1
 53
45.0
 43
0.0
 44
0.0
 45
-0.0707106781186548
 46
0.0707106781186548
 79
     0
 98
        1
 10
0.0
 20
0.0
  0
HATCH
  5
4F3
330
71
100
AcDbEntity
  8
1
  6
Continuous
 62
     2
100
AcDbHatch
 10
0.0
 20
0.0
 30
0.0
210
0.0
220
0.0
230
1.0
  2
_USER
 70
     0
 71
     1
 91
        1
 92
        1
 93
        8
 72
     1
 10
-45.96777290079331
 20
16.24470753779758
 11
-48.78276367790693
 21
16.24470753779758
 72
     1
 10
-48.78276367790693
 20
16.24470753779758
 11
-48.78276367790693
 21
15.45944223167399
 72
     1
 10
-48.78276367790693
 20
15.45944223167399
 11
-47.97166464043232
 21
15.45944223167399
 72
     1
 10
-47.97166464043232
 20
15.45944223167399
 11
-47.97166464043232
 21
13.1908980139865
 72
     1
 10
-47.97166464043232
 20
13.1908980139865
 11
-46.77887193826581
 21
13.1908980139865
 72
     1
 10
-46.77887193826581
 20
13.1908980139865
 11
-46.77887193826581
 21
15.45944223167399
 72
     1
 10
-46.77887193826581
 20
15.45944223167399
 11
-45.96777290079331
 21
15.45944223167399
 72
     1
 10
-45.96777290079331
 20
15.45944223167399
 11
-45.96777290079331
 21
16.24470753779758
 97
        8
330
42E
330
46E
330
42D
330
46F
330
470
330
431
330
430
330
42F
 75
     1
 76
     0
 52
45.0
 41
0.1
 77
     0
 78
     1
 53
45.0
 43
0.0
 44
0.0
 45
-0.0707106781186548
 46
0.0707106781186548
 79
     0
 98
        1
 10
0.0
 20
0.0
  0
HATCH
  5
4F4
330
71
100
AcDbEntity
  8
1
  6
Continuous
 62
     2
100
AcDbHatch
 10
0.0
 20
0.0
 30
0.0
210
0.0
220
0.0
230
1.0
  2
_USER
 70
     0
 71
     1
 91
        2
 92
        1
 93
        8
 72
     1
 10
-43.82934544484633
 20
13.1908980139865
 11
-44.04082549832211
 21
13.73185855820438
 72
     1
 10
-44.04082549832211
 20
13.73185855820438
 11
-45.17326707499592
 21
13.73185855820438
 72
     1
 10
-45.17326707499592
 20
13.73185855820438
 11
-45.38474712847173
 21
13.1908980139865
 72
     1
 10
-45.38474712847173
 20
13.1908980139865
 11
-46.62525153872471
 21
13.1908980139865
 72
     1
 10
-46.62525153872471
 20
13.1908980139865
 11
-45.22729849178541
 21
16.24470753779758
 72
     1
 10
-45.22729849178541
 20
16.24470753779758
 11
-43.98679408153271
 21
16.24470753779758
 72
     1
 10
-43.98679408153271
 20
16.24470753779758
 11
-42.58884103459241
 21
13.1908980139865
 72
     1
 10
-42.58884103459241
 20
13.1908980139865
 11
-43.82934544484633
 21
13.1908980139865
 97
        8
330
472
330
473
330
42A
330
474
330
429
330
42C
330
471
330
42B
 92
       16
 93
        3
 72
     1
 10
-44.90721152385092
 20
14.41242182351098
 11
-44.60704628665852
 21
15.18023678949768
 72
     1
 10
-44.60704628665852
 20
15.18023678949768
 11
-44.30688104946842
 21
14.41242182351098
 72
     1
 10
-44.30688104946842
 20
14.41242182351098
 11
-44.90721152385092
 21
14.41242182351098
 97
        3
330
428
330
476
330
475
 75
     1
 76
     0
 52
45.0
 41
0.1
 77
     0
 78
     1
 53
45.0
 43
0.0
 44
0.0
 45
-0.0707106781186548
 46
0.0707106781186548
 79
     0
 98
        1
 10
0.0
 20
0.0
  0
HATCH
  5
4F5
330
71
100
AcDbEntity
  8
1
  6
Continuous
 62
     2
100
AcDbHatch
 10
0.0
 20
0.0
 30
0.0
210
0.0
220
0.0
230
1.0
  2
_USER
 70
     0
 71
     1
 91
        2
 92
        1
 93
        8
 72
     1
 10
-43.82934544484633
 20
13.1908980139865
 11
-44.04082549832211
 21
13.73185855820438
 72
     1
 10
-44.04082549832211
 20
13.73185855820438
 11
-45.17326707499592
 21
13.73185855820438
 72
     1
 10
-45.17326707499592
 20
13.73185855820438
 11
-45.38474712847173
 21
13.1908980139865
 72
     1
 10
-45.38474712847173
 20
13.1908980139865
 11
-46.62525153872471
 21
13.1908980139865
 72
     1
 10
-46.62525153872471
 20
13.1908980139865
 11
-45.22729849178541
 21
16.24470753779758
 72
     1
 10
-45.22729849178541
 20
16.24470753779758
 11
-43.98679408153271
 21
16.24470753779758
 72
     1
 10
-43.98679408153271
 20
16.24470753779758
 11
-42.58884103459241
 21
13.1908980139865
 72
     1
 10
-42.58884103459241
 20
13.1908980139865
 11
-43.82934544484633
 21
13.1908980139865
 97
        8
330
472
330
473
330
42A
330
474
330
429
330
42C
330
471
330
42B
 92
       16
 93
        3
 72
     1
 10
-44.90721152385092
 20
14.41242182351098
 11
-44.60704628665852
 21
15.18023678949768
 72
     1
 10
-44.60704628665852
 20
15.18023678949768
 11
-44.30688104946842
 21
14.41242182351098
 72
     1
 10
-44.30688104946842
 20
14.41242182351098
 11
-44.90721152385092
 21
14.41242182351098
 97
        3
330
428
330
476
330
475
 75
     1
 76
     0
 52
45.0
 41
0.1
 77
     0
 78
     1
 53
45.0
 43
0.0
 44
0.0
 45
-0.0707106781186548
 46
0.0707106781186548
 79
     0
 98
        1
 10
0.0
 20
0.0
  0
HATCH
  5
4F6
330
71
100
AcDbEntity
  8
1
  6
Continuous
 62
     2
100
AcDbHatch
 10
0.0
 20
0.0
 30
0.0
210
0.0
220
0.0
230
1.0
  2
_USER
 70
     0
 71
     1
 91
        1
 92
        1
 93
        4
 72
     1
 10
-42.19839703106041
 20
16.55008849016079
 11
-43.43890144131331
 21
16.55008849016079
 72
     1
 10
-43.43890144131331
 20
16.55008849016079
 11
-43.43890144131331
 21
19.60389801397199
 72
     1
 10
-43.43890144131331
 20
19.60389801397199
 11
-42.19839703106041
 21
19.60389801397199
 72
     1
 10
-42.19839703106041
 20
19.60389801397199
 11
-42.19839703106041
 21
16.55008849016079
 97
        4
330
425
330
427
330
477
330
426
 75
     1
 76
     0
 52
45.0
 41
0.1
 77
     0
 78
     1
 53
45.0
 43
0.0
 44
0.0
 45
-0.0707106781186548
 46
0.0707106781186548
 79
     0
 98
        1
 10
0.0
 20
0.0
  0
HATCH
  5
4F7
330
71
100
AcDbEntity
  8
1
  6
Continuous
 62
     2
100
AcDbHatch
 10
0.0
 20
0.0
 30
0.0
210
0.0
220
0.0
230
1.0
  2
_USER
 70
     0
 71
     1
 91
        1
 92
        1
 93
        4
 72
     1
 10
-42.19839703106041
 20
16.55008849016079
 11
-43.43890144131331
 21
16.55008849016079
 72
     1
 10
-43.43890144131331
 20
16.55008849016079
 11
-43.43890144131331
 21
19.60389801397199
 72
     1
 10
-43.43890144131331
 20
19.60389801397199
 11
-42.19839703106041
 21
19.60389801397199
 72
     1
 10
-42.19839703106041
 20
19.60389801397199
 11
-42.19839703106041
 21
16.55008849016079
 97
        4
330
425
330
427
330
477
330
426
 75
     1
 76
     0
 52
45.0
 41
0.1
 77
     0
 78
     1
 53
45.0
 43
0.0
 44
0.0
 45
-0.0707106781186548
 46
0.0707106781186548
 79
     0
 98
        1
 10
0.0
 20
0.0
  0
HATCH
  5
4F8
330
71
100
AcDbEntity
  8
1
  6
Continuous
 62
     2
100
AcDbHatch
 10
0.0
 20
0.0
 30
0.0
210
0.0
220
0.0
230
1.0
  2
_USER
 70
     0
 71
     1
 91
        1
 92
        1
 93
       12
 72
     1
 10
-37.97591086538961
 20
19.60389801397199
 11
-39.27844049615612
 21
18.13094748393579
 72
     1
 10
-39.27844049615612
 20
18.13094748393579
 11
-37.88048744921582
 21
16.55008849016079
 72
     1
 10
-37.88048744921582
 20
16.55008849016079
 11
-39.28321166696412
 21
16.55008849016079
 72
     1
 10
-39.28321166696412
 20
16.55008849016079
 11
-39.97980260502962
 21
17.3378202754545
 72
     1
 10
-39.97980260502962
 20
17.3378202754545
 11
-40.67639354309532
 21
16.55008849016079
 72
     1
 10
-40.67639354309532
 20
16.55008849016079
 11
-42.07911776084353
 21
16.55008849016079
 72
     1
 10
-42.07911776084353
 20
16.55008849016079
 11
-40.68116471390323
 21
18.13094748393579
 72
     1
 10
-40.68116471390323
 20
18.13094748393579
 11
-41.98369434467071
 21
19.60389801397199
 72
     1
 10
-41.98369434467071
 20
19.60389801397199
 11
-40.58097012692141
 21
19.60389801397199
 72
     1
 10
-40.58097012692141
 20
19.60389801397199
 11
-39.97980260502962
 21
18.9240746924165
 72
     1
 10
-39.97980260502962
 20
18.9240746924165
 11
-39.37863508313683
 21
19.60389801397199
 72
     1
 10
-39.37863508313683
 20
19.60389801397199
 11
-37.97591086538961
 21
19.60389801397199
 97
       12
330
420
330
41F
330
41E
330
47B
330
47C
330
478
330
479
330
424
330
423
330
422
330
421
330
47A
 75
     1
 76
     0
 52
45.0
 41
0.1
 77
     0
 78
     1
 53
45.0
 43
0.0
 44
0.0
 45
-0.0707106781186548
 46
0.0707106781186548
 79
     0
 98
        1
 10
0.0
 20
0.0
  0
HATCH
  5
4F9
330
71
100
AcDbEntity
  8
1
  6
Continuous
 62
     2
100
AcDbHatch
 10
0.0
 20
0.0
 30
0.0
210
0.0
220
0.0
230
1.0
  2
_USER
 70
     0
 71
     1
 91
        1
 92
        1
 93
       12
 72
     1
 10
-37.97591086538961
 20
19.60389801397199
 11
-39.27844049615612
 21
18.13094748393579
 72
     1
 10
-39.27844049615612
 20
18.13094748393579
 11
-37.88048744921582
 21
16.55008849016079
 72
     1
 10
-37.88048744921582
 20
16.55008849016079
 11
-39.28321166696412
 21
16.55008849016079
 72
     1
 10
-39.28321166696412
 20
16.55008849016079
 11
-39.97980260502962
 21
17.3378202754545
 72
     1
 10
-39.97980260502962
 20
17.3378202754545
 11
-40.67639354309532
 21
16.55008849016079
 72
     1
 10
-40.67639354309532
 20
16.55008849016079
 11
-42.07911776084353
 21
16.55008849016079
 72
     1
 10
-42.07911776084353
 20
16.55008849016079
 11
-40.68116471390323
 21
18.13094748393579
 72
     1
 10
-40.68116471390323
 20
18.13094748393579
 11
-41.98369434467071
 21
19.60389801397199
 72
     1
 10
-41.98369434467071
 20
19.60389801397199
 11
-40.58097012692141
 21
19.60389801397199
 72
     1
 10
-40.58097012692141
 20
19.60389801397199
 11
-39.97980260502962
 21
18.9240746924165
 72
     1
 10
-39.97980260502962
 20
18.9240746924165
 11
-39.37863508313683
 21
19.60389801397199
 72
     1
 10
-39.37863508313683
 20
19.60389801397199
 11
-37.97591086538961
 21
19.60389801397199
 97
       12
330
420
330
41F
330
41E
330
47B
330
47C
330
478
330
479
330
424
330
423
330
422
330
421
330
47A
 75
     1
 76
     0
 52
45.0
 41
0.1
 77
     0
 78
     1
 53
45.0
 43
0.0
 44
0.0
 45
-0.0707106781186548
 46
0.0707106781186548
 79
     0
 98
        1
 10
0.0
 20
0.0
  0
HATCH
  5
4FA
330
71
100
AcDbEntity
  8
1
  6
Continuous
 62
     2
100
AcDbHatch
 10
0.0
 20
0.0
 30
0.0
210
0.0
220
0.0
230
1.0
  2
_USER
 70
     0
 71
     1
 91
        2
 92
        1
 93
        6
 72
     1
 10
-56.99364627953563
 20
17.4931667313046
 11
-57.75241386731591
 21
17.4931667313046
 72
     1
 10
-57.75241386731591
 20
17.4931667313046
 11
-57.75241386731591
 21
16.55008849016079
 72
     1
 10
-57.75241386731591
 20
16.55008849016079
 11
-58.99291827757003
 21
16.55008849016079
 72
     1
 10
-58.99291827757003
 20
16.55008849016079
 11
-58.99291827757003
 21
19.60389801397199
 72
     1
 10
-58.99291827757003
 20
19.60389801397199
 11
-56.99364627953563
 21
19.60389801397199
 72
     2
 10
-56.99364627953563
 20
18.54853237263831
 40
1.055365641333708
 50
270.0
 51
450.0
 73
     0
 97
        6
330
448
330
447
330
454
330
453
330
449
330
499
 92
       16
 93
        4
 72
     2
 10
-57.43511880577401
 20
18.5879283438608
 40
0.3528638246711182
 50
270.0
 51
450.0
 73
     1
 72
     1
 10
-57.43511880577401
 20
18.94079216853189
 11
-57.75241386731591
 21
18.94079216853189
 72
     1
 10
-57.75241386731591
 20
18.94079216853189
 11
-57.75241386731591
 21
18.23506451918968
 72
     1
 10
-57.75241386731591
 20
18.23506451918968
 11
-57.43511880577401
 21
18.23506451918968
 97
        4
330
4AD
330
445
330
455
330
446
 75
     1
 76
     0
 52
45.0
 41
0.1
 77
     0
 78
     1
 53
45.0
 43
0.0
 44
0.0
 45
-0.0707106781186548
 46
0.0707106781186548
 79
     0
 98
        1
 10
0.0
 20
0.0
  0
HATCH
  5
4FB
330
71
100
AcDbEntity
  8
1
  6
Continuous
 62
     2
100
AcDbHatch
 10
0.0
 20
0.0
 30
0.0
210
0.0
220
0.0
230
1.0
  2
_USER
 70
     0
 71
     1
 91
        2
 92
        1
 93
        6
 72
     1
 10
-56.99364627953563
 20
17.4931667313046
 11
-57.75241386731591
 21
17.4931667313046
 72
     1
 10
-57.75241386731591
 20
17.4931667313046
 11
-57.75241386731591
 21
16.55008849016079
 72
     1
 10
-57.75241386731591
 20
16.55008849016079
 11
-58.99291827757003
 21
16.55008849016079
 72
     1
 10
-58.99291827757003
 20
16.55008849016079
 11
-58.99291827757003
 21
19.60389801397199
 72
     1
 10
-58.99291827757003
 20
19.60389801397199
 11
-56.99364627953563
 21
19.60389801397199
 72
     2
 10
-56.99364627953563
 20
18.54853237263831
 40
1.055365641333708
 50
270.0
 51
450.0
 73
     0
 97
        6
330
448
330
447
330
454
330
453
330
449
330
499
 92
       16
 93
        4
 72
     2
 10
-57.43511880577401
 20
18.5879283438608
 40
0.3528638246711182
 50
270.0
 51
450.0
 73
     1
 72
     1
 10
-57.43511880577401
 20
18.94079216853189
 11
-57.75241386731591
 21
18.94079216853189
 72
     1
 10
-57.75241386731591
 20
18.94079216853189
 11
-57.75241386731591
 21
18.23506451918968
 72
     1
 10
-57.75241386731591
 20
18.23506451918968
 11
-57.43511880577401
 21
18.23506451918968
 97
        4
330
4AD
330
445
330
455
330
446
 75
     1
 76
     0
 52
45.0
 41
0.1
 77
     0
 78
     1
 53
45.0
 43
0.0
 44
0.0
 45
-0.0707106781186548
 46
0.0707106781186548
 79
     0
 98
        1
 10
0.0
 20
0.0
  0
HATCH
  5
4FC
330
71
100
AcDbEntity
  8
1
  6
Continuous
 62
     2
100
AcDbHatch
 10
0.0
 20
0.0
 30
0.0
210
0.0
220
0.0
230
1.0
  2
_USER
 70
     0
 71
     1
 91
        2
 92
        1
 93
        4
 72
     2
 10
-54.43710353117652
 20
14.17922776558899
 40
2.065479772208564
 50
62.45185182430632
 51
117.5481481756666
 73
     1
 72
     2
 10
-54.71804342300982
 20
14.71780277589178
 40
1.458034083651493
 50
117.5481481756627
 51
242.4518518243371
 73
     1
 72
     2
 10
-54.43710353117652
 20
15.25637778619509
 40
2.065479772208509
 50
242.45185182434
 51
297.5481481756871
 73
     1
 72
     2
 10
-54.15616363934322
 20
14.71780277589178
 40
1.458034083651995
 50
297.5481481757013
 51
422.451851824299
 73
     1
 97
        4
330
4A5
330
4A4
330
4A6
330
4A3
 92
       16
 93
        4
 72
     2
 10
-54.63684356752293
 20
14.71780277589178
 40
0.7717997786796947
 50
321.8795802028417
 51
398.1204197971536
 73
     1
 72
     2
 10
-54.43710353117652
 20
14.87453395401229
 40
0.5179085730133032
 50
38.1204197971475
 51
141.8795802028583
 73
     1
 72
     2
 10
-54.23736349483042
 20
14.71780277589178
 40
0.7717997786794665
 50
141.879580202836
 51
218.1204197971687
 73
     1
 72
     2
 10
-54.43710353117652
 20
14.56107159777179
 40
0.5179085730137397
 50
218.1204197971938
 51
321.8795802028004
 73
     1
 97
        4
330
4C1
330
4BE
330
4BF
330
4C0
 75
     1
 76
     0
 52
45.0
 41
0.1
 77
     0
 78
     1
 53
45.0
 43
0.0
 44
0.0
 45
-0.0707106781186548
 46
0.0707106781186548
 79
     0
 98
        1
 10
0.0
 20
0.0
  0
HATCH
  5
4FD
330
71
100
AcDbEntity
  8
1
  6
Continuous
 62
     2
100
AcDbHatch
 10
0.0
 20
0.0
 30
0.0
210
0.0
220
0.0
230
1.0
  2
_USER
 70
     0
 71
     1
 91
        2
 92
        1
 93
        4
 72
     2
 10
-54.43710353117652
 20
14.17922776558899
 40
2.065479772208564
 50
62.45185182430632
 51
117.5481481756666
 73
     1
 72
     2
 10
-54.71804342300982
 20
14.71780277589178
 40
1.458034083651493
 50
117.5481481756627
 51
242.4518518243371
 73
     1
 72
     2
 10
-54.43710353117652
 20
15.25637778619509
 40
2.065479772208509
 50
242.45185182434
 51
297.5481481756871
 73
     1
 72
     2
 10
-54.15616363934322
 20
14.71780277589178
 40
1.458034083651995
 50
297.5481481757013
 51
422.451851824299
 73
     1
 97
        4
330
4A5
330
4A4
330
4A6
330
4A3
 92
       16
 93
        4
 72
     2
 10
-54.63684356752293
 20
14.71780277589178
 40
0.7717997786796947
 50
321.8795802028417
 51
398.1204197971536
 73
     1
 72
     2
 10
-54.43710353117652
 20
14.87453395401229
 40
0.5179085730133032
 50
38.1204197971475
 51
141.8795802028583
 73
     1
 72
     2
 10
-54.23736349483042
 20
14.71780277589178
 40
0.7717997786794665
 50
141.879580202836
 51
218.1204197971687
 73
     1
 72
     2
 10
-54.43710353117652
 20
14.56107159777179
 40
0.5179085730137397
 50
218.1204197971938
 51
321.8795802028004
 73
     1
 97
        4
330
4C1
330
4BE
330
4BF
330
4C0
 75
     1
 76
     0
 52
45.0
 41
0.1
 77
     0
 78
     1
 53
45.0
 43
0.0
 44
0.0
 45
-0.0707106781186548
 46
0.0707106781186548
 79
     0
 98
        1
 10
0.0
 20
0.0
  0
HATCH
  5
4FE
330
71
100
AcDbEntity
  8
1
  6
Continuous
 62
     2
100
AcDbHatch
 10
0.0
 20
0.0
 30
0.0
210
0.0
220
0.0
230
1.0
  2
_USER
 70
     0
 71
     1
 91
        2
 92
        1
 93
       12
 72
     1
 10
-47.54210833676723
 20
18.90588440852901
 11
-48.87803616319491
 21
18.90588440852901
 72
     1
 10
-48.87803616319491
 20
18.90588440852901
 11
-48.87803616319491
 21
18.4260000547873
 72
     1
 10
-48.87803616319491
 20
18.4260000547873
 11
-47.54210833676723
 21
18.4260000547873
 72
     1
 10
-47.54210833676723
 20
18.4260000547873
 11
-47.54210833676723
 21
17.727986449345
 72
     1
 10
-47.54210833676723
 20
17.727986449345
 11
-48.87803616319491
 21
17.727986449345
 72
     1
 10
-48.87803616319491
 20
17.727986449345
 11
-48.87803616319491
 21
17.24810209560329
 72
     1
 10
-48.87803616319491
 20
17.24810209560329
 11
-47.54210833676723
 21
17.24810209560329
 72
     1
 10
-47.54210833676723
 20
17.24810209560329
 11
-47.54210833676723
 21
16.55008849016079
 72
     1
 10
-47.54210833676723
 20
16.55008849016079
 11
-50.69242806054822
 21
16.55008849016079
 72
     2
 10
-50.69242806054822
 20
18.0769932520661
 40
1.52690476190589
 50
90.0
 51
270.0
 73
     0
 72
     1
 10
-50.69242806054822
 20
19.60389801397199
 11
-47.54210833676723
 21
19.60389801397199
 72
     1
 10
-47.54210833676723
 20
19.60389801397199
 11
-47.54210833676723
 21
18.90588440852901
 97
       12
330
45C
330
4AE
330
45D
330
45E
330
45F
330
460
330
43D
330
43C
330
43B
330
43A
330
461
330
45B
 92
       16
 93
        4
 72
     2
 10
-50.47615605038303
 20
18.23372443018658
 40
0.5179085730135321
 50
38.12041979714286
 51
141.8795802028484
 73
     1
 72
     2
 10
-50.27641601403673
 20
18.0769932520661
 40
0.7717997786796724
 50
141.8795802028404
 51
218.120419797156
 73
     1
 72
     2
 10
-50.47615605038303
 20
17.92026207394568
 40
0.5179085730134315
 50
218.1204197971516
 51
321.8795802028571
 73
     1
 72
     2
 10
-50.67589608672921
 20
18.0769932520661
 40
0.7717997786796351
 50
321.879580202844
 51
398.1204197971596
 73
     1
 97
        4
330
4A8
330
4A7
330
4A2
330
4A1
 75
     1
 76
     0
 52
45.0
 41
0.1
 77
     0
 78
     1
 53
45.0
 43
0.0
 44
0.0
 45
-0.0707106781186548
 46
0.0707106781186548
 79
     0
 98
        1
 10
0.0
 20
0.0
  0
HATCH
  5
4FF
330
71
100
AcDbEntity
  8
1
  6
Continuous
 62
     2
100
AcDbHatch
 10
0.0
 20
0.0
 30
0.0
210
0.0
220
0.0
230
1.0
  2
_USER
 70
     0
 71
     1
 91
        2
 92
        1
 93
       12
 72
     1
 10
-47.54210833676723
 20
18.90588440852901
 11
-48.87803616319491
 21
18.90588440852901
 72
     1
 10
-48.87803616319491
 20
18.90588440852901
 11
-48.87803616319491
 21
18.4260000547873
 72
     1
 10
-48.87803616319491
 20
18.4260000547873
 11
-47.54210833676723
 21
18.4260000547873
 72
     1
 10
-47.54210833676723
 20
18.4260000547873
 11
-47.54210833676723
 21
17.727986449345
 72
     1
 10
-47.54210833676723
 20
17.727986449345
 11
-48.87803616319491
 21
17.727986449345
 72
     1
 10
-48.87803616319491
 20
17.727986449345
 11
-48.87803616319491
 21
17.24810209560329
 72
     1
 10
-48.87803616319491
 20
17.24810209560329
 11
-47.54210833676723
 21
17.24810209560329
 72
     1
 10
-47.54210833676723
 20
17.24810209560329
 11
-47.54210833676723
 21
16.55008849016079
 72
     1
 10
-47.54210833676723
 20
16.55008849016079
 11
-50.69242806054822
 21
16.55008849016079
 72
     2
 10
-50.69242806054822
 20
18.0769932520661
 40
1.52690476190589
 50
90.0
 51
270.0
 73
     0
 72
     1
 10
-50.69242806054822
 20
19.60389801397199
 11
-47.54210833676723
 21
19.60389801397199
 72
     1
 10
-47.54210833676723
 20
19.60389801397199
 11
-47.54210833676723
 21
18.90588440852901
 97
       12
330
45C
330
4AE
330
45D
330
45E
330
45F
330
460
330
43D
330
43C
330
43B
330
43A
330
461
330
45B
 92
       16
 93
        4
 72
     2
 10
-50.47615605038303
 20
18.23372443018658
 40
0.5179085730135321
 50
38.12041979714286
 51
141.8795802028484
 73
     1
 72
     2
 10
-50.27641601403673
 20
18.0769932520661
 40
0.7717997786796724
 50
141.8795802028404
 51
218.120419797156
 73
     1
 72
     2
 10
-50.47615605038303
 20
17.92026207394568
 40
0.5179085730134315
 50
218.1204197971516
 51
321.8795802028571
 73
     1
 72
     2
 10
-50.67589608672921
 20
18.0769932520661
 40
0.7717997786796351
 50
321.879580202844
 51
398.1204197971596
 73
     1
 97
        4
330
4A8
330
4A7
330
4A2
330
4A1
 75
     1
 76
     0
 52
45.0
 41
0.1
 77
     0
 78
     1
 53
45.0
 43
0.0
 44
0.0
 45
-0.0707106781186548
 46
0.0707106781186548
 79
     0
 98
        1
 10
0.0
 20
0.0
  0
HATCH
  5
500
330
71
100
AcDbEntity
  8
1
  6
Continuous
 62
     2
100
AcDbHatch
 10
0.0
 20
0.0
 30
0.0
210
0.0
220
0.0
230
1.0
  2
_USER
 70
     0
 71
     1
 91
        4
 92
        1
 93
        8
 72
     1
 10
-59.47003535843683
 20
19.17965339857
 11
-59.47003535843683
 21
13.61514262936979
 72
     2
 10
-59.89427997382072
 20
13.61514262936979
 40
0.4242446153832908
 50
0.0
 51
90.0
 73
     0
 72
     1
 10
-59.89427997382072
 20
13.1908980139865
 11
-65.36759206453752
 21
13.1908980139865
 72
     2
 10
-65.36759206453752
 20
13.61514262936979
 40
0.4242446153828041
 50
90.0
 51
180.0
 73
     0
 72
     1
 10
-65.79183667992032
 20
13.61514262936979
 11
-65.79183667992032
 21
19.17965339857
 72
     2
 10
-65.36759206453752
 20
19.17965339857
 40
0.4242446153837989
 50
180.0
 51
270.0
 73
     0
 72
     1
 10
-65.36759206453752
 20
19.6038980139538
 11
-59.89427997382072
 21
19.6038980139538
 72
     2
 10
-59.89427997382072
 20
19.17965339857
 40
0.4242446153838912
 50
270.0
 51
360.0
 73
     0
 97
        8
330
450
330
49E
330
451
330
4A9
330
44E
330
4A0
330
44F
330
49F
 92
       16
 93
        1
 72
     2
 10
-62.74800641402001
 20
16.86077117021449
 40
0.4709789327785145
 50
0.0
 51
360.0
 73
     1
 97
        1
330
4C4
 92
       16
 93
        8
 72
     2
 10
-62.19814870125933
 20
15.75162957024608
 40
0.3157169230765344
 50
115.3740086783517
 51
180.0
 73
     1
 72
     1
 10
-62.51386562433612
 20
15.75162957024608
 11
-62.51386562433612
 21
15.169778163551
 72
     2
 10
-62.19814870125933
 20
15.169778163551
 40
0.315716923076792
 50
180.0
 51
269.8110329574529
 73
     1
 72
     2
 10
-62.19253256594931
 20
16.87261311111999
 40
2.018561131933266
 50
269.8110329575857
 51
450.1889670424143
 73
     1
 72
     2
 10
-62.19814870125933
 20
18.57544805868909
 40
0.3157169230760746
 50
90.18896704254722
 51
180.0
 73
     1
 72
     1
 10
-62.51386562433612
 20
18.57544805868909
 11
-62.51386562433612
 21
17.9699127701823
 72
     2
 10
-62.19814870125933
 20
17.9699127701823
 40
0.315716923076792
 50
180.0
 51
244.6259913216475
 73
     1
 72
     2
 10
-62.72419139934721
 20
16.86077117021449
 40
0.9118481501444621
 50
295.3740086781929
 51
424.6259913218232
 73
     0
 97
        8
330
4B6
330
417
330
4B3
330
4B4
330
492
330
416
330
4B5
330
491
 92
       16
 93
       12
 72
     2
 10
-64.77369738779103
 20
14.21917049262009
 40
0.3157169230756836
 50
180.0
 51
270.0
 73
     1
 72
     1
 10
-64.77369738779103
 20
13.90345356954339
 11
-63.29786412678141
 21
13.90345356954339
 72
     2
 10
-63.29786412678141
 20
14.21917049262009
 40
0.3157169230767014
 50
270.0
 51
360.0
 73
     1
 72
     1
 10
-62.98214720370481
 20
14.21917049262009
 11
-62.98214720370481
 21
15.7499414241517
 72
     2
 10
-63.29786412678141
 20
15.7499414241517
 40
0.3157169230766002
 50
0.0
 51
64.8055893514591
 73
     1
 72
     2
 10
-62.77527967920642
 20
16.86077117021449
 40
0.9118975235576178
 50
115.1944106485122
 51
244.8055893514719
 73
     0
 72
     2
 10
-63.29786412678141
 20
17.97160091627669
 40
0.3157169230761233
 50
295.1944106485409
 51
360.0
 73
     1
 72
     1
 10
-62.98214720370481
 20
17.97160091627669
 11
-62.98214720370481
 21
18.5756255353372
 72
     2
 10
-63.29786412678141
 20
18.5756255353372
 40
0.3157169230766002
 50
0.0
 51
90.0
 73
     1
 72
     1
 10
-63.29786412678141
 20
18.89134245841339
 11
-64.77369738779103
 21
18.89134245841339
 72
     2
 10
-64.77369738779103
 20
18.5756255353372
 40
0.3157169230761916
 50
90.0
 51
180.0
 73
     1
 72
     1
 10
-65.08941431086672
 20
18.5756255353372
 11
-65.08941431086672
 21
14.21917049262009
 97
       12
330
49A
330
452
330
49D
330
44D
330
4AA
330
4AB
330
49C
330
44C
330
49B
330
44B
330
4AC
330
44A
 75
     1
 76
     0
 52
45.0
 41
0.1
 77
     0
 78
     1
 53
45.0
 43
0.0
 44
0.0
 45
-0.0707106781186548
 46
0.0707106781186548
 79
     0
 98
        1
 10
0.0
 20
0.0
  0
HATCH
  5
501
330
71
100
AcDbEntity
  8
1
  6
Continuous
 62
     2
100
AcDbHatch
 10
0.0
 20
0.0
 30
0.0
210
0.0
220
0.0
230
1.0
  2
_USER
 70
     0
 71
     1
 91
        4
 92
        1
 93
        8
 72
     1
 10
-59.47003535843683
 20
19.17965339857
 11
-59.47003535843683
 21
13.61514262936979
 72
     2
 10
-59.89427997382072
 20
13.61514262936979
 40
0.4242446153832908
 50
0.0
 51
90.0
 73
     0
 72
     1
 10
-59.89427997382072
 20
13.1908980139865
 11
-65.36759206453752
 21
13.1908980139865
 72
     2
 10
-65.36759206453752
 20
13.61514262936979
 40
0.4242446153828041
 50
90.0
 51
180.0
 73
     0
 72
     1
 10
-65.79183667992032
 20
13.61514262936979
 11
-65.79183667992032
 21
19.17965339857
 72
     2
 10
-65.36759206453752
 20
19.17965339857
 40
0.4242446153837989
 50
180.0
 51
270.0
 73
     0
 72
     1
 10
-65.36759206453752
 20
19.6038980139538
 11
-59.89427997382072
 21
19.6038980139538
 72
     2
 10
-59.89427997382072
 20
19.17965339857
 40
0.4242446153838912
 50
270.0
 51
360.0
 73
     0
 97
        8
330
450
330
49E
330
451
330
4A9
330
44E
330
4A0
330
44F
330
49F
 92
       16
 93
        1
 72
     2
 10
-62.74800641402001
 20
16.86077117021449
 40
0.4709789327785145
 50
0.0
 51
360.0
 73
     1
 97
        1
330
4C4
 92
       16
 93
        8
 72
     2
 10
-62.19814870125933
 20
15.75162957024608
 40
0.3157169230765344
 50
115.3740086783517
 51
180.0
 73
     1
 72
     1
 10
-62.51386562433612
 20
15.75162957024608
 11
-62.51386562433612
 21
15.169778163551
 72
     2
 10
-62.19814870125933
 20
15.169778163551
 40
0.315716923076792
 50
180.0
 51
269.8110329574529
 73
     1
 72
     2
 10
-62.19253256594931
 20
16.87261311111999
 40
2.018561131933266
 50
269.8110329575857
 51
450.1889670424143
 73
     1
 72
     2
 10
-62.19814870125933
 20
18.57544805868909
 40
0.3157169230760746
 50
90.18896704254722
 51
180.0
 73
     1
 72
     1
 10
-62.51386562433612
 20
18.57544805868909
 11
-62.51386562433612
 21
17.9699127701823
 72
     2
 10
-62.19814870125933
 20
17.9699127701823
 40
0.315716923076792
 50
180.0
 51
244.6259913216475
 73
     1
 72
     2
 10
-62.72419139934721
 20
16.86077117021449
 40
0.9118481501444621
 50
295.3740086781929
 51
424.6259913218232
 73
     0
 97
        8
330
4B6
330
417
330
4B3
330
4B4
330
492
330
416
330
4B5
330
491
 92
       16
 93
       12
 72
     2
 10
-64.77369738779103
 20
14.21917049262009
 40
0.3157169230756836
 50
180.0
 51
270.0
 73
     1
 72
     1
 10
-64.77369738779103
 20
13.90345356954339
 11
-63.29786412678141
 21
13.90345356954339
 72
     2
 10
-63.29786412678141
 20
14.21917049262009
 40
0.3157169230767014
 50
270.0
 51
360.0
 73
     1
 72
     1
 10
-62.98214720370481
 20
14.21917049262009
 11
-62.98214720370481
 21
15.7499414241517
 72
     2
 10
-63.29786412678141
 20
15.7499414241517
 40
0.3157169230766002
 50
0.0
 51
64.8055893514591
 73
     1
 72
     2
 10
-62.77527967920642
 20
16.86077117021449
 40
0.9118975235576178
 50
115.1944106485122
 51
244.8055893514719
 73
     0
 72
     2
 10
-63.29786412678141
 20
17.97160091627669
 40
0.3157169230761233
 50
295.1944106485409
 51
360.0
 73
     1
 72
     1
 10
-62.98214720370481
 20
17.97160091627669
 11
-62.98214720370481
 21
18.5756255353372
 72
     2
 10
-63.29786412678141
 20
18.5756255353372
 40
0.3157169230766002
 50
0.0
 51
90.0
 73
     1
 72
     1
 10
-63.29786412678141
 20
18.89134245841339
 11
-64.77369738779103
 21
18.89134245841339
 72
     2
 10
-64.77369738779103
 20
18.5756255353372
 40
0.3157169230761916
 50
90.0
 51
180.0
 73
     1
 72
     1
 10
-65.08941431086672
 20
18.5756255353372
 11
-65.08941431086672
 21
14.21917049262009
 97
       12
330
49A
330
452
330
49D
330
44D
330
4AA
330
4AB
330
49C
330
44C
330
49B
330
44B
330
4AC
330
44A
 75
     1
 76
     0
 52
45.0
 41
0.1
 77
     0
 78
     1
 53
45.0
 43
0.0
 44
0.0
 45
-0.0707106781186548
 46
0.0707106781186548
 79
     0
 98
        1
 10
0.0
 20
0.0
  0
HATCH
  5
502
330
71
100
AcDbEntity
  8
1
  6
Continuous
 62
     2
100
AcDbHatch
 10
0.0
 20
0.0
 30
0.0
210
0.0
220
0.0
230
1.0
  2
_USER
 70
     0
 71
     1
 91
        1
 92
        1
 93
       18
 72
     1
 10
-37.88048744921582
 20
15.45944223167399
 11
-38.6915864866892
 21
15.45944223167399
 72
     1
 10
-38.6915864866892
 20
15.45944223167399
 11
-38.6915864866892
 21
13.1908980139865
 72
     1
 10
-38.6915864866892
 20
13.1908980139865
 11
-39.88437918885691
 21
13.1908980139865
 72
     1
 10
-39.88437918885691
 20
13.1908980139865
 11
-39.88437918885691
 21
15.45944223167399
 72
     1
 10
-39.88437918885691
 20
15.45944223167399
 11
-40.98801848842501
 21
15.45944223167399
 72
     2
 10
-40.98801848842501
 20
14.5049192248479
 40
0.9545230068260899
 50
90.0
 51
109.337143219432
 73
     1
 72
     2
 10
-41.13468848652872
 20
14.92287420523078
 40
0.5115800601944194
 50
109.3371432194851
 51
151.4785267424218
 73
     1
 72
     2
 10
-40.75733122844733
 20
14.71780277589178
 40
0.9410597353348958
 50
151.478526742362
 51
208.5214732576695
 73
     1
 72
     2
 10
-41.13468848652872
 20
14.5127313465533
 40
0.5115800601960259
 50
208.5214732576875
 51
246.6277221118451
 73
     1
 72
     2
 10
-40.97824845382561
 20
14.87472336526329
 40
0.9059297849852797
 50
246.6277221118177
 51
288.4480761180809
 73
     1
 72
     2
 10
-41.39641618748752
 20
16.12826914129988
 40
2.227384008972745
 50
288.4480761181333
 51
301.9309089499399
 73
     1
 72
     1
 10
-40.2183611454636
 20
14.2379184221501
 11
-40.2183611454636
 21
13.36540141534678
 72
     2
 10
-41.55428906258032
 20
18.03048372114819
 40
4.852596863498824
 50
74.02000874166134
 51
84.84185523036375
 73
     0
 72
     2
 10
-41.2654329678445
 20
14.8305931379266
 40
1.639695123940456
 50
84.84185523032401
 51
164.9381082228988
 73
     0
 72
     2
 10
-41.68456081130611
 20
14.71780277589178
 40
1.205656168393004
 50
164.9381082229043
 51
195.0618917770975
 73
     0
 72
     2
 10
-41.2654329678445
 20
14.60501241385688
 40
1.639695123940221
 50
195.0618917771052
 51
270.0
 73
     0
 72
     1
 10
-41.2654329678445
 20
16.2447075377971
 11
-37.88048744921582
 21
16.24470753779758
 72
     1
 10
-37.88048744921582
 20
16.24470753779758
 11
-37.88048744921582
 21
15.45944223167399
 97
       18
330
419
330
4AF
330
4B0
330
498
330
497
330
47D
330
496
330
495
330
4B1
330
494
330
4B2
330
493
330
47E
330
418
330
41D
330
41C
330
41B
330
41A
 75
     1
 76
     0
 52
45.0
 41
0.1
 77
     0
 78
     1
 53
45.0
 43
0.0
 44
0.0
 45
-0.0707106781186548
 46
0.0707106781186548
 79
     0
 98
        1
 10
0.0
 20
0.0
  0
HATCH
  5
503
330
71
100
AcDbEntity
  8
1
  6
Continuous
 62
     2
100
AcDbHatch
 10
0.0
 20
0.0
 30
0.0
210
0.0
220
0.0
230
1.0
  2
_USER
 70
     0
 71
     1
 91
        1
 92
        1
 93
       18
 72
     1
 10
-37.88048744921582
 20
15.45944223167399
 11
-38.6915864866892
 21
15.45944223167399
 72
     1
 10
-38.6915864866892
 20
15.45944223167399
 11
-38.6915864866892
 21
13.1908980139865
 72
     1
 10
-38.6915864866892
 20
13.1908980139865
 11
-39.88437918885691
 21
13.1908980139865
 72
     1
 10
-39.88437918885691
 20
13.1908980139865
 11
-39.88437918885691
 21
15.45944223167399
 72
     1
 10
-39.88437918885691
 20
15.45944223167399
 11
-40.98801848842501
 21
15.45944223167399
 72
     2
 10
-40.98801848842501
 20
14.5049192248479
 40
0.9545230068260899
 50
90.0
 51
109.337143219432
 73
     1
 72
     2
 10
-41.13468848652872
 20
14.92287420523078
 40
0.5115800601944194
 50
109.3371432194851
 51
151.4785267424218
 73
     1
 72
     2
 10
-40.75733122844733
 20
14.71780277589178
 40
0.9410597353348958
 50
151.478526742362
 51
208.5214732576695
 73
     1
 72
     2
 10
-41.13468848652872
 20
14.5127313465533
 40
0.5115800601960259
 50
208.5214732576875
 51
246.6277221118451
 73
     1
 72
     2
 10
-40.97824845382561
 20
14.87472336526329
 40
0.9059297849852797
 50
246.6277221118177
 51
288.4480761180809
 73
     1
 72
     2
 10
-41.39641618748752
 20
16.12826914129988
 40
2.227384008972745
 50
288.4480761181333
 51
301.9309089499399
 73
     1
 72
     1
 10
-40.2183611454636
 20
14.2379184221501
 11
-40.2183611454636
 21
13.36540141534678
 72
     2
 10
-41.55428906258032
 20
18.03048372114819
 40
4.852596863498824
 50
74.02000874166134
 51
84.84185523036375
 73
     0
 72
     2
 10
-41.2654329678445
 20
14.8305931379266
 40
1.639695123940456
 50
84.84185523032401
 51
164.9381082228988
 73
     0
 72
     2
 10
-41.68456081130611
 20
14.71780277589178
 40
1.205656168393004
 50
164.9381082229043
 51
195.0618917770975
 73
     0
 72
     2
 10
-41.2654329678445
 20
14.60501241385688
 40
1.639695123940221
 50
195.0618917771052
 51
270.0
 73
     0
 72
     1
 10
-41.2654329678445
 20
16.2447075377971
 11
-37.88048744921582
 21
16.24470753779758
 72
     1
 10
-37.88048744921582
 20
16.24470753779758
 11
-37.88048744921582
 21
15.45944223167399
 97
       18
330
419
330
4AF
330
4B0
330
498
330
497
330
47D
330
496
330
495
330
4B1
330
494
330
4B2
330
493
330
47E
330
418
330
41D
330
41C
330
41B
330
41A
 75
     1
 76
     0
 52
45.0
 41
0.1
 77
     0
 78
     1
 53
45.0
 43
0.0
 44
0.0
 45
-0.0707106781186548
 46
0.0707106781186548
 79
     0
 98
        1
 10
0.0
 20
0.0
  0
HATCH
  5
504
330
71
100
AcDbEntity
  8
1
  6
Continuous
 62
     2
100
AcDbHatch
 10
0.0
 20
0.0
 30
0.0
210
0.0
220
0.0
230
1.0
  2
_USER
 70
     0
 71
     1
 91
        1
 92
        1
 93
       14
 72
     2
 10
-57.36813444709742
 20
14.60501241385688
 40
1.639695123940514
 50
84.84185523036238
 51
164.9381082228861
 73
     1
 72
     2
 10
-57.78726229056022
 20
14.71780277589178
 40
1.205656168390939
 50
164.9381082228761
 51
195.0618917770946
 73
     1
 72
     2
 10
-57.36813444709742
 20
14.8305931379266
 40
1.63969512393938
 50
195.0618917770896
 51
275.1581447696395
 73
     1
 72
     2
 10
-57.65699054183332
 20
18.03048372114819
 40
4.852596863498145
 50
275.1581447696249
 51
285.9799912583529
 73
     1
 72
     1
 10
-56.32106262471552
 20
13.36540141534738
 11
-56.32106262471552
 21
14.23791842215059
 72
     2
 10
-57.4991176667404
 20
16.12826914130048
 40
2.227384008972735
 50
58.06909105004065
 51
71.55192388186722
 73
     0
 72
     2
 10
-57.08094993307961
 20
14.87472336526329
 40
0.9059297849849188
 50
71.55192388184143
 51
113.3722778881295
 73
     0
 72
     2
 10
-57.23738996578163
 20
14.5127313465533
 40
0.5115800601948034
 50
113.3722778881731
 51
151.4785267423044
 73
     0
 72
     2
 10
-56.86003270770132
 20
14.71780277589178
 40
0.9410597353332545
 50
151.4785267422947
 51
208.5214732577331
 73
     0
 72
     2
 10
-57.23738996578163
 20
14.92287420523078
 40
0.5115800601948823
 50
208.5214732576956
 51
246.6277221118002
 73
     0
 72
     2
 10
-57.08094993307961
 20
14.56088218652019
 40
0.9059297849853211
 50
246.6277221118705
 51
288.4480761181465
 73
     0
 72
     2
 10
-57.4991176667404
 20
13.3073364104836
 40
2.227384008973474
 50
288.4480761181328
 51
301.9309089499593
 73
     0
 72
     1
 10
-56.32106262471552
 20
15.19768712963349
 11
-56.32106262471552
 21
16.07020413643679
 72
     2
 10
-57.65699054183332
 20
11.40512183063589
 40
4.852596863498073
 50
74.02000874164739
 51
84.84185523037506
 73
     1
 97
       14
330
4B7
330
4B8
330
4B9
330
4BA
330
47F
330
490
330
48F
330
48E
330
4BB
330
4BC
330
48D
330
4BD
330
480
330
48C
 75
     1
 76
     0
 52
45.0
 41
0.1
 77
     0
 78
     1
 53
45.0
 43
0.0
 44
0.0
 45
-0.0707106781186548
 46
0.0707106781186548
 79
     0
 98
        1
 10
0.0
 20
0.0
  0
HATCH
  5
505
330
71
100
AcDbEntity
  8
1
  6
Continuous
 62
     2
100
AcDbHatch
 10
0.0
 20
0.0
 30
0.0
210
0.0
220
0.0
230
1.0
  2
_USER
 70
     0
 71
     1
 91
        1
 92
        1
 93
       14
 72
     2
 10
-57.36813444709742
 20
14.60501241385688
 40
1.639695123940514
 50
84.84185523036238
 51
164.9381082228861
 73
     1
 72
     2
 10
-57.78726229056022
 20
14.71780277589178
 40
1.205656168390939
 50
164.9381082228761
 51
195.0618917770946
 73
     1
 72
     2
 10
-57.36813444709742
 20
14.8305931379266
 40
1.63969512393938
 50
195.0618917770896
 51
275.1581447696395
 73
     1
 72
     2
 10
-57.65699054183332
 20
18.03048372114819
 40
4.852596863498145
 50
275.1581447696249
 51
285.9799912583529
 73
     1
 72
     1
 10
-56.32106262471552
 20
13.36540141534738
 11
-56.32106262471552
 21
14.23791842215059
 72
     2
 10
-57.4991176667404
 20
16.12826914130048
 40
2.227384008972735
 50
58.06909105004065
 51
71.55192388186722
 73
     0
 72
     2
 10
-57.08094993307961
 20
14.87472336526329
 40
0.9059297849849188
 50
71.55192388184143
 51
113.3722778881295
 73
     0
 72
     2
 10
-57.23738996578163
 20
14.5127313465533
 40
0.5115800601948034
 50
113.3722778881731
 51
151.4785267423044
 73
     0
 72
     2
 10
-56.86003270770132
 20
14.71780277589178
 40
0.9410597353332545
 50
151.4785267422947
 51
208.5214732577331
 73
     0
 72
     2
 10
-57.23738996578163
 20
14.92287420523078
 40
0.5115800601948823
 50
208.5214732576956
 51
246.6277221118002
 73
     0
 72
     2
 10
-57.08094993307961
 20
14.56088218652019
 40
0.9059297849853211
 50
246.6277221118705
 51
288.4480761181465
 73
     0
 72
     2
 10
-57.4991176667404
 20
13.3073364104836
 40
2.227384008973474
 50
288.4480761181328
 51
301.9309089499593
 73
     0
 72
     1
 10
-56.32106262471552
 20
15.19768712963349
 11
-56.32106262471552
 21
16.07020413643679
 72
     2
 10
-57.65699054183332
 20
11.40512183063589
 40
4.852596863498073
 50
74.02000874164739
 51
84.84185523037506
 73
     1
 97
       14
330
4B7
330
4B8
330
4B9
330
4BA
330
47F
330
490
330
48F
330
48E
330
4BB
330
4BC
330
48D
330
4BD
330
480
330
48C
 75
     1
 76
     0
 52
45.0
 41
0.1
 77
     0
 78
     1
 53
45.0
 43
0.0
 44
0.0
 45
-0.0707106781186548
 46
0.0707106781186548
 79
     0
 98
        1
 10
0.0
 20
0.0
  0
ENDBLK
  5
73
330
71
100
AcDbEntity
  8
0
100
AcDbBlockEnd
  0
BLOCK
  5
75
330
74
100
AcDbEntity
  8
0
100
AcDbBlockBegin
  2
_punkt
 70
     0
 10
59.51631296026709
 20
5.89739801397019
 30
0.0
  3
_punkt
  1

  0
LINE
  5
506
330
74
100
AcDbEntity
  8
1
  6
Continuous
 62
     2
100
AcDbLine
 10
59.51631296026709
 20
5.89739801397019
 30
0.0
 11
64.51631296026608
 21
5.89739801397019
 31
0.0
  0
LINE
  5
507
330
74
100
AcDbEntity
  8
1
  6
Continuous
 62
     2
100
AcDbLine
 10
59.51631296026709
 20
5.89739801397019
 30
0.0
 11
59.51631296026709
 21
0.89739801397008
 31
0.0
  0
ENDBLK
  5
76
330
74
100
AcDbEntity
  8
0
100
AcDbBlockEnd
  0
BLOCK
  5
7A
330
77
100
AcDbEntity
  8
0
100
AcDbBlockBegin
  2
A4I_CS
 70
     0
 10
59.51631296026709
 20
0.89739801397008
 30
0.0
  3
A4I_CS
  1

  0
INSERT
  5
78
330
77
100
AcDbEntity
  8
1
100
AcDbBlockReference
  2
_rahmen
 10
59.51631296026709
 20
0.89739801397008
 30
0.0
  0
INSERT
  5
79
330
77
100
AcDbEntity
  8
1
100
AcDbBlockReference
  2
_punkt
 10
59.51631296026709
 20
5.89739801397019
 30
0.0
  0
ENDBLK
  5
7B
330
77
100
AcDbEntity
  8
0
100
AcDbBlockEnd
  0
BLOCK
  5
84
330
7C
100
AcDbEntity
  8
0
100
AcDbBlockBegin
  2
1
 70
     0
 10
0.0
 20
0.0
 30
0.0
  3
1
  1

  0
INSERT
  5
7D
330
7C
100
AcDbEntity
  8
0
100
AcDbBlockReference
  2
Back1
 10
17.99999980977123
 20
156.3000002316612
 30
0.0
 41
2.0
 42
2.0
 43
2.0
  0
INSERT
  5
7E
330
7C
100
AcDbEntity
  8
0
100
AcDbBlockReference
  2
Front1
 10
-116.9999999993278
 20
156.3000002316612
 30
0.0
 41
2.0
 42
2.0
 43
2.0
  0
INSERT
  5
7F
330
7C
100
AcDbEntity
  8
0
100
AcDbBlockReference
  2
Gen1
 10
7.00000000060811
 20
85.999999995576
 30
0.0
 41
2.0
 42
2.0
 43
2.0
  0
INSERT
  5
80
330
7C
100
AcDbEntity
  8
0
100
AcDbBlockReference
  2
Left1
 10
-49.50000009482846
 20
156.3000002316612
 30
0.0
 41
2.0
 42
2.0
 43
2.0
  0
INSERT
  5
81
330
7C
100
AcDbEntity
  8
0
100
AcDbBlockReference
  2
Right1
 10
-193.4999999051716
 20
156.3000002316612
 30
0.0
 41
2.0
 42
2.0
 43
2.0
  0
INSERT
  5
82
330
7C
100
AcDbEntity
  8
0
100
AcDbBlockReference
  2
Top1
 10
-116.999999999328
 20
88.0000000000501
 30
0.0
 41
2.0
 42
2.0
 43
2.0
  0
INSERT
  5
83
330
7C
100
AcDbEntity
  8
0
100
AcDbBlockReference
  2
A4I_CS
 10
59.51631296026709
 20
0.89739801397008
 30
0.0
  0
ENDBLK
  5
85
330
7C
100
AcDbEntity
  8
0
100
AcDbBlockEnd
  0
BLOCK
  5
C5
330
BC
100
AcDbEntity
  8
0
100
AcDbBlockBegin
  2
*D17
 70
     1
 10
0.0
 20
0.0
 30
0.0
  3
*D17
  1

  0
LINE
  5
BD
330
BC
100
AcDbEntity
  8
1
  6
Continuous
 62
     2
100
AcDbLine
 10
-76.92570831714795
 20
87.04999939680731
 30
0.0
 11
-76.92570831714795
 21
69.2499998964028
 31
0.0
  0
LINE
  5
BE
330
BC
100
AcDbEntity
  8
1
  6
Continuous
 62
     2
100
AcDbLine
 10
-63.24086912722598
 20
87.04999939680731
 30
0.0
 11
-77.67570831714795
 21
87.04999939680731
 31
0.0
  0
LINE
  5
BF
330
BC
100
AcDbEntity
  8
1
  6
Continuous
 62
     2
100
AcDbLine
 10
-72.32402536644747
 20
69.2499998964028
 30
0.0
 11
-77.67570831714795
 21
69.2499998964028
 31
0.0
  0
LINE
  5
C0
330
BC
100
AcDbEntity
  8
1
  6
Continuous
 62
     2
100
AcDbLine
 10
-63.24086911958204
 20
69.2499998964028
 30
0.0
 11
-71.45091594600297
 21
69.2499998964028
 31
0.0
  0
SOLID
  5
C1
330
BC
100
AcDbEntity
  8
1
 62
     2
100
AcDbTrace
 10
-76.69531644637001
 20
85.29999939680731
 30
0.0
 11
-77.15610018792589
 21
85.29999939680731
 31
0.0
 12
-76.92570831714795
 22
87.04999939680731
 32
0.0
 13
-76.92570831714795
 23
87.04999939680731
 33
0.0
  0
SOLID
  5
C2
330
BC
100
AcDbEntity
  8
1
 62
     2
100
AcDbTrace
 10
-77.15610018792589
 20
70.9999998964028
 30
0.0
 11
-76.69531644637001
 21
70.9999998964028
 31
0.0
 12
-76.92570831714795
 22
69.2499998964028
 32
0.0
 13
-76.92570831714795
 23
69.2499998964028
 33
0.0
  0
MTEXT
  5
C4
330
BC
100
AcDbEntity
  8
1
 62
     3
100
AcDbMText
 10
-77.85070831714796
 20
75.90333307429351
 30
0.0
 40
1.75
 41
0.0
 71
     7
 72
     1
  1
17,8
  7
CONVERTER_11
 11
0.0
 21
1.0
 31
0.0
 73
     1
 44
0.60024009603842
  0
ENDBLK
  5
C6
330
BC
100
AcDbEntity
  8
0
100
AcDbBlockEnd
  0
BLOCK
  5
D0
330
C9
100
AcDbEntity
  8
0
100
AcDbBlockBegin
  2
*D18
 70
     1
 10
0.0
 20
0.0
 30
0.0
  3
*D18
  1

  0
LINE
  5
CA
330
C9
100
AcDbEntity
  8
1
  6
Continuous
 62
     2
100
AcDbLine
 10
-71.99999996909436
 20
62.30351876862501
 30
0.0
 11
-44.99999991579782
 21
62.30351876862501
 31
0.0
  0
LINE
  5
CB
330
C9
100
AcDbEntity
  8
1
  6
Continuous
 62
     2
100
AcDbLine
 10
-71.99999996909436
 20
85.76052423438549
 30
0.0
 11
-71.99999996909436
 21
61.55351876862501
 31
0.0
  0
LINE
  5
CC
330
C9
100
AcDbEntity
  8
1
  6
Continuous
 62
     2
100
AcDbLine
 10
-44.99999991579782
 20
84.01539469797603
 30
0.0
 11
-44.99999991579782
 21
61.55351876862501
 31
0.0
  0
SOLID
  5
CD
330
C9
100
AcDbEntity
  8
1
 62
     2
100
AcDbTrace
 10
-70.24999996909436
 20
62.53391063940295
 30
0.0
 11
-70.24999996909436
 21
62.07312689784707
 31
0.0
 12
-71.99999996909436
 22
62.30351876862501
 32
0.0
 13
-71.99999996909436
 23
62.30351876862501
 33
0.0
  0
SOLID
  5
CE
330
C9
100
AcDbEntity
  8
1
 62
     2
100
AcDbTrace
 10
-46.74999991579782
 20
62.07312689784707
 30
0.0
 11
-46.74999991579782
 21
62.53391063940295
 31
0.0
 12
-44.99999991579782
 22
62.30351876862501
 32
0.0
 13
-44.99999991579782
 23
62.30351876862501
 33
0.0
  0
MTEXT
  5
CF
330
C9
100
AcDbEntity
  8
1
 62
     3
100
AcDbMText
 10
-58.93344648937796
 20
63.05351876862501
 30
0.0
 40
1.75
 41
0.0
 71
     7
 72
     1
  1
27
  7
CONVERTER_11
 11
0.9999999999970619
 21
2.424068405545306E-6
 31
0.0
 73
     1
 44
0.60024009603842
  0
ENDBLK
  5
D1
330
C9
100
AcDbEntity
  8
0
100
AcDbBlockEnd
  0
BLOCK
  5
3CB
330
3C4
100
AcDbEntity
  8
0
100
AcDbBlockBegin
  2
*D19
 70
     1
 10
0.0
 20
0.0
 30
0.0
  3
*D19
  1

  0
LINE
  5
3C5
330
3C4
100
AcDbEntity
  8
1
  6
Continuous
 62
     2
100
AcDbLine
 10
-76.925708317148
 20
54.25000019491047
 30
0.0
 11
-76.925708317148
 21
33.75000020095882
 31
0.0
  0
LINE
  5
3C6
330
3C4
100
AcDbEntity
  8
1
  6
Continuous
 62
     2
100
AcDbLine
 10
-63.24086912719463
 20
54.25000019491047
 30
0.0
 11
-77.675708317148
 21
54.25000019491047
 31
0.0
  0
LINE
  5
3C7
330
3C4
100
AcDbEntity
  8
1
  6
Continuous
 62
     2
100
AcDbLine
 10
-63.24086912722606
 20
33.75000020095882
 30
0.0
 11
-77.675708317148
 21
33.75000020095882
 31
0.0
  0
SOLID
  5
3C8
330
3C4
100
AcDbEntity
  8
1
 62
     2
100
AcDbTrace
 10
-76.69531644637006
 20
52.50000019491047
 30
0.0
 11
-77.15610018792593
 21
52.50000019491047
 31
0.0
 12
-76.925708317148
 22
54.25000019491047
 32
0.0
 13
-76.925708317148
 23
54.25000019491047
 33
0.0
  0
SOLID
  5
3C9
330
3C4
100
AcDbEntity
  8
1
 62
     2
100
AcDbTrace
 10
-77.15610018792593
 20
35.50000020095882
 30
0.0
 11
-76.69531644637006
 21
35.50000020095882
 31
0.0
 12
-76.925708317148
 22
33.75000020095882
 32
0.0
 13
-76.925708317148
 23
33.75000020095882
 33
0.0
  0
MTEXT
  5
3CA
330
3C4
100
AcDbEntity
  8
1
 62
     3
100
AcDbMText
 10
-77.850708317148
 20
40.87877376071162
 30
0.0
 40
1.75
 41
0.0
 71
     7
 72
     1
  1
20,5
  7
CONVERTER_11
 11
0.0
 21
1.0
 31
0.0
 73
     1
 44
0.60024009603842
  0
ENDBLK
  5
3CC
330
3C4
100
AcDbEntity
  8
0
100
AcDbBlockEnd
  0
ENDSEC
  0
SECTION
  2
ENTITIES
  0
INSERT
  5
86
330
1F
100
AcDbEntity
  8
1
100
AcDbBlockReference
  2
1
 10
0.0
 20
0.0
 30
0.0
  0
ENDSEC
  0
SECTION
  2
OBJECTS
  0
DICTIONARY
  5
C
330
0
100
AcDbDictionary
281
     1
  3
ACAD_GROUP
350
D
  3
ACAD_LAYOUT
350
1A
  3
ACAD_MATERIAL
350
3B
  3
ACAD_MLEADERSTYLE
350
52F
  3
ACAD_MLINESTYLE
350
17
  3
ACAD_PLOTSETTINGS
350
19
  3
ACAD_PLOTSTYLENAME
350
E
  3
ACAD_TABLESTYLE
350
52E
  3
ACAD_VISUALSTYLE
350
2A
  0
DICTIONARY
  5
D
102
{ACAD_REACTORS
330
C
102
}
330
C
100
AcDbDictionary
281
     1
  0
DICTIONARY
  5
1A
102
{ACAD_REACTORS
330
C
102
}
330
C
100
AcDbDictionary
281
     1
  3
Layout1
350
1E
  3
Layout2
350
26
  3
Model
350
22
  0
DICTIONARY
  5
3B
102
{ACAD_REACTORS
330
C
102
}
330
C
100
AcDbDictionary
281
     1
  3
ByBlock
350
3D
  3
ByLayer
350
3C
  3
Global
350
3E
  0
DICTIONARY
  5
52F
102
{ACAD_REACTORS
330
C
102
}
330
C
100
AcDbDictionary
281
     1
  0
DICTIONARY
  5
17
102
{ACAD_REACTORS
330
C
102
}
330
C
100
AcDbDictionary
281
     1
  3
Standard
350
18
  0
DICTIONARY
  5
19
102
{ACAD_REACTORS
330
C
102
}
330
C
100
AcDbDictionary
281
     1
  0
ACDBDICTIONARYWDFLT
  5
E
102
{ACAD_REACTORS
330
C
102
}
330
C
100
AcDbDictionary
281
     1
  3
Normal
350
F
100
AcDbDictionaryWithDefault
340
F
  0
DICTIONARY
  5
52E
102
{ACAD_REACTORS
330
C
102
}
330
C
100
AcDbDictionary
281
     1
  0
DICTIONARY
  5
2A
102
{ACAD_REACTORS
330
C
102
}
330
C
100
AcDbDictionary
281
     1
  3
2dWireframe
350
2F
  3
3D Hidden
350
31
  3
3dWireframe
350
30
  3
Basic
350
32
  3
Brighten
350
36
  3
ColorChange
350
3A
  3
Conceptual
350
34
  3
Dim
350
35
  3
Facepattern
350
39
  3
Flat
350
2B
  3
FlatWithEdges
350
2C
  3
Gouraud
350
2D
  3
GouraudWithEdges
350
2E
  3
Linepattern
350
38
  3
Realistic
350
33
  3
Thicken
350
37
  0
LAYOUT
  5
1E
102
{ACAD_REACTORS
330
1A
102
}
330
1A
100
AcDbPlotSettings
  1

  2
none_device
  4

  6

 40
0.0
 41
0.0
 42
0.0
 43
0.0
 44
0.0
 45
0.0
 46
0.0
 47
0.0
 48
0.0
 49
0.0
140
0.0
141
0.0
142
1.0
143
1.0
 70
   688
 72
     0
 73
     0
 74
     5
  7

 75
    16
 76
     0
 77
     2
 78
   300
147
1.0
148
0.0
149
0.0
100
AcDbLayout
  1
Layout1
 70
     1
 71
     1
 10
0.0
 20
0.0
 11
12.0
 21
9.0
 12
0.0
 22
0.0
 32
0.0
 14
1.00000000000000E+20
 24
1.00000000000000E+20
 34
1.00000000000000E+20
 15
-1.00000000000000E+20
 25
-1.00000000000000E+20
 35
-1.00000000000000E+20
146
0.0
 13
0.0
 23
0.0
 33
0.0
 16
1.0
 26
0.0
 36
0.0
 17
0.0
 27
1.0
 37
0.0
 76
     0
330
1B
  0
LAYOUT
  5
26
102
{ACAD_REACTORS
330
1A
102
}
330
1A
100
AcDbPlotSettings
  1

  2
none_device
  4

  6

 40
0.0
 41
0.0
 42
0.0
 43
0.0
 44
0.0
 45
0.0
 46
0.0
 47
0.0
 48
0.0
 49
0.0
140
0.0
141
0.0
142
1.0
143
1.0
 70
   688
 72
     0
 73
     0
 74
     5
  7

 75
    16
 76
     0
 77
     2
 78
   300
147
1.0
148
0.0
149
0.0
100
AcDbLayout
  1
Layout2
 70
     1
 71
     2
 10
0.0
 20
0.0
 11
0.0
 21
0.0
 12
0.0
 22
0.0
 32
0.0
 14
0.0
 24
0.0
 34
0.0
 15
0.0
 25
0.0
 35
0.0
146
0.0
 13
0.0
 23
0.0
 33
0.0
 16
1.0
 26
0.0
 36
0.0
 17
0.0
 27
1.0
 37
0.0
 76
     0
330
23
  0
LAYOUT
  5
22
102
{ACAD_REACTORS
330
1A
102
}
330
1A
100
AcDbPlotSettings
  1

  2
none_device
  4

  6

 40
0.0
 41
0.0
 42
0.0
 43
0.0
 44
0.0
 45
0.0
 46
0.0
 47
0.0
 48
0.0
 49
0.0
140
0.0
141
0.0
142
1.0
143
1.0
 70
  1712
 72
     0
 73
     0
 74
     0
  7

 75
     0
 76
     0
 77
     2
 78
   300
147
1.0
148
0.0
149
0.0
100
AcDbLayout
  1
Model
 70
     1
 71
     0
 10
0.0
 20
0.0
 11
12.0
 21
9.0
 12
0.0
 22
0.0
 32
0.0
 14
-232.483687039732
 24
0.89739801397008
 34
0.0
 15
64.51631296026608
 25
210.8973980139702
 35
0.0
146
0.0
 13
0.0
 23
0.0
 33
0.0
 16
1.0
 26
0.0
 36
0.0
 17
0.0
 27
1.0
 37
0.0
 76
     0
330
1F
331
29
  0
MATERIAL
  5
3D
102
{ACAD_REACTORS
330
3B
102
}
102
{ACAD_XDICTIONARY
360
52A
102
}
330
3B
100
AcDbMaterial
  1
ByBlock
  0
MATERIAL
  5
3C
102
{ACAD_REACTORS
330
3B
102
}
102
{ACAD_XDICTIONARY
360
528
102
}
330
3B
100
AcDbMaterial
  1
ByLayer
  0
MATERIAL
  5
3E
102
{ACAD_REACTORS
330
3B
102
}
102
{ACAD_XDICTIONARY
360
52C
102
}
330
3B
100
AcDbMaterial
  1
Global
  0
MLINESTYLE
  5
18
102
{ACAD_REACTORS
330
17
102
}
330
17
100
AcDbMlineStyle
  2
Standard
 70
     0
  3

 62
   256
 51
90.0
 52
90.0
 71
     2
 49
0.5
 62
   256
  6
BYLAYER
 49
-0.5
 62
   256
  6
BYLAYER
  0
ACDBPLACEHOLDER
  5
F
102
{ACAD_REACTORS
330
E
102
}
330
E
  0
VISUALSTYLE
  5
2F
102
{ACAD_REACTORS
330
2A
102
}
102
{ACAD_XDICTIONARY
360
510
102
}
330
2A
100
AcDbVisualStyle
  2
2dWireframe
 70
     4
 71
     0
 72
     2
 73
     0
 90
        0
 40
-0.6
 41
-30.0
 62
     5
 63
     7
421
 16777215
 74
     1
 91
        4
 64
     7
 65
   257
 75
     1
175
     1
 42
1.0
 92
        0
 66
   257
 43
1.0
 76
     1
 77
     6
 78
     2
 67
     7
 79
     5
170
     0
171
     0
290
     0
174
     0
 93
        1
 44
0.0
173
     0
291
     0
 45
0.0
1001
ACAD
1000
AcDbSavedByObjectVersion
1070
     0
  0
VISUALSTYLE
  5
31
102
{ACAD_REACTORS
330
2A
102
}
102
{ACAD_XDICTIONARY
360
514
102
}
330
2A
100
AcDbVisualStyle
  2
3D Hidden
 70
     6
 71
     1
 72
     2
 73
     2
 90
        0
 40
-0.6
 41
-30.0
 62
     5
 63
     7
421
 16777215
 74
     2
 91
        2
 64
     7
 65
   257
 75
     2
175
     1
 42
40.0
 92
        0
 66
   257
 43
1.0
 76
     1
 77
     6
 78
     2
 67
     7
 79
     3
170
     0
171
     0
290
     0
174
     0
 93
        1
 44
0.0
173
     0
291
     0
 45
0.0
1001
ACAD
1000
AcDbSavedByObjectVersion
1070
     0
  0
VISUALSTYLE
  5
30
102
{ACAD_REACTORS
330
2A
102
}
102
{ACAD_XDICTIONARY
360
512
102
}
330
2A
100
AcDbVisualStyle
  2
3dWireframe
 70
     5
 71
     0
 72
     2
 73
     0
 90
        0
 40
-0.6
 41
-30.0
 62
     5
 63
     7
421
 16777215
 74
     1
 91
        4
 64
     7
 65
   257
 75
     1
175
     1
 42
1.0
 92
        0
 66
   257
 43
1.0
 76
     1
 77
     6
 78
     2
 67
     7
 79
     5
170
     0
171
     0
290
     0
174
     0
 93
        1
 44
0.0
173
     0
291
     0
 45
0.0
1001
ACAD
1000
AcDbSavedByObjectVersion
1070
     0
  0
VISUALSTYLE
  5
32
102
{ACAD_REACTORS
330
2A
102
}
102
{ACAD_XDICTIONARY
360
516
102
}
330
2A
100
AcDbVisualStyle
  2
Basic
 70
     7
 71
     1
 72
     0
 73
     1
 90
        0
 40
-0.6
 41
-30.0
 62
     5
 63
     7
421
 16777215
 74
     0
 91
        4
 64
     7
 65
   257
 75
     1
175
     1
 42
1.0
 92
        8
 66
     7
 43
1.0
 76
     1
 77
     6
 78
     2
 67
     7
 79
     5
170
     0
171
     0
290
     0
174
     0
 93
        1
 44
0.0
173
     0
291
     1
 45
0.0
1001
ACAD
1000
AcDbSavedByObjectVersion
1070
     0
  0
VISUALSTYLE
  5
36
102
{ACAD_REACTORS
330
2A
102
}
102
{ACAD_XDICTIONARY
360
51E
102
}
330
2A
100
AcDbVisualStyle
  2
Brighten
 70
    12
 71
     2
 72
     2
 73
     0
 90
        0
 40
-0.6
 41
-30.0
 62
     5
 63
     7
421
 16777215
 74
     1
 91
        4
 64
     7
 65
   257
 75
     1
175
     1
 42
1.0
 92
        8
 66
     7
 43
1.0
 76
     1
 77
     6
 78
     2
 67
     7
 79
     5
170
     0
171
     0
290
     0
174
     0
 93
        1
 44
50.0
173
     0
291
     1
 45
0.0
1001
ACAD
1000
AcDbSavedByObjectVersion
1070
     0
  0
VISUALSTYLE
  5
3A
102
{ACAD_REACTORS
330
2A
102
}
102
{ACAD_XDICTIONARY
360
526
102
}
330
2A
100
AcDbVisualStyle
  2
ColorChange
 70
    16
 71
     2
 72
     2
 73
     3
 90
        0
 40
-0.6
 41
-30.0
 62
     5
 63
     8
421
  8421504
 74
     1
 91
        4
 64
     7
 65
   257
 75
     1
175
     1
 42
1.0
 92
        8
 66
     8
424
  8421504
 43
1.0
 76
     1
 77
     6
 78
     2
 67
     7
 79
     5
170
     0
171
     0
290
     0
174
     0
 93
        1
 44
0.0
173
     0
291
     1
 45
0.0
1001
ACAD
1000
AcDbSavedByObjectVersion
1070
     0
  0
VISUALSTYLE
  5
34
102
{ACAD_REACTORS
330
2A
102
}
102
{ACAD_XDICTIONARY
360
51A
102
}
330
2A
100
AcDbVisualStyle
  2
Conceptual
 70
     9
 71
     3
 72
     2
 73
     0
 90
        0
 40
-0.6
 41
-30.0
 62
     5
 63
     7
421
 16777215
 74
     2
 91
        2
 64
     7
 65
   257
 75
     1
175
     1
 42
40.0
 92
        8
 66
     7
 43
1.0
 76
     1
 77
     6
 78
     2
 67
     7
 79
     3
170
     0
171
     0
290
     0
174
     0
 93
        1
 44
0.0
173
     0
291
     0
 45
0.0
1001
ACAD
1000
AcDbSavedByObjectVersion
1070
     0
  0
VISUALSTYLE
  5
35
102
{ACAD_REACTORS
330
2A
102
}
102
{ACAD_XDICTIONARY
360
51C
102
}
330
2A
100
AcDbVisualStyle
  2
Dim
 70
    11
 71
     2
 72
     2
 73
     0
 90
        0
 40
-0.6
 41
-30.0
 62
     5
 63
     7
421
 16777215
 74
     1
 91
        4
 64
     7
 65
   257
 75
     1
175
     1
 42
1.0
 92
        8
 66
     7
 43
1.0
 76
     1
 77
     6
 78
     2
 67
     7
 79
     5
170
     0
171
     0
290
     0
174
     0
 93
        1
 44
-50.0
173
     0
291
     1
 45
0.0
1001
ACAD
1000
AcDbSavedByObjectVersion
1070
     0
  0
VISUALSTYLE
  5
39
102
{ACAD_REACTORS
330
2A
102
}
102
{ACAD_XDICTIONARY
360
524
102
}
330
2A
100
AcDbVisualStyle
  2
Facepattern
 70
    15
 71
     2
 72
     2
 73
     0
 90
        0
 40
-0.6
 41
-30.0
 62
     5
 63
     7
421
 16777215
 74
     1
 91
        4
 64
     7
 65
   257
 75
     1
175
     1
 42
1.0
 92
        8
 66
     7
 43
1.0
 76
     1
 77
     6
 78
     2
 67
     7
 79
     5
170
     0
171
     0
290
     0
174
     0
 93
        1
 44
0.0
173
     0
291
     1
 45
0.0
1001
ACAD
1000
AcDbSavedByObjectVersion
1070
     0
  0
VISUALSTYLE
  5
2B
102
{ACAD_REACTORS
330
2A
102
}
102
{ACAD_XDICTIONARY
360
508
102
}
330
2A
100
AcDbVisualStyle
  2
Flat
 70
     0
 71
     2
 72
     1
 73
     1
 90
        2
 40
-0.6
 41
30.0
 62
     5
 63
     7
421
 16777215
 74
     0
 91
        4
 64
     7
 65
   257
 75
     1
175
     1
 42
1.0
 92
        8
 66
     7
 43
1.0
 76
     1
 77
     6
 78
     2
 67
     7
 79
     5
170
     0
171
     0
290
     0
174
     0
 93
       13
 44
0.0
173
     0
291
     1
 45
0.0
1001
ACAD
1000
AcDbSavedByObjectVersion
1070
     0
  0
VISUALSTYLE
  5
2C
102
{ACAD_REACTORS
330
2A
102
}
102
{ACAD_XDICTIONARY
360
50A
102
}
330
2A
100
AcDbVisualStyle
  2
FlatWithEdges
 70
     1
 71
     2
 72
     1
 73
     1
 90
        2
 40
-0.6
 41
30.0
 62
     5
 63
     7
421
 16777215
 74
     1
 91
        4
 64
     7
 65
   257
 75
     1
175
     1
 42
1.0
 92
        0
 66
   257
 43
1.0
 76
     1
 77
     6
 78
     2
 67
     7
 79
     5
170
     0
171
     0
290
     0
174
     0
 93
       13
 44
0.0
173
     0
291
     1
 45
0.0
1001
ACAD
1000
AcDbSavedByObjectVersion
1070
     0
  0
VISUALSTYLE
  5
2D
102
{ACAD_REACTORS
330
2A
102
}
102
{ACAD_XDICTIONARY
360
50C
102
}
330
2A
100
AcDbVisualStyle
  2
Gouraud
 70
     2
 71
     2
 72
     2
 73
     1
 90
        2
 40
-0.6
 41
30.0
 62
     5
 63
     7
421
 16777215
 74
     0
 91
        4
 64
     7
 65
   257
 75
     1
175
     1
 42
1.0
 92
        0
 66
     7
 43
1.0
 76
     1
 77
     6
 78
     2
 67
     7
 79
     5
170
     0
171
     0
290
     0
174
     0
 93
       13
 44
0.0
173
     0
291
     1
 45
0.0
1001
ACAD
1000
AcDbSavedByObjectVersion
1070
     0
  0
VISUALSTYLE
  5
2E
102
{ACAD_REACTORS
330
2A
102
}
102
{ACAD_XDICTIONARY
360
50E
102
}
330
2A
100
AcDbVisualStyle
  2
GouraudWithEdges
 70
     3
 71
     2
 72
     2
 73
     1
 90
        2
 40
-0.6
 41
30.0
 62
     5
 63
     7
421
 16777215
 74
     1
 91
        4
 64
     7
 65
   257
 75
     1
175
     1
 42
1.0
 92
        0
 66
   257
 43
1.0
 76
     1
 77
     6
 78
     2
 67
     7
 79
     5
170
     0
171
     0
290
     0
174
     0
 93
       13
 44
0.0
173
     0
291
     1
 45
0.0
1001
ACAD
1000
AcDbSavedByObjectVersion
1070
     0
  0
VISUALSTYLE
  5
38
102
{ACAD_REACTORS
330
2A
102
}
102
{ACAD_XDICTIONARY
360
522
102
}
330
2A
100
AcDbVisualStyle
  2
Linepattern
 70
    14
 71
     2
 72
     2
 73
     0
 90
        0
 40
-0.6
 41
-30.0
 62
     5
 63
     7
421
 16777215
 74
     1
 91
        4
 64
     7
 65
   257
 75
     7
175
     7
 42
1.0
 92
        8
 66
     7
 43
1.0
 76
     1
 77
     6
 78
     2
 67
     7
 79
     5
170
     0
171
     0
290
     0
174
     0
 93
        1
 44
0.0
173
     0
291
     1
 45
0.0
1001
ACAD
1000
AcDbSavedByObjectVersion
1070
     0
  0
VISUALSTYLE
  5
33
102
{ACAD_REACTORS
330
2A
102
}
102
{ACAD_XDICTIONARY
360
518
102
}
330
2A
100
AcDbVisualStyle
  2
Realistic
 70
     8
 71
     2
 72
     2
 73
     0
 90
        0
 40
-0.6
 41
-30.0
 62
     5
 63
     7
421
 16777215
 74
     1
 91
        0
 64
     7
 65
   257
 75
     1
175
     1
 42
1.0
 92
        8
 66
     8
424
  7895160
 43
1.0
 76
     1
 77
     6
 78
     2
 67
     7
 79
     5
170
     0
171
     0
290
     0
174
     0
 93
       13
 44
0.0
173
     0
291
     0
 45
0.0
1001
ACAD
1000
AcDbSavedByObjectVersion
1070
     0
  0
VISUALSTYLE
  5
37
102
{ACAD_REACTORS
330
2A
102
}
102
{ACAD_XDICTIONARY
360
520
102
}
330
2A
100
AcDbVisualStyle
  2
Thicken
 70
    13
 71
     2
 72
     2
 73
     0
 90
        0
 40
-0.6
 41
-30.0
 62
     5
 63
     7
421
 16777215
 74
     1
 91
        4
 64
     7
 65
   257
 75
     1
175
     1
 42
1.0
 92
       12
 66
     7
 43
1.0
 76
     1
 77
     6
 78
     2
 67
     7
 79
     5
170
     0
171
     0
290
     0
174
     0
 93
        1
 44
0.0
173
     0
291
     1
 45
0.0
1001
ACAD
1000
AcDbSavedByObjectVersion
1070
     0
  0
DICTIONARY
  5
52A
330
3D
100
AcDbDictionary
280
     1
281
     1
  3
ACAD_XREC_ROUNDTRIP
360
52B
  0
DICTIONARY
  5
528
330
3C
100
AcDbDictionary
280
     1
281
     1
  3
ACAD_XREC_ROUNDTRIP
360
529
  0
DICTIONARY
  5
52C
330
3E
100
AcDbDictionary
280
     1
281
     1
  3
ACAD_XREC_ROUNDTRIP
360
52D
  0
DICTIONARY
  5
510
330
2F
100
AcDbDictionary
280
     1
281
     1
  3
ACAD_XREC_ROUNDTRIP
360
511
  0
DICTIONARY
  5
514
330
31
100
AcDbDictionary
280
     1
281
     1
  3
ACAD_XREC_ROUNDTRIP
360
515
  0
DICTIONARY
  5
512
330
30
100
AcDbDictionary
280
     1
281
     1
  3
ACAD_XREC_ROUNDTRIP
360
513
  0
DICTIONARY
  5
516
330
32
100
AcDbDictionary
280
     1
281
     1
  3
ACAD_XREC_ROUNDTRIP
360
517
  0
DICTIONARY
  5
51E
330
36
100
AcDbDictionary
280
     1
281
     1
  3
ACAD_XREC_ROUNDTRIP
360
51F
  0
DICTIONARY
  5
526
330
3A
100
AcDbDictionary
280
     1
281
     1
  3
ACAD_XREC_ROUNDTRIP
360
527
  0
DICTIONARY
  5
51A
330
34
100
AcDbDictionary
280
     1
281
     1
  3
ACAD_XREC_ROUNDTRIP
360
51B
  0
DICTIONARY
  5
51C
330
35
100
AcDbDictionary
280
     1
281
     1
  3
ACAD_XREC_ROUNDTRIP
360
51D
  0
DICTIONARY
  5
524
330
39
100
AcDbDictionary
280
     1
281
     1
  3
ACAD_XREC_ROUNDTRIP
360
525
  0
DICTIONARY
  5
508
330
2B
100
AcDbDictionary
280
     1
281
     1
  3
ACAD_XREC_ROUNDTRIP
360
509
  0
DICTIONARY
  5
50A
330
2C
100
AcDbDictionary
280
     1
281
     1
  3
ACAD_XREC_ROUNDTRIP
360
50B
  0
DICTIONARY
  5
50C
330
2D
100
AcDbDictionary
280
     1
281
     1
  3
ACAD_XREC_ROUNDTRIP
360
50D
  0
DICTIONARY
  5
50E
330
2E
100
AcDbDictionary
280
     1
281
     1
  3
ACAD_XREC_ROUNDTRIP
360
50F
  0
DICTIONARY
  5
522
330
38
100
AcDbDictionary
280
     1
281
     1
  3
ACAD_XREC_ROUNDTRIP
360
523
  0
DICTIONARY
  5
518
330
33
100
AcDbDictionary
280
     1
281
     1
  3
ACAD_XREC_ROUNDTRIP
360
519
  0
DICTIONARY
  5
520
330
37
100
AcDbDictionary
280
     1
281
     1
  3
ACAD_XREC_ROUNDTRIP
360
521
  0
XRECORD
  5
52B
102
{ACAD_REACTORS
330
52A
102
}
330
52A
100
AcDbXrecord
280
     1
102
MATERIAL
148
0.0
149
0.0
149
0.0
 93
        0
 94
      127
282
     0
 72
     1
 77
     1
171
     1
175
     1
179
     1
273
     0
  0
XRECORD
  5
529
102
{ACAD_REACTORS
330
528
102
}
330
528
100
AcDbXrecord
280
     1
102
MATERIAL
148
0.0
149
0.0
149
0.0
 93
        0
 94
      127
282
     0
 72
     1
 77
     1
171
     1
175
     1
179
     1
273
     0
  0
XRECORD
  5
52D
102
{ACAD_REACTORS
330
52C
102
}
330
52C
100
AcDbXrecord
280
     1
102
MATERIAL
148
0.0
149
0.0
149
0.0
 93
        0
 94
      127
282
     0
 72
     1
 77
     1
171
     1
175
     1
179
     1
273
     0
  0
XRECORD
  5
511
102
{ACAD_REACTORS
330
510
102
}
330
510
100
AcDbXrecord
280
     1
102
RTVSPropertyOp0
 70
     1
102
RTVSPropertyOp1
 70
     1
102
RTVSPropertyOp2
 70
     1
102
RTVSPropertyOp3
 70
     1
102
RTVSPropertyOp4
 70
     1
102
RTVSPropertyOp5
 70
     1
102
RTVSPropertyOp6
 70
     1
102
RTVSPropertyOp7
 70
     1
102
RTVSPropertyOp8
 70
     1
102
RTVSPropertyOp9
 70
     1
102
RTVSPropertyOp10
 70
     1
102
RTVSPropertyOp11
 70
     1
102
RTVSPropertyOp12
 70
     1
102
RTVSPropertyOp13
 70
     1
102
RTVSPropertyOp14
 70
     1
102
RTVSPropertyOp15
 70
     1
102
RTVSPropertyOp16
 70
     1
102
RTVSPropertyOp17
 70
     1
102
RTVSPropertyOp18
 70
     1
102
RTVSPropertyOp19
 70
     1
102
RTVSPropertyOp20
 70
     1
102
RTVSPropertyOp21
 70
     1
102
RTVSPropertyOp22
 70
     1
102
RTVSPropertyOp23
 70
     1
102
RTVSPropertyOp24
 70
     1
102
RTVSPropertyOp25
 70
     1
102
RTVSPropertyOp26
 70
     1
102
RTVSPropertyOp27
 70
     1
102
RTVSPropertyOp28
 70
     1
102
RTVSPropertyOp29
 70
     1
102
RTVSPropertyOp30
 70
     1
102
RTVSPropertyOp31
 70
     1
102
RTVSPropertyOp32
 70
     1
  0
XRECORD
  5
515
102
{ACAD_REACTORS
330
514
102
}
330
514
100
AcDbXrecord
280
     1
102
RTVSPropertyOp0
 70
     1
102
RTVSPropertyOp1
 70
     1
102
RTVSPropertyOp2
 70
     1
102
RTVSPropertyOp3
 70
     1
102
RTVSPropertyOp4
 70
     1
102
RTVSPropertyOp5
 70
     1
102
RTVSPropertyOp6
 70
     1
102
RTVSPropertyOp7
 70
     1
102
RTVSPropertyOp8
 70
     1
102
RTVSPropertyOp9
 70
     1
102
RTVSPropertyOp10
 70
     1
102
RTVSPropertyOp11
 70
     1
102
RTVSPropertyOp12
 70
     1
102
RTVSPropertyOp13
 70
     1
102
RTVSPropertyOp14
 70
     1
102
RTVSPropertyOp15
 70
     1
102
RTVSPropertyOp16
 70
     1
102
RTVSPropertyOp17
 70
     1
102
RTVSPropertyOp18
 70
     1
102
RTVSPropertyOp19
 70
     1
102
RTVSPropertyOp20
 70
     1
102
RTVSPropertyOp21
 70
     1
102
RTVSPropertyOp22
 70
     1
102
RTVSPropertyOp23
 70
     1
102
RTVSPropertyOp24
 70
     1
102
RTVSPropertyOp25
 70
     1
102
RTVSPropertyOp26
 70
     1
102
RTVSPropertyOp27
 70
     1
102
RTVSPropertyOp28
 70
     1
102
RTVSPropertyOp29
 70
     1
102
RTVSPropertyOp30
 70
     1
102
RTVSPropertyOp31
 70
     1
102
RTVSPropertyOp32
 70
     1
  0
XRECORD
  5
513
102
{ACAD_REACTORS
330
512
102
}
330
512
100
AcDbXrecord
280
     1
102
RTVSPropertyOp0
 70
     1
102
RTVSPropertyOp1
 70
     1
102
RTVSPropertyOp2
 70
     1
102
RTVSPropertyOp3
 70
     1
102
RTVSPropertyOp4
 70
     1
102
RTVSPropertyOp5
 70
     1
102
RTVSPropertyOp6
 70
     1
102
RTVSPropertyOp7
 70
     1
102
RTVSPropertyOp8
 70
     1
102
RTVSPropertyOp9
 70
     1
102
RTVSPropertyOp10
 70
     1
102
RTVSPropertyOp11
 70
     1
102
RTVSPropertyOp12
 70
     1
102
RTVSPropertyOp13
 70
     1
102
RTVSPropertyOp14
 70
     1
102
RTVSPropertyOp15
 70
     1
102
RTVSPropertyOp16
 70
     1
102
RTVSPropertyOp17
 70
     1
102
RTVSPropertyOp18
 70
     1
102
RTVSPropertyOp19
 70
     1
102
RTVSPropertyOp20
 70
     1
102
RTVSPropertyOp21
 70
     1
102
RTVSPropertyOp22
 70
     1
102
RTVSPropertyOp23
 70
     1
102
RTVSPropertyOp24
 70
     1
102
RTVSPropertyOp25
 70
     1
102
RTVSPropertyOp26
 70
     1
102
RTVSPropertyOp27
 70
     1
102
RTVSPropertyOp28
 70
     1
102
RTVSPropertyOp29
 70
     1
102
RTVSPropertyOp30
 70
     1
102
RTVSPropertyOp31
 70
     1
102
RTVSPropertyOp32
 70
     1
  0
XRECORD
  5
517
102
{ACAD_REACTORS
330
516
102
}
330
516
100
AcDbXrecord
280
     1
102
RTVSPropertyOp0
 70
     1
102
RTVSPropertyOp1
 70
     1
102
RTVSPropertyOp2
 70
     1
102
RTVSPropertyOp3
 70
     1
102
RTVSPropertyOp4
 70
     1
102
RTVSPropertyOp5
 70
     1
102
RTVSPropertyOp6
 70
     1
102
RTVSPropertyOp7
 70
     1
102
RTVSPropertyOp8
 70
     1
102
RTVSPropertyOp9
 70
     1
102
RTVSPropertyOp10
 70
     1
102
RTVSPropertyOp11
 70
     1
102
RTVSPropertyOp12
 70
     1
102
RTVSPropertyOp13
 70
     1
102
RTVSPropertyOp14
 70
     1
102
RTVSPropertyOp15
 70
     1
102
RTVSPropertyOp16
 70
     1
102
RTVSPropertyOp17
 70
     1
102
RTVSPropertyOp18
 70
     1
102
RTVSPropertyOp19
 70
     1
102
RTVSPropertyOp20
 70
     1
102
RTVSPropertyOp21
 70
     1
102
RTVSPropertyOp22
 70
     1
102
RTVSPropertyOp23
 70
     1
102
RTVSPropertyOp24
 70
     1
102
RTVSPropertyOp25
 70
     1
102
RTVSPropertyOp26
 70
     1
102
RTVSPropertyOp27
 70
     1
102
RTVSPropertyOp28
 70
     1
102
RTVSPropertyOp29
 70
     1
102
RTVSPropertyOp30
 70
     1
102
RTVSPropertyOp31
 70
     1
102
RTVSPropertyOp32
 70
     1
  0
XRECORD
  5
51F
102
{ACAD_REACTORS
330
51E
102
}
330
51E
100
AcDbXrecord
280
     1
102
RTVSPropertyOp0
 70
     1
102
RTVSPropertyOp1
 70
     1
102
RTVSPropertyOp2
 70
     1
102
RTVSPropertyOp3
 70
     1
102
RTVSPropertyOp4
 70
     1
102
RTVSPropertyOp5
 70
     1
102
RTVSPropertyOp6
 70
     1
102
RTVSPropertyOp7
 70
     1
102
RTVSPropertyOp8
 70
     1
102
RTVSPropertyOp9
 70
     1
102
RTVSPropertyOp10
 70
     1
102
RTVSPropertyOp11
 70
     1
102
RTVSPropertyOp12
 70
     1
102
RTVSPropertyOp13
 70
     1
102
RTVSPropertyOp14
 70
     1
102
RTVSPropertyOp15
 70
     1
102
RTVSPropertyOp16
 70
     1
102
RTVSPropertyOp17
 70
     1
102
RTVSPropertyOp18
 70
     1
102
RTVSPropertyOp19
 70
     1
102
RTVSPropertyOp20
 70
     1
102
RTVSPropertyOp21
 70
     1
102
RTVSPropertyOp22
 70
     1
102
RTVSPropertyOp23
 70
     1
102
RTVSPropertyOp24
 70
     1
102
RTVSPropertyOp25
 70
     1
102
RTVSPropertyOp26
 70
     1
102
RTVSPropertyOp27
 70
     1
102
RTVSPropertyOp28
 70
     1
102
RTVSPropertyOp29
 70
     1
102
RTVSPropertyOp30
 70
     1
102
RTVSPropertyOp31
 70
     1
102
RTVSPropertyOp32
 70
     1
  0
XRECORD
  5
527
102
{ACAD_REACTORS
330
526
102
}
330
526
100
AcDbXrecord
280
     1
102
RTVSPropertyOp0
 70
     1
102
RTVSPropertyOp1
 70
     1
102
RTVSPropertyOp2
 70
     1
102
RTVSPropertyOp3
 70
     1
102
RTVSPropertyOp4
 70
     1
102
RTVSPropertyOp5
 70
     1
102
RTVSPropertyOp6
 70
     1
102
RTVSPropertyOp7
 70
     1
102
RTVSPropertyOp8
 70
     1
102
RTVSPropertyOp9
 70
     1
102
RTVSPropertyOp10
 70
     1
102
RTVSPropertyOp11
 70
     1
102
RTVSPropertyOp12
 70
     1
102
RTVSPropertyOp13
 70
     1
102
RTVSPropertyOp14
 70
     1
102
RTVSPropertyOp15
 70
     1
102
RTVSPropertyOp16
 70
     1
102
RTVSPropertyOp17
 70
     1
102
RTVSPropertyOp18
 70
     1
102
RTVSPropertyOp19
 70
     1
102
RTVSPropertyOp20
 70
     1
102
RTVSPropertyOp21
 70
     1
102
RTVSPropertyOp22
 70
     1
102
RTVSPropertyOp23
 70
     1
102
RTVSPropertyOp24
 70
     1
102
RTVSPropertyOp25
 70
     1
102
RTVSPropertyOp26
 70
     1
102
RTVSPropertyOp27
 70
     1
102
RTVSPropertyOp28
 70
     1
102
RTVSPropertyOp29
 70
     1
102
RTVSPropertyOp30
 70
     1
102
RTVSPropertyOp31
 70
     1
102
RTVSPropertyOp32
 70
     1
  0
XRECORD
  5
51B
102
{ACAD_REACTORS
330
51A
102
}
330
51A
100
AcDbXrecord
280
     1
102
RTVSPropertyOp0
 70
     1
102
RTVSPropertyOp1
 70
     1
102
RTVSPropertyOp2
 70
     1
102
RTVSPropertyOp3
 70
     1
102
RTVSPropertyOp4
 70
     1
102
RTVSPropertyOp5
 70
     1
102
RTVSPropertyOp6
 70
     1
102
RTVSPropertyOp7
 70
     1
102
RTVSPropertyOp8
 70
     1
102
RTVSPropertyOp9
 70
     1
102
RTVSPropertyOp10
 70
     1
102
RTVSPropertyOp11
 70
     1
102
RTVSPropertyOp12
 70
     1
102
RTVSPropertyOp13
 70
     1
102
RTVSPropertyOp14
 70
     1
102
RTVSPropertyOp15
 70
     1
102
RTVSPropertyOp16
 70
     1
102
RTVSPropertyOp17
 70
     1
102
RTVSPropertyOp18
 70
     1
102
RTVSPropertyOp19
 70
     1
102
RTVSPropertyOp20
 70
     1
102
RTVSPropertyOp21
 70
     1
102
RTVSPropertyOp22
 70
     1
102
RTVSPropertyOp23
 70
     1
102
RTVSPropertyOp24
 70
     1
102
RTVSPropertyOp25
 70
     1
102
RTVSPropertyOp26
 70
     1
102
RTVSPropertyOp27
 70
     1
102
RTVSPropertyOp28
 70
     1
102
RTVSPropertyOp29
 70
     1
102
RTVSPropertyOp30
 70
     1
102
RTVSPropertyOp31
 70
     1
102
RTVSPropertyOp32
 70
     1
  0
XRECORD
  5
51D
102
{ACAD_REACTORS
330
51C
102
}
330
51C
100
AcDbXrecord
280
     1
102
RTVSPropertyOp0
 70
     1
102
RTVSPropertyOp1
 70
     1
102
RTVSPropertyOp2
 70
     1
102
RTVSPropertyOp3
 70
     1
102
RTVSPropertyOp4
 70
     1
102
RTVSPropertyOp5
 70
     1
102
RTVSPropertyOp6
 70
     1
102
RTVSPropertyOp7
 70
     1
102
RTVSPropertyOp8
 70
     1
102
RTVSPropertyOp9
 70
     1
102
RTVSPropertyOp10
 70
     1
102
RTVSPropertyOp11
 70
     1
102
RTVSPropertyOp12
 70
     1
102
RTVSPropertyOp13
 70
     1
102
RTVSPropertyOp14
 70
     1
102
RTVSPropertyOp15
 70
     1
102
RTVSPropertyOp16
 70
     1
102
RTVSPropertyOp17
 70
     1
102
RTVSPropertyOp18
 70
     1
102
RTVSPropertyOp19
 70
     1
102
RTVSPropertyOp20
 70
     1
102
RTVSPropertyOp21
 70
     1
102
RTVSPropertyOp22
 70
     1
102
RTVSPropertyOp23
 70
     1
102
RTVSPropertyOp24
 70
     1
102
RTVSPropertyOp25
 70
     1
102
RTVSPropertyOp26
 70
     1
102
RTVSPropertyOp27
 70
     1
102
RTVSPropertyOp28
 70
     1
102
RTVSPropertyOp29
 70
     1
102
RTVSPropertyOp30
 70
     1
102
RTVSPropertyOp31
 70
     1
102
RTVSPropertyOp32
 70
     1
  0
XRECORD
  5
525
102
{ACAD_REACTORS
330
524
102
}
330
524
100
AcDbXrecord
280
     1
102
RTVSPropertyOp0
 70
     1
102
RTVSPropertyOp1
 70
     1
102
RTVSPropertyOp2
 70
     1
102
RTVSPropertyOp3
 70
     1
102
RTVSPropertyOp4
 70
     1
102
RTVSPropertyOp5
 70
     1
102
RTVSPropertyOp6
 70
     1
102
RTVSPropertyOp7
 70
     1
102
RTVSPropertyOp8
 70
     1
102
RTVSPropertyOp9
 70
     1
102
RTVSPropertyOp10
 70
     1
102
RTVSPropertyOp11
 70
     1
102
RTVSPropertyOp12
 70
     1
102
RTVSPropertyOp13
 70
     1
102
RTVSPropertyOp14
 70
     1
102
RTVSPropertyOp15
 70
     1
102
RTVSPropertyOp16
 70
     1
102
RTVSPropertyOp17
 70
     1
102
RTVSPropertyOp18
 70
     1
102
RTVSPropertyOp19
 70
     1
102
RTVSPropertyOp20
 70
     1
102
RTVSPropertyOp21
 70
     1
102
RTVSPropertyOp22
 70
     1
102
RTVSPropertyOp23
 70
     1
102
RTVSPropertyOp24
 70
     1
102
RTVSPropertyOp25
 70
     1
102
RTVSPropertyOp26
 70
     1
102
RTVSPropertyOp27
 70
     1
102
RTVSPropertyOp28
 70
     1
102
RTVSPropertyOp29
 70
     1
102
RTVSPropertyOp30
 70
     1
102
RTVSPropertyOp31
 70
     1
102
RTVSPropertyOp32
 70
     1
  0
XRECORD
  5
509
102
{ACAD_REACTORS
330
508
102
}
330
508
100
AcDbXrecord
280
     1
102
RTVSPropertyOp0
 70
     1
102
RTVSPropertyOp1
 70
     1
102
RTVSPropertyOp2
 70
     1
102
RTVSPropertyOp3
 70
     1
102
RTVSPropertyOp4
 70
     1
102
RTVSPropertyOp5
 70
     1
102
RTVSPropertyOp6
 70
     1
102
RTVSPropertyOp7
 70
     1
102
RTVSPropertyOp8
 70
     1
102
RTVSPropertyOp9
 70
     1
102
RTVSPropertyOp10
 70
     1
102
RTVSPropertyOp11
 70
     1
102
RTVSPropertyOp12
 70
     1
102
RTVSPropertyOp13
 70
     1
102
RTVSPropertyOp14
 70
     1
102
RTVSPropertyOp15
 70
     1
102
RTVSPropertyOp16
 70
     1
102
RTVSPropertyOp17
 70
     1
102
RTVSPropertyOp18
 70
     1
102
RTVSPropertyOp19
 70
     1
102
RTVSPropertyOp20
 70
     1
102
RTVSPropertyOp21
 70
     1
102
RTVSPropertyOp22
 70
     1
102
RTVSPropertyOp23
 70
     1
102
RTVSPropertyOp24
 70
     1
102
RTVSPropertyOp25
 70
     1
102
RTVSPropertyOp26
 70
     1
102
RTVSPropertyOp27
 70
     1
102
RTVSPropertyOp28
 70
     1
102
RTVSPropertyOp29
 70
     1
102
RTVSPropertyOp30
 70
     1
102
RTVSPropertyOp31
 70
     1
102
RTVSPropertyOp32
 70
     1
  0
XRECORD
  5
50B
102
{ACAD_REACTORS
330
50A
102
}
330
50A
100
AcDbXrecord
280
     1
102
RTVSPropertyOp0
 70
     1
102
RTVSPropertyOp1
 70
     1
102
RTVSPropertyOp2
 70
     1
102
RTVSPropertyOp3
 70
     1
102
RTVSPropertyOp4
 70
     1
102
RTVSPropertyOp5
 70
     1
102
RTVSPropertyOp6
 70
     1
102
RTVSPropertyOp7
 70
     1
102
RTVSPropertyOp8
 70
     1
102
RTVSPropertyOp9
 70
     1
102
RTVSPropertyOp10
 70
     1
102
RTVSPropertyOp11
 70
     1
102
RTVSPropertyOp12
 70
     1
102
RTVSPropertyOp13
 70
     1
102
RTVSPropertyOp14
 70
     1
102
RTVSPropertyOp15
 70
     1
102
RTVSPropertyOp16
 70
     1
102
RTVSPropertyOp17
 70
     1
102
RTVSPropertyOp18
 70
     1
102
RTVSPropertyOp19
 70
     1
102
RTVSPropertyOp20
 70
     1
102
RTVSPropertyOp21
 70
     1
102
RTVSPropertyOp22
 70
     1
102
RTVSPropertyOp23
 70
     1
102
RTVSPropertyOp24
 70
     1
102
RTVSPropertyOp25
 70
     1
102
RTVSPropertyOp26
 70
     1
102
RTVSPropertyOp27
 70
     1
102
RTVSPropertyOp28
 70
     1
102
RTVSPropertyOp29
 70
     1
102
RTVSPropertyOp30
 70
     1
102
RTVSPropertyOp31
 70
     1
102
RTVSPropertyOp32
 70
     1
  0
XRECORD
  5
50D
102
{ACAD_REACTORS
330
50C
102
}
330
50C
100
AcDbXrecord
280
     1
102
RTVSPropertyOp0
 70
     1
102
RTVSPropertyOp1
 70
     1
102
RTVSPropertyOp2
 70
     1
102
RTVSPropertyOp3
 70
     1
102
RTVSPropertyOp4
 70
     1
102
RTVSPropertyOp5
 70
     1
102
RTVSPropertyOp6
 70
     1
102
RTVSPropertyOp7
 70
     1
102
RTVSPropertyOp8
 70
     1
102
RTVSPropertyOp9
 70
     1
102
RTVSPropertyOp10
 70
     1
102
RTVSPropertyOp11
 70
     1
102
RTVSPropertyOp12
 70
     1
102
RTVSPropertyOp13
 70
     1
102
RTVSPropertyOp14
 70
     1
102
RTVSPropertyOp15
 70
     1
102
RTVSPropertyOp16
 70
     1
102
RTVSPropertyOp17
 70
     1
102
RTVSPropertyOp18
 70
     1
102
RTVSPropertyOp19
 70
     1
102
RTVSPropertyOp20
 70
     1
102
RTVSPropertyOp21
 70
     1
102
RTVSPropertyOp22
 70
     1
102
RTVSPropertyOp23
 70
     1
102
RTVSPropertyOp24
 70
     1
102
RTVSPropertyOp25
 70
     1
102
RTVSPropertyOp26
 70
     1
102
RTVSPropertyOp27
 70
     1
102
RTVSPropertyOp28
 70
     1
102
RTVSPropertyOp29
 70
     1
102
RTVSPropertyOp30
 70
     1
102
RTVSPropertyOp31
 70
     1
102
RTVSPropertyOp32
 70
     1
  0
XRECORD
  5
50F
102
{ACAD_REACTORS
330
50E
102
}
330
50E
100
AcDbXrecord
280
     1
102
RTVSPropertyOp0
 70
     1
102
RTVSPropertyOp1
 70
     1
102
RTVSPropertyOp2
 70
     1
102
RTVSPropertyOp3
 70
     1
102
RTVSPropertyOp4
 70
     1
102
RTVSPropertyOp5
 70
     1
102
RTVSPropertyOp6
 70
     1
102
RTVSPropertyOp7
 70
     1
102
RTVSPropertyOp8
 70
     1
102
RTVSPropertyOp9
 70
     1
102
RTVSPropertyOp10
 70
     1
102
RTVSPropertyOp11
 70
     1
102
RTVSPropertyOp12
 70
     1
102
RTVSPropertyOp13
 70
     1
102
RTVSPropertyOp14
 70
     1
102
RTVSPropertyOp15
 70
     1
102
RTVSPropertyOp16
 70
     1
102
RTVSPropertyOp17
 70
     1
102
RTVSPropertyOp18
 70
     1
102
RTVSPropertyOp19
 70
     1
102
RTVSPropertyOp20
 70
     1
102
RTVSPropertyOp21
 70
     1
102
RTVSPropertyOp22
 70
     1
102
RTVSPropertyOp23
 70
     1
102
RTVSPropertyOp24
 70
     1
102
RTVSPropertyOp25
 70
     1
102
RTVSPropertyOp26
 70
     1
102
RTVSPropertyOp27
 70
     1
102
RTVSPropertyOp28
 70
     1
102
RTVSPropertyOp29
 70
     1
102
RTVSPropertyOp30
 70
     1
102
RTVSPropertyOp31
 70
     1
102
RTVSPropertyOp32
 70
     1
  0
XRECORD
  5
523
102
{ACAD_REACTORS
330
522
102
}
330
522
100
AcDbXrecord
280
     1
102
RTVSPropertyOp0
 70
     1
102
RTVSPropertyOp1
 70
     1
102
RTVSPropertyOp2
 70
     1
102
RTVSPropertyOp3
 70
     1
102
RTVSPropertyOp4
 70
     1
102
RTVSPropertyOp5
 70
     1
102
RTVSPropertyOp6
 70
     1
102
RTVSPropertyOp7
 70
     1
102
RTVSPropertyOp8
 70
     1
102
RTVSPropertyOp9
 70
     1
102
RTVSPropertyOp10
 70
     1
102
RTVSPropertyOp11
 70
     1
102
RTVSPropertyOp12
 70
     1
102
RTVSPropertyOp13
 70
     1
102
RTVSPropertyOp14
 70
     1
102
RTVSPropertyOp15
 70
     1
102
RTVSPropertyOp16
 70
     1
102
RTVSPropertyOp17
 70
     1
102
RTVSPropertyOp18
 70
     1
102
RTVSPropertyOp19
 70
     1
102
RTVSPropertyOp20
 70
     1
102
RTVSPropertyOp21
 70
     1
102
RTVSPropertyOp22
 70
     1
102
RTVSPropertyOp23
 70
     1
102
RTVSPropertyOp24
 70
     1
102
RTVSPropertyOp25
 70
     1
102
RTVSPropertyOp26
 70
     1
102
RTVSPropertyOp27
 70
     1
102
RTVSPropertyOp28
 70
     1
102
RTVSPropertyOp29
 70
     1
102
RTVSPropertyOp30
 70
     1
102
RTVSPropertyOp31
 70
     1
102
RTVSPropertyOp32
 70
     1
  0
XRECORD
  5
519
102
{ACAD_REACTORS
330
518
102
}
330
518
100
AcDbXrecord
280
     1
102
RTVSPropertyOp0
 70
     1
102
RTVSPropertyOp1
 70
     1
102
RTVSPropertyOp2
 70
     1
102
RTVSPropertyOp3
 70
     1
102
RTVSPropertyOp4
 70
     1
102
RTVSPropertyOp5
 70
     1
102
RTVSPropertyOp6
 70
     1
102
RTVSPropertyOp7
 70
     1
102
RTVSPropertyOp8
 70
     1
102
RTVSPropertyOp9
 70
     1
102
RTVSPropertyOp10
 70
     1
102
RTVSPropertyOp11
 70
     1
102
RTVSPropertyOp12
 70
     1
102
RTVSPropertyOp13
 70
     1
102
RTVSPropertyOp14
 70
     1
102
RTVSPropertyOp15
 70
     1
102
RTVSPropertyOp16
 70
     1
102
RTVSPropertyOp17
 70
     1
102
RTVSPropertyOp18
 70
     1
102
RTVSPropertyOp19
 70
     1
102
RTVSPropertyOp20
 70
     1
102
RTVSPropertyOp21
 70
     1
102
RTVSPropertyOp22
 70
     1
102
RTVSPropertyOp23
 70
     1
102
RTVSPropertyOp24
 70
     1
102
RTVSPropertyOp25
 70
     1
102
RTVSPropertyOp26
 70
     1
102
RTVSPropertyOp27
 70
     1
102
RTVSPropertyOp28
 70
     1
102
RTVSPropertyOp29
 70
     1
102
RTVSPropertyOp30
 70
     1
102
RTVSPropertyOp31
 70
     1
102
RTVSPropertyOp32
 70
     1
  0
XRECORD
  5
521
102
{ACAD_REACTORS
330
520
102
}
330
520
100
AcDbXrecord
280
     1
102
RTVSPropertyOp0
 70
     1
102
RTVSPropertyOp1
 70
     1
102
RTVSPropertyOp2
 70
     1
102
RTVSPropertyOp3
 70
     1
102
RTVSPropertyOp4
 70
     1
102
RTVSPropertyOp5
 70
     1
102
RTVSPropertyOp6
 70
     1
102
RTVSPropertyOp7
 70
     1
102
RTVSPropertyOp8
 70
     1
102
RTVSPropertyOp9
 70
     1
102
RTVSPropertyOp10
 70
     1
102
RTVSPropertyOp11
 70
     1
102
RTVSPropertyOp12
 70
     1
102
RTVSPropertyOp13
 70
     1
102
RTVSPropertyOp14
 70
     1
102
RTVSPropertyOp15
 70
     1
102
RTVSPropertyOp16
 70
     1
102
RTVSPropertyOp17
 70
     1
102
RTVSPropertyOp18
 70
     1
102
RTVSPropertyOp19
 70
     1
102
RTVSPropertyOp20
 70
     1
102
RTVSPropertyOp21
 70
     1
102
RTVSPropertyOp22
 70
     1
102
RTVSPropertyOp23
 70
     1
102
RTVSPropertyOp24
 70
     1
102
RTVSPropertyOp25
 70
     1
102
RTVSPropertyOp26
 70
     1
102
RTVSPropertyOp27
 70
     1
102
RTVSPropertyOp28
 70
     1
102
RTVSPropertyOp29
 70
     1
102
RTVSPropertyOp30
 70
     1
102
RTVSPropertyOp31
 70
     1
102
RTVSPropertyOp32
 70
     1
  0
ENDSEC
  0
EOF
