  0
SECTION
  2
HEADER
  9
$ACADVER
  1
AC1018
  9
$ACADMAINTVER
 70
     0
  9
$DWGCODEPAGE
  3
ANSI_1252
  9
$INSBASE
 10
0.0
 20
0.0
 30
0.0
  9
$EXTMIN
 10
-230.3066752112294
 20
34.05582751015243
 30
0.0
  9
$EXTMAX
 10
66.6933247887687
 20
244.0558275101525
 30
0.0
  9
$LIMMIN
 10
0.0
 20
0.0
  9
$LIMMAX
 10
12.0
 20
9.0
  9
$ORTHOMODE
 70
     0
  9
$REGENMODE
 70
     1
  9
$FILLMODE
 70
     1
  9
$QTEXTMODE
 70
     0
  9
$MIRRTEXT
 70
     1
  9
$LTSCALE
 40
1.0
  9
$ATTMODE
 70
     1
  9
$TEXTSIZE
 40
0.2
  9
$TRACEWID
 40
0.05
  9
$TEXTSTYLE
  7
Standard
  9
$CLAYER
  8
0
  9
$CELTYPE
  6
ByLayer
  9
$CECOLOR
 62
   256
  9
$CELTSCALE
 40
1.0
  9
$DISPSILH
 70
     0
  9
$DIMSCALE
 40
1.0
  9
$DIMASZ
 40
0.18
  9
$DIMEXO
 40
0.0625
  9
$DIMDLI
 40
0.38
  9
$DIMRND
 40
0.0
  9
$DIMDLE
 40
0.0
  9
$DIMEXE
 40
0.18
  9
$DIMTP
 40
0.0
  9
$DIMTM
 40
0.0
  9
$DIMTXT
 40
0.18
  9
$DIMCEN
 40
0.09
  9
$DIMTSZ
 40
0.0
  9
$DIMTOL
 70
     0
  9
$DIMLIM
 70
     0
  9
$DIMTIH
 70
     1
  9
$DIMTOH
 70
     1
  9
$DIMSE1
 70
     0
  9
$DIMSE2
 70
     0
  9
$DIMTAD
 70
     0
  9
$DIMZIN
 70
     0
  9
$DIMBLK
  1

  9
$DIMASO
 70
     1
  9
$DIMSHO
 70
     1
  9
$DIMPOST
  1

  9
$DIMAPOST
  1

  9
$DIMALT
 70
     0
  9
$DIMALTD
 70
     2
  9
$DIMALTF
 40
25.4
  9
$DIMLFAC
 40
1.0
  9
$DIMTOFL
 70
     0
  9
$DIMTVP
 40
0.0
  9
$DIMTIX
 70
     0
  9
$DIMSOXD
 70
     0
  9
$DIMSAH
 70
     0
  9
$DIMBLK1
  1

  9
$DIMBLK2
  1

  9
$DIMSTYLE
  2
Standard
  9
$DIMCLRD
 70
     0
  9
$DIMCLRE
 70
     0
  9
$DIMCLRT
 70
     0
  9
$DIMTFAC
 40
1.0
  9
$DIMGAP
 40
0.09
  9
$DIMJUST
 70
     0
  9
$DIMSD1
 70
     0
  9
$DIMSD2
 70
     0
  9
$DIMTOLJ
 70
     1
  9
$DIMTZIN
 70
     0
  9
$DIMALTZ
 70
     0
  9
$DIMALTTZ
 70
     0
  9
$DIMUPT
 70
     0
  9
$DIMDEC
 70
     4
  9
$DIMTDEC
 70
     4
  9
$DIMALTU
 70
     2
  9
$DIMALTTD
 70
     2
  9
$DIMTXSTY
  7
Standard
  9
$DIMAUNIT
 70
     0
  9
$DIMADEC
 70
     0
  9
$DIMALTRND
 40
0.0
  9
$DIMAZIN
 70
     0
  9
$DIMDSEP
 70
    46
  9
$DIMATFIT
 70
     3
  9
$DIMFRAC
 70
     0
  9
$DIMLDRBLK
  1

  9
$DIMLUNIT
 70
     2
  9
$DIMLWD
 70
    -2
  9
$DIMLWE
 70
    -2
  9
$DIMTMOVE
 70
     0
  9
$LUNITS
 70
     2
  9
$LUPREC
 70
     4
  9
$SKETCHINC
 40
0.1
  9
$FILLETRAD
 40
0.5
  9
$AUNITS
 70
     0
  9
$AUPREC
 70
     0
  9
$MENU
  1
.
  9
$ELEVATION
 40
0.0
  9
$PELEVATION
 40
0.0
  9
$THICKNESS
 40
0.0
  9
$LIMCHECK
 70
     0
  9
$CHAMFERA
 40
0.5
  9
$CHAMFERB
 40
0.5
  9
$CHAMFERC
 40
1.0
  9
$CHAMFERD
 40
0.0
  9
$SKPOLY
 70
     0
  9
$TDCREATE
 40
2458481.446114178
  9
$TDUCREATE
 40
2458481.404447512
  9
$TDUPDATE
 40
2458481.446114548
  9
$TDUUPDATE
 40
2458481.404447882
  9
$TDINDWG
 40
0.0000000116
  9
$TDUSRTIMER
 40
0.0000000116
  9
$USRTIMER
 70
     1
  9
$ANGBASE
 50
0.0
  9
$ANGDIR
 70
     0
  9
$PDMODE
 70
     0
  9
$PDSIZE
 40
0.0
  9
$PLINEWID
 40
0.0
  9
$SPLFRAME
 70
     0
  9
$SPLINETYPE
 70
     6
  9
$SPLINESEGS
 70
     8
  9
$HANDSEED
  5
381
  9
$SURFTAB1
 70
     6
  9
$SURFTAB2
 70
     6
  9
$SURFTYPE
 70
     6
  9
$SURFU
 70
     6
  9
$SURFV
 70
     6
  9
$UCSBASE
  2

  9
$UCSNAME
  2

  9
$UCSORG
 10
0.0
 20
0.0
 30
0.0
  9
$UCSXDIR
 10
1.0
 20
0.0
 30
0.0
  9
$UCSYDIR
 10
0.0
 20
1.0
 30
0.0
  9
$UCSORTHOREF
  2

  9
$UCSORTHOVIEW
 70
     0
  9
$UCSORGTOP
 10
0.0
 20
0.0
 30
0.0
  9
$UCSORGBOTTOM
 10
0.0
 20
0.0
 30
0.0
  9
$UCSORGLEFT
 10
0.0
 20
0.0
 30
0.0
  9
$UCSORGRIGHT
 10
0.0
 20
0.0
 30
0.0
  9
$UCSORGFRONT
 10
0.0
 20
0.0
 30
0.0
  9
$UCSORGBACK
 10
0.0
 20
0.0
 30
0.0
  9
$PUCSBASE
  2

  9
$PUCSNAME
  2

  9
$PUCSORG
 10
0.0
 20
0.0
 30
0.0
  9
$PUCSXDIR
 10
1.0
 20
0.0
 30
0.0
  9
$PUCSYDIR
 10
0.0
 20
1.0
 30
0.0
  9
$PUCSORTHOREF
  2

  9
$PUCSORTHOVIEW
 70
     0
  9
$PUCSORGTOP
 10
0.0
 20
0.0
 30
0.0
  9
$PUCSORGBOTTOM
 10
0.0
 20
0.0
 30
0.0
  9
$PUCSORGLEFT
 10
0.0
 20
0.0
 30
0.0
  9
$PUCSORGRIGHT
 10
0.0
 20
0.0
 30
0.0
  9
$PUCSORGFRONT
 10
0.0
 20
0.0
 30
0.0
  9
$PUCSORGBACK
 10
0.0
 20
0.0
 30
0.0
  9
$USERI1
 70
     0
  9
$USERI2
 70
     0
  9
$USERI3
 70
     0
  9
$USERI4
 70
     0
  9
$USERI5
 70
     0
  9
$USERR1
 40
18.1
  9
$USERR2
 40
0.0
  9
$USERR3
 40
0.0
  9
$USERR4
 40
0.0
  9
$USERR5
 40
0.0
  9
$WORLDVIEW
 70
     1
  9
$SHADEDGE
 70
     3
  9
$SHADEDIF
 70
    70
  9
$TILEMODE
 70
     1
  9
$MAXACTVP
 70
    64
  9
$PINSBASE
 10
0.0
 20
0.0
 30
0.0
  9
$PLIMCHECK
 70
     0
  9
$PEXTMIN
 10
1.00000000000000E+20
 20
1.00000000000000E+20
 30
1.00000000000000E+20
  9
$PEXTMAX
 10
-1.00000000000000E+20
 20
-1.00000000000000E+20
 30
-1.00000000000000E+20
  9
$PLIMMIN
 10
0.0
 20
0.0
  9
$PLIMMAX
 10
12.0
 20
9.0
  9
$UNITMODE
 70
     0
  9
$VISRETAIN
 70
     1
  9
$PLINEGEN
 70
     0
  9
$PSLTSCALE
 70
     1
  9
$TREEDEPTH
 70
  3020
  9
$CMLSTYLE
  2
Standard
  9
$CMLJUST
 70
     0
  9
$CMLSCALE
 40
1.0
  9
$PROXYGRAPHICS
 70
     1
  9
$MEASUREMENT
 70
     1
  9
$CELWEIGHT
370
    -1
  9
$ENDCAPS
280
     0
  9
$JOINSTYLE
280
     0
  9
$LWDISPLAY
290
     0
  9
$INSUNITS
 70
     4
  9
$HYPERLINKBASE
  1

  9
$STYLESHEET
  1

  9
$XEDIT
290
     1
  9
$CEPSNTYPE
380
     0
  9
$PSTYLEMODE
290
     1
  9
$FINGERPRINTGUID
  2
{E7F83CF3-B5D7-41B2-8D83-204DFF7FAA2C}
  9
$VERSIONGUID
  2
{FAEB1C32-E019-11D5-929B-00C0DF256EC4}
  9
$EXTNAMES
290
     1
  9
$PSVPSCALE
 40
0.0
  9
$OLESTARTUP
290
     0
  9
$SORTENTS
280
   127
  9
$INDEXCTL
280
     0
  9
$HIDETEXT
280
     1
  9
$XCLIPFRAME
290
     0
  9
$HALOGAP
280
     0
  9
$OBSCOLOR
 70
   257
  9
$OBSLTYPE
280
     0
  9
$INTERSECTIONDISPLAY
280
     0
  9
$INTERSECTIONCOLOR
 70
   257
  9
$DIMASSOC
280
     2
  9
$PROJECTNAME
  1

  0
ENDSEC
  0
SECTION
  2
CLASSES
  0
CLASS
  1
ACDBDICTIONARYWDFLT
  2
AcDbDictionaryWithDefault
  3
ObjectDBX Classes
 90
        0
 91
        4
280
     0
281
     0
  0
CLASS
  1
VISUALSTYLE
  2
AcDbVisualStyle
  3
ObjectDBX Classes
 90
     4095
 91
        4
280
     0
281
     0
  0
CLASS
  1
MATERIAL
  2
AcDbMaterial
  3
ObjectDBX Classes
 90
     1153
 91
        4
280
     0
281
     0
  0
ENDSEC
  0
SECTION
  2
TABLES
  0
TABLE
  2
VPORT
  5
8
330
0
100
AcDbSymbolTable
 70
     1
  0
VPORT
  5
29
330
8
100
AcDbSymbolTableRecord
100
AcDbViewportTableRecord
  2
*Active
 70
     0
 10
0.0
 20
0.0
 11
1.0
 21
1.0
 12
-81.80667521123034
 22
139.0558275101525
 13
0.0
 23
0.0
 14
0.5
 24
0.5
 15
0.5
 25
0.5
 16
0.0
 26
0.0
 36
1.0
 17
0.0
 27
0.0
 37
0.0
 40
231.0000000000001
 41
1.60267857142857
 42
50.0
 43
0.0
 44
0.0
 50
0.0
 51
0.0
 71
     0
 72
   100
 73
     1
 74
     3
 75
     0
 76
     0
 77
     0
 78
     0
281
     0
 65
     1
110
0.0
120
0.0
130
0.0
111
1.0
121
0.0
131
0.0
112
0.0
122
1.0
132
0.0
 79
     0
146
0.0
  0
ENDTAB
  0
TABLE
  2
LTYPE
  5
5
330
0
100
AcDbSymbolTable
 70
     8
  0
LTYPE
  5
14
330
5
100
AcDbSymbolTableRecord
100
AcDbLinetypeTableRecord
  2
ByBlock
 70
     0
  3

 72
    65
 73
     0
 40
0.0
  0
LTYPE
  5
15
330
5
100
AcDbSymbolTableRecord
100
AcDbLinetypeTableRecord
  2
ByLayer
 70
     0
  3

 72
    65
 73
     0
 40
0.0
  0
LTYPE
  5
16
330
5
100
AcDbSymbolTableRecord
100
AcDbLinetypeTableRecord
  2
Continuous
 70
     0
  3
Solid line
 72
    65
 73
     0
 40
0.0
  0
LTYPE
  5
3F
330
5
100
AcDbSymbolTableRecord
100
AcDbLinetypeTableRecord
  2
DASHED
 70
     0
  3
Dashed
 72
    65
 73
     2
 40
15.0
 49
7.0
 74
     0
 49
-8.0
 74
     0
  0
LTYPE
  5
40
330
5
100
AcDbSymbolTableRecord
100
AcDbLinetypeTableRecord
  2
DOTTED
 70
     0
  3
Dotted
 72
    65
 73
     2
 40
1.0
 49
0.0
 74
     0
 49
-1.0
 74
     0
  0
LTYPE
  5
41
330
5
100
AcDbSymbolTableRecord
100
AcDbLinetypeTableRecord
  2
DOT_CENTER
 70
     0
  3
Dot_Center
 72
    65
 73
     4
 40
14.0
 49
12.0
 74
     0
 49
-1.0
 74
     0
 49
0.0
 74
     0
 49
-1.0
 74
     0
  0
LTYPE
  5
42
330
5
100
AcDbSymbolTableRecord
100
AcDbLinetypeTableRecord
  2
LONG_DASHED
 70
     0
  3
Long_Dashed
 72
    65
 73
     2
 40
15.0
 49
10.0
 74
     0
 49
-5.0
 74
     0
  0
LTYPE
  5
43
330
5
100
AcDbSymbolTableRecord
100
AcDbLinetypeTableRecord
  2
DASH_CENTER
 70
     0
  3
Dash_Center
 72
    65
 73
     4
 40
14.0
 49
11.0
 74
     0
 49
-1.0
 74
     0
 49
1.0
 74
     0
 49
-1.0
 74
     0
  0
LTYPE
  5
44
330
5
100
AcDbSymbolTableRecord
100
AcDbLinetypeTableRecord
  2
PHANTOM
 70
     0
  3
Phantom
 72
    65
 73
     6
 40
13.0
 49
10.0
 74
     0
 49
-1.0
 74
     0
 49
0.0
 74
     0
 49
-1.0
 74
     0
 49
0.0
 74
     0
 49
-1.0
 74
     0
  0
LTYPE
  5
45
330
5
100
AcDbSymbolTableRecord
100
AcDbLinetypeTableRecord
  2
CENTER_DASH_DASH
 70
     0
  3
Center_Dash_Dash
 72
    65
 73
     6
 40
14.0
 49
9.0
 74
     0
 49
-1.0
 74
     0
 49
1.0
 74
     0
 49
-1.0
 74
     0
 49
1.0
 74
     0
 49
-1.0
 74
     0
  0
ENDTAB
  0
TABLE
  2
LAYER
  5
2
330
0
100
AcDbSymbolTable
 70
     2
  0
LAYER
  5
10
330
2
100
AcDbSymbolTableRecord
100
AcDbLayerTableRecord
  2
0
 70
     0
 62
     7
  6
Continuous
370
    -3
390
F
  0
LAYER
  5
46
330
2
100
AcDbSymbolTableRecord
100
AcDbLayerTableRecord
  2
1
 70
     0
 62
     7
  6
Continuous
370
    -3
390
F
  0
ENDTAB
  0
TABLE
  2
STYLE
  5
3
330
0
100
AcDbSymbolTable
 70
     5
  0
STYLE
  5
11
330
3
100
AcDbSymbolTableRecord
100
AcDbTextStyleTableRecord
  2
Standard
 70
     0
 40
0.0
 41
1.0
 50
0.0
 71
     0
 42
0.2
  3
txt
  4

  0
STYLE
  5
103
330
3
100
AcDbSymbolTableRecord
100
AcDbTextStyleTableRecord
  2
CONVERTER_11
 70
     0
 40
0.0
 41
0.9
 50
0.0
 71
     0
 42
0.2
  3
txt.shx
  4

  0
STYLE
  5
317
330
3
100
AcDbSymbolTableRecord
100
AcDbTextStyleTableRecord
  2
CONVERTER_12
 70
     0
 40
0.0
 41
0.81
 50
0.0
 71
     0
 42
0.2
  3
txt.shx
  4

  0
STYLE
  5
31D
330
3
100
AcDbSymbolTableRecord
100
AcDbTextStyleTableRecord
  2
CONVERTER_13
 70
     0
 40
0.0
 41
0.855
 50
0.0
 71
     0
 42
0.2
  3
txt.shx
  4

  0
STYLE
  5
320
330
3
100
AcDbSymbolTableRecord
100
AcDbTextStyleTableRecord
  2
CONVERTER_14
 70
     0
 40
0.0
 41
0.72
 50
0.0
 71
     0
 42
0.2
  3
txt.shx
  4

  0
ENDTAB
  0
TABLE
  2
VIEW
  5
6
330
0
100
AcDbSymbolTable
 70
     0
  0
ENDTAB
  0
TABLE
  2
UCS
  5
7
330
0
100
AcDbSymbolTable
 70
     0
  0
ENDTAB
  0
TABLE
  2
APPID
  5
9
330
0
100
AcDbSymbolTable
 70
     1
  0
APPID
  5
12
330
9
100
AcDbSymbolTableRecord
100
AcDbRegAppTableRecord
  2
ACAD
 70
     0
  0
ENDTAB
  0
TABLE
  2
DIMSTYLE
  5
A
330
0
100
AcDbSymbolTable
 70
     4
100
AcDbDimStyleTable
  0
DIMSTYLE
105
27
330
A
100
AcDbSymbolTableRecord
100
AcDbDimStyleTableRecord
  2
Standard
 70
     0
178
     0
340
11
  0
DIMSTYLE
105
107
102
{ACAD_REACTORS
330
108
102
}
330
A
100
AcDbSymbolTableRecord
100
AcDbDimStyleTableRecord
  2
ME10_DIM_10
 70
     0
 41
1.75
 42
0.0
 44
0.75
 73
     0
 74
     0
 77
     1
 78
     8
140
1.75
147
0.75
172
     1
173
     1
174
     1
175
     1
176
     2
177
     2
271
     2
178
     3
271
     2
340
103
  0
DIMSTYLE
105
112
102
{ACAD_REACTORS
330
113
102
}
330
A
100
AcDbSymbolTableRecord
100
AcDbDimStyleTableRecord
  2
ME10_DIM_11
 70
     0
 41
1.75
 42
0.0
 44
0.75
 73
     0
 74
     0
 77
     1
 78
     8
140
1.75
147
0.75
172
     1
173
     1
174
     1
175
     1
176
     2
177
     2
271
     2
178
     3
271
     2
340
103
  0
DIMSTYLE
105
21E
102
{ACAD_REACTORS
330
21F
102
}
330
A
100
AcDbSymbolTableRecord
100
AcDbDimStyleTableRecord
  2
ME10_DIM_12
 70
     0
 41
1.75
 42
0.0
 44
0.75
 73
     0
 74
     0
 77
     1
 78
     8
140
1.75
147
0.75
172
     1
173
     1
174
     1
175
     1
176
     2
177
     2
178
     3
340
103
  0
ENDTAB
  0
TABLE
  2
BLOCK_RECORD
  5
1
330
0
100
AcDbSymbolTable
 70
    20
  0
BLOCK_RECORD
  5
1F
330
1
100
AcDbSymbolTableRecord
100
AcDbBlockTableRecord
  2
*Model_Space
340
22
  0
BLOCK_RECORD
  5
1B
330
1
100
AcDbSymbolTableRecord
100
AcDbBlockTableRecord
  2
*Paper_Space
340
1E
  0
BLOCK_RECORD
  5
23
330
1
100
AcDbSymbolTableRecord
100
AcDbBlockTableRecord
  2
*Paper_Space0
340
26
  0
BLOCK_RECORD
  5
47
330
1
100
AcDbSymbolTableRecord
100
AcDbBlockTableRecord
  2
PPC_1_5_S_1_L-select__1
340
0
102
{BLKREFS
331
4B
102
}
  0
BLOCK_RECORD
  5
4A
330
1
100
AcDbSymbolTableRecord
100
AcDbBlockTableRecord
  2
Back1
340
0
102
{BLKREFS
331
7D
102
}
  0
BLOCK_RECORD
  5
4E
330
1
100
AcDbSymbolTableRecord
100
AcDbBlockTableRecord
  2
PPC_1_5_S_1_L-select__2
340
0
102
{BLKREFS
331
52
102
}
  0
BLOCK_RECORD
  5
51
330
1
100
AcDbSymbolTableRecord
100
AcDbBlockTableRecord
  2
Front1
340
0
102
{BLKREFS
331
7E
102
}
  0
BLOCK_RECORD
  5
55
330
1
100
AcDbSymbolTableRecord
100
AcDbBlockTableRecord
  2
PPC_1_5_S_1_L-select__3
340
0
102
{BLKREFS
331
59
102
}
  0
BLOCK_RECORD
  5
58
330
1
100
AcDbSymbolTableRecord
100
AcDbBlockTableRecord
  2
Gen1
340
0
102
{BLKREFS
331
7F
102
}
  0
BLOCK_RECORD
  5
5C
330
1
100
AcDbSymbolTableRecord
100
AcDbBlockTableRecord
  2
PPC_1_5_S_1_L-select__4
340
0
102
{BLKREFS
331
60
102
}
  0
BLOCK_RECORD
  5
5F
330
1
100
AcDbSymbolTableRecord
100
AcDbBlockTableRecord
  2
Left1
340
0
102
{BLKREFS
331
80
102
}
  0
BLOCK_RECORD
  5
63
330
1
100
AcDbSymbolTableRecord
100
AcDbBlockTableRecord
  2
PPC_1_5_S_1_L-select__5
340
0
102
{BLKREFS
331
67
102
}
  0
BLOCK_RECORD
  5
66
330
1
100
AcDbSymbolTableRecord
100
AcDbBlockTableRecord
  2
Right1
340
0
102
{BLKREFS
331
81
102
}
  0
BLOCK_RECORD
  5
6A
330
1
100
AcDbSymbolTableRecord
100
AcDbBlockTableRecord
  2
PPC_1_5_S_1_L-select__6
340
0
102
{BLKREFS
331
6E
102
}
  0
BLOCK_RECORD
  5
6D
330
1
100
AcDbSymbolTableRecord
100
AcDbBlockTableRecord
  2
Top1
340
0
102
{BLKREFS
331
82
102
}
  0
BLOCK_RECORD
  5
71
330
1
100
AcDbSymbolTableRecord
100
AcDbBlockTableRecord
  2
_rahmen
340
0
102
{BLKREFS
331
78
102
}
  0
BLOCK_RECORD
  5
74
330
1
100
AcDbSymbolTableRecord
100
AcDbBlockTableRecord
  2
_punkt
340
0
102
{BLKREFS
331
79
102
}
  0
BLOCK_RECORD
  5
77
330
1
100
AcDbSymbolTableRecord
100
AcDbBlockTableRecord
  2
A4I_CS
340
0
102
{BLKREFS
331
83
102
}
  0
BLOCK_RECORD
  5
7C
330
1
100
AcDbSymbolTableRecord
100
AcDbBlockTableRecord
  2
1
340
0
102
{BLKREFS
331
86
102
}
  0
BLOCK_RECORD
  5
FC
330
1
100
AcDbSymbolTableRecord
100
AcDbBlockTableRecord
  2
*D17
340
0
  0
BLOCK_RECORD
  5
109
330
1
100
AcDbSymbolTableRecord
100
AcDbBlockTableRecord
  2
*D18
340
0
  0
BLOCK_RECORD
  5
213
330
1
100
AcDbSymbolTableRecord
100
AcDbBlockTableRecord
  2
*D19
340
0
  0
ENDTAB
  0
ENDSEC
  0
SECTION
  2
BLOCKS
  0
BLOCK
  5
20
330
1F
100
AcDbEntity
  8
0
100
AcDbBlockBegin
  2
*Model_Space
 70
     0
 10
0.0
 20
0.0
 30
0.0
  3
*Model_Space
  1

  0
ENDBLK
  5
21
330
1F
100
AcDbEntity
  8
0
100
AcDbBlockEnd
  0
BLOCK
  5
1C
330
1B
100
AcDbEntity
 67
     1
  8
0
100
AcDbBlockBegin
  2
*Paper_Space
 70
     0
 10
0.0
 20
0.0
 30
0.0
  3
*Paper_Space
  1

  0
ENDBLK
  5
1D
330
1B
100
AcDbEntity
 67
     1
  8
0
100
AcDbBlockEnd
  0
BLOCK
  5
24
330
23
100
AcDbEntity
  8
0
100
AcDbBlockBegin
  2
*Paper_Space0
 70
     0
 10
0.0
 20
0.0
 30
0.0
  3
*Paper_Space0
  1

  0
ENDBLK
  5
25
330
23
100
AcDbEntity
  8
0
100
AcDbBlockEnd
  0
BLOCK
  5
48
330
47
100
AcDbEntity
  8
0
100
AcDbBlockBegin
  2
PPC_1_5_S_1_L-select__1
 70
     0
 10
-8.52833674797115
 20
83.21607434333109
 30
0.0
  3
PPC_1_5_S_1_L-select__1
  1

  0
LINE
  5
87
330
47
100
AcDbEntity
  8
0
  6
Continuous
 62
     7
100
AcDbLine
 10
8.88048574814125
 20
85.51607433615837
 30
0.0
 11
8.05952469766086
 21
85.5160743361627
 31
0.0
  0
LINE
  5
88
330
47
100
AcDbEntity
  8
0
  6
Continuous
 62
     7
100
AcDbLine
 10
17.85443638801705
 20
85.56374402047301
 30
0.0
 11
17.58415850656895
 21
85.53055806970775
 31
0.0
  0
LINE
  5
89
330
47
100
AcDbEntity
  8
0
  6
Continuous
 62
     2
100
AcDbLine
 10
13.77166322535635
 20
89.49107407289121
 30
0.0
 11
18.47166330435205
 21
89.49107407150478
 31
0.0
  0
LINE
  5
8A
330
47
100
AcDbEntity
  8
0
  6
Continuous
 62
     2
100
AcDbLine
 10
13.77166322503176
 20
90.09107407216806
 30
0.0
 11
18.47166330434757
 21
90.09107407082247
 31
0.0
  0
LINE
  5
8B
330
47
100
AcDbEntity
  8
0
  6
Continuous
 62
     7
100
AcDbLine
 10
18.47166330429549
 20
99.72659868024608
 30
0.0
 11
17.95246407731077
 21
99.79034833008654
 31
0.0
  0
LINE
  5
8C
330
47
100
AcDbEntity
  8
0
  6
Continuous
 62
     7
100
AcDbLine
 10
17.58415851417945
 20
99.30159034019836
 30
0.0
 11
17.8544363955853
 21
99.26840438908967
 31
0.0
  0
LINE
  5
8D
330
47
100
AcDbEntity
  8
0
  6
Continuous
 62
     7
100
AcDbLine
 10
18.47166330429549
 20
99.72659868024608
 30
0.0
 11
18.47166330434266
 21
91.19107407058851
 31
0.0
  0
LINE
  5
8E
330
47
100
AcDbEntity
  8
0
  6
Continuous
 62
     7
100
AcDbLine
 10
18.47166330435205
 20
89.49107407150478
 30
0.0
 11
18.47166330435813
 21
88.39107407058852
 31
0.0
  0
LINE
  5
8F
330
47
100
AcDbEntity
  8
0
  6
Continuous
 62
     7
100
AcDbLine
 10
18.47166330434266
 20
91.19107407058851
 30
0.0
 11
18.47166330434757
 21
90.09107407082247
 31
0.0
  0
LINE
  5
90
330
47
100
AcDbEntity
  8
0
  6
Continuous
 62
     7
100
AcDbLine
 10
18.47166330435205
 20
89.49107407150478
 30
0.0
 11
18.47166330434757
 21
90.09107407082247
 31
0.0
  0
LINE
  5
91
330
47
100
AcDbEntity
  8
0
  6
Continuous
 62
     7
100
AcDbLine
 10
18.47166330435813
 20
88.39107407058852
 30
0.0
 11
18.47166330437629
 21
85.10554972900485
 31
0.0
  0
LINE
  5
92
330
47
100
AcDbEntity
  8
0
  6
Continuous
 62
     7
100
AcDbLine
 10
17.72403619121812
 20
86.62576840484105
 30
0.0
 11
11.44618178189793
 21
85.85494480590893
 31
0.0
  0
LINE
  5
93
330
47
100
AcDbEntity
  8
0
  6
Continuous
 62
     7
100
AcDbLine
 10
17.72403619121812
 20
86.62576840484105
 30
0.0
 11
17.85443638801705
 21
85.56374402047301
 31
0.0
  0
LINE
  5
94
330
47
100
AcDbEntity
  8
0
  6
Continuous
 62
     7
100
AcDbLine
 10
18.47166330435813
 20
88.39107407058852
 30
0.0
 11
14.77940854332286
 21
88.39107407167766
 31
0.0
  0
LINE
  5
95
330
47
100
AcDbEntity
  8
0
  6
Continuous
 62
     7
100
AcDbLine
 10
14.77940854515796
 20
91.19107407167766
 30
0.0
 11
18.47166330434266
 21
91.19107407058851
 31
0.0
  0
LINE
  5
96
330
47
100
AcDbEntity
  8
0
  6
Continuous
 62
     7
100
AcDbLine
 10
17.8544363955853
 20
99.26840438908967
 30
0.0
 11
17.72403619773361
 21
98.20638000730439
 31
0.0
  0
LINE
  5
97
330
47
100
AcDbEntity
  8
0
  6
Continuous
 62
     7
100
AcDbLine
 10
11.4461817891181
 20
98.97720360676287
 30
0.0
 11
17.72403619773361
 21
98.20638000730439
 31
0.0
  0
LINE
  5
98
330
47
100
AcDbEntity
  8
0
  6
Continuous
 62
     7
100
AcDbLine
 10
17.95246407731077
 20
99.79034833008654
 30
0.0
 11
17.58415851417945
 21
99.30159034019836
 31
0.0
  0
LINE
  5
99
330
47
100
AcDbEntity
  8
0
  6
Continuous
 62
     7
100
AcDbLine
 10
14.77940854515796
 20
91.19107407167766
 30
0.0
 11
14.34340737159276
 21
91.06127902371709
 31
0.0
  0
LINE
  5
9A
330
47
100
AcDbEntity
  8
0
  6
Continuous
 62
     7
100
AcDbLine
 10
11.57658197930005
 20
84.79292042393988
 30
0.0
 11
11.44618178189793
 21
85.85494480590893
 31
0.0
  0
LINE
  5
9B
330
47
100
AcDbEntity
  8
0
  6
Continuous
 62
     7
100
AcDbLine
 10
14.34340737057528
 20
88.52086911977496
 30
0.0
 11
14.77940854332286
 21
88.39107407167766
 31
0.0
  0
LINE
  5
9C
330
47
100
AcDbEntity
  8
0
  6
Continuous
 62
     7
100
AcDbLine
 10
-8.52833674797115
 20
96.45176584303421
 30
0.0
 11
-8.52833674797115
 21
97.98146915581728
 31
0.0
  0
LINE
  5
9D
330
47
100
AcDbEntity
  8
0
  6
Continuous
 62
     7
100
AcDbLine
 10
-8.52833674797115
 20
96.45176584303421
 30
0.0
 11
-8.52833674797115
 21
89.5410740879159
 31
0.0
  0
LINE
  5
9E
330
47
100
AcDbEntity
  8
0
  6
Continuous
 62
     7
100
AcDbLine
 10
-4.28192656742245
 20
93.0410740890381
 30
0.0
 11
-5.02833672907514
 21
92.84107408935049
 31
0.0
  0
LINE
  5
9F
330
47
100
AcDbEntity
  8
0
  6
Continuous
 62
     7
100
AcDbLine
 10
-4.28192656773376
 20
92.44107408903903
 30
0.0
 11
-4.28192656742245
 21
93.0410740890381
 31
0.0
  0
LINE
  5
A0
330
47
100
AcDbEntity
  8
0
  6
Continuous
 62
     7
100
AcDbLine
 10
-4.28192656742245
 20
93.0410740890381
 30
0.0
 11
2.1716632512443
 21
93.04107408624867
 31
0.0
  0
LINE
  5
A1
330
47
100
AcDbEntity
  8
0
  6
Continuous
 62
     7
100
AcDbLine
 10
2.17166325124438
 20
92.44107408624868
 30
0.0
 11
-4.28192656773376
 21
92.44107408903903
 31
0.0
  0
LINE
  5
A2
330
47
100
AcDbEntity
  8
0
  6
Continuous
 62
     7
100
AcDbLine
 10
1.62657778967117
 20
89.54107408797202
 30
0.0
 11
-8.52833674797115
 21
89.5410740879159
 31
0.0
  0
LINE
  5
A3
330
47
100
AcDbEntity
  8
0
  6
Continuous
 62
     7
100
AcDbLine
 10
-6.62240918256503
 20
95.94107409102148
 30
0.0
 11
2.17166325124448
 21
95.94107408750003
 31
0.0
  0
LINE
  5
A4
330
47
100
AcDbEntity
  8
0
  6
Continuous
 62
     7
100
AcDbLine
 10
-6.62240918256503
 20
95.94107409102148
 30
0.0
 11
-8.52833674797115
 21
96.45176584303421
 31
0.0
  0
LINE
  5
A5
330
47
100
AcDbEntity
  8
0
  6
Continuous
 62
     7
100
AcDbLine
 10
-5.02833672916162
 20
92.64107408936525
 30
0.0
 11
-5.02833672907514
 21
92.84107408935049
 31
0.0
  0
LINE
  5
A6
330
47
100
AcDbEntity
  8
0
  6
Continuous
 62
     7
100
AcDbLine
 10
-5.02833672916162
 20
92.64107408936525
 30
0.0
 11
-4.28192656773376
 21
92.44107408903903
 31
0.0
  0
LINE
  5
A7
330
47
100
AcDbEntity
  8
0
  6
Continuous
 62
     7
100
AcDbLine
 10
-1.27476918159871
 20
98.61607408788825
 30
0.0
 11
0.27166325124463
 21
98.61607408788848
 31
0.0
  0
LINE
  5
A8
330
47
100
AcDbEntity
  8
0
  6
Continuous
 62
     7
100
AcDbLine
 10
2.67166344983583
 20
85.95408233618994
 30
0.0
 11
2.67166344983855
 21
86.4660743361901
 31
0.0
  0
LINE
  5
A9
330
47
100
AcDbEntity
  8
0
  6
Continuous
 62
     7
100
AcDbLine
 10
2.67166344983855
 20
86.4660743361901
 30
0.0
 11
3.37166344888029
 21
86.4660743361864
 31
0.0
  0
LINE
  5
AA
330
47
100
AcDbEntity
  8
0
  6
Continuous
 62
     7
100
AcDbLine
 10
2.17166325124522
 20
89.85577932637415
 30
0.0
 11
1.62657778967117
 21
89.54107408797202
 31
0.0
  0
LINE
  5
AB
330
47
100
AcDbEntity
  8
0
  6
Continuous
 62
     7
100
AcDbLine
 10
2.1716632512443
 20
93.04107408624867
 30
0.0
 11
2.17166325124438
 21
92.44107408624868
 31
0.0
  0
LINE
  5
AC
330
47
100
AcDbEntity
  8
0
  6
Continuous
 62
     7
100
AcDbLine
 10
2.17166325124438
 20
92.44107408624868
 30
0.0
 11
2.17166325124522
 21
89.85577932637415
 31
0.0
  0
LINE
  5
AD
330
47
100
AcDbEntity
  8
0
  6
Continuous
 62
     7
100
AcDbLine
 10
2.17166325124448
 20
95.94107408750003
 30
0.0
 11
2.1716632512443
 21
93.04107408624867
 31
0.0
  0
LINE
  5
AE
330
47
100
AcDbEntity
  8
0
  6
Continuous
 62
     7
100
AcDbLine
 10
2.68298811960556
 20
97.04107408820518
 30
0.0
 11
-0.30158986760927
 21
97.04107408820482
 31
0.0
  0
LINE
  5
AF
330
47
100
AcDbEntity
  8
0
  6
Continuous
 62
     7
100
AcDbLine
 10
3.37166344888029
 20
86.4660743361864
 30
0.0
 11
3.37166344985123
 21
88.86607433618641
 31
0.0
  0
LINE
  5
B0
330
47
100
AcDbEntity
  8
0
  6
Continuous
 62
     7
100
AcDbLine
 10
2.87166344985388
 20
89.36607433618904
 30
0.0
 11
2.7110337623831
 21
89.3660743361899
 31
0.0
  0
LINE
  5
B1
330
47
100
AcDbEntity
  8
0
  6
Continuous
 62
     7
100
AcDbLine
 10
10.34927590445255
 20
86.00567105491153
 30
0.0
 11
8.88048574814125
 21
85.51607433615837
 31
0.0
  0
LINE
  5
B2
330
47
100
AcDbEntity
  8
0
  6
Continuous
 62
     7
100
AcDbLine
 10
4.28513498438394
 20
99.8160738564176
 30
0.0
 11
9.81751886045969
 21
99.81607385402557
 31
0.0
  0
LINE
  5
B3
330
47
100
AcDbEntity
  8
0
  6
Continuous
 62
     7
100
AcDbLine
 10
2.68298811960556
 20
97.04107408820518
 30
0.0
 11
4.28513498438394
 21
99.8160738564176
 31
0.0
  0
LINE
  5
B4
330
47
100
AcDbEntity
  8
0
  6
Continuous
 62
     7
100
AcDbLine
 10
0.27166325124463
 20
98.61607408788848
 30
0.0
 11
-0.30158986760927
 21
97.04107408820482
 31
0.0
  0
LINE
  5
B5
330
47
100
AcDbEntity
  8
0
  6
Continuous
 62
     7
100
AcDbLine
 10
0.87166344983857
 20
86.4660743361996
 30
0.0
 11
2.08064761692582
 21
88.97039868227506
 31
0.0
  0
LINE
  5
B6
330
47
100
AcDbEntity
  8
0
  6
Continuous
 62
     7
100
AcDbLine
 10
-8.52833674797115
 20
97.98146915581728
 30
0.0
 11
-1.27476918159871
 21
98.61607408788825
 31
0.0
  0
LINE
  5
B7
330
47
100
AcDbEntity
  8
0
  6
Continuous
 62
     7
100
AcDbLine
 10
10.31942876953559
 20
84.9160743361643
 30
0.0
 11
10.50738978735355
 21
84.9160743361623
 31
0.0
  0
LINE
  5
B8
330
47
100
AcDbEntity
  8
0
  6
Continuous
 62
     7
100
AcDbLine
 10
9.71253246345701
 20
101.0160738546486
 30
0.0
 11
11.41812679623473
 21
101.01607385566
 31
0.0
  0
LINE
  5
B9
330
47
100
AcDbEntity
  8
0
  6
Continuous
 62
     7
100
AcDbLine
 10
11.8468598607228
 20
84.82610637493136
 30
0.0
 11
11.57658197930005
 21
84.79292042393988
 31
0.0
  0
LINE
  5
BA
330
47
100
AcDbEntity
  8
0
  6
Continuous
 62
     7
100
AcDbLine
 10
11.16344181037563
 20
83.21607434419151
 30
0.0
 11
11.8468598607228
 21
84.82610637493136
 31
0.0
  0
LINE
  5
BB
330
47
100
AcDbEntity
  8
0
  6
Continuous
 62
     7
100
AcDbLine
 10
11.57658198620034
 20
100.0392279861251
 30
0.0
 11
11.4461817891181
 21
98.97720360676287
 31
0.0
  0
LINE
  5
BC
330
47
100
AcDbEntity
  8
0
  6
Continuous
 62
     7
100
AcDbLine
 10
11.8468598676229
 20
100.0060420351336
 30
0.0
 11
11.57658198620034
 21
100.0392279861251
 31
0.0
  0
LINE
  5
BD
330
47
100
AcDbEntity
  8
0
  6
Continuous
 62
     7
100
AcDbLine
 10
11.41812679623473
 20
101.01607385566
 30
0.0
 11
11.8468598676229
 21
100.0060420351336
 31
0.0
  0
LINE
  5
BE
330
47
100
AcDbEntity
  8
0
  6
Continuous
 62
     7
100
AcDbLine
 10
13.77166322503176
 20
90.09107407216806
 30
0.0
 11
13.77166322516325
 21
90.29453313046479
 31
0.0
  0
LINE
  5
BF
330
47
100
AcDbEntity
  8
0
  6
Continuous
 62
     7
100
AcDbLine
 10
13.77166322535635
 20
89.49107407289121
 30
0.0
 11
13.77166322503176
 21
90.09107407216806
 31
0.0
  0
LINE
  5
C0
330
47
100
AcDbEntity
  8
0
  6
Continuous
 62
     7
100
AcDbLine
 10
13.77166322475981
 20
89.28761501348565
 30
0.0
 11
13.77166322535635
 21
89.49107407289121
 31
0.0
  0
LINE
  5
C1
330
47
100
AcDbEntity
  8
0
  6
Continuous
 62
     7
100
AcDbLine
 10
0.17166345020611
 20
84.41607433658169
 30
0.0
 11
3.18433276851968
 21
84.41607440090473
 31
0.0
  0
LINE
  5
C2
330
47
100
AcDbEntity
  8
0
  6
Continuous
 62
     7
100
AcDbLine
 10
3.18433276851968
 20
84.41607440090473
 30
0.0
 11
9.81751885072759
 21
84.41607433647866
 31
0.0
  0
LINE
  5
C3
330
47
100
AcDbEntity
  8
0
  6
Continuous
 62
     7
100
AcDbLine
 10
0.87166344983144
 20
85.11607433619962
 30
0.0
 11
0.17166345020611
 21
84.41607433658169
 31
0.0
  0
LINE
  5
C4
330
47
100
AcDbEntity
  8
0
  6
Continuous
 62
     7
100
AcDbLine
 10
0.87166344983857
 20
86.4660743361996
 30
0.0
 11
0.87166344983144
 21
85.11607433619962
 31
0.0
  0
LINE
  5
C5
330
47
100
AcDbEntity
  8
0
  6
Continuous
 62
     7
100
AcDbLine
 10
-2.42833675150199
 20
84.41607433660946
 30
0.0
 11
-2.72833674921495
 21
84.71607433456266
 31
0.0
  0
LINE
  5
C6
330
47
100
AcDbEntity
  8
0
  6
Continuous
 62
     7
100
AcDbLine
 10
0.17166345020611
 20
84.41607433658169
 30
0.0
 11
-2.42833675150199
 21
84.41607433660946
 31
0.0
  0
LINE
  5
C7
330
47
100
AcDbEntity
  8
0
  6
Continuous
 62
     7
100
AcDbLine
 10
-4.32833674921495
 20
84.71607433520336
 30
0.0
 11
-4.62833674842307
 21
84.41607433623548
 31
0.0
  0
LINE
  5
C8
330
47
100
AcDbEntity
  8
0
  6
Continuous
 62
     7
100
AcDbLine
 10
-2.72833674921495
 20
84.71607433456266
 30
0.0
 11
-4.32833674921495
 21
84.71607433520336
 31
0.0
  0
LINE
  5
C9
330
47
100
AcDbEntity
  8
0
  6
Continuous
 62
     7
100
AcDbLine
 10
-8.52833674797115
 20
84.41607433639422
 30
0.0
 11
-8.52833674797115
 21
89.5410740879159
 31
0.0
  0
LINE
  5
CA
330
47
100
AcDbEntity
  8
0
  6
Continuous
 62
     7
100
AcDbLine
 10
-8.52833674797115
 20
84.41607433639422
 30
0.0
 11
-4.62833674842307
 21
84.41607433623548
 31
0.0
  0
LINE
  5
CB
330
47
100
AcDbEntity
  8
0
  6
Continuous
 62
     7
100
AcDbLine
 10
9.71253245581306
 20
83.21607434333109
 30
0.0
 11
11.16344181037563
 21
83.21607434419151
 31
0.0
  0
LINE
  5
CC
330
47
100
AcDbEntity
  8
0
  6
Continuous
 62
     7
100
AcDbLine
 10
2.67166344983583
 20
85.95408233618994
 30
0.0
 11
3.18433276851968
 21
84.41607440090473
 31
0.0
  0
LINE
  5
CD
330
47
100
AcDbEntity
  8
0
  6
Continuous
 62
     7
100
AcDbLine
 10
9.82133142037465
 20
84.45965220725009
 30
0.0
 11
9.81751885072759
 21
84.41607433647866
 31
0.0
  0
LINE
  5
CE
330
47
100
AcDbEntity
  8
0
  6
Continuous
 62
     7
100
AcDbLine
 10
9.81751885072759
 20
84.41607433647866
 30
0.0
 11
9.71253245581306
 21
83.21607434333109
 31
0.0
  0
LINE
  5
CF
330
47
100
AcDbEntity
  8
0
  6
Continuous
 62
     7
100
AcDbLine
 10
9.81751886045969
 20
99.81607385402557
 30
0.0
 11
9.71253246345701
 21
101.0160738546486
 31
0.0
  0
LINE
  5
D0
330
47
100
AcDbEntity
  8
0
  6
Continuous
 62
     7
100
AcDbLine
 10
11.00738968733721
 20
85.41607433615694
 30
0.0
 11
11.00738978736013
 21
85.53132940584732
 31
0.0
  0
LINE
  5
D1
330
47
100
AcDbEntity
  8
0
  6
Continuous
 62
     7
100
AcDbLine
 10
17.58415850656895
 20
85.53055806970775
 30
0.0
 11
17.95246406909594
 21
85.04180007932935
 31
0.0
  0
LINE
  5
D2
330
47
100
AcDbEntity
  8
0
  6
Continuous
 62
     7
100
AcDbLine
 10
18.47166330437629
 20
85.10554972900485
 30
0.0
 11
17.95246406909594
 21
85.04180007932935
 31
0.0
  0
LINE
  5
D3
330
47
100
AcDbEntity
  8
0
  6
Continuous
 62
     7
100
AcDbLine
 10
3.18433276851968
 20
84.41607440090473
 30
0.0
 11
8.05952469766086
 21
85.5160743361627
 31
0.0
  0
ARC
  5
D4
330
47
100
AcDbEntity
  8
0
  6
Continuous
 62
     7
100
AcDbCircle
 10
14.57166322475982
 20
89.28761501316501
 30
0.0
 40
0.8000000000000114
100
AcDbArc
 50
179.9999999770359
 51
253.4220334276066
  0
ARC
  5
D5
330
47
100
AcDbEntity
  8
0
  6
Continuous
 62
     7
100
AcDbCircle
 10
14.57166322516326
 20
90.29453313014425
 30
0.0
 40
0.8000000000000126
100
AcDbArc
 50
106.5779665265088
 51
179.999999977043
  0
ARC
  5
D6
330
47
100
AcDbEntity
  8
0
  6
Continuous
 62
     7
100
AcDbCircle
 10
2.7110337623794
 20
88.6660743361899
 30
0.0
 40
0.7000000000000028
100
AcDbArc
 50
89.999999999697
 51
154.2306723753572
  0
ARC
  5
D7
330
47
100
AcDbEntity
  8
0
  6
Continuous
 62
     7
100
AcDbCircle
 10
2.87166344985123
 20
88.86607433618904
 30
0.0
 40
0.5
100
AcDbArc
 50
359.9999999996987
 51
89.99999999969619
  0
ARC
  5
D8
330
47
100
AcDbEntity
  8
0
  6
Continuous
 62
     7
100
AcDbCircle
 10
10.3194287694843
 20
84.4160743361222
 30
0.0
 40
0.5000000000421068
100
AcDbArc
 50
89.99999999412275
 51
175.0000000287118
  0
ARC
  5
D9
330
47
100
AcDbEntity
  8
0
  6
Continuous
 62
     7
100
AcDbCircle
 10
10.50738978736013
 20
85.53132940585266
 30
0.0
 40
0.5
100
AcDbArc
 50
359.9999999993877
 51
108.4349488107416
  0
ARC
  5
DA
330
47
100
AcDbEntity
  8
0
  6
Continuous
 62
     7
100
AcDbCircle
 10
10.50738973734806
 20
85.41607428615143
 30
0.0
 40
0.4999999499891342
100
AcDbArc
 50
270.0000057302075
 51
0.00000573021002
  0
ENDBLK
  5
49
330
47
100
AcDbEntity
  8
0
100
AcDbBlockEnd
  0
BLOCK
  5
4C
330
4A
100
AcDbEntity
  8
0
100
AcDbBlockBegin
  2
Back1
 70
     0
 10
4.97166333589014
 20
92.11607361143975
 30
0.0
  3
Back1
  1

  0
INSERT
  5
4B
330
4A
100
AcDbEntity
  8
0
100
AcDbBlockReference
  2
PPC_1_5_S_1_L-select__1
 10
-8.52833674797115
 20
83.21607434333109
 30
0.0
  0
ENDBLK
  5
4D
330
4A
100
AcDbEntity
  8
0
100
AcDbBlockEnd
  0
BLOCK
  5
4F
330
4E
100
AcDbEntity
  8
0
100
AcDbBlockBegin
  2
PPC_1_5_S_1_L-select__2
 70
     0
 10
-69.02833675708332
 20
83.21607434333109
 30
0.0
  3
PPC_1_5_S_1_L-select__2
  1

  0
LINE
  5
DB
330
4E
100
AcDbEntity
  8
0
  6
Continuous
 62
     7
100
AcDbLine
 10
-68.14083195927599
 20
85.53055806970775
 30
0.0
 11
-68.50913752180296
 21
85.04180007932935
 31
0.0
  0
LINE
  5
DC
330
4E
100
AcDbEntity
  8
0
  6
Continuous
 62
     7
100
AcDbLine
 10
-60.37419230343463
 20
84.41607433647863
 30
0.0
 11
-48.1283367022885
 21
84.41607433552599
 31
0.0
  0
LINE
  5
DD
330
4E
100
AcDbEntity
  8
0
  6
Continuous
 62
     7
100
AcDbLine
 10
-48.1283367022885
 20
84.41607433552599
 30
0.0
 11
-47.82833670349208
 21
84.71607433456266
 31
0.0
  0
LINE
  5
DE
330
4E
100
AcDbEntity
  8
0
  6
Continuous
 62
     7
100
AcDbLine
 10
-47.82833670349208
 20
84.71607433456266
 30
0.0
 11
-46.22833670349208
 21
84.71607433520336
 31
0.0
  0
LINE
  5
DF
330
4E
100
AcDbEntity
  8
0
  6
Continuous
 62
     7
100
AcDbLine
 10
-46.22833670349208
 20
84.71607433520336
 30
0.0
 11
-45.92833670440102
 21
84.41607433635255
 31
0.0
  0
LINE
  5
E0
330
4E
100
AcDbEntity
  8
0
  6
Continuous
 62
     7
100
AcDbLine
 10
-45.92833670440102
 20
84.41607433635255
 30
0.0
 11
-42.02833670473589
 21
84.41607433639422
 31
0.0
  0
LINE
  5
E1
330
4E
100
AcDbEntity
  8
0
  6
Continuous
 62
     7
100
AcDbLine
 10
-69.02833675708332
 20
85.10554972900485
 30
0.0
 11
-68.50913752180296
 21
85.04180007932935
 31
0.0
  0
LINE
  5
E2
330
4E
100
AcDbEntity
  8
0
  6
Continuous
 62
     7
100
AcDbLine
 10
-62.40353331342983
 20
84.82610637493136
 30
0.0
 11
-62.13325543200708
 21
84.79292042393988
 31
0.0
  0
LINE
  5
E3
330
4E
100
AcDbEntity
  8
0
  6
Continuous
 62
     7
100
AcDbLine
 10
-60.26920590852009
 20
83.21607434333109
 30
0.0
 11
-61.72011526308268
 21
83.21607434419151
 31
0.0
  0
LINE
  5
E4
330
4E
100
AcDbEntity
  8
0
  6
Continuous
 62
     7
100
AcDbLine
 10
-60.26920590852009
 20
83.21607434333109
 30
0.0
 11
-60.37419230343463
 21
84.41607433647863
 31
0.0
  0
LINE
  5
E5
330
4E
100
AcDbEntity
  8
0
  6
Continuous
 62
     7
100
AcDbLine
 10
-62.13325543890737
 20
100.0392279861251
 30
0.0
 11
-62.00285524182513
 21
98.97720360676287
 31
0.0
  0
LINE
  5
E6
330
4E
100
AcDbEntity
  8
0
  6
Continuous
 62
     7
100
AcDbLine
 10
-62.13325543200708
 20
84.79292042393988
 30
0.0
 11
-62.00285523460497
 21
85.85494480590893
 31
0.0
  0
LINE
  5
E7
330
4E
100
AcDbEntity
  8
0
  6
Continuous
 62
     7
100
AcDbLine
 10
-61.72011526308268
 20
83.21607434419151
 30
0.0
 11
-62.40353331342983
 21
84.82610637493136
 31
0.0
  0
LINE
  5
E8
330
4E
100
AcDbEntity
  8
0
  6
Continuous
 62
     7
100
AcDbLine
 10
-68.41110984829233
 20
99.26840438908968
 30
0.0
 11
-68.28070965044066
 21
98.20638000730439
 31
0.0
  0
LINE
  5
E9
330
4E
100
AcDbEntity
  8
0
  6
Continuous
 62
     7
100
AcDbLine
 10
-42.02833670473587
 20
97.98146915581728
 30
0.0
 11
-49.28190427110868
 21
98.6160740878883
 31
0.0
  0
LINE
  5
EA
330
4E
100
AcDbEntity
  8
0
  6
Continuous
 62
     7
100
AcDbLine
 10
-69.0283367570025
 20
99.72659868077127
 30
0.0
 11
-69.02833675708332
 21
85.10554972900485
 31
0.0
  0
LINE
  5
EB
330
4E
100
AcDbEntity
  8
0
  6
Continuous
 62
     7
100
AcDbLine
 10
-62.40353332032991
 20
100.0060420351336
 30
0.0
 11
-62.13325543890737
 21
100.0392279861251
 31
0.0
  0
LINE
  5
EC
330
4E
100
AcDbEntity
  8
0
  6
Continuous
 62
     7
100
AcDbLine
 10
-61.97480024894176
 20
101.01607385566
 30
0.0
 11
-62.40353332032991
 21
100.0060420351336
 31
0.0
  0
LINE
  5
ED
330
4E
100
AcDbEntity
  8
0
  6
Continuous
 62
     7
100
AcDbLine
 10
-60.37419231316672
 20
99.81607385402557
 30
0.0
 11
-60.26920591616404
 21
101.0160738546486
 31
0.0
  0
LINE
  5
EE
330
4E
100
AcDbEntity
  8
0
  6
Continuous
 62
     7
100
AcDbLine
 10
-54.84180843709098
 20
99.8160738564176
 30
0.0
 11
-60.37419231316672
 21
99.81607385402557
 31
0.0
  0
LINE
  5
EF
330
4E
100
AcDbEntity
  8
0
  6
Continuous
 62
     7
100
AcDbLine
 10
-50.82833670395165
 20
98.61607408788848
 30
0.0
 11
-50.25508358509775
 21
97.04107408820482
 31
0.0
  0
LINE
  5
F0
330
4E
100
AcDbEntity
  8
0
  6
Continuous
 62
     7
100
AcDbLine
 10
-53.2396615723126
 20
97.04107408820518
 30
0.0
 11
-50.25508358509775
 21
97.04107408820482
 31
0.0
  0
LINE
  5
F1
330
4E
100
AcDbEntity
  8
0
  6
Continuous
 62
     7
100
AcDbLine
 10
-42.02833670473589
 20
84.41607433639422
 30
0.0
 11
-42.02833670473587
 21
97.98146915581728
 31
0.0
  0
LINE
  5
F2
330
4E
100
AcDbEntity
  8
0
  6
Continuous
 62
     7
100
AcDbLine
 10
-49.28190427110868
 20
98.6160740878883
 30
0.0
 11
-50.82833670395165
 21
98.61607408788848
 31
0.0
  0
LINE
  5
F3
330
4E
100
AcDbEntity
  8
0
  6
Continuous
 62
     7
100
AcDbLine
 10
-60.26920591616404
 20
101.0160738546486
 30
0.0
 11
-61.97480024894176
 21
101.01607385566
 31
0.0
  0
LINE
  5
F4
330
4E
100
AcDbEntity
  8
0
  6
Continuous
 62
     7
100
AcDbLine
 10
-53.2396615723126
 20
97.04107408820518
 30
0.0
 11
-54.84180843709098
 21
99.8160738564176
 31
0.0
  0
LINE
  5
F5
330
4E
100
AcDbEntity
  8
0
  6
Continuous
 62
     7
100
AcDbLine
 10
-68.41110984072408
 20
85.56374402047301
 30
0.0
 11
-68.14083195927599
 21
85.53055806970775
 31
0.0
  0
LINE
  5
F6
330
4E
100
AcDbEntity
  8
0
  6
Continuous
 62
     7
100
AcDbLine
 10
-68.28070964392515
 20
86.62576840484105
 30
0.0
 11
-68.41110984072408
 21
85.56374402047301
 31
0.0
  0
LINE
  5
F7
330
4E
100
AcDbEntity
  8
0
  6
Continuous
 62
     7
100
AcDbLine
 10
-68.28070964392515
 20
86.62576840484105
 30
0.0
 11
-62.00285523460497
 21
85.85494480590893
 31
0.0
  0
LINE
  5
F8
330
4E
100
AcDbEntity
  8
0
  6
Continuous
 62
     7
100
AcDbLine
 10
-69.0283367570025
 20
99.72659868077127
 30
0.0
 11
-68.5091375300178
 21
99.79034833008653
 31
0.0
  0
LINE
  5
F9
330
4E
100
AcDbEntity
  8
0
  6
Continuous
 62
     7
100
AcDbLine
 10
-68.14083196688648
 20
99.30159034019837
 30
0.0
 11
-68.41110984829233
 21
99.26840438908968
 31
0.0
  0
LINE
  5
FA
330
4E
100
AcDbEntity
  8
0
  6
Continuous
 62
     7
100
AcDbLine
 10
-68.5091375300178
 20
99.79034833008653
 30
0.0
 11
-68.14083196688648
 21
99.30159034019837
 31
0.0
  0
LINE
  5
FB
330
4E
100
AcDbEntity
  8
0
  6
Continuous
 62
     7
100
AcDbLine
 10
-62.00285524182513
 20
98.97720360676287
 30
0.0
 11
-68.28070965044066
 21
98.20638000730439
 31
0.0
  0
ENDBLK
  5
50
330
4E
100
AcDbEntity
  8
0
100
AcDbBlockEnd
  0
BLOCK
  5
53
330
51
100
AcDbEntity
  8
0
100
AcDbBlockBegin
  2
Front1
 70
     0
 10
-55.52833678859717
 20
92.11607361143975
 30
0.0
  3
Front1
  1

  0
INSERT
  5
52
330
51
100
AcDbEntity
  8
0
100
AcDbBlockReference
  2
PPC_1_5_S_1_L-select__2
 10
-69.02833675708332
 20
83.21607434333109
 30
0.0
  0
DIMENSION
  5
108
330
51
100
AcDbEntity
  8
1
100
AcDbDimension
  2
*D17
 10
-74.66503562386951
 20
101.0160738546486
 30
0.0
 11
-76.37753562386952
 21
91.90200120699554
 31
0.0
 70
    32
  1
<>
 71
     5
 42
-1.0
 53
90.0
  3
ME10_DIM_10
100
AcDbAlignedDimension
 13
-60.26920590852009
 23
83.21607434333109
 33
0.0
 14
-60.26920591616404
 24
101.0160738546486
 34
0.0
 50
90.0
100
AcDbRotatedDimension
  0
DIMENSION
  5
113
330
51
100
AcDbEntity
  8
1
100
AcDbDimension
  2
*D18
 10
-69.0283367570025
 20
73.57050167971553
 30
0.0
 11
-55.53007434849754
 21
75.19550167971553
 31
0.0
 70
    32
  1
<>
 71
     5
 42
-1.0
 53
0.00013888888889
  3
ME10_DIM_11
100
AcDbAlignedDimension
 13
-42.02833670473587
 23
97.98146915581728
 33
0.0
 14
-69.0283367570025
 24
99.72659868077127
 34
0.0
100
AcDbRotatedDimension
  0
ENDBLK
  5
54
330
51
100
AcDbEntity
  8
0
100
AcDbBlockEnd
  0
BLOCK
  5
56
330
55
100
AcDbEntity
  8
0
100
AcDbBlockBegin
  2
PPC_1_5_S_1_L-select__3
 70
     0
 10
-7.59468027128785
 20
45.31490616757991
 30
0.0
  3
PPC_1_5_S_1_L-select__3
  1

  0
LINE
  5
114
330
55
100
AcDbEntity
  8
0
  6
Continuous
 62
     7
100
AcDbLine
 10
-0.00905044135111
 20
48.83589298990319
 30
0.0
 11
0.89094955331274
 21
49.61531584868794
 31
0.0
  0
LINE
  5
115
330
55
100
AcDbEntity
  8
0
  6
Continuous
 62
     7
100
AcDbLine
 10
-0.00905044135111
 20
48.83589298990319
 30
0.0
 11
-0.09997132640457
 21
49.90137006723992
 31
0.0
  0
LINE
  5
116
330
55
100
AcDbEntity
  8
0
  6
Continuous
 62
     7
100
AcDbLine
 10
-0.00905044135111
 20
48.83589298990319
 30
0.0
 11
-1.26557480099078
 21
49.19862032928204
 31
0.0
  0
LINE
  5
117
330
55
100
AcDbEntity
  8
0
  6
Continuous
 62
     7
100
AcDbLine
 10
16.06300567593306
 20
49.99144313228634
 30
0.0
 11
16.31300567611535
 21
50.2079494834433
 31
0.0
  0
LINE
  5
118
330
55
100
AcDbEntity
  8
0
  6
Continuous
 62
     7
100
AcDbLine
 10
16.31300567621432
 20
48.90891137784409
 30
0.0
 11
16.31300567611535
 21
50.2079494834433
 31
0.0
  0
LINE
  5
119
330
55
100
AcDbEntity
  8
0
  6
Continuous
 62
     7
100
AcDbLine
 10
17.2380056759234
 20
51.0090229819737
 30
0.0
 11
17.23800567602218
 21
49.70998487637432
 31
0.0
  0
LINE
  5
11A
330
55
100
AcDbEntity
  8
0
  6
Continuous
 62
     7
100
AcDbLine
 10
16.31300567621432
 20
48.90891137784409
 30
0.0
 11
15.98800567621578
 21
48.62745312154654
 31
0.0
  0
LINE
  5
11B
330
55
100
AcDbEntity
  8
0
  6
Continuous
 62
     7
100
AcDbLine
 10
-1.26557480099078
 20
49.19862032928204
 30
0.0
 11
-1.85743219400396
 21
50.76380348139514
 31
0.0
  0
LINE
  5
11C
330
55
100
AcDbEntity
  8
0
  6
Continuous
 62
     7
100
AcDbLine
 10
10.50525071526393
 20
46.83990616618697
 30
0.0
 11
10.76505833535549
 21
47.02471378679078
 31
0.0
  0
LINE
  5
11D
330
55
100
AcDbEntity
  8
0
  6
Continuous
 62
     7
100
AcDbLine
 10
15.78800567622952
 20
45.31490616757991
 30
0.0
 11
17.53800567538363
 21
46.83045062347011
 31
0.0
  0
LINE
  5
11E
330
55
100
AcDbEntity
  8
0
  6
Continuous
 62
     7
100
AcDbLine
 10
12.15069898141059
 20
46.62471378735329
 30
0.0
 11
12.41050660176019
 21
46.28990616744146
 31
0.0
  0
LINE
  5
11F
330
55
100
AcDbEntity
  8
0
  6
Continuous
 62
     7
100
AcDbLine
 10
10.76505833535549
 20
47.02471378679078
 30
0.0
 11
12.15069898141059
 21
46.62471378735329
 31
0.0
  0
LINE
  5
120
330
55
100
AcDbEntity
  8
0
  6
Continuous
 62
     7
100
AcDbLine
 10
12.41050660176019
 20
46.28990616744146
 30
0.0
 11
15.78800567622952
 21
45.31490616757991
 31
0.0
  0
LINE
  5
121
330
55
100
AcDbEntity
  8
0
  6
Continuous
 62
     7
100
AcDbLine
 10
17.3380056762142
 20
49.79658741694026
 30
0.0
 11
17.23800567602218
 21
49.70998487637432
 31
0.0
  0
LINE
  5
122
330
55
100
AcDbEntity
  8
0
  6
Continuous
 62
     7
100
AcDbLine
 10
17.33800567631644
 20
48.45424804115434
 30
0.0
 11
17.3380056762142
 21
49.79658741694026
 31
0.0
  0
LINE
  5
123
330
55
100
AcDbEntity
  8
0
  6
Continuous
 62
     7
100
AcDbLine
 10
17.33800567631644
 20
48.45424804115434
 30
0.0
 11
15.98800567631803
 21
47.28511374576063
 31
0.0
  0
LINE
  5
124
330
55
100
AcDbEntity
  8
0
  6
Continuous
 62
     7
100
AcDbLine
 10
11.25623189477025
 20
60.94140303357469
 30
0.0
 11
9.50623189561584
 21
59.42585857768461
 31
0.0
  0
LINE
  5
125
330
55
100
AcDbEntity
  8
0
  6
Continuous
 62
     7
100
AcDbLine
 10
15.78800567616459
 20
57.06288269358485
 30
0.0
 11
9.50623189561584
 21
59.42585857768461
 31
0.0
  0
LINE
  5
126
330
55
100
AcDbEntity
  8
0
  6
Continuous
 62
     7
100
AcDbLine
 10
17.5380056753187
 20
58.57842714947506
 30
0.0
 11
11.25623189477025
 21
60.94140303357469
 31
0.0
  0
LINE
  5
127
330
55
100
AcDbEntity
  8
0
  6
Continuous
 62
     7
100
AcDbLine
 10
-6.82607857040816
 20
52.80820120624555
 30
0.0
 11
-6.09526289006586
 21
53.441106150906
 31
0.0
  0
LINE
  5
128
330
55
100
AcDbEntity
  8
0
  6
Continuous
 62
     7
100
AcDbLine
 10
-6.3293304012704
 20
53.53741549786059
 30
0.0
 11
-7.06014608182341
 21
52.90451055301777
 31
0.0
  0
LINE
  5
129
330
55
100
AcDbEntity
  8
0
  6
Continuous
 62
     7
100
AcDbLine
 10
-7.1450405439093
 20
52.47700076090452
 30
0.0
 11
-6.05223203712978
 21
53.42340068924733
 31
0.0
  0
LINE
  5
12A
330
55
100
AcDbEntity
  8
0
  6
Continuous
 62
     7
100
AcDbLine
 10
-6.94721619874212
 20
53.79165060012139
 30
0.0
 11
-1.51043479900701
 21
51.55463417930855
 31
0.0
  0
LINE
  5
12B
330
55
100
AcDbEntity
  8
0
  6
Continuous
 62
     7
100
AcDbLine
 10
17.2380056759234
 20
51.0090229819737
 30
0.0
 11
16.06300567587016
 21
51.34821626513769
 31
0.0
  0
LINE
  5
12C
330
55
100
AcDbEntity
  8
0
  6
Continuous
 62
     7
100
AcDbLine
 10
-1.62336468261065
 20
50.66749413443333
 30
0.0
 11
-1.51043479900701
 21
51.55463417930855
 31
0.0
  0
LINE
  5
12D
330
55
100
AcDbEntity
  8
0
  6
Continuous
 62
     7
100
AcDbLine
 10
-1.85743219400396
 20
50.76380348139514
 30
0.0
 11
-1.62336468261065
 21
50.66749413443333
 31
0.0
  0
LINE
  5
12E
330
55
100
AcDbEntity
  8
0
  6
Continuous
 62
     7
100
AcDbLine
 10
-1.85743219400396
 20
50.76380348139514
 30
0.0
 11
-1.58058458148395
 21
51.00356054681454
 31
0.0
  0
LINE
  5
12F
330
55
100
AcDbEntity
  8
0
  6
Continuous
 62
     7
100
AcDbLine
 10
-6.82607857040816
 20
52.80820120624555
 30
0.0
 11
-7.1450405439093
 21
52.47700076090452
 31
0.0
  0
LINE
  5
130
330
55
100
AcDbEntity
  8
0
  6
Continuous
 62
     7
100
AcDbLine
 10
-7.59468027128785
 20
52.66200938582356
 30
0.0
 11
-7.1450405439093
 21
52.47700076090452
 31
0.0
  0
LINE
  5
131
330
55
100
AcDbEntity
  8
0
  6
Continuous
 62
     7
100
AcDbLine
 10
17.2380056759234
 20
51.0090229819737
 30
0.0
 11
17.5380056753591
 21
51.26883060268391
 31
0.0
  0
LINE
  5
132
330
55
100
AcDbEntity
  8
0
  6
Continuous
 62
     7
100
AcDbLine
 10
16.31300567613295
 20
49.97700937584233
 30
0.0
 11
17.23800567602218
 21
49.70998487637432
 31
0.0
  0
LINE
  5
133
330
55
100
AcDbEntity
  8
0
  6
Continuous
 62
     7
100
AcDbLine
 10
16.31300567611535
 20
50.2079494834433
 30
0.0
 11
16.06300567591967
 21
50.28011826714837
 31
0.0
  0
LINE
  5
134
330
55
100
AcDbEntity
  8
0
  6
Continuous
 62
     7
100
AcDbLine
 10
16.17550567652214
 20
48.78983288506116
 30
0.0
 11
17.33800567631644
 21
48.45424804115434
 31
0.0
  0
LINE
  5
135
330
55
100
AcDbEntity
  8
0
  6
Continuous
 62
     7
100
AcDbLine
 10
17.53800567538363
 20
46.83045062347011
 30
0.0
 11
17.5380056753591
 21
51.26883060268391
 31
0.0
  0
LINE
  5
136
330
55
100
AcDbEntity
  8
0
  6
Continuous
 62
     7
100
AcDbLine
 10
17.53800567532602
 20
57.25366522034959
 30
0.0
 11
17.5380056753187
 21
58.57842714947506
 31
0.0
  0
LINE
  5
137
330
55
100
AcDbEntity
  8
0
  6
Continuous
 62
     7
100
AcDbLine
 10
16.0630056758541
 20
51.69462642606836
 30
0.0
 11
17.5380056753591
 21
51.26883060268391
 31
0.0
  0
LINE
  5
138
330
55
100
AcDbEntity
  8
0
  6
Continuous
 62
     7
100
AcDbLine
 10
15.78800567622952
 20
45.31490616757991
 30
0.0
 11
15.78800567616459
 21
57.06288269358485
 31
0.0
  0
LINE
  5
139
330
55
100
AcDbEntity
  8
0
  6
Continuous
 62
     7
100
AcDbLine
 10
15.98800567621578
 20
48.62745312154654
 30
0.0
 11
15.98800567631803
 21
47.28511374576063
 31
0.0
  0
LINE
  5
13A
330
55
100
AcDbEntity
  8
0
  6
Continuous
 62
     7
100
AcDbLine
 10
16.06300567565562
 20
55.97627774975744
 30
0.0
 11
16.06300567593306
 21
49.99144313228634
 31
0.0
  0
LINE
  5
13B
330
55
100
AcDbEntity
  8
0
  6
Continuous
 62
     7
100
AcDbLine
 10
9.50623189561584
 20
59.42585857768461
 30
0.0
 11
8.16698212353765
 21
59.81246668588811
 31
0.0
  0
LINE
  5
13C
330
55
100
AcDbEntity
  8
0
  6
Continuous
 62
     7
100
AcDbLine
 10
8.16698212353765
 20
59.81246668588811
 30
0.0
 11
9.91698212269176
 21
61.32801114177832
 31
0.0
  0
LINE
  5
13D
330
55
100
AcDbEntity
  8
0
  6
Continuous
 62
     7
100
AcDbLine
 10
1.65002866424759
 20
64.75370532604816
 30
0.0
 11
-0.09997133490653
 21
63.23816087015796
 31
0.0
  0
LINE
  5
13E
330
55
100
AcDbEntity
  8
0
  6
Continuous
 62
     7
100
AcDbLine
 10
7.82871352992154
 20
60.56685234816862
 30
0.0
 11
6.44121364441661
 21
63.37060935912727
 31
0.0
  0
LINE
  5
13F
330
55
100
AcDbEntity
  8
0
  6
Continuous
 62
     7
100
AcDbLine
 10
7.82871352992154
 20
60.56685234816862
 30
0.0
 11
6.07871353076744
 21
59.05130789227841
 31
0.0
  0
LINE
  5
140
330
55
100
AcDbEntity
  8
0
  6
Continuous
 62
     7
100
AcDbLine
 10
6.07871353076744
 20
59.05130789227841
 30
0.0
 11
4.69121364526249
 21
61.85506490323706
 31
0.0
  0
LINE
  5
141
330
55
100
AcDbEntity
  8
0
  6
Continuous
 62
     7
100
AcDbLine
 10
-6.94721619874212
 20
53.79165060012139
 30
0.0
 11
-7.06014608182341
 21
52.90451055301777
 31
0.0
  0
LINE
  5
142
330
55
100
AcDbEntity
  8
0
  6
Continuous
 62
     7
100
AcDbLine
 10
6.07871353076744
 20
59.05130789227841
 30
0.0
 11
8.66343388727132
 21
58.30516339548867
 31
0.0
  0
LINE
  5
143
330
55
100
AcDbEntity
  8
0
  6
Continuous
 62
     7
100
AcDbLine
 10
-7.06014608182341
 20
52.90451055301777
 30
0.0
 11
-6.82607857040816
 21
52.80820120624555
 31
0.0
  0
LINE
  5
144
330
55
100
AcDbEntity
  8
0
  6
Continuous
 62
     7
100
AcDbLine
 10
-7.59468027128784
 20
65.32420920802913
 30
0.0
 11
-7.59468027128785
 21
52.66200938582356
 31
0.0
  0
LINE
  5
145
330
55
100
AcDbEntity
  8
0
  6
Continuous
 62
     7
100
AcDbLine
 10
8.16698212353765
 20
59.81246668588811
 30
0.0
 11
8.66343388727132
 21
58.30516339548867
 31
0.0
  0
LINE
  5
146
330
55
100
AcDbEntity
  8
0
  6
Continuous
 62
     7
100
AcDbLine
 10
7.82871352992154
 20
60.56685234816862
 30
0.0
 11
8.73573212292354
 21
60.30501863375868
 31
0.0
  0
LINE
  5
147
330
55
100
AcDbEntity
  8
0
  6
Continuous
 62
     7
100
AcDbLine
 10
17.5380056753187
 20
58.57842714947506
 30
0.0
 11
15.78800567616459
 21
57.06288269358485
 31
0.0
  0
LINE
  5
148
330
55
100
AcDbEntity
  8
0
  6
Continuous
 62
     7
100
AcDbLine
 10
16.06300567565562
 20
55.97627774975744
 30
0.0
 11
17.53800567532602
 21
57.25366522034959
 31
0.0
  0
LINE
  5
149
330
55
100
AcDbEntity
  8
0
  6
Continuous
 62
     7
100
AcDbLine
 10
-7.59468027128784
 20
65.32420920802913
 30
0.0
 11
-5.84468027213374
 21
66.8397536634645
 31
0.0
  0
LINE
  5
14A
330
55
100
AcDbEntity
  8
0
  6
Continuous
 62
     7
100
AcDbLine
 10
-5.84468027213374
 20
66.8397536634645
 30
0.0
 11
-5.39504055194003
 21
66.76516267296509
 31
0.0
  0
LINE
  5
14B
330
55
100
AcDbEntity
  8
0
  6
Continuous
 62
     7
100
AcDbLine
 10
-5.39504055194003
 20
66.76516267296509
 30
0.0
 11
-5.07607857791083
 21
66.24980944663757
 31
0.0
  0
LINE
  5
14C
330
55
100
AcDbEntity
  8
0
  6
Continuous
 62
     7
100
AcDbLine
 10
-6.82607857706495
 20
64.73426499074736
 30
0.0
 11
-5.07607857791083
 21
66.24980944663757
 31
0.0
  0
LINE
  5
14D
330
55
100
AcDbEntity
  8
0
  6
Continuous
 62
     7
100
AcDbLine
 10
1.74094955109796
 20
65.7666892118805
 30
0.0
 11
0.26386153036169
 21
66.19308779594272
 31
0.0
  0
LINE
  5
14E
330
55
100
AcDbEntity
  8
0
  6
Continuous
 62
     7
100
AcDbLine
 10
-5.28417159898538
 20
66.06959560403676
 30
0.0
 11
-5.19721620528602
 21
65.33629889675053
 31
0.0
  0
LINE
  5
14F
330
55
100
AcDbEntity
  8
0
  6
Continuous
 62
     7
100
AcDbLine
 10
1.65002866424759
 20
64.75370532604816
 30
0.0
 11
1.74094955109796
 21
65.7666892118805
 31
0.0
  0
LINE
  5
150
330
55
100
AcDbEntity
  8
0
  6
Continuous
 62
     7
100
AcDbLine
 10
-1.44434946230042
 20
64.7137336812735
 30
0.0
 11
-5.19721620528602
 21
65.33629889675053
 31
0.0
  0
LINE
  5
151
330
55
100
AcDbEntity
  8
0
  6
Continuous
 62
     7
100
AcDbLine
 10
-1.48613846879242
 20
64.67754334005251
 30
0.0
 11
0.26386153036169
 21
66.19308779594272
 31
0.0
  0
LINE
  5
152
330
55
100
AcDbEntity
  8
0
  6
Continuous
 62
     7
100
AcDbLine
 10
-7.59468027128784
 20
65.32420920802913
 30
0.0
 11
-7.14504055109414
 21
65.24961821707488
 31
0.0
  0
LINE
  5
153
330
55
100
AcDbEntity
  8
0
  6
Continuous
 62
     7
100
AcDbLine
 10
-7.14504055109414
 20
65.24961821707488
 30
0.0
 11
-6.82607857706495
 21
64.73426499074736
 31
0.0
  0
LINE
  5
154
330
55
100
AcDbEntity
  8
0
  6
Continuous
 62
     7
100
AcDbLine
 10
-6.82607857706495
 20
64.73426499074736
 30
0.0
 11
-7.06014608844329
 21
64.77309458438862
 31
0.0
  0
LINE
  5
155
330
55
100
AcDbEntity
  8
0
  6
Continuous
 62
     7
100
AcDbLine
 10
-1.62336468865945
 20
63.87118379894263
 30
0.0
 11
-1.51043480532266
 21
62.91884365770517
 31
0.0
  0
LINE
  5
156
330
55
100
AcDbEntity
  8
0
  6
Continuous
 62
     7
100
AcDbLine
 10
-1.85743220005226
 20
63.91001339268954
 30
0.0
 11
-1.62336468865945
 21
63.87118379894263
 31
0.0
  0
LINE
  5
157
330
55
100
AcDbEntity
  8
0
  6
Continuous
 62
     7
100
AcDbLine
 10
-0.09997133490653
 20
63.23816087015796
 30
0.0
 11
-0.00905044805615
 21
64.2511447559903
 31
0.0
  0
LINE
  5
158
330
55
100
AcDbEntity
  8
0
  6
Continuous
 62
     7
100
AcDbLine
 10
11.25623189477025
 20
60.94140303357469
 30
0.0
 11
9.91698212269176
 21
61.32801114177832
 31
0.0
  0
LINE
  5
159
330
55
100
AcDbEntity
  8
0
  6
Continuous
 62
     7
100
AcDbLine
 10
-0.00905044805615
 20
64.2511447559903
 30
0.0
 11
-1.48613846879242
 21
64.67754334005251
 31
0.0
  0
LINE
  5
15A
330
55
100
AcDbEntity
  8
0
  6
Continuous
 62
     7
100
AcDbLine
 10
-1.48613846879242
 20
64.67754334005251
 30
0.0
 11
-1.85743220005226
 21
63.91001339268954
 31
0.0
  0
LINE
  5
15B
330
55
100
AcDbEntity
  8
0
  6
Continuous
 62
     7
100
AcDbLine
 10
-7.06014608844329
 20
64.77309458438862
 30
0.0
 11
-6.94721620444015
 21
63.82075444086033
 31
0.0
  0
LINE
  5
15C
330
55
100
AcDbEntity
  8
0
  6
Continuous
 62
     7
100
AcDbLine
 10
4.69121364526249
 20
61.85506490323706
 30
0.0
 11
6.44121364441661
 21
63.37060935912727
 31
0.0
  0
LINE
  5
15D
330
55
100
AcDbEntity
  8
0
  6
Continuous
 62
     7
100
AcDbLine
 10
-1.51043480532266
 20
62.91884365770517
 30
0.0
 11
-6.94721620444015
 21
63.82075444086033
 31
0.0
  0
LINE
  5
15E
330
55
100
AcDbEntity
  8
0
  6
Continuous
 62
     7
100
AcDbLine
 10
4.69121364526249
 20
61.85506490323706
 30
0.0
 11
-0.09997133490653
 21
63.23816087015796
 31
0.0
  0
LINE
  5
15F
330
55
100
AcDbEntity
  8
0
  6
Continuous
 62
     7
100
AcDbLine
 10
-0.00905044805615
 20
64.2511447559903
 30
0.0
 11
1.74094955109796
 21
65.7666892118805
 31
0.0
  0
LINE
  5
160
330
55
100
AcDbEntity
  8
0
  6
Continuous
 62
     7
100
AcDbLine
 10
-5.19721620528602
 20
65.33629889675053
 30
0.0
 11
-6.94721620444015
 21
63.82075444086033
 31
0.0
  0
LINE
  5
161
330
55
100
AcDbEntity
  8
0
  6
Continuous
 62
     7
100
AcDbLine
 10
-7.14504055109414
 20
65.24961821707488
 30
0.0
 11
-5.39504055194003
 21
66.76516267296509
 31
0.0
  0
LINE
  5
162
330
55
100
AcDbEntity
  8
0
  6
Continuous
 62
     7
100
AcDbLine
 10
6.44121364441661
 20
63.37060935912727
 30
0.0
 11
1.65002866424759
 21
64.75370532604816
 31
0.0
  0
LINE
  5
163
330
55
100
AcDbEntity
  8
0
  6
Continuous
 62
     7
100
AcDbLine
 10
-0.09997132640457
 20
49.90137006723992
 30
0.0
 11
10.50525071526393
 21
46.83990616618697
 31
0.0
  0
ENDBLK
  5
57
330
55
100
AcDbEntity
  8
0
100
AcDbBlockEnd
  0
BLOCK
  5
5A
330
58
100
AcDbEntity
  8
0
100
AcDbBlockBegin
  2
Gen1
 70
     0
 10
4.97166267036334
 20
56.11607341360411
 30
0.0
  3
Gen1
  1

  0
INSERT
  5
59
330
58
100
AcDbEntity
  8
0
100
AcDbBlockReference
  2
PPC_1_5_S_1_L-select__3
 10
-7.59468027128785
 20
45.31490616757991
 30
0.0
  0
ENDBLK
  5
5B
330
58
100
AcDbEntity
  8
0
100
AcDbBlockEnd
  0
BLOCK
  5
5D
330
5C
100
AcDbEntity
  8
0
100
AcDbBlockBegin
  2
PPC_1_5_S_1_L-select__4
 70
     0
 10
-25.77833668892002
 20
83.21607434419143
 30
0.0
  3
PPC_1_5_S_1_L-select__4
  1

  0
LINE
  5
164
330
5C
100
AcDbEntity
  8
0
  6
Continuous
 62
     7
100
AcDbLine
 10
-25.77833668888844
 20
101.0160738556599
 30
0.0
 11
-25.77833668888844
 21
100.0060420351335
 31
0.0
  0
LINE
  5
165
330
5C
100
AcDbEntity
  8
0
  6
Continuous
 62
     7
100
AcDbLine
 10
-22.27833669058022
 20
100.0060420351335
 30
0.0
 11
-25.77833668888844
 21
100.0060420351335
 31
0.0
  0
LINE
  5
166
330
5C
100
AcDbEntity
  8
0
  6
Continuous
 62
     7
100
AcDbLine
 10
-22.27833669058022
 20
99.79034833008646
 30
0.0
 11
-25.77833668888844
 21
99.79034833008646
 31
0.0
  0
LINE
  5
167
330
5C
100
AcDbEntity
  8
0
  6
Continuous
 62
     7
100
AcDbLine
 10
-25.77833668888844
 20
99.79034833008646
 30
0.0
 11
-25.77833668888844
 21
99.726598680246
 31
0.0
  0
LINE
  5
168
330
5C
100
AcDbEntity
  8
0
  6
Continuous
 62
     7
100
AcDbLine
 10
-25.77833668888844
 20
100.0060420351335
 30
0.0
 11
-25.77833668888844
 21
99.79034833008646
 31
0.0
  0
LINE
  5
169
330
5C
100
AcDbEntity
  8
0
  6
Continuous
 62
     7
100
AcDbLine
 10
-25.77833668888844
 20
99.726598680246
 30
0.0
 11
-25.77833668888844
 21
91.19107407058843
 31
0.0
  0
LINE
  5
16A
330
5C
100
AcDbEntity
  8
0
  6
Continuous
 62
     7
100
AcDbLine
 10
-22.27833669058022
 20
99.7265986807712
 30
0.0
 11
-25.77833668888844
 21
99.726598680246
 31
0.0
  0
LINE
  5
16B
330
5C
100
AcDbEntity
  8
0
  6
Continuous
 62
     7
100
AcDbLine
 10
-22.27833669058022
 20
101.0160738556599
 30
0.0
 11
-25.77833668888844
 21
101.0160738556599
 31
0.0
  0
LINE
  5
16C
330
5C
100
AcDbEntity
  8
0
  6
Continuous
 62
     7
100
AcDbLine
 10
-24.42833668922598
 20
94.94107407314263
 30
0.0
 11
-25.37833668903293
 21
94.94107407311024
 31
0.0
  0
LINE
  5
16D
330
5C
100
AcDbEntity
  8
0
  6
Continuous
 62
     7
100
AcDbLine
 10
-24.32833668822324
 20
94.84107407221614
 30
0.0
 11
-24.42833668922598
 21
94.94107407314263
 31
0.0
  0
LINE
  5
16E
330
5C
100
AcDbEntity
  8
0
  6
Continuous
 62
     7
100
AcDbLine
 10
-22.57833668906163
 20
89.49107407150471
 30
0.0
 11
-22.57833668885448
 21
90.09107407082239
 31
0.0
  0
LINE
  5
16F
330
5C
100
AcDbEntity
  8
0
  6
Continuous
 62
     7
100
AcDbLine
 10
-22.27833669058022
 20
99.7265986807712
 30
0.0
 11
-22.27833669058022
 21
85.10554972900476
 31
0.0
  0
LINE
  5
170
330
5C
100
AcDbEntity
  8
0
  6
Continuous
 62
     7
100
AcDbLine
 10
-22.27833669058022
 20
101.0160738556599
 30
0.0
 11
-22.27833669058022
 21
100.0060420351335
 31
0.0
  0
LINE
  5
171
330
5C
100
AcDbEntity
  8
0
  6
Continuous
 62
     7
100
AcDbLine
 10
-22.27833669058022
 20
99.79034833008646
 30
0.0
 11
-22.27833669058022
 21
99.7265986807712
 31
0.0
  0
LINE
  5
172
330
5C
100
AcDbEntity
  8
0
  6
Continuous
 62
     7
100
AcDbLine
 10
-22.27833669058022
 20
100.0060420351335
 30
0.0
 11
-22.27833669058022
 21
99.79034833008646
 31
0.0
  0
LINE
  5
173
330
5C
100
AcDbEntity
  8
0
  6
Continuous
 62
     7
100
AcDbLine
 10
-25.07833669001607
 20
88.73360681905869
 30
0.0
 11
-25.07833669001424
 21
88.8910740718452
 31
0.0
  0
LINE
  5
174
330
5C
100
AcDbEntity
  8
0
  6
Continuous
 62
     7
100
AcDbLine
 10
-23.07833668902516
 20
88.89107407180188
 30
0.0
 11
-25.07833669001424
 21
88.8910740718452
 31
0.0
  0
LINE
  5
175
330
5C
100
AcDbEntity
  8
0
  6
Continuous
 62
     7
100
AcDbLine
 10
-25.07833669001607
 20
88.73360681905869
 30
0.0
 11
-23.0783366890183
 21
88.73360681901538
 31
0.0
  0
LINE
  5
176
330
5C
100
AcDbEntity
  8
0
  6
Continuous
 62
     7
100
AcDbLine
 10
-23.07833668901125
 20
88.59107407591138
 30
0.0
 11
-25.07833669001639
 21
88.59107407593393
 31
0.0
  0
LINE
  5
177
330
5C
100
AcDbEntity
  8
0
  6
Continuous
 62
     7
100
AcDbLine
 10
-23.22126526455203
 20
91.14107407531407
 30
0.0
 11
-24.93540811453462
 21
91.1410740753334
 31
0.0
  0
LINE
  5
178
330
5C
100
AcDbEntity
  8
0
  6
Continuous
 62
     7
100
AcDbLine
 10
-25.07833668928061
 20
90.61091863228317
 30
0.0
 11
-25.07833668998197
 21
90.79107407542328
 31
0.0
  0
LINE
  5
179
330
5C
100
AcDbEntity
  8
0
  6
Continuous
 62
     7
100
AcDbLine
 10
-23.07833668907232
 20
90.09107407237259
 30
0.0
 11
-23.07833668906789
 21
90.7910740751317
 31
0.0
  0
LINE
  5
17A
330
5C
100
AcDbEntity
  8
0
  6
Continuous
 62
     2
100
AcDbLine
 10
-23.07833668907232
 20
90.09107407237259
 30
0.0
 11
-22.57833668885448
 21
90.09107407082239
 31
0.0
  0
LINE
  5
17B
330
5C
100
AcDbEntity
  8
0
  6
Continuous
 62
     7
100
AcDbLine
 10
-25.37833668902266
 20
93.94107407345882
 30
0.0
 11
-25.3783366890173
 21
93.34107407345881
 31
0.0
  0
LINE
  5
17C
330
5C
100
AcDbEntity
  8
0
  6
Continuous
 62
     7
100
AcDbLine
 10
-25.3783366890173
 20
93.34107407345881
 30
0.0
 11
-24.76572304741346
 21
93.3410740733862
 31
0.0
  0
LINE
  5
17D
330
5C
100
AcDbEntity
  8
0
  6
Continuous
 62
     7
100
AcDbLine
 10
-25.37833668903203
 20
94.84107407217124
 30
0.0
 11
-25.37833668902266
 21
93.94107407345882
 31
0.0
  0
LINE
  5
17E
330
5C
100
AcDbEntity
  8
0
  6
Continuous
 62
     7
100
AcDbLine
 10
-24.76572304410852
 20
93.94107407338619
 30
0.0
 11
-25.37833668902266
 21
93.94107407345882
 31
0.0
  0
LINE
  5
17F
330
5C
100
AcDbEntity
  8
0
  6
Continuous
 62
     7
100
AcDbLine
 10
-23.39095033569288
 20
93.34107407322325
 30
0.0
 11
-22.77833668921146
 21
93.34107407315064
 31
0.0
  0
LINE
  5
180
330
5C
100
AcDbEntity
  8
0
  6
Continuous
 62
     7
100
AcDbLine
 10
-22.77833668923605
 20
93.94107407315062
 30
0.0
 11
-23.39095033885559
 21
93.94107407322323
 31
0.0
  0
LINE
  5
181
330
5C
100
AcDbEntity
  8
0
  6
Continuous
 62
     7
100
AcDbLine
 10
-23.82833669221665
 20
94.84107407223753
 30
0.0
 11
-24.32833668822324
 21
94.84107407221614
 31
0.0
  0
LINE
  5
182
330
5C
100
AcDbEntity
  8
0
  6
Continuous
 62
     7
100
AcDbLine
 10
-25.37833668894884
 20
92.34107407062196
 30
0.0
 11
-22.77833668918284
 21
92.34107407059264
 31
0.0
  0
LINE
  5
183
330
5C
100
AcDbEntity
  8
0
  6
Continuous
 62
     7
100
AcDbLine
 10
-23.0783366890183
 20
88.73360681901538
 30
0.0
 11
-23.07833668902516
 21
88.89107407180188
 31
0.0
  0
LINE
  5
184
330
5C
100
AcDbEntity
  8
0
  6
Continuous
 62
     7
100
AcDbLine
 10
-23.07833668901125
 20
88.59107407591138
 30
0.0
 11
-23.0783366890183
 21
88.73360681901538
 31
0.0
  0
LINE
  5
185
330
5C
100
AcDbEntity
  8
0
  6
Continuous
 62
     7
100
AcDbLine
 10
-23.07833668899839
 20
88.28691461413231
 30
0.0
 11
-23.07833668901125
 21
88.59107407591138
 31
0.0
  0
LINE
  5
186
330
5C
100
AcDbEntity
  8
0
  6
Continuous
 62
     7
100
AcDbLine
 10
-22.77833668921146
 20
93.34107407315064
 30
0.0
 11
-22.77833668923605
 21
93.94107407315062
 31
0.0
  0
LINE
  5
187
330
5C
100
AcDbEntity
  8
0
  6
Continuous
 62
     7
100
AcDbLine
 10
-22.77833668923605
 20
93.94107407315062
 30
0.0
 11
-22.77833668927427
 21
94.84107407228221
 31
0.0
  0
LINE
  5
188
330
5C
100
AcDbEntity
  8
0
  6
Continuous
 62
     7
100
AcDbLine
 10
-22.77833668918284
 20
92.34107407059264
 30
0.0
 11
-22.77833668921146
 21
93.34107407315064
 31
0.0
  0
LINE
  5
189
330
5C
100
AcDbEntity
  8
0
  6
Continuous
 62
     7
100
AcDbLine
 10
-23.07833668902516
 20
88.89107407180188
 30
0.0
 11
-23.07833668907232
 21
90.09107407237259
 31
0.0
  0
LINE
  5
18A
330
5C
100
AcDbEntity
  8
0
  6
Continuous
 62
     7
100
AcDbLine
 10
-25.12063970856012
 20
96.64297716890482
 30
0.0
 11
-23.03603366933744
 21
96.64297716885967
 31
0.0
  0
LINE
  5
18B
330
5C
100
AcDbEntity
  8
0
  6
Continuous
 62
     7
100
AcDbLine
 10
-22.77833668927427
 20
94.84107407228221
 30
0.0
 11
-22.77833668927586
 21
94.94107407319889
 31
0.0
  0
LINE
  5
18C
330
5C
100
AcDbEntity
  8
0
  6
Continuous
 62
     7
100
AcDbLine
 10
-22.77833668927586
 20
94.94107407319889
 30
0.0
 11
-23.72833669122331
 21
94.94107407316649
 31
0.0
  0
LINE
  5
18D
330
5C
100
AcDbEntity
  8
0
  6
Continuous
 62
     7
100
AcDbLine
 10
-23.72833669122331
 20
94.94107407316649
 30
0.0
 11
-23.82833669221665
 21
94.84107407223753
 31
0.0
  0
LINE
  5
18E
330
5C
100
AcDbEntity
  8
0
  6
Continuous
 62
     7
100
AcDbLine
 10
-25.07833669001763
 20
88.49985209779051
 30
0.0
 11
-25.07833669001639
 21
88.59107407593393
 31
0.0
  0
LINE
  5
18F
330
5C
100
AcDbEntity
  8
0
  6
Continuous
 62
     7
100
AcDbLine
 10
-25.07833669001639
 20
88.59107407593393
 30
0.0
 11
-25.07833669001607
 21
88.73360681905869
 31
0.0
  0
LINE
  5
190
330
5C
100
AcDbEntity
  8
0
  6
Continuous
 62
     7
100
AcDbLine
 10
-25.07833669001424
 20
88.8910740718452
 30
0.0
 11
-25.07833668928061
 21
90.61091863228317
 31
0.0
  0
LINE
  5
191
330
5C
100
AcDbEntity
  8
0
  6
Continuous
 62
     7
100
AcDbLine
 10
-25.35343932957697
 20
88.17420114297757
 30
0.0
 11
-25.07833669001763
 21
88.49985209779051
 31
0.0
  0
LINE
  5
192
330
5C
100
AcDbEntity
  8
0
  6
Continuous
 62
     7
100
AcDbLine
 10
-25.37833668903293
 20
94.94107407311024
 30
0.0
 11
-25.37833668903203
 21
94.84107407217124
 31
0.0
  0
LINE
  5
193
330
5C
100
AcDbEntity
  8
0
  6
Continuous
 62
     7
100
AcDbLine
 10
-25.3783366890173
 20
93.34107407345881
 30
0.0
 11
-25.37833668894884
 21
92.34107407062196
 31
0.0
  0
LINE
  5
194
330
5C
100
AcDbEntity
  8
0
  6
Continuous
 62
     7
100
AcDbLine
 10
-25.77833668888844
 20
83.21607434419143
 30
0.0
 11
-25.77833668888844
 21
84.82610637493129
 31
0.0
  0
LINE
  5
195
330
5C
100
AcDbEntity
  8
0
  6
Continuous
 62
     7
100
AcDbLine
 10
-25.77833668888844
 20
88.39107407058843
 30
0.0
 11
-25.57448482845179
 21
88.39107407060885
 31
0.0
  0
LINE
  5
196
330
5C
100
AcDbEntity
  8
0
  6
Continuous
 62
     2
100
AcDbLine
 10
-25.70848661969074
 20
89.28761501348832
 30
0.0
 11
-25.77833668888844
 21
89.28761501348556
 31
0.0
  0
LINE
  5
197
330
5C
100
AcDbEntity
  8
0
  6
Continuous
 62
     7
100
AcDbLine
 10
-25.7084866197823
 20
90.29453313038566
 30
0.0
 11
-25.70848668899947
 21
91.01013390511471
 31
0.0
  0
LINE
  5
198
330
5C
100
AcDbEntity
  8
0
  6
Continuous
 62
     2
100
AcDbLine
 10
-25.67429598314882
 20
91.06127902372127
 30
0.0
 11
-25.77833668892002
 21
91.061279023717
 31
0.0
  0
LINE
  5
199
330
5C
100
AcDbEntity
  8
0
  6
Continuous
 62
     7
100
AcDbLine
 10
-25.70848661969074
 20
89.28761501348832
 30
0.0
 11
-25.7084866197823
 21
90.29453313038566
 31
0.0
  0
LINE
  5
19A
330
5C
100
AcDbEntity
  8
0
  6
Continuous
 62
     2
100
AcDbLine
 10
-25.7084866197823
 20
90.29453313038566
 30
0.0
 11
-25.77833668888899
 21
90.29453313046471
 31
0.0
  0
LINE
  5
19B
330
5C
100
AcDbEntity
  8
0
  6
Continuous
 62
     2
100
AcDbLine
 10
-25.67429598295713
 20
88.52086911977915
 30
0.0
 11
-25.77833668888844
 21
88.52086911977489
 31
0.0
  0
LINE
  5
19C
330
5C
100
AcDbEntity
  8
0
  6
Continuous
 62
     7
100
AcDbLine
 10
-25.7084866195207
 20
88.57201413063257
 30
0.0
 11
-25.70848661969074
 21
89.28761501348832
 31
0.0
  0
LINE
  5
19D
330
5C
100
AcDbEntity
  8
0
  6
Continuous
 62
     7
100
AcDbLine
 10
-25.57448482854618
 20
91.19107407059678
 30
0.0
 11
-25.77833668888844
 21
91.19107407058843
 31
0.0
  0
LINE
  5
19E
330
5C
100
AcDbEntity
  8
0
  6
Continuous
 62
     7
100
AcDbLine
 10
-25.77833668888844
 20
88.52086911977489
 30
0.0
 11
-25.77833668888844
 21
88.39107407058843
 31
0.0
  0
LINE
  5
19F
330
5C
100
AcDbEntity
  8
0
  6
Continuous
 62
     7
100
AcDbLine
 10
-25.77833668888844
 20
91.19107407058843
 30
0.0
 11
-25.77833668892002
 21
91.061279023717
 31
0.0
  0
LINE
  5
1A0
330
5C
100
AcDbEntity
  8
0
  6
Continuous
 62
     7
100
AcDbLine
 10
-25.77833668888844
 20
88.39107407058843
 30
0.0
 11
-25.77833668888844
 21
85.10554972900476
 31
0.0
  0
LINE
  5
1A1
330
5C
100
AcDbEntity
  8
0
  6
Continuous
 62
     7
100
AcDbLine
 10
-25.77833668888899
 20
90.29453313046471
 30
0.0
 11
-25.77833668892002
 21
91.061279023717
 31
0.0
  0
LINE
  5
1A2
330
5C
100
AcDbEntity
  8
0
  6
Continuous
 62
     7
100
AcDbLine
 10
-25.77833668888844
 20
89.28761501348556
 30
0.0
 11
-25.77833668888899
 21
90.29453313046471
 31
0.0
  0
LINE
  5
1A3
330
5C
100
AcDbEntity
  8
0
  6
Continuous
 62
     7
100
AcDbLine
 10
-25.77833668888844
 20
88.52086911977489
 30
0.0
 11
-25.77833668888844
 21
89.28761501348556
 31
0.0
  0
LINE
  5
1A4
330
5C
100
AcDbEntity
  8
0
  6
Continuous
 62
     7
100
AcDbLine
 10
-25.77833668888844
 20
85.04180007932926
 30
0.0
 11
-25.77833668888844
 21
85.10554972900476
 31
0.0
  0
LINE
  5
1A5
330
5C
100
AcDbEntity
  8
0
  6
Continuous
 62
     7
100
AcDbLine
 10
-25.77833668888844
 20
84.82610637493129
 30
0.0
 11
-25.77833668888844
 21
85.04180007932926
 31
0.0
  0
LINE
  5
1A6
330
5C
100
AcDbEntity
  8
0
  6
Continuous
 62
     7
100
AcDbLine
 10
-22.27833669058022
 20
83.21607434419143
 30
0.0
 11
-25.77833668888844
 21
83.21607434419143
 31
0.0
  0
LINE
  5
1A7
330
5C
100
AcDbEntity
  8
0
  6
Continuous
 62
     7
100
AcDbLine
 10
-22.27833669058022
 20
83.21607434419143
 30
0.0
 11
-22.27833669058022
 21
84.82610637493129
 31
0.0
  0
LINE
  5
1A8
330
5C
100
AcDbEntity
  8
0
  6
Continuous
 62
     7
100
AcDbLine
 10
-22.27833669058022
 20
84.82610637493129
 30
0.0
 11
-22.27833669058022
 21
85.04180007932926
 31
0.0
  0
LINE
  5
1A9
330
5C
100
AcDbEntity
  8
0
  6
Continuous
 62
     7
100
AcDbLine
 10
-22.27833669058022
 20
85.04180007932926
 30
0.0
 11
-22.27833669058022
 21
85.10554972900476
 31
0.0
  0
LINE
  5
1AA
330
5C
100
AcDbEntity
  8
0
  6
Continuous
 62
     7
100
AcDbLine
 10
-22.27833669058022
 20
85.10554972900476
 30
0.0
 11
-25.77833668888844
 21
85.10554972900476
 31
0.0
  0
LINE
  5
1AB
330
5C
100
AcDbEntity
  8
0
  6
Continuous
 62
     7
100
AcDbLine
 10
-22.27833669058022
 20
85.04180007932926
 30
0.0
 11
-25.77833668888844
 21
85.04180007932926
 31
0.0
  0
LINE
  5
1AC
330
5C
100
AcDbEntity
  8
0
  6
Continuous
 62
     7
100
AcDbLine
 10
-22.27833669058022
 20
84.82610637493129
 30
0.0
 11
-25.77833668888844
 21
84.82610637493129
 31
0.0
  0
LINE
  5
1AD
330
5C
100
AcDbEntity
  8
1
  6
DOT_CENTER
 62
     2
100
AcDbLine
 10
-22.92333668895292
 20
96.51607399595309
 30
0.0
 11
-25.23333668902919
 21
96.51607399595309
 31
0.0
  0
LINE
  5
1AE
330
5C
100
AcDbEntity
  8
1
  6
DOT_CENTER
 62
     2
100
AcDbLine
 10
-24.07833668899106
 20
97.67107399599124
 30
0.0
 11
-24.07833668899106
 21
95.36107399591495
 31
0.0
  0
ARC
  5
1AF
330
5C
100
AcDbEntity
  8
0
  6
Continuous
 62
     7
100
AcDbCircle
 10
-23.57833668595479
 20
90.79107407473002
 30
0.0
 40
0.500000000391418
100
AcDbArc
 50
44.427004050557
 51
90.00000034406945
  0
ARC
  5
1B0
330
5C
100
AcDbEntity
  8
0
  6
Continuous
 62
     7
100
AcDbCircle
 10
-24.57833668912264
 20
90.79107407817114
 30
0.0
 40
0.5000000008593336
100
AcDbArc
 50
135.5729965510593
 51
180.0000003148808
  0
ARC
  5
1B1
330
5C
100
AcDbEntity
  8
0
  6
Continuous
 62
     7
100
AcDbCircle
 10
-23.5783366899438
 20
90.7910740781075
 30
0.0
 40
0.5000000008759109
100
AcDbArc
 50
359.9999996589989
 51
44.42700345418687
  0
ARC
  5
1B2
330
5C
100
AcDbEntity
  8
0
  6
Continuous
 62
     7
100
AcDbCircle
 10
-24.07833669151761
 20
93.64107406959991
 30
0.0
 40
0.7499999999999937
100
AcDbArc
 50
23.57817878021736
 51
156.4218212062
  0
ARC
  5
1B3
330
5C
100
AcDbEntity
  8
0
  6
Continuous
 62
     7
100
AcDbCircle
 10
-24.07833669151761
 20
93.64107406959991
 30
0.0
 40
0.7500000000000028
100
AcDbArc
 50
203.5781781626031
 51
336.421821823815
  0
ARC
  5
1B4
330
5C
100
AcDbEntity
  8
0
  6
Continuous
 62
     7
100
AcDbCircle
 10
-24.27833668815007
 20
90.09107407252736
 30
0.0
 40
1.699999999295589
100
AcDbArc
 50
359.9999999425365
 51
139.6797849952218
  0
ARC
  5
1B5
330
5C
100
AcDbEntity
  8
0
  6
Continuous
 62
     7
100
AcDbCircle
 10
-24.57833669298169
 20
90.79107407480487
 30
0.0
 40
0.5000000004598064
100
AcDbArc
 50
89.99999965201536
 51
135.5729959660315
  0
ARC
  5
1B6
330
5C
100
AcDbEntity
  8
0
  6
Continuous
 62
     7
100
AcDbCircle
 10
-24.27833668832949
 20
89.4910740716445
 30
0.0
 40
1.699999999267849
100
AcDbArc
 50
314.900872148736
 51
359.9999999952885
  0
ARC
  5
1B7
330
5C
100
AcDbEntity
  8
0
  6
Continuous
 62
     7
100
AcDbCircle
 10
-24.07833668900818
 20
96.51607399576717
 30
0.0
 40
1.049999999961666
100
AcDbArc
 50
173.0582522740068
 51
197.7527900966346
  0
ARC
  5
1B8
330
5C
100
AcDbEntity
  8
0
  6
Continuous
 62
     7
100
AcDbCircle
 10
-24.07833668895153
 20
96.51607399594565
 30
0.0
 40
1.049999999996334
100
AcDbArc
 50
6.94174771347027
 51
173.0582522840479
  0
ARC
  5
1B9
330
5C
100
AcDbEntity
  8
0
  6
Continuous
 62
     7
100
AcDbCircle
 10
-24.07833668899106
 20
96.51607399595309
 30
0.0
 40
1.050000000034657
100
AcDbArc
 50
197.7527901060119
 51
6.94174771280621
  0
ARC
  5
1BA
330
5C
100
AcDbEntity
  8
0
  6
Continuous
 62
     7
100
AcDbCircle
 10
-24.27833669361412
 20
89.4910740753599
 30
0.0
 40
1.699999999381027
100
AcDbArc
 50
220.3202152976937
 51
230.7716021418219
  0
ARC
  5
1BB
330
5C
100
AcDbEntity
  8
0
  6
Continuous
 62
     7
100
AcDbCircle
 10
-24.27833669432416
 20
90.09107406568162
 30
0.0
 40
1.699999999017815
100
AcDbArc
 50
139.679784684663
 51
145.2003327225065
  0
ARC
  5
1BC
330
5C
100
AcDbEntity
  8
0
  6
Continuous
 62
     7
100
AcDbCircle
 10
-24.27833668437899
 20
89.49107406489934
 30
0.0
 40
1.699999999653659
100
AcDbArc
 50
214.7996667323329
 51
220.3202148274899
  0
ARC
  5
1BD
330
5C
100
AcDbEntity
  8
0
  6
Continuous
 62
     7
100
AcDbCircle
 10
-24.27833668870917
 20
89.49107407060305
 30
0.0
 40
1.699999998798185
100
AcDbArc
 50
230.771601912375
 51
314.9008721825771
  0
SPLINE
  5
1BE
330
5C
100
AcDbEntity
  8
0
  6
Continuous
 62
     7
100
AcDbSpline
210
0.0
220
0.0
230
1.0
 70
    24
 71
     3
 72
    17
 73
    13
 74
    11
 42
0.000000001
 43
0.0000000001
 44
0.00000001
 40
0.0
 40
0.0
 40
0.0
 40
0.0
 40
0.0230468330225548
 40
0.070351248412603
 40
0.1369991249101616
 40
0.2180763412552835
 40
0.3370369621756524
 40
0.4634186294450195
 40
0.596881865076206
 40
0.7338323359005763
 40
0.8505617300023971
 40
1.00000000098759
 40
1.00000000098759
 40
1.00000000098759
 40
1.00000000098759
 10
-23.57833668895736
 20
91.29107407512144
 30
0.0
 10
-23.58601896663155
 20
91.2910740751257
 30
0.0
 10
-23.60946938276908
 20
91.29107407513847
 30
0.0
 10
-23.65513575773914
 20
91.29107407516182
 30
0.0
 10
-23.72014559381671
 20
91.29107407519153
 30
0.0
 10
-23.80904083173774
 20
91.29107407522622
 30
0.0
 10
-23.91784733324934
 20
91.2910740752591
 30
0.0
 10
-24.04411584118965
 20
91.29107407528458
 30
0.0
 10
-24.17638096576463
 20
91.29107407529806
 30
0.0
 10
-24.30542866595042
 20
91.29107407529881
 30
0.0
 10
-24.43980137792088
 20
91.2910740752884
 30
0.0
 10
-24.52852393294988
 20
91.2910740752745
 30
0.0
 10
-24.57833668994495
 20
91.29107407526467
 30
0.0
 11
-23.57833668895736
 21
91.29107407512144
 31
0.0
 11
-23.60138352197991
 21
91.2910740751339
 31
0.0
 11
-23.64868793736995
 21
91.29107407515525
 31
0.0
 11
-23.7153358138675
 21
91.29107407518214
 31
0.0
 11
-23.79641303021261
 21
91.29107407521116
 31
0.0
 11
-23.91537365113297
 21
91.2910740752418
 31
0.0
 11
-24.04175531840235
 21
91.29107407526479
 31
0.0
 11
-24.17521855403355
 21
91.29107407528736
 31
0.0
 11
-24.31216902485793
 21
91.29107407529733
 31
0.0
 11
-24.42889841895976
 21
91.29107407529035
 31
0.0
 11
-24.57833668994495
 21
91.29107407526467
 31
0.0
  0
SPLINE
  5
1BF
330
5C
100
AcDbEntity
  8
0
  6
Continuous
 62
     7
100
AcDbSpline
210
0.0
220
0.0
230
1.0
 70
     8
 71
     3
 72
    11
 73
     7
 74
     5
 42
0.000000001
 43
0.0000000001
 44
0.00000001
 40
0.0
 40
0.0
 40
0.0
 40
0.0
 40
0.17145136725319
 40
0.3729847666358521
 40
0.5594747159216094
 40
0.7459637098470796
 40
0.7459637098470796
 40
0.7459637098470796
 40
0.7459637098470796
 10
-25.07833668928061
 20
90.61091863228317
 30
0.0
 10
-25.1266132495183
 20
90.64150536673729
 30
0.0
 10
-25.23163675149949
 20
90.7080454235482
 30
0.0
 10
-25.38917467367897
 20
90.8078497796799
 30
0.0
 10
-25.55094813370593
 20
90.91033477070647
 30
0.0
 10
-25.65597392422558
 20
90.97686758801797
 30
0.0
 10
-25.70848668899947
 20
91.01013390511471
 30
0.0
 11
-25.07833668928061
 21
90.61091863228317
 31
0.0
 11
-25.22316684498903
 21
90.70267808591342
 31
0.0
 11
-25.39341085214938
 21
90.81053303059775
 31
0.0
 11
-25.5509486231195
 21
90.910334593223
 31
0.0
 11
-25.70848668899947
 21
91.01013390511471
 31
0.0
  0
SPLINE
  5
1C0
330
5C
100
AcDbEntity
  8
0
  6
Continuous
 62
     7
100
AcDbSpline
210
0.0
220
0.0
230
1.0
 70
     8
 71
     3
 72
    11
 73
     7
 74
     5
 42
0.000000001
 43
0.0000000001
 44
0.00000001
 40
0.0
 40
0.0
 40
0.0
 40
0.0
 40
0.0138617760041865
 40
0.0277169061465406
 40
0.044616962699223
 40
0.0615239650739223
 40
0.0615239650739223
 40
0.0615239650739223
 40
0.0615239650739223
 10
-25.67429598295713
 20
88.52086911977915
 30
0.0
 10
-25.6769241662461
 20
88.52466948846525
 30
0.0
 10
-25.68217926052516
 20
88.53226841222626
 30
0.0
 10
-25.69050999130399
 20
88.54458874698312
 30
0.0
 10
-25.69930708055247
 20
88.55781872070727
 30
0.0
 10
-25.70542635835417
 20
88.56728167649804
 30
0.0
 10
-25.7084866195207
 20
88.57201413063257
 30
0.0
 11
-25.67429598295713
 21
88.52086911977915
 31
0.0
 11
-25.68216054780479
 21
88.53228391084801
 31
0.0
 11
-25.68992807255782
 21
88.54375693106354
 31
0.0
 11
-25.69927568252202
 21
88.55783649436603
 31
0.0
 11
-25.7084866195207
 21
88.57201413063257
 31
0.0
  0
SPLINE
  5
1C1
330
5C
100
AcDbEntity
  8
0
  6
Continuous
 62
     7
100
AcDbSpline
210
0.0
220
0.0
230
1.0
 70
     8
 71
     3
 72
    11
 73
     7
 74
     5
 42
0.000000001
 43
0.0000000001
 44
0.00000001
 40
0.0
 40
0.0
 40
0.0
 40
0.0
 40
0.0138564264171166
 40
0.0277169601233781
 40
0.0446180226288474
 40
0.06152409318039
 40
0.06152409318039
 40
0.06152409318039
 40
0.06152409318039
 10
-25.67429598314882
 20
91.06127902372127
 30
0.0
 10
-25.67692315510252
 20
91.05748012375254
 30
0.0
 10
-25.68217826549894
 20
91.0498811893221
 30
0.0
 10
-25.69050921258405
 20
91.03756057416119
 30
0.0
 10
-25.69930730813641
 20
91.02432907679017
 30
0.0
 10
-25.70542659745103
 20
91.01486609903127
 30
0.0
 10
-25.70848668899947
 20
91.01013390511471
 30
0.0
 11
-25.67429598314882
 21
91.06127902372127
 31
0.0
 11
-25.6821575308368
 21
91.04986865026548
 31
0.0
 11
-25.6899281028437
 21
91.03839116762757
 31
0.0
 11
-25.6992762646058
 21
91.02431076320046
 31
0.0
 11
-25.70848668899947
 21
91.01013390511471
 31
0.0
  0
ENDBLK
  5
5E
330
5C
100
AcDbEntity
  8
0
100
AcDbBlockEnd
  0
BLOCK
  5
61
330
5F
100
AcDbEntity
  8
0
100
AcDbBlockBegin
  2
Left1
 70
     0
 10
-24.02833672635347
 20
92.11607361143967
 30
0.0
  3
Left1
  1

  0
INSERT
  5
60
330
5F
100
AcDbEntity
  8
0
100
AcDbBlockReference
  2
PPC_1_5_S_1_L-select__4
 10
-25.77833668892002
 20
83.21607434419143
 30
0.0
  0
ENDBLK
  5
62
330
5F
100
AcDbEntity
  8
0
100
AcDbBlockEnd
  0
BLOCK
  5
64
330
63
100
AcDbEntity
  8
0
100
AcDbBlockBegin
  2
PPC_1_5_S_1_L-select__5
 70
     0
 10
-90.77833688661399
 20
83.21607434333102
 30
0.0
  3
PPC_1_5_S_1_L-select__5
  1

  0
LINE
  5
1C2
330
63
100
AcDbEntity
  8
0
  6
Continuous
 62
     7
100
AcDbLine
 10
-90.77833688661399
 20
101.0160738546485
 30
0.0
 11
-87.27833688830577
 21
101.0160738546485
 31
0.0
  0
LINE
  5
1C3
330
63
100
AcDbEntity
  8
0
  6
Continuous
 62
     7
100
AcDbLine
 10
-87.27833688830577
 20
99.81607385641753
 30
0.0
 11
-87.27833688830577
 21
101.0160738546485
 31
0.0
  0
LINE
  5
1C4
330
63
100
AcDbEntity
  8
0
  6
Continuous
 62
     7
100
AcDbLine
 10
-90.77833688661399
 20
99.81607385641753
 30
0.0
 11
-90.77833688661399
 21
101.0160738546485
 31
0.0
  0
LINE
  5
1C5
330
63
100
AcDbEntity
  8
0
  6
Continuous
 62
     7
100
AcDbLine
 10
-90.77833688661399
 20
98.61607408788821
 30
0.0
 11
-90.77833688661399
 21
99.81607385641753
 31
0.0
  0
LINE
  5
1C6
330
63
100
AcDbEntity
  8
0
  6
Continuous
 62
     7
100
AcDbLine
 10
-87.27833688830577
 20
98.61607408788818
 30
0.0
 11
-87.27833688830577
 21
99.81607385641753
 31
0.0
  0
LINE
  5
1C7
330
63
100
AcDbEntity
  8
0
  6
Continuous
 62
     7
100
AcDbLine
 10
-87.27833688830577
 20
96.45176584303414
 30
0.0
 11
-87.27833688830577
 21
97.98146915581721
 31
0.0
  0
LINE
  5
1C8
330
63
100
AcDbEntity
  8
0
  6
Continuous
 62
     7
100
AcDbLine
 10
-87.27833688830577
 20
97.98146915581721
 30
0.0
 11
-87.27833688830577
 21
98.61607408788818
 31
0.0
  0
LINE
  5
1C9
330
63
100
AcDbEntity
  8
0
  6
Continuous
 62
     7
100
AcDbLine
 10
-90.77833688661399
 20
97.98146915581721
 30
0.0
 11
-90.77833688661399
 21
98.61607408788821
 31
0.0
  0
LINE
  5
1CA
330
63
100
AcDbEntity
  8
0
  6
Continuous
 62
     7
100
AcDbLine
 10
-87.27833688830577
 20
97.98146915581721
 30
0.0
 11
-90.77833688661399
 21
97.98146915581721
 31
0.0
  0
LINE
  5
1CB
330
63
100
AcDbEntity
  8
0
  6
Continuous
 62
     7
100
AcDbLine
 10
-90.22833688764656
 20
96.45176584269286
 30
0.0
 11
-87.27833688830577
 21
96.45176584303414
 31
0.0
  0
LINE
  5
1CC
330
63
100
AcDbEntity
  8
0
  6
Continuous
 62
     7
100
AcDbLine
 10
-87.27833688830577
 20
98.61607408788818
 30
0.0
 11
-90.77833688661399
 21
98.61607408788821
 31
0.0
  0
LINE
  5
1CD
330
63
100
AcDbEntity
  8
0
  6
Continuous
 62
     7
100
AcDbLine
 10
-90.77833688661399
 20
99.81607385641753
 30
0.0
 11
-87.27833688830577
 21
99.81607385641753
 31
0.0
  0
LINE
  5
1CE
330
63
100
AcDbEntity
  8
0
  6
Continuous
 62
     7
100
AcDbLine
 10
-90.22833688761179
 20
95.94107409081562
 30
0.0
 11
-87.27833688830577
 21
95.94107408749996
 31
0.0
  0
LINE
  5
1CF
330
63
100
AcDbEntity
  8
0
  6
Continuous
 62
     7
100
AcDbLine
 10
-87.67833688642025
 20
86.49107408786689
 30
0.0
 11
-90.37833688641709
 21
86.49107408753653
 31
0.0
  0
LINE
  5
1D0
330
63
100
AcDbEntity
  8
0
  6
Continuous
 62
     7
100
AcDbLine
 10
-89.72833688673765
 20
89.04107362820972
 30
0.0
 11
-87.87833688711905
 21
89.04107362843608
 31
0.0
  0
LINE
  5
1D1
330
63
100
AcDbEntity
  8
0
  6
Continuous
 62
     7
100
AcDbLine
 10
-87.87833688717717
 20
89.5410740878424
 30
0.0
 11
-87.27833688830577
 21
89.54107408791582
 31
0.0
  0
LINE
  5
1D2
330
63
100
AcDbEntity
  8
0
  6
Continuous
 62
     7
100
AcDbLine
 10
-90.22833688715784
 20
89.54107408755486
 30
0.0
 11
-89.72833688679326
 21
89.54107408761604
 31
0.0
  0
LINE
  5
1D3
330
63
100
AcDbEntity
  8
0
  6
Continuous
 62
     7
100
AcDbLine
 10
-87.27833688830577
 20
89.85577932637406
 30
0.0
 11
-90.22833688718765
 21
89.8557793256757
 31
0.0
  0
LINE
  5
1D4
330
63
100
AcDbEntity
  8
0
  6
Continuous
 62
     7
100
AcDbLine
 10
-87.67833688642025
 20
86.49107408786689
 30
0.0
 11
-87.67833688660991
 21
88.0410740878669
 31
0.0
  0
LINE
  5
1D5
330
63
100
AcDbEntity
  8
0
  6
Continuous
 62
     7
100
AcDbLine
 10
-88.05333688708991
 20
92.44107408903895
 30
0.0
 11
-88.05333688706548
 21
93.04107408903802
 31
0.0
  0
LINE
  5
1D6
330
63
100
AcDbEntity
  8
0
  6
Continuous
 62
     7
100
AcDbLine
 10
-88.05333688706548
 20
93.04107408903802
 30
0.0
 11
-88.2533368870804
 21
92.8410740893504
 31
0.0
  0
LINE
  5
1D7
330
63
100
AcDbEntity
  8
0
  6
Continuous
 62
     7
100
AcDbLine
 10
-88.25333688708392
 20
92.64107408936518
 30
0.0
 11
-88.2533368870804
 21
92.8410740893504
 31
0.0
  0
LINE
  5
1D8
330
63
100
AcDbEntity
  8
0
  6
Continuous
 62
     7
100
AcDbLine
 10
-90.37833688660675
 20
88.04107408753654
 30
0.0
 11
-90.37833688641709
 21
86.49107408753653
 31
0.0
  0
LINE
  5
1D9
330
63
100
AcDbEntity
  8
0
  6
Continuous
 62
     7
100
AcDbLine
 10
-90.22833688718765
 20
89.8557793256757
 30
0.0
 11
-90.22833688715784
 21
89.54107408755486
 31
0.0
  0
LINE
  5
1DA
330
63
100
AcDbEntity
  8
0
  6
Continuous
 62
     7
100
AcDbLine
 10
-90.77833688661399
 20
84.41607433639413
 30
0.0
 11
-90.77833688661399
 21
97.98146915581721
 31
0.0
  0
LINE
  5
1DB
330
63
100
AcDbEntity
  8
0
  6
Continuous
 62
     7
100
AcDbLine
 10
-90.22833688764656
 20
96.45176584269286
 30
0.0
 11
-90.22833688761179
 21
95.94107409081562
 31
0.0
  0
LINE
  5
1DC
330
63
100
AcDbEntity
  8
0
  6
Continuous
 62
     7
100
AcDbLine
 10
-90.22833688761179
 20
95.94107409081562
 30
0.0
 11
-90.22833688718765
 21
89.8557793256757
 31
0.0
  0
LINE
  5
1DD
330
63
100
AcDbEntity
  8
0
  6
Continuous
 62
     7
100
AcDbLine
 10
-87.27833688830577
 20
84.41607433639413
 30
0.0
 11
-87.27833688830577
 21
83.21607434333102
 31
0.0
  0
LINE
  5
1DE
330
63
100
AcDbEntity
  8
0
  6
Continuous
 62
     7
100
AcDbLine
 10
-87.27833688830577
 20
89.85577932637406
 30
0.0
 11
-87.27833688830577
 21
89.54107408791582
 31
0.0
  0
LINE
  5
1DF
330
63
100
AcDbEntity
  8
0
  6
Continuous
 62
     7
100
AcDbLine
 10
-87.27833688830577
 20
84.41607433639413
 30
0.0
 11
-87.27833688830577
 21
89.54107408791582
 31
0.0
  0
LINE
  5
1E0
330
63
100
AcDbEntity
  8
0
  6
Continuous
 62
     7
100
AcDbLine
 10
-87.27833688830577
 20
95.94107408749996
 30
0.0
 11
-87.27833688830577
 21
96.45176584303414
 31
0.0
  0
LINE
  5
1E1
330
63
100
AcDbEntity
  8
0
  6
Continuous
 62
     7
100
AcDbLine
 10
-87.27833688830577
 20
95.94107408749996
 30
0.0
 11
-87.27833688830577
 21
89.85577932637406
 31
0.0
  0
LINE
  5
1E2
330
63
100
AcDbEntity
  8
0
  6
Continuous
 62
     7
100
AcDbLine
 10
-89.72833688673765
 20
89.04107362820972
 30
0.0
 11
-89.72833688679326
 21
89.54107408761604
 31
0.0
  0
LINE
  5
1E3
330
63
100
AcDbEntity
  8
0
  6
Continuous
 62
     7
100
AcDbLine
 10
-89.72833688660968
 20
88.04107408761607
 30
0.0
 11
-90.37833688660675
 21
88.04107408753654
 31
0.0
  0
LINE
  5
1E4
330
63
100
AcDbEntity
  8
0
  6
Continuous
 62
     7
100
AcDbLine
 10
-89.72833688660968
 20
88.04107408761607
 30
0.0
 11
-89.72833688673765
 21
89.04107362820972
 31
0.0
  0
LINE
  5
1E5
330
63
100
AcDbEntity
  8
0
  6
Continuous
 62
     7
100
AcDbLine
 10
-90.77833688661399
 20
83.21607434333102
 30
0.0
 11
-90.77833688661399
 21
84.41607433639413
 31
0.0
  0
LINE
  5
1E6
330
63
100
AcDbEntity
  8
0
  6
Continuous
 62
     7
100
AcDbLine
 10
-90.77833688661399
 20
84.41607433639413
 30
0.0
 11
-87.27833688830577
 21
84.41607433639413
 31
0.0
  0
LINE
  5
1E7
330
63
100
AcDbEntity
  8
0
  6
Continuous
 62
     7
100
AcDbLine
 10
-90.77833688661399
 20
83.21607434333102
 30
0.0
 11
-87.27833688830577
 21
83.21607434333102
 31
0.0
  0
LINE
  5
1E8
330
63
100
AcDbEntity
  8
0
  6
Continuous
 62
     7
100
AcDbLine
 10
-89.25333688708375
 20
92.64107408938277
 30
0.0
 11
-88.25333688708392
 21
92.64107408936518
 31
0.0
  0
LINE
  5
1E9
330
63
100
AcDbEntity
  8
0
  6
Continuous
 62
     7
100
AcDbLine
 10
-87.67833688660991
 20
88.0410740878669
 30
0.0
 11
-87.87833688699396
 21
88.04107408784243
 31
0.0
  0
LINE
  5
1EA
330
63
100
AcDbEntity
  8
0
  6
Continuous
 62
     7
100
AcDbLine
 10
-88.25333688708392
 20
92.64107408936518
 30
0.0
 11
-88.05333688708991
 21
92.44107408903895
 31
0.0
  0
LINE
  5
1EB
330
63
100
AcDbEntity
  8
0
  6
Continuous
 62
     7
100
AcDbLine
 10
-89.25333688708024
 20
92.84107408936799
 30
0.0
 11
-89.25333688708375
 21
92.64107408938277
 31
0.0
  0
LINE
  5
1EC
330
63
100
AcDbEntity
  8
0
  6
Continuous
 62
     7
100
AcDbLine
 10
-89.45333688708976
 20
92.44107408906358
 30
0.0
 11
-89.45333688709306
 21
93.04107408906266
 31
0.0
  0
LINE
  5
1ED
330
63
100
AcDbEntity
  8
0
  6
Continuous
 62
     7
100
AcDbLine
 10
-87.87833688717717
 20
89.5410740878424
 30
0.0
 11
-87.87833688711905
 21
89.04107362843608
 31
0.0
  0
LINE
  5
1EE
330
63
100
AcDbEntity
  8
0
  6
Continuous
 62
     7
100
AcDbLine
 10
-87.87833688711905
 20
89.04107362843608
 30
0.0
 11
-87.87833688699396
 21
88.04107408784243
 31
0.0
  0
LINE
  5
1EF
330
63
100
AcDbEntity
  8
0
  6
Continuous
 62
     7
100
AcDbLine
 10
-89.45333688708976
 20
92.44107408906358
 30
0.0
 11
-88.05333688708991
 21
92.44107408903895
 31
0.0
  0
LINE
  5
1F0
330
63
100
AcDbEntity
  8
0
  6
Continuous
 62
     7
100
AcDbLine
 10
-89.45333688709306
 20
93.04107408906266
 30
0.0
 11
-89.25333688708024
 21
92.84107408936799
 31
0.0
  0
LINE
  5
1F1
330
63
100
AcDbEntity
  8
0
  6
Continuous
 62
     7
100
AcDbLine
 10
-88.2533368870804
 20
92.8410740893504
 30
0.0
 11
-89.25333688708024
 21
92.84107408936799
 31
0.0
  0
LINE
  5
1F2
330
63
100
AcDbEntity
  8
0
  6
Continuous
 62
     7
100
AcDbLine
 10
-88.05333688706548
 20
93.04107408903802
 30
0.0
 11
-89.45333688709306
 21
93.04107408906266
 31
0.0
  0
LINE
  5
1F3
330
63
100
AcDbEntity
  8
0
  6
Continuous
 62
     7
100
AcDbLine
 10
-89.25333688708375
 20
92.64107408938277
 30
0.0
 11
-89.45333688708976
 21
92.44107408906358
 31
0.0
  0
ENDBLK
  5
65
330
63
100
AcDbEntity
  8
0
100
AcDbBlockEnd
  0
BLOCK
  5
68
330
66
100
AcDbEntity
  8
0
100
AcDbBlockBegin
  2
Right1
 70
     0
 10
-89.02833685084073
 20
92.11607361143967
 30
0.0
  3
Right1
  1

  0
INSERT
  5
67
330
66
100
AcDbEntity
  8
0
100
AcDbBlockReference
  2
PPC_1_5_S_1_L-select__5
 10
-90.77833688661399
 20
83.21607434333102
 30
0.0
  0
ENDBLK
  5
69
330
66
100
AcDbEntity
  8
0
100
AcDbBlockEnd
  0
BLOCK
  5
6B
330
6A
100
AcDbEntity
  8
0
100
AcDbBlockBegin
  2
PPC_1_5_S_1_L-select__6
 70
     0
 10
-69.02833675700245
 20
54.36607287745699
 30
0.0
  3
PPC_1_5_S_1_L-select__6
  1

  0
LINE
  5
1F4
330
6A
100
AcDbEntity
  8
0
  6
Continuous
 62
     7
100
AcDbLine
 10
-42.02833670473581
 20
57.86607287576522
 30
0.0
 11
-42.02833670473581
 21
54.36607287745699
 31
0.0
  0
LINE
  5
1F5
330
6A
100
AcDbEntity
  8
0
  6
Continuous
 62
     7
100
AcDbLine
 10
-53.23966157231253
 20
54.36607287745699
 30
0.0
 11
-54.84180843709091
 21
54.36607287745699
 31
0.0
  0
LINE
  5
1F6
330
6A
100
AcDbEntity
  8
0
  6
Continuous
 62
     7
100
AcDbLine
 10
-60.26920591616398
 20
54.36607287745699
 30
0.0
 11
-61.97480024894169
 21
54.36607287745699
 31
0.0
  0
LINE
  5
1F7
330
6A
100
AcDbEntity
  8
0
  6
Continuous
 62
     7
100
AcDbLine
 10
-50.82833670395159
 20
54.36607287745699
 30
0.0
 11
-50.82833670395159
 21
57.86607287576522
 31
0.0
  0
LINE
  5
1F8
330
6A
100
AcDbEntity
  8
0
  6
Continuous
 62
     7
100
AcDbLine
 10
-53.23966157231253
 20
54.36607287745699
 30
0.0
 11
-50.82833670395159
 21
54.36607287745699
 31
0.0
  0
LINE
  5
1F9
330
6A
100
AcDbEntity
  8
0
  6
Continuous
 62
     7
100
AcDbLine
 10
-69.02833675700245
 20
54.36607287745699
 30
0.0
 11
-68.50913753001772
 21
54.36607287745699
 31
0.0
  0
LINE
  5
1FA
330
6A
100
AcDbEntity
  8
0
  6
Continuous
 62
     7
100
AcDbLine
 10
-49.28190427110861
 20
54.36607287745699
 30
0.0
 11
-50.82833670395159
 21
54.36607287745699
 31
0.0
  0
LINE
  5
1FB
330
6A
100
AcDbEntity
  8
0
  6
Continuous
 62
     7
100
AcDbLine
 10
-42.02833670473581
 20
54.36607287745699
 30
0.0
 11
-49.28190427110861
 21
54.36607287745699
 31
0.0
  0
LINE
  5
1FC
330
6A
100
AcDbEntity
  8
0
  6
Continuous
 62
     7
100
AcDbLine
 10
-54.84180843709091
 20
54.36607287745699
 30
0.0
 11
-60.26920591616398
 21
54.36607287745699
 31
0.0
  0
LINE
  5
1FD
330
6A
100
AcDbEntity
  8
0
  6
Continuous
 62
     7
100
AcDbLine
 10
-54.84180843709091
 20
54.36607287745699
 30
0.0
 11
-54.84180843709091
 21
57.86607287576522
 31
0.0
  0
LINE
  5
1FE
330
6A
100
AcDbEntity
  8
0
  6
Continuous
 62
     7
100
AcDbLine
 10
-69.02833675700245
 20
57.86607287576522
 30
0.0
 11
-68.50913753001772
 21
57.86607287576522
 31
0.0
  0
LINE
  5
1FF
330
6A
100
AcDbEntity
  8
0
  6
Continuous
 62
     7
100
AcDbLine
 10
-60.26920591616397
 20
57.86607287576522
 30
0.0
 11
-61.97480024894169
 21
57.86607287576522
 31
0.0
  0
LINE
  5
200
330
6A
100
AcDbEntity
  8
0
  6
Continuous
 62
     7
100
AcDbLine
 10
-53.23966157231254
 20
57.86607287576522
 30
0.0
 11
-54.84180843709091
 21
57.86607287576522
 31
0.0
  0
LINE
  5
201
330
6A
100
AcDbEntity
  8
0
  6
Continuous
 62
     7
100
AcDbLine
 10
-54.84180843709091
 20
57.86607287576522
 30
0.0
 11
-60.26920591616397
 21
57.86607287576522
 31
0.0
  0
LINE
  5
202
330
6A
100
AcDbEntity
  8
0
  6
Continuous
 62
     7
100
AcDbLine
 10
-53.23966157231254
 20
57.86607287576522
 30
0.0
 11
-53.23966157231253
 21
54.36607287745699
 31
0.0
  0
LINE
  5
203
330
6A
100
AcDbEntity
  8
0
  6
Continuous
 62
     7
100
AcDbLine
 10
-49.28190427110825
 20
57.86607287576522
 30
0.0
 11
-49.28190427110861
 21
54.36607287745699
 31
0.0
  0
LINE
  5
204
330
6A
100
AcDbEntity
  8
0
  6
Continuous
 62
     7
100
AcDbLine
 10
-53.23966157231254
 20
57.86607287576522
 30
0.0
 11
-50.82833670395159
 21
57.86607287576522
 31
0.0
  0
LINE
  5
205
330
6A
100
AcDbEntity
  8
0
  6
Continuous
 62
     7
100
AcDbLine
 10
-49.28190427110825
 20
57.86607287576522
 30
0.0
 11
-50.82833670395159
 21
57.86607287576522
 31
0.0
  0
LINE
  5
206
330
6A
100
AcDbEntity
  8
0
  6
Continuous
 62
     7
100
AcDbLine
 10
-42.02833670473581
 20
57.86607287576522
 30
0.0
 11
-49.28190427110825
 21
57.86607287576522
 31
0.0
  0
LINE
  5
207
330
6A
100
AcDbEntity
  8
0
  6
Continuous
 62
     7
100
AcDbLine
 10
-69.02833675700245
 20
54.36607287745699
 30
0.0
 11
-69.02833675700245
 21
57.86607287576522
 31
0.0
  0
LINE
  5
208
330
6A
100
AcDbEntity
  8
0
  6
Continuous
 62
     7
100
AcDbLine
 10
-68.50913753001772
 20
57.86607287576522
 30
0.0
 11
-68.14083196688641
 21
57.86607287576522
 31
0.0
  0
LINE
  5
209
330
6A
100
AcDbEntity
  8
0
  6
Continuous
 62
     7
100
AcDbLine
 10
-68.50913753001772
 20
54.36607287745699
 30
0.0
 11
-68.14083196688642
 21
54.36607287745699
 31
0.0
  0
LINE
  5
20A
330
6A
100
AcDbEntity
  8
0
  6
Continuous
 62
     7
100
AcDbLine
 10
-68.14083196688642
 20
54.36607287745699
 30
0.0
 11
-68.14083196688641
 21
57.86607287576522
 31
0.0
  0
LINE
  5
20B
330
6A
100
AcDbEntity
  8
0
  6
Continuous
 62
     7
100
AcDbLine
 10
-68.50913753001772
 20
54.36607287745699
 30
0.0
 11
-68.50913753001772
 21
57.86607287576522
 31
0.0
  0
LINE
  5
20C
330
6A
100
AcDbEntity
  8
0
  6
Continuous
 62
     7
100
AcDbLine
 10
-61.97480024894169
 20
57.86607287576522
 30
0.0
 11
-62.40353331342977
 21
57.86607287576522
 31
0.0
  0
LINE
  5
20D
330
6A
100
AcDbEntity
  8
0
  6
Continuous
 62
     7
100
AcDbLine
 10
-62.40353331342977
 20
57.86607287576522
 30
0.0
 11
-68.14083196688641
 21
57.86607287576522
 31
0.0
  0
LINE
  5
20E
330
6A
100
AcDbEntity
  8
0
  6
Continuous
 62
     7
100
AcDbLine
 10
-61.97480024894169
 20
54.36607287745699
 30
0.0
 11
-62.40353331342976
 21
54.36607287745699
 31
0.0
  0
LINE
  5
20F
330
6A
100
AcDbEntity
  8
0
  6
Continuous
 62
     7
100
AcDbLine
 10
-61.97480024894169
 20
54.36607287745699
 30
0.0
 11
-61.97480024894169
 21
57.86607287576522
 31
0.0
  0
LINE
  5
210
330
6A
100
AcDbEntity
  8
0
  6
Continuous
 62
     7
100
AcDbLine
 10
-60.26920591616398
 20
54.36607287745699
 30
0.0
 11
-60.26920591616397
 21
57.86607287576522
 31
0.0
  0
LINE
  5
211
330
6A
100
AcDbEntity
  8
0
  6
Continuous
 62
     7
100
AcDbLine
 10
-62.40353331342976
 20
54.36607287745699
 30
0.0
 11
-62.40353331342977
 21
57.86607287576522
 31
0.0
  0
LINE
  5
212
330
6A
100
AcDbEntity
  8
0
  6
Continuous
 62
     7
100
AcDbLine
 10
-62.40353331342976
 20
54.36607287745699
 30
0.0
 11
-68.14083196688642
 21
54.36607287745699
 31
0.0
  0
ENDBLK
  5
6C
330
6A
100
AcDbEntity
  8
0
100
AcDbBlockEnd
  0
BLOCK
  5
6F
330
6D
100
AcDbEntity
  8
0
100
AcDbBlockBegin
  2
Top1
 70
     0
 10
-55.5283367885971
 20
56.11607291323024
 30
0.0
  3
Top1
  1

  0
INSERT
  5
6E
330
6D
100
AcDbEntity
  8
0
100
AcDbBlockReference
  2
PPC_1_5_S_1_L-select__6
 10
-69.02833675700245
 20
54.36607287745699
 30
0.0
  0
DIMENSION
  5
21F
330
6D
100
AcDbEntity
  8
1
100
AcDbDimension
  2
*D19
 10
-74.66503562386947
 20
57.86607287576521
 30
0.0
 11
-76.37753562386948
 21
56.05568803726429
 31
0.0
 70
    32
  1
<>
 71
     5
 42
-1.0
 53
90.0
  3
ME10_DIM_12
100
AcDbAlignedDimension
 13
-62.40353331342976
 23
54.36607287745699
 33
0.0
 14
-62.40353331342977
 24
57.86607287576522
 34
0.0
 50
90.0
100
AcDbRotatedDimension
  0
ENDBLK
  5
70
330
6D
100
AcDbEntity
  8
0
100
AcDbBlockEnd
  0
BLOCK
  5
72
330
71
100
AcDbEntity
  8
0
100
AcDbBlockBegin
  2
_rahmen
 70
     0
 10
61.69332478876972
 20
34.05582751015243
 30
0.0
  3
_rahmen
  1

  0
LINE
  5
220
330
71
100
AcDbEntity
  8
1
  6
DOT_CENTER
 62
     2
100
AcDbLine
 10
-63.86482485141769
 20
60.18082751015245
 30
0.0
 11
-58.36482485141769
 21
60.18082751015245
 31
0.0
  0
LINE
  5
221
330
71
100
AcDbEntity
  8
1
  6
PHANTOM
 62
     2
100
AcDbLine
 10
-55.11482485141769
 20
62.93082751015245
 30
0.0
 11
-55.11482485141769
 21
57.43082751015245
 31
0.0
  0
LINE
  5
222
330
71
100
AcDbEntity
  8
1
  6
PHANTOM
 62
     2
100
AcDbLine
 10
-52.36482485141769
 20
60.18082751015245
 30
0.0
 11
-57.86482485141769
 21
60.18082751015245
 31
0.0
  0
LINE
  5
223
330
71
100
AcDbEntity
  8
1
  6
Continuous
 62
     7
100
AcDbLine
 10
-3.55147973798029
 20
47.55582751015245
 30
0.0
 11
-3.55147973798029
 21
56.05582751015254
 31
0.0
  0
LINE
  5
224
330
71
100
AcDbEntity
  8
1
  6
Continuous
 62
     6
100
AcDbLine
 10
-31.45147973798038
 20
56.05582751015254
 30
0.0
 11
61.69332478877141
 21
56.05582751015254
 31
0.0
  0
LINE
  5
225
330
71
100
AcDbEntity
  8
1
  6
Continuous
 62
     7
100
AcDbLine
 10
-67.8514797379803
 20
56.05582751015254
 30
0.0
 11
-67.8514797379803
 21
64.55582751015254
 31
0.0
  0
LINE
  5
226
330
71
100
AcDbEntity
  8
1
  6
Continuous
 62
     7
100
AcDbLine
 10
-31.45147973798038
 20
56.05582751015254
 30
0.0
 11
-31.45147973798038
 21
64.55582751015254
 31
0.0
  0
LINE
  5
227
330
71
100
AcDbEntity
  8
1
  6
Continuous
 62
     7
100
AcDbLine
 10
26.2749165070926
 20
64.55582751015254
 30
0.0
 11
26.2749165070926
 21
56.05582751015254
 31
0.0
  0
LINE
  5
228
330
71
100
AcDbEntity
  8
1
  6
Continuous
 62
     7
100
AcDbLine
 10
52.7749165070922
 20
64.55582751015254
 30
0.0
 11
52.7749165070922
 21
56.05582751015254
 31
0.0
  0
LINE
  5
229
330
71
100
AcDbEntity
  8
1
  6
Continuous
 62
     6
100
AcDbLine
 10
-136.8514797379803
 20
39.05582751015254
 30
0.0
 11
-181.8066752112303
 21
39.05582751015254
 31
0.0
  0
LINE
  5
22A
330
71
100
AcDbEntity
  8
1
  6
Continuous
 62
     7
100
AcDbLine
 10
61.69332478877101
 20
47.55582751015254
 30
0.0
 11
-31.45147973798038
 21
47.55582751015254
 31
0.0
  0
LINE
  5
22B
102
{ACAD_REACTORS
330
33D
330
33E
102
}
330
71
100
AcDbEntity
  8
0
  6
Continuous
 62
     2
100
AcDbLine
 10
-54.1440507962129
 20
48.35611662581584
 30
0.0
 11
-54.1440507962129
 21
49.22863363261914
 31
0.0
  0
LINE
  5
22C
102
{ACAD_REACTORS
330
33D
330
33E
102
}
330
71
100
AcDbEntity
  8
0
  6
Continuous
 62
     2
100
AcDbLine
 10
-54.1440507962129
 20
47.39634791833294
 30
0.0
 11
-54.1440507962129
 21
46.52383091152973
 31
0.0
  0
LINE
  5
22D
102
{ACAD_REACTORS
330
33F
330
340
102
}
330
71
100
AcDbEntity
  8
0
  6
Continuous
 62
     2
100
AcDbLine
 10
-38.81100665992238
 20
48.61787172785634
 30
0.0
 11
-37.70736736035428
 21
48.61787172785634
 31
0.0
  0
LINE
  5
22E
102
{ACAD_REACTORS
330
33F
330
340
102
}
330
71
100
AcDbEntity
  8
0
  6
Continuous
 62
     2
100
AcDbLine
 10
-38.04134931696098
 20
47.39634791833245
 30
0.0
 11
-38.04134931696098
 21
46.52383091152913
 31
0.0
  0
LINE
  5
22F
102
{ACAD_REACTORS
330
349
330
34A
102
}
330
71
100
AcDbEntity
  8
0
  6
Continuous
 62
     2
100
AcDbLine
 10
-39.9021059323409
 20
49.70851798634314
 30
0.0
 11
-38.5041528854006
 21
51.28937698011814
 31
0.0
  0
LINE
  5
230
102
{ACAD_REACTORS
330
349
330
34A
102
}
330
71
100
AcDbEntity
  8
0
  6
Continuous
 62
     2
100
AcDbLine
 10
-39.80668251616808
 20
52.76232751015434
 30
0.0
 11
-38.5041528854006
 21
51.28937698011814
 31
0.0
  0
LINE
  5
231
102
{ACAD_REACTORS
330
349
330
34A
102
}
330
71
100
AcDbEntity
  8
0
  6
Continuous
 62
     2
100
AcDbLine
 10
-37.2016232546342
 20
52.76232751015434
 30
0.0
 11
-35.79889903688698
 21
52.76232751015434
 31
0.0
  0
LINE
  5
232
102
{ACAD_REACTORS
330
349
330
34A
102
}
330
71
100
AcDbEntity
  8
0
  6
Continuous
 62
     2
100
AcDbLine
 10
-38.49938171459269
 20
49.70851798634314
 30
0.0
 11
-37.80279077652699
 21
50.49624977163686
 31
0.0
  0
LINE
  5
233
102
{ACAD_REACTORS
330
349
330
34A
102
}
330
71
100
AcDbEntity
  8
0
  6
Continuous
 62
     2
100
AcDbLine
 10
-38.49938171459269
 20
49.70851798634314
 30
0.0
 11
-39.9021059323409
 21
49.70851798634314
 31
0.0
  0
LINE
  5
234
102
{ACAD_REACTORS
330
34B
330
34C
102
}
330
71
100
AcDbEntity
  8
0
  6
Continuous
 62
     2
100
AcDbLine
 10
-40.02138520255778
 20
49.70851798634314
 30
0.0
 11
-41.26188961281068
 21
49.70851798634314
 31
0.0
  0
LINE
  5
235
102
{ACAD_REACTORS
330
34D
330
34E
102
}
330
71
100
AcDbEntity
  8
0
  6
Continuous
 62
     2
100
AcDbLine
 10
-42.12986922096579
 20
47.57085131969333
 30
0.0
 11
-42.43003445815589
 21
48.33866628568003
 31
0.0
  0
LINE
  5
236
102
{ACAD_REACTORS
330
34D
330
34E
102
}
330
71
100
AcDbEntity
  8
0
  6
Continuous
 62
     2
100
AcDbLine
 10
-42.73019969534829
 20
47.57085131969333
 30
0.0
 11
-42.12986922096579
 21
47.57085131969333
 31
0.0
  0
LINE
  5
237
102
{ACAD_REACTORS
330
34D
330
34E
102
}
330
71
100
AcDbEntity
  8
0
  6
Continuous
 62
     2
100
AcDbLine
 10
-44.44823971022208
 20
46.34932751016885
 30
0.0
 11
-43.2077352999691
 21
46.34932751016885
 31
0.0
  0
LINE
  5
238
102
{ACAD_REACTORS
330
34D
330
34E
102
}
330
71
100
AcDbEntity
  8
0
  6
Continuous
 62
     2
100
AcDbLine
 10
-43.05028666328278
 20
49.40313703397993
 30
0.0
 11
-41.80978225303008
 21
49.40313703397993
 31
0.0
  0
LINE
  5
239
102
{ACAD_REACTORS
330
34D
330
34E
102
}
330
71
100
AcDbEntity
  8
0
  6
Continuous
 62
     2
100
AcDbLine
 10
-41.80978225303008
 20
49.40313703397993
 30
0.0
 11
-40.41182920608978
 21
46.34932751016885
 31
0.0
  0
LINE
  5
23A
102
{ACAD_REACTORS
330
34D
330
34E
102
}
330
71
100
AcDbEntity
  8
0
  6
Continuous
 62
     2
100
AcDbLine
 10
-41.6523336163437
 20
46.34932751016885
 30
0.0
 11
-41.86381366981948
 21
46.89028805438673
 31
0.0
  0
LINE
  5
23B
102
{ACAD_REACTORS
330
34F
330
350
102
}
330
71
100
AcDbEntity
  8
0
  6
Continuous
 62
     2
100
AcDbLine
 10
-45.79465281192969
 20
46.34932751016885
 30
0.0
 11
-44.60186010976318
 21
46.34932751016885
 31
0.0
  0
LINE
  5
23C
102
{ACAD_REACTORS
330
34F
330
350
102
}
330
71
100
AcDbEntity
  8
0
  6
Continuous
 62
     2
100
AcDbLine
 10
-45.79465281192969
 20
48.61787172785634
 30
0.0
 11
-45.79465281192969
 21
46.34932751016885
 31
0.0
  0
LINE
  5
23D
102
{ACAD_REACTORS
330
34F
330
350
102
}
330
71
100
AcDbEntity
  8
0
  6
Continuous
 62
     2
100
AcDbLine
 10
-46.6057518494043
 20
49.40313703397993
 30
0.0
 11
-46.6057518494043
 21
48.61787172785634
 31
0.0
  0
LINE
  5
23E
102
{ACAD_REACTORS
330
351
330
352
102
}
330
71
100
AcDbEntity
  8
0
  6
Continuous
 62
     2
100
AcDbLine
 10
-45.1265379678317
 20
49.70851798634314
 30
0.0
 11
-43.93374526566518
 21
49.70851798634314
 31
0.0
  0
LINE
  5
23F
102
{ACAD_REACTORS
330
351
330
352
102
}
330
71
100
AcDbEntity
  8
0
  6
Continuous
 62
     2
100
AcDbLine
 10
-42.69324085541118
 20
51.45355199994916
 30
0.0
 11
-43.93374526566518
 21
52.76232751015434
 31
0.0
  0
LINE
  5
240
102
{ACAD_REACTORS
330
351
330
352
102
}
330
71
100
AcDbEntity
  8
0
  6
Continuous
 62
     2
100
AcDbLine
 10
-41.50044815324458
 20
52.76232751015434
 30
0.0
 11
-42.69324085541118
 21
52.76232751015434
 31
0.0
  0
LINE
  5
241
102
{ACAD_REACTORS
330
351
330
352
102
}
330
71
100
AcDbEntity
  8
0
  6
Continuous
 62
     2
100
AcDbLine
 10
-41.50044815324458
 20
49.70851798634314
 30
0.0
 11
-41.50044815324458
 21
52.76232751015434
 31
0.0
  0
LINE
  5
242
102
{ACAD_REACTORS
330
351
330
352
102
}
330
71
100
AcDbEntity
  8
0
  6
Continuous
 62
     2
100
AcDbLine
 10
-42.69324085541118
 20
49.70851798634314
 30
0.0
 11
-41.50044815324458
 21
49.70851798634314
 31
0.0
  0
LINE
  5
243
102
{ACAD_REACTORS
330
351
330
352
102
}
330
71
100
AcDbEntity
  8
0
  6
Continuous
 62
     2
100
AcDbLine
 10
-43.93374526566518
 20
51.01729349654784
 30
0.0
 11
-42.69324085541118
 21
49.70851798634314
 31
0.0
  0
LINE
  5
244
102
{ACAD_REACTORS
330
353
330
354
102
}
330
71
100
AcDbEntity
  8
0
  6
Continuous
 62
     2
100
AcDbLine
 10
-47.9416796758309
 20
48.09436152377484
 30
0.0
 11
-49.18218408608379
 21
49.40313703397993
 31
0.0
  0
LINE
  5
245
102
{ACAD_REACTORS
330
353
330
354
102
}
330
71
100
AcDbEntity
  8
0
  6
Continuous
 62
     2
100
AcDbLine
 10
-47.9416796758309
 20
49.40313703397993
 30
0.0
 11
-47.9416796758309
 21
48.09436152377484
 31
0.0
  0
LINE
  5
246
102
{ACAD_REACTORS
330
353
330
354
102
}
330
71
100
AcDbEntity
  8
0
  6
Continuous
 62
     2
100
AcDbLine
 10
-46.7488869736645
 20
49.40313703397993
 30
0.0
 11
-47.9416796758309
 21
49.40313703397993
 31
0.0
  0
LINE
  5
247
102
{ACAD_REACTORS
330
353
330
354
102
}
330
71
100
AcDbEntity
  8
0
  6
Continuous
 62
     2
100
AcDbLine
 10
-46.7488869736645
 20
46.34932751016885
 30
0.0
 11
-46.7488869736645
 21
49.40313703397993
 31
0.0
  0
LINE
  5
248
102
{ACAD_REACTORS
330
353
330
354
102
}
330
71
100
AcDbEntity
  8
0
  6
Continuous
 62
     2
100
AcDbLine
 10
-49.18218408608379
 20
47.65810302037343
 30
0.0
 11
-47.9416796758309
 21
46.34932751016885
 31
0.0
  0
LINE
  5
249
102
{ACAD_REACTORS
330
353
330
354
102
}
330
71
100
AcDbEntity
  8
0
  6
Continuous
 62
     2
100
AcDbLine
 10
-49.18218408608379
 20
46.34932751016885
 30
0.0
 11
-49.18218408608379
 21
47.65810302037343
 31
0.0
  0
LINE
  5
24A
102
{ACAD_REACTORS
330
343
330
344
102
}
330
71
100
AcDbEntity
  8
0
  6
Continuous
 62
     2
100
AcDbLine
 10
-46.70102433469228
 20
52.06431390471136
 30
0.0
 11
-45.3650965082646
 21
52.06431390471136
 31
0.0
  0
LINE
  5
24B
102
{ACAD_REACTORS
330
343
330
344
102
}
330
71
100
AcDbEntity
  8
0
  6
Continuous
 62
     2
100
AcDbLine
 10
-46.70102433469228
 20
50.40653159178564
 30
0.0
 11
-46.70102433469228
 21
50.88641594552735
 31
0.0
  0
LINE
  5
24C
102
{ACAD_REACTORS
330
343
330
344
102
}
330
71
100
AcDbEntity
  8
0
  6
Continuous
 62
     2
100
AcDbLine
 10
-45.3650965082646
 20
50.40653159178564
 30
0.0
 11
-46.70102433469228
 21
50.40653159178564
 31
0.0
  0
LINE
  5
24D
102
{ACAD_REACTORS
330
343
330
344
102
}
330
71
100
AcDbEntity
  8
0
  6
Continuous
 62
     2
100
AcDbLine
 10
-45.3650965082646
 20
49.70851798634314
 30
0.0
 11
-45.3650965082646
 21
50.40653159178564
 31
0.0
  0
LINE
  5
24E
102
{ACAD_REACTORS
330
343
330
344
102
}
330
71
100
AcDbEntity
  8
0
  6
Continuous
 62
     2
100
AcDbLine
 10
-48.5154162320456
 20
49.70851798634314
 30
0.0
 11
-45.3650965082646
 21
49.70851798634314
 31
0.0
  0
LINE
  5
24F
102
{ACAD_REACTORS
330
343
330
344
102
}
330
71
100
AcDbEntity
  8
0
  6
Continuous
 62
     2
100
AcDbLine
 10
-48.5154162320456
 20
52.76232751015434
 30
0.0
 11
-45.3650965082646
 21
52.76232751015434
 31
0.0
  0
LINE
  5
250
102
{ACAD_REACTORS
330
343
330
344
102
}
330
71
100
AcDbEntity
  8
0
  6
Continuous
 62
     2
100
AcDbLine
 10
-45.3650965082646
 20
52.06431390471136
 30
0.0
 11
-45.3650965082646
 21
52.76232751015434
 31
0.0
  0
LINE
  5
251
102
{ACAD_REACTORS
330
355
330
356
102
}
330
71
100
AcDbEntity
  8
0
  6
Continuous
 62
     2
100
AcDbLine
 10
-51.3767717271856
 20
51.69349417681974
 30
0.0
 11
-51.3767717271856
 21
52.76232751015434
 31
0.0
  0
LINE
  5
252
102
{ACAD_REACTORS
330
355
330
356
102
}
330
71
100
AcDbEntity
  8
0
  6
Continuous
 62
     2
100
AcDbLine
 10
-51.3767717271856
 20
52.76232751015434
 30
0.0
 11
-50.1839790250192
 21
52.76232751015434
 31
0.0
  0
LINE
  5
253
102
{ACAD_REACTORS
330
355
330
356
102
}
330
71
100
AcDbEntity
  8
0
  6
Continuous
 62
     2
100
AcDbLine
 10
-51.3767717271856
 20
50.84279009518696
 30
0.0
 11
-52.42642930509308
 21
50.84279009518696
 31
0.0
  0
LINE
  5
254
102
{ACAD_REACTORS
330
355
330
356
102
}
330
71
100
AcDbEntity
  8
0
  6
Continuous
 62
     2
100
AcDbLine
 10
-52.42642930509308
 20
50.84279009518696
 30
0.0
 11
-52.42642930509308
 21
49.70851798634314
 31
0.0
  0
LINE
  5
255
102
{ACAD_REACTORS
330
355
330
356
102
}
330
71
100
AcDbEntity
  8
0
  6
Continuous
 62
     2
100
AcDbLine
 10
-53.61922200725968
 20
52.76232751015434
 30
0.0
 11
-53.61922200725968
 21
49.70851798634314
 31
0.0
  0
LINE
  5
256
102
{ACAD_REACTORS
330
347
330
348
102
}
330
71
100
AcDbEntity
  8
0
  6
Continuous
 62
     2
100
AcDbLine
 10
-55.57540203881328
 20
51.39349401537203
 30
0.0
 11
-55.57540203881328
 21
52.09922166471424
 31
0.0
  0
LINE
  5
257
102
{ACAD_REACTORS
330
347
330
348
102
}
330
71
100
AcDbEntity
  8
0
  6
Continuous
 62
     2
100
AcDbLine
 10
-56.8159064490674
 20
49.70851798634314
 30
0.0
 11
-55.57540203881328
 21
49.70851798634314
 31
0.0
  0
LINE
  5
258
102
{ACAD_REACTORS
330
347
330
348
102
}
330
71
100
AcDbEntity
  8
0
  6
Continuous
 62
     2
100
AcDbLine
 10
-55.57540203881328
 20
49.70851798634314
 30
0.0
 11
-55.57540203881328
 21
50.65159622748695
 31
0.0
  0
LINE
  5
259
102
{ACAD_REACTORS
330
341
330
342
102
}
330
71
100
AcDbEntity
  8
0
  6
Continuous
 62
     2
100
AcDbLine
 10
-61.12085229827878
 20
47.06188306572574
 30
0.0
 11
-62.5966855592884
 21
47.06188306572574
 31
0.0
  0
LINE
  5
25A
102
{ACAD_REACTORS
330
341
330
342
102
}
330
71
100
AcDbEntity
  8
0
  6
Continuous
 62
     2
100
AcDbLine
 10
-63.61482485141769
 20
52.33808289475235
 30
0.0
 11
-63.61482485141769
 21
46.77357212555214
 31
0.0
  0
LINE
  5
25B
102
{ACAD_REACTORS
330
341
330
342
102
}
330
71
100
AcDbEntity
  8
0
  6
Continuous
 62
     2
100
AcDbLine
 10
-63.19058023603489
 20
52.76232751013615
 30
0.0
 11
-57.71726814531809
 21
52.76232751013615
 31
0.0
  0
LINE
  5
25C
102
{ACAD_REACTORS
330
341
330
342
102
}
330
71
100
AcDbEntity
  8
0
  6
Continuous
 62
     2
100
AcDbLine
 10
-57.2930235299342
 20
52.33808289475235
 30
0.0
 11
-57.2930235299342
 21
46.77357212555214
 31
0.0
  0
LINE
  5
25D
102
{ACAD_REACTORS
330
341
330
342
102
}
330
71
100
AcDbEntity
  8
0
  6
Continuous
 62
     2
100
AcDbLine
 10
-57.71726814531809
 20
46.34932751016885
 30
0.0
 11
-63.19058023603489
 21
46.34932751016885
 31
0.0
  0
LINE
  5
25E
102
{ACAD_REACTORS
330
341
330
342
102
}
330
71
100
AcDbEntity
  8
0
  6
Continuous
 62
     2
100
AcDbLine
 10
-60.80513537520218
 20
47.37759998880244
 30
0.0
 11
-60.80513537520218
 21
48.90837092033405
 31
0.0
  0
LINE
  5
25F
102
{ACAD_REACTORS
330
341
330
342
102
}
330
71
100
AcDbEntity
  8
0
  6
Continuous
 62
     2
100
AcDbLine
 10
-60.80513537520218
 20
51.13003041245904
 30
0.0
 11
-60.80513537520218
 21
51.73405503151955
 31
0.0
  0
LINE
  5
260
102
{ACAD_REACTORS
330
341
330
342
102
}
330
71
100
AcDbEntity
  8
0
  6
Continuous
 62
     2
100
AcDbLine
 10
-62.5966855592884
 20
52.04977195459574
 30
0.0
 11
-61.12085229827878
 21
52.04977195459574
 31
0.0
  0
LINE
  5
261
102
{ACAD_REACTORS
330
341
330
342
102
}
330
71
100
AcDbEntity
  8
0
  6
Continuous
 62
     2
100
AcDbLine
 10
-62.91240248236409
 20
51.73405503151955
 30
0.0
 11
-62.91240248236409
 21
47.37759998880244
 31
0.0
  0
LINE
  5
262
102
{ACAD_REACTORS
330
347
330
348
102
}
330
71
100
AcDbEntity
  8
0
  6
Continuous
 62
     2
100
AcDbLine
 10
-55.57540203881328
 20
50.65159622748695
 30
0.0
 11
-54.816634451033
 21
50.65159622748695
 31
0.0
  0
LINE
  5
263
102
{ACAD_REACTORS
330
347
330
348
102
}
330
71
100
AcDbEntity
  8
0
  6
Continuous
 62
     2
100
AcDbLine
 10
-56.8159064490674
 20
52.76232751015434
 30
0.0
 11
-54.816634451033
 21
52.76232751015434
 31
0.0
  0
LINE
  5
264
102
{ACAD_REACTORS
330
347
330
348
102
}
330
71
100
AcDbEntity
  8
0
  6
Continuous
 62
     2
100
AcDbLine
 10
-56.8159064490674
 20
52.76232751015434
 30
0.0
 11
-56.8159064490674
 21
49.70851798634314
 31
0.0
  0
LINE
  5
265
102
{ACAD_REACTORS
330
347
330
348
102
}
330
71
100
AcDbEntity
  8
0
  6
Continuous
 62
     2
100
AcDbLine
 10
-55.57540203881328
 20
51.39349401537203
 30
0.0
 11
-55.25810697727138
 21
51.39349401537203
 31
0.0
  0
LINE
  5
266
102
{ACAD_REACTORS
330
347
330
348
102
}
330
71
100
AcDbEntity
  8
0
  6
Continuous
 62
     2
100
AcDbLine
 10
-55.57540203881328
 20
52.09922166471424
 30
0.0
 11
-55.25810697727138
 21
52.09922166471424
 31
0.0
  0
LINE
  5
267
102
{ACAD_REACTORS
330
355
330
356
102
}
330
71
100
AcDbEntity
  8
0
  6
Continuous
 62
     2
100
AcDbLine
 10
-52.42642930509308
 20
51.69349417681974
 30
0.0
 11
-51.3767717271856
 21
51.69349417681974
 31
0.0
  0
LINE
  5
268
102
{ACAD_REACTORS
330
355
330
356
102
}
330
71
100
AcDbEntity
  8
0
  6
Continuous
 62
     2
100
AcDbLine
 10
-52.42642930509308
 20
52.76232751015434
 30
0.0
 11
-52.42642930509308
 21
51.69349417681974
 31
0.0
  0
LINE
  5
269
102
{ACAD_REACTORS
330
355
330
356
102
}
330
71
100
AcDbEntity
  8
0
  6
Continuous
 62
     2
100
AcDbLine
 10
-53.61922200725968
 20
52.76232751015434
 30
0.0
 11
-52.42642930509308
 21
52.76232751015434
 31
0.0
  0
LINE
  5
26A
102
{ACAD_REACTORS
330
355
330
356
102
}
330
71
100
AcDbEntity
  8
0
  6
Continuous
 62
     2
100
AcDbLine
 10
-52.42642930509308
 20
49.70851798634314
 30
0.0
 11
-53.61922200725968
 21
49.70851798634314
 31
0.0
  0
LINE
  5
26B
102
{ACAD_REACTORS
330
355
330
356
102
}
330
71
100
AcDbEntity
  8
0
  6
Continuous
 62
     2
100
AcDbLine
 10
-51.3767717271856
 20
49.70851798634314
 30
0.0
 11
-51.3767717271856
 21
50.84279009518696
 31
0.0
  0
LINE
  5
26C
102
{ACAD_REACTORS
330
355
330
356
102
}
330
71
100
AcDbEntity
  8
0
  6
Continuous
 62
     2
100
AcDbLine
 10
-50.1839790250192
 20
49.70851798634314
 30
0.0
 11
-51.3767717271856
 21
49.70851798634314
 31
0.0
  0
LINE
  5
26D
102
{ACAD_REACTORS
330
355
330
356
102
}
330
71
100
AcDbEntity
  8
0
  6
Continuous
 62
     2
100
AcDbLine
 10
-50.1839790250192
 20
52.76232751015434
 30
0.0
 11
-50.1839790250192
 21
49.70851798634314
 31
0.0
  0
LINE
  5
26E
102
{ACAD_REACTORS
330
343
330
344
102
}
330
71
100
AcDbEntity
  8
0
  6
Continuous
 62
     2
100
AcDbLine
 10
-46.70102433469228
 20
50.88641594552735
 30
0.0
 11
-45.3650965082646
 21
50.88641594552735
 31
0.0
  0
LINE
  5
26F
102
{ACAD_REACTORS
330
343
330
344
102
}
330
71
100
AcDbEntity
  8
0
  6
Continuous
 62
     2
100
AcDbLine
 10
-45.3650965082646
 20
50.88641594552735
 30
0.0
 11
-45.3650965082646
 21
51.58442955096965
 31
0.0
  0
LINE
  5
270
102
{ACAD_REACTORS
330
343
330
344
102
}
330
71
100
AcDbEntity
  8
0
  6
Continuous
 62
     2
100
AcDbLine
 10
-45.3650965082646
 20
51.58442955096965
 30
0.0
 11
-46.70102433469228
 21
51.58442955096965
 31
0.0
  0
LINE
  5
271
102
{ACAD_REACTORS
330
343
330
344
102
}
330
71
100
AcDbEntity
  8
0
  6
Continuous
 62
     2
100
AcDbLine
 10
-46.70102433469228
 20
51.58442955096965
 30
0.0
 11
-46.70102433469228
 21
52.06431390471136
 31
0.0
  0
LINE
  5
272
102
{ACAD_REACTORS
330
353
330
354
102
}
330
71
100
AcDbEntity
  8
0
  6
Continuous
 62
     2
100
AcDbLine
 10
-50.37497678825139
 20
46.34932751016885
 30
0.0
 11
-49.18218408608379
 21
46.34932751016885
 31
0.0
  0
LINE
  5
273
102
{ACAD_REACTORS
330
353
330
354
102
}
330
71
100
AcDbEntity
  8
0
  6
Continuous
 62
     2
100
AcDbLine
 10
-47.9416796758309
 20
46.34932751016885
 30
0.0
 11
-46.7488869736645
 21
46.34932751016885
 31
0.0
  0
LINE
  5
274
102
{ACAD_REACTORS
330
353
330
354
102
}
330
71
100
AcDbEntity
  8
0
  6
Continuous
 62
     2
100
AcDbLine
 10
-49.18218408608379
 20
49.40313703397993
 30
0.0
 11
-50.37497678825139
 21
49.40313703397993
 31
0.0
  0
LINE
  5
275
102
{ACAD_REACTORS
330
353
330
354
102
}
330
71
100
AcDbEntity
  8
0
  6
Continuous
 62
     2
100
AcDbLine
 10
-50.37497678825139
 20
49.40313703397993
 30
0.0
 11
-50.37497678825139
 21
46.34932751016885
 31
0.0
  0
LINE
  5
276
102
{ACAD_REACTORS
330
351
330
352
102
}
330
71
100
AcDbEntity
  8
0
  6
Continuous
 62
     2
100
AcDbLine
 10
-42.69324085541118
 20
52.76232751015434
 30
0.0
 11
-42.69324085541118
 21
51.45355199994916
 31
0.0
  0
LINE
  5
277
102
{ACAD_REACTORS
330
351
330
352
102
}
330
71
100
AcDbEntity
  8
0
  6
Continuous
 62
     2
100
AcDbLine
 10
-43.93374526566518
 20
52.76232751015434
 30
0.0
 11
-45.1265379678317
 21
52.76232751015434
 31
0.0
  0
LINE
  5
278
102
{ACAD_REACTORS
330
351
330
352
102
}
330
71
100
AcDbEntity
  8
0
  6
Continuous
 62
     2
100
AcDbLine
 10
-45.1265379678317
 20
52.76232751015434
 30
0.0
 11
-45.1265379678317
 21
49.70851798634314
 31
0.0
  0
LINE
  5
279
102
{ACAD_REACTORS
330
351
330
352
102
}
330
71
100
AcDbEntity
  8
0
  6
Continuous
 62
     2
100
AcDbLine
 10
-43.93374526566518
 20
49.70851798634314
 30
0.0
 11
-43.93374526566518
 21
51.01729349654784
 31
0.0
  0
LINE
  5
27A
102
{ACAD_REACTORS
330
34F
330
350
102
}
330
71
100
AcDbEntity
  8
0
  6
Continuous
 62
     2
100
AcDbLine
 10
-44.60186010976318
 20
46.34932751016885
 30
0.0
 11
-44.60186010976318
 21
48.61787172785634
 31
0.0
  0
LINE
  5
27B
102
{ACAD_REACTORS
330
34F
330
350
102
}
330
71
100
AcDbEntity
  8
0
  6
Continuous
 62
     2
100
AcDbLine
 10
-44.60186010976318
 20
48.61787172785634
 30
0.0
 11
-43.79076107229068
 21
48.61787172785634
 31
0.0
  0
LINE
  5
27C
102
{ACAD_REACTORS
330
34F
330
350
102
}
330
71
100
AcDbEntity
  8
0
  6
Continuous
 62
     2
100
AcDbLine
 10
-43.79076107229068
 20
48.61787172785634
 30
0.0
 11
-43.79076107229068
 21
49.40313703397993
 31
0.0
  0
LINE
  5
27D
102
{ACAD_REACTORS
330
34F
330
350
102
}
330
71
100
AcDbEntity
  8
0
  6
Continuous
 62
     2
100
AcDbLine
 10
-43.79076107229068
 20
49.40313703397993
 30
0.0
 11
-46.6057518494043
 21
49.40313703397993
 31
0.0
  0
LINE
  5
27E
102
{ACAD_REACTORS
330
34F
330
350
102
}
330
71
100
AcDbEntity
  8
0
  6
Continuous
 62
     2
100
AcDbLine
 10
-46.6057518494043
 20
48.61787172785634
 30
0.0
 11
-45.79465281192969
 21
48.61787172785634
 31
0.0
  0
LINE
  5
27F
102
{ACAD_REACTORS
330
34D
330
34E
102
}
330
71
100
AcDbEntity
  8
0
  6
Continuous
 62
     2
100
AcDbLine
 10
-42.99625524649329
 20
46.89028805438673
 30
0.0
 11
-41.86381366981948
 21
46.89028805438673
 31
0.0
  0
LINE
  5
280
102
{ACAD_REACTORS
330
34D
330
34E
102
}
330
71
100
AcDbEntity
  8
0
  6
Continuous
 62
     2
100
AcDbLine
 10
-40.41182920608978
 20
46.34932751016885
 30
0.0
 11
-41.6523336163437
 21
46.34932751016885
 31
0.0
  0
LINE
  5
281
102
{ACAD_REACTORS
330
34D
330
34E
102
}
330
71
100
AcDbEntity
  8
0
  6
Continuous
 62
     2
100
AcDbLine
 10
-43.05028666328278
 20
49.40313703397993
 30
0.0
 11
-44.44823971022208
 21
46.34932751016885
 31
0.0
  0
LINE
  5
282
102
{ACAD_REACTORS
330
34D
330
34E
102
}
330
71
100
AcDbEntity
  8
0
  6
Continuous
 62
     2
100
AcDbLine
 10
-43.2077352999691
 20
46.34932751016885
 30
0.0
 11
-42.99625524649329
 21
46.89028805438673
 31
0.0
  0
LINE
  5
283
102
{ACAD_REACTORS
330
34D
330
34E
102
}
330
71
100
AcDbEntity
  8
0
  6
Continuous
 62
     2
100
AcDbLine
 10
-42.73019969534829
 20
47.57085131969333
 30
0.0
 11
-42.43003445815589
 21
48.33866628568003
 31
0.0
  0
LINE
  5
284
102
{ACAD_REACTORS
330
34B
330
34C
102
}
330
71
100
AcDbEntity
  8
0
  6
Continuous
 62
     2
100
AcDbLine
 10
-41.26188961281068
 20
49.70851798634314
 30
0.0
 11
-41.26188961281068
 21
52.76232751015434
 31
0.0
  0
LINE
  5
285
102
{ACAD_REACTORS
330
34B
330
34C
102
}
330
71
100
AcDbEntity
  8
0
  6
Continuous
 62
     2
100
AcDbLine
 10
-40.02138520255778
 20
52.76232751015434
 30
0.0
 11
-40.02138520255778
 21
49.70851798634314
 31
0.0
  0
LINE
  5
286
102
{ACAD_REACTORS
330
34B
330
34C
102
}
330
71
100
AcDbEntity
  8
0
  6
Continuous
 62
     2
100
AcDbLine
 10
-41.26188961281068
 20
52.76232751015434
 30
0.0
 11
-40.02138520255778
 21
52.76232751015434
 31
0.0
  0
LINE
  5
287
102
{ACAD_REACTORS
330
349
330
34A
102
}
330
71
100
AcDbEntity
  8
0
  6
Continuous
 62
     2
100
AcDbLine
 10
-37.80279077652699
 20
50.49624977163686
 30
0.0
 11
-37.10619983846149
 21
49.70851798634314
 31
0.0
  0
LINE
  5
288
102
{ACAD_REACTORS
330
349
330
34A
102
}
330
71
100
AcDbEntity
  8
0
  6
Continuous
 62
     2
100
AcDbLine
 10
-37.10619983846149
 20
49.70851798634314
 30
0.0
 11
-35.70347562071319
 21
49.70851798634314
 31
0.0
  0
LINE
  5
289
102
{ACAD_REACTORS
330
349
330
34A
102
}
330
71
100
AcDbEntity
  8
0
  6
Continuous
 62
     2
100
AcDbLine
 10
-37.10142866765349
 20
51.28937698011814
 30
0.0
 11
-35.70347562071319
 21
49.70851798634314
 31
0.0
  0
LINE
  5
28A
102
{ACAD_REACTORS
330
349
330
34A
102
}
330
71
100
AcDbEntity
  8
0
  6
Continuous
 62
     2
100
AcDbLine
 10
-37.10142866765349
 20
51.28937698011814
 30
0.0
 11
-35.79889903688698
 21
52.76232751015434
 31
0.0
  0
LINE
  5
28B
102
{ACAD_REACTORS
330
349
330
34A
102
}
330
71
100
AcDbEntity
  8
0
  6
Continuous
 62
     2
100
AcDbLine
 10
-37.80279077652699
 20
52.08250418859885
 30
0.0
 11
-37.2016232546342
 21
52.76232751015434
 31
0.0
  0
LINE
  5
28C
102
{ACAD_REACTORS
330
349
330
34A
102
}
330
71
100
AcDbEntity
  8
0
  6
Continuous
 62
     2
100
AcDbLine
 10
-38.40395829841879
 20
52.76232751015434
 30
0.0
 11
-37.80279077652699
 21
52.08250418859885
 31
0.0
  0
LINE
  5
28D
102
{ACAD_REACTORS
330
349
330
34A
102
}
330
71
100
AcDbEntity
  8
0
  6
Continuous
 62
     2
100
AcDbLine
 10
-38.40395829841879
 20
52.76232751015434
 30
0.0
 11
-39.80668251616808
 21
52.76232751015434
 31
0.0
  0
LINE
  5
28E
102
{ACAD_REACTORS
330
33F
330
340
102
}
330
71
100
AcDbEntity
  8
0
  6
Continuous
 62
     2
100
AcDbLine
 10
-37.70736736035428
 20
46.34932751016885
 30
0.0
 11
-36.51457465818658
 21
46.34932751016885
 31
0.0
  0
LINE
  5
28F
102
{ACAD_REACTORS
330
33F
330
340
102
}
330
71
100
AcDbEntity
  8
0
  6
Continuous
 62
     2
100
AcDbLine
 10
-36.51457465818658
 20
46.34932751016885
 30
0.0
 11
-36.51457465818658
 21
48.61787172785634
 31
0.0
  0
LINE
  5
290
102
{ACAD_REACTORS
330
33F
330
340
102
}
330
71
100
AcDbEntity
  8
0
  6
Continuous
 62
     2
100
AcDbLine
 10
-36.51457465818658
 20
48.61787172785634
 30
0.0
 11
-35.70347562071319
 21
48.61787172785634
 31
0.0
  0
LINE
  5
291
102
{ACAD_REACTORS
330
33F
330
340
102
}
330
71
100
AcDbEntity
  8
0
  6
Continuous
 62
     2
100
AcDbLine
 10
-35.70347562071319
 20
48.61787172785634
 30
0.0
 11
-35.70347562071319
 21
49.40313703397993
 31
0.0
  0
LINE
  5
292
102
{ACAD_REACTORS
330
33F
330
340
102
}
330
71
100
AcDbEntity
  8
0
  6
Continuous
 62
     2
100
AcDbLine
 10
-39.08842113934188
 20
49.40313703397945
 30
0.0
 11
-35.70347562071319
 21
49.40313703397993
 31
0.0
  0
LINE
  5
293
102
{ACAD_REACTORS
330
33F
330
340
102
}
330
71
100
AcDbEntity
  8
0
  6
Continuous
 62
     2
100
AcDbLine
 10
-37.70736736035428
 20
48.61787172785634
 30
0.0
 11
-37.70736736035428
 21
46.34932751016885
 31
0.0
  0
LINE
  5
294
102
{ACAD_REACTORS
330
341
330
342
102
}
330
71
100
AcDbEntity
  8
0
  6
Continuous
 62
     2
100
AcDbLine
 10
-60.33685379583349
 20
48.32820765973335
 30
0.0
 11
-60.33685379583349
 21
48.91005906642843
 31
0.0
  0
LINE
  5
295
102
{ACAD_REACTORS
330
341
330
342
102
}
330
71
100
AcDbEntity
  8
0
  6
Continuous
 62
     2
100
AcDbLine
 10
-60.33685379583349
 20
51.12834226636466
 30
0.0
 11
-60.33685379583349
 21
51.73387755487144
 31
0.0
  0
LINE
  5
296
330
71
100
AcDbEntity
  8
1
  6
Continuous
 62
     6
100
AcDbLine
 10
-81.80667521123027
 20
39.05582751015254
 30
0.0
 11
-67.8514797379803
 21
39.05582751015243
 31
0.0
  0
LINE
  5
297
330
71
100
AcDbEntity
  8
1
  6
Continuous
 62
     6
100
AcDbLine
 10
-131.8066752112305
 20
39.05582751015254
 30
0.0
 11
-136.8514797379803
 21
39.05582751015254
 31
0.0
  0
LINE
  5
298
330
71
100
AcDbEntity
  8
1
  6
Continuous
 62
     6
100
AcDbLine
 10
18.1933247887697
 20
39.05582751015254
 30
0.0
 11
61.69332478876972
 21
39.05582751015254
 31
0.0
  0
LINE
  5
299
330
71
100
AcDbEntity
  8
1
  6
Continuous
 62
     6
100
AcDbLine
 10
-31.8066752112303
 20
39.05582751015254
 30
0.0
 11
-49.65147973798028
 21
39.05582751015254
 31
0.0
  0
LINE
  5
29A
330
71
100
AcDbEntity
  8
1
  6
Continuous
 62
     2
100
AcDbLine
 10
61.69332478876972
 20
39.05582751015254
 30
0.0
 11
66.6933247887687
 21
39.05582751015254
 31
0.0
  0
LINE
  5
29B
330
71
100
AcDbEntity
  8
1
  6
Continuous
 62
     2
100
AcDbLine
 10
61.69332478876972
 20
39.05582751015254
 30
0.0
 11
61.69332478876972
 21
34.05582751015243
 31
0.0
  0
LINE
  5
29C
330
71
100
AcDbEntity
  8
1
  6
Continuous
 62
     6
100
AcDbLine
 10
-67.8514797379803
 20
56.05582751015254
 30
0.0
 11
-31.45147973798038
 21
56.05582751015254
 31
0.0
  0
LINE
  5
29D
330
71
100
AcDbEntity
  8
1
  6
Continuous
 62
     2
100
AcDbLine
 10
66.6933247887687
 20
34.05582751015243
 30
0.0
 11
66.6933247887687
 21
39.05582751015254
 31
0.0
  0
LINE
  5
29E
330
71
100
AcDbEntity
  8
1
  6
Continuous
 62
     2
100
AcDbLine
 10
66.6933247887687
 20
34.05582751015243
 30
0.0
 11
61.69332478876972
 21
34.05582751015243
 31
0.0
  0
LINE
  5
29F
330
71
100
AcDbEntity
  8
1
  6
Continuous
 62
     2
100
AcDbLine
 10
61.69332478876972
 20
34.05582751015243
 30
0.0
 11
18.1933247887697
 21
34.05582751015243
 31
0.0
  0
LINE
  5
2A0
330
71
100
AcDbEntity
  8
1
  6
Continuous
 62
     6
100
AcDbLine
 10
61.69332478877141
 20
56.05582751015254
 30
0.0
 11
61.69332478877061
 21
89.05582751015265
 31
0.0
  0
LINE
  5
2A1
330
71
100
AcDbEntity
  8
1
  6
Continuous
 62
     2
100
AcDbLine
 10
66.6933247887687
 20
244.0558275101525
 30
0.0
 11
-81.80667521123027
 21
244.0558275101525
 31
0.0
  0
LINE
  5
2A2
330
71
100
AcDbEntity
  8
1
  6
Continuous
 62
     6
100
AcDbLine
 10
61.69332478876871
 20
224.0558275101525
 30
0.0
 11
-225.3066752112294
 21
224.0558275101525
 31
0.0
  0
LINE
  5
2A3
330
71
100
AcDbEntity
  8
1
  6
Continuous
 62
     2
100
AcDbLine
 10
61.69332478877061
 20
89.05582751015265
 30
0.0
 11
66.6933247887687
 21
89.05582751015265
 31
0.0
  0
LINE
  5
2A4
330
71
100
AcDbEntity
  8
1
  6
Continuous
 62
     6
100
AcDbLine
 10
61.69332478877061
 20
89.05582751015265
 30
0.0
 11
61.69332478877011
 21
139.0558275101525
 31
0.0
  0
LINE
  5
2A5
330
71
100
AcDbEntity
  8
1
  6
Continuous
 62
     2
100
AcDbLine
 10
66.6933247887687
 20
89.05582751015265
 30
0.0
 11
66.6933247887687
 21
139.0558275101525
 31
0.0
  0
LINE
  5
2A6
330
71
100
AcDbEntity
  8
1
  6
Continuous
 62
     2
100
AcDbLine
 10
61.69332478877011
 20
139.0558275101525
 30
0.0
 11
66.6933247887687
 21
139.0558275101525
 31
0.0
  0
LINE
  5
2A7
330
71
100
AcDbEntity
  8
1
  6
Continuous
 62
     6
100
AcDbLine
 10
61.69332478877011
 20
139.0558275101525
 30
0.0
 11
61.69332478876891
 21
189.0558275101525
 31
0.0
  0
LINE
  5
2A8
330
71
100
AcDbEntity
  8
1
  6
Continuous
 62
     2
100
AcDbLine
 10
66.6933247887687
 20
139.0558275101525
 30
0.0
 11
66.6933247887687
 21
189.0558275101525
 31
0.0
  0
LINE
  5
2A9
330
71
100
AcDbEntity
  8
1
  6
Continuous
 62
     2
100
AcDbLine
 10
61.69332478876891
 20
189.0558275101525
 30
0.0
 11
66.6933247887687
 21
189.0558275101525
 31
0.0
  0
LINE
  5
2AA
330
71
100
AcDbEntity
  8
1
  6
Continuous
 62
     6
100
AcDbLine
 10
61.69332478876891
 20
189.0558275101525
 30
0.0
 11
61.69332478876871
 21
224.0558275101525
 31
0.0
  0
LINE
  5
2AB
330
71
100
AcDbEntity
  8
1
  6
Continuous
 62
     2
100
AcDbLine
 10
66.6933247887687
 20
189.0558275101525
 30
0.0
 11
66.6933247887687
 21
244.0558275101525
 31
0.0
  0
LINE
  5
2AC
330
71
100
AcDbEntity
  8
1
  6
Continuous
 62
     2
100
AcDbLine
 10
66.6933247887687
 20
39.05582751015254
 30
0.0
 11
66.6933247887687
 21
89.05582751015265
 31
0.0
  0
LINE
  5
2AD
330
71
100
AcDbEntity
  8
1
  6
Continuous
 62
     2
100
AcDbLine
 10
-81.80667521123027
 20
244.0558275101525
 30
0.0
 11
-230.3066752112294
 21
244.0558275101525
 31
0.0
  0
LINE
  5
2AE
330
71
100
AcDbEntity
  8
1
  6
Continuous
 62
     2
100
AcDbLine
 10
-81.80667521123027
 20
244.0558275101525
 30
0.0
 11
-81.80667521123027
 21
234.8471356654512
 31
0.0
  0
LINE
  5
2AF
330
71
100
AcDbEntity
  8
1
  6
Continuous
 62
     2
100
AcDbLine
 10
-230.3066752112294
 20
34.05582751015243
 30
0.0
 11
-225.3066752112284
 21
34.05582751015243
 31
0.0
  0
LINE
  5
2B0
330
71
100
AcDbEntity
  8
1
  6
Continuous
 62
     2
100
AcDbLine
 10
-230.3066752112294
 20
244.0558275101525
 30
0.0
 11
-230.3066752112294
 21
189.0558275101525
 31
0.0
  0
LINE
  5
2B1
330
71
100
AcDbEntity
  8
1
  6
Continuous
 62
     6
100
AcDbLine
 10
-225.3066752112294
 20
224.0558275101525
 30
0.0
 11
-225.3066752112293
 21
189.0558275101525
 31
0.0
  0
LINE
  5
2B2
330
71
100
AcDbEntity
  8
1
  6
Continuous
 62
     2
100
AcDbLine
 10
-230.3066752112294
 20
189.0558275101525
 30
0.0
 11
-225.3066752112293
 21
189.0558275101525
 31
0.0
  0
LINE
  5
2B3
330
71
100
AcDbEntity
  8
1
  6
Continuous
 62
     2
100
AcDbLine
 10
-230.3066752112294
 20
189.0558275101525
 30
0.0
 11
-230.3066752112294
 21
139.0558275101525
 31
0.0
  0
LINE
  5
2B4
330
71
100
AcDbEntity
  8
1
  6
Continuous
 62
     6
100
AcDbLine
 10
-225.3066752112293
 20
189.0558275101525
 30
0.0
 11
-225.3066752112288
 21
139.0558275101525
 31
0.0
  0
LINE
  5
2B5
330
71
100
AcDbEntity
  8
1
  6
Continuous
 62
     2
100
AcDbLine
 10
-230.3066752112294
 20
139.0558275101525
 30
0.0
 11
-225.3066752112288
 21
139.0558275101525
 31
0.0
  0
LINE
  5
2B6
330
71
100
AcDbEntity
  8
1
  6
Continuous
 62
     2
100
AcDbLine
 10
-230.3066752112294
 20
139.0558275101525
 30
0.0
 11
-230.3066752112294
 21
89.05582751015265
 31
0.0
  0
LINE
  5
2B7
330
71
100
AcDbEntity
  8
1
  6
Continuous
 62
     6
100
AcDbLine
 10
-225.3066752112288
 20
139.0558275101525
 30
0.0
 11
-225.3066752112286
 21
89.05582751015265
 31
0.0
  0
LINE
  5
2B8
330
71
100
AcDbEntity
  8
1
  6
Continuous
 62
     2
100
AcDbLine
 10
-230.3066752112294
 20
89.05582751015265
 30
0.0
 11
-225.3066752112286
 21
89.05582751015265
 31
0.0
  0
LINE
  5
2B9
330
71
100
AcDbEntity
  8
1
  6
Continuous
 62
     2
100
AcDbLine
 10
-230.3066752112294
 20
89.05582751015265
 30
0.0
 11
-230.3066752112294
 21
39.05582751015254
 31
0.0
  0
LINE
  5
2BA
330
71
100
AcDbEntity
  8
1
  6
Continuous
 62
     6
100
AcDbLine
 10
-225.3066752112286
 20
89.05582751015265
 30
0.0
 11
-225.3066752112284
 21
39.05582751015254
 31
0.0
  0
LINE
  5
2BB
330
71
100
AcDbEntity
  8
1
  6
Continuous
 62
     2
100
AcDbLine
 10
-181.8066752112303
 20
34.05582751015243
 30
0.0
 11
-181.8066752112303
 21
39.05582751015254
 31
0.0
  0
LINE
  5
2BC
330
71
100
AcDbEntity
  8
1
  6
Continuous
 62
     2
100
AcDbLine
 10
-181.8066752112303
 20
34.05582751015243
 30
0.0
 11
-131.8066752112305
 21
34.05582751015243
 31
0.0
  0
LINE
  5
2BD
330
71
100
AcDbEntity
  8
1
  6
Continuous
 62
     2
100
AcDbLine
 10
-131.8066752112305
 20
34.05582751015243
 30
0.0
 11
-131.8066752112305
 21
39.05582751015254
 31
0.0
  0
LINE
  5
2BE
330
71
100
AcDbEntity
  8
1
  6
Continuous
 62
     2
100
AcDbLine
 10
-131.8066752112305
 20
34.05582751015243
 30
0.0
 11
-81.80667521123027
 21
34.05582751015243
 31
0.0
  0
LINE
  5
2BF
330
71
100
AcDbEntity
  8
1
  6
Continuous
 62
     2
100
AcDbLine
 10
-81.80667521123027
 20
34.05582751015243
 30
0.0
 11
-81.80667521123027
 21
39.05582751015254
 31
0.0
  0
LINE
  5
2C0
330
71
100
AcDbEntity
  8
1
  6
Continuous
 62
     2
100
AcDbLine
 10
-81.80667521123027
 20
34.05582751015243
 30
0.0
 11
-31.8066752112303
 21
34.05582751015243
 31
0.0
  0
LINE
  5
2C1
330
71
100
AcDbEntity
  8
1
  6
Continuous
 62
     2
100
AcDbLine
 10
-31.8066752112303
 20
34.05582751015243
 30
0.0
 11
-31.8066752112303
 21
39.05582751015254
 31
0.0
  0
LINE
  5
2C2
330
71
100
AcDbEntity
  8
1
  6
Continuous
 62
     2
100
AcDbLine
 10
18.1933247887697
 20
34.05582751015243
 30
0.0
 11
18.1933247887697
 21
39.05582751015254
 31
0.0
  0
LINE
  5
2C3
330
71
100
AcDbEntity
  8
1
  6
Continuous
 62
     2
100
AcDbLine
 10
18.1933247887697
 20
34.05582751015243
 30
0.0
 11
-31.8066752112303
 21
34.05582751015243
 31
0.0
  0
LINE
  5
2C4
330
71
100
AcDbEntity
  8
1
  6
Continuous
 62
     2
100
AcDbLine
 10
-225.3066752112284
 20
39.05582751015254
 30
0.0
 11
-225.3066752112284
 21
34.05582751015243
 31
0.0
  0
LINE
  5
2C5
330
71
100
AcDbEntity
  8
1
  6
Continuous
 62
     2
100
AcDbLine
 10
-225.3066752112284
 20
34.05582751015243
 30
0.0
 11
-181.8066752112303
 21
34.05582751015243
 31
0.0
  0
LINE
  5
2C6
330
71
100
AcDbEntity
  8
1
  6
Continuous
 62
     2
100
AcDbLine
 10
-225.3066752112284
 20
39.05582751015254
 30
0.0
 11
-230.3066752112294
 21
39.05582751015254
 31
0.0
  0
LINE
  5
2C7
330
71
100
AcDbEntity
  8
1
  6
Continuous
 62
     2
100
AcDbLine
 10
-230.3066752112294
 20
39.05582751015254
 30
0.0
 11
-230.3066752112294
 21
34.05582751015243
 31
0.0
  0
LINE
  5
2C8
330
71
100
AcDbEntity
  8
1
  6
Continuous
 62
     6
100
AcDbLine
 10
61.69332478876972
 20
39.05582751015254
 30
0.0
 11
61.69332478877101
 21
47.55582751015254
 31
0.0
  0
LINE
  5
2C9
330
71
100
AcDbEntity
  8
1
  6
Continuous
 62
     6
100
AcDbLine
 10
-31.45147973798038
 20
39.05582751015243
 30
0.0
 11
18.1933247887697
 21
39.05582751015254
 31
0.0
  0
LINE
  5
2CA
330
71
100
AcDbEntity
  8
1
  6
Continuous
 62
     6
100
AcDbLine
 10
-184.1066752112305
 20
39.05582751015243
 30
0.0
 11
-181.8066752112303
 21
39.05582751015254
 31
0.0
  0
LINE
  5
2CB
330
71
100
AcDbEntity
  8
1
  6
Continuous
 62
     6
100
AcDbLine
 10
-81.80667521123027
 20
39.05582751015254
 30
0.0
 11
-131.8066752112305
 21
39.05582751015254
 31
0.0
  0
LINE
  5
2CC
330
71
100
AcDbEntity
  8
1
  6
Continuous
 62
     7
100
AcDbLine
 10
-67.8514797379803
 20
56.05582751015254
 30
0.0
 11
-67.8514797379803
 21
43.30582751015243
 31
0.0
  0
LINE
  5
2CD
330
71
100
AcDbEntity
  8
1
  6
Continuous
 62
     7
100
AcDbLine
 10
-31.45147973798038
 20
56.05582751015254
 30
0.0
 11
-31.45147973798038
 21
43.30582751015254
 31
0.0
  0
LINE
  5
2CE
330
71
100
AcDbEntity
  8
1
  6
Continuous
 62
     6
100
AcDbLine
 10
-184.1066752112305
 20
39.05582751015243
 30
0.0
 11
-190.3066752112285
 21
39.05582751015254
 31
0.0
  0
LINE
  5
2CF
330
71
100
AcDbEntity
  8
1
  6
Continuous
 62
     6
100
AcDbLine
 10
-31.45147973798038
 20
39.05582751015243
 30
0.0
 11
-31.8066752112303
 21
39.05582751015254
 31
0.0
  0
LINE
  5
2D0
330
71
100
AcDbEntity
  8
1
  6
Continuous
 62
     6
100
AcDbLine
 10
61.69332478877141
 20
56.05582751015254
 30
0.0
 11
61.69332478877101
 21
47.55582751015254
 31
0.0
  0
LINE
  5
2D1
330
71
100
AcDbEntity
  8
1
  6
Continuous
 62
     6
100
AcDbLine
 10
-190.3066752112285
 20
39.05582751015254
 30
0.0
 11
-225.3066752112284
 21
39.05582751015254
 31
0.0
  0
LINE
  5
2D2
330
71
100
AcDbEntity
  8
1
  6
Continuous
 62
     2
100
AcDbLine
 10
-63.61482485141769
 20
61.43082751015245
 30
0.0
 11
-58.61482485141769
 21
62.68082751015245
 31
0.0
  0
LINE
  5
2D3
330
71
100
AcDbEntity
  8
1
  6
Continuous
 62
     2
100
AcDbLine
 10
-63.61482485141769
 20
58.93082751015245
 30
0.0
 11
-63.61482485141769
 21
61.43082751015245
 31
0.0
  0
LINE
  5
2D4
330
71
100
AcDbEntity
  8
1
  6
Continuous
 62
     2
100
AcDbLine
 10
-58.61482485141769
 20
57.68082751015245
 30
0.0
 11
-63.61482485141769
 21
58.93082751015245
 31
0.0
  0
LINE
  5
2D5
330
71
100
AcDbEntity
  8
1
  6
Continuous
 62
     2
100
AcDbLine
 10
-58.61482485141769
 20
62.68082751015245
 30
0.0
 11
-58.61482485141769
 21
57.68082751015245
 31
0.0
  0
LINE
  5
2D6
330
71
100
AcDbEntity
  8
1
  6
Continuous
 62
     7
100
AcDbLine
 10
-67.8514797379803
 20
43.30582751015243
 30
0.0
 11
-49.65147973798028
 21
43.30582751015254
 31
0.0
  0
LINE
  5
2D7
330
71
100
AcDbEntity
  8
1
  6
Continuous
 62
     7
100
AcDbLine
 10
-67.8514797379803
 20
43.30582751015243
 30
0.0
 11
-67.8514797379803
 21
39.05582751015243
 31
0.0
  0
LINE
  5
2D8
330
71
100
AcDbEntity
  8
1
  6
Continuous
 62
     7
100
AcDbLine
 10
-31.45147973798038
 20
43.30582751015254
 30
0.0
 11
-31.45147973798038
 21
39.05582751015243
 31
0.0
  0
LINE
  5
2D9
330
71
100
AcDbEntity
  8
1
  6
Continuous
 62
     7
100
AcDbLine
 10
-49.65147973798028
 20
43.30582751015254
 30
0.0
 11
-49.65147973798028
 21
39.05582751015254
 31
0.0
  0
LINE
  5
2DA
330
71
100
AcDbEntity
  8
1
  6
Continuous
 62
     6
100
AcDbLine
 10
-49.65147973798028
 20
39.05582751015254
 30
0.0
 11
-67.8514797379803
 21
39.05582751015243
 31
0.0
  0
LINE
  5
2DB
330
71
100
AcDbEntity
  8
1
  6
Continuous
 62
     7
100
AcDbLine
 10
-49.65147973798028
 20
43.30582751015254
 30
0.0
 11
-31.45147973798038
 21
43.30582751015254
 31
0.0
  0
LINE
  5
2DC
330
71
100
AcDbEntity
  8
1
  6
Continuous
 62
     6
100
AcDbLine
 10
-67.8514797379803
 20
64.55582751015254
 30
0.0
 11
61.69332478877141
 21
64.55582751015254
 31
0.0
  0
ARC
  5
2DD
102
{ACAD_REACTORS
330
345
330
346
102
}
330
71
100
AcDbEntity
  8
0
  6
Continuous
 62
     2
100
AcDbCircle
 10
-52.4598317390203
 20
47.87623227207413
 30
0.0
 40
0.7717997786796947
100
AcDbArc
 50
321.8795802028417
 51
38.1204197971537
  0
ARC
  5
2DE
102
{ACAD_REACTORS
330
345
330
346
102
}
330
71
100
AcDbEntity
  8
0
  6
Continuous
 62
     2
100
AcDbCircle
 10
-52.26009170267389
 20
47.71950109395414
 30
0.0
 40
0.5179085730137442
100
AcDbArc
 50
218.1204197971944
 51
321.8795802027998
  0
ARC
  5
2DF
102
{ACAD_REACTORS
330
345
330
346
102
}
330
71
100
AcDbEntity
  8
0
  6
Continuous
 62
     2
100
AcDbCircle
 10
-52.06035166632779
 20
47.87623227207413
 30
0.0
 40
0.7717997786794676
100
AcDbArc
 50
141.8795802028359
 51
218.1204197971687
  0
ARC
  5
2E0
102
{ACAD_REACTORS
330
345
330
346
102
}
330
71
100
AcDbEntity
  8
0
  6
Continuous
 62
     2
100
AcDbCircle
 10
-52.26009170267389
 20
48.03296345019464
 30
0.0
 40
0.5179085730132998
100
AcDbArc
 50
38.12041979714704
 51
141.8795802028588
  0
ARC
  5
2E1
102
{ACAD_REACTORS
330
33D
330
33E
102
}
330
71
100
AcDbEntity
  8
0
  6
Continuous
 62
     2
100
AcDbCircle
 10
-55.32210583823778
 20
46.46576590666595
 30
0.0
 40
2.227384008973472
100
AcDbArc
 50
58.06909105004063
 51
71.55192388186705
  0
ARC
  5
2E2
102
{ACAD_REACTORS
330
33D
330
33E
102
}
330
71
100
AcDbEntity
  8
0
  6
Continuous
 62
     2
100
AcDbCircle
 10
-55.060378137279
 20
48.08130370141313
 30
0.0
 40
0.5115800601948872
100
AcDbArc
 50
113.3722778881995
 51
151.4785267423044
  0
ARC
  5
2E3
102
{ACAD_REACTORS
330
33D
330
33E
102
}
330
71
100
AcDbEntity
  8
0
  6
Continuous
 62
     2
100
AcDbCircle
 10
-54.68302087919869
 20
47.87623227207413
 30
0.0
 40
0.9410597353332545
100
AcDbArc
 50
151.4785267422669
 51
208.521473257705
  0
ARC
  5
2E4
102
{ACAD_REACTORS
330
33D
330
33E
102
}
330
71
100
AcDbEntity
  8
0
  6
Continuous
 62
     2
100
AcDbCircle
 10
-55.4799787133307
 20
51.18891321733054
 30
0.0
 40
4.852596863498146
100
AcDbArc
 50
275.158144769625
 51
285.9799912583529
  0
ARC
  5
2E5
102
{ACAD_REACTORS
330
33D
330
33E
102
}
330
71
100
AcDbEntity
  8
0
  6
Continuous
 62
     2
100
AcDbCircle
 10
-55.19112261859479
 20
47.98902263410895
 30
0.0
 40
1.639695123939394
100
AcDbArc
 50
195.0618917770895
 51
275.1581447696395
  0
ARC
  5
2E6
102
{ACAD_REACTORS
330
33D
330
33E
102
}
330
71
100
AcDbEntity
  8
0
  6
Continuous
 62
     2
100
AcDbCircle
 10
-55.61025046205759
 20
47.87623227207413
 30
0.0
 40
1.205656168390955
100
AcDbArc
 50
164.9381082228759
 51
195.0618917770944
  0
ARC
  5
2E7
102
{ACAD_REACTORS
330
33D
330
33E
102
}
330
71
100
AcDbEntity
  8
0
  6
Continuous
 62
     2
100
AcDbCircle
 10
-55.19112261859479
 20
47.76344191003923
 30
0.0
 40
1.639695123940521
100
AcDbArc
 50
84.8418552303624
 51
164.938108222886
  0
ARC
  5
2E8
102
{ACAD_REACTORS
330
341
330
342
102
}
330
71
100
AcDbEntity
  8
0
  6
Continuous
 62
     2
100
AcDbCircle
 10
-60.0211368727567
 20
48.91005906642843
 30
0.0
 40
0.3157169230765359
100
AcDbArc
 50
115.374008678353
 51
180.0
  0
ARC
  5
2E9
102
{ACAD_REACTORS
330
341
330
342
102
}
330
71
100
AcDbEntity
  8
0
  6
Continuous
 62
     2
100
AcDbCircle
 10
-60.0211368727567
 20
51.12834226636466
 30
0.0
 40
0.315716923076792
100
AcDbArc
 50
180.0
 51
244.6259913216469
  0
ARC
  5
2EA
102
{ACAD_REACTORS
330
341
330
342
102
}
330
71
100
AcDbEntity
  8
0
  6
Continuous
 62
     2
100
AcDbCircle
 10
-60.01552073744668
 20
50.03104260730234
 30
0.0
 40
2.018561131933266
100
AcDbArc
 50
269.8110329575858
 51
90.18896704241416
  0
ARC
  5
2EB
102
{ACAD_REACTORS
330
341
330
342
102
}
330
71
100
AcDbEntity
  8
0
  6
Continuous
 62
     2
100
AcDbCircle
 10
-60.0211368727567
 20
48.32820765973335
 30
0.0
 40
0.315716923076792
100
AcDbArc
 50
180.0
 51
269.8110329574542
  0
ARC
  5
2EC
102
{ACAD_REACTORS
330
33F
330
340
102
}
330
71
100
AcDbEntity
  8
0
  6
Continuous
 62
     2
100
AcDbCircle
 10
-38.95767665802609
 20
48.08130370141313
 30
0.0
 40
0.5115800601944186
100
AcDbArc
 50
109.3371432194843
 51
151.4785267424221
  0
ARC
  5
2ED
102
{ACAD_REACTORS
330
33F
330
340
102
}
330
71
100
AcDbEntity
  8
0
  6
Continuous
 62
     2
100
AcDbCircle
 10
-38.95767665802609
 20
47.67116084273565
 30
0.0
 40
0.5115800601960346
100
AcDbArc
 50
208.5214732576876
 51
246.6277221118452
  0
ARC
  5
2EE
102
{ACAD_REACTORS
330
33F
330
340
102
}
330
71
100
AcDbEntity
  8
0
  6
Continuous
 62
     2
100
AcDbCircle
 10
-39.50754898280349
 20
47.87623227207413
 30
0.0
 40
1.205656168392999
100
AcDbArc
 50
164.9381082229021
 51
195.0618917770957
  0
ARC
  5
2EF
102
{ACAD_REACTORS
330
33F
330
340
102
}
330
71
100
AcDbEntity
  8
0
  6
Continuous
 62
     2
100
AcDbCircle
 10
-39.08842113934188
 20
47.76344191003923
 30
0.0
 40
1.639695123940221
100
AcDbArc
 50
90.0
 51
164.9381082228944
  0
ARC
  5
2F0
102
{ACAD_REACTORS
330
343
330
344
102
}
330
71
100
AcDbEntity
  8
0
  6
Continuous
 62
     2
100
AcDbCircle
 10
-48.5154162320456
 20
51.23542274824845
 30
0.0
 40
1.52690476190589
100
AcDbArc
 50
90.0
 51
270.0
  0
ARC
  5
2F1
102
{ACAD_REACTORS
330
347
330
348
102
}
330
71
100
AcDbEntity
  8
0
  6
Continuous
 62
     2
100
AcDbCircle
 10
-55.25810697727138
 20
51.74635784004315
 30
0.0
 40
0.3528638246711253
100
AcDbArc
 50
270.0
 51
90.0
  0
ARC
  5
2F2
102
{ACAD_REACTORS
330
341
330
342
102
}
330
71
100
AcDbEntity
  8
0
  6
Continuous
 62
     2
100
AcDbCircle
 10
-62.5966855592884
 20
51.73405503151955
 30
0.0
 40
0.315716923076188
100
AcDbArc
 50
90.0
 51
180.0
  0
ARC
  5
2F3
102
{ACAD_REACTORS
330
341
330
342
102
}
330
71
100
AcDbEntity
  8
0
  6
Continuous
 62
     2
100
AcDbCircle
 10
-60.59826785070379
 20
50.01920066639684
 30
0.0
 40
0.911897523557621
100
AcDbArc
 50
115.194410648528
 51
244.8055893514878
  0
ARC
  5
2F4
102
{ACAD_REACTORS
330
341
330
342
102
}
330
71
100
AcDbEntity
  8
0
  6
Continuous
 62
     2
100
AcDbCircle
 10
-61.12085229827878
 20
48.90837092033405
 30
0.0
 40
0.3157169230766002
100
AcDbArc
 50
0.0
 51
64.80558935146027
  0
ARC
  5
2F5
102
{ACAD_REACTORS
330
341
330
342
102
}
330
71
100
AcDbEntity
  8
0
  6
Continuous
 62
     2
100
AcDbCircle
 10
-63.19058023603489
 20
46.77357212555214
 30
0.0
 40
0.424244615382797
100
AcDbArc
 50
180.0
 51
270.0
  0
ARC
  5
2F6
102
{ACAD_REACTORS
330
343
330
344
102
}
330
71
100
AcDbEntity
  8
0
  6
Continuous
 62
     2
100
AcDbCircle
 10
-48.2991442218804
 20
51.39215392636893
 30
0.0
 40
0.5179085730135309
100
AcDbArc
 50
38.12041979714396
 51
141.8795802028483
  0
ARC
  5
2F7
102
{ACAD_REACTORS
330
343
330
344
102
}
330
71
100
AcDbEntity
  8
0
  6
Continuous
 62
     2
100
AcDbCircle
 10
-48.0994041855341
 20
51.23542274824845
 30
0.0
 40
0.7717997786796724
100
AcDbArc
 50
141.8795802028404
 51
218.1204197971562
  0
ARC
  5
2F8
102
{ACAD_REACTORS
330
345
330
346
102
}
330
71
100
AcDbEntity
  8
0
  6
Continuous
 62
     2
100
AcDbCircle
 10
-52.26009170267389
 20
48.41480728237744
 30
0.0
 40
2.065479772208502
100
AcDbArc
 50
242.4518518243401
 51
297.5481481756873
  0
ARC
  5
2F9
102
{ACAD_REACTORS
330
345
330
346
102
}
330
71
100
AcDbEntity
  8
0
  6
Continuous
 62
     2
100
AcDbCircle
 10
-52.26009170267389
 20
47.33765726177134
 30
0.0
 40
2.065479772208571
100
AcDbArc
 50
62.45185182430619
 51
117.5481481756664
  0
ARC
  5
2FA
102
{ACAD_REACTORS
330
345
330
346
102
}
330
71
100
AcDbEntity
  8
0
  6
Continuous
 62
     2
100
AcDbCircle
 10
-52.54103159450719
 20
47.87623227207413
 30
0.0
 40
1.458034083651496
100
AcDbArc
 50
117.5481481756623
 51
242.4518518243373
  0
ARC
  5
2FB
102
{ACAD_REACTORS
330
345
330
346
102
}
330
71
100
AcDbEntity
  8
0
  6
Continuous
 62
     2
100
AcDbCircle
 10
-51.97915181084059
 20
47.87623227207413
 30
0.0
 40
1.458034083651993
100
AcDbArc
 50
297.5481481757016
 51
62.45185182429883
  0
ARC
  5
2FC
102
{ACAD_REACTORS
330
343
330
344
102
}
330
71
100
AcDbEntity
  8
0
  6
Continuous
 62
     2
100
AcDbCircle
 10
-48.2991442218804
 20
51.07869157012803
 30
0.0
 40
0.5179085730134372
100
AcDbArc
 50
218.1204197971511
 51
321.8795802028566
  0
ARC
  5
2FD
102
{ACAD_REACTORS
330
343
330
344
102
}
330
71
100
AcDbEntity
  8
0
  6
Continuous
 62
     2
100
AcDbCircle
 10
-48.49888425822658
 20
51.23542274824845
 30
0.0
 40
0.7717997786796373
100
AcDbArc
 50
321.8795802028437
 51
38.12041979715956
  0
ARC
  5
2FE
102
{ACAD_REACTORS
330
341
330
342
102
}
330
71
100
AcDbEntity
  8
0
  6
Continuous
 62
     2
100
AcDbCircle
 10
-57.71726814531809
 20
46.77357212555214
 30
0.0
 40
0.4242446153832944
100
AcDbArc
 50
270.0
 51
0.0
  0
ARC
  5
2FF
102
{ACAD_REACTORS
330
341
330
342
102
}
330
71
100
AcDbEntity
  8
0
  6
Continuous
 62
     2
100
AcDbCircle
 10
-57.71726814531809
 20
52.33808289475235
 30
0.0
 40
0.4242446153838841
100
AcDbArc
 50
0.0
 51
90.0
  0
ARC
  5
300
102
{ACAD_REACTORS
330
341
330
342
102
}
330
71
100
AcDbEntity
  8
0
  6
Continuous
 62
     2
100
AcDbCircle
 10
-63.19058023603489
 20
52.33808289475235
 30
0.0
 40
0.424244615383806
100
AcDbArc
 50
90.0
 51
180.0
  0
ARC
  5
301
102
{ACAD_REACTORS
330
341
330
342
102
}
330
71
100
AcDbEntity
  8
0
  6
Continuous
 62
     2
100
AcDbCircle
 10
-61.12085229827878
 20
47.37759998880244
 30
0.0
 40
0.3157169230766996
100
AcDbArc
 50
270.0
 51
0.0
  0
ARC
  5
302
102
{ACAD_REACTORS
330
341
330
342
102
}
330
71
100
AcDbEntity
  8
0
  6
Continuous
 62
     2
100
AcDbCircle
 10
-61.12085229827878
 20
51.13003041245904
 30
0.0
 40
0.3157169230761203
100
AcDbArc
 50
295.1944106485397
 51
0.0
  0
ARC
  5
303
102
{ACAD_REACTORS
330
341
330
342
102
}
330
71
100
AcDbEntity
  8
0
  6
Continuous
 62
     2
100
AcDbCircle
 10
-61.12085229827878
 20
51.73405503151955
 30
0.0
 40
0.3157169230766002
100
AcDbArc
 50
0.0
 51
90.0
  0
ARC
  5
304
102
{ACAD_REACTORS
330
341
330
342
102
}
330
71
100
AcDbEntity
  8
0
  6
Continuous
 62
     2
100
AcDbCircle
 10
-62.5966855592884
 20
47.37759998880244
 30
0.0
 40
0.3157169230756836
100
AcDbArc
 50
180.0
 51
270.0
  0
ARC
  5
305
102
{ACAD_REACTORS
330
347
330
348
102
}
330
71
100
AcDbEntity
  8
0
  6
Continuous
 62
     2
100
AcDbCircle
 10
-54.816634451033
 20
51.70696186882066
 30
0.0
 40
1.055365641333715
100
AcDbArc
 50
270.0
 51
90.0
  0
ARC
  5
306
102
{ACAD_REACTORS
330
33F
330
340
102
}
330
71
100
AcDbEntity
  8
0
  6
Continuous
 62
     2
100
AcDbCircle
 10
-39.08842113934188
 20
47.98902263410895
 30
0.0
 40
1.639695123940442
100
AcDbArc
 50
195.0618917771013
 51
275.1581447696765
  0
ARC
  5
307
102
{ACAD_REACTORS
330
33F
330
340
102
}
330
71
100
AcDbEntity
  8
0
  6
Continuous
 62
     2
100
AcDbCircle
 10
-39.3772772340777
 20
51.18891321733054
 30
0.0
 40
4.852596863498825
100
AcDbArc
 50
275.1581447696364
 51
285.9799912583387
  0
ARC
  5
308
102
{ACAD_REACTORS
330
33F
330
340
102
}
330
71
100
AcDbEntity
  8
0
  6
Continuous
 62
     2
100
AcDbCircle
 10
-39.21940435898489
 20
49.28669863748223
 30
0.0
 40
2.227384008972746
100
AcDbArc
 50
288.4480761181335
 51
301.9309089499396
  0
ARC
  5
309
102
{ACAD_REACTORS
330
33F
330
340
102
}
330
71
100
AcDbEntity
  8
0
  6
Continuous
 62
     2
100
AcDbCircle
 10
-38.80123662532299
 20
48.03315286144564
 30
0.0
 40
0.9059297849852772
100
AcDbArc
 50
246.6277221118187
 51
288.4480761180822
  0
ARC
  5
30A
102
{ACAD_REACTORS
330
33F
330
340
102
}
330
71
100
AcDbEntity
  8
0
  6
Continuous
 62
     2
100
AcDbCircle
 10
-38.5803193999447
 20
47.87623227207413
 30
0.0
 40
0.9410597353349021
100
AcDbArc
 50
151.4785267423623
 51
208.5214732576693
  0
ARC
  5
30B
102
{ACAD_REACTORS
330
33F
330
340
102
}
330
71
100
AcDbEntity
  8
0
  6
Continuous
 62
     2
100
AcDbCircle
 10
-38.81100665992238
 20
47.66334872103025
 30
0.0
 40
0.9545230068260864
100
AcDbArc
 50
90.0
 51
109.3371432194321
  0
ARC
  5
30C
102
{ACAD_REACTORS
330
341
330
342
102
}
330
71
100
AcDbEntity
  8
0
  6
Continuous
 62
     2
100
AcDbCircle
 10
-60.0211368727567
 20
51.73387755487144
 30
0.0
 40
0.3157169230760711
100
AcDbArc
 50
90.18896704254594
 51
180.0
  0
ARC
  5
30D
102
{ACAD_REACTORS
330
341
330
342
102
}
330
71
100
AcDbEntity
  8
0
  6
Continuous
 62
     2
100
AcDbCircle
 10
-60.54717957084458
 20
50.01920066639684
 30
0.0
 40
0.911848150144456
100
AcDbArc
 50
295.374008678176
 51
64.62599132180806
  0
ARC
  5
30E
102
{ACAD_REACTORS
330
33D
330
33E
102
}
330
71
100
AcDbEntity
  8
0
  6
Continuous
 62
     2
100
AcDbCircle
 10
-55.32210583823778
 20
49.28669863748283
 30
0.0
 40
2.227384008972739
100
AcDbArc
 50
288.448076118133
 51
301.9309089499593
  0
ARC
  5
30F
102
{ACAD_REACTORS
330
33D
330
33E
102
}
330
71
100
AcDbEntity
  8
0
  6
Continuous
 62
     2
100
AcDbCircle
 10
-54.90393810457698
 20
48.03315286144564
 30
0.0
 40
0.905929784984922
100
AcDbArc
 50
246.6277221118706
 51
288.4480761181584
  0
ARC
  5
310
102
{ACAD_REACTORS
330
33D
330
33E
102
}
330
71
100
AcDbEntity
  8
0
  6
Continuous
 62
     2
100
AcDbCircle
 10
-55.060378137279
 20
47.67116084273565
 30
0.0
 40
0.5115800601948034
100
AcDbArc
 50
208.5214732576956
 51
246.627722111827
  0
ARC
  5
311
102
{ACAD_REACTORS
330
33D
330
33E
102
}
330
71
100
AcDbEntity
  8
0
  6
Continuous
 62
     2
100
AcDbCircle
 10
-54.90393810457698
 20
47.71931168270254
 30
0.0
 40
0.9059297849853228
100
AcDbArc
 50
71.55192388185348
 51
113.3722778881294
  0
ARC
  5
312
102
{ACAD_REACTORS
330
33D
330
33E
102
}
330
71
100
AcDbEntity
  8
0
  6
Continuous
 62
     2
100
AcDbCircle
 10
-55.4799787133307
 20
44.56355132681824
 30
0.0
 40
4.852596863498075
100
AcDbArc
 50
74.02000874164742
 51
84.84185523037497
  0
CIRCLE
  5
313
102
{ACAD_REACTORS
330
341
330
342
102
}
330
71
100
AcDbEntity
  8
0
  6
Continuous
 62
     2
100
AcDbCircle
 10
-60.57099458551738
 20
50.01920066639684
 30
0.0
 40
0.4709789327785003
  0
CIRCLE
  5
314
330
71
100
AcDbEntity
  8
1
  6
Continuous
 62
     2
100
AcDbCircle
 10
-55.11482485141769
 20
60.18082751015245
 30
0.0
 40
1.249999999999908
  0
CIRCLE
  5
315
330
71
100
AcDbEntity
  8
1
  6
Continuous
 62
     2
100
AcDbCircle
 10
-55.11482485141769
 20
60.18082751015245
 30
0.0
 40
2.5
  0
TEXT
  5
316
330
71
100
AcDbEntity
  8
1
 62
     7
100
AcDbText
 10
-12.4779320159665
 20
57.35582751015244
 30
0.0
 40
2.5
  1
/
 41
0.9
  7
CONVERTER_11
100
AcDbText
  0
TEXT
  5
318
330
71
100
AcDbEntity
  8
1
 62
     7
100
AcDbText
 10
-10.3215675189245
 20
57.35582751015244
 30
0.0
 40
2.5
  1
03
 41
0.81
  7
CONVERTER_12
100
AcDbText
  0
TEXT
  5
319
330
71
100
AcDbEntity
  8
1
 62
     3
100
AcDbText
 10
27.2749165070926
 20
57.35582751015244
 30
0.0
 40
2.5
  1
28.12.2018
 41
0.81
  7
CONVERTER_12
100
AcDbText
  0
MTEXT
  5
31A
330
71
100
AcDbEntity
  8
1
 62
     2
100
AcDbMText
 10
27.2749165070926
 20
63.55582751015245
 30
0.0
 40
1.8
 41
0.0
 71
     1
 72
     1
  1
date
  7
CONVERTER_11
 73
     1
 44
1.32052821128451
  0
MTEXT
  5
31B
330
71
100
AcDbEntity
  8
1
 62
     2
100
AcDbMText
 10
-2.55147973798029
 20
55.05582751015245
 30
0.0
 40
1.8
 41
0.0
 71
     1
 72
     1
  1
document-type
  7
CONVERTER_11
 73
     1
 44
1.20048019207683
  0
TEXT
  5
31C
330
71
100
AcDbEntity
  8
1
 62
     3
100
AcDbText
 10
-2.55147973798029
 20
48.85582751015244
 30
0.0
 40
2.5
  1
TECDOC 2D_Productdrawing
 41
0.81
  7
CONVERTER_12
100
AcDbText
  0
MTEXT
  5
31E
330
71
100
AcDbEntity
  8
1
 62
     2
100
AcDbMText
 10
-30.3514797379803
 20
63.55582751015254
 30
0.0
 40
1.8
 41
0.0
 71
     1
 72
     1
  1
document-No. / RI
  7
CONVERTER_13
 73
     1
 44
1.32052821128451
  0
TEXT
  5
31F
330
71
100
AcDbEntity
  8
1
 62
     7
100
AcDbText
 10
-30.3514797379803
 20
57.35582751015244
 30
0.0
 40
2.5
  1
00580365
 41
0.81
  7
CONVERTER_12
100
AcDbText
  0
MTEXT
  5
321
330
71
100
AcDbEntity
  8
1
 62
     3
100
AcDbMText
 10
57.23412064793202
 20
57.35582751015264
 30
0.0
 40
2.5
 41
0.0
 71
     8
 72
     1
  1
2:1
  7
CONVERTER_14
 73
     1
 44
1.32052821128451
  0
MTEXT
  5
322
330
71
100
AcDbEntity
  8
1
 62
     2
100
AcDbMText
 10
53.87491650709242
 20
63.55582751015254
 30
0.0
 40
1.8
 41
0.0
 71
     1
 72
     1
  1
scale
  7
CONVERTER_11
 73
     1
 44
1.20048019207683
  0
MTEXT
  5
323
330
71
100
AcDbEntity
  8
1
 62
     2
100
AcDbMText
 10
-30.3514797379803
 20
55.05582751015254
 30
0.0
 40
1.8
 41
0.0
 71
     1
 72
     1
  1
ident.-No.
  7
CONVERTER_11
 73
     1
 44
1.20048019207683
  0
TEXT
  5
324
330
71
100
AcDbEntity
  8
1
 62
     7
100
AcDbText
 10
-29.95147973798058
 20
48.85582751015244
 30
0.0
 40
2.5
  1
3213357
 41
0.81
  7
CONVERTER_12
100
AcDbText
  0
MTEXT
  5
325
330
71
100
AcDbEntity
  8
1
 62
     2
100
AcDbMText
 10
-102.2894944630278
 20
51.80582751015245
 30
0.0
 40
2.0
 41
0.0
 71
     5
 72
     1
  1
General Information\P- Simplified representation\P- Document excluded from change process\P- Linear dimensions [mm]
  7
CONVERTER_11
 73
     1
 44
1.20048019207683
  0
MTEXT
  5
326
330
71
100
AcDbEntity
  8
1
 62
     7
100
AcDbMText
 10
64.1933247887687
 20
114.0558275101544
 30
0.0
 40
3.5
 41
0.0
 71
     5
 72
     1
  1
C
  7
CONVERTER_11
 73
     1
 44
1.20048019207683
  0
MTEXT
  5
327
330
71
100
AcDbEntity
  8
1
 62
     7
100
AcDbMText
 10
64.1933247887687
 20
216.5558275101525
 30
0.0
 40
3.5
 41
0.0
 71
     5
 72
     1
  1
A
  7
CONVERTER_11
 73
     1
 44
1.20048019207683
  0
MTEXT
  5
328
330
71
100
AcDbEntity
  8
1
 62
     7
100
AcDbMText
 10
64.1933247887687
 20
164.0558275101544
 30
0.0
 40
3.5
 41
0.0
 71
     5
 72
     1
  1
B
  7
CONVERTER_11
 73
     1
 44
1.20048019207683
  0
MTEXT
  5
329
330
71
100
AcDbEntity
  8
1
 62
     7
100
AcDbMText
 10
64.1933247887687
 20
61.55582751015254
 30
0.0
 40
3.5
 41
0.0
 71
     5
 72
     1
  1
D
  7
CONVERTER_11
 73
     1
 44
1.20048019207683
  0
MTEXT
  5
32A
330
71
100
AcDbEntity
  8
1
 62
     7
100
AcDbMText
 10
-206.0566752112299
 20
36.55582751015243
 30
0.0
 40
3.5
 41
0.0
 71
     5
 72
     1
  1
1
  7
CONVERTER_11
 73
     1
 44
1.20048019207683
  0
MTEXT
  5
32B
330
71
100
AcDbEntity
  8
1
 62
     7
100
AcDbMText
 10
-156.8066752112303
 20
36.55582751015243
 30
0.0
 40
3.5
 41
0.0
 71
     5
 72
     1
  1
2
  7
CONVERTER_11
 73
     1
 44
1.20048019207683
  0
MTEXT
  5
32C
330
71
100
AcDbEntity
  8
1
 62
     7
100
AcDbMText
 10
-106.8066752112303
 20
36.55582751015243
 30
0.0
 40
3.5
 41
0.0
 71
     5
 72
     1
  1
3
  7
CONVERTER_11
 73
     1
 44
1.20048019207683
  0
MTEXT
  5
32D
330
71
100
AcDbEntity
  8
1
 62
     7
100
AcDbMText
 10
-56.80667521123039
 20
36.55582751015243
 30
0.0
 40
3.5
 41
0.0
 71
     5
 72
     1
  1
4
  7
CONVERTER_11
 73
     1
 44
1.20048019207683
  0
MTEXT
  5
32E
330
71
100
AcDbEntity
  8
1
 62
     7
100
AcDbMText
 10
-6.8066752112303
 20
36.55582751015243
 30
0.0
 40
3.5
 41
0.0
 71
     5
 72
     1
  1
5
  7
CONVERTER_11
 73
     1
 44
1.20048019207683
  0
MTEXT
  5
32F
330
71
100
AcDbEntity
  8
1
 62
     7
100
AcDbMText
 10
42.44332478876891
 20
36.55582751015243
 30
0.0
 40
3.5
 41
0.0
 71
     5
 72
     1
  1
6
  7
CONVERTER_11
 73
     1
 44
1.20048019207683
  0
MTEXT
  5
330
330
71
100
AcDbEntity
  8
1
 62
     7
100
AcDbMText
 10
-227.8066752112294
 20
216.5558275101525
 30
0.0
 40
3.5
 41
0.0
 71
     5
 72
     1
  1
A
  7
CONVERTER_11
 73
     1
 44
1.20048019207683
  0
MTEXT
  5
331
330
71
100
AcDbEntity
  8
1
 62
     7
100
AcDbMText
 10
-227.8066752112294
 20
164.0558275101525
 30
0.0
 40
3.5
 41
0.0
 71
     5
 72
     1
  1
B
  7
CONVERTER_11
 73
     1
 44
1.20048019207683
  0
MTEXT
  5
332
330
71
100
AcDbEntity
  8
1
 62
     7
100
AcDbMText
 10
-227.8066752112294
 20
114.0558275101525
 30
0.0
 40
3.5
 41
0.0
 71
     5
 72
     1
  1
C
  7
CONVERTER_11
 73
     1
 44
1.20048019207683
  0
MTEXT
  5
333
330
71
100
AcDbEntity
  8
1
 62
     7
100
AcDbMText
 10
-227.8066752112294
 20
61.55582751015254
 30
0.0
 40
3.5
 41
0.0
 71
     5
 72
     1
  1
D
  7
CONVERTER_11
 73
     1
 44
1.20048019207683
  0
MTEXT
  5
334
330
71
100
AcDbEntity
  8
1
 62
     3
100
AcDbMText
 10
-41.6514797379804
 20
60.18082751015254
 30
0.0
 40
2.5
 41
0.0
 71
     5
 72
     1
  1
DIN A4
  7
CONVERTER_11
 73
     1
 44
1.20048019207683
  0
MTEXT
  5
335
330
71
100
AcDbEntity
  8
1
 62
     2
100
AcDbMText
 10
-30.45147973798038
 20
46.55582751015254
 30
0.0
 40
1.8
 41
0.0
 71
     1
 72
     1
  1
description
  7
CONVERTER_11
 73
     1
 44
1.20048019207683
  0
MTEXT
  5
336
330
71
100
AcDbEntity
  8
1
 62
     7
100
AcDbMText
 10
15.1209225253952
 20
42.30582751015277
 30
0.0
 40
3.0
 41
0.0
 71
     5
 72
     1
  1
PPC 1,5/S/1-L
  7
CONVERTER_12
 73
     1
 44
1.20048019207683
  0
TEXT
  5
337
330
71
100
AcDbEntity
  8
1
 62
     2
100
AcDbText
 10
-43.41617092816679
 20
40.30582751015243
 30
0.0
 40
1.8
  1
1
 41
0.9
  7
CONVERTER_11
100
AcDbText
  0
TEXT
  5
338
330
71
100
AcDbEntity
  8
1
 62
     2
100
AcDbText
 10
-58.2052147676383
 20
40.25657885635053
 30
0.0
 40
1.8
  1
1
 41
0.9
  7
CONVERTER_11
100
AcDbText
  0
TEXT
  5
339
330
71
100
AcDbEntity
  8
1
 62
     2
100
AcDbText
 10
-66.8514797379803
 20
40.29681029516087
 30
0.0
 40
1.8
  1
page
 41
0.9
  7
CONVERTER_11
100
AcDbText
  0
TEXT
  5
33A
330
71
100
AcDbEntity
  8
1
 62
     2
100
AcDbText
 10
-48.65147973798048
 20
40.29681029516092
 30
0.0
 40
1.8
  1
of
 41
0.9
  7
CONVERTER_11
100
AcDbText
  0
MTEXT
  5
33B
330
71
100
AcDbEntity
  8
1
 62
     3
100
AcDbMText
 10
-42.44849758637039
 20
225.8471356654513
 30
0.0
 40
1.8
 41
0.0
 71
     7
 72
     1
  3
Transfer or duplication of this document as well as the utilisation or\Pcommunication of its content are not permitted unless express consent\Pis granted. Violations give rise to claims for damages. All rights reserved\Pin case of patent, utility mo
  1
del or design patent registrations.
  7
CONVERTER_11
 73
     1
 44
0.99639855942377
  0
MTEXT
  5
33C
330
71
100
AcDbEntity
  8
1
 62
     3
100
AcDbMText
 10
-225.3016074251585
 20
225.8471356654513
 30
0.0
 40
1.8
 41
0.0
 71
     7
 72
     1
  3
Weitergabe sowie Vervielf\U+00e4ltigung dieses Dokuments, Verwertung und \PMitteilung seines Inhalts sind verboten, soweit nicht ausdr\U+00fccklich gestattet. \PZuwiderhandlungen verpflichten zu Schadenersatz. Alle Rechte f\U+00fcr den Fall\Pder Pat
  1
ent-, Gebrauchsmuster- oder Designeintragung vorbehalten.
  7
CONVERTER_11
 73
     1
 44
0.99639855942377
  0
HATCH
  5
33D
330
71
100
AcDbEntity
  8
1
  6
Continuous
 62
     2
100
AcDbHatch
 10
0.0
 20
0.0
 30
0.0
210
0.0
220
0.0
230
1.0
  2
_USER
 70
     0
 71
     1
 91
        1
 92
        1
 93
       14
 72
     2
 10
-55.61025046205759
 20
47.87623227207413
 40
1.205656168390955
 50
164.9381082228759
 51
195.0618917770944
 73
     1
 72
     2
 10
-55.19112261859479
 20
47.98902263410895
 40
1.639695123939394
 50
195.0618917770895
 51
275.1581447696395
 73
     1
 72
     2
 10
-55.4799787133307
 20
51.18891321733054
 40
4.852596863498146
 50
275.158144769625
 51
285.9799912583529
 73
     1
 72
     1
 10
-54.1440507962129
 20
46.52383091152973
 11
-54.1440507962129
 21
47.39634791833294
 72
     2
 10
-55.32210583823778
 20
49.28669863748283
 40
2.227384008972739
 50
58.06909105004065
 51
71.55192388186703
 73
     0
 72
     2
 10
-54.90393810457698
 20
48.03315286144564
 40
0.905929784984922
 50
71.55192388184153
 51
113.3722778881294
 73
     0
 72
     2
 10
-55.060378137279
 20
47.67116084273565
 40
0.5115800601948034
 50
113.372277888173
 51
151.4785267423044
 73
     0
 72
     2
 10
-54.68302087919869
 20
47.87623227207413
 40
0.9410597353332545
 50
151.478526742295
 51
208.5214732577331
 73
     0
 72
     2
 10
-55.060378137279
 20
48.08130370141313
 40
0.5115800601948872
 50
208.5214732576956
 51
246.6277221118004
 73
     0
 72
     2
 10
-54.90393810457698
 20
47.71931168270254
 40
0.9059297849853228
 50
246.6277221118706
 51
288.4480761181465
 73
     0
 72
     2
 10
-55.32210583823778
 20
46.46576590666595
 40
2.227384008973472
 50
288.448076118133
 51
301.9309089499594
 73
     0
 72
     1
 10
-54.1440507962129
 20
48.35611662581584
 11
-54.1440507962129
 21
49.22863363261914
 72
     2
 10
-55.4799787133307
 20
44.56355132681824
 40
4.852596863498075
 50
74.02000874164742
 51
84.84185523037497
 73
     1
 72
     2
 10
-55.19112261859479
 20
47.76344191003923
 40
1.639695123940521
 50
84.8418552303624
 51
164.938108222886
 73
     1
 97
       14
330
312
330
22B
330
2E1
330
311
330
2E2
330
2E3
330
310
330
30F
330
30E
330
22C
330
2E4
330
2E5
330
2E6
330
2E7
 75
     1
 76
     0
 52
45.0
 41
0.1
 77
     0
 78
     1
 53
45.0
 43
0.0
 44
0.0
 45
-0.0707106781186548
 46
0.0707106781186548
 79
     0
 98
        1
 10
0.0
 20
0.0
  0
HATCH
  5
33E
330
71
100
AcDbEntity
  8
1
  6
Continuous
 62
     2
100
AcDbHatch
 10
0.0
 20
0.0
 30
0.0
210
0.0
220
0.0
230
1.0
  2
_USER
 70
     0
 71
     1
 91
        1
 92
        1
 93
       14
 72
     2
 10
-55.61025046205759
 20
47.87623227207413
 40
1.205656168390955
 50
164.9381082228759
 51
195.0618917770944
 73
     1
 72
     2
 10
-55.19112261859479
 20
47.98902263410895
 40
1.639695123939394
 50
195.0618917770895
 51
275.1581447696395
 73
     1
 72
     2
 10
-55.4799787133307
 20
51.18891321733054
 40
4.852596863498146
 50
275.158144769625
 51
285.9799912583529
 73
     1
 72
     1
 10
-54.1440507962129
 20
46.52383091152973
 11
-54.1440507962129
 21
47.39634791833294
 72
     2
 10
-55.32210583823778
 20
49.28669863748283
 40
2.227384008972739
 50
58.06909105004065
 51
71.55192388186703
 73
     0
 72
     2
 10
-54.90393810457698
 20
48.03315286144564
 40
0.905929784984922
 50
71.55192388184153
 51
113.3722778881294
 73
     0
 72
     2
 10
-55.060378137279
 20
47.67116084273565
 40
0.5115800601948034
 50
113.372277888173
 51
151.4785267423044
 73
     0
 72
     2
 10
-54.68302087919869
 20
47.87623227207413
 40
0.9410597353332545
 50
151.478526742295
 51
208.5214732577331
 73
     0
 72
     2
 10
-55.060378137279
 20
48.08130370141313
 40
0.5115800601948872
 50
208.5214732576956
 51
246.6277221118004
 73
     0
 72
     2
 10
-54.90393810457698
 20
47.71931168270254
 40
0.9059297849853228
 50
246.6277221118706
 51
288.4480761181465
 73
     0
 72
     2
 10
-55.32210583823778
 20
46.46576590666595
 40
2.227384008973472
 50
288.448076118133
 51
301.9309089499594
 73
     0
 72
     1
 10
-54.1440507962129
 20
48.35611662581584
 11
-54.1440507962129
 21
49.22863363261914
 72
     2
 10
-55.4799787133307
 20
44.56355132681824
 40
4.852596863498075
 50
74.02000874164742
 51
84.84185523037497
 73
     1
 72
     2
 10
-55.19112261859479
 20
47.76344191003923
 40
1.639695123940521
 50
84.8418552303624
 51
164.938108222886
 73
     1
 97
       14
330
312
330
22B
330
2E1
330
311
330
2E2
330
2E3
330
310
330
30F
330
30E
330
22C
330
2E4
330
2E5
330
2E6
330
2E7
 75
     1
 76
     0
 52
45.0
 41
0.1
 77
     0
 78
     1
 53
45.0
 43
0.0
 44
0.0
 45
-0.0707106781186548
 46
0.0707106781186548
 79
     0
 98
        1
 10
0.0
 20
0.0
  0
HATCH
  5
33F
330
71
100
AcDbEntity
  8
1
  6
Continuous
 62
     2
100
AcDbHatch
 10
0.0
 20
0.0
 30
0.0
210
0.0
220
0.0
230
1.0
  2
_USER
 70
     0
 71
     1
 91
        1
 92
        1
 93
       18
 72
     2
 10
-39.08842113934188
 20
47.76344191003923
 40
1.639695123940221
 50
90.0
 51
164.9381082228944
 73
     1
 72
     2
 10
-39.50754898280349
 20
47.87623227207413
 40
1.205656168392999
 50
164.9381082229021
 51
195.0618917770957
 73
     1
 72
     2
 10
-39.08842113934188
 20
47.98902263410895
 40
1.639695123940442
 50
195.0618917771013
 51
275.1581447696765
 73
     1
 72
     2
 10
-39.3772772340777
 20
51.18891321733054
 40
4.852596863498825
 50
275.1581447696364
 51
285.9799912583387
 73
     1
 72
     1
 10
-38.04134931696098
 20
46.52383091152913
 11
-38.04134931696098
 21
47.39634791833245
 72
     2
 10
-39.21940435898489
 20
49.28669863748223
 40
2.227384008972746
 50
58.0690910500604
 51
71.55192388186651
 73
     0
 72
     2
 10
-38.80123662532299
 20
48.03315286144564
 40
0.9059297849852772
 50
71.55192388191786
 51
113.3722778881813
 73
     0
 72
     2
 10
-38.95767665802609
 20
47.67116084273565
 40
0.5115800601960346
 50
113.3722778881548
 51
151.4785267423124
 73
     0
 72
     2
 10
-38.5803193999447
 20
47.87623227207413
 40
0.9410597353349021
 50
151.4785267423307
 51
208.5214732576377
 73
     0
 72
     2
 10
-38.95767665802609
 20
48.08130370141313
 40
0.5115800601944186
 50
208.5214732575778
 51
250.6628567805157
 73
     0
 72
     2
 10
-38.81100665992238
 20
47.66334872103025
 40
0.9545230068260864
 50
250.6628567805678
 51
270.0
 73
     0
 72
     1
 10
-38.81100665992238
 20
48.61787172785634
 11
-37.70736736035428
 21
48.61787172785634
 72
     1
 10
-37.70736736035428
 20
48.61787172785634
 11
-37.70736736035428
 21
46.34932751016885
 72
     1
 10
-37.70736736035428
 20
46.34932751016885
 11
-36.51457465818658
 21
46.34932751016885
 72
     1
 10
-36.51457465818658
 20
46.34932751016885
 11
-36.51457465818658
 21
48.61787172785634
 72
     1
 10
-36.51457465818658
 20
48.61787172785634
 11
-35.70347562071319
 21
48.61787172785634
 72
     1
 10
-35.70347562071319
 20
48.61787172785634
 11
-35.70347562071319
 21
49.40313703397993
 72
     1
 10
-35.70347562071319
 20
49.40313703397993
 11
-39.08842113934188
 21
49.40313703397945
 97
       18
330
291
330
290
330
28F
330
28E
330
293
330
22D
330
30B
330
2EC
330
30A
330
2ED
330
309
330
308
330
22E
330
307
330
306
330
2EE
330
2EF
330
292
 75
     1
 76
     0
 52
45.0
 41
0.1
 77
     0
 78
     1
 53
45.0
 43
0.0
 44
0.0
 45
-0.0707106781186548
 46
0.0707106781186548
 79
     0
 98
        1
 10
0.0
 20
0.0
  0
HATCH
  5
340
330
71
100
AcDbEntity
  8
1
  6
Continuous
 62
     2
100
AcDbHatch
 10
0.0
 20
0.0
 30
0.0
210
0.0
220
0.0
230
1.0
  2
_USER
 70
     0
 71
     1
 91
        1
 92
        1
 93
       18
 72
     2
 10
-39.08842113934188
 20
47.76344191003923
 40
1.639695123940221
 50
90.0
 51
164.9381082228944
 73
     1
 72
     2
 10
-39.50754898280349
 20
47.87623227207413
 40
1.205656168392999
 50
164.9381082229021
 51
195.0618917770957
 73
     1
 72
     2
 10
-39.08842113934188
 20
47.98902263410895
 40
1.639695123940442
 50
195.0618917771013
 51
275.1581447696765
 73
     1
 72
     2
 10
-39.3772772340777
 20
51.18891321733054
 40
4.852596863498825
 50
275.1581447696364
 51
285.9799912583387
 73
     1
 72
     1
 10
-38.04134931696098
 20
46.52383091152913
 11
-38.04134931696098
 21
47.39634791833245
 72
     2
 10
-39.21940435898489
 20
49.28669863748223
 40
2.227384008972746
 50
58.0690910500604
 51
71.55192388186651
 73
     0
 72
     2
 10
-38.80123662532299
 20
48.03315286144564
 40
0.9059297849852772
 50
71.55192388191786
 51
113.3722778881813
 73
     0
 72
     2
 10
-38.95767665802609
 20
47.67116084273565
 40
0.5115800601960346
 50
113.3722778881548
 51
151.4785267423124
 73
     0
 72
     2
 10
-38.5803193999447
 20
47.87623227207413
 40
0.9410597353349021
 50
151.4785267423307
 51
208.5214732576377
 73
     0
 72
     2
 10
-38.95767665802609
 20
48.08130370141313
 40
0.5115800601944186
 50
208.5214732575778
 51
250.6628567805157
 73
     0
 72
     2
 10
-38.81100665992238
 20
47.66334872103025
 40
0.9545230068260864
 50
250.6628567805678
 51
270.0
 73
     0
 72
     1
 10
-38.81100665992238
 20
48.61787172785634
 11
-37.70736736035428
 21
48.61787172785634
 72
     1
 10
-37.70736736035428
 20
48.61787172785634
 11
-37.70736736035428
 21
46.34932751016885
 72
     1
 10
-37.70736736035428
 20
46.34932751016885
 11
-36.51457465818658
 21
46.34932751016885
 72
     1
 10
-36.51457465818658
 20
46.34932751016885
 11
-36.51457465818658
 21
48.61787172785634
 72
     1
 10
-36.51457465818658
 20
48.61787172785634
 11
-35.70347562071319
 21
48.61787172785634
 72
     1
 10
-35.70347562071319
 20
48.61787172785634
 11
-35.70347562071319
 21
49.40313703397993
 72
     1
 10
-35.70347562071319
 20
49.40313703397993
 11
-39.08842113934188
 21
49.40313703397945
 97
       18
330
291
330
290
330
28F
330
28E
330
293
330
22D
330
30B
330
2EC
330
30A
330
2ED
330
309
330
308
330
22E
330
307
330
306
330
2EE
330
2EF
330
292
 75
     1
 76
     0
 52
45.0
 41
0.1
 77
     0
 78
     1
 53
45.0
 43
0.0
 44
0.0
 45
-0.0707106781186548
 46
0.0707106781186548
 79
     0
 98
        1
 10
0.0
 20
0.0
  0
HATCH
  5
341
330
71
100
AcDbEntity
  8
1
  6
Continuous
 62
     2
100
AcDbHatch
 10
0.0
 20
0.0
 30
0.0
210
0.0
220
0.0
230
1.0
  2
_USER
 70
     0
 71
     1
 91
        4
 92
        1
 93
        8
 72
     2
 10
-63.19058023603489
 20
52.33808289475235
 40
0.424244615383806
 50
90.0
 51
180.0
 73
     1
 72
     1
 10
-63.61482485141769
 20
52.33808289475235
 11
-63.61482485141769
 21
46.77357212555214
 72
     2
 10
-63.19058023603489
 20
46.77357212555214
 40
0.424244615382797
 50
180.0
 51
270.0
 73
     1
 72
     1
 10
-63.19058023603489
 20
46.34932751016885
 11
-57.71726814531809
 21
46.34932751016885
 72
     2
 10
-57.71726814531809
 20
46.77357212555214
 40
0.4242446153832944
 50
270.0
 51
360.0
 73
     1
 72
     1
 10
-57.2930235299342
 20
46.77357212555214
 11
-57.2930235299342
 21
52.33808289475235
 72
     2
 10
-57.71726814531809
 20
52.33808289475235
 40
0.4242446153838841
 50
0.0
 51
90.0
 73
     1
 72
     1
 10
-57.71726814531809
 20
52.76232751013615
 11
-63.19058023603489
 21
52.76232751013615
 97
        8
330
2FF
330
25C
330
2FE
330
25D
330
2F5
330
25A
330
300
330
25B
 92
       16
 93
        1
 72
     2
 10
-60.57099458551738
 20
50.01920066639684
 40
0.4709789327785003
 50
0.0
 51
360.0
 73
     1
 97
        1
330
313
 92
       16
 93
        8
 72
     2
 10
-60.54717957084458
 20
50.01920066639684
 40
0.911848150144456
 50
295.374008678176
 51
424.625991321808
 73
     1
 72
     2
 10
-60.0211368727567
 20
51.12834226636466
 40
0.315716923076792
 50
115.374008678353
 51
180.0
 73
     0
 72
     1
 10
-60.33685379583349
 20
51.12834226636466
 11
-60.33685379583349
 21
51.73387755487144
 72
     2
 10
-60.0211368727567
 20
51.73387755487144
 40
0.3157169230760711
 50
180.0
 51
269.8110329574541
 73
     0
 72
     2
 10
-60.01552073744668
 20
50.03104260730234
 40
2.018561131933266
 50
269.8110329575858
 51
450.1889670424142
 73
     0
 72
     2
 10
-60.0211368727567
 20
48.32820765973335
 40
0.315716923076792
 50
90.18896704254585
 51
180.0
 73
     0
 72
     1
 10
-60.33685379583349
 20
48.32820765973335
 11
-60.33685379583349
 21
48.91005906642843
 72
     2
 10
-60.0211368727567
 20
48.91005906642843
 40
0.3157169230765359
 50
180.0
 51
244.6259913216469
 73
     0
 97
        8
330
30D
330
2E9
330
295
330
30C
330
2EA
330
2EB
330
294
330
2E8
 92
       16
 93
       12
 72
     1
 10
-62.5966855592884
 20
47.06188306572574
 11
-61.12085229827878
 21
47.06188306572574
 72
     2
 10
-61.12085229827878
 20
47.37759998880244
 40
0.3157169230766996
 50
270.0
 51
360.0
 73
     1
 72
     1
 10
-60.80513537520218
 20
47.37759998880244
 11
-60.80513537520218
 21
48.90837092033405
 72
     2
 10
-61.12085229827878
 20
48.90837092033405
 40
0.3157169230766002
 50
0.0
 51
64.80558935146027
 73
     1
 72
     2
 10
-60.59826785070379
 20
50.01920066639684
 40
0.911897523557621
 50
115.1944106485122
 51
244.805589351472
 73
     0
 72
     2
 10
-61.12085229827878
 20
51.13003041245904
 40
0.3157169230761203
 50
295.1944106485397
 51
360.0
 73
     1
 72
     1
 10
-60.80513537520218
 20
51.13003041245904
 11
-60.80513537520218
 21
51.73405503151955
 72
     2
 10
-61.12085229827878
 20
51.73405503151955
 40
0.3157169230766002
 50
0.0
 51
90.0
 73
     1
 72
     1
 10
-61.12085229827878
 20
52.04977195459574
 11
-62.5966855592884
 21
52.04977195459574
 72
     2
 10
-62.5966855592884
 20
51.73405503151955
 40
0.315716923076188
 50
90.0
 51
180.0
 73
     1
 72
     1
 10
-62.91240248236409
 20
51.73405503151955
 11
-62.91240248236409
 21
47.37759998880244
 72
     2
 10
-62.5966855592884
 20
47.37759998880244
 40
0.3157169230756836
 50
180.0
 51
270.0
 73
     1
 97
       12
330
261
330
2F2
330
260
330
303
330
25F
330
302
330
2F3
330
2F4
330
25E
330
301
330
259
330
304
 75
     1
 76
     0
 52
45.0
 41
0.1
 77
     0
 78
     1
 53
45.0
 43
0.0
 44
0.0
 45
-0.0707106781186548
 46
0.0707106781186548
 79
     0
 98
        1
 10
0.0
 20
0.0
  0
HATCH
  5
342
330
71
100
AcDbEntity
  8
1
  6
Continuous
 62
     2
100
AcDbHatch
 10
0.0
 20
0.0
 30
0.0
210
0.0
220
0.0
230
1.0
  2
_USER
 70
     0
 71
     1
 91
        4
 92
        1
 93
        8
 72
     2
 10
-63.19058023603489
 20
52.33808289475235
 40
0.424244615383806
 50
90.0
 51
180.0
 73
     1
 72
     1
 10
-63.61482485141769
 20
52.33808289475235
 11
-63.61482485141769
 21
46.77357212555214
 72
     2
 10
-63.19058023603489
 20
46.77357212555214
 40
0.424244615382797
 50
180.0
 51
270.0
 73
     1
 72
     1
 10
-63.19058023603489
 20
46.34932751016885
 11
-57.71726814531809
 21
46.34932751016885
 72
     2
 10
-57.71726814531809
 20
46.77357212555214
 40
0.4242446153832944
 50
270.0
 51
360.0
 73
     1
 72
     1
 10
-57.2930235299342
 20
46.77357212555214
 11
-57.2930235299342
 21
52.33808289475235
 72
     2
 10
-57.71726814531809
 20
52.33808289475235
 40
0.4242446153838841
 50
0.0
 51
90.0
 73
     1
 72
     1
 10
-57.71726814531809
 20
52.76232751013615
 11
-63.19058023603489
 21
52.76232751013615
 97
        8
330
2FF
330
25C
330
2FE
330
25D
330
2F5
330
25A
330
300
330
25B
 92
       16
 93
        1
 72
     2
 10
-60.57099458551738
 20
50.01920066639684
 40
0.4709789327785003
 50
0.0
 51
360.0
 73
     1
 97
        1
330
313
 92
       16
 93
        8
 72
     2
 10
-60.54717957084458
 20
50.01920066639684
 40
0.911848150144456
 50
295.374008678176
 51
424.625991321808
 73
     1
 72
     2
 10
-60.0211368727567
 20
51.12834226636466
 40
0.315716923076792
 50
115.374008678353
 51
180.0
 73
     0
 72
     1
 10
-60.33685379583349
 20
51.12834226636466
 11
-60.33685379583349
 21
51.73387755487144
 72
     2
 10
-60.0211368727567
 20
51.73387755487144
 40
0.3157169230760711
 50
180.0
 51
269.8110329574541
 73
     0
 72
     2
 10
-60.01552073744668
 20
50.03104260730234
 40
2.018561131933266
 50
269.8110329575858
 51
450.1889670424142
 73
     0
 72
     2
 10
-60.0211368727567
 20
48.32820765973335
 40
0.315716923076792
 50
90.18896704254585
 51
180.0
 73
     0
 72
     1
 10
-60.33685379583349
 20
48.32820765973335
 11
-60.33685379583349
 21
48.91005906642843
 72
     2
 10
-60.0211368727567
 20
48.91005906642843
 40
0.3157169230765359
 50
180.0
 51
244.6259913216469
 73
     0
 97
        8
330
30D
330
2E9
330
295
330
30C
330
2EA
330
2EB
330
294
330
2E8
 92
       16
 93
       12
 72
     1
 10
-62.5966855592884
 20
47.06188306572574
 11
-61.12085229827878
 21
47.06188306572574
 72
     2
 10
-61.12085229827878
 20
47.37759998880244
 40
0.3157169230766996
 50
270.0
 51
360.0
 73
     1
 72
     1
 10
-60.80513537520218
 20
47.37759998880244
 11
-60.80513537520218
 21
48.90837092033405
 72
     2
 10
-61.12085229827878
 20
48.90837092033405
 40
0.3157169230766002
 50
0.0
 51
64.80558935146027
 73
     1
 72
     2
 10
-60.59826785070379
 20
50.01920066639684
 40
0.911897523557621
 50
115.1944106485122
 51
244.805589351472
 73
     0
 72
     2
 10
-61.12085229827878
 20
51.13003041245904
 40
0.3157169230761203
 50
295.1944106485397
 51
360.0
 73
     1
 72
     1
 10
-60.80513537520218
 20
51.13003041245904
 11
-60.80513537520218
 21
51.73405503151955
 72
     2
 10
-61.12085229827878
 20
51.73405503151955
 40
0.3157169230766002
 50
0.0
 51
90.0
 73
     1
 72
     1
 10
-61.12085229827878
 20
52.04977195459574
 11
-62.5966855592884
 21
52.04977195459574
 72
     2
 10
-62.5966855592884
 20
51.73405503151955
 40
0.315716923076188
 50
90.0
 51
180.0
 73
     1
 72
     1
 10
-62.91240248236409
 20
51.73405503151955
 11
-62.91240248236409
 21
47.37759998880244
 72
     2
 10
-62.5966855592884
 20
47.37759998880244
 40
0.3157169230756836
 50
180.0
 51
270.0
 73
     1
 97
       12
330
261
330
2F2
330
260
330
303
330
25F
330
302
330
2F3
330
2F4
330
25E
330
301
330
259
330
304
 75
     1
 76
     0
 52
45.0
 41
0.1
 77
     0
 78
     1
 53
45.0
 43
0.0
 44
0.0
 45
-0.0707106781186548
 46
0.0707106781186548
 79
     0
 98
        1
 10
0.0
 20
0.0
  0
HATCH
  5
343
330
71
100
AcDbEntity
  8
1
  6
Continuous
 62
     2
100
AcDbHatch
 10
0.0
 20
0.0
 30
0.0
210
0.0
220
0.0
230
1.0
  2
_USER
 70
     0
 71
     1
 91
        2
 92
        1
 93
       12
 72
     2
 10
-48.5154162320456
 20
51.23542274824845
 40
1.52690476190589
 50
90.0
 51
270.0
 73
     1
 72
     1
 10
-48.5154162320456
 20
49.70851798634314
 11
-45.3650965082646
 21
49.70851798634314
 72
     1
 10
-45.3650965082646
 20
49.70851798634314
 11
-45.3650965082646
 21
50.40653159178564
 72
     1
 10
-45.3650965082646
 20
50.40653159178564
 11
-46.70102433469228
 21
50.40653159178564
 72
     1
 10
-46.70102433469228
 20
50.40653159178564
 11
-46.70102433469228
 21
50.88641594552735
 72
     1
 10
-46.70102433469228
 20
50.88641594552735
 11
-45.3650965082646
 21
50.88641594552735
 72
     1
 10
-45.3650965082646
 20
50.88641594552735
 11
-45.3650965082646
 21
51.58442955096965
 72
     1
 10
-45.3650965082646
 20
51.58442955096965
 11
-46.70102433469228
 21
51.58442955096965
 72
     1
 10
-46.70102433469228
 20
51.58442955096965
 11
-46.70102433469228
 21
52.06431390471136
 72
     1
 10
-46.70102433469228
 20
52.06431390471136
 11
-45.3650965082646
 21
52.06431390471136
 72
     1
 10
-45.3650965082646
 20
52.06431390471136
 11
-45.3650965082646
 21
52.76232751015434
 72
     1
 10
-45.3650965082646
 20
52.76232751015434
 11
-48.5154162320456
 21
52.76232751015434
 97
       12
330
250
330
24A
330
271
330
270
330
26F
330
26E
330
24B
330
24C
330
24D
330
24E
330
2F0
330
24F
 92
       16
 93
        4
 72
     2
 10
-48.0994041855341
 20
51.23542274824845
 40
0.7717997786796724
 50
141.8795802028404
 51
218.1204197971562
 73
     1
 72
     2
 10
-48.2991442218804
 20
51.07869157012803
 40
0.5179085730134372
 50
218.1204197971511
 51
321.8795802028566
 73
     1
 72
     2
 10
-48.49888425822658
 20
51.23542274824845
 40
0.7717997786796373
 50
321.8795802028437
 51
398.1204197971596
 73
     1
 72
     2
 10
-48.2991442218804
 20
51.39215392636893
 40
0.5179085730135309
 50
38.12041979714396
 51
141.8795802028483
 73
     1
 97
        4
330
2FD
330
2FC
330
2F7
330
2F6
 75
     1
 76
     0
 52
45.0
 41
0.1
 77
     0
 78
     1
 53
45.0
 43
0.0
 44
0.0
 45
-0.0707106781186548
 46
0.0707106781186548
 79
     0
 98
        1
 10
0.0
 20
0.0
  0
HATCH
  5
344
330
71
100
AcDbEntity
  8
1
  6
Continuous
 62
     2
100
AcDbHatch
 10
0.0
 20
0.0
 30
0.0
210
0.0
220
0.0
230
1.0
  2
_USER
 70
     0
 71
     1
 91
        2
 92
        1
 93
       12
 72
     2
 10
-48.5154162320456
 20
51.23542274824845
 40
1.52690476190589
 50
90.0
 51
270.0
 73
     1
 72
     1
 10
-48.5154162320456
 20
49.70851798634314
 11
-45.3650965082646
 21
49.70851798634314
 72
     1
 10
-45.3650965082646
 20
49.70851798634314
 11
-45.3650965082646
 21
50.40653159178564
 72
     1
 10
-45.3650965082646
 20
50.40653159178564
 11
-46.70102433469228
 21
50.40653159178564
 72
     1
 10
-46.70102433469228
 20
50.40653159178564
 11
-46.70102433469228
 21
50.88641594552735
 72
     1
 10
-46.70102433469228
 20
50.88641594552735
 11
-45.3650965082646
 21
50.88641594552735
 72
     1
 10
-45.3650965082646
 20
50.88641594552735
 11
-45.3650965082646
 21
51.58442955096965
 72
     1
 10
-45.3650965082646
 20
51.58442955096965
 11
-46.70102433469228
 21
51.58442955096965
 72
     1
 10
-46.70102433469228
 20
51.58442955096965
 11
-46.70102433469228
 21
52.06431390471136
 72
     1
 10
-46.70102433469228
 20
52.06431390471136
 11
-45.3650965082646
 21
52.06431390471136
 72
     1
 10
-45.3650965082646
 20
52.06431390471136
 11
-45.3650965082646
 21
52.76232751015434
 72
     1
 10
-45.3650965082646
 20
52.76232751015434
 11
-48.5154162320456
 21
52.76232751015434
 97
       12
330
250
330
24A
330
271
330
270
330
26F
330
26E
330
24B
330
24C
330
24D
330
24E
330
2F0
330
24F
 92
       16
 93
        4
 72
     2
 10
-48.0994041855341
 20
51.23542274824845
 40
0.7717997786796724
 50
141.8795802028404
 51
218.1204197971562
 73
     1
 72
     2
 10
-48.2991442218804
 20
51.07869157012803
 40
0.5179085730134372
 50
218.1204197971511
 51
321.8795802028566
 73
     1
 72
     2
 10
-48.49888425822658
 20
51.23542274824845
 40
0.7717997786796373
 50
321.8795802028437
 51
398.1204197971596
 73
     1
 72
     2
 10
-48.2991442218804
 20
51.39215392636893
 40
0.5179085730135309
 50
38.12041979714396
 51
141.8795802028483
 73
     1
 97
        4
330
2FD
330
2FC
330
2F7
330
2F6
 75
     1
 76
     0
 52
45.0
 41
0.1
 77
     0
 78
     1
 53
45.0
 43
0.0
 44
0.0
 45
-0.0707106781186548
 46
0.0707106781186548
 79
     0
 98
        1
 10
0.0
 20
0.0
  0
HATCH
  5
345
330
71
100
AcDbEntity
  8
1
  6
Continuous
 62
     2
100
AcDbHatch
 10
0.0
 20
0.0
 30
0.0
210
0.0
220
0.0
230
1.0
  2
_USER
 70
     0
 71
     1
 91
        2
 92
        1
 93
        4
 72
     2
 10
-52.54103159450719
 20
47.87623227207413
 40
1.458034083651496
 50
117.5481481756623
 51
242.4518518243373
 73
     1
 72
     2
 10
-52.26009170267389
 20
48.41480728237744
 40
2.065479772208502
 50
242.4518518243401
 51
297.5481481756873
 73
     1
 72
     2
 10
-51.97915181084059
 20
47.87623227207413
 40
1.458034083651993
 50
297.5481481757016
 51
422.4518518242989
 73
     1
 72
     2
 10
-52.26009170267389
 20
47.33765726177134
 40
2.065479772208571
 50
62.45185182430619
 51
117.5481481756664
 73
     1
 97
        4
330
2FB
330
2F8
330
2FA
330
2F9
 92
       16
 93
        4
 72
     2
 10
-52.26009170267389
 20
48.03296345019464
 40
0.5179085730132998
 50
38.12041979714704
 51
141.8795802028588
 73
     1
 72
     2
 10
-52.06035166632779
 20
47.87623227207413
 40
0.7717997786794676
 50
141.8795802028359
 51
218.1204197971687
 73
     1
 72
     2
 10
-52.26009170267389
 20
47.71950109395414
 40
0.5179085730137442
 50
218.1204197971944
 51
321.8795802027998
 73
     1
 72
     2
 10
-52.4598317390203
 20
47.87623227207413
 40
0.7717997786796947
 50
321.8795802028417
 51
398.1204197971537
 73
     1
 97
        4
330
2DE
330
2DF
330
2E0
330
2DD
 75
     1
 76
     0
 52
45.0
 41
0.1
 77
     0
 78
     1
 53
45.0
 43
0.0
 44
0.0
 45
-0.0707106781186548
 46
0.0707106781186548
 79
     0
 98
        1
 10
0.0
 20
0.0
  0
HATCH
  5
346
330
71
100
AcDbEntity
  8
1
  6
Continuous
 62
     2
100
AcDbHatch
 10
0.0
 20
0.0
 30
0.0
210
0.0
220
0.0
230
1.0
  2
_USER
 70
     0
 71
     1
 91
        2
 92
        1
 93
        4
 72
     2
 10
-52.54103159450719
 20
47.87623227207413
 40
1.458034083651496
 50
117.5481481756623
 51
242.4518518243373
 73
     1
 72
     2
 10
-52.26009170267389
 20
48.41480728237744
 40
2.065479772208502
 50
242.4518518243401
 51
297.5481481756873
 73
     1
 72
     2
 10
-51.97915181084059
 20
47.87623227207413
 40
1.458034083651993
 50
297.5481481757016
 51
422.4518518242989
 73
     1
 72
     2
 10
-52.26009170267389
 20
47.33765726177134
 40
2.065479772208571
 50
62.45185182430619
 51
117.5481481756664
 73
     1
 97
        4
330
2FB
330
2F8
330
2FA
330
2F9
 92
       16
 93
        4
 72
     2
 10
-52.26009170267389
 20
48.03296345019464
 40
0.5179085730132998
 50
38.12041979714704
 51
141.8795802028588
 73
     1
 72
     2
 10
-52.06035166632779
 20
47.87623227207413
 40
0.7717997786794676
 50
141.8795802028359
 51
218.1204197971687
 73
     1
 72
     2
 10
-52.26009170267389
 20
47.71950109395414
 40
0.5179085730137442
 50
218.1204197971944
 51
321.8795802027998
 73
     1
 72
     2
 10
-52.4598317390203
 20
47.87623227207413
 40
0.7717997786796947
 50
321.8795802028417
 51
398.1204197971537
 73
     1
 97
        4
330
2DE
330
2DF
330
2E0
330
2DD
 75
     1
 76
     0
 52
45.0
 41
0.1
 77
     0
 78
     1
 53
45.0
 43
0.0
 44
0.0
 45
-0.0707106781186548
 46
0.0707106781186548
 79
     0
 98
        1
 10
0.0
 20
0.0
  0
HATCH
  5
347
330
71
100
AcDbEntity
  8
1
  6
Continuous
 62
     2
100
AcDbHatch
 10
0.0
 20
0.0
 30
0.0
210
0.0
220
0.0
230
1.0
  2
_USER
 70
     0
 71
     1
 91
        2
 92
        1
 93
        6
 72
     1
 10
-56.8159064490674
 20
52.76232751015434
 11
-56.8159064490674
 21
49.70851798634314
 72
     1
 10
-56.8159064490674
 20
49.70851798634314
 11
-55.57540203881328
 21
49.70851798634314
 72
     1
 10
-55.57540203881328
 20
49.70851798634314
 11
-55.57540203881328
 21
50.65159622748695
 72
     1
 10
-55.57540203881328
 20
50.65159622748695
 11
-54.816634451033
 21
50.65159622748695
 72
     2
 10
-54.816634451033
 20
51.70696186882066
 40
1.055365641333715
 50
270.0
 51
450.0
 73
     1
 72
     1
 10
-54.816634451033
 20
52.76232751015434
 11
-56.8159064490674
 21
52.76232751015434
 97
        6
330
305
330
262
330
258
330
257
330
264
330
263
 92
       16
 93
        4
 72
     1
 10
-55.25810697727138
 20
52.09922166471424
 11
-55.57540203881328
 21
52.09922166471424
 72
     1
 10
-55.57540203881328
 20
52.09922166471424
 11
-55.57540203881328
 21
51.39349401537203
 72
     1
 10
-55.57540203881328
 20
51.39349401537203
 11
-55.25810697727138
 21
51.39349401537203
 72
     2
 10
-55.25810697727138
 20
51.74635784004315
 40
0.3528638246711253
 50
270.0
 51
450.0
 73
     1
 97
        4
330
265
330
256
330
266
330
2F1
 75
     1
 76
     0
 52
45.0
 41
0.1
 77
     0
 78
     1
 53
45.0
 43
0.0
 44
0.0
 45
-0.0707106781186548
 46
0.0707106781186548
 79
     0
 98
        1
 10
0.0
 20
0.0
  0
HATCH
  5
348
330
71
100
AcDbEntity
  8
1
  6
Continuous
 62
     2
100
AcDbHatch
 10
0.0
 20
0.0
 30
0.0
210
0.0
220
0.0
230
1.0
  2
_USER
 70
     0
 71
     1
 91
        2
 92
        1
 93
        6
 72
     1
 10
-56.8159064490674
 20
52.76232751015434
 11
-56.8159064490674
 21
49.70851798634314
 72
     1
 10
-56.8159064490674
 20
49.70851798634314
 11
-55.57540203881328
 21
49.70851798634314
 72
     1
 10
-55.57540203881328
 20
49.70851798634314
 11
-55.57540203881328
 21
50.65159622748695
 72
     1
 10
-55.57540203881328
 20
50.65159622748695
 11
-54.816634451033
 21
50.65159622748695
 72
     2
 10
-54.816634451033
 20
51.70696186882066
 40
1.055365641333715
 50
270.0
 51
450.0
 73
     1
 72
     1
 10
-54.816634451033
 20
52.76232751015434
 11
-56.8159064490674
 21
52.76232751015434
 97
        6
330
305
330
262
330
258
330
257
330
264
330
263
 92
       16
 93
        4
 72
     1
 10
-55.25810697727138
 20
52.09922166471424
 11
-55.57540203881328
 21
52.09922166471424
 72
     1
 10
-55.57540203881328
 20
52.09922166471424
 11
-55.57540203881328
 21
51.39349401537203
 72
     1
 10
-55.57540203881328
 20
51.39349401537203
 11
-55.25810697727138
 21
51.39349401537203
 72
     2
 10
-55.25810697727138
 20
51.74635784004315
 40
0.3528638246711253
 50
270.0
 51
450.0
 73
     1
 97
        4
330
265
330
256
330
266
330
2F1
 75
     1
 76
     0
 52
45.0
 41
0.1
 77
     0
 78
     1
 53
45.0
 43
0.0
 44
0.0
 45
-0.0707106781186548
 46
0.0707106781186548
 79
     0
 98
        1
 10
0.0
 20
0.0
  0
HATCH
  5
349
330
71
100
AcDbEntity
  8
1
  6
Continuous
 62
     2
100
AcDbHatch
 10
0.0
 20
0.0
 30
0.0
210
0.0
220
0.0
230
1.0
  2
_USER
 70
     0
 71
     1
 91
        1
 92
        1
 93
       12
 72
     1
 10
-37.2016232546342
 20
52.76232751015434
 11
-35.79889903688698
 21
52.76232751015434
 72
     1
 10
-35.79889903688698
 20
52.76232751015434
 11
-37.10142866765349
 21
51.28937698011814
 72
     1
 10
-37.10142866765349
 20
51.28937698011814
 11
-35.70347562071319
 21
49.70851798634314
 72
     1
 10
-35.70347562071319
 20
49.70851798634314
 11
-37.10619983846149
 21
49.70851798634314
 72
     1
 10
-37.10619983846149
 20
49.70851798634314
 11
-37.80279077652699
 21
50.49624977163686
 72
     1
 10
-37.80279077652699
 20
50.49624977163686
 11
-38.49938171459269
 21
49.70851798634314
 72
     1
 10
-38.49938171459269
 20
49.70851798634314
 11
-39.9021059323409
 21
49.70851798634314
 72
     1
 10
-39.9021059323409
 20
49.70851798634314
 11
-38.5041528854006
 21
51.28937698011814
 72
     1
 10
-38.5041528854006
 20
51.28937698011814
 11
-39.80668251616808
 21
52.76232751015434
 72
     1
 10
-39.80668251616808
 20
52.76232751015434
 11
-38.40395829841879
 21
52.76232751015434
 72
     1
 10
-38.40395829841879
 20
52.76232751015434
 11
-37.80279077652699
 21
52.08250418859885
 72
     1
 10
-37.80279077652699
 20
52.08250418859885
 11
-37.2016232546342
 21
52.76232751015434
 97
       12
330
231
330
28A
330
289
330
288
330
287
330
232
330
233
330
22F
330
230
330
28D
330
28C
330
28B
 75
     1
 76
     0
 52
45.0
 41
0.1
 77
     0
 78
     1
 53
45.0
 43
0.0
 44
0.0
 45
-0.0707106781186548
 46
0.0707106781186548
 79
     0
 98
        1
 10
0.0
 20
0.0
  0
HATCH
  5
34A
330
71
100
AcDbEntity
  8
1
  6
Continuous
 62
     2
100
AcDbHatch
 10
0.0
 20
0.0
 30
0.0
210
0.0
220
0.0
230
1.0
  2
_USER
 70
     0
 71
     1
 91
        1
 92
        1
 93
       12
 72
     1
 10
-37.2016232546342
 20
52.76232751015434
 11
-35.79889903688698
 21
52.76232751015434
 72
     1
 10
-35.79889903688698
 20
52.76232751015434
 11
-37.10142866765349
 21
51.28937698011814
 72
     1
 10
-37.10142866765349
 20
51.28937698011814
 11
-35.70347562071319
 21
49.70851798634314
 72
     1
 10
-35.70347562071319
 20
49.70851798634314
 11
-37.10619983846149
 21
49.70851798634314
 72
     1
 10
-37.10619983846149
 20
49.70851798634314
 11
-37.80279077652699
 21
50.49624977163686
 72
     1
 10
-37.80279077652699
 20
50.49624977163686
 11
-38.49938171459269
 21
49.70851798634314
 72
     1
 10
-38.49938171459269
 20
49.70851798634314
 11
-39.9021059323409
 21
49.70851798634314
 72
     1
 10
-39.9021059323409
 20
49.70851798634314
 11
-38.5041528854006
 21
51.28937698011814
 72
     1
 10
-38.5041528854006
 20
51.28937698011814
 11
-39.80668251616808
 21
52.76232751015434
 72
     1
 10
-39.80668251616808
 20
52.76232751015434
 11
-38.40395829841879
 21
52.76232751015434
 72
     1
 10
-38.40395829841879
 20
52.76232751015434
 11
-37.80279077652699
 21
52.08250418859885
 72
     1
 10
-37.80279077652699
 20
52.08250418859885
 11
-37.2016232546342
 21
52.76232751015434
 97
       12
330
231
330
28A
330
289
330
288
330
287
330
232
330
233
330
22F
330
230
330
28D
330
28C
330
28B
 75
     1
 76
     0
 52
45.0
 41
0.1
 77
     0
 78
     1
 53
45.0
 43
0.0
 44
0.0
 45
-0.0707106781186548
 46
0.0707106781186548
 79
     0
 98
        1
 10
0.0
 20
0.0
  0
HATCH
  5
34B
330
71
100
AcDbEntity
  8
1
  6
Continuous
 62
     2
100
AcDbHatch
 10
0.0
 20
0.0
 30
0.0
210
0.0
220
0.0
230
1.0
  2
_USER
 70
     0
 71
     1
 91
        1
 92
        1
 93
        4
 72
     1
 10
-40.02138520255778
 20
52.76232751015434
 11
-40.02138520255778
 21
49.70851798634314
 72
     1
 10
-40.02138520255778
 20
49.70851798634314
 11
-41.26188961281068
 21
49.70851798634314
 72
     1
 10
-41.26188961281068
 20
49.70851798634314
 11
-41.26188961281068
 21
52.76232751015434
 72
     1
 10
-41.26188961281068
 20
52.76232751015434
 11
-40.02138520255778
 21
52.76232751015434
 97
        4
330
285
330
234
330
284
330
286
 75
     1
 76
     0
 52
45.0
 41
0.1
 77
     0
 78
     1
 53
45.0
 43
0.0
 44
0.0
 45
-0.0707106781186548
 46
0.0707106781186548
 79
     0
 98
        1
 10
0.0
 20
0.0
  0
HATCH
  5
34C
330
71
100
AcDbEntity
  8
1
  6
Continuous
 62
     2
100
AcDbHatch
 10
0.0
 20
0.0
 30
0.0
210
0.0
220
0.0
230
1.0
  2
_USER
 70
     0
 71
     1
 91
        1
 92
        1
 93
        4
 72
     1
 10
-40.02138520255778
 20
52.76232751015434
 11
-40.02138520255778
 21
49.70851798634314
 72
     1
 10
-40.02138520255778
 20
49.70851798634314
 11
-41.26188961281068
 21
49.70851798634314
 72
     1
 10
-41.26188961281068
 20
49.70851798634314
 11
-41.26188961281068
 21
52.76232751015434
 72
     1
 10
-41.26188961281068
 20
52.76232751015434
 11
-40.02138520255778
 21
52.76232751015434
 97
        4
330
285
330
234
330
284
330
286
 75
     1
 76
     0
 52
45.0
 41
0.1
 77
     0
 78
     1
 53
45.0
 43
0.0
 44
0.0
 45
-0.0707106781186548
 46
0.0707106781186548
 79
     0
 98
        1
 10
0.0
 20
0.0
  0
HATCH
  5
34D
330
71
100
AcDbEntity
  8
1
  6
Continuous
 62
     2
100
AcDbHatch
 10
0.0
 20
0.0
 30
0.0
210
0.0
220
0.0
230
1.0
  2
_USER
 70
     0
 71
     1
 91
        2
 92
        1
 93
        8
 72
     1
 10
-40.41182920608978
 20
46.34932751016885
 11
-41.6523336163437
 21
46.34932751016885
 72
     1
 10
-41.6523336163437
 20
46.34932751016885
 11
-41.86381366981948
 21
46.89028805438673
 72
     1
 10
-41.86381366981948
 20
46.89028805438673
 11
-42.99625524649329
 21
46.89028805438673
 72
     1
 10
-42.99625524649329
 20
46.89028805438673
 11
-43.2077352999691
 21
46.34932751016885
 72
     1
 10
-43.2077352999691
 20
46.34932751016885
 11
-44.44823971022208
 21
46.34932751016885
 72
     1
 10
-44.44823971022208
 20
46.34932751016885
 11
-43.05028666328278
 21
49.40313703397993
 72
     1
 10
-43.05028666328278
 20
49.40313703397993
 11
-41.80978225303008
 21
49.40313703397993
 72
     1
 10
-41.80978225303008
 20
49.40313703397993
 11
-40.41182920608978
 21
46.34932751016885
 97
        8
330
280
330
23A
330
27F
330
282
330
237
330
281
330
238
330
239
 92
       16
 93
        3
 72
     1
 10
-42.73019969534829
 20
47.57085131969333
 11
-42.12986922096579
 21
47.57085131969333
 72
     1
 10
-42.12986922096579
 20
47.57085131969333
 11
-42.43003445815589
 21
48.33866628568003
 72
     1
 10
-42.43003445815589
 20
48.33866628568003
 11
-42.73019969534829
 21
47.57085131969333
 97
        3
330
236
330
235
330
283
 75
     1
 76
     0
 52
45.0
 41
0.1
 77
     0
 78
     1
 53
45.0
 43
0.0
 44
0.0
 45
-0.0707106781186548
 46
0.0707106781186548
 79
     0
 98
        1
 10
0.0
 20
0.0
  0
HATCH
  5
34E
330
71
100
AcDbEntity
  8
1
  6
Continuous
 62
     2
100
AcDbHatch
 10
0.0
 20
0.0
 30
0.0
210
0.0
220
0.0
230
1.0
  2
_USER
 70
     0
 71
     1
 91
        2
 92
        1
 93
        8
 72
     1
 10
-40.41182920608978
 20
46.34932751016885
 11
-41.6523336163437
 21
46.34932751016885
 72
     1
 10
-41.6523336163437
 20
46.34932751016885
 11
-41.86381366981948
 21
46.89028805438673
 72
     1
 10
-41.86381366981948
 20
46.89028805438673
 11
-42.99625524649329
 21
46.89028805438673
 72
     1
 10
-42.99625524649329
 20
46.89028805438673
 11
-43.2077352999691
 21
46.34932751016885
 72
     1
 10
-43.2077352999691
 20
46.34932751016885
 11
-44.44823971022208
 21
46.34932751016885
 72
     1
 10
-44.44823971022208
 20
46.34932751016885
 11
-43.05028666328278
 21
49.40313703397993
 72
     1
 10
-43.05028666328278
 20
49.40313703397993
 11
-41.80978225303008
 21
49.40313703397993
 72
     1
 10
-41.80978225303008
 20
49.40313703397993
 11
-40.41182920608978
 21
46.34932751016885
 97
        8
330
280
330
23A
330
27F
330
282
330
237
330
281
330
238
330
239
 92
       16
 93
        3
 72
     1
 10
-42.73019969534829
 20
47.57085131969333
 11
-42.12986922096579
 21
47.57085131969333
 72
     1
 10
-42.12986922096579
 20
47.57085131969333
 11
-42.43003445815589
 21
48.33866628568003
 72
     1
 10
-42.43003445815589
 20
48.33866628568003
 11
-42.73019969534829
 21
47.57085131969333
 97
        3
330
236
330
235
330
283
 75
     1
 76
     0
 52
45.0
 41
0.1
 77
     0
 78
     1
 53
45.0
 43
0.0
 44
0.0
 45
-0.0707106781186548
 46
0.0707106781186548
 79
     0
 98
        1
 10
0.0
 20
0.0
  0
HATCH
  5
34F
330
71
100
AcDbEntity
  8
1
  6
Continuous
 62
     2
100
AcDbHatch
 10
0.0
 20
0.0
 30
0.0
210
0.0
220
0.0
230
1.0
  2
_USER
 70
     0
 71
     1
 91
        1
 92
        1
 93
        8
 72
     1
 10
-46.6057518494043
 20
49.40313703397993
 11
-46.6057518494043
 21
48.61787172785634
 72
     1
 10
-46.6057518494043
 20
48.61787172785634
 11
-45.79465281192969
 21
48.61787172785634
 72
     1
 10
-45.79465281192969
 20
48.61787172785634
 11
-45.79465281192969
 21
46.34932751016885
 72
     1
 10
-45.79465281192969
 20
46.34932751016885
 11
-44.60186010976318
 21
46.34932751016885
 72
     1
 10
-44.60186010976318
 20
46.34932751016885
 11
-44.60186010976318
 21
48.61787172785634
 72
     1
 10
-44.60186010976318
 20
48.61787172785634
 11
-43.79076107229068
 21
48.61787172785634
 72
     1
 10
-43.79076107229068
 20
48.61787172785634
 11
-43.79076107229068
 21
49.40313703397993
 72
     1
 10
-43.79076107229068
 20
49.40313703397993
 11
-46.6057518494043
 21
49.40313703397993
 97
        8
330
27C
330
27B
330
27A
330
23B
330
23C
330
27E
330
23D
330
27D
 75
     1
 76
     0
 52
45.0
 41
0.1
 77
     0
 78
     1
 53
45.0
 43
0.0
 44
0.0
 45
-0.0707106781186548
 46
0.0707106781186548
 79
     0
 98
        1
 10
0.0
 20
0.0
  0
HATCH
  5
350
330
71
100
AcDbEntity
  8
1
  6
Continuous
 62
     2
100
AcDbHatch
 10
0.0
 20
0.0
 30
0.0
210
0.0
220
0.0
230
1.0
  2
_USER
 70
     0
 71
     1
 91
        1
 92
        1
 93
        8
 72
     1
 10
-46.6057518494043
 20
49.40313703397993
 11
-46.6057518494043
 21
48.61787172785634
 72
     1
 10
-46.6057518494043
 20
48.61787172785634
 11
-45.79465281192969
 21
48.61787172785634
 72
     1
 10
-45.79465281192969
 20
48.61787172785634
 11
-45.79465281192969
 21
46.34932751016885
 72
     1
 10
-45.79465281192969
 20
46.34932751016885
 11
-44.60186010976318
 21
46.34932751016885
 72
     1
 10
-44.60186010976318
 20
46.34932751016885
 11
-44.60186010976318
 21
48.61787172785634
 72
     1
 10
-44.60186010976318
 20
48.61787172785634
 11
-43.79076107229068
 21
48.61787172785634
 72
     1
 10
-43.79076107229068
 20
48.61787172785634
 11
-43.79076107229068
 21
49.40313703397993
 72
     1
 10
-43.79076107229068
 20
49.40313703397993
 11
-46.6057518494043
 21
49.40313703397993
 97
        8
330
27C
330
27B
330
27A
330
23B
330
23C
330
27E
330
23D
330
27D
 75
     1
 76
     0
 52
45.0
 41
0.1
 77
     0
 78
     1
 53
45.0
 43
0.0
 44
0.0
 45
-0.0707106781186548
 46
0.0707106781186548
 79
     0
 98
        1
 10
0.0
 20
0.0
  0
HATCH
  5
351
330
71
100
AcDbEntity
  8
1
  6
Continuous
 62
     2
100
AcDbHatch
 10
0.0
 20
0.0
 30
0.0
210
0.0
220
0.0
230
1.0
  2
_USER
 70
     0
 71
     1
 91
        1
 92
        1
 93
       10
 72
     1
 10
-43.93374526566518
 20
52.76232751015434
 11
-45.1265379678317
 21
52.76232751015434
 72
     1
 10
-45.1265379678317
 20
52.76232751015434
 11
-45.1265379678317
 21
49.70851798634314
 72
     1
 10
-45.1265379678317
 20
49.70851798634314
 11
-43.93374526566518
 21
49.70851798634314
 72
     1
 10
-43.93374526566518
 20
49.70851798634314
 11
-43.93374526566518
 21
51.01729349654784
 72
     1
 10
-43.93374526566518
 20
51.01729349654784
 11
-42.69324085541118
 21
49.70851798634314
 72
     1
 10
-42.69324085541118
 20
49.70851798634314
 11
-41.50044815324458
 21
49.70851798634314
 72
     1
 10
-41.50044815324458
 20
49.70851798634314
 11
-41.50044815324458
 21
52.76232751015434
 72
     1
 10
-41.50044815324458
 20
52.76232751015434
 11
-42.69324085541118
 21
52.76232751015434
 72
     1
 10
-42.69324085541118
 20
52.76232751015434
 11
-42.69324085541118
 21
51.45355199994916
 72
     1
 10
-42.69324085541118
 20
51.45355199994916
 11
-43.93374526566518
 21
52.76232751015434
 97
       10
330
276
330
240
330
241
330
242
330
243
330
279
330
23E
330
278
330
277
330
23F
 75
     1
 76
     0
 52
45.0
 41
0.1
 77
     0
 78
     1
 53
45.0
 43
0.0
 44
0.0
 45
-0.0707106781186548
 46
0.0707106781186548
 79
     0
 98
        1
 10
0.0
 20
0.0
  0
HATCH
  5
352
330
71
100
AcDbEntity
  8
1
  6
Continuous
 62
     2
100
AcDbHatch
 10
0.0
 20
0.0
 30
0.0
210
0.0
220
0.0
230
1.0
  2
_USER
 70
     0
 71
     1
 91
        1
 92
        1
 93
       10
 72
     1
 10
-43.93374526566518
 20
52.76232751015434
 11
-45.1265379678317
 21
52.76232751015434
 72
     1
 10
-45.1265379678317
 20
52.76232751015434
 11
-45.1265379678317
 21
49.70851798634314
 72
     1
 10
-45.1265379678317
 20
49.70851798634314
 11
-43.93374526566518
 21
49.70851798634314
 72
     1
 10
-43.93374526566518
 20
49.70851798634314
 11
-43.93374526566518
 21
51.01729349654784
 72
     1
 10
-43.93374526566518
 20
51.01729349654784
 11
-42.69324085541118
 21
49.70851798634314
 72
     1
 10
-42.69324085541118
 20
49.70851798634314
 11
-41.50044815324458
 21
49.70851798634314
 72
     1
 10
-41.50044815324458
 20
49.70851798634314
 11
-41.50044815324458
 21
52.76232751015434
 72
     1
 10
-41.50044815324458
 20
52.76232751015434
 11
-42.69324085541118
 21
52.76232751015434
 72
     1
 10
-42.69324085541118
 20
52.76232751015434
 11
-42.69324085541118
 21
51.45355199994916
 72
     1
 10
-42.69324085541118
 20
51.45355199994916
 11
-43.93374526566518
 21
52.76232751015434
 97
       10
330
276
330
240
330
241
330
242
330
243
330
279
330
23E
330
278
330
277
330
23F
 75
     1
 76
     0
 52
45.0
 41
0.1
 77
     0
 78
     1
 53
45.0
 43
0.0
 44
0.0
 45
-0.0707106781186548
 46
0.0707106781186548
 79
     0
 98
        1
 10
0.0
 20
0.0
  0
HATCH
  5
353
330
71
100
AcDbEntity
  8
1
  6
Continuous
 62
     2
100
AcDbHatch
 10
0.0
 20
0.0
 30
0.0
210
0.0
220
0.0
230
1.0
  2
_USER
 70
     0
 71
     1
 91
        1
 92
        1
 93
       10
 72
     1
 10
-49.18218408608379
 20
49.40313703397993
 11
-50.37497678825139
 21
49.40313703397993
 72
     1
 10
-50.37497678825139
 20
49.40313703397993
 11
-50.37497678825139
 21
46.34932751016885
 72
     1
 10
-50.37497678825139
 20
46.34932751016885
 11
-49.18218408608379
 21
46.34932751016885
 72
     1
 10
-49.18218408608379
 20
46.34932751016885
 11
-49.18218408608379
 21
47.65810302037343
 72
     1
 10
-49.18218408608379
 20
47.65810302037343
 11
-47.9416796758309
 21
46.34932751016885
 72
     1
 10
-47.9416796758309
 20
46.34932751016885
 11
-46.7488869736645
 21
46.34932751016885
 72
     1
 10
-46.7488869736645
 20
46.34932751016885
 11
-46.7488869736645
 21
49.40313703397993
 72
     1
 10
-46.7488869736645
 20
49.40313703397993
 11
-47.9416796758309
 21
49.40313703397993
 72
     1
 10
-47.9416796758309
 20
49.40313703397993
 11
-47.9416796758309
 21
48.09436152377484
 72
     1
 10
-47.9416796758309
 20
48.09436152377484
 11
-49.18218408608379
 21
49.40313703397993
 97
       10
330
245
330
246
330
247
330
273
330
248
330
249
330
272
330
275
330
274
330
244
 75
     1
 76
     0
 52
45.0
 41
0.1
 77
     0
 78
     1
 53
45.0
 43
0.0
 44
0.0
 45
-0.0707106781186548
 46
0.0707106781186548
 79
     0
 98
        1
 10
0.0
 20
0.0
  0
HATCH
  5
354
330
71
100
AcDbEntity
  8
1
  6
Continuous
 62
     2
100
AcDbHatch
 10
0.0
 20
0.0
 30
0.0
210
0.0
220
0.0
230
1.0
  2
_USER
 70
     0
 71
     1
 91
        1
 92
        1
 93
       10
 72
     1
 10
-49.18218408608379
 20
49.40313703397993
 11
-50.37497678825139
 21
49.40313703397993
 72
     1
 10
-50.37497678825139
 20
49.40313703397993
 11
-50.37497678825139
 21
46.34932751016885
 72
     1
 10
-50.37497678825139
 20
46.34932751016885
 11
-49.18218408608379
 21
46.34932751016885
 72
     1
 10
-49.18218408608379
 20
46.34932751016885
 11
-49.18218408608379
 21
47.65810302037343
 72
     1
 10
-49.18218408608379
 20
47.65810302037343
 11
-47.9416796758309
 21
46.34932751016885
 72
     1
 10
-47.9416796758309
 20
46.34932751016885
 11
-46.7488869736645
 21
46.34932751016885
 72
     1
 10
-46.7488869736645
 20
46.34932751016885
 11
-46.7488869736645
 21
49.40313703397993
 72
     1
 10
-46.7488869736645
 20
49.40313703397993
 11
-47.9416796758309
 21
49.40313703397993
 72
     1
 10
-47.9416796758309
 20
49.40313703397993
 11
-47.9416796758309
 21
48.09436152377484
 72
     1
 10
-47.9416796758309
 20
48.09436152377484
 11
-49.18218408608379
 21
49.40313703397993
 97
       10
330
245
330
246
330
247
330
273
330
248
330
249
330
272
330
275
330
274
330
244
 75
     1
 76
     0
 52
45.0
 41
0.1
 77
     0
 78
     1
 53
45.0
 43
0.0
 44
0.0
 45
-0.0707106781186548
 46
0.0707106781186548
 79
     0
 98
        1
 10
0.0
 20
0.0
  0
HATCH
  5
355
330
71
100
AcDbEntity
  8
1
  6
Continuous
 62
     2
100
AcDbHatch
 10
0.0
 20
0.0
 30
0.0
210
0.0
220
0.0
230
1.0
  2
_USER
 70
     0
 71
     1
 91
        1
 92
        1
 93
       12
 72
     1
 10
-50.1839790250192
 20
52.76232751015434
 11
-50.1839790250192
 21
49.70851798634314
 72
     1
 10
-50.1839790250192
 20
49.70851798634314
 11
-51.3767717271856
 21
49.70851798634314
 72
     1
 10
-51.3767717271856
 20
49.70851798634314
 11
-51.3767717271856
 21
50.84279009518696
 72
     1
 10
-51.3767717271856
 20
50.84279009518696
 11
-52.42642930509308
 21
50.84279009518696
 72
     1
 10
-52.42642930509308
 20
50.84279009518696
 11
-52.42642930509308
 21
49.70851798634314
 72
     1
 10
-52.42642930509308
 20
49.70851798634314
 11
-53.61922200725968
 21
49.70851798634314
 72
     1
 10
-53.61922200725968
 20
49.70851798634314
 11
-53.61922200725968
 21
52.76232751015434
 72
     1
 10
-53.61922200725968
 20
52.76232751015434
 11
-52.42642930509308
 21
52.76232751015434
 72
     1
 10
-52.42642930509308
 20
52.76232751015434
 11
-52.42642930509308
 21
51.69349417681974
 72
     1
 10
-52.42642930509308
 20
51.69349417681974
 11
-51.3767717271856
 21
51.69349417681974
 72
     1
 10
-51.3767717271856
 20
51.69349417681974
 11
-51.3767717271856
 21
52.76232751015434
 72
     1
 10
-51.3767717271856
 20
52.76232751015434
 11
-50.1839790250192
 21
52.76232751015434
 97
       12
330
26D
330
26C
330
26B
330
253
330
254
330
26A
330
255
330
269
330
268
330
267
330
251
330
252
 75
     1
 76
     0
 52
45.0
 41
0.1
 77
     0
 78
     1
 53
45.0
 43
0.0
 44
0.0
 45
-0.0707106781186548
 46
0.0707106781186548
 79
     0
 98
        1
 10
0.0
 20
0.0
  0
HATCH
  5
356
330
71
100
AcDbEntity
  8
1
  6
Continuous
 62
     2
100
AcDbHatch
 10
0.0
 20
0.0
 30
0.0
210
0.0
220
0.0
230
1.0
  2
_USER
 70
     0
 71
     1
 91
        1
 92
        1
 93
       12
 72
     1
 10
-50.1839790250192
 20
52.76232751015434
 11
-50.1839790250192
 21
49.70851798634314
 72
     1
 10
-50.1839790250192
 20
49.70851798634314
 11
-51.3767717271856
 21
49.70851798634314
 72
     1
 10
-51.3767717271856
 20
49.70851798634314
 11
-51.3767717271856
 21
50.84279009518696
 72
     1
 10
-51.3767717271856
 20
50.84279009518696
 11
-52.42642930509308
 21
50.84279009518696
 72
     1
 10
-52.42642930509308
 20
50.84279009518696
 11
-52.42642930509308
 21
49.70851798634314
 72
     1
 10
-52.42642930509308
 20
49.70851798634314
 11
-53.61922200725968
 21
49.70851798634314
 72
     1
 10
-53.61922200725968
 20
49.70851798634314
 11
-53.61922200725968
 21
52.76232751015434
 72
     1
 10
-53.61922200725968
 20
52.76232751015434
 11
-52.42642930509308
 21
52.76232751015434
 72
     1
 10
-52.42642930509308
 20
52.76232751015434
 11
-52.42642930509308
 21
51.69349417681974
 72
     1
 10
-52.42642930509308
 20
51.69349417681974
 11
-51.3767717271856
 21
51.69349417681974
 72
     1
 10
-51.3767717271856
 20
51.69349417681974
 11
-51.3767717271856
 21
52.76232751015434
 72
     1
 10
-51.3767717271856
 20
52.76232751015434
 11
-50.1839790250192
 21
52.76232751015434
 97
       12
330
26D
330
26C
330
26B
330
253
330
254
330
26A
330
255
330
269
330
268
330
267
330
251
330
252
 75
     1
 76
     0
 52
45.0
 41
0.1
 77
     0
 78
     1
 53
45.0
 43
0.0
 44
0.0
 45
-0.0707106781186548
 46
0.0707106781186548
 79
     0
 98
        1
 10
0.0
 20
0.0
  0
ENDBLK
  5
73
330
71
100
AcDbEntity
  8
0
100
AcDbBlockEnd
  0
BLOCK
  5
75
330
74
100
AcDbEntity
  8
0
100
AcDbBlockBegin
  2
_punkt
 70
     0
 10
61.69332478876972
 20
39.05582751015254
 30
0.0
  3
_punkt
  1

  0
LINE
  5
357
330
74
100
AcDbEntity
  8
1
  6
Continuous
 62
     2
100
AcDbLine
 10
61.69332478876972
 20
39.05582751015254
 30
0.0
 11
61.69332478876972
 21
34.05582751015243
 31
0.0
  0
LINE
  5
358
330
74
100
AcDbEntity
  8
1
  6
Continuous
 62
     2
100
AcDbLine
 10
61.69332478876972
 20
39.05582751015254
 30
0.0
 11
66.6933247887687
 21
39.05582751015254
 31
0.0
  0
ENDBLK
  5
76
330
74
100
AcDbEntity
  8
0
100
AcDbBlockEnd
  0
BLOCK
  5
7A
330
77
100
AcDbEntity
  8
0
100
AcDbBlockBegin
  2
A4I_CS
 70
     0
 10
61.69332478876972
 20
34.05582751015243
 30
0.0
  3
A4I_CS
  1

  0
INSERT
  5
78
330
77
100
AcDbEntity
  8
1
100
AcDbBlockReference
  2
_rahmen
 10
61.69332478876972
 20
34.05582751015243
 30
0.0
  0
INSERT
  5
79
330
77
100
AcDbEntity
  8
1
100
AcDbBlockReference
  2
_punkt
 10
61.69332478876972
 20
39.05582751015254
 30
0.0
  0
ENDBLK
  5
7B
330
77
100
AcDbEntity
  8
0
100
AcDbBlockEnd
  0
BLOCK
  5
84
330
7C
100
AcDbEntity
  8
0
100
AcDbBlockBegin
  2
1
 70
     0
 10
0.0
 20
0.0
 30
0.0
  3
1
  1

  0
INSERT
  5
7D
330
7C
100
AcDbEntity
  8
0
100
AcDbBlockReference
  2
Back1
 10
9.94332667178028
 20
184.2321472228795
 30
0.0
 41
2.0
 42
2.0
 43
2.0
  0
INSERT
  5
7E
330
7C
100
AcDbEntity
  8
0
100
AcDbBlockReference
  2
Front1
 10
-111.0566735771943
 20
184.2321472228795
 30
0.0
 41
2.0
 42
2.0
 43
2.0
  0
INSERT
  5
7F
330
7C
100
AcDbEntity
  8
0
100
AcDbBlockReference
  2
Gen1
 10
9.94332534072669
 20
112.2321468272082
 30
0.0
 41
2.0
 42
2.0
 43
2.0
  0
INSERT
  5
80
330
7C
100
AcDbEntity
  8
0
100
AcDbBlockReference
  2
Left1
 10
-48.05667345270694
 20
184.2321472228793
 30
0.0
 41
2.0
 42
2.0
 43
2.0
  0
INSERT
  5
81
330
7C
100
AcDbEntity
  8
0
100
AcDbBlockReference
  2
Right1
 10
-178.0566737016815
 20
184.2321472228793
 30
0.0
 41
2.0
 42
2.0
 43
2.0
  0
INSERT
  5
82
330
7C
100
AcDbEntity
  8
0
100
AcDbBlockReference
  2
Top1
 10
-111.0566735771942
 20
112.2321458264605
 30
0.0
 41
2.0
 42
2.0
 43
2.0
  0
INSERT
  5
83
330
7C
100
AcDbEntity
  8
0
100
AcDbBlockReference
  2
A4I_CS
 10
61.69332478876972
 20
34.05582751015243
 30
0.0
  0
ENDBLK
  5
85
330
7C
100
AcDbEntity
  8
0
100
AcDbBlockEnd
  0
BLOCK
  5
105
330
FC
100
AcDbEntity
  8
0
100
AcDbBlockBegin
  2
*D17
 70
     1
 10
0.0
 20
0.0
 30
0.0
  3
*D17
  1

  0
LINE
  5
FD
330
FC
100
AcDbEntity
  8
1
  6
Continuous
 62
     2
100
AcDbLine
 10
-74.66503562386951
 20
101.0160738546486
 30
0.0
 11
-74.66503562386951
 21
83.21607434333109
 31
0.0
  0
LINE
  5
FE
330
FC
100
AcDbEntity
  8
1
  6
Continuous
 62
     2
100
AcDbLine
 10
-60.26920591616404
 20
101.0160738546486
 30
0.0
 11
-75.41503562386951
 21
101.0160738546486
 31
0.0
  0
LINE
  5
FF
330
FC
100
AcDbEntity
  8
1
  6
Continuous
 62
     2
100
AcDbLine
 10
-69.58315014691455
 20
83.21607434333109
 30
0.0
 11
-75.41503562386951
 21
83.21607434333109
 31
0.0
  0
LINE
  5
100
330
FC
100
AcDbEntity
  8
1
  6
Continuous
 62
     2
100
AcDbLine
 10
-60.26920590852009
 20
83.21607434333109
 30
0.0
 11
-68.53598489901354
 21
83.21607434333109
 31
0.0
  0
SOLID
  5
101
330
FC
100
AcDbEntity
  8
1
 62
     2
100
AcDbTrace
 10
-74.43464375309158
 20
99.26607385464857
 30
0.0
 11
-74.89542749464745
 21
99.26607385464857
 31
0.0
 12
-74.66503562386951
 22
101.0160738546486
 32
0.0
 13
-74.66503562386951
 23
101.0160738546486
 33
0.0
  0
SOLID
  5
102
330
FC
100
AcDbEntity
  8
1
 62
     2
100
AcDbTrace
 10
-74.89542749464745
 20
84.96607434333109
 30
0.0
 11
-74.43464375309158
 21
84.96607434333109
 31
0.0
 12
-74.66503562386951
 22
83.21607434333109
 32
0.0
 13
-74.66503562386951
 23
83.21607434333109
 33
0.0
  0
MTEXT
  5
104
330
FC
100
AcDbEntity
  8
1
 62
     3
100
AcDbMText
 10
-75.59003562386953
 20
89.75825120699554
 30
0.0
 40
1.75
 41
0.0
 71
     7
 72
     1
  1
17,8
  7
CONVERTER_11
 11
0.0
 21
1.0
 31
0.0
 73
     1
 44
0.60024009603842
  0
ENDBLK
  5
106
330
FC
100
AcDbEntity
  8
0
100
AcDbBlockEnd
  0
BLOCK
  5
110
330
109
100
AcDbEntity
  8
0
100
AcDbBlockBegin
  2
*D18
 70
     1
 10
0.0
 20
0.0
 30
0.0
  3
*D18
  1

  0
LINE
  5
10A
330
109
100
AcDbEntity
  8
1
  6
Continuous
 62
     2
100
AcDbLine
 10
-69.0283367570025
 20
73.57050167971553
 30
0.0
 11
-42.02833670473587
 21
73.57050167971553
 31
0.0
  0
LINE
  5
10B
330
109
100
AcDbEntity
  8
1
  6
Continuous
 62
     2
100
AcDbLine
 10
-69.0283367570025
 20
99.72659868077127
 30
0.0
 11
-69.0283367570025
 21
72.82050167971553
 31
0.0
  0
LINE
  5
10C
330
109
100
AcDbEntity
  8
1
  6
Continuous
 62
     2
100
AcDbLine
 10
-42.02833670473587
 20
97.98146915581728
 30
0.0
 11
-42.02833670473587
 21
72.82050167971553
 31
0.0
  0
SOLID
  5
10D
330
109
100
AcDbEntity
  8
1
 62
     2
100
AcDbTrace
 10
-67.2783367570025
 20
73.80089355049347
 30
0.0
 11
-67.2783367570025
 21
73.3401098089376
 31
0.0
 12
-69.0283367570025
 22
73.57050167971553
 32
0.0
 13
-69.0283367570025
 23
73.57050167971553
 33
0.0
  0
SOLID
  5
10E
330
109
100
AcDbEntity
  8
1
 62
     2
100
AcDbTrace
 10
-43.77833670473587
 20
73.3401098089376
 30
0.0
 11
-43.77833670473587
 21
73.80089355049347
 31
0.0
 12
-42.02833670473587
 22
73.57050167971553
 32
0.0
 13
-42.02833670473587
 23
73.57050167971553
 33
0.0
  0
MTEXT
  5
10F
330
109
100
AcDbEntity
  8
1
 62
     3
100
AcDbMText
 10
-56.84257434849754
 20
74.32050167971553
 30
0.0
 40
1.75
 41
0.0
 71
     7
 72
     1
  1
27
  7
CONVERTER_11
 11
0.9999999999970619
 21
2.424068405545306E-6
 31
0.0
 73
     1
 44
0.60024009603842
  0
ENDBLK
  5
111
330
109
100
AcDbEntity
  8
0
100
AcDbBlockEnd
  0
BLOCK
  5
21C
330
213
100
AcDbEntity
  8
0
100
AcDbBlockBegin
  2
*D19
 70
     1
 10
0.0
 20
0.0
 30
0.0
  3
*D19
  1

  0
LINE
  5
214
330
213
100
AcDbEntity
  8
1
  6
Continuous
 62
     2
100
AcDbLine
 10
-74.66503562386947
 20
61.36607287576521
 30
0.0
 11
-74.66503562386947
 21
57.86607287576521
 31
0.0
  0
LINE
  5
215
330
213
100
AcDbEntity
  8
1
  6
Continuous
 62
     2
100
AcDbLine
 10
-74.66503562386947
 20
57.86607287576521
 30
0.0
 11
-74.66503562386947
 21
54.36607287745697
 31
0.0
  0
LINE
  5
216
330
213
100
AcDbEntity
  8
1
  6
Continuous
 62
     2
100
AcDbLine
 10
-74.66503562386947
 20
54.36607287745697
 30
0.0
 11
-74.66503562386947
 21
50.86607287745697
 31
0.0
  0
LINE
  5
217
330
213
100
AcDbEntity
  8
1
  6
Continuous
 62
     2
100
AcDbLine
 10
-62.40353331342975
 20
57.86607287576521
 30
0.0
 11
-75.41503562386947
 21
57.86607287576521
 31
0.0
  0
LINE
  5
218
330
213
100
AcDbEntity
  8
1
  6
Continuous
 62
     2
100
AcDbLine
 10
-62.40353331342975
 20
54.36607287745697
 30
0.0
 11
-75.41503562386947
 21
54.36607287745697
 31
0.0
  0
SOLID
  5
219
330
213
100
AcDbEntity
  8
1
 62
     2
100
AcDbTrace
 10
-74.89542749464741
 20
59.61607287576521
 30
0.0
 11
-74.43464375309154
 21
59.61607287576521
 31
0.0
 12
-74.66503562386947
 22
57.86607287576521
 32
0.0
 13
-74.66503562386947
 23
57.86607287576521
 33
0.0
  0
SOLID
  5
21A
330
213
100
AcDbEntity
  8
1
 62
     2
100
AcDbTrace
 10
-74.43464375309154
 20
52.61607287745697
 30
0.0
 11
-74.89542749464741
 21
52.61607287745697
 31
0.0
 12
-74.66503562386947
 22
54.36607287745697
 32
0.0
 13
-74.66503562386947
 23
54.36607287745697
 33
0.0
  0
MTEXT
  5
21B
330
213
100
AcDbEntity
  8
1
 62
     3
100
AcDbMText
 10
-75.59003562386948
 20
54.43693803726429
 30
0.0
 40
1.75
 41
0.0
 71
     7
 72
     1
  1
3,5
  7
CONVERTER_11
 11
0.0
 21
1.0
 31
0.0
 73
     1
 44
0.60024009603842
  0
ENDBLK
  5
21D
330
213
100
AcDbEntity
  8
0
100
AcDbBlockEnd
  0
ENDSEC
  0
SECTION
  2
ENTITIES
  0
INSERT
  5
86
330
1F
100
AcDbEntity
  8
1
100
AcDbBlockReference
  2
1
 10
0.0
 20
0.0
 30
0.0
  0
ENDSEC
  0
SECTION
  2
OBJECTS
  0
DICTIONARY
  5
C
330
0
100
AcDbDictionary
281
     1
  3
ACAD_GROUP
350
D
  3
ACAD_LAYOUT
350
1A
  3
ACAD_MATERIAL
350
3B
  3
ACAD_MLEADERSTYLE
350
380
  3
ACAD_MLINESTYLE
350
17
  3
ACAD_PLOTSETTINGS
350
19
  3
ACAD_PLOTSTYLENAME
350
E
  3
ACAD_TABLESTYLE
350
37F
  3
ACAD_VISUALSTYLE
350
2A
  0
DICTIONARY
  5
D
102
{ACAD_REACTORS
330
C
102
}
330
C
100
AcDbDictionary
281
     1
  0
DICTIONARY
  5
1A
102
{ACAD_REACTORS
330
C
102
}
330
C
100
AcDbDictionary
281
     1
  3
Layout1
350
1E
  3
Layout2
350
26
  3
Model
350
22
  0
DICTIONARY
  5
3B
102
{ACAD_REACTORS
330
C
102
}
330
C
100
AcDbDictionary
281
     1
  3
ByBlock
350
3D
  3
ByLayer
350
3C
  3
Global
350
3E
  0
DICTIONARY
  5
380
102
{ACAD_REACTORS
330
C
102
}
330
C
100
AcDbDictionary
281
     1
  0
DICTIONARY
  5
17
102
{ACAD_REACTORS
330
C
102
}
330
C
100
AcDbDictionary
281
     1
  3
Standard
350
18
  0
DICTIONARY
  5
19
102
{ACAD_REACTORS
330
C
102
}
330
C
100
AcDbDictionary
281
     1
  0
ACDBDICTIONARYWDFLT
  5
E
102
{ACAD_REACTORS
330
C
102
}
330
C
100
AcDbDictionary
281
     1
  3
Normal
350
F
100
AcDbDictionaryWithDefault
340
F
  0
DICTIONARY
  5
37F
102
{ACAD_REACTORS
330
C
102
}
330
C
100
AcDbDictionary
281
     1
  0
DICTIONARY
  5
2A
102
{ACAD_REACTORS
330
C
102
}
330
C
100
AcDbDictionary
281
     1
  3
2dWireframe
350
2F
  3
3D Hidden
350
31
  3
3dWireframe
350
30
  3
Basic
350
32
  3
Brighten
350
36
  3
ColorChange
350
3A
  3
Conceptual
350
34
  3
Dim
350
35
  3
Facepattern
350
39
  3
Flat
350
2B
  3
FlatWithEdges
350
2C
  3
Gouraud
350
2D
  3
GouraudWithEdges
350
2E
  3
Linepattern
350
38
  3
Realistic
350
33
  3
Thicken
350
37
  0
LAYOUT
  5
1E
102
{ACAD_REACTORS
330
1A
102
}
330
1A
100
AcDbPlotSettings
  1

  2
none_device
  4

  6

 40
0.0
 41
0.0
 42
0.0
 43
0.0
 44
0.0
 45
0.0
 46
0.0
 47
0.0
 48
0.0
 49
0.0
140
0.0
141
0.0
142
1.0
143
1.0
 70
   688
 72
     0
 73
     0
 74
     5
  7

 75
    16
 76
     0
 77
     2
 78
   300
147
1.0
148
0.0
149
0.0
100
AcDbLayout
  1
Layout1
 70
     1
 71
     1
 10
0.0
 20
0.0
 11
12.0
 21
9.0
 12
0.0
 22
0.0
 32
0.0
 14
1.00000000000000E+20
 24
1.00000000000000E+20
 34
1.00000000000000E+20
 15
-1.00000000000000E+20
 25
-1.00000000000000E+20
 35
-1.00000000000000E+20
146
0.0
 13
0.0
 23
0.0
 33
0.0
 16
1.0
 26
0.0
 36
0.0
 17
0.0
 27
1.0
 37
0.0
 76
     0
330
1B
  0
LAYOUT
  5
26
102
{ACAD_REACTORS
330
1A
102
}
330
1A
100
AcDbPlotSettings
  1

  2
none_device
  4

  6

 40
0.0
 41
0.0
 42
0.0
 43
0.0
 44
0.0
 45
0.0
 46
0.0
 47
0.0
 48
0.0
 49
0.0
140
0.0
141
0.0
142
1.0
143
1.0
 70
   688
 72
     0
 73
     0
 74
     5
  7

 75
    16
 76
     0
 77
     2
 78
   300
147
1.0
148
0.0
149
0.0
100
AcDbLayout
  1
Layout2
 70
     1
 71
     2
 10
0.0
 20
0.0
 11
0.0
 21
0.0
 12
0.0
 22
0.0
 32
0.0
 14
0.0
 24
0.0
 34
0.0
 15
0.0
 25
0.0
 35
0.0
146
0.0
 13
0.0
 23
0.0
 33
0.0
 16
1.0
 26
0.0
 36
0.0
 17
0.0
 27
1.0
 37
0.0
 76
     0
330
23
  0
LAYOUT
  5
22
102
{ACAD_REACTORS
330
1A
102
}
330
1A
100
AcDbPlotSettings
  1

  2
none_device
  4

  6

 40
0.0
 41
0.0
 42
0.0
 43
0.0
 44
0.0
 45
0.0
 46
0.0
 47
0.0
 48
0.0
 49
0.0
140
0.0
141
0.0
142
1.0
143
1.0
 70
  1712
 72
     0
 73
     0
 74
     0
  7

 75
     0
 76
     0
 77
     2
 78
   300
147
1.0
148
0.0
149
0.0
100
AcDbLayout
  1
Model
 70
     1
 71
     0
 10
0.0
 20
0.0
 11
12.0
 21
9.0
 12
0.0
 22
0.0
 32
0.0
 14
-230.3066752112294
 24
34.05582751015243
 34
0.0
 15
66.6933247887687
 25
244.0558275101525
 35
0.0
146
0.0
 13
0.0
 23
0.0
 33
0.0
 16
1.0
 26
0.0
 36
0.0
 17
0.0
 27
1.0
 37
0.0
 76
     0
330
1F
331
29
  0
MATERIAL
  5
3D
102
{ACAD_REACTORS
330
3B
102
}
102
{ACAD_XDICTIONARY
360
37B
102
}
330
3B
100
AcDbMaterial
  1
ByBlock
  0
MATERIAL
  5
3C
102
{ACAD_REACTORS
330
3B
102
}
102
{ACAD_XDICTIONARY
360
379
102
}
330
3B
100
AcDbMaterial
  1
ByLayer
  0
MATERIAL
  5
3E
102
{ACAD_REACTORS
330
3B
102
}
102
{ACAD_XDICTIONARY
360
37D
102
}
330
3B
100
AcDbMaterial
  1
Global
  0
MLINESTYLE
  5
18
102
{ACAD_REACTORS
330
17
102
}
330
17
100
AcDbMlineStyle
  2
Standard
 70
     0
  3

 62
   256
 51
90.0
 52
90.0
 71
     2
 49
0.5
 62
   256
  6
BYLAYER
 49
-0.5
 62
   256
  6
BYLAYER
  0
ACDBPLACEHOLDER
  5
F
102
{ACAD_REACTORS
330
E
102
}
330
E
  0
VISUALSTYLE
  5
2F
102
{ACAD_REACTORS
330
2A
102
}
102
{ACAD_XDICTIONARY
360
361
102
}
330
2A
100
AcDbVisualStyle
  2
2dWireframe
 70
     4
 71
     0
 72
     2
 73
     0
 90
        0
 40
-0.6
 41
-30.0
 62
     5
 63
     7
421
 16777215
 74
     1
 91
        4
 64
     7
 65
   257
 75
     1
175
     1
 42
1.0
 92
        0
 66
   257
 43
1.0
 76
     1
 77
     6
 78
     2
 67
     7
 79
     5
170
     0
171
     0
290
     0
174
     0
 93
        1
 44
0.0
173
     0
291
     0
 45
0.0
1001
ACAD
1000
AcDbSavedByObjectVersion
1070
     0
  0
VISUALSTYLE
  5
31
102
{ACAD_REACTORS
330
2A
102
}
102
{ACAD_XDICTIONARY
360
365
102
}
330
2A
100
AcDbVisualStyle
  2
3D Hidden
 70
     6
 71
     1
 72
     2
 73
     2
 90
        0
 40
-0.6
 41
-30.0
 62
     5
 63
     7
421
 16777215
 74
     2
 91
        2
 64
     7
 65
   257
 75
     2
175
     1
 42
40.0
 92
        0
 66
   257
 43
1.0
 76
     1
 77
     6
 78
     2
 67
     7
 79
     3
170
     0
171
     0
290
     0
174
     0
 93
        1
 44
0.0
173
     0
291
     0
 45
0.0
1001
ACAD
1000
AcDbSavedByObjectVersion
1070
     0
  0
VISUALSTYLE
  5
30
102
{ACAD_REACTORS
330
2A
102
}
102
{ACAD_XDICTIONARY
360
363
102
}
330
2A
100
AcDbVisualStyle
  2
3dWireframe
 70
     5
 71
     0
 72
     2
 73
     0
 90
        0
 40
-0.6
 41
-30.0
 62
     5
 63
     7
421
 16777215
 74
     1
 91
        4
 64
     7
 65
   257
 75
     1
175
     1
 42
1.0
 92
        0
 66
   257
 43
1.0
 76
     1
 77
     6
 78
     2
 67
     7
 79
     5
170
     0
171
     0
290
     0
174
     0
 93
        1
 44
0.0
173
     0
291
     0
 45
0.0
1001
ACAD
1000
AcDbSavedByObjectVersion
1070
     0
  0
VISUALSTYLE
  5
32
102
{ACAD_REACTORS
330
2A
102
}
102
{ACAD_XDICTIONARY
360
367
102
}
330
2A
100
AcDbVisualStyle
  2
Basic
 70
     7
 71
     1
 72
     0
 73
     1
 90
        0
 40
-0.6
 41
-30.0
 62
     5
 63
     7
421
 16777215
 74
     0
 91
        4
 64
     7
 65
   257
 75
     1
175
     1
 42
1.0
 92
        8
 66
     7
 43
1.0
 76
     1
 77
     6
 78
     2
 67
     7
 79
     5
170
     0
171
     0
290
     0
174
     0
 93
        1
 44
0.0
173
     0
291
     1
 45
0.0
1001
ACAD
1000
AcDbSavedByObjectVersion
1070
     0
  0
VISUALSTYLE
  5
36
102
{ACAD_REACTORS
330
2A
102
}
102
{ACAD_XDICTIONARY
360
36F
102
}
330
2A
100
AcDbVisualStyle
  2
Brighten
 70
    12
 71
     2
 72
     2
 73
     0
 90
        0
 40
-0.6
 41
-30.0
 62
     5
 63
     7
421
 16777215
 74
     1
 91
        4
 64
     7
 65
   257
 75
     1
175
     1
 42
1.0
 92
        8
 66
     7
 43
1.0
 76
     1
 77
     6
 78
     2
 67
     7
 79
     5
170
     0
171
     0
290
     0
174
     0
 93
        1
 44
50.0
173
     0
291
     1
 45
0.0
1001
ACAD
1000
AcDbSavedByObjectVersion
1070
     0
  0
VISUALSTYLE
  5
3A
102
{ACAD_REACTORS
330
2A
102
}
102
{ACAD_XDICTIONARY
360
377
102
}
330
2A
100
AcDbVisualStyle
  2
ColorChange
 70
    16
 71
     2
 72
     2
 73
     3
 90
        0
 40
-0.6
 41
-30.0
 62
     5
 63
     8
421
  8421504
 74
     1
 91
        4
 64
     7
 65
   257
 75
     1
175
     1
 42
1.0
 92
        8
 66
     8
424
  8421504
 43
1.0
 76
     1
 77
     6
 78
     2
 67
     7
 79
     5
170
     0
171
     0
290
     0
174
     0
 93
        1
 44
0.0
173
     0
291
     1
 45
0.0
1001
ACAD
1000
AcDbSavedByObjectVersion
1070
     0
  0
VISUALSTYLE
  5
34
102
{ACAD_REACTORS
330
2A
102
}
102
{ACAD_XDICTIONARY
360
36B
102
}
330
2A
100
AcDbVisualStyle
  2
Conceptual
 70
     9
 71
     3
 72
     2
 73
     0
 90
        0
 40
-0.6
 41
-30.0
 62
     5
 63
     7
421
 16777215
 74
     2
 91
        2
 64
     7
 65
   257
 75
     1
175
     1
 42
40.0
 92
        8
 66
     7
 43
1.0
 76
     1
 77
     6
 78
     2
 67
     7
 79
     3
170
     0
171
     0
290
     0
174
     0
 93
        1
 44
0.0
173
     0
291
     0
 45
0.0
1001
ACAD
1000
AcDbSavedByObjectVersion
1070
     0
  0
VISUALSTYLE
  5
35
102
{ACAD_REACTORS
330
2A
102
}
102
{ACAD_XDICTIONARY
360
36D
102
}
330
2A
100
AcDbVisualStyle
  2
Dim
 70
    11
 71
     2
 72
     2
 73
     0
 90
        0
 40
-0.6
 41
-30.0
 62
     5
 63
     7
421
 16777215
 74
     1
 91
        4
 64
     7
 65
   257
 75
     1
175
     1
 42
1.0
 92
        8
 66
     7
 43
1.0
 76
     1
 77
     6
 78
     2
 67
     7
 79
     5
170
     0
171
     0
290
     0
174
     0
 93
        1
 44
-50.0
173
     0
291
     1
 45
0.0
1001
ACAD
1000
AcDbSavedByObjectVersion
1070
     0
  0
VISUALSTYLE
  5
39
102
{ACAD_REACTORS
330
2A
102
}
102
{ACAD_XDICTIONARY
360
375
102
}
330
2A
100
AcDbVisualStyle
  2
Facepattern
 70
    15
 71
     2
 72
     2
 73
     0
 90
        0
 40
-0.6
 41
-30.0
 62
     5
 63
     7
421
 16777215
 74
     1
 91
        4
 64
     7
 65
   257
 75
     1
175
     1
 42
1.0
 92
        8
 66
     7
 43
1.0
 76
     1
 77
     6
 78
     2
 67
     7
 79
     5
170
     0
171
     0
290
     0
174
     0
 93
        1
 44
0.0
173
     0
291
     1
 45
0.0
1001
ACAD
1000
AcDbSavedByObjectVersion
1070
     0
  0
VISUALSTYLE
  5
2B
102
{ACAD_REACTORS
330
2A
102
}
102
{ACAD_XDICTIONARY
360
359
102
}
330
2A
100
AcDbVisualStyle
  2
Flat
 70
     0
 71
     2
 72
     1
 73
     1
 90
        2
 40
-0.6
 41
30.0
 62
     5
 63
     7
421
 16777215
 74
     0
 91
        4
 64
     7
 65
   257
 75
     1
175
     1
 42
1.0
 92
        8
 66
     7
 43
1.0
 76
     1
 77
     6
 78
     2
 67
     7
 79
     5
170
     0
171
     0
290
     0
174
     0
 93
       13
 44
0.0
173
     0
291
     1
 45
0.0
1001
ACAD
1000
AcDbSavedByObjectVersion
1070
     0
  0
VISUALSTYLE
  5
2C
102
{ACAD_REACTORS
330
2A
102
}
102
{ACAD_XDICTIONARY
360
35B
102
}
330
2A
100
AcDbVisualStyle
  2
FlatWithEdges
 70
     1
 71
     2
 72
     1
 73
     1
 90
        2
 40
-0.6
 41
30.0
 62
     5
 63
     7
421
 16777215
 74
     1
 91
        4
 64
     7
 65
   257
 75
     1
175
     1
 42
1.0
 92
        0
 66
   257
 43
1.0
 76
     1
 77
     6
 78
     2
 67
     7
 79
     5
170
     0
171
     0
290
     0
174
     0
 93
       13
 44
0.0
173
     0
291
     1
 45
0.0
1001
ACAD
1000
AcDbSavedByObjectVersion
1070
     0
  0
VISUALSTYLE
  5
2D
102
{ACAD_REACTORS
330
2A
102
}
102
{ACAD_XDICTIONARY
360
35D
102
}
330
2A
100
AcDbVisualStyle
  2
Gouraud
 70
     2
 71
     2
 72
     2
 73
     1
 90
        2
 40
-0.6
 41
30.0
 62
     5
 63
     7
421
 16777215
 74
     0
 91
        4
 64
     7
 65
   257
 75
     1
175
     1
 42
1.0
 92
        0
 66
     7
 43
1.0
 76
     1
 77
     6
 78
     2
 67
     7
 79
     5
170
     0
171
     0
290
     0
174
     0
 93
       13
 44
0.0
173
     0
291
     1
 45
0.0
1001
ACAD
1000
AcDbSavedByObjectVersion
1070
     0
  0
VISUALSTYLE
  5
2E
102
{ACAD_REACTORS
330
2A
102
}
102
{ACAD_XDICTIONARY
360
35F
102
}
330
2A
100
AcDbVisualStyle
  2
GouraudWithEdges
 70
     3
 71
     2
 72
     2
 73
     1
 90
        2
 40
-0.6
 41
30.0
 62
     5
 63
     7
421
 16777215
 74
     1
 91
        4
 64
     7
 65
   257
 75
     1
175
     1
 42
1.0
 92
        0
 66
   257
 43
1.0
 76
     1
 77
     6
 78
     2
 67
     7
 79
     5
170
     0
171
     0
290
     0
174
     0
 93
       13
 44
0.0
173
     0
291
     1
 45
0.0
1001
ACAD
1000
AcDbSavedByObjectVersion
1070
     0
  0
VISUALSTYLE
  5
38
102
{ACAD_REACTORS
330
2A
102
}
102
{ACAD_XDICTIONARY
360
373
102
}
330
2A
100
AcDbVisualStyle
  2
Linepattern
 70
    14
 71
     2
 72
     2
 73
     0
 90
        0
 40
-0.6
 41
-30.0
 62
     5
 63
     7
421
 16777215
 74
     1
 91
        4
 64
     7
 65
   257
 75
     7
175
     7
 42
1.0
 92
        8
 66
     7
 43
1.0
 76
     1
 77
     6
 78
     2
 67
     7
 79
     5
170
     0
171
     0
290
     0
174
     0
 93
        1
 44
0.0
173
     0
291
     1
 45
0.0
1001
ACAD
1000
AcDbSavedByObjectVersion
1070
     0
  0
VISUALSTYLE
  5
33
102
{ACAD_REACTORS
330
2A
102
}
102
{ACAD_XDICTIONARY
360
369
102
}
330
2A
100
AcDbVisualStyle
  2
Realistic
 70
     8
 71
     2
 72
     2
 73
     0
 90
        0
 40
-0.6
 41
-30.0
 62
     5
 63
     7
421
 16777215
 74
     1
 91
        0
 64
     7
 65
   257
 75
     1
175
     1
 42
1.0
 92
        8
 66
     8
424
  7895160
 43
1.0
 76
     1
 77
     6
 78
     2
 67
     7
 79
     5
170
     0
171
     0
290
     0
174
     0
 93
       13
 44
0.0
173
     0
291
     0
 45
0.0
1001
ACAD
1000
AcDbSavedByObjectVersion
1070
     0
  0
VISUALSTYLE
  5
37
102
{ACAD_REACTORS
330
2A
102
}
102
{ACAD_XDICTIONARY
360
371
102
}
330
2A
100
AcDbVisualStyle
  2
Thicken
 70
    13
 71
     2
 72
     2
 73
     0
 90
        0
 40
-0.6
 41
-30.0
 62
     5
 63
     7
421
 16777215
 74
     1
 91
        4
 64
     7
 65
   257
 75
     1
175
     1
 42
1.0
 92
       12
 66
     7
 43
1.0
 76
     1
 77
     6
 78
     2
 67
     7
 79
     5
170
     0
171
     0
290
     0
174
     0
 93
        1
 44
0.0
173
     0
291
     1
 45
0.0
1001
ACAD
1000
AcDbSavedByObjectVersion
1070
     0
  0
DICTIONARY
  5
37B
330
3D
100
AcDbDictionary
280
     1
281
     1
  3
ACAD_XREC_ROUNDTRIP
360
37C
  0
DICTIONARY
  5
379
330
3C
100
AcDbDictionary
280
     1
281
     1
  3
ACAD_XREC_ROUNDTRIP
360
37A
  0
DICTIONARY
  5
37D
330
3E
100
AcDbDictionary
280
     1
281
     1
  3
ACAD_XREC_ROUNDTRIP
360
37E
  0
DICTIONARY
  5
361
330
2F
100
AcDbDictionary
280
     1
281
     1
  3
ACAD_XREC_ROUNDTRIP
360
362
  0
DICTIONARY
  5
365
330
31
100
AcDbDictionary
280
     1
281
     1
  3
ACAD_XREC_ROUNDTRIP
360
366
  0
DICTIONARY
  5
363
330
30
100
AcDbDictionary
280
     1
281
     1
  3
ACAD_XREC_ROUNDTRIP
360
364
  0
DICTIONARY
  5
367
330
32
100
AcDbDictionary
280
     1
281
     1
  3
ACAD_XREC_ROUNDTRIP
360
368
  0
DICTIONARY
  5
36F
330
36
100
AcDbDictionary
280
     1
281
     1
  3
ACAD_XREC_ROUNDTRIP
360
370
  0
DICTIONARY
  5
377
330
3A
100
AcDbDictionary
280
     1
281
     1
  3
ACAD_XREC_ROUNDTRIP
360
378
  0
DICTIONARY
  5
36B
330
34
100
AcDbDictionary
280
     1
281
     1
  3
ACAD_XREC_ROUNDTRIP
360
36C
  0
DICTIONARY
  5
36D
330
35
100
AcDbDictionary
280
     1
281
     1
  3
ACAD_XREC_ROUNDTRIP
360
36E
  0
DICTIONARY
  5
375
330
39
100
AcDbDictionary
280
     1
281
     1
  3
ACAD_XREC_ROUNDTRIP
360
376
  0
DICTIONARY
  5
359
330
2B
100
AcDbDictionary
280
     1
281
     1
  3
ACAD_XREC_ROUNDTRIP
360
35A
  0
DICTIONARY
  5
35B
330
2C
100
AcDbDictionary
280
     1
281
     1
  3
ACAD_XREC_ROUNDTRIP
360
35C
  0
DICTIONARY
  5
35D
330
2D
100
AcDbDictionary
280
     1
281
     1
  3
ACAD_XREC_ROUNDTRIP
360
35E
  0
DICTIONARY
  5
35F
330
2E
100
AcDbDictionary
280
     1
281
     1
  3
ACAD_XREC_ROUNDTRIP
360
360
  0
DICTIONARY
  5
373
330
38
100
AcDbDictionary
280
     1
281
     1
  3
ACAD_XREC_ROUNDTRIP
360
374
  0
DICTIONARY
  5
369
330
33
100
AcDbDictionary
280
     1
281
     1
  3
ACAD_XREC_ROUNDTRIP
360
36A
  0
DICTIONARY
  5
371
330
37
100
AcDbDictionary
280
     1
281
     1
  3
ACAD_XREC_ROUNDTRIP
360
372
  0
XRECORD
  5
37C
102
{ACAD_REACTORS
330
37B
102
}
330
37B
100
AcDbXrecord
280
     1
102
MATERIAL
148
0.0
149
0.0
149
0.0
 93
        0
 94
      127
282
     0
 72
     1
 77
     1
171
     1
175
     1
179
     1
273
     0
  0
XRECORD
  5
37A
102
{ACAD_REACTORS
330
379
102
}
330
379
100
AcDbXrecord
280
     1
102
MATERIAL
148
0.0
149
0.0
149
0.0
 93
        0
 94
      127
282
     0
 72
     1
 77
     1
171
     1
175
     1
179
     1
273
     0
  0
XRECORD
  5
37E
102
{ACAD_REACTORS
330
37D
102
}
330
37D
100
AcDbXrecord
280
     1
102
MATERIAL
148
0.0
149
0.0
149
0.0
 93
        0
 94
      127
282
     0
 72
     1
 77
     1
171
     1
175
     1
179
     1
273
     0
  0
XRECORD
  5
362
102
{ACAD_REACTORS
330
361
102
}
330
361
100
AcDbXrecord
280
     1
102
RTVSPropertyOp0
 70
     1
102
RTVSPropertyOp1
 70
     1
102
RTVSPropertyOp2
 70
     1
102
RTVSPropertyOp3
 70
     1
102
RTVSPropertyOp4
 70
     1
102
RTVSPropertyOp5
 70
     1
102
RTVSPropertyOp6
 70
     1
102
RTVSPropertyOp7
 70
     1
102
RTVSPropertyOp8
 70
     1
102
RTVSPropertyOp9
 70
     1
102
RTVSPropertyOp10
 70
     1
102
RTVSPropertyOp11
 70
     1
102
RTVSPropertyOp12
 70
     1
102
RTVSPropertyOp13
 70
     1
102
RTVSPropertyOp14
 70
     1
102
RTVSPropertyOp15
 70
     1
102
RTVSPropertyOp16
 70
     1
102
RTVSPropertyOp17
 70
     1
102
RTVSPropertyOp18
 70
     1
102
RTVSPropertyOp19
 70
     1
102
RTVSPropertyOp20
 70
     1
102
RTVSPropertyOp21
 70
     1
102
RTVSPropertyOp22
 70
     1
102
RTVSPropertyOp23
 70
     1
102
RTVSPropertyOp24
 70
     1
102
RTVSPropertyOp25
 70
     1
102
RTVSPropertyOp26
 70
     1
102
RTVSPropertyOp27
 70
     1
102
RTVSPropertyOp28
 70
     1
102
RTVSPropertyOp29
 70
     1
102
RTVSPropertyOp30
 70
     1
102
RTVSPropertyOp31
 70
     1
102
RTVSPropertyOp32
 70
     1
  0
XRECORD
  5
366
102
{ACAD_REACTORS
330
365
102
}
330
365
100
AcDbXrecord
280
     1
102
RTVSPropertyOp0
 70
     1
102
RTVSPropertyOp1
 70
     1
102
RTVSPropertyOp2
 70
     1
102
RTVSPropertyOp3
 70
     1
102
RTVSPropertyOp4
 70
     1
102
RTVSPropertyOp5
 70
     1
102
RTVSPropertyOp6
 70
     1
102
RTVSPropertyOp7
 70
     1
102
RTVSPropertyOp8
 70
     1
102
RTVSPropertyOp9
 70
     1
102
RTVSPropertyOp10
 70
     1
102
RTVSPropertyOp11
 70
     1
102
RTVSPropertyOp12
 70
     1
102
RTVSPropertyOp13
 70
     1
102
RTVSPropertyOp14
 70
     1
102
RTVSPropertyOp15
 70
     1
102
RTVSPropertyOp16
 70
     1
102
RTVSPropertyOp17
 70
     1
102
RTVSPropertyOp18
 70
     1
102
RTVSPropertyOp19
 70
     1
102
RTVSPropertyOp20
 70
     1
102
RTVSPropertyOp21
 70
     1
102
RTVSPropertyOp22
 70
     1
102
RTVSPropertyOp23
 70
     1
102
RTVSPropertyOp24
 70
     1
102
RTVSPropertyOp25
 70
     1
102
RTVSPropertyOp26
 70
     1
102
RTVSPropertyOp27
 70
     1
102
RTVSPropertyOp28
 70
     1
102
RTVSPropertyOp29
 70
     1
102
RTVSPropertyOp30
 70
     1
102
RTVSPropertyOp31
 70
     1
102
RTVSPropertyOp32
 70
     1
  0
XRECORD
  5
364
102
{ACAD_REACTORS
330
363
102
}
330
363
100
AcDbXrecord
280
     1
102
RTVSPropertyOp0
 70
     1
102
RTVSPropertyOp1
 70
     1
102
RTVSPropertyOp2
 70
     1
102
RTVSPropertyOp3
 70
     1
102
RTVSPropertyOp4
 70
     1
102
RTVSPropertyOp5
 70
     1
102
RTVSPropertyOp6
 70
     1
102
RTVSPropertyOp7
 70
     1
102
RTVSPropertyOp8
 70
     1
102
RTVSPropertyOp9
 70
     1
102
RTVSPropertyOp10
 70
     1
102
RTVSPropertyOp11
 70
     1
102
RTVSPropertyOp12
 70
     1
102
RTVSPropertyOp13
 70
     1
102
RTVSPropertyOp14
 70
     1
102
RTVSPropertyOp15
 70
     1
102
RTVSPropertyOp16
 70
     1
102
RTVSPropertyOp17
 70
     1
102
RTVSPropertyOp18
 70
     1
102
RTVSPropertyOp19
 70
     1
102
RTVSPropertyOp20
 70
     1
102
RTVSPropertyOp21
 70
     1
102
RTVSPropertyOp22
 70
     1
102
RTVSPropertyOp23
 70
     1
102
RTVSPropertyOp24
 70
     1
102
RTVSPropertyOp25
 70
     1
102
RTVSPropertyOp26
 70
     1
102
RTVSPropertyOp27
 70
     1
102
RTVSPropertyOp28
 70
     1
102
RTVSPropertyOp29
 70
     1
102
RTVSPropertyOp30
 70
     1
102
RTVSPropertyOp31
 70
     1
102
RTVSPropertyOp32
 70
     1
  0
XRECORD
  5
368
102
{ACAD_REACTORS
330
367
102
}
330
367
100
AcDbXrecord
280
     1
102
RTVSPropertyOp0
 70
     1
102
RTVSPropertyOp1
 70
     1
102
RTVSPropertyOp2
 70
     1
102
RTVSPropertyOp3
 70
     1
102
RTVSPropertyOp4
 70
     1
102
RTVSPropertyOp5
 70
     1
102
RTVSPropertyOp6
 70
     1
102
RTVSPropertyOp7
 70
     1
102
RTVSPropertyOp8
 70
     1
102
RTVSPropertyOp9
 70
     1
102
RTVSPropertyOp10
 70
     1
102
RTVSPropertyOp11
 70
     1
102
RTVSPropertyOp12
 70
     1
102
RTVSPropertyOp13
 70
     1
102
RTVSPropertyOp14
 70
     1
102
RTVSPropertyOp15
 70
     1
102
RTVSPropertyOp16
 70
     1
102
RTVSPropertyOp17
 70
     1
102
RTVSPropertyOp18
 70
     1
102
RTVSPropertyOp19
 70
     1
102
RTVSPropertyOp20
 70
     1
102
RTVSPropertyOp21
 70
     1
102
RTVSPropertyOp22
 70
     1
102
RTVSPropertyOp23
 70
     1
102
RTVSPropertyOp24
 70
     1
102
RTVSPropertyOp25
 70
     1
102
RTVSPropertyOp26
 70
     1
102
RTVSPropertyOp27
 70
     1
102
RTVSPropertyOp28
 70
     1
102
RTVSPropertyOp29
 70
     1
102
RTVSPropertyOp30
 70
     1
102
RTVSPropertyOp31
 70
     1
102
RTVSPropertyOp32
 70
     1
  0
XRECORD
  5
370
102
{ACAD_REACTORS
330
36F
102
}
330
36F
100
AcDbXrecord
280
     1
102
RTVSPropertyOp0
 70
     1
102
RTVSPropertyOp1
 70
     1
102
RTVSPropertyOp2
 70
     1
102
RTVSPropertyOp3
 70
     1
102
RTVSPropertyOp4
 70
     1
102
RTVSPropertyOp5
 70
     1
102
RTVSPropertyOp6
 70
     1
102
RTVSPropertyOp7
 70
     1
102
RTVSPropertyOp8
 70
     1
102
RTVSPropertyOp9
 70
     1
102
RTVSPropertyOp10
 70
     1
102
RTVSPropertyOp11
 70
     1
102
RTVSPropertyOp12
 70
     1
102
RTVSPropertyOp13
 70
     1
102
RTVSPropertyOp14
 70
     1
102
RTVSPropertyOp15
 70
     1
102
RTVSPropertyOp16
 70
     1
102
RTVSPropertyOp17
 70
     1
102
RTVSPropertyOp18
 70
     1
102
RTVSPropertyOp19
 70
     1
102
RTVSPropertyOp20
 70
     1
102
RTVSPropertyOp21
 70
     1
102
RTVSPropertyOp22
 70
     1
102
RTVSPropertyOp23
 70
     1
102
RTVSPropertyOp24
 70
     1
102
RTVSPropertyOp25
 70
     1
102
RTVSPropertyOp26
 70
     1
102
RTVSPropertyOp27
 70
     1
102
RTVSPropertyOp28
 70
     1
102
RTVSPropertyOp29
 70
     1
102
RTVSPropertyOp30
 70
     1
102
RTVSPropertyOp31
 70
     1
102
RTVSPropertyOp32
 70
     1
  0
XRECORD
  5
378
102
{ACAD_REACTORS
330
377
102
}
330
377
100
AcDbXrecord
280
     1
102
RTVSPropertyOp0
 70
     1
102
RTVSPropertyOp1
 70
     1
102
RTVSPropertyOp2
 70
     1
102
RTVSPropertyOp3
 70
     1
102
RTVSPropertyOp4
 70
     1
102
RTVSPropertyOp5
 70
     1
102
RTVSPropertyOp6
 70
     1
102
RTVSPropertyOp7
 70
     1
102
RTVSPropertyOp8
 70
     1
102
RTVSPropertyOp9
 70
     1
102
RTVSPropertyOp10
 70
     1
102
RTVSPropertyOp11
 70
     1
102
RTVSPropertyOp12
 70
     1
102
RTVSPropertyOp13
 70
     1
102
RTVSPropertyOp14
 70
     1
102
RTVSPropertyOp15
 70
     1
102
RTVSPropertyOp16
 70
     1
102
RTVSPropertyOp17
 70
     1
102
RTVSPropertyOp18
 70
     1
102
RTVSPropertyOp19
 70
     1
102
RTVSPropertyOp20
 70
     1
102
RTVSPropertyOp21
 70
     1
102
RTVSPropertyOp22
 70
     1
102
RTVSPropertyOp23
 70
     1
102
RTVSPropertyOp24
 70
     1
102
RTVSPropertyOp25
 70
     1
102
RTVSPropertyOp26
 70
     1
102
RTVSPropertyOp27
 70
     1
102
RTVSPropertyOp28
 70
     1
102
RTVSPropertyOp29
 70
     1
102
RTVSPropertyOp30
 70
     1
102
RTVSPropertyOp31
 70
     1
102
RTVSPropertyOp32
 70
     1
  0
XRECORD
  5
36C
102
{ACAD_REACTORS
330
36B
102
}
330
36B
100
AcDbXrecord
280
     1
102
RTVSPropertyOp0
 70
     1
102
RTVSPropertyOp1
 70
     1
102
RTVSPropertyOp2
 70
     1
102
RTVSPropertyOp3
 70
     1
102
RTVSPropertyOp4
 70
     1
102
RTVSPropertyOp5
 70
     1
102
RTVSPropertyOp6
 70
     1
102
RTVSPropertyOp7
 70
     1
102
RTVSPropertyOp8
 70
     1
102
RTVSPropertyOp9
 70
     1
102
RTVSPropertyOp10
 70
     1
102
RTVSPropertyOp11
 70
     1
102
RTVSPropertyOp12
 70
     1
102
RTVSPropertyOp13
 70
     1
102
RTVSPropertyOp14
 70
     1
102
RTVSPropertyOp15
 70
     1
102
RTVSPropertyOp16
 70
     1
102
RTVSPropertyOp17
 70
     1
102
RTVSPropertyOp18
 70
     1
102
RTVSPropertyOp19
 70
     1
102
RTVSPropertyOp20
 70
     1
102
RTVSPropertyOp21
 70
     1
102
RTVSPropertyOp22
 70
     1
102
RTVSPropertyOp23
 70
     1
102
RTVSPropertyOp24
 70
     1
102
RTVSPropertyOp25
 70
     1
102
RTVSPropertyOp26
 70
     1
102
RTVSPropertyOp27
 70
     1
102
RTVSPropertyOp28
 70
     1
102
RTVSPropertyOp29
 70
     1
102
RTVSPropertyOp30
 70
     1
102
RTVSPropertyOp31
 70
     1
102
RTVSPropertyOp32
 70
     1
  0
XRECORD
  5
36E
102
{ACAD_REACTORS
330
36D
102
}
330
36D
100
AcDbXrecord
280
     1
102
RTVSPropertyOp0
 70
     1
102
RTVSPropertyOp1
 70
     1
102
RTVSPropertyOp2
 70
     1
102
RTVSPropertyOp3
 70
     1
102
RTVSPropertyOp4
 70
     1
102
RTVSPropertyOp5
 70
     1
102
RTVSPropertyOp6
 70
     1
102
RTVSPropertyOp7
 70
     1
102
RTVSPropertyOp8
 70
     1
102
RTVSPropertyOp9
 70
     1
102
RTVSPropertyOp10
 70
     1
102
RTVSPropertyOp11
 70
     1
102
RTVSPropertyOp12
 70
     1
102
RTVSPropertyOp13
 70
     1
102
RTVSPropertyOp14
 70
     1
102
RTVSPropertyOp15
 70
     1
102
RTVSPropertyOp16
 70
     1
102
RTVSPropertyOp17
 70
     1
102
RTVSPropertyOp18
 70
     1
102
RTVSPropertyOp19
 70
     1
102
RTVSPropertyOp20
 70
     1
102
RTVSPropertyOp21
 70
     1
102
RTVSPropertyOp22
 70
     1
102
RTVSPropertyOp23
 70
     1
102
RTVSPropertyOp24
 70
     1
102
RTVSPropertyOp25
 70
     1
102
RTVSPropertyOp26
 70
     1
102
RTVSPropertyOp27
 70
     1
102
RTVSPropertyOp28
 70
     1
102
RTVSPropertyOp29
 70
     1
102
RTVSPropertyOp30
 70
     1
102
RTVSPropertyOp31
 70
     1
102
RTVSPropertyOp32
 70
     1
  0
XRECORD
  5
376
102
{ACAD_REACTORS
330
375
102
}
330
375
100
AcDbXrecord
280
     1
102
RTVSPropertyOp0
 70
     1
102
RTVSPropertyOp1
 70
     1
102
RTVSPropertyOp2
 70
     1
102
RTVSPropertyOp3
 70
     1
102
RTVSPropertyOp4
 70
     1
102
RTVSPropertyOp5
 70
     1
102
RTVSPropertyOp6
 70
     1
102
RTVSPropertyOp7
 70
     1
102
RTVSPropertyOp8
 70
     1
102
RTVSPropertyOp9
 70
     1
102
RTVSPropertyOp10
 70
     1
102
RTVSPropertyOp11
 70
     1
102
RTVSPropertyOp12
 70
     1
102
RTVSPropertyOp13
 70
     1
102
RTVSPropertyOp14
 70
     1
102
RTVSPropertyOp15
 70
     1
102
RTVSPropertyOp16
 70
     1
102
RTVSPropertyOp17
 70
     1
102
RTVSPropertyOp18
 70
     1
102
RTVSPropertyOp19
 70
     1
102
RTVSPropertyOp20
 70
     1
102
RTVSPropertyOp21
 70
     1
102
RTVSPropertyOp22
 70
     1
102
RTVSPropertyOp23
 70
     1
102
RTVSPropertyOp24
 70
     1
102
RTVSPropertyOp25
 70
     1
102
RTVSPropertyOp26
 70
     1
102
RTVSPropertyOp27
 70
     1
102
RTVSPropertyOp28
 70
     1
102
RTVSPropertyOp29
 70
     1
102
RTVSPropertyOp30
 70
     1
102
RTVSPropertyOp31
 70
     1
102
RTVSPropertyOp32
 70
     1
  0
XRECORD
  5
35A
102
{ACAD_REACTORS
330
359
102
}
330
359
100
AcDbXrecord
280
     1
102
RTVSPropertyOp0
 70
     1
102
RTVSPropertyOp1
 70
     1
102
RTVSPropertyOp2
 70
     1
102
RTVSPropertyOp3
 70
     1
102
RTVSPropertyOp4
 70
     1
102
RTVSPropertyOp5
 70
     1
102
RTVSPropertyOp6
 70
     1
102
RTVSPropertyOp7
 70
     1
102
RTVSPropertyOp8
 70
     1
102
RTVSPropertyOp9
 70
     1
102
RTVSPropertyOp10
 70
     1
102
RTVSPropertyOp11
 70
     1
102
RTVSPropertyOp12
 70
     1
102
RTVSPropertyOp13
 70
     1
102
RTVSPropertyOp14
 70
     1
102
RTVSPropertyOp15
 70
     1
102
RTVSPropertyOp16
 70
     1
102
RTVSPropertyOp17
 70
     1
102
RTVSPropertyOp18
 70
     1
102
RTVSPropertyOp19
 70
     1
102
RTVSPropertyOp20
 70
     1
102
RTVSPropertyOp21
 70
     1
102
RTVSPropertyOp22
 70
     1
102
RTVSPropertyOp23
 70
     1
102
RTVSPropertyOp24
 70
     1
102
RTVSPropertyOp25
 70
     1
102
RTVSPropertyOp26
 70
     1
102
RTVSPropertyOp27
 70
     1
102
RTVSPropertyOp28
 70
     1
102
RTVSPropertyOp29
 70
     1
102
RTVSPropertyOp30
 70
     1
102
RTVSPropertyOp31
 70
     1
102
RTVSPropertyOp32
 70
     1
  0
XRECORD
  5
35C
102
{ACAD_REACTORS
330
35B
102
}
330
35B
100
AcDbXrecord
280
     1
102
RTVSPropertyOp0
 70
     1
102
RTVSPropertyOp1
 70
     1
102
RTVSPropertyOp2
 70
     1
102
RTVSPropertyOp3
 70
     1
102
RTVSPropertyOp4
 70
     1
102
RTVSPropertyOp5
 70
     1
102
RTVSPropertyOp6
 70
     1
102
RTVSPropertyOp7
 70
     1
102
RTVSPropertyOp8
 70
     1
102
RTVSPropertyOp9
 70
     1
102
RTVSPropertyOp10
 70
     1
102
RTVSPropertyOp11
 70
     1
102
RTVSPropertyOp12
 70
     1
102
RTVSPropertyOp13
 70
     1
102
RTVSPropertyOp14
 70
     1
102
RTVSPropertyOp15
 70
     1
102
RTVSPropertyOp16
 70
     1
102
RTVSPropertyOp17
 70
     1
102
RTVSPropertyOp18
 70
     1
102
RTVSPropertyOp19
 70
     1
102
RTVSPropertyOp20
 70
     1
102
RTVSPropertyOp21
 70
     1
102
RTVSPropertyOp22
 70
     1
102
RTVSPropertyOp23
 70
     1
102
RTVSPropertyOp24
 70
     1
102
RTVSPropertyOp25
 70
     1
102
RTVSPropertyOp26
 70
     1
102
RTVSPropertyOp27
 70
     1
102
RTVSPropertyOp28
 70
     1
102
RTVSPropertyOp29
 70
     1
102
RTVSPropertyOp30
 70
     1
102
RTVSPropertyOp31
 70
     1
102
RTVSPropertyOp32
 70
     1
  0
XRECORD
  5
35E
102
{ACAD_REACTORS
330
35D
102
}
330
35D
100
AcDbXrecord
280
     1
102
RTVSPropertyOp0
 70
     1
102
RTVSPropertyOp1
 70
     1
102
RTVSPropertyOp2
 70
     1
102
RTVSPropertyOp3
 70
     1
102
RTVSPropertyOp4
 70
     1
102
RTVSPropertyOp5
 70
     1
102
RTVSPropertyOp6
 70
     1
102
RTVSPropertyOp7
 70
     1
102
RTVSPropertyOp8
 70
     1
102
RTVSPropertyOp9
 70
     1
102
RTVSPropertyOp10
 70
     1
102
RTVSPropertyOp11
 70
     1
102
RTVSPropertyOp12
 70
     1
102
RTVSPropertyOp13
 70
     1
102
RTVSPropertyOp14
 70
     1
102
RTVSPropertyOp15
 70
     1
102
RTVSPropertyOp16
 70
     1
102
RTVSPropertyOp17
 70
     1
102
RTVSPropertyOp18
 70
     1
102
RTVSPropertyOp19
 70
     1
102
RTVSPropertyOp20
 70
     1
102
RTVSPropertyOp21
 70
     1
102
RTVSPropertyOp22
 70
     1
102
RTVSPropertyOp23
 70
     1
102
RTVSPropertyOp24
 70
     1
102
RTVSPropertyOp25
 70
     1
102
RTVSPropertyOp26
 70
     1
102
RTVSPropertyOp27
 70
     1
102
RTVSPropertyOp28
 70
     1
102
RTVSPropertyOp29
 70
     1
102
RTVSPropertyOp30
 70
     1
102
RTVSPropertyOp31
 70
     1
102
RTVSPropertyOp32
 70
     1
  0
XRECORD
  5
360
102
{ACAD_REACTORS
330
35F
102
}
330
35F
100
AcDbXrecord
280
     1
102
RTVSPropertyOp0
 70
     1
102
RTVSPropertyOp1
 70
     1
102
RTVSPropertyOp2
 70
     1
102
RTVSPropertyOp3
 70
     1
102
RTVSPropertyOp4
 70
     1
102
RTVSPropertyOp5
 70
     1
102
RTVSPropertyOp6
 70
     1
102
RTVSPropertyOp7
 70
     1
102
RTVSPropertyOp8
 70
     1
102
RTVSPropertyOp9
 70
     1
102
RTVSPropertyOp10
 70
     1
102
RTVSPropertyOp11
 70
     1
102
RTVSPropertyOp12
 70
     1
102
RTVSPropertyOp13
 70
     1
102
RTVSPropertyOp14
 70
     1
102
RTVSPropertyOp15
 70
     1
102
RTVSPropertyOp16
 70
     1
102
RTVSPropertyOp17
 70
     1
102
RTVSPropertyOp18
 70
     1
102
RTVSPropertyOp19
 70
     1
102
RTVSPropertyOp20
 70
     1
102
RTVSPropertyOp21
 70
     1
102
RTVSPropertyOp22
 70
     1
102
RTVSPropertyOp23
 70
     1
102
RTVSPropertyOp24
 70
     1
102
RTVSPropertyOp25
 70
     1
102
RTVSPropertyOp26
 70
     1
102
RTVSPropertyOp27
 70
     1
102
RTVSPropertyOp28
 70
     1
102
RTVSPropertyOp29
 70
     1
102
RTVSPropertyOp30
 70
     1
102
RTVSPropertyOp31
 70
     1
102
RTVSPropertyOp32
 70
     1
  0
XRECORD
  5
374
102
{ACAD_REACTORS
330
373
102
}
330
373
100
AcDbXrecord
280
     1
102
RTVSPropertyOp0
 70
     1
102
RTVSPropertyOp1
 70
     1
102
RTVSPropertyOp2
 70
     1
102
RTVSPropertyOp3
 70
     1
102
RTVSPropertyOp4
 70
     1
102
RTVSPropertyOp5
 70
     1
102
RTVSPropertyOp6
 70
     1
102
RTVSPropertyOp7
 70
     1
102
RTVSPropertyOp8
 70
     1
102
RTVSPropertyOp9
 70
     1
102
RTVSPropertyOp10
 70
     1
102
RTVSPropertyOp11
 70
     1
102
RTVSPropertyOp12
 70
     1
102
RTVSPropertyOp13
 70
     1
102
RTVSPropertyOp14
 70
     1
102
RTVSPropertyOp15
 70
     1
102
RTVSPropertyOp16
 70
     1
102
RTVSPropertyOp17
 70
     1
102
RTVSPropertyOp18
 70
     1
102
RTVSPropertyOp19
 70
     1
102
RTVSPropertyOp20
 70
     1
102
RTVSPropertyOp21
 70
     1
102
RTVSPropertyOp22
 70
     1
102
RTVSPropertyOp23
 70
     1
102
RTVSPropertyOp24
 70
     1
102
RTVSPropertyOp25
 70
     1
102
RTVSPropertyOp26
 70
     1
102
RTVSPropertyOp27
 70
     1
102
RTVSPropertyOp28
 70
     1
102
RTVSPropertyOp29
 70
     1
102
RTVSPropertyOp30
 70
     1
102
RTVSPropertyOp31
 70
     1
102
RTVSPropertyOp32
 70
     1
  0
XRECORD
  5
36A
102
{ACAD_REACTORS
330
369
102
}
330
369
100
AcDbXrecord
280
     1
102
RTVSPropertyOp0
 70
     1
102
RTVSPropertyOp1
 70
     1
102
RTVSPropertyOp2
 70
     1
102
RTVSPropertyOp3
 70
     1
102
RTVSPropertyOp4
 70
     1
102
RTVSPropertyOp5
 70
     1
102
RTVSPropertyOp6
 70
     1
102
RTVSPropertyOp7
 70
     1
102
RTVSPropertyOp8
 70
     1
102
RTVSPropertyOp9
 70
     1
102
RTVSPropertyOp10
 70
     1
102
RTVSPropertyOp11
 70
     1
102
RTVSPropertyOp12
 70
     1
102
RTVSPropertyOp13
 70
     1
102
RTVSPropertyOp14
 70
     1
102
RTVSPropertyOp15
 70
     1
102
RTVSPropertyOp16
 70
     1
102
RTVSPropertyOp17
 70
     1
102
RTVSPropertyOp18
 70
     1
102
RTVSPropertyOp19
 70
     1
102
RTVSPropertyOp20
 70
     1
102
RTVSPropertyOp21
 70
     1
102
RTVSPropertyOp22
 70
     1
102
RTVSPropertyOp23
 70
     1
102
RTVSPropertyOp24
 70
     1
102
RTVSPropertyOp25
 70
     1
102
RTVSPropertyOp26
 70
     1
102
RTVSPropertyOp27
 70
     1
102
RTVSPropertyOp28
 70
     1
102
RTVSPropertyOp29
 70
     1
102
RTVSPropertyOp30
 70
     1
102
RTVSPropertyOp31
 70
     1
102
RTVSPropertyOp32
 70
     1
  0
XRECORD
  5
372
102
{ACAD_REACTORS
330
371
102
}
330
371
100
AcDbXrecord
280
     1
102
RTVSPropertyOp0
 70
     1
102
RTVSPropertyOp1
 70
     1
102
RTVSPropertyOp2
 70
     1
102
RTVSPropertyOp3
 70
     1
102
RTVSPropertyOp4
 70
     1
102
RTVSPropertyOp5
 70
     1
102
RTVSPropertyOp6
 70
     1
102
RTVSPropertyOp7
 70
     1
102
RTVSPropertyOp8
 70
     1
102
RTVSPropertyOp9
 70
     1
102
RTVSPropertyOp10
 70
     1
102
RTVSPropertyOp11
 70
     1
102
RTVSPropertyOp12
 70
     1
102
RTVSPropertyOp13
 70
     1
102
RTVSPropertyOp14
 70
     1
102
RTVSPropertyOp15
 70
     1
102
RTVSPropertyOp16
 70
     1
102
RTVSPropertyOp17
 70
     1
102
RTVSPropertyOp18
 70
     1
102
RTVSPropertyOp19
 70
     1
102
RTVSPropertyOp20
 70
     1
102
RTVSPropertyOp21
 70
     1
102
RTVSPropertyOp22
 70
     1
102
RTVSPropertyOp23
 70
     1
102
RTVSPropertyOp24
 70
     1
102
RTVSPropertyOp25
 70
     1
102
RTVSPropertyOp26
 70
     1
102
RTVSPropertyOp27
 70
     1
102
RTVSPropertyOp28
 70
     1
102
RTVSPropertyOp29
 70
     1
102
RTVSPropertyOp30
 70
     1
102
RTVSPropertyOp31
 70
     1
102
RTVSPropertyOp32
 70
     1
  0
ENDSEC
  0
EOF
