  0
SECTION
  2
HEADER
  9
$ACADVER
  1
AC1018
  9
$ACADMAINTVER
 70
     0
  9
$DWGCODEPAGE
  3
ANSI_1252
  9
$INSBASE
 10
0.0
 20
0.0
 30
0.0
  9
$EXTMIN
 10
-223.5430145697899
 20
-1.68244129823603
 30
0.0
  9
$EXTMAX
 10
73.45698543020819
 20
208.3175587017641
 30
0.0
  9
$LIMMIN
 10
0.0
 20
0.0
  9
$LIMMAX
 10
12.0
 20
9.0
  9
$ORTHOMODE
 70
     0
  9
$REGENMODE
 70
     1
  9
$FILLMODE
 70
     1
  9
$QTEXTMODE
 70
     0
  9
$MIRRTEXT
 70
     1
  9
$LTSCALE
 40
1.0
  9
$ATTMODE
 70
     1
  9
$TEXTSIZE
 40
0.2
  9
$TRACEWID
 40
0.05
  9
$TEXTSTYLE
  7
Standard
  9
$CLAYER
  8
0
  9
$CELTYPE
  6
ByLayer
  9
$CECOLOR
 62
   256
  9
$CELTSCALE
 40
1.0
  9
$DISPSILH
 70
     0
  9
$DIMSCALE
 40
1.0
  9
$DIMASZ
 40
0.18
  9
$DIMEXO
 40
0.0625
  9
$DIMDLI
 40
0.38
  9
$DIMRND
 40
0.0
  9
$DIMDLE
 40
0.0
  9
$DIMEXE
 40
0.18
  9
$DIMTP
 40
0.0
  9
$DIMTM
 40
0.0
  9
$DIMTXT
 40
0.18
  9
$DIMCEN
 40
0.09
  9
$DIMTSZ
 40
0.0
  9
$DIMTOL
 70
     0
  9
$DIMLIM
 70
     0
  9
$DIMTIH
 70
     1
  9
$DIMTOH
 70
     1
  9
$DIMSE1
 70
     0
  9
$DIMSE2
 70
     0
  9
$DIMTAD
 70
     0
  9
$DIMZIN
 70
     0
  9
$DIMBLK
  1

  9
$DIMASO
 70
     1
  9
$DIMSHO
 70
     1
  9
$DIMPOST
  1

  9
$DIMAPOST
  1

  9
$DIMALT
 70
     0
  9
$DIMALTD
 70
     2
  9
$DIMALTF
 40
25.4
  9
$DIMLFAC
 40
1.0
  9
$DIMTOFL
 70
     0
  9
$DIMTVP
 40
0.0
  9
$DIMTIX
 70
     0
  9
$DIMSOXD
 70
     0
  9
$DIMSAH
 70
     0
  9
$DIMBLK1
  1

  9
$DIMBLK2
  1

  9
$DIMSTYLE
  2
Standard
  9
$DIMCLRD
 70
     0
  9
$DIMCLRE
 70
     0
  9
$DIMCLRT
 70
     0
  9
$DIMTFAC
 40
1.0
  9
$DIMGAP
 40
0.09
  9
$DIMJUST
 70
     0
  9
$DIMSD1
 70
     0
  9
$DIMSD2
 70
     0
  9
$DIMTOLJ
 70
     1
  9
$DIMTZIN
 70
     0
  9
$DIMALTZ
 70
     0
  9
$DIMALTTZ
 70
     0
  9
$DIMUPT
 70
     0
  9
$DIMDEC
 70
     4
  9
$DIMTDEC
 70
     4
  9
$DIMALTU
 70
     2
  9
$DIMALTTD
 70
     2
  9
$DIMTXSTY
  7
Standard
  9
$DIMAUNIT
 70
     0
  9
$DIMADEC
 70
     0
  9
$DIMALTRND
 40
0.0
  9
$DIMAZIN
 70
     0
  9
$DIMDSEP
 70
    46
  9
$DIMATFIT
 70
     3
  9
$DIMFRAC
 70
     0
  9
$DIMLDRBLK
  1

  9
$DIMLUNIT
 70
     2
  9
$DIMLWD
 70
    -2
  9
$DIMLWE
 70
    -2
  9
$DIMTMOVE
 70
     0
  9
$LUNITS
 70
     2
  9
$LUPREC
 70
     4
  9
$SKETCHINC
 40
0.1
  9
$FILLETRAD
 40
0.5
  9
$AUNITS
 70
     0
  9
$AUPREC
 70
     0
  9
$MENU
  1
.
  9
$ELEVATION
 40
0.0
  9
$PELEVATION
 40
0.0
  9
$THICKNESS
 40
0.0
  9
$LIMCHECK
 70
     0
  9
$CHAMFERA
 40
0.5
  9
$CHAMFERB
 40
0.5
  9
$CHAMFERC
 40
1.0
  9
$CHAMFERD
 40
0.0
  9
$SKPOLY
 70
     0
  9
$TDCREATE
 40
2458158.722702407
  9
$TDUCREATE
 40
2458158.681035741
  9
$TDUPDATE
 40
2458158.722702951
  9
$TDUUPDATE
 40
2458158.681036285
  9
$TDINDWG
 40
0.0000000116
  9
$TDUSRTIMER
 40
0.0000000116
  9
$USRTIMER
 70
     1
  9
$ANGBASE
 50
0.0
  9
$ANGDIR
 70
     0
  9
$PDMODE
 70
     0
  9
$PDSIZE
 40
0.0
  9
$PLINEWID
 40
0.0
  9
$SPLFRAME
 70
     0
  9
$SPLINETYPE
 70
     6
  9
$SPLINESEGS
 70
     8
  9
$HANDSEED
  5
340
  9
$SURFTAB1
 70
     6
  9
$SURFTAB2
 70
     6
  9
$SURFTYPE
 70
     6
  9
$SURFU
 70
     6
  9
$SURFV
 70
     6
  9
$UCSBASE
  2

  9
$UCSNAME
  2

  9
$UCSORG
 10
0.0
 20
0.0
 30
0.0
  9
$UCSXDIR
 10
1.0
 20
0.0
 30
0.0
  9
$UCSYDIR
 10
0.0
 20
1.0
 30
0.0
  9
$UCSORTHOREF
  2

  9
$UCSORTHOVIEW
 70
     0
  9
$UCSORGTOP
 10
0.0
 20
0.0
 30
0.0
  9
$UCSORGBOTTOM
 10
0.0
 20
0.0
 30
0.0
  9
$UCSORGLEFT
 10
0.0
 20
0.0
 30
0.0
  9
$UCSORGRIGHT
 10
0.0
 20
0.0
 30
0.0
  9
$UCSORGFRONT
 10
0.0
 20
0.0
 30
0.0
  9
$UCSORGBACK
 10
0.0
 20
0.0
 30
0.0
  9
$PUCSBASE
  2

  9
$PUCSNAME
  2

  9
$PUCSORG
 10
0.0
 20
0.0
 30
0.0
  9
$PUCSXDIR
 10
1.0
 20
0.0
 30
0.0
  9
$PUCSYDIR
 10
0.0
 20
1.0
 30
0.0
  9
$PUCSORTHOREF
  2

  9
$PUCSORTHOVIEW
 70
     0
  9
$PUCSORGTOP
 10
0.0
 20
0.0
 30
0.0
  9
$PUCSORGBOTTOM
 10
0.0
 20
0.0
 30
0.0
  9
$PUCSORGLEFT
 10
0.0
 20
0.0
 30
0.0
  9
$PUCSORGRIGHT
 10
0.0
 20
0.0
 30
0.0
  9
$PUCSORGFRONT
 10
0.0
 20
0.0
 30
0.0
  9
$PUCSORGBACK
 10
0.0
 20
0.0
 30
0.0
  9
$USERI1
 70
     0
  9
$USERI2
 70
     0
  9
$USERI3
 70
     0
  9
$USERI4
 70
     0
  9
$USERI5
 70
     0
  9
$USERR1
 40
18.1
  9
$USERR2
 40
0.0
  9
$USERR3
 40
0.0
  9
$USERR4
 40
0.0
  9
$USERR5
 40
0.0
  9
$WORLDVIEW
 70
     1
  9
$SHADEDGE
 70
     3
  9
$SHADEDIF
 70
    70
  9
$TILEMODE
 70
     1
  9
$MAXACTVP
 70
    64
  9
$PINSBASE
 10
0.0
 20
0.0
 30
0.0
  9
$PLIMCHECK
 70
     0
  9
$PEXTMIN
 10
1.00000000000000E+20
 20
1.00000000000000E+20
 30
1.00000000000000E+20
  9
$PEXTMAX
 10
-1.00000000000000E+20
 20
-1.00000000000000E+20
 30
-1.00000000000000E+20
  9
$PLIMMIN
 10
0.0
 20
0.0
  9
$PLIMMAX
 10
12.0
 20
9.0
  9
$UNITMODE
 70
     0
  9
$VISRETAIN
 70
     1
  9
$PLINEGEN
 70
     0
  9
$PSLTSCALE
 70
     1
  9
$TREEDEPTH
 70
  3020
  9
$CMLSTYLE
  2
Standard
  9
$CMLJUST
 70
     0
  9
$CMLSCALE
 40
1.0
  9
$PROXYGRAPHICS
 70
     1
  9
$MEASUREMENT
 70
     1
  9
$CELWEIGHT
370
    -1
  9
$ENDCAPS
280
     0
  9
$JOINSTYLE
280
     0
  9
$LWDISPLAY
290
     0
  9
$INSUNITS
 70
     4
  9
$HYPERLINKBASE
  1

  9
$STYLESHEET
  1

  9
$XEDIT
290
     1
  9
$CEPSNTYPE
380
     0
  9
$PSTYLEMODE
290
     1
  9
$FINGERPRINTGUID
  2
{5C653F08-3E4A-4A84-B792-C9A47403750B}
  9
$VERSIONGUID
  2
{FAEB1C32-E019-11D5-929B-00C0DF256EC4}
  9
$EXTNAMES
290
     1
  9
$PSVPSCALE
 40
0.0
  9
$OLESTARTUP
290
     0
  9
$SORTENTS
280
   127
  9
$INDEXCTL
280
     0
  9
$HIDETEXT
280
     1
  9
$XCLIPFRAME
290
     0
  9
$HALOGAP
280
     0
  9
$OBSCOLOR
 70
   257
  9
$OBSLTYPE
280
     0
  9
$INTERSECTIONDISPLAY
280
     0
  9
$INTERSECTIONCOLOR
 70
   257
  9
$DIMASSOC
280
     2
  9
$PROJECTNAME
  1

  0
ENDSEC
  0
SECTION
  2
CLASSES
  0
CLASS
  1
ACDBDICTIONARYWDFLT
  2
AcDbDictionaryWithDefault
  3
ObjectDBX Classes
 90
        0
 91
        4
280
     0
281
     0
  0
CLASS
  1
VISUALSTYLE
  2
AcDbVisualStyle
  3
ObjectDBX Classes
 90
     4095
 91
        4
280
     0
281
     0
  0
CLASS
  1
MATERIAL
  2
AcDbMaterial
  3
ObjectDBX Classes
 90
     1153
 91
        4
280
     0
281
     0
  0
ENDSEC
  0
SECTION
  2
TABLES
  0
TABLE
  2
VPORT
  5
8
330
0
100
AcDbSymbolTable
 70
     1
  0
VPORT
  5
29
330
8
100
AcDbSymbolTableRecord
100
AcDbViewportTableRecord
  2
*Active
 70
     0
 10
0.0
 20
0.0
 11
1.0
 21
1.0
 12
-75.04301456979086
 22
103.317558701764
 13
0.0
 23
0.0
 14
0.5
 24
0.5
 15
0.5
 25
0.5
 16
0.0
 26
0.0
 36
1.0
 17
0.0
 27
0.0
 37
0.0
 40
231.0000000000002
 41
1.60267857142857
 42
50.0
 43
0.0
 44
0.0
 50
0.0
 51
0.0
 71
     0
 72
   100
 73
     1
 74
     3
 75
     0
 76
     0
 77
     0
 78
     0
281
     0
 65
     1
110
0.0
120
0.0
130
0.0
111
1.0
121
0.0
131
0.0
112
0.0
122
1.0
132
0.0
 79
     0
146
0.0
  0
ENDTAB
  0
TABLE
  2
LTYPE
  5
5
330
0
100
AcDbSymbolTable
 70
     8
  0
LTYPE
  5
14
330
5
100
AcDbSymbolTableRecord
100
AcDbLinetypeTableRecord
  2
ByBlock
 70
     0
  3

 72
    65
 73
     0
 40
0.0
  0
LTYPE
  5
15
330
5
100
AcDbSymbolTableRecord
100
AcDbLinetypeTableRecord
  2
ByLayer
 70
     0
  3

 72
    65
 73
     0
 40
0.0
  0
LTYPE
  5
16
330
5
100
AcDbSymbolTableRecord
100
AcDbLinetypeTableRecord
  2
Continuous
 70
     0
  3
Solid line
 72
    65
 73
     0
 40
0.0
  0
LTYPE
  5
3F
330
5
100
AcDbSymbolTableRecord
100
AcDbLinetypeTableRecord
  2
DASHED
 70
     0
  3
Dashed
 72
    65
 73
     2
 40
15.0
 49
7.0
 74
     0
 49
-8.0
 74
     0
  0
LTYPE
  5
40
330
5
100
AcDbSymbolTableRecord
100
AcDbLinetypeTableRecord
  2
DOTTED
 70
     0
  3
Dotted
 72
    65
 73
     2
 40
1.0
 49
0.0
 74
     0
 49
-1.0
 74
     0
  0
LTYPE
  5
41
330
5
100
AcDbSymbolTableRecord
100
AcDbLinetypeTableRecord
  2
DOT_CENTER
 70
     0
  3
Dot_Center
 72
    65
 73
     4
 40
14.0
 49
12.0
 74
     0
 49
-1.0
 74
     0
 49
0.0
 74
     0
 49
-1.0
 74
     0
  0
LTYPE
  5
42
330
5
100
AcDbSymbolTableRecord
100
AcDbLinetypeTableRecord
  2
LONG_DASHED
 70
     0
  3
Long_Dashed
 72
    65
 73
     2
 40
15.0
 49
10.0
 74
     0
 49
-5.0
 74
     0
  0
LTYPE
  5
43
330
5
100
AcDbSymbolTableRecord
100
AcDbLinetypeTableRecord
  2
DASH_CENTER
 70
     0
  3
Dash_Center
 72
    65
 73
     4
 40
14.0
 49
11.0
 74
     0
 49
-1.0
 74
     0
 49
1.0
 74
     0
 49
-1.0
 74
     0
  0
LTYPE
  5
44
330
5
100
AcDbSymbolTableRecord
100
AcDbLinetypeTableRecord
  2
PHANTOM
 70
     0
  3
Phantom
 72
    65
 73
     6
 40
13.0
 49
10.0
 74
     0
 49
-1.0
 74
     0
 49
0.0
 74
     0
 49
-1.0
 74
     0
 49
0.0
 74
     0
 49
-1.0
 74
     0
  0
LTYPE
  5
45
330
5
100
AcDbSymbolTableRecord
100
AcDbLinetypeTableRecord
  2
CENTER_DASH_DASH
 70
     0
  3
Center_Dash_Dash
 72
    65
 73
     6
 40
14.0
 49
9.0
 74
     0
 49
-1.0
 74
     0
 49
1.0
 74
     0
 49
-1.0
 74
     0
 49
1.0
 74
     0
 49
-1.0
 74
     0
  0
ENDTAB
  0
TABLE
  2
LAYER
  5
2
330
0
100
AcDbSymbolTable
 70
     2
  0
LAYER
  5
10
330
2
100
AcDbSymbolTableRecord
100
AcDbLayerTableRecord
  2
0
 70
     0
 62
     7
  6
Continuous
370
    -3
390
F
  0
LAYER
  5
46
330
2
100
AcDbSymbolTableRecord
100
AcDbLayerTableRecord
  2
1
 70
     0
 62
     7
  6
Continuous
370
    -3
390
F
  0
ENDTAB
  0
TABLE
  2
STYLE
  5
3
330
0
100
AcDbSymbolTable
 70
     5
  0
STYLE
  5
11
330
3
100
AcDbSymbolTableRecord
100
AcDbTextStyleTableRecord
  2
Standard
 70
     0
 40
0.0
 41
1.0
 50
0.0
 71
     0
 42
0.2
  3
txt
  4

  0
STYLE
  5
DD
330
3
100
AcDbSymbolTableRecord
100
AcDbTextStyleTableRecord
  2
CONVERTER_11
 70
     0
 40
0.0
 41
0.9
 50
0.0
 71
     0
 42
0.2
  3
txt.shx
  4

  0
STYLE
  5
2D6
330
3
100
AcDbSymbolTableRecord
100
AcDbTextStyleTableRecord
  2
CONVERTER_12
 70
     0
 40
0.0
 41
0.81
 50
0.0
 71
     0
 42
0.2
  3
txt.shx
  4

  0
STYLE
  5
2DC
330
3
100
AcDbSymbolTableRecord
100
AcDbTextStyleTableRecord
  2
CONVERTER_13
 70
     0
 40
0.0
 41
0.855
 50
0.0
 71
     0
 42
0.2
  3
txt.shx
  4

  0
STYLE
  5
2DF
330
3
100
AcDbSymbolTableRecord
100
AcDbTextStyleTableRecord
  2
CONVERTER_14
 70
     0
 40
0.0
 41
0.72
 50
0.0
 71
     0
 42
0.2
  3
txt.shx
  4

  0
ENDTAB
  0
TABLE
  2
VIEW
  5
6
330
0
100
AcDbSymbolTable
 70
     0
  0
ENDTAB
  0
TABLE
  2
UCS
  5
7
330
0
100
AcDbSymbolTable
 70
     0
  0
ENDTAB
  0
TABLE
  2
APPID
  5
9
330
0
100
AcDbSymbolTable
 70
     1
  0
APPID
  5
12
330
9
100
AcDbSymbolTableRecord
100
AcDbRegAppTableRecord
  2
ACAD
 70
     0
  0
ENDTAB
  0
TABLE
  2
DIMSTYLE
  5
A
330
0
100
AcDbSymbolTable
 70
     4
100
AcDbDimStyleTable
  0
DIMSTYLE
105
27
330
A
100
AcDbSymbolTableRecord
100
AcDbDimStyleTableRecord
  2
Standard
 70
     0
178
     0
340
11
  0
DIMSTYLE
105
108
102
{ACAD_REACTORS
330
109
102
}
330
A
100
AcDbSymbolTableRecord
100
AcDbDimStyleTableRecord
  2
ME10_DIM_10
 70
     0
 41
3.5
 42
0.0
 44
1.5
 73
     0
 74
     0
 77
     1
 78
     8
140
3.5
147
1.5
172
     1
173
     1
174
     1
175
     1
176
     2
177
     2
178
     3
340
DD
  0
DIMSTYLE
105
1D2
102
{ACAD_REACTORS
330
1D3
102
}
330
A
100
AcDbSymbolTableRecord
100
AcDbDimStyleTableRecord
  2
ME10_DIM_11
 70
     0
 41
3.5
 42
0.0
 44
1.5
 73
     0
 74
     0
 77
     1
 78
     8
140
3.5
147
1.5
172
     1
173
     1
174
     1
175
     1
176
     2
177
     2
178
     3
340
DD
  0
DIMSTYLE
105
1DD
102
{ACAD_REACTORS
330
1DE
102
}
330
A
100
AcDbSymbolTableRecord
100
AcDbDimStyleTableRecord
  2
ME10_DIM_12
 70
     0
 41
3.5
 42
0.0
 44
1.5
 73
     0
 74
     0
 77
     1
 78
     8
140
3.5
147
1.5
172
     1
173
     1
174
     1
175
     1
176
     2
177
     2
178
     3
340
DD
  0
ENDTAB
  0
TABLE
  2
BLOCK_RECORD
  5
1
330
0
100
AcDbSymbolTable
 70
    20
  0
BLOCK_RECORD
  5
1F
330
1
100
AcDbSymbolTableRecord
100
AcDbBlockTableRecord
  2
*Model_Space
340
22
  0
BLOCK_RECORD
  5
1B
330
1
100
AcDbSymbolTableRecord
100
AcDbBlockTableRecord
  2
*Paper_Space
340
1E
  0
BLOCK_RECORD
  5
23
330
1
100
AcDbSymbolTableRecord
100
AcDbBlockTableRecord
  2
*Paper_Space0
340
26
  0
BLOCK_RECORD
  5
47
330
1
100
AcDbSymbolTableRecord
100
AcDbBlockTableRecord
  2
FBI_3-20_N_EX-select__1
340
0
102
{BLKREFS
331
4B
102
}
  0
BLOCK_RECORD
  5
4A
330
1
100
AcDbSymbolTableRecord
100
AcDbBlockTableRecord
  2
AllgSicht1
340
0
102
{BLKREFS
331
7D
102
}
  0
BLOCK_RECORD
  5
4E
330
1
100
AcDbSymbolTableRecord
100
AcDbBlockTableRecord
  2
FBI_3-20_N_EX-select__2
340
0
102
{BLKREFS
331
52
102
}
  0
BLOCK_RECORD
  5
51
330
1
100
AcDbSymbolTableRecord
100
AcDbBlockTableRecord
  2
Drfsicht1
340
0
102
{BLKREFS
331
7E
102
}
  0
BLOCK_RECORD
  5
55
330
1
100
AcDbSymbolTableRecord
100
AcDbBlockTableRecord
  2
FBI_3-20_N_EX-select__3
340
0
102
{BLKREFS
331
59
102
}
  0
BLOCK_RECORD
  5
58
330
1
100
AcDbSymbolTableRecord
100
AcDbBlockTableRecord
  2
Rckans1
340
0
102
{BLKREFS
331
7F
102
}
  0
BLOCK_RECORD
  5
5C
330
1
100
AcDbSymbolTableRecord
100
AcDbBlockTableRecord
  2
FBI_3-20_N_EX-select__4
340
0
102
{BLKREFS
331
60
102
}
  0
BLOCK_RECORD
  5
5F
330
1
100
AcDbSymbolTableRecord
100
AcDbBlockTableRecord
  2
SA_Links1
340
0
102
{BLKREFS
331
80
102
}
  0
BLOCK_RECORD
  5
63
330
1
100
AcDbSymbolTableRecord
100
AcDbBlockTableRecord
  2
FBI_3-20_N_EX-select__5
340
0
102
{BLKREFS
331
67
102
}
  0
BLOCK_RECORD
  5
66
330
1
100
AcDbSymbolTableRecord
100
AcDbBlockTableRecord
  2
SA_Rechts1
340
0
102
{BLKREFS
331
81
102
}
  0
BLOCK_RECORD
  5
6A
330
1
100
AcDbSymbolTableRecord
100
AcDbBlockTableRecord
  2
FBI_3-20_N_EX-select__6
340
0
102
{BLKREFS
331
6E
102
}
  0
BLOCK_RECORD
  5
6D
330
1
100
AcDbSymbolTableRecord
100
AcDbBlockTableRecord
  2
Vordans1
340
0
102
{BLKREFS
331
82
102
}
  0
BLOCK_RECORD
  5
71
330
1
100
AcDbSymbolTableRecord
100
AcDbBlockTableRecord
  2
_rahmen
340
0
102
{BLKREFS
331
78
102
}
  0
BLOCK_RECORD
  5
74
330
1
100
AcDbSymbolTableRecord
100
AcDbBlockTableRecord
  2
_punkt
340
0
102
{BLKREFS
331
79
102
}
  0
BLOCK_RECORD
  5
77
330
1
100
AcDbSymbolTableRecord
100
AcDbBlockTableRecord
  2
A4I_CS
340
0
102
{BLKREFS
331
83
102
}
  0
BLOCK_RECORD
  5
7C
330
1
100
AcDbSymbolTableRecord
100
AcDbBlockTableRecord
  2
1
340
0
102
{BLKREFS
331
86
102
}
  0
BLOCK_RECORD
  5
FF
330
1
100
AcDbSymbolTableRecord
100
AcDbBlockTableRecord
  2
*D17
340
0
  0
BLOCK_RECORD
  5
1C9
330
1
100
AcDbSymbolTableRecord
100
AcDbBlockTableRecord
  2
*D18
340
0
  0
BLOCK_RECORD
  5
1D4
330
1
100
AcDbSymbolTableRecord
100
AcDbBlockTableRecord
  2
*D19
340
0
  0
ENDTAB
  0
ENDSEC
  0
SECTION
  2
BLOCKS
  0
BLOCK
  5
20
330
1F
100
AcDbEntity
  8
0
100
AcDbBlockBegin
  2
*Model_Space
 70
     0
 10
0.0
 20
0.0
 30
0.0
  3
*Model_Space
  1

  0
ENDBLK
  5
21
330
1F
100
AcDbEntity
  8
0
100
AcDbBlockEnd
  0
BLOCK
  5
1C
330
1B
100
AcDbEntity
 67
     1
  8
0
100
AcDbBlockBegin
  2
*Paper_Space
 70
     0
 10
0.0
 20
0.0
 30
0.0
  3
*Paper_Space
  1

  0
ENDBLK
  5
1D
330
1B
100
AcDbEntity
 67
     1
  8
0
100
AcDbBlockEnd
  0
BLOCK
  5
24
330
23
100
AcDbEntity
  8
0
100
AcDbBlockBegin
  2
*Paper_Space0
 70
     0
 10
0.0
 20
0.0
 30
0.0
  3
*Paper_Space0
  1

  0
ENDBLK
  5
25
330
23
100
AcDbEntity
  8
0
100
AcDbBlockEnd
  0
BLOCK
  5
48
330
47
100
AcDbEntity
  8
0
100
AcDbBlockBegin
  2
FBI_3-20_N_EX-select__1
 70
     0
 10
-7.43897346050024
 20
55.17990067055618
 30
0.0
  3
FBI_3-20_N_EX-select__1
  1

  0
LINE
  5
87
330
47
100
AcDbEntity
  8
0
  6
Continuous
 62
     7
100
AcDbLine
 10
17.14999928523394
 20
88.11662282793131
 30
0.0
 11
17.14999928523394
 21
93.31277525063794
 31
0.0
  0
LINE
  5
88
330
47
100
AcDbEntity
  8
0
  6
Continuous
 62
     7
100
AcDbLine
 10
23.593374958208
 20
94.56277525063794
 30
0.0
 11
20.70662361225986
 21
94.56277525063794
 31
0.0
  0
LINE
  5
89
330
47
100
AcDbEntity
  8
0
  6
Continuous
 62
     7
100
AcDbLine
 10
20.70662361225986
 20
94.56277525063794
 30
0.0
 11
19.2632479392858
 21
93.31277525063794
 31
0.0
  0
LINE
  5
8A
330
47
100
AcDbEntity
  8
0
  6
Continuous
 62
     7
100
AcDbLine
 10
4.33897203096813
 20
64.8525902736988
 30
0.0
 11
-7.43897346050024
 21
68.25259027369879
 31
0.0
  0
LINE
  5
8B
330
47
100
AcDbEntity
  8
0
  6
Continuous
 62
     7
100
AcDbLine
 10
-7.43897346050024
 20
68.25259027369879
 30
0.0
 11
-7.43897346050024
 21
63.9224632547766
 31
0.0
  0
LINE
  5
8C
330
47
100
AcDbEntity
  8
0
  6
Continuous
 62
     7
100
AcDbLine
 10
20.70662361225986
 20
92.06277525063794
 30
0.0
 11
23.593374958208
 21
92.06277525063794
 31
0.0
  0
LINE
  5
8D
330
47
100
AcDbEntity
  8
0
  6
Continuous
 62
     7
100
AcDbLine
 10
19.2632479392858
 20
93.31277525063794
 30
0.0
 11
20.70662361225986
 21
92.06277525063794
 31
0.0
  0
LINE
  5
8E
330
47
100
AcDbEntity
  8
0
  6
Continuous
 62
     7
100
AcDbLine
 10
27.14999928523393
 20
88.11662282793131
 30
0.0
 11
27.14999928523393
 21
93.31277525063794
 31
0.0
  0
LINE
  5
8F
330
47
100
AcDbEntity
  8
0
  6
Continuous
 62
     7
100
AcDbLine
 10
23.593374958208
 20
94.56277525063794
 30
0.0
 11
23.593374958208
 21
92.06277525063794
 31
0.0
  0
LINE
  5
90
330
47
100
AcDbEntity
  8
0
  6
Continuous
 62
     7
100
AcDbLine
 10
25.03675063118207
 20
93.31277525063794
 30
0.0
 11
23.593374958208
 21
94.56277525063794
 31
0.0
  0
LINE
  5
91
330
47
100
AcDbEntity
  8
0
  6
Continuous
 62
     7
100
AcDbLine
 10
23.593374958208
 20
92.06277525063794
 30
0.0
 11
25.03675063118207
 21
93.31277525063794
 31
0.0
  0
LINE
  5
92
330
47
100
AcDbEntity
  8
0
  6
Continuous
 62
     7
100
AcDbLine
 10
20.70662361225986
 20
94.56277525063794
 30
0.0
 11
20.70662361225986
 21
92.06277525063794
 31
0.0
  0
LINE
  5
93
330
47
100
AcDbEntity
  8
0
  6
Continuous
 62
     7
100
AcDbLine
 10
6.99999928523393
 20
80.75710747605574
 30
0.0
 11
3.84503577552187
 21
78.02482892863216
 31
0.0
  0
LINE
  5
94
330
47
100
AcDbEntity
  8
0
  6
Continuous
 62
     7
100
AcDbLine
 10
4.73675063118207
 20
75.73245955381384
 30
0.0
 11
3.293374958208
 21
76.98245955381384
 31
0.0
  0
LINE
  5
95
330
47
100
AcDbEntity
  8
0
  6
Continuous
 62
     7
100
AcDbLine
 10
3.293374958208
 20
76.98245955381384
 30
0.0
 11
0.40662361225986
 21
76.98245955381384
 31
0.0
  0
LINE
  5
96
330
47
100
AcDbEntity
  8
0
  6
Continuous
 62
     7
100
AcDbLine
 10
3.293374958208
 20
76.98245955381384
 30
0.0
 11
3.293374958208
 21
74.48245955381384
 31
0.0
  0
LINE
  5
97
330
47
100
AcDbEntity
  8
0
  6
Continuous
 62
     7
100
AcDbLine
 10
17.14999928523394
 20
89.54726532446779
 30
0.0
 11
13.99503577552185
 21
86.8149867770442
 31
0.0
  0
LINE
  5
98
330
47
100
AcDbEntity
  8
0
  6
Continuous
 62
     7
100
AcDbLine
 10
0.40662361225985
 20
74.48245955381384
 30
0.0
 11
3.293374958208
 21
74.48245955381384
 31
0.0
  0
LINE
  5
99
330
47
100
AcDbEntity
  8
0
  6
Continuous
 62
     7
100
AcDbLine
 10
3.293374958208
 20
74.48245955381384
 30
0.0
 11
4.73675063118207
 21
75.73245955381384
 31
0.0
  0
LINE
  5
9A
330
47
100
AcDbEntity
  8
0
  6
Continuous
 62
     7
100
AcDbLine
 10
-3.15000071476607
 20
70.53630713110721
 30
0.0
 11
-3.15000071476606
 21
75.73245955381384
 31
0.0
  0
LINE
  5
9B
330
47
100
AcDbEntity
  8
0
  6
Continuous
 62
     7
100
AcDbLine
 10
-3.15000071476606
 20
71.96694962764367
 30
0.0
 11
-7.43897346050024
 21
68.25259027369879
 31
0.0
  0
LINE
  5
9C
330
47
100
AcDbEntity
  8
0
  6
Continuous
 62
     7
100
AcDbLine
 10
-3.15000071476609
 20
70.00321783586425
 30
0.0
 11
-3.15000071476606
 21
69.49707664656587
 31
0.0
  0
LINE
  5
9D
330
47
100
AcDbEntity
  8
0
  6
Continuous
 62
     7
100
AcDbLine
 10
0.40662361225986
 20
76.98245955381384
 30
0.0
 11
0.40662361225985
 21
74.48245955381384
 31
0.0
  0
LINE
  5
9E
330
47
100
AcDbEntity
  8
0
  6
Continuous
 62
     7
100
AcDbLine
 10
-1.03675206071421
 20
75.73245955381384
 30
0.0
 11
0.40662361225985
 21
74.48245955381384
 31
0.0
  0
LINE
  5
9F
330
47
100
AcDbEntity
  8
0
  6
Continuous
 62
     7
100
AcDbLine
 10
0.40662361225986
 20
76.98245955381384
 30
0.0
 11
-1.03675206071421
 21
75.73245955381384
 31
0.0
  0
LINE
  5
A0
330
47
100
AcDbEntity
  8
0
  6
Continuous
 62
     7
100
AcDbLine
 10
6.84999928523393
 20
70.53630713110721
 30
0.0
 11
6.84999928523393
 21
75.73245955381384
 31
0.0
  0
LINE
  5
A1
330
47
100
AcDbEntity
  8
0
  6
Continuous
 62
     7
100
AcDbLine
 10
6.99999928523393
 20
79.32646497951926
 30
0.0
 11
6.99999928523393
 21
84.52261740222589
 31
0.0
  0
LINE
  5
A2
330
47
100
AcDbEntity
  8
0
  6
Continuous
 62
     7
100
AcDbLine
 10
6.84999928523393
 20
70.00321783586423
 30
0.0
 11
6.84999928523393
 21
69.49707664656587
 31
0.0
  0
LINE
  5
A3
330
47
100
AcDbEntity
  8
0
  6
Continuous
 62
     7
100
AcDbLine
 10
16.99999928523393
 20
79.32646497951926
 30
0.0
 11
16.99999928523393
 21
84.52261740222589
 31
0.0
  0
LINE
  5
A4
330
47
100
AcDbEntity
  8
0
  6
Continuous
 62
     7
100
AcDbLine
 10
16.99999928523393
 20
78.7933756842763
 30
0.0
 11
16.99999928523393
 21
78.28723449497792
 31
0.0
  0
LINE
  5
A5
330
47
100
AcDbEntity
  8
0
  6
Continuous
 62
     7
100
AcDbLine
 10
9.11324793928581
 20
84.52261740222589
 30
0.0
 11
10.55662361225985
 21
85.77261740222589
 31
0.0
  0
LINE
  5
A6
330
47
100
AcDbEntity
  8
0
  6
Continuous
 62
     7
100
AcDbLine
 10
10.55662361225985
 20
85.77261740222589
 30
0.0
 11
13.44337495820799
 21
85.77261740222589
 31
0.0
  0
LINE
  5
A7
330
47
100
AcDbEntity
  8
0
  6
Continuous
 62
     7
100
AcDbLine
 10
14.99999928523393
 20
65.47005851896823
 30
0.0
 11
14.99999928523393
 21
69.75518368740904
 31
0.0
  0
LINE
  5
A8
330
47
100
AcDbEntity
  8
0
  6
Continuous
 62
     7
100
AcDbLine
 10
17.14999928523393
 20
87.58353353268835
 30
0.0
 11
17.14999928523394
 21
87.07739234338999
 31
0.0
  0
LINE
  5
A9
330
47
100
AcDbEntity
  8
0
  6
Continuous
 62
     7
100
AcDbLine
 10
27.14999928523393
 20
87.58353353268834
 30
0.0
 11
27.14999928523393
 21
87.07739234338997
 31
0.0
  0
LINE
  5
AA
330
47
100
AcDbEntity
  8
0
  6
Continuous
 62
     7
100
AcDbLine
 10
13.443374958208
 20
83.27261740222589
 30
0.0
 11
10.55662361225986
 21
83.27261740222589
 31
0.0
  0
LINE
  5
AB
330
47
100
AcDbEntity
  8
0
  6
Continuous
 62
     7
100
AcDbLine
 10
14.88675063118207
 20
84.52261740222589
 30
0.0
 11
13.443374958208
 21
83.27261740222589
 31
0.0
  0
LINE
  5
AC
330
47
100
AcDbEntity
  8
0
  6
Continuous
 62
     7
100
AcDbLine
 10
10.55662361225986
 20
83.27261740222589
 30
0.0
 11
9.11324793928581
 21
84.52261740222589
 31
0.0
  0
LINE
  5
AD
330
47
100
AcDbEntity
  8
0
  6
Continuous
 62
     7
100
AcDbLine
 10
25.14999928523393
 20
74.26021636738028
 30
0.0
 11
25.14999928523393
 21
78.5453415358211
 31
0.0
  0
LINE
  5
AE
330
47
100
AcDbEntity
  8
0
  6
Continuous
 62
     7
100
AcDbLine
 10
6.99999928523393
 20
78.7933756842763
 30
0.0
 11
6.99999928523393
 21
78.28723449497792
 31
0.0
  0
LINE
  5
AF
330
47
100
AcDbEntity
  8
0
  6
Continuous
 62
     7
100
AcDbLine
 10
13.44337495820799
 20
85.77261740222589
 30
0.0
 11
13.443374958208
 21
83.27261740222589
 31
0.0
  0
LINE
  5
B0
330
47
100
AcDbEntity
  8
0
  6
Continuous
 62
     7
100
AcDbLine
 10
10.55662361225986
 20
83.27261740222589
 30
0.0
 11
10.55662361225985
 21
85.77261740222589
 31
0.0
  0
LINE
  5
B1
330
47
100
AcDbEntity
  8
0
  6
Continuous
 62
     7
100
AcDbLine
 10
13.44337495820799
 20
85.77261740222589
 30
0.0
 11
14.88675063118207
 21
84.52261740222589
 31
0.0
  0
LINE
  5
B2
330
47
100
AcDbEntity
  8
0
  6
Continuous
 62
     7
100
AcDbLine
 10
31.43897203096812
 20
83.99175169733488
 30
0.0
 11
31.43897203096812
 21
88.32187871625706
 31
0.0
  0
LINE
  5
B3
330
47
100
AcDbEntity
  8
0
  6
Continuous
 62
     7
100
AcDbLine
 10
31.43897203096812
 20
88.32187871625706
 30
0.0
 11
4.33897203096813
 21
64.8525902736988
 31
0.0
  0
LINE
  5
B4
330
47
100
AcDbEntity
  8
0
  6
Continuous
 62
     7
100
AcDbLine
 10
27.14999928523393
 20
89.55999850090537
 30
0.0
 11
31.43897203096812
 21
88.32187871625706
 31
0.0
  0
LINE
  5
B5
330
47
100
AcDbEntity
  8
0
  6
Continuous
 62
     7
100
AcDbLine
 10
4.84999928523393
 20
56.67990067055618
 30
0.0
 11
4.84999928523393
 21
60.96502583899698
 31
0.0
  0
LINE
  5
B6
330
47
100
AcDbEntity
  8
0
  6
Continuous
 62
     7
100
AcDbLine
 10
-1.15000071476607
 20
56.67990067055619
 30
0.0
 11
-1.15000071476609
 21
62.10699320093868
 31
0.0
  0
LINE
  5
B7
330
47
100
AcDbEntity
  8
0
  6
Continuous
 62
     7
100
AcDbLine
 10
4.33897203096813
 20
64.8525902736988
 30
0.0
 11
4.33897203096813
 21
60.5224632547766
 31
0.0
  0
LINE
  5
B8
330
47
100
AcDbEntity
  8
0
  6
Continuous
 62
     7
100
AcDbLine
 10
-7.43897346050024
 20
63.9224632547766
 30
0.0
 11
4.33897203096813
 21
60.5224632547766
 31
0.0
  0
LINE
  5
B9
330
47
100
AcDbEntity
  8
0
  6
Continuous
 62
     7
100
AcDbLine
 10
4.33897203096813
 20
60.5224632547766
 30
0.0
 11
31.43897203096812
 21
83.99175169733488
 31
0.0
  0
SPLINE
  5
BA
330
47
100
AcDbEntity
  8
0
  6
Continuous
 62
     7
100
AcDbSpline
210
0.0
220
0.0
230
1.0
 70
     8
 71
     3
 72
     9
 73
     5
 74
     3
 42
0.000000001
 43
0.0000000001
 44
0.00000001
 40
0.0
 40
0.0
 40
0.0
 40
0.0
 40
0.469786152201081
 40
0.871247159548266
 40
0.871247159548266
 40
0.871247159548266
 40
0.871247159548266
 10
14.59807549658725
 20
64.72005851896823
 30
0.0
 10
14.71415915634169
 20
64.83233349543852
 30
0.0
 10
14.92944338880986
 20
65.04055431833079
 30
0.0
 10
14.97774325303126
 20
65.33457640595361
 30
0.0
 10
14.99999928523393
 20
65.47005851896823
 30
0.0
 11
14.59807549658725
 21
64.72005851896823
 31
0.0
 11
14.89777599153695
 21
65.08183005481843
 31
0.0
 11
14.99999928523393
 21
65.47005851896823
 31
0.0
  0
SPLINE
  5
BB
330
47
100
AcDbEntity
  8
0
  6
Continuous
 62
     7
100
AcDbSpline
210
0.0
220
0.0
230
1.0
 70
     8
 71
     3
 72
    17
 73
    13
 74
    11
 42
0.000000001
 43
0.0000000001
 44
0.00000001
 40
0.0
 40
0.0
 40
0.0
 40
0.0
 40
0.531139017716357
 40
1.123934721584578
 40
1.815325666203703
 40
2.615362199969253
 40
3.5150854805074
 40
4.493375700779878
 40
5.521576442703548
 40
6.566861038771126
 40
7.595061673207067
 40
8.573352109596497
 40
8.573352109596497
 40
8.573352109596497
 40
8.573352109596497
 10
27.14999928523393
 20
93.31277525063794
 30
0.0
 10
27.12670729182551
 20
93.49065343526814
 30
0.0
 10
27.07741946886611
 20
93.86705859316577
 30
0.0
 10
26.71295640098705
 20
94.37480339136073
 30
0.0
 10
26.18006863199249
 20
94.82363335278417
 30
0.0
 10
25.4734909271621
 20
95.20428214432349
 30
0.0
 10
24.63024876702871
 20
95.50418380395794
 30
0.0
 10
23.68153250956521
 20
95.71133010711857
 30
0.0
 10
22.66775980721471
 20
95.81780472911083
 30
0.0
 10
21.63258116195729
 20
95.81573641468142
 30
0.0
 10
20.61682556171905
 20
95.71730314652727
 30
0.0
 10
19.96688576301218
 20
95.5563254849307
 30
0.0
 10
19.64999928523394
 20
95.47783876009903
 30
0.0
 11
27.14999928523393
 21
93.31277525063794
 31
0.0
 11
27.0407369472092
 21
93.83255444136772
 31
0.0
 11
26.71772657344695
 21
94.32961685832744
 31
0.0
 11
26.19508397449686
 21
94.78223827870438
 31
0.0
 11
25.49565231702822
 21
95.17063731433143
 31
0.0
 11
24.64999911057022
 21
95.47783860883582
 31
0.0
 11
23.69508425710867
 21
95.69041654137582
 31
0.0
 11
22.67264156505754
 21
95.79907981535175
 31
0.0
 11
21.62735696889567
 21
95.79907998905861
 31
0.0
 11
20.60491442130731
 21
95.69041637526077
 31
0.0
 11
19.64999928523394
 21
95.47783876009903
 31
0.0
  0
SPLINE
  5
BC
330
47
100
AcDbEntity
  8
0
  6
Continuous
 62
     7
100
AcDbSpline
210
0.0
220
0.0
230
1.0
 70
     8
 71
     3
 72
    13
 73
     9
 74
     7
 42
0.000000001
 43
0.0000000001
 44
0.00000001
 40
0.0
 40
0.0
 40
0.0
 40
0.0
 40
0.7564282299388
 40
1.445454923109869
 40
2.059728164491743
 40
2.599780698225166
 40
3.077343596607374
 40
3.518059688715068
 40
3.518059688715068
 40
3.518059688715068
 40
3.518059688715068
 10
19.64999928523394
 20
95.47783876009903
 30
0.0
 10
19.40960073205984
 20
95.4007579248668
 30
0.0
 10
18.9502243416964
 20
95.25346453357828
 30
0.0
 10
18.33339120475323
 20
94.94622258416881
 30
0.0
 10
17.82574872241024
 20
94.5936934248214
 30
0.0
 10
17.44904521795526
 20
94.1981151384547
 30
0.0
 10
17.19847824367005
 20
93.76756320196094
 30
0.0
 10
17.16572079238702
 20
93.46026097183032
 30
0.0
 10
17.14999928523394
 20
93.31277525063794
 30
0.0
 11
19.64999928523394
 21
95.47783876009903
 31
0.0
 11
18.9360613119867
 21
95.2278863136341
 31
0.0
 11
18.31977706963904
 21
94.91974427485428
 31
0.0
 11
17.81987236760884
 21
94.56277522139598
 31
0.0
 11
17.4515361813044
 21
94.16782560895211
 31
0.0
 11
17.22596063536371
 21
93.74689568464964
 31
0.0
 11
17.14999928523394
 21
93.31277525063794
 31
0.0
  0
SPLINE
  5
BD
330
47
100
AcDbEntity
  8
0
  6
Continuous
 62
     7
100
AcDbSpline
210
0.0
220
0.0
230
1.0
 70
     8
 71
     3
 72
    17
 73
    13
 74
    11
 42
0.000000001
 43
0.0000000001
 44
0.00000001
 40
0.0
 40
0.0
 40
0.0
 40
0.0
 40
0.4405135476857507
 40
0.9505412991977426
 40
1.522207971036303
 40
2.140054453178347
 40
2.78407036300414
 40
3.431956987402281
 40
4.061091761142968
 40
4.650455320670536
 40
5.18275450848098
 40
5.647122032876283
 40
5.647122032876283
 40
5.647122032876283
 40
5.647122032876283
 10
9.298622703521417
 20
64.81764673110432
 30
0.0
 10
9.409731120484645
 20
64.72076197021632
 30
0.0
 10
9.649481169266302
 20
64.5117037945313
 30
0.0
 10
10.11238872041238
 20
64.29162163629168
 30
0.0
 10
10.65173310316885
 20
64.11661070470294
 30
0.0
 10
11.25460061165353
 20
64.00537525223564
 30
0.0
 10
11.89066272667471
 20
63.95944996271771
 30
0.0
 10
12.53175294627665
 20
63.98225687368014
 30
0.0
 10
13.14918344230359
 20
64.07147626473758
 30
0.0
 10
13.71243009083992
 20
64.22643689996741
 30
0.0
 10
14.20545210626043
 20
64.4292703644799
 30
0.0
 10
14.47328612331979
 20
64.62763591833163
 30
0.0
 10
14.59807549658725
 20
64.72005851896823
 30
0.0
 11
9.298622703521417
 21
64.81764673110432
 31
0.0
 11
9.64253879689686
 21
64.54237612469205
 31
0.0
 11
10.09682920782096
 21
64.31053882784178
 31
0.0
 11
10.64022508037904
 21
64.13298965719618
 31
0.0
 11
11.24728443770119
 21
64.01804092624563
 31
0.0
 11
11.88958552394928
 21
63.97107492549652
 31
0.0
 11
12.53705608964784
 21
63.99429007601785
 31
0.0
 11
13.15938192705916
 21
64.08659995955048
 31
0.0
 11
13.72742644416743
 21
64.24368220941038
 31
0.0
 11
14.21459369430801
 21
64.45818277857711
 31
0.0
 11
14.59807549658725
 21
64.72005851896823
 31
0.0
  0
SPLINE
  5
BE
330
47
100
AcDbEntity
  8
0
  6
Continuous
 62
     7
100
AcDbSpline
210
0.0
220
0.0
230
1.0
 70
     8
 71
     3
 72
    21
 73
    17
 74
    15
 42
0.000000001
 43
0.0000000001
 44
0.00000001
 40
0.0
 40
0.0
 40
0.0
 40
0.0
 40
0.5702522115159436
 40
1.215203492802551
 40
1.976474550837753
 40
2.861631160685572
 40
3.85534767052918
 40
4.928214214449653
 40
6.042583065243948
 40
7.156951916038253
 40
8.229818459958716
 40
9.22353496980232
 40
10.10869157965013
 40
10.86996263768534
 40
11.51491391897195
 40
12.08516613048789
 40
12.08516613048789
 40
12.08516613048789
 40
12.08516613048789
 10
17.14999928523394
 20
93.31277525063794
 30
0.0
 10
17.17708402511922
 20
93.12177140160271
 30
0.0
 10
17.23480143472889
 20
92.7147435353649
 30
0.0
 10
17.6544462429006
 20
92.17614460162895
 30
0.0
 10
18.2602893869702
 20
91.70839171915235
 30
0.0
 10
19.0581661910286
 20
91.32222666736854
 30
0.0
 10
20.00111741024475
 20
91.03269903452077
 30
0.0
 10
21.04890219652954
 20
90.85310282716657
 30
0.0
 10
22.14999928523394
 20
90.79222924275223
 30
0.0
 10
23.25109637393834
 20
90.85310282716654
 30
0.0
 10
24.29888116022314
 20
91.03269903452075
 30
0.0
 10
25.24183237943926
 20
91.32222666736853
 30
0.0
 10
26.03970918349767
 20
91.70839171915235
 30
0.0
 10
26.64555232756728
 20
92.17614460162895
 30
0.0
 10
27.06519713573899
 20
92.7147435353649
 30
0.0
 10
27.12291454534866
 20
93.12177140160274
 30
0.0
 10
27.14999928523393
 20
93.31277525063794
 30
0.0
 11
17.14999928523394
 21
93.31277525063794
 31
0.0
 11
17.27536023958065
 21
92.75647297454904
 31
0.0
 11
17.64515494572183
 21
92.22806590284404
 31
0.0
 11
18.24084228609687
 21
91.75405091075035
 31
0.0
 11
19.03255027594026
 21
91.35819654446786
 31
0.0
 11
19.98058081895656
 21
91.0603533189659
 31
0.0
 11
21.03739461545237
 21
90.87545547018338
 31
0.0
 11
22.14999928523394
 21
90.81277551489124
 31
0.0
 11
23.26260395501551
 21
90.87545547018338
 31
0.0
 11
24.31941775151132
 21
91.06035331896588
 31
0.0
 11
25.26744829452761
 21
91.35819654446786
 31
0.0
 11
26.059156284371
 21
91.75405091075034
 31
0.0
 11
26.65484362474604
 21
92.22806590284404
 31
0.0
 11
27.02463833088723
 21
92.75647297454904
 31
0.0
 11
27.14999928523393
 21
93.31277525063794
 31
0.0
  0
SPLINE
  5
BF
330
47
100
AcDbEntity
  8
0
  6
Continuous
 62
     7
100
AcDbSpline
210
0.0
220
0.0
230
1.0
 70
     8
 71
     3
 72
    13
 73
     9
 74
     7
 42
0.000000001
 43
0.0000000001
 44
0.00000001
 40
0.0
 40
0.0
 40
0.0
 40
0.0
 40
0.756428229938809
 40
1.445454923109886
 40
2.059728164491771
 40
2.599780698225188
 40
3.077343596607398
 40
3.51805968871509
 40
3.51805968871509
 40
3.51805968871509
 40
3.51805968871509
 10
-0.6500007147660511
 20
77.89752306327495
 30
0.0
 10
-0.8903992679401559
 20
77.8204422280427
 30
0.0
 10
-1.349775658303597
 20
77.6731488367542
 30
0.0
 10
-1.966608795246767
 20
77.36590688734472
 30
0.0
 10
-2.474251277589759
 20
77.01337772799728
 30
0.0
 10
-2.850954782044758
 20
76.61779944163058
 30
0.0
 10
-3.101521756329967
 20
76.18724750513685
 30
0.0
 10
-3.134279207612989
 20
75.87994527500621
 30
0.0
 10
-3.150000714766065
 20
75.73245955381384
 30
0.0
 11
-0.6500007147660511
 21
77.89752306327495
 31
0.0
 11
-1.363938688013298
 21
77.64757061681001
 31
0.0
 11
-1.980222930360956
 21
77.33942857803018
 31
0.0
 11
-2.480127632391164
 21
76.98245952457187
 31
0.0
 11
-2.848463818695613
 21
76.58750991212801
 31
0.0
 11
-3.074039364636303
 21
76.16657998782554
 31
0.0
 11
-3.150000714766065
 21
75.73245955381384
 31
0.0
  0
SPLINE
  5
C0
330
47
100
AcDbEntity
  8
0
  6
Continuous
 62
     7
100
AcDbSpline
210
0.0
220
0.0
230
1.0
 70
     8
 71
     3
 72
     9
 73
     5
 74
     3
 42
0.000000001
 43
0.0000000001
 44
0.00000001
 40
0.0
 40
0.0
 40
0.0
 40
0.0
 40
0.1347868024167759
 40
0.2684397609488684
 40
0.2684397609488684
 40
0.2684397609488684
 40
0.2684397609488684
 10
27.12149964260065
 20
87.85007818030981
 30
0.0
 10
27.12980944670818
 20
87.80584411628365
 30
0.0
 10
27.14635913200815
 20
87.71774808821958
 30
0.0
 10
27.14878932900637
 20
87.62814556311749
 30
0.0
 10
27.14999928523393
 20
87.58353353268834
 30
0.0
 11
27.12149964260065
 21
87.85007818030981
 31
0.0
 11
27.14286929079779
 21
87.71699617407205
 31
0.0
 11
27.14999928523393
 21
87.58353353268834
 31
0.0
  0
SPLINE
  5
C1
330
47
100
AcDbEntity
  8
0
  6
Continuous
 62
     7
100
AcDbSpline
210
0.0
220
0.0
230
1.0
 70
     8
 71
     3
 72
     9
 73
     5
 74
     3
 42
0.000000001
 43
0.0000000001
 44
0.00000001
 40
0.0
 40
0.0
 40
0.0
 40
0.0
 40
0.134786802416777
 40
0.2684397609488837
 40
0.2684397609488837
 40
0.2684397609488837
 40
0.2684397609488837
 10
6.821499642600649
 20
70.26976248348572
 30
0.0
 10
6.829809446708184
 20
70.22552841945958
 30
0.0
 10
6.846359132008163
 20
70.13743239139549
 30
0.0
 10
6.848789329006379
 20
70.04782986629341
 30
0.0
 10
6.849999285233935
 20
70.00321783586423
 30
0.0
 11
6.821499642600649
 21
70.26976248348572
 31
0.0
 11
6.842869290797791
 21
70.13668047724796
 31
0.0
 11
6.849999285233935
 21
70.00321783586423
 31
0.0
  0
SPLINE
  5
C2
330
47
100
AcDbEntity
  8
0
  6
Continuous
 62
     7
100
AcDbSpline
210
0.0
220
0.0
230
1.0
 70
     8
 71
     3
 72
     9
 73
     5
 74
     3
 42
0.000000001
 43
0.0000000001
 44
0.00000001
 40
0.0
 40
0.0
 40
0.0
 40
0.0
 40
0.133652958532093
 40
0.268439760948886
 40
0.268439760948886
 40
0.268439760948886
 40
0.268439760948886
 10
-3.150000714766087
 20
70.00321783586425
 30
0.0
 10
-3.148790758538528
 20
70.0478298662934
 30
0.0
 10
-3.146360561540305
 20
70.1374323913955
 30
0.0
 10
-3.129810876240319
 20
70.22552841945958
 30
0.0
 10
-3.12150107213278
 20
70.26976248348574
 30
0.0
 11
-3.150000714766087
 21
70.00321783586425
 31
0.0
 11
-3.142870720329935
 21
70.13668047724796
 31
0.0
 11
-3.12150107213278
 21
70.26976248348574
 31
0.0
  0
SPLINE
  5
C3
330
47
100
AcDbEntity
  8
0
  6
Continuous
 62
     7
100
AcDbSpline
210
0.0
220
0.0
230
1.0
 70
     8
 71
     3
 72
    21
 73
    17
 74
    15
 42
0.000000001
 43
0.0000000001
 44
0.00000001
 40
0.0
 40
0.0
 40
0.0
 40
0.0
 40
0.5702522115159582
 40
1.215203492802558
 40
1.976474550837777
 40
2.861631160685585
 40
3.855347670529181
 40
4.928214214449643
 40
6.042583065243949
 40
7.156951916038254
 40
8.229818459958716
 40
9.223534969802316
 40
10.10869157965013
 40
10.86996263768534
 40
11.51491391897194
 40
12.08516613048789
 40
12.08516613048789
 40
12.08516613048789
 40
12.08516613048789
 10
-3.150000714766065
 20
75.73245955381384
 30
0.0
 10
-3.122915974880785
 20
75.54145570477861
 30
0.0
 10
-3.065198565271118
 20
75.1344278385408
 30
0.0
 10
-2.645553757099386
 20
74.59582890480483
 30
0.0
 10
-2.039710613029789
 20
74.12807602232826
 30
0.0
 10
-1.241833808971382
 20
73.74191097054445
 30
0.0
 10
-0.2988825897552593
 20
73.45238333769666
 30
0.0
 10
0.7489021965295348
 20
73.27278713034244
 30
0.0
 10
1.849999285233934
 20
73.2119135459281
 30
0.0
 10
2.951096373938335
 20
73.27278713034245
 30
0.0
 10
3.998881160223131
 20
73.45238333769669
 30
0.0
 10
4.941832379439258
 20
73.74191097054444
 30
0.0
 10
5.739709183497655
 20
74.12807602232826
 30
0.0
 10
6.345552327567252
 20
74.59582890480483
 30
0.0
 10
6.765197135738982
 20
75.13442783854082
 30
0.0
 10
6.822914545348651
 20
75.54145570477861
 30
0.0
 10
6.849999285233935
 20
75.73245955381384
 30
0.0
 11
-3.150000714766065
 21
75.73245955381384
 31
0.0
 11
-3.024639760419354
 21
75.17615727772493
 31
0.0
 11
-2.654845054278159
 21
74.64775020601994
 31
0.0
 11
-2.059157713903114
 21
74.17373521392624
 31
0.0
 11
-1.267449724059727
 21
73.77788084764376
 31
0.0
 11
-0.3194191810434392
 21
73.48003762214178
 31
0.0
 11
0.7373946154523595
 21
73.29513977335928
 31
0.0
 11
1.849999285233935
 21
73.23245981806713
 31
0.0
 11
2.96260395501551
 21
73.29513977335928
 31
0.0
 11
4.019417751511309
 21
73.48003762214178
 31
0.0
 11
4.9674482945276
 21
73.77788084764376
 31
0.0
 11
5.759156284370986
 21
74.17373521392625
 31
0.0
 11
6.354843624746024
 21
74.64775020601995
 31
0.0
 11
6.72463833088722
 21
75.17615727772494
 31
0.0
 11
6.849999285233935
 21
75.73245955381384
 31
0.0
  0
SPLINE
  5
C4
330
47
100
AcDbEntity
  8
0
  6
Continuous
 62
     7
100
AcDbSpline
210
0.0
220
0.0
230
1.0
 70
     8
 71
     3
 72
    21
 73
    17
 74
    15
 42
0.000000001
 43
0.0000000001
 44
0.00000001
 40
0.0
 40
0.0
 40
0.0
 40
0.0
 40
0.5702522115159311
 40
1.215203492802543
 40
1.976474550837757
 40
2.861631160685568
 40
3.85534767052917
 40
4.928214214449635
 40
6.042583065243937
 40
7.156951916038238
 40
8.229818459958704
 40
9.223534969802305
 40
10.10869157965011
 40
10.86996263768533
 40
11.51491391897194
 40
12.08516613048787
 40
12.08516613048787
 40
12.08516613048787
 40
12.08516613048787
 10
6.849999285233935
 20
69.49707664656587
 30
0.0
 10
6.822914545348651
 20
69.30607279753066
 30
0.0
 10
6.765197135738975
 20
68.89904493129283
 30
0.0
 10
6.345552327567258
 20
68.3604459975569
 30
0.0
 10
5.73970918349766
 20
67.8926931150803
 30
0.0
 10
4.941832379439249
 20
67.50652806329649
 30
0.0
 10
3.998881160223124
 20
67.21700043044872
 30
0.0
 10
2.95109637393833
 20
67.03740422309446
 30
0.0
 10
1.849999285233932
 20
66.97653063868019
 30
0.0
 10
0.7489021965295306
 20
67.03740422309444
 30
0.0
 10
-0.2988825897552595
 20
67.21700043044873
 30
0.0
 10
-1.241833808971388
 20
67.50652806329649
 30
0.0
 10
-2.039710613029796
 20
67.89269311508029
 30
0.0
 10
-2.645553757099396
 20
68.36044599755688
 30
0.0
 10
-3.06519856527111
 20
68.89904493129285
 30
0.0
 10
-3.122915974880784
 20
69.30607279753066
 30
0.0
 10
-3.150000714766065
 20
69.49707664656587
 30
0.0
 11
6.849999285233935
 21
69.49707664656587
 31
0.0
 11
6.72463833088722
 21
68.94077437047699
 31
0.0
 11
6.354843624746024
 21
68.41236729877198
 31
0.0
 11
5.759156284370986
 21
67.93835230667828
 31
0.0
 11
4.967448294527596
 21
67.5424979403958
 31
0.0
 11
4.019417751511302
 21
67.24465471489383
 31
0.0
 11
2.962603955015503
 21
67.05975686611131
 31
0.0
 11
1.849999285233931
 21
66.99707691081917
 31
0.0
 11
0.7373946154523595
 21
67.05975686611131
 31
0.0
 11
-0.3194191810434401
 21
67.24465471489383
 31
0.0
 11
-1.267449724059734
 21
67.5424979403958
 31
0.0
 11
-2.059157713903123
 21
67.93835230667828
 31
0.0
 11
-2.654845054278162
 21
68.41236729877198
 31
0.0
 11
-3.024639760419355
 21
68.94077437047699
 31
0.0
 11
-3.150000714766065
 21
69.49707664656587
 31
0.0
  0
SPLINE
  5
C5
330
47
100
AcDbEntity
  8
0
  6
Continuous
 62
     7
100
AcDbSpline
210
0.0
220
0.0
230
1.0
 70
     8
 71
     3
 72
    17
 73
    13
 74
    11
 42
0.000000001
 43
0.0000000001
 44
0.00000001
 40
0.0
 40
0.0
 40
0.0
 40
0.0
 40
0.5311390177163341
 40
1.123934721584565
 40
1.815325666203687
 40
2.61536219996924
 40
3.515085480507382
 40
4.493375700779856
 40
5.521576442703535
 40
6.566861038771119
 40
7.595061673207062
 40
8.573352109596502
 40
8.573352109596502
 40
8.573352109596502
 40
8.573352109596502
 10
6.849999285233935
 20
70.00321783586423
 30
0.0
 10
6.826707291825516
 20
69.82533965123402
 30
0.0
 10
6.777419468866073
 20
69.44893449333642
 30
0.0
 10
6.412956400987041
 20
68.94118969514147
 30
0.0
 10
5.880068631992478
 20
68.49235973371802
 30
0.0
 10
5.173490927162105
 20
68.11171094217869
 30
0.0
 10
4.330248767028705
 20
67.81180928254422
 30
0.0
 10
3.381532509565207
 20
67.60466297938362
 30
0.0
 10
2.367759807214704
 20
67.4981883573914
 30
0.0
 10
1.332581161957283
 20
67.50025667182072
 30
0.0
 10
0.3168255617190234
 20
67.59868993997492
 30
0.0
 10
-0.3331142369878414
 20
67.75966760157144
 30
0.0
 10
-0.6500007147660867
 20
67.83815432640314
 30
0.0
 11
6.849999285233935
 21
70.00321783586423
 31
0.0
 11
6.740736947209185
 21
69.48343864513448
 31
0.0
 11
6.417726573446931
 21
68.98637622817475
 31
0.0
 11
5.895083974496851
 21
68.5337548077978
 31
0.0
 11
5.19565231702822
 21
68.14535577217075
 31
0.0
 11
4.349999110570223
 21
67.83815447766635
 31
0.0
 11
3.395084257108667
 21
67.62557654512636
 31
0.0
 11
2.372641565057533
 21
67.51691327115044
 31
0.0
 11
1.327356968895653
 21
67.51691309744356
 31
0.0
 11
0.3049144213072892
 21
67.62557671124141
 31
0.0
 11
-0.6500007147660867
 21
67.83815432640314
 31
0.0
  0
SPLINE
  5
C6
330
47
100
AcDbEntity
  8
0
  6
Continuous
 62
     7
100
AcDbSpline
210
0.0
220
0.0
230
1.0
 70
     8
 71
     3
 72
    13
 73
     9
 74
     7
 42
0.000000001
 43
0.0000000001
 44
0.00000001
 40
0.0
 40
0.0
 40
0.0
 40
0.0
 40
0.7564282299387908
 40
1.445454923109853
 40
2.05972816449173
 40
2.599780698225158
 40
3.07734359660738
 40
3.518059688715075
 40
3.518059688715075
 40
3.518059688715075
 40
3.518059688715075
 10
-0.6500007147660867
 20
67.83815432640314
 30
0.0
 10
-0.8903992679401848
 20
67.91523516163537
 30
0.0
 10
-1.349775658303614
 20
68.06252855292392
 30
0.0
 10
-1.966608795246774
 20
68.36977050233334
 30
0.0
 10
-2.474251277589774
 20
68.72229966168076
 30
0.0
 10
-2.850954782044766
 20
69.11787794804751
 30
0.0
 10
-3.101521756329972
 20
69.54842988454124
 30
0.0
 10
-3.134279207613004
 20
69.85573211467188
 30
0.0
 10
-3.150000714766087
 20
70.00321783586425
 30
0.0
 11
-0.6500007147660867
 21
67.83815432640314
 31
0.0
 11
-1.363938688013314
 21
68.08810677286807
 31
0.0
 11
-1.980222930360963
 21
68.3962488116479
 31
0.0
 11
-2.480127632391171
 21
68.7532178651062
 31
0.0
 11
-2.84846381869562
 21
69.14816747755006
 31
0.0
 11
-3.074039364636312
 21
69.56909740185255
 31
0.0
 11
-3.150000714766087
 21
70.00321783586425
 31
0.0
  0
SPLINE
  5
C7
330
47
100
AcDbEntity
  8
0
  6
Continuous
 62
     7
100
AcDbSpline
210
0.0
220
0.0
230
1.0
 70
     8
 71
     3
 72
    19
 73
    15
 74
    13
 42
0.000000001
 43
0.0000000001
 44
0.00000001
 40
0.0
 40
0.0
 40
0.0
 40
0.0
 40
0.5539270601222094
 40
1.176938888210157
 40
1.908735269547818
 40
2.758066018892908
 40
3.712442062427389
 40
4.746092028504691
 40
5.825271881382011
 40
6.912192879606463
 40
7.968410044354769
 40
8.95813360881952
 40
9.851868300252518
 40
10.63103543730368
 40
10.63103543730368
 40
10.63103543730368
 40
10.63103543730368
 10
-3.150000714766073
 20
70.53630713110721
 30
0.0
 10
-3.124537656258321
 20
70.35077905145585
 30
0.0
 10
-3.0704358243191
 20
69.9565841737919
 30
0.0
 10
-2.674234870851299
 20
69.43066088862753
 30
0.0
 10
-2.099191087008533
 20
68.9704944662695
 30
0.0
 10
-1.339720827904761
 20
68.58616038514134
 30
0.0
 10
-0.4384226267123328
 20
68.29166792833624
 30
0.0
 10
0.5684288705906908
 20
68.09974294981745
 30
0.0
 10
1.634108812869832
 20
68.01911854692973
 30
0.0
 10
2.709532708989587
 20
68.05403311242918
 30
0.0
 10
3.746350712711036
 20
68.20119946002603
 30
0.0
 10
4.692598898758588
 20
68.45943660578428
 30
0.0
 10
5.520920250033758
 20
68.79858657754326
 30
0.0
 10
5.970657608218034
 20
69.13132950155116
 30
0.0
 10
6.180126304156119
 20
69.28630713110721
 30
0.0
 11
-3.150000714766073
 21
70.53630713110721
 31
0.0
 11
-3.031480314644389
 21
69.9952081445605
 31
0.0
 11
-2.681539649949329
 21
69.47976147675546
 31
0.0
 11
-2.116767062148297
 21
69.01440369443065
 31
0.0
 11
-1.363938763198774
 21
68.62119602330975
 31
0.0
 11
-0.4587435748626296
 21
68.31878024609833
 31
0.0
 11
0.5559040597213212
 21
68.12149256538453
 31
0.0
 11
1.631902367874592
 21
68.0386868000904
 31
0.0
 11
2.718240173568571
 21
68.0742877485767
 31
0.0
 11
3.763416276267581
 21
68.22660850599293
 31
0.0
 11
4.717881466989152
 21
68.48842702038473
 31
0.0
 11
5.536385640237333
 21
68.84733176282617
 31
0.0
 11
6.180126304156119
 21
69.28630713110721
 31
0.0
  0
SPLINE
  5
C8
330
47
100
AcDbEntity
  8
0
  6
Continuous
 62
     7
100
AcDbSpline
210
0.0
220
0.0
230
1.0
 70
     8
 71
     3
 72
     9
 73
     5
 74
     3
 42
0.000000001
 43
0.0000000001
 44
0.00000001
 40
0.0
 40
0.0
 40
0.0
 40
0.0
 40
0.1336529585321205
 40
0.2684397609488988
 40
0.2684397609488988
 40
0.2684397609488988
 40
0.2684397609488988
 10
6.999999285233933
 20
78.7933756842763
 30
0.0
 10
7.001209241461487
 20
78.83798771470548
 30
0.0
 10
7.003639438459694
 20
78.92759023980756
 30
0.0
 10
7.020189123759679
 20
79.01568626787166
 30
0.0
 10
7.028498927867219
 20
79.0599203318978
 30
0.0
 11
6.999999285233933
 21
78.7933756842763
 31
0.0
 11
7.007129279670069
 21
78.92683832566004
 31
0.0
 11
7.028498927867219
 21
79.0599203318978
 31
0.0
  0
SPLINE
  5
C9
330
47
100
AcDbEntity
  8
0
  6
Continuous
 62
     7
100
AcDbSpline
210
0.0
220
0.0
230
1.0
 70
     8
 71
     3
 72
    13
 73
     9
 74
     7
 42
0.000000001
 43
0.0000000001
 44
0.00000001
 40
0.0
 40
0.0
 40
0.0
 40
0.0
 40
0.7564282299388037
 40
1.445454923109871
 40
2.059728164491753
 40
2.599780698225189
 40
3.077343596607387
 40
3.518059688715081
 40
3.518059688715081
 40
3.518059688715081
 40
3.518059688715081
 10
9.499999285233947
 20
86.68768091168698
 30
0.0
 10
9.259600732059841
 20
86.61060007645474
 30
0.0
 10
8.800224341696406
 20
86.46330668516623
 30
0.0
 10
8.183391204753232
 20
86.15606473575679
 30
0.0
 10
7.675748722410237
 20
85.80353557640937
 30
0.0
 10
7.299045217955264
 20
85.40795729004259
 30
0.0
 10
7.048478243670041
 20
84.97740535354893
 30
0.0
 10
7.015720792387013
 20
84.67010312341826
 30
0.0
 10
6.999999285233933
 20
84.52261740222589
 30
0.0
 11
9.499999285233947
 21
86.68768091168698
 31
0.0
 11
8.786061311986701
 21
86.43772846522207
 31
0.0
 11
8.169777069639046
 21
86.12958642644224
 31
0.0
 11
7.669872367608843
 21
85.77261737298393
 31
0.0
 11
7.301536181304396
 21
85.37766776054005
 31
0.0
 11
7.075960635363706
 21
84.9567378362376
 31
0.0
 11
6.999999285233933
 21
84.52261740222589
 31
0.0
  0
SPLINE
  5
CA
330
47
100
AcDbEntity
  8
0
  6
Continuous
 62
     7
100
AcDbSpline
210
0.0
220
0.0
230
1.0
 70
     8
 71
     3
 72
    13
 73
     9
 74
     7
 42
0.000000001
 43
0.0000000001
 44
0.00000001
 40
0.0
 40
0.0
 40
0.0
 40
0.0
 40
0.7564282299387886
 40
1.445454923109861
 40
2.059728164491735
 40
2.599780698225181
 40
3.07734359660739
 40
3.518059688715081
 40
3.518059688715081
 40
3.518059688715081
 40
3.518059688715081
 10
9.499999285233919
 20
76.62831217481519
 30
0.0
 10
9.259600732059818
 20
76.70539301004742
 30
0.0
 10
8.800224341696385
 20
76.85268640133594
 30
0.0
 10
8.183391204753221
 20
77.15992835074539
 30
0.0
 10
7.675748722410209
 20
77.51245751009279
 30
0.0
 10
7.299045217955249
 20
77.9080357964596
 30
0.0
 10
7.04847824367002
 20
78.33858773295324
 30
0.0
 10
7.015720792387008
 20
78.64588996308396
 30
0.0
 10
6.999999285233933
 20
78.7933756842763
 30
0.0
 11
9.499999285233919
 21
76.62831217481519
 31
0.0
 11
8.786061311986689
 21
76.87826462128011
 31
0.0
 11
8.169777069639029
 21
77.18640666005993
 31
0.0
 11
7.669872367608825
 21
77.54337571351823
 31
0.0
 11
7.301536181304378
 21
77.93832532596213
 31
0.0
 11
7.07596063536369
 21
78.3592552502646
 31
0.0
 11
6.999999285233933
 21
78.7933756842763
 31
0.0
  0
SPLINE
  5
CB
330
47
100
AcDbEntity
  8
0
  6
Continuous
 62
     7
100
AcDbSpline
210
0.0
220
0.0
230
1.0
 70
     8
 71
     3
 72
    11
 73
     7
 74
     5
 42
0.000000001
 43
0.0000000001
 44
0.00000001
 40
0.0
 40
0.0
 40
0.0
 40
0.0
 40
0.411943385896019
 40
0.7862256187315755
 40
1.13140618476334
 40
1.460513389730327
 40
1.460513389730327
 40
1.460513389730327
 40
1.460513389730327
 10
6.180126304156119
 20
69.28630713110721
 30
0.0
 10
6.280566686452371
 20
69.38054389577032
 30
0.0
 10
6.472264866573394
 20
69.56040201523325
 30
0.0
 10
6.684957362961136
 20
69.8746895956133
 30
0.0
 10
6.823917905962727
 20
70.2008949755328
 30
0.0
 10
6.841444762630777
 20
70.42629406509995
 30
0.0
 10
6.849999285233928
 20
70.53630713110721
 30
0.0
 11
6.180126304156119
 21
69.28630713110721
 31
0.0
 11
6.469396928560708
 21
69.57959855417707
 31
0.0
 11
6.679628416679272
 21
69.88925951835091
 31
0.0
 11
6.807223571467016
 21
70.20999165191546
 31
0.0
 11
6.849999285233928
 21
70.53630713110721
 31
0.0
  0
SPLINE
  5
CC
330
47
100
AcDbEntity
  8
0
  6
Continuous
 62
     7
100
AcDbSpline
210
0.0
220
0.0
230
1.0
 70
     8
 71
     3
 72
    19
 73
    15
 74
    13
 42
0.000000001
 43
0.0000000001
 44
0.00000001
 40
0.0
 40
0.0
 40
0.0
 40
0.0
 40
0.4569398012771382
 40
0.9881302926954085
 40
1.584338771261581
 40
2.227915320301544
 40
2.896287519574247
 40
3.564582641445325
 40
4.20793486290807
 40
4.803793337578
 40
5.334547648092431
 40
5.791030366789059
 40
6.177793140574814
 40
6.519790534233586
 40
6.519790534233586
 40
6.519790534233586
 40
6.519790534233586
 10
19.44862270352143
 20
73.60780457951637
 30
0.0
 10
19.56420643318534
 20
73.50764223600493
 30
0.0
 10
19.81415574411156
 20
73.29104162404332
 30
0.0
 10
20.29848591198301
 20
73.06673744307051
 30
0.0
 10
20.86262354697345
 20
72.89110288387047
 30
0.0
 10
21.4917169854618
 20
72.7843226987197
 30
0.0
 10
22.15200082005831
 20
72.74785829465117
 30
0.0
 10
22.81237160103454
 20
72.78462555052455
 30
0.0
 10
23.44064974630329
 20
72.8924916717342
 30
0.0
 10
24.00603017877283
 20
73.06626247195096
 30
0.0
 10
24.48439177133525
 20
73.2979466593412
 30
0.0
 10
24.84760516161813
 20
73.57852909000164
 30
0.0
 10
25.09916828505924
 20
73.90157028371276
 30
0.0
 10
25.13376398889234
 20
74.14566566821924
 30
0.0
 10
25.14999928523393
 20
74.26021636738028
 30
0.0
 11
19.44862270352143
 21
73.60780457951637
 31
0.0
 11
19.80651940734515
 21
73.32372021625639
 31
0.0
 11
20.28182548153294
 21
73.08655472116732
 31
0.0
 11
20.85072865124512
 21
72.90819067217295
 31
0.0
 11
21.4847258499304
 21
72.79756370387133
 31
0.0
 11
22.15205381321078
 21
72.76021687727506
 31
0.0
 11
22.81927884373787
 21
72.79802068343707
 31
0.0
 11
23.45297239949226
 21
72.90908173623976
 31
0.0
 11
24.02138643038715
 21
73.08783522703436
 31
0.0
 11
24.49604237461955
 21
73.3253260094913
 31
0.0
 11
24.85316053046697
 21
73.60965520917335
 31
0.0
 11
25.07484801022492
 21
73.92657807586247
 31
0.0
 11
25.14999928523393
 21
74.26021636738028
 31
0.0
  0
SPLINE
  5
CD
330
47
100
AcDbEntity
  8
0
  6
Continuous
 62
     7
100
AcDbSpline
210
0.0
220
0.0
230
1.0
 70
     8
 71
     3
 72
     9
 73
     5
 74
     3
 42
0.000000001
 43
0.0000000001
 44
0.00000001
 40
0.0
 40
0.0
 40
0.0
 40
0.0
 40
0.1336529585321069
 40
0.2684397609488844
 40
0.2684397609488844
 40
0.2684397609488844
 40
0.2684397609488844
 10
17.14999928523393
 20
87.58353353268835
 30
0.0
 10
17.15120924146149
 20
87.62814556311754
 30
0.0
 10
17.15363943845971
 20
87.7177480882196
 30
0.0
 10
17.17018912375968
 20
87.80584411628371
 30
0.0
 10
17.17849892786722
 20
87.85007818030984
 30
0.0
 11
17.14999928523393
 21
87.58353353268835
 31
0.0
 11
17.15712927967007
 21
87.71699617407208
 31
0.0
 11
17.17849892786722
 21
87.85007818030984
 31
0.0
  0
SPLINE
  5
CE
330
47
100
AcDbEntity
  8
0
  6
Continuous
 62
     7
100
AcDbSpline
210
0.0
220
0.0
230
1.0
 70
     8
 71
     3
 72
    13
 73
     9
 74
     7
 42
0.000000001
 43
0.0000000001
 44
0.00000001
 40
0.0
 40
0.0
 40
0.0
 40
0.0
 40
0.7564282299388033
 40
1.44545492310987
 40
2.059728164491746
 40
2.599780698225169
 40
3.077343596607377
 40
3.518059688715085
 40
3.518059688715085
 40
3.518059688715085
 40
3.518059688715085
 10
19.64999928523393
 20
85.41847002322724
 30
0.0
 10
19.40960073205982
 20
85.49555085845947
 30
0.0
 10
18.95022434169639
 20
85.64284424974797
 30
0.0
 10
18.33339120475323
 20
85.95008619915748
 30
0.0
 10
17.82574872241022
 20
86.30261535850485
 30
0.0
 10
17.44904521795524
 20
86.6981936448716
 30
0.0
 10
17.19847824367003
 20
87.12874558136531
 30
0.0
 10
17.16572079238701
 20
87.436047811496
 30
0.0
 10
17.14999928523393
 20
87.58353353268835
 30
0.0
 11
19.64999928523393
 21
85.41847002322724
 31
0.0
 11
18.93606131198669
 21
85.66842246969217
 31
0.0
 11
18.31977706963903
 21
85.976564508472
 31
0.0
 11
17.81987236760883
 21
86.3335335619303
 31
0.0
 11
17.45153618130438
 21
86.72848317437416
 31
0.0
 11
17.2259606353637
 21
87.14941309867663
 31
0.0
 11
17.14999928523393
 21
87.58353353268835
 31
0.0
  0
SPLINE
  5
CF
330
47
100
AcDbEntity
  8
0
  6
Continuous
 62
     7
100
AcDbSpline
210
0.0
220
0.0
230
1.0
 70
     8
 71
     3
 72
    21
 73
    17
 74
    15
 42
0.000000001
 43
0.0000000001
 44
0.00000001
 40
0.0
 40
0.0
 40
0.0
 40
0.0
 40
0.570252211515929
 40
1.215203492802534
 40
1.976474550837751
 40
2.861631160685566
 40
3.855347670529171
 40
4.928214214449634
 40
6.042583065243932
 40
7.156951916038226
 40
8.229818459958697
 40
9.223534969802303
 40
10.10869157965011
 40
10.86996263768532
 40
11.51491391897192
 40
12.08516613048788
 40
12.08516613048788
 40
12.08516613048788
 40
12.08516613048788
 10
27.14999928523393
 20
87.07739234338997
 30
0.0
 10
27.12291454534865
 20
86.88638849435475
 30
0.0
 10
27.06519713573897
 20
86.47936062811692
 30
0.0
 10
26.64555232756728
 20
85.94076169438098
 30
0.0
 10
26.03970918349767
 20
85.4730088119044
 30
0.0
 10
25.24183237943925
 20
85.08684376012059
 30
0.0
 10
24.29888116022314
 20
84.79731612727282
 30
0.0
 10
23.25109637393833
 20
84.61771991991853
 30
0.0
 10
22.14999928523394
 20
84.5568463355043
 30
0.0
 10
21.04890219652954
 20
84.61771991991856
 30
0.0
 10
20.00111741024475
 20
84.79731612727284
 30
0.0
 10
19.05816619102861
 20
85.08684376012057
 30
0.0
 10
18.26028938697022
 20
85.47300881190444
 30
0.0
 10
17.65444624290061
 20
85.94076169438095
 30
0.0
 10
17.23480143472889
 20
86.47936062811696
 30
0.0
 10
17.17708402511922
 20
86.88638849435475
 30
0.0
 10
17.14999928523394
 20
87.07739234338999
 30
0.0
 11
27.14999928523393
 21
87.07739234338997
 31
0.0
 11
27.02463833088722
 21
86.52109006730109
 31
0.0
 11
26.65484362474604
 21
85.99268299559608
 31
0.0
 11
26.059156284371
 21
85.51866800350238
 31
0.0
 11
25.2674482945276
 21
85.1228136372199
 31
0.0
 11
24.31941775151131
 21
84.82497041171793
 31
0.0
 11
23.26260395501551
 21
84.64007256293542
 31
0.0
 11
22.14999928523394
 21
84.57739260764329
 31
0.0
 11
21.03739461545237
 21
84.64007256293542
 31
0.0
 11
19.98058081895657
 21
84.82497041171793
 31
0.0
 11
19.03255027594027
 21
85.1228136372199
 31
0.0
 11
18.24084228609689
 21
85.5186680035024
 31
0.0
 11
17.64515494572185
 21
85.99268299559608
 31
0.0
 11
17.27536023958065
 21
86.52109006730107
 31
0.0
 11
17.14999928523394
 21
87.07739234338999
 31
0.0
  0
SPLINE
  5
D0
330
47
100
AcDbEntity
  8
0
  6
Continuous
 62
     7
100
AcDbSpline
210
0.0
220
0.0
230
1.0
 70
     8
 71
     3
 72
    17
 73
    13
 74
    11
 42
0.000000001
 43
0.0000000001
 44
0.00000001
 40
0.0
 40
0.0
 40
0.0
 40
0.0
 40
0.5311390177163459
 40
1.123934721584563
 40
1.815325666203683
 40
2.61536219996924
 40
3.515085480507386
 40
4.493375700779861
 40
5.521576442703535
 40
6.566861038771116
 40
7.595061673207065
 40
8.573352109596492
 40
8.573352109596492
 40
8.573352109596492
 40
8.573352109596492
 10
27.14999928523393
 20
87.58353353268834
 30
0.0
 10
27.12670729182551
 20
87.40565534805809
 30
0.0
 10
27.07741946886609
 20
87.02925019016052
 30
0.0
 10
26.71295640098705
 20
86.52150539196558
 30
0.0
 10
26.18006863199248
 20
86.07267543054209
 30
0.0
 10
25.47349092716212
 20
85.69202663900282
 30
0.0
 10
24.6302487670287
 20
85.39212497936829
 30
0.0
 10
23.68153250956521
 20
85.18497867620772
 30
0.0
 10
22.6677598072147
 20
85.0785040542155
 30
0.0
 10
21.63258116195728
 20
85.08057236864481
 30
0.0
 10
20.61682556171903
 20
85.17900563679905
 30
0.0
 10
19.96688576301217
 20
85.33998329839557
 30
0.0
 10
19.64999928523393
 20
85.41847002322724
 30
0.0
 11
27.14999928523393
 21
87.58353353268834
 31
0.0
 11
27.04073694720919
 21
87.06375434195857
 31
0.0
 11
26.71772657344694
 21
86.56669192499885
 31
0.0
 11
26.19508397449686
 21
86.1140705046219
 31
0.0
 11
25.49565231702822
 21
85.72567146899485
 31
0.0
 11
24.64999911057022
 21
85.41847017449045
 31
0.0
 11
23.69508425710867
 21
85.20589224195047
 31
0.0
 11
22.67264156505754
 21
85.09722896797454
 31
0.0
 11
21.62735696889566
 21
85.09722879426766
 31
0.0
 11
20.60491442130729
 21
85.20589240806551
 31
0.0
 11
19.64999928523393
 21
85.41847002322724
 31
0.0
  0
SPLINE
  5
D1
330
47
100
AcDbEntity
  8
0
  6
Continuous
 62
     7
100
AcDbSpline
210
0.0
220
0.0
230
1.0
 70
     8
 71
     3
 72
    19
 73
    15
 74
    13
 42
0.000000001
 43
0.0000000001
 44
0.00000001
 40
0.0
 40
0.0
 40
0.0
 40
0.0
 40
0.5539270601222079
 40
1.176938888210171
 40
1.908735269547826
 40
2.75806601889292
 40
3.712442062427399
 40
4.746092028504695
 40
5.825271881382021
 40
6.912192879606478
 40
7.968410044354777
 40
8.958133608819525
 40
9.851868300252512
 40
10.63103543730369
 40
10.63103543730369
 40
10.63103543730369
 40
10.63103543730369
 10
17.14999928523394
 20
88.11662282793131
 30
0.0
 10
17.17546234374169
 20
87.93109474827995
 30
0.0
 10
17.22956417568091
 20
87.536899870616
 30
0.0
 10
17.6257651291487
 20
87.0109765854516
 30
0.0
 10
18.20080891299149
 20
86.5508101630936
 30
0.0
 10
18.96027917209526
 20
86.16647608196543
 30
0.0
 10
19.86157737328768
 20
85.87198362516033
 30
0.0
 10
20.86842887059071
 20
85.68005864664157
 30
0.0
 10
21.93410881286985
 20
85.59943424375382
 30
0.0
 10
23.00953270898961
 20
85.6343488092533
 30
0.0
 10
24.04635071271105
 20
85.78151515685016
 30
0.0
 10
24.99259889875859
 20
86.03975230260838
 30
0.0
 10
25.82092025003377
 20
86.37890227436735
 30
0.0
 10
26.27065760821805
 20
86.71164519837528
 30
0.0
 10
26.48012630415613
 20
86.86662282793131
 30
0.0
 11
17.14999928523394
 21
88.11662282793131
 31
0.0
 11
17.26851968535562
 21
87.5755238413846
 31
0.0
 11
17.61846035005068
 21
87.06007717357954
 31
0.0
 11
18.18323293785172
 21
86.59471939125476
 31
0.0
 11
18.93606123680124
 21
86.20151172013385
 31
0.0
 11
19.84125642513739
 21
85.89909594292243
 31
0.0
 11
20.85590405972133
 21
85.70180826220863
 31
0.0
 11
21.93190236787461
 21
85.61900249691449
 31
0.0
 11
23.01824017356859
 21
85.6546034454008
 31
0.0
 11
24.0634162762676
 21
85.80692420281703
 31
0.0
 11
25.01788146698917
 21
86.06874271720883
 31
0.0
 11
25.83638564023734
 21
86.42764745965026
 31
0.0
 11
26.48012630415613
 21
86.86662282793131
 31
0.0
  0
SPLINE
  5
D2
330
47
100
AcDbEntity
  8
0
  6
Continuous
 62
     7
100
AcDbSpline
210
0.0
220
0.0
230
1.0
 70
     8
 71
     3
 72
    21
 73
    17
 74
    15
 42
0.000000001
 43
0.0000000001
 44
0.00000001
 40
0.0
 40
0.0
 40
0.0
 40
0.0
 40
0.5702522115159452
 40
1.215203492802547
 40
1.976474550837772
 40
2.861631160685578
 40
3.855347670529173
 40
4.928214214449633
 40
6.042583065243937
 40
7.156951916038245
 40
8.229818459958715
 40
9.223534969802316
 40
10.10869157965013
 40
10.86996263768534
 40
11.51491391897195
 40
12.08516613048788
 40
12.08516613048788
 40
12.08516613048788
 40
12.08516613048788
 10
6.999999285233933
 20
84.52261740222589
 30
0.0
 10
7.027084025119213
 20
84.33161355319066
 30
0.0
 10
7.084801434728888
 20
83.92458568695287
 30
0.0
 10
7.504446242900622
 20
83.38598675321688
 30
0.0
 10
8.110289386970207
 20
82.91823387074032
 30
0.0
 10
8.90816619102863
 20
82.5320688189565
 30
0.0
 10
9.851117410244738
 20
82.24254118610871
 30
0.0
 10
10.89890219652953
 20
82.06294497875447
 30
0.0
 10
11.99999928523393
 20
82.00207139434018
 30
0.0
 10
13.10109637393834
 20
82.06294497875447
 30
0.0
 10
14.14888116022314
 20
82.24254118610875
 30
0.0
 10
15.09183237943926
 20
82.53206881895652
 30
0.0
 10
15.88970918349767
 20
82.9182338707403
 30
0.0
 10
16.49555232756727
 20
83.3859867532169
 30
0.0
 10
16.91519713573897
 20
83.92458568695287
 30
0.0
 10
16.97291454534865
 20
84.33161355319068
 30
0.0
 10
16.99999928523393
 20
84.52261740222589
 30
0.0
 11
6.999999285233933
 21
84.52261740222589
 31
0.0
 11
7.125360239580648
 21
83.96631512613699
 31
0.0
 11
7.495154945721847
 21
83.437908054432
 31
0.0
 11
8.090842286096889
 21
82.96389306233829
 31
0.0
 11
8.882550275940279
 21
82.56803869605582
 31
0.0
 11
9.830580818956562
 21
82.27019547055383
 31
0.0
 11
10.88739461545236
 21
82.08529762177133
 31
0.0
 11
11.99999928523393
 21
82.02261766647918
 31
0.0
 11
13.11260395501551
 21
82.08529762177133
 31
0.0
 11
14.16941775151131
 21
82.27019547055384
 31
0.0
 11
15.11744829452761
 21
82.56803869605582
 31
0.0
 11
15.909156284371
 21
82.9638930623383
 31
0.0
 11
16.50484362474604
 21
83.437908054432
 31
0.0
 11
16.87463833088723
 21
83.966315126137
 31
0.0
 11
16.99999928523393
 21
84.52261740222589
 31
0.0
  0
SPLINE
  5
D3
330
47
100
AcDbEntity
  8
0
  6
Continuous
 62
     7
100
AcDbSpline
210
0.0
220
0.0
230
1.0
 70
     8
 71
     3
 72
    11
 73
     7
 74
     5
 42
0.000000001
 43
0.0000000001
 44
0.00000001
 40
0.0
 40
0.0
 40
0.0
 40
0.0
 40
0.4119433858960279
 40
0.7862256187315608
 40
1.131406184763353
 40
1.460513389730326
 40
1.460513389730326
 40
1.460513389730326
 40
1.460513389730326
 10
16.33012630415612
 20
78.07646497951926
 30
0.0
 10
16.43056668645237
 20
78.1707017441824
 30
0.0
 10
16.62226486657338
 20
78.35055986364532
 30
0.0
 10
16.83495736296114
 20
78.66484744402531
 30
0.0
 10
16.97391790596273
 20
78.99105282394488
 30
0.0
 10
16.99144476263077
 20
79.216451913512
 30
0.0
 10
16.99999928523393
 20
79.32646497951926
 30
0.0
 11
16.33012630415612
 21
78.07646497951926
 31
0.0
 11
16.61939692856071
 21
78.36975640258913
 31
0.0
 11
16.82962841667927
 21
78.67941736676295
 31
0.0
 11
16.95722357146702
 21
79.00014950032752
 31
0.0
 11
16.99999928523393
 21
79.32646497951926
 31
0.0
  0
SPLINE
  5
D4
330
47
100
AcDbEntity
  8
0
  6
Continuous
 62
     7
100
AcDbSpline
210
0.0
220
0.0
230
1.0
 70
     8
 71
     3
 72
    11
 73
     7
 74
     5
 42
0.000000001
 43
0.0000000001
 44
0.00000001
 40
0.0
 40
0.0
 40
0.0
 40
0.0
 40
0.4119433858960229
 40
0.7862256187315695
 40
1.131406184763346
 40
1.460513389730319
 40
1.460513389730319
 40
1.460513389730319
 40
1.460513389730319
 10
26.48012630415613
 20
86.86662282793131
 30
0.0
 10
26.58056668645238
 20
86.96085959259443
 30
0.0
 10
26.77226486657339
 20
87.14071771205735
 30
0.0
 10
26.98495736296115
 20
87.45500529243742
 30
0.0
 10
27.12391790596272
 20
87.78121067235689
 30
0.0
 10
27.14144476263078
 20
88.00660976192407
 30
0.0
 10
27.14999928523393
 20
88.11662282793131
 30
0.0
 11
26.48012630415613
 21
86.86662282793131
 31
0.0
 11
26.76939692856071
 21
87.15991425100118
 31
0.0
 11
26.97962841667928
 21
87.46957521517501
 31
0.0
 11
27.10722357146702
 21
87.79030734873957
 31
0.0
 11
27.14999928523393
 21
88.11662282793131
 31
0.0
  0
SPLINE
  5
D5
330
47
100
AcDbEntity
  8
0
  6
Continuous
 62
     7
100
AcDbSpline
210
0.0
220
0.0
230
1.0
 70
     8
 71
     3
 72
     9
 73
     5
 74
     3
 42
0.000000001
 43
0.0000000001
 44
0.00000001
 40
0.0
 40
0.0
 40
0.0
 40
0.0
 40
0.1347868024167782
 40
0.268439760948871
 40
0.268439760948871
 40
0.268439760948871
 40
0.268439760948871
 10
16.97149964260063
 20
79.05992033189777
 30
0.0
 10
16.97980944670817
 20
79.01568626787166
 30
0.0
 10
16.99635913200814
 20
78.92759023980753
 30
0.0
 10
16.99878932900637
 20
78.83798771470548
 30
0.0
 10
16.99999928523393
 20
78.7933756842763
 30
0.0
 11
16.97149964260063
 21
79.05992033189777
 31
0.0
 11
16.99286929079778
 21
78.92683832566001
 31
0.0
 11
16.99999928523393
 21
78.7933756842763
 31
0.0
  0
SPLINE
  5
D6
330
47
100
AcDbEntity
  8
0
  6
Continuous
 62
     7
100
AcDbSpline
210
0.0
220
0.0
230
1.0
 70
     8
 71
     3
 72
    17
 73
    13
 74
    11
 42
0.000000001
 43
0.0000000001
 44
0.00000001
 40
0.0
 40
0.0
 40
0.0
 40
0.0
 40
0.5311390177163613
 40
1.12393472158459
 40
1.815325666203701
 40
2.615362199969251
 40
3.515085480507404
 40
4.493375700779878
 40
5.521576442703547
 40
6.566861038771132
 40
7.595061673207082
 40
8.573352109596518
 40
8.573352109596518
 40
8.573352109596518
 40
8.573352109596518
 10
16.99999928523393
 20
78.7933756842763
 30
0.0
 10
16.97670729182551
 20
78.61549749964608
 30
0.0
 10
16.92741946886608
 20
78.23909234174847
 30
0.0
 10
16.56295640098704
 20
77.73134754355351
 30
0.0
 10
16.03006863199248
 20
77.28251758213005
 30
0.0
 10
15.3234909271621
 20
76.90186879059077
 30
0.0
 10
14.48024876702871
 20
76.60196713095625
 30
0.0
 10
13.53153250956522
 20
76.39482082779567
 30
0.0
 10
12.51775980721471
 20
76.28834620580346
 30
0.0
 10
11.48258116195729
 20
76.29041452023274
 30
0.0
 10
10.46682556171903
 20
76.38884778838698
 30
0.0
 10
9.816885763012163
 20
76.54982544998352
 30
0.0
 10
9.499999285233919
 20
76.62831217481519
 30
0.0
 11
16.99999928523393
 21
78.7933756842763
 31
0.0
 11
16.89073694720918
 21
78.27359649354652
 31
0.0
 11
16.56772657344693
 21
77.77653407658678
 31
0.0
 11
16.04508397449685
 21
77.32391265620986
 31
0.0
 11
15.34565231702822
 21
76.93551362058281
 31
0.0
 11
14.49999911057022
 21
76.62831232607839
 31
0.0
 11
13.54508425710867
 21
76.4157343935384
 31
0.0
 11
12.52264156505754
 21
76.3070711195625
 31
0.0
 11
11.47735696889566
 21
76.3070709458556
 31
0.0
 11
10.45491442130729
 21
76.41573455965346
 31
0.0
 11
9.499999285233919
 21
76.62831217481519
 31
0.0
  0
SPLINE
  5
D7
330
47
100
AcDbEntity
  8
0
  6
Continuous
 62
     7
100
AcDbSpline
210
0.0
220
0.0
230
1.0
 70
     8
 71
     3
 72
    21
 73
    17
 74
    15
 42
0.000000001
 43
0.0000000001
 44
0.00000001
 40
0.0
 40
0.0
 40
0.0
 40
0.0
 40
0.5702522115159305
 40
1.215203492802542
 40
1.976474550837753
 40
2.861631160685559
 40
3.85534767052916
 40
4.928214214449625
 40
6.04258306524393
 40
7.156951916038235
 40
8.229818459958695
 40
9.223534969802285
 40
10.1086915796501
 40
10.86996263768532
 40
11.51491391897193
 40
12.08516613048786
 40
12.08516613048786
 40
12.08516613048786
 40
12.08516613048786
 10
16.99999928523393
 20
78.28723449497792
 30
0.0
 10
16.97291454534865
 20
78.0962306459427
 30
0.0
 10
16.91519713573897
 20
77.68920277970489
 30
0.0
 10
16.49555232756726
 20
77.15060384596893
 30
0.0
 10
15.88970918349766
 20
76.68285096349234
 30
0.0
 10
15.09183237943925
 20
76.29668591170854
 30
0.0
 10
14.14888116022314
 20
76.00715827886074
 30
0.0
 10
13.10109637393834
 20
75.82756207150655
 30
0.0
 10
11.99999928523394
 20
75.76668848709225
 30
0.0
 10
10.89890219652953
 20
75.82756207150652
 30
0.0
 10
9.851117410244743
 20
76.00715827886076
 30
0.0
 10
8.908166191028622
 20
76.29668591170855
 30
0.0
 10
8.110289386970214
 20
76.68285096349234
 30
0.0
 10
7.50444624290061
 20
77.15060384596896
 30
0.0
 10
7.08480143472889
 20
77.68920277970489
 30
0.0
 10
7.027084025119214
 20
78.0962306459427
 30
0.0
 10
6.999999285233933
 20
78.28723449497792
 30
0.0
 11
16.99999928523393
 21
78.28723449497792
 31
0.0
 11
16.87463833088722
 21
77.73093221888904
 31
0.0
 11
16.50484362474602
 21
77.20252514718403
 31
0.0
 11
15.90915628437099
 21
76.72851015509033
 31
0.0
 11
15.11744829452761
 21
76.33265578880786
 31
0.0
 11
14.16941775151131
 21
76.03481256330586
 31
0.0
 11
13.11260395501551
 21
75.84991471452338
 31
0.0
 11
11.99999928523393
 21
75.78723475923124
 31
0.0
 11
10.88739461545236
 21
75.84991471452338
 31
0.0
 11
9.830580818956562
 21
76.03481256330588
 31
0.0
 11
8.882550275940279
 21
76.33265578880786
 31
0.0
 11
8.090842286096887
 21
76.72851015509033
 31
0.0
 11
7.495154945721843
 21
77.20252514718403
 31
0.0
 11
7.125360239580645
 21
77.73093221888904
 31
0.0
 11
6.999999285233933
 21
78.28723449497792
 31
0.0
  0
SPLINE
  5
D8
330
47
100
AcDbEntity
  8
0
  6
Continuous
 62
     7
100
AcDbSpline
210
0.0
220
0.0
230
1.0
 70
     8
 71
     3
 72
    19
 73
    15
 74
    13
 42
0.000000001
 43
0.0000000001
 44
0.00000001
 40
0.0
 40
0.0
 40
0.0
 40
0.0
 40
0.5539270601222094
 40
1.176938888210161
 40
1.908735269547814
 40
2.758066018892902
 40
3.712442062427384
 40
4.746092028504682
 40
5.825271881382009
 40
6.912192879606455
 40
7.96841004435476
 40
8.958133608819516
 40
9.851868300252514
 40
10.63103543730367
 40
10.63103543730367
 40
10.63103543730367
 40
10.63103543730367
 10
6.999999285233933
 20
79.32646497951926
 30
0.0
 10
7.025462343741685
 20
79.14093689986788
 30
0.0
 10
7.079564175680903
 20
78.74674202220395
 30
0.0
 10
7.475765129148713
 20
78.22081873703958
 30
0.0
 10
8.050808912991485
 20
77.76065231468158
 30
0.0
 10
8.810279172095253
 20
77.37631823355338
 30
0.0
 10
9.711577373287671
 20
77.08182577674827
 30
0.0
 10
10.7184288705907
 20
76.88990079822952
 30
0.0
 10
11.78410881286984
 20
76.80927639534177
 30
0.0
 10
12.8595327089896
 20
76.8441909608412
 30
0.0
 10
13.89635071271105
 20
76.99135730843811
 30
0.0
 10
14.8425988987586
 20
77.24959445419627
 30
0.0
 10
15.67092025003377
 20
77.58874442595535
 30
0.0
 10
16.12065760821804
 20
77.92148734996323
 30
0.0
 10
16.33012630415612
 20
78.07646497951926
 30
0.0
 11
6.999999285233933
 21
79.32646497951926
 31
0.0
 11
7.118519685355618
 21
78.78536599297254
 31
0.0
 11
7.468460350050684
 21
78.2699193251675
 31
0.0
 11
8.033232937851718
 21
77.80456154284272
 31
0.0
 11
8.786061236801238
 21
77.41135387172181
 31
0.0
 11
9.691256425137379
 21
77.10893809451038
 31
0.0
 11
10.70590405972133
 21
76.9116504137966
 31
0.0
 11
11.78190236787461
 21
76.82884464850245
 31
0.0
 11
12.86824017356858
 21
76.86444559698873
 31
0.0
 11
13.91341627626759
 21
77.01676635440496
 31
0.0
 11
14.86788146698916
 21
77.27858486879677
 31
0.0
 11
15.68638564023734
 21
77.63748961123822
 31
0.0
 11
16.33012630415612
 21
78.07646497951926
 31
0.0
  0
SPLINE
  5
D9
330
47
100
AcDbEntity
  8
0
  6
Continuous
 62
     7
100
AcDbSpline
210
0.0
220
0.0
230
1.0
 70
     8
 71
     3
 72
    17
 73
    13
 74
    11
 42
0.000000001
 43
0.0000000001
 44
0.00000001
 40
0.0
 40
0.0
 40
0.0
 40
0.0
 40
0.5311390177163459
 40
1.123934721584573
 40
1.815325666203699
 40
2.61536219996924
 40
3.515085480507383
 40
4.493375700779857
 40
5.521576442703524
 40
6.566861038771104
 40
7.595061673207043
 40
8.573352109596483
 40
8.573352109596483
 40
8.573352109596483
 40
8.573352109596483
 10
16.99999928523393
 20
84.52261740222589
 30
0.0
 10
16.97670729182551
 20
84.7004955868561
 30
0.0
 10
16.92741946886609
 20
85.07690074475371
 30
0.0
 10
16.56295640098705
 20
85.58464554294869
 30
0.0
 10
16.03006863199249
 20
86.03347550437213
 30
0.0
 10
15.3234909271621
 20
86.41412429591142
 30
0.0
 10
14.48024876702872
 20
86.7140259555459
 30
0.0
 10
13.53153250956523
 20
86.92117225870655
 30
0.0
 10
12.51775980721472
 20
87.02764688069871
 30
0.0
 10
11.48258116195731
 20
87.02557856626942
 30
0.0
 10
10.46682556171906
 20
86.92714529811519
 30
0.0
 10
9.816885763012191
 20
86.76616763651863
 30
0.0
 10
9.499999285233947
 20
86.68768091168698
 30
0.0
 11
16.99999928523393
 21
84.52261740222589
 31
0.0
 11
16.89073694720919
 21
85.04239659295565
 31
0.0
 11
16.56772657344694
 21
85.53945900991539
 31
0.0
 11
16.04508397449686
 21
85.99208043029233
 31
0.0
 11
15.34565231702823
 21
86.38047946591936
 31
0.0
 11
14.49999911057023
 21
86.68768076042377
 31
0.0
 11
13.54508425710868
 21
86.90025869296377
 31
0.0
 11
12.52264156505756
 21
87.00892196693968
 31
0.0
 11
11.47735696889568
 21
87.00892214064658
 31
0.0
 11
10.45491442130732
 21
86.90025852684872
 31
0.0
 11
9.499999285233947
 21
86.68768091168698
 31
0.0
  0
SPLINE
  5
DA
330
47
100
AcDbEntity
  8
0
  6
Continuous
 62
     7
100
AcDbSpline
210
0.0
220
0.0
230
1.0
 70
     8
 71
     3
 72
    17
 73
    13
 74
    11
 42
0.000000001
 43
0.0000000001
 44
0.00000001
 40
0.0
 40
0.0
 40
0.0
 40
0.0
 40
0.5311390177163466
 40
1.123934721584575
 40
1.815325666203687
 40
2.615362199969238
 40
3.515085480507382
 40
4.493375700779864
 40
5.521576442703535
 40
6.566861038771109
 40
7.595061673207049
 40
8.573352109596483
 40
8.573352109596483
 40
8.573352109596483
 40
8.573352109596483
 10
6.849999285233935
 20
75.73245955381384
 30
0.0
 10
6.826707291825521
 20
75.91033773844407
 30
0.0
 10
6.777419468866084
 20
76.28674289634165
 30
0.0
 10
6.412956400987055
 20
76.7944876945366
 30
0.0
 10
5.880068631992486
 20
77.24331765596008
 30
0.0
 10
5.173490927162118
 20
77.62396644749938
 30
0.0
 10
4.330248767028715
 20
77.92386810713387
 30
0.0
 10
3.38153250956522
 20
78.13101441029445
 30
0.0
 10
2.367759807214719
 20
78.23748903228669
 30
0.0
 10
1.332581161957305
 20
78.23542071785737
 30
0.0
 10
0.3168255617190532
 20
78.13698744970317
 30
0.0
 10
-0.3331142369878078
 20
77.97600978810662
 30
0.0
 10
-0.6500007147660511
 20
77.89752306327495
 30
0.0
 11
6.849999285233935
 21
75.73245955381384
 31
0.0
 11
6.740736947209191
 21
76.2522387445436
 31
0.0
 11
6.417726573446942
 21
76.74930116150334
 31
0.0
 11
5.895083974496863
 21
77.20192258188027
 31
0.0
 11
5.195652317028234
 21
77.59032161750733
 31
0.0
 11
4.349999110570234
 21
77.89752291201172
 31
0.0
 11
3.395084257108675
 21
78.11010084455172
 31
0.0
 11
2.372641565057549
 21
78.21876411852764
 31
0.0
 11
1.327356968895678
 21
78.21876429223452
 31
0.0
 11
0.3049144213073181
 21
78.11010067843668
 31
0.0
 11
-0.6500007147660511
 21
77.89752306327495
 31
0.0
  0
SPLINE
  5
DB
330
47
100
AcDbEntity
  8
0
  6
Continuous
 62
     7
100
AcDbSpline
210
0.0
220
0.0
230
1.0
 70
     8
 71
     3
 72
    17
 73
    13
 74
    11
 42
0.000000001
 43
0.0000000001
 44
0.00000001
 40
0.0
 40
0.0
 40
0.0
 40
0.0
 40
0.4014610005567599
 40
0.8712471548145939
 40
1.440286929418547
 40
2.105766036395397
 40
2.844663643742297
 40
3.622801011199128
 40
4.400938378432921
 40
5.139835984870735
 40
5.80531509245478
 40
6.37435487273237
 40
6.37435487273237
 40
6.37435487273237
 40
6.37435487273237
 10
-1.150000714766073
 20
56.67990067055619
 30
0.0
 10
-1.127141377801171
 20
56.54547924655359
 30
0.0
 10
-1.077532233546173
 20
56.25375905205537
 30
0.0
 10
-0.733566112508696
 20
55.88857288366288
 30
0.0
 10
-0.2528027002314096
 20
55.58609779393893
 30
0.0
 10
0.3692286397761325
 20
55.35644547200866
 30
0.0
 10
1.084247501708489
 20
55.21231874287838
 30
0.0
 10
1.849887781888571
 20
55.16344285850084
 30
0.0
 10
2.616185785460258
 20
55.21165395275458
 30
0.0
 10
3.329391408465171
 20
55.35884583562402
 30
0.0
 10
3.957090342921561
 20
55.57856165690636
 30
0.0
 10
4.293165049169867
 20
55.81904989268175
 30
0.0
 10
4.448075496587244
 20
55.92990067055618
 30
0.0
 11
-1.150000714766073
 21
56.67990067055619
 31
0.0
 11
-1.047777421069087
 21
56.29167220640638
 31
0.0
 11
-0.7480769261193886
 21
55.92990067055619
 31
0.0
 11
-0.271320492769477
 21
55.61924078155449
 31
0.0
 11
0.3499992852339204
 21
55.38086256487952
 31
0.0
 11
1.073542356934311
 21
55.23101231740468
 31
0.0
 11
1.849999285233928
 21
55.17990067055618
 31
0.0
 11
2.626456213533539
 21
55.23101231740467
 31
0.0
 11
3.349999285233924
 21
55.38086256487952
 31
0.0
 11
3.971319063237326
 21
55.6192407815545
 31
0.0
 11
4.448075496587244
 21
55.92990067055618
 31
0.0
  0
SPLINE
  5
DC
330
47
100
AcDbEntity
  8
0
  6
Continuous
 62
     7
100
AcDbSpline
210
0.0
220
0.0
230
1.0
 70
     8
 71
     3
 72
     9
 73
     5
 74
     3
 42
0.000000001
 43
0.0000000001
 44
0.00000001
 40
0.0
 40
0.0
 40
0.0
 40
0.0
 40
0.4697861522010853
 40
0.8712471595482648
 40
0.8712471595482648
 40
0.8712471595482648
 40
0.8712471595482648
 10
4.448075496587244
 20
55.92990067055618
 30
0.0
 10
4.564159156341682
 20
56.04217564702646
 30
0.0
 10
4.779443388809847
 20
56.25039646991875
 30
0.0
 10
4.827743253031251
 20
56.54441855754155
 30
0.0
 10
4.849999285233928
 20
56.67990067055618
 30
0.0
 11
4.448075496587244
 21
55.92990067055618
 31
0.0
 11
4.747775991536941
 21
56.29167220640639
 31
0.0
 11
4.849999285233928
 21
56.67990067055618
 31
0.0
  0
ENDBLK
  5
49
330
47
100
AcDbEntity
  8
0
100
AcDbBlockEnd
  0
BLOCK
  5
4C
330
4A
100
AcDbEntity
  8
0
100
AcDbBlockBegin
  2
AllgSicht1
 70
     0
 10
17.07499999999839
 20
77.48616099996318
 30
0.0
  3
AllgSicht1
  1

  0
INSERT
  5
4B
330
4A
100
AcDbEntity
  8
0
100
AcDbBlockReference
  2
FBI_3-20_N_EX-select__1
 10
-7.43897346050024
 20
55.17990067055618
 30
0.0
  0
MTEXT
  5
DE
330
4A
100
AcDbEntity
  8
1
 62
     6
100
AcDbMText
 10
11.99999999999784
 20
50.13511729372976
 30
0.0
 40
5.0
 41
0.0
 71
     2
 72
     1
  1
 
  7
CONVERTER_11
 73
     1
 44
1.32052821128451
  0
ENDBLK
  5
4D
330
4A
100
AcDbEntity
  8
0
100
AcDbBlockEnd
  0
BLOCK
  5
4F
330
4E
100
AcDbEntity
  8
0
100
AcDbBlockBegin
  2
FBI_3-20_N_EX-select__2
 70
     0
 10
-101.550000281977
 20
47.44999790092588
 30
0.0
  3
FBI_3-20_N_EX-select__2
  1

  0
LINE
  5
DF
330
4E
100
AcDbEntity
  8
0
  6
Continuous
 62
     7
100
AcDbLine
 10
-94.75000028197702
 20
57.13674924687399
 30
0.0
 11
-97.25000028197704
 21
55.69337357389992
 31
0.0
  0
LINE
  5
E0
330
4E
100
AcDbEntity
  8
0
  6
Continuous
 62
     7
100
AcDbLine
 10
-97.25000028197704
 20
55.69337357389992
 30
0.0
 11
-97.25000028197704
 21
52.80662222795179
 31
0.0
  0
LINE
  5
E1
330
4E
100
AcDbEntity
  8
0
  6
Continuous
 62
     7
100
AcDbLine
 10
-97.25000028197704
 20
52.80662222795179
 30
0.0
 11
-94.75000028197704
 21
51.36324655497772
 31
0.0
  0
LINE
  5
E2
330
4E
100
AcDbEntity
  8
0
  6
Continuous
 62
     7
100
AcDbLine
 10
-94.75000028197704
 20
51.36324655497772
 30
0.0
 11
-92.25000028197704
 21
52.80662222795179
 31
0.0
  0
LINE
  5
E3
330
4E
100
AcDbEntity
  8
0
  6
Continuous
 62
     7
100
AcDbLine
 10
-92.25000028197704
 20
55.69337357389993
 30
0.0
 11
-94.75000028197702
 21
57.13674924687399
 31
0.0
  0
LINE
  5
E4
330
4E
100
AcDbEntity
  8
0
  6
Continuous
 62
     7
100
AcDbLine
 10
-92.25000028197704
 20
52.80662222795179
 30
0.0
 11
-92.25000028197704
 21
55.69337357389993
 31
0.0
  0
LINE
  5
E5
330
4E
100
AcDbEntity
  8
0
  6
Continuous
 62
     7
100
AcDbLine
 10
-97.25000028197704
 20
93.4066222279518
 30
0.0
 11
-94.75000028197704
 21
91.96324655497773
 31
0.0
  0
LINE
  5
E6
330
4E
100
AcDbEntity
  8
0
  6
Continuous
 62
     7
100
AcDbLine
 10
-94.75000028197704
 20
91.96324655497773
 30
0.0
 11
-92.25000028197704
 21
93.4066222279518
 31
0.0
  0
LINE
  5
E7
330
4E
100
AcDbEntity
  8
0
  6
Continuous
 62
     7
100
AcDbLine
 10
-92.25000028197704
 20
96.29337357389993
 30
0.0
 11
-94.75000028197704
 21
97.73674924687398
 31
0.0
  0
LINE
  5
E8
330
4E
100
AcDbEntity
  8
0
  6
Continuous
 62
     7
100
AcDbLine
 10
-94.75000028197704
 20
97.73674924687398
 30
0.0
 11
-97.25000028197704
 21
96.29337357389991
 31
0.0
  0
LINE
  5
E9
330
4E
100
AcDbEntity
  8
0
  6
Continuous
 62
     7
100
AcDbLine
 10
-97.25000028197704
 20
96.29337357389991
 30
0.0
 11
-97.25000028197704
 21
93.4066222279518
 31
0.0
  0
LINE
  5
EA
330
4E
100
AcDbEntity
  8
0
  6
Continuous
 62
     7
100
AcDbLine
 10
-92.25000028197704
 20
93.4066222279518
 30
0.0
 11
-92.25000028197704
 21
96.29337357389993
 31
0.0
  0
LINE
  5
EB
330
4E
100
AcDbEntity
  8
0
  6
Continuous
 62
     7
100
AcDbLine
 10
-97.25000028197705
 20
75.99337357389992
 30
0.0
 11
-94.75000028197704
 21
77.43674924687399
 31
0.0
  0
LINE
  5
EC
330
4E
100
AcDbEntity
  8
0
  6
Continuous
 62
     7
100
AcDbLine
 10
-97.25000028197704
 20
73.10662222795179
 30
0.0
 11
-97.25000028197705
 21
75.99337357389992
 31
0.0
  0
LINE
  5
ED
330
4E
100
AcDbEntity
  8
0
  6
Continuous
 62
     7
100
AcDbLine
 10
-94.75000028197705
 20
71.66324655497772
 30
0.0
 11
-97.25000028197704
 21
73.10662222795179
 31
0.0
  0
LINE
  5
EE
330
4E
100
AcDbEntity
  8
0
  6
Continuous
 62
     7
100
AcDbLine
 10
-92.25000028197704
 20
75.99337357389993
 30
0.0
 11
-92.25000028197704
 21
73.10662222795179
 31
0.0
  0
LINE
  5
EF
330
4E
100
AcDbEntity
  8
0
  6
Continuous
 62
     7
100
AcDbLine
 10
-92.25000028197704
 20
73.10662222795179
 30
0.0
 11
-94.75000028197705
 21
71.66324655497772
 31
0.0
  0
LINE
  5
F0
330
4E
100
AcDbEntity
  8
0
  6
Continuous
 62
     7
100
AcDbLine
 10
-94.75000028197704
 20
77.43674924687399
 30
0.0
 11
-92.25000028197704
 21
75.99337357389993
 31
0.0
  0
LINE
  5
F1
330
4E
100
AcDbEntity
  8
0
  6
Continuous
 62
     7
100
AcDbLine
 10
-87.95000028197703
 20
101.6499979009259
 30
0.0
 11
-87.95000028197703
 21
47.44999790092588
 31
0.0
  0
LINE
  5
F2
330
4E
100
AcDbEntity
  8
0
  6
Continuous
 62
     7
100
AcDbLine
 10
-87.95000028197703
 20
47.44999790092588
 30
0.0
 11
-101.550000281977
 21
47.44999790092588
 31
0.0
  0
LINE
  5
F3
330
4E
100
AcDbEntity
  8
0
  6
Continuous
 62
     7
100
AcDbLine
 10
-101.550000281977
 20
101.6499979009259
 30
0.0
 11
-101.550000281977
 21
47.44999790092588
 31
0.0
  0
LINE
  5
F4
330
4E
100
AcDbEntity
  8
0
  6
Continuous
 62
     7
100
AcDbLine
 10
-101.550000281977
 20
101.6499979009259
 30
0.0
 11
-87.95000028197703
 21
101.6499979009259
 31
0.0
  0
LINE
  5
F5
330
4E
100
AcDbEntity
  8
1
  6
DOT_CENTER
 62
     2
100
AcDbLine
 10
-89.25000028197702
 20
74.54999790092586
 30
0.0
 11
-100.250000281977
 21
74.54999790092586
 31
0.0
  0
LINE
  5
F6
330
4E
100
AcDbEntity
  8
1
  6
DOT_CENTER
 62
     2
100
AcDbLine
 10
-94.75000028197702
 20
80.04999790092586
 30
0.0
 11
-94.75000028197702
 21
69.04999790092586
 31
0.0
  0
LINE
  5
F7
330
4E
100
AcDbEntity
  8
1
  6
DOT_CENTER
 62
     2
100
AcDbLine
 10
-89.25000028197704
 20
94.84999790092586
 30
0.0
 11
-100.250000281977
 21
94.84999790092586
 31
0.0
  0
LINE
  5
F8
330
4E
100
AcDbEntity
  8
1
  6
DOT_CENTER
 62
     2
100
AcDbLine
 10
-94.75000028197704
 20
100.3499979009259
 30
0.0
 11
-94.75000028197704
 21
89.34999790092586
 31
0.0
  0
LINE
  5
F9
330
4E
100
AcDbEntity
  8
1
  6
DOT_CENTER
 62
     2
100
AcDbLine
 10
-89.25000028197704
 20
54.24999790092586
 30
0.0
 11
-100.250000281977
 21
54.24999790092586
 31
0.0
  0
LINE
  5
FA
330
4E
100
AcDbEntity
  8
1
  6
DOT_CENTER
 62
     2
100
AcDbLine
 10
-94.75000028197704
 20
59.74999790092586
 30
0.0
 11
-94.75000028197704
 21
48.74999790092586
 31
0.0
  0
CIRCLE
  5
FB
330
4E
100
AcDbEntity
  8
0
  6
Continuous
 62
     7
100
AcDbCircle
 10
-94.75000028197704
 20
54.24999790092586
 30
0.0
 40
4.999999999999999
  0
CIRCLE
  5
FC
330
4E
100
AcDbEntity
  8
0
  6
Continuous
 62
     7
100
AcDbCircle
 10
-94.75000028197704
 20
94.84999790092586
 30
0.0
 40
4.999999999999999
  0
CIRCLE
  5
FD
330
4E
100
AcDbEntity
  8
0
  6
Continuous
 62
     7
100
AcDbCircle
 10
-94.75000028197702
 20
74.54999790092586
 30
0.0
 40
5.000000000000004
  0
ENDBLK
  5
50
330
4E
100
AcDbEntity
  8
0
100
AcDbBlockEnd
  0
BLOCK
  5
53
330
51
100
AcDbEntity
  8
0
100
AcDbBlockBegin
  2
Drfsicht1
 70
     0
 10
-94.74999976158142
 20
84.69999842910313
 30
0.0
  3
Drfsicht1
  1

  0
INSERT
  5
52
330
51
100
AcDbEntity
  8
0
100
AcDbBlockReference
  2
FBI_3-20_N_EX-select__2
 10
-101.550000281977
 20
47.44999790092588
 30
0.0
  0
MTEXT
  5
FE
330
51
100
AcDbEntity
  8
1
 62
     6
100
AcDbMText
 10
-94.74999976158142
 20
52.59999885825687
 30
0.0
 40
5.0
 41
0.0
 71
     2
 72
     1
  1
 
  7
CONVERTER_11
 73
     1
 44
1.32052821128451
  0
DIMENSION
  5
109
330
51
100
AcDbEntity
  8
1
100
AcDbDimension
  2
*D17
 10
-111.550000281977
 20
47.44999790092588
 30
0.0
 11
-114.975000281977
 21
75.59549578527198
 31
0.0
 70
    32
  1
<>
 71
     5
 42
-1.0
 53
90.0
  3
ME10_DIM_10
100
AcDbAlignedDimension
 13
-101.550000281977
 23
101.6499979009259
 33
0.0
 14
-101.550000281977
 24
47.44999790092588
 34
0.0
 50
90.0
100
AcDbRotatedDimension
  0
ENDBLK
  5
54
330
51
100
AcDbEntity
  8
0
100
AcDbBlockEnd
  0
BLOCK
  5
56
330
55
100
AcDbEntity
  8
0
100
AcDbBlockBegin
  2
FBI_3-20_N_EX-select__3
 70
     0
 10
6.95000075881441
 20
138.0000001097977
 30
0.0
  3
FBI_3-20_N_EX-select__3
  1

  0
LINE
  5
10A
330
55
100
AcDbEntity
  8
0
  6
Continuous
 62
     7
100
AcDbLine
 10
18.08012777773661
 20
160.0000001097977
 30
0.0
 11
18.75000075881441
 21
160.0000001097977
 31
0.0
  0
LINE
  5
10B
330
55
100
AcDbEntity
  8
0
  6
Continuous
 62
     7
100
AcDbLine
 10
8.75000075881442
 20
160.0000001097977
 30
0.0
 11
18.08012777773661
 21
160.0000001097977
 31
0.0
  0
LINE
  5
10C
330
55
100
AcDbEntity
  8
0
  6
Continuous
 62
     7
100
AcDbLine
 10
8.75000075881442
 20
153.3844416135764
 30
0.0
 11
8.75000075881442
 21
152.8000001097977
 31
0.0
  0
LINE
  5
10D
330
55
100
AcDbEntity
  8
0
  6
Continuous
 62
     7
100
AcDbLine
 10
6.95000075881441
 20
147.8000001097977
 30
0.0
 11
6.95000075881441
 21
152.8000001097977
 31
0.0
  0
LINE
  5
10E
330
55
100
AcDbEntity
  8
0
  6
Continuous
 62
     7
100
AcDbLine
 10
8.75000075881442
 20
154.0000001097977
 30
0.0
 11
8.75000075881442
 21
160.0000001097977
 31
0.0
  0
LINE
  5
10F
330
55
100
AcDbEntity
  8
0
  6
Continuous
 62
     7
100
AcDbLine
 10
8.75000075881442
 20
152.8000001097977
 30
0.0
 11
6.95000075881441
 21
152.8000001097977
 31
0.0
  0
LINE
  5
110
330
55
100
AcDbEntity
  8
0
  6
Continuous
 62
     7
100
AcDbLine
 10
20.55000075881442
 20
152.8000001097977
 30
0.0
 11
18.75000075881441
 21
152.8000001097977
 31
0.0
  0
LINE
  5
111
330
55
100
AcDbEntity
  8
0
  6
Continuous
 62
     7
100
AcDbLine
 10
18.75000075881441
 20
152.8000001097977
 30
0.0
 11
8.75000075881442
 21
152.8000001097977
 31
0.0
  0
LINE
  5
112
330
55
100
AcDbEntity
  8
0
  6
Continuous
 62
     7
100
AcDbLine
 10
16.75000075881442
 20
138.0000001097977
 30
0.0
 11
16.75000075881442
 21
147.8000001097977
 31
0.0
  0
LINE
  5
113
330
55
100
AcDbEntity
  8
0
  6
Continuous
 62
     7
100
AcDbLine
 10
10.75000075881442
 20
138.0000001097977
 30
0.0
 11
16.75000075881442
 21
138.0000001097977
 31
0.0
  0
LINE
  5
114
330
55
100
AcDbEntity
  8
0
  6
Continuous
 62
     7
100
AcDbLine
 10
10.75000075881442
 20
138.0000001097977
 30
0.0
 11
10.75000075881442
 21
147.8000001097977
 31
0.0
  0
LINE
  5
115
330
55
100
AcDbEntity
  8
0
  6
Continuous
 62
     7
100
AcDbLine
 10
16.75000075881442
 20
147.8000001097977
 30
0.0
 11
20.55000075881442
 21
147.8000001097977
 31
0.0
  0
LINE
  5
116
330
55
100
AcDbEntity
  8
0
  6
Continuous
 62
     7
100
AcDbLine
 10
6.95000075881441
 20
147.8000001097977
 30
0.0
 11
10.75000075881442
 21
147.8000001097977
 31
0.0
  0
LINE
  5
117
330
55
100
AcDbEntity
  8
0
  6
Continuous
 62
     7
100
AcDbLine
 10
10.75000075881442
 20
147.8000001097977
 30
0.0
 11
16.75000075881442
 21
147.8000001097977
 31
0.0
  0
LINE
  5
118
330
55
100
AcDbEntity
  8
0
  6
Continuous
 62
     7
100
AcDbLine
 10
17.05876769009306
 20
154.0000001097977
 30
0.0
 11
18.75000075881441
 21
154.0000001097977
 31
0.0
  0
LINE
  5
119
330
55
100
AcDbEntity
  8
0
  6
Continuous
 62
     7
100
AcDbLine
 10
10.4412338275358
 20
154.0000001097977
 30
0.0
 11
17.05876769009306
 21
154.0000001097977
 31
0.0
  0
LINE
  5
11A
330
55
100
AcDbEntity
  8
0
  6
Continuous
 62
     7
100
AcDbLine
 10
8.75000075881442
 20
154.0000001097977
 30
0.0
 11
10.4412338275358
 21
154.0000001097977
 31
0.0
  0
LINE
  5
11B
330
55
100
AcDbEntity
  8
0
  6
Continuous
 62
     7
100
AcDbLine
 10
18.75000075881442
 20
153.3844416135764
 30
0.0
 11
8.75000075881442
 21
153.3844416135764
 31
0.0
  0
LINE
  5
11C
330
55
100
AcDbEntity
  8
0
  6
Continuous
 62
     7
100
AcDbLine
 10
17.05876769009306
 20
154.0000001097977
 30
0.0
 11
18.75000075881442
 21
153.3844416135764
 31
0.0
  0
LINE
  5
11D
330
55
100
AcDbEntity
  8
0
  6
Continuous
 62
     7
100
AcDbLine
 10
18.75000075881442
 20
153.3844416135764
 30
0.0
 11
18.75000075881441
 21
152.8000001097977
 31
0.0
  0
LINE
  5
11E
330
55
100
AcDbEntity
  8
0
  6
Continuous
 62
     7
100
AcDbLine
 10
20.55000075881442
 20
147.8000001097977
 30
0.0
 11
20.55000075881442
 21
152.8000001097977
 31
0.0
  0
LINE
  5
11F
330
55
100
AcDbEntity
  8
0
  6
Continuous
 62
     7
100
AcDbLine
 10
18.75000075881441
 20
154.0000001097977
 30
0.0
 11
18.75000075881441
 21
160.0000001097977
 31
0.0
  0
LINE
  5
120
330
55
100
AcDbEntity
  8
0
  6
Continuous
 62
     7
100
AcDbLine
 10
10.4412338275358
 20
154.0000001097977
 30
0.0
 11
8.75000075881442
 21
153.3844416135764
 31
0.0
  0
LINE
  5
121
330
55
100
AcDbEntity
  8
1
  6
DOT_CENTER
 62
     2
100
AcDbLine
 10
13.75000075881442
 20
138.0000001097977
 30
0.0
 11
13.75000075881442
 21
147.8000001097977
 31
0.0
  0
LINE
  5
122
330
55
100
AcDbEntity
  8
1
  6
DOT_CENTER
 62
     2
100
AcDbLine
 10
13.75000075881432
 20
152.800000109798
 30
0.0
 11
13.75000075881441
 21
160.0000001097977
 31
0.0
  0
ENDBLK
  5
57
330
55
100
AcDbEntity
  8
0
100
AcDbBlockEnd
  0
BLOCK
  5
5A
330
58
100
AcDbEntity
  8
0
100
AcDbBlockBegin
  2
Rckans1
 70
     0
 10
13.75000023841881
 20
146.7999999999594
 30
0.0
  3
Rckans1
  1

  0
INSERT
  5
59
330
58
100
AcDbEntity
  8
0
100
AcDbBlockReference
  2
FBI_3-20_N_EX-select__3
 10
6.95000075881441
 20
138.0000001097977
 30
0.0
  0
MTEXT
  5
123
330
58
100
AcDbEntity
  8
1
 62
     6
100
AcDbMText
 10
13.75000023841858
 20
131.49999999996
 30
0.0
 40
5.0
 41
0.0
 71
     2
 72
     1
  1
 
  7
CONVERTER_11
 73
     1
 44
1.32052821128451
  0
ENDBLK
  5
5B
330
58
100
AcDbEntity
  8
0
100
AcDbBlockEnd
  0
BLOCK
  5
5D
330
5C
100
AcDbEntity
  8
0
100
AcDbBlockBegin
  2
FBI_3-20_N_EX-select__4
 70
     0
 10
-66.09999947181272
 20
138.0000001097576
 30
0.0
  3
FBI_3-20_N_EX-select__4
  1

  0
LINE
  5
124
330
5C
100
AcDbEntity
  8
0
  6
Continuous
 62
     7
100
AcDbLine
 10
-55.99123254053409
 20
154.0000001097576
 30
0.0
 11
-54.29999947181273
 21
153.3844416135363
 31
0.0
  0
LINE
  5
125
330
5C
100
AcDbEntity
  8
0
  6
Continuous
 62
     7
100
AcDbLine
 10
-54.29999947181273
 20
153.3844416135363
 30
0.0
 11
-64.29999947181273
 21
153.3844416135363
 31
0.0
  0
LINE
  5
126
330
5C
100
AcDbEntity
  8
0
  6
Continuous
 62
     7
100
AcDbLine
 10
-55.99123254053409
 20
154.0000001097576
 30
0.0
 11
-54.29999947181273
 21
154.0000001097576
 31
0.0
  0
LINE
  5
127
330
5C
100
AcDbEntity
  8
0
  6
Continuous
 62
     7
100
AcDbLine
 10
-61.79999947181273
 20
160.0000001097576
 30
0.0
 11
-54.29999947181273
 21
160.0000001097576
 31
0.0
  0
LINE
  5
128
330
5C
100
AcDbEntity
  8
0
  6
Continuous
 62
     7
100
AcDbLine
 10
-54.29999947181273
 20
154.0000001097576
 30
0.0
 11
-54.29999947181273
 21
160.0000001097576
 31
0.0
  0
LINE
  5
129
330
5C
100
AcDbEntity
  8
0
  6
Continuous
 62
     7
100
AcDbLine
 10
-64.29999947181273
 20
154.0000001097576
 30
0.0
 11
-62.60876640309137
 21
154.0000001097576
 31
0.0
  0
LINE
  5
12A
330
5C
100
AcDbEntity
  8
0
  6
Continuous
 62
     7
100
AcDbLine
 10
-64.29999947181273
 20
160.0000001097576
 30
0.0
 11
-61.79999947181273
 21
160.0000001097576
 31
0.0
  0
LINE
  5
12B
330
5C
100
AcDbEntity
  8
0
  6
Continuous
 62
     7
100
AcDbLine
 10
-64.29999947181273
 20
154.0000001097576
 30
0.0
 11
-64.29999947181273
 21
160.0000001097576
 31
0.0
  0
LINE
  5
12C
330
5C
100
AcDbEntity
  8
0
  6
Continuous
 62
     7
100
AcDbLine
 10
-62.60876640309137
 20
154.0000001097576
 30
0.0
 11
-55.99123254053409
 21
154.0000001097576
 31
0.0
  0
LINE
  5
12D
330
5C
100
AcDbEntity
  8
0
  6
Continuous
 62
     7
100
AcDbLine
 10
-62.60876640309137
 20
154.0000001097576
 30
0.0
 11
-64.29999947181273
 21
153.3844416135363
 31
0.0
  0
LINE
  5
12E
330
5C
100
AcDbEntity
  8
0
  6
Continuous
 62
     7
100
AcDbLine
 10
-64.29999947181273
 20
152.8000001097576
 30
0.0
 11
-54.29999947181273
 21
152.8000001097576
 31
0.0
  0
LINE
  5
12F
330
5C
100
AcDbEntity
  8
0
  6
Continuous
 62
     7
100
AcDbLine
 10
-59.29999947181273
 20
138.0000001097576
 30
0.0
 11
-56.29999947181273
 21
138.0000001097576
 31
0.0
  0
LINE
  5
130
330
5C
100
AcDbEntity
  8
0
  6
Continuous
 62
     7
100
AcDbLine
 10
-62.29999947181273
 20
138.0000001097576
 30
0.0
 11
-59.29999947181273
 21
138.0000001097576
 31
0.0
  0
LINE
  5
131
330
5C
100
AcDbEntity
  8
0
  6
Continuous
 62
     7
100
AcDbLine
 10
-56.29999947181273
 20
147.8000001097576
 30
0.0
 11
-62.29999947181273
 21
147.8000001097576
 31
0.0
  0
LINE
  5
132
330
5C
100
AcDbEntity
  8
0
  6
Continuous
 62
     7
100
AcDbLine
 10
-43.99999947181273
 20
153.3844416135363
 30
0.0
 11
-43.99999947181273
 21
152.8000001097576
 31
0.0
  0
LINE
  5
133
330
5C
100
AcDbEntity
  8
0
  6
Continuous
 62
     7
100
AcDbLine
 10
-43.99999947181273
 20
154.0000001097576
 30
0.0
 11
-42.30876640309136
 21
154.0000001097576
 31
0.0
  0
LINE
  5
134
330
5C
100
AcDbEntity
  8
0
  6
Continuous
 62
     7
100
AcDbLine
 10
-41.49999947181273
 20
160.0000001097576
 30
0.0
 11
-33.99999947181272
 21
160.0000001097576
 31
0.0
  0
LINE
  5
135
330
5C
100
AcDbEntity
  8
0
  6
Continuous
 62
     7
100
AcDbLine
 10
-41.99999947181273
 20
138.0000001097576
 30
0.0
 11
-41.99999947181273
 21
147.8000001097576
 31
0.0
  0
LINE
  5
136
330
5C
100
AcDbEntity
  8
0
  6
Continuous
 62
     7
100
AcDbLine
 10
-43.99999947181273
 20
154.0000001097576
 30
0.0
 11
-43.99999947181273
 21
160.0000001097576
 31
0.0
  0
LINE
  5
137
330
5C
100
AcDbEntity
  8
0
  6
Continuous
 62
     7
100
AcDbLine
 10
-33.99999947181272
 20
153.3844416135363
 30
0.0
 11
-33.99999947181272
 21
152.8000001097576
 31
0.0
  0
LINE
  5
138
330
5C
100
AcDbEntity
  8
0
  6
Continuous
 62
     7
100
AcDbLine
 10
-15.39123254053409
 20
154.0000001097576
 30
0.0
 11
-13.69999947181273
 21
153.3844416135363
 31
0.0
  0
LINE
  5
139
330
5C
100
AcDbEntity
  8
0
  6
Continuous
 62
     7
100
AcDbLine
 10
-35.69123254053408
 20
154.0000001097576
 30
0.0
 11
-33.99999947181272
 21
153.3844416135363
 31
0.0
  0
LINE
  5
13A
330
5C
100
AcDbEntity
  8
0
  6
Continuous
 62
     7
100
AcDbLine
 10
-13.69999947181273
 20
153.3844416135363
 30
0.0
 11
-23.69999947181272
 21
153.3844416135363
 31
0.0
  0
LINE
  5
13B
330
5C
100
AcDbEntity
  8
0
  6
Continuous
 62
     7
100
AcDbLine
 10
-23.69999947181272
 20
153.3844416135363
 30
0.0
 11
-23.69999947181272
 21
152.8000001097576
 31
0.0
  0
LINE
  5
13C
330
5C
100
AcDbEntity
  8
0
  6
Continuous
 62
     7
100
AcDbLine
 10
-13.69999947181273
 20
153.3844416135363
 30
0.0
 11
-13.69999947181273
 21
152.8000001097576
 31
0.0
  0
LINE
  5
13D
330
5C
100
AcDbEntity
  8
0
  6
Continuous
 62
     7
100
AcDbLine
 10
-15.39123254053409
 20
154.0000001097576
 30
0.0
 11
-13.69999947181273
 21
154.0000001097576
 31
0.0
  0
LINE
  5
13E
330
5C
100
AcDbEntity
  8
0
  6
Continuous
 62
     7
100
AcDbLine
 10
-21.19999947181272
 20
160.0000001097576
 30
0.0
 11
-13.69999947181273
 21
160.0000001097576
 31
0.0
  0
LINE
  5
13F
330
5C
100
AcDbEntity
  8
0
  6
Continuous
 62
     7
100
AcDbLine
 10
-13.69999947181273
 20
154.0000001097576
 30
0.0
 11
-13.69999947181273
 21
160.0000001097576
 31
0.0
  0
LINE
  5
140
330
5C
100
AcDbEntity
  8
0
  6
Continuous
 62
     7
100
AcDbLine
 10
-23.69999947181272
 20
154.0000001097576
 30
0.0
 11
-22.00876640309136
 21
154.0000001097576
 31
0.0
  0
LINE
  5
141
330
5C
100
AcDbEntity
  8
0
  6
Continuous
 62
     7
100
AcDbLine
 10
-33.99999947181272
 20
154.0000001097576
 30
0.0
 11
-33.99999947181272
 21
160.0000001097576
 31
0.0
  0
LINE
  5
142
330
5C
100
AcDbEntity
  8
0
  6
Continuous
 62
     7
100
AcDbLine
 10
-23.69999947181272
 20
160.0000001097576
 30
0.0
 11
-21.19999947181272
 21
160.0000001097576
 31
0.0
  0
LINE
  5
143
330
5C
100
AcDbEntity
  8
0
  6
Continuous
 62
     7
100
AcDbLine
 10
-23.69999947181272
 20
154.0000001097576
 30
0.0
 11
-23.69999947181272
 21
160.0000001097576
 31
0.0
  0
LINE
  5
144
330
5C
100
AcDbEntity
  8
0
  6
Continuous
 62
     7
100
AcDbLine
 10
-22.00876640309136
 20
154.0000001097576
 30
0.0
 11
-15.39123254053409
 21
154.0000001097576
 31
0.0
  0
LINE
  5
145
330
5C
100
AcDbEntity
  8
0
  6
Continuous
 62
     7
100
AcDbLine
 10
-22.00876640309136
 20
154.0000001097576
 30
0.0
 11
-23.69999947181272
 21
153.3844416135363
 31
0.0
  0
LINE
  5
146
330
5C
100
AcDbEntity
  8
0
  6
Continuous
 62
     7
100
AcDbLine
 10
-56.29999947181273
 20
138.0000001097576
 30
0.0
 11
-56.29999947181273
 21
147.8000001097576
 31
0.0
  0
LINE
  5
147
330
5C
100
AcDbEntity
  8
0
  6
Continuous
 62
     7
100
AcDbLine
 10
-54.29999947181273
 20
153.3844416135363
 30
0.0
 11
-54.29999947181273
 21
152.8000001097576
 31
0.0
  0
LINE
  5
148
330
5C
100
AcDbEntity
  8
0
  6
Continuous
 62
     7
100
AcDbLine
 10
-21.69999947181272
 20
138.0000001097576
 30
0.0
 11
-21.69999947181272
 21
147.8000001097576
 31
0.0
  0
LINE
  5
149
330
5C
100
AcDbEntity
  8
0
  6
Continuous
 62
     7
100
AcDbLine
 10
-15.69999947181273
 20
147.8000001097576
 30
0.0
 11
-21.69999947181272
 21
147.8000001097576
 31
0.0
  0
LINE
  5
14A
330
5C
100
AcDbEntity
  8
0
  6
Continuous
 62
     7
100
AcDbLine
 10
-15.69999947181273
 20
138.0000001097576
 30
0.0
 11
-15.69999947181273
 21
147.8000001097576
 31
0.0
  0
LINE
  5
14B
330
5C
100
AcDbEntity
  8
0
  6
Continuous
 62
     7
100
AcDbLine
 10
-35.99999947181272
 20
138.0000001097576
 30
0.0
 11
-35.99999947181272
 21
147.8000001097576
 31
0.0
  0
LINE
  5
14C
330
5C
100
AcDbEntity
  8
0
  6
Continuous
 62
     7
100
AcDbLine
 10
-21.69999947181272
 20
147.8000001097576
 30
0.0
 11
-35.99999947181272
 21
147.8000001097576
 31
0.0
  0
LINE
  5
14D
330
5C
100
AcDbEntity
  8
0
  6
Continuous
 62
     7
100
AcDbLine
 10
-62.29999947181273
 20
147.8000001097576
 30
0.0
 11
-66.09999947181272
 21
147.8000001097576
 31
0.0
  0
LINE
  5
14E
330
5C
100
AcDbEntity
  8
0
  6
Continuous
 62
     7
100
AcDbLine
 10
-66.09999947181272
 20
152.8000001097576
 30
0.0
 11
-64.29999947181273
 21
152.8000001097576
 31
0.0
  0
LINE
  5
14F
330
5C
100
AcDbEntity
  8
0
  6
Continuous
 62
     7
100
AcDbLine
 10
-62.29999947181273
 20
138.0000001097576
 30
0.0
 11
-62.29999947181273
 21
147.8000001097576
 31
0.0
  0
LINE
  5
150
330
5C
100
AcDbEntity
  8
0
  6
Continuous
 62
     7
100
AcDbLine
 10
-64.29999947181273
 20
153.3844416135363
 30
0.0
 11
-64.29999947181273
 21
152.8000001097576
 31
0.0
  0
LINE
  5
151
330
5C
100
AcDbEntity
  8
0
  6
Continuous
 62
     7
100
AcDbLine
 10
-66.09999947181272
 20
147.8000001097576
 30
0.0
 11
-66.09999947181272
 21
152.8000001097576
 31
0.0
  0
LINE
  5
152
330
5C
100
AcDbEntity
  8
0
  6
Continuous
 62
     7
100
AcDbLine
 10
-33.99999947181272
 20
152.8000001097576
 30
0.0
 11
-23.69999947181272
 21
152.8000001097576
 31
0.0
  0
LINE
  5
153
330
5C
100
AcDbEntity
  8
0
  6
Continuous
 62
     7
100
AcDbLine
 10
-43.99999947181273
 20
152.8000001097576
 30
0.0
 11
-33.99999947181272
 21
152.8000001097576
 31
0.0
  0
LINE
  5
154
330
5C
100
AcDbEntity
  8
0
  6
Continuous
 62
     7
100
AcDbLine
 10
-13.69999947181273
 20
152.8000001097576
 30
0.0
 11
-11.89999947181276
 21
152.8000001097576
 31
0.0
  0
LINE
  5
155
330
5C
100
AcDbEntity
  8
0
  6
Continuous
 62
     7
100
AcDbLine
 10
-23.69999947181272
 20
152.8000001097576
 30
0.0
 11
-13.69999947181273
 21
152.8000001097576
 31
0.0
  0
LINE
  5
156
330
5C
100
AcDbEntity
  8
0
  6
Continuous
 62
     7
100
AcDbLine
 10
-11.89999947181276
 20
152.8000001097576
 30
0.0
 11
-11.89999947181276
 21
147.8000001097576
 31
0.0
  0
LINE
  5
157
330
5C
100
AcDbEntity
  8
0
  6
Continuous
 62
     7
100
AcDbLine
 10
-41.99999947181273
 20
147.8000001097576
 30
0.0
 11
-56.29999947181273
 21
147.8000001097576
 31
0.0
  0
LINE
  5
158
330
5C
100
AcDbEntity
  8
0
  6
Continuous
 62
     7
100
AcDbLine
 10
-35.99999947181272
 20
147.8000001097576
 30
0.0
 11
-41.99999947181273
 21
147.8000001097576
 31
0.0
  0
LINE
  5
159
330
5C
100
AcDbEntity
  8
0
  6
Continuous
 62
     7
100
AcDbLine
 10
-11.89999947181276
 20
147.8000001097576
 30
0.0
 11
-15.69999947181273
 21
147.8000001097576
 31
0.0
  0
LINE
  5
15A
330
5C
100
AcDbEntity
  8
0
  6
Continuous
 62
     7
100
AcDbLine
 10
-54.29999947181273
 20
152.8000001097576
 30
0.0
 11
-43.99999947181273
 21
152.8000001097576
 31
0.0
  0
LINE
  5
15B
330
5C
100
AcDbEntity
  8
0
  6
Continuous
 62
     7
100
AcDbLine
 10
-41.99999947181273
 20
138.0000001097576
 30
0.0
 11
-35.99999947181272
 21
138.0000001097576
 31
0.0
  0
LINE
  5
15C
330
5C
100
AcDbEntity
  8
0
  6
Continuous
 62
     7
100
AcDbLine
 10
-21.69999947181272
 20
138.0000001097576
 30
0.0
 11
-15.69999947181273
 21
138.0000001097576
 31
0.0
  0
LINE
  5
15D
330
5C
100
AcDbEntity
  8
0
  6
Continuous
 62
     7
100
AcDbLine
 10
-35.69123254053408
 20
154.0000001097576
 30
0.0
 11
-33.99999947181272
 21
154.0000001097576
 31
0.0
  0
LINE
  5
15E
330
5C
100
AcDbEntity
  8
0
  6
Continuous
 62
     7
100
AcDbLine
 10
-43.99999947181273
 20
160.0000001097576
 30
0.0
 11
-41.49999947181273
 21
160.0000001097576
 31
0.0
  0
LINE
  5
15F
330
5C
100
AcDbEntity
  8
0
  6
Continuous
 62
     7
100
AcDbLine
 10
-42.30876640309136
 20
154.0000001097576
 30
0.0
 11
-35.69123254053408
 21
154.0000001097576
 31
0.0
  0
LINE
  5
160
330
5C
100
AcDbEntity
  8
0
  6
Continuous
 62
     7
100
AcDbLine
 10
-33.99999947181272
 20
153.3844416135363
 30
0.0
 11
-43.99999947181273
 21
153.3844416135363
 31
0.0
  0
LINE
  5
161
330
5C
100
AcDbEntity
  8
0
  6
Continuous
 62
     7
100
AcDbLine
 10
-42.30876640309136
 20
154.0000001097576
 30
0.0
 11
-43.99999947181273
 21
153.3844416135363
 31
0.0
  0
LINE
  5
162
330
5C
100
AcDbEntity
  8
1
  6
DOT_CENTER
 62
     2
100
AcDbLine
 10
-59.29999947181273
 20
152.8000001097576
 30
0.0
 11
-59.29999947181273
 21
160.0000001097576
 31
0.0
  0
LINE
  5
163
330
5C
100
AcDbEntity
  8
1
  6
DOT_CENTER
 62
     2
100
AcDbLine
 10
-59.29999947181273
 20
138.0000001097576
 30
0.0
 11
-59.29999947181273
 21
147.8000001097576
 31
0.0
  0
LINE
  5
164
330
5C
100
AcDbEntity
  8
1
  6
DOT_CENTER
 62
     2
100
AcDbLine
 10
-18.69999947181273
 20
160.0000001097575
 30
0.0
 11
-18.69999947181273
 21
152.8000001097576
 31
0.0
  0
LINE
  5
165
330
5C
100
AcDbEntity
  8
1
  6
DOT_CENTER
 62
     2
100
AcDbLine
 10
-18.69999947181272
 20
138.0000001097576
 30
0.0
 11
-18.69999947181272
 21
147.8000001097576
 31
0.0
  0
LINE
  5
166
330
5C
100
AcDbEntity
  8
1
  6
DOT_CENTER
 62
     2
100
AcDbLine
 10
-38.99999947181271
 20
160.0000001097576
 30
0.0
 11
-38.99999947181273
 21
152.8000001097576
 31
0.0
  0
LINE
  5
167
330
5C
100
AcDbEntity
  8
1
  6
DOT_CENTER
 62
     2
100
AcDbLine
 10
-38.99999947181273
 20
138.0000001097576
 30
0.0
 11
-38.99999947181273
 21
147.8000001097576
 31
0.0
  0
ENDBLK
  5
5E
330
5C
100
AcDbEntity
  8
0
100
AcDbBlockEnd
  0
BLOCK
  5
61
330
5F
100
AcDbEntity
  8
0
100
AcDbBlockBegin
  2
SA_Links1
 70
     0
 10
-49.14999999999
 20
146.7999999999193
 30
0.0
  3
SA_Links1
  1

  0
INSERT
  5
60
330
5F
100
AcDbEntity
  8
0
100
AcDbBlockReference
  2
FBI_3-20_N_EX-select__4
 10
-66.09999947181272
 20
138.0000001097576
 30
0.0
  0
MTEXT
  5
168
330
5F
100
AcDbEntity
  8
1
 62
     6
100
AcDbMText
 10
-38.99999999999
 20
131.49999999992
 30
0.0
 40
5.0
 41
0.0
 71
     2
 72
     1
  1
 
  7
CONVERTER_11
 73
     1
 44
1.32052821128451
  0
ENDBLK
  5
62
330
5F
100
AcDbEntity
  8
0
100
AcDbBlockEnd
  0
BLOCK
  5
64
330
63
100
AcDbEntity
  8
0
100
AcDbBlockBegin
  2
FBI_3-20_N_EX-select__5
 70
     0
 10
-186.6000011705494
 20
138.0000001097983
 30
0.0
  3
FBI_3-20_N_EX-select__5
  1

  0
LINE
  5
169
330
63
100
AcDbEntity
  8
0
  6
Continuous
 62
     7
100
AcDbLine
 10
-179.8000011705495
 20
138.0000001097983
 30
0.0
 11
-176.8000011705495
 21
138.0000001097983
 31
0.0
  0
LINE
  5
16A
330
63
100
AcDbEntity
  8
0
  6
Continuous
 62
     7
100
AcDbLine
 10
-182.8000011705495
 20
138.0000001097983
 30
0.0
 11
-179.8000011705495
 21
138.0000001097983
 31
0.0
  0
LINE
  5
16B
330
63
100
AcDbEntity
  8
0
  6
Continuous
 62
     7
100
AcDbLine
 10
-184.8000011705495
 20
160.0000001097983
 30
0.0
 11
-174.8000011705495
 21
160.0000001097983
 31
0.0
  0
LINE
  5
16C
330
63
100
AcDbEntity
  8
0
  6
Continuous
 62
     7
100
AcDbLine
 10
-183.1087681018281
 20
154.0000001097983
 30
0.0
 11
-179.8000011705495
 21
154.0000001097983
 31
0.0
  0
LINE
  5
16D
330
63
100
AcDbEntity
  8
0
  6
Continuous
 62
     7
100
AcDbLine
 10
-184.8000011705495
 20
154.0000001097983
 30
0.0
 11
-183.1087681018281
 21
154.0000001097983
 31
0.0
  0
LINE
  5
16E
330
63
100
AcDbEntity
  8
0
  6
Continuous
 62
     7
100
AcDbLine
 10
-184.8000011705495
 20
153.384441613577
 30
0.0
 11
-184.8000011705495
 21
152.8000001097983
 31
0.0
  0
LINE
  5
16F
330
63
100
AcDbEntity
  8
0
  6
Continuous
 62
     7
100
AcDbLine
 10
-186.6000011705494
 20
152.8000001097983
 30
0.0
 11
-186.6000011705494
 21
147.8000001097983
 31
0.0
  0
LINE
  5
170
330
63
100
AcDbEntity
  8
0
  6
Continuous
 62
     7
100
AcDbLine
 10
-184.8000011705495
 20
154.0000001097983
 30
0.0
 11
-184.8000011705495
 21
160.0000001097983
 31
0.0
  0
LINE
  5
171
330
63
100
AcDbEntity
  8
0
  6
Continuous
 62
     7
100
AcDbLine
 10
-183.1087681018281
 20
154.0000001097983
 30
0.0
 11
-184.8000011705495
 21
153.384441613577
 31
0.0
  0
LINE
  5
172
330
63
100
AcDbEntity
  8
0
  6
Continuous
 62
     7
100
AcDbLine
 10
-182.8000011705495
 20
138.0000001097983
 30
0.0
 11
-182.8000011705495
 21
147.8000001097983
 31
0.0
  0
LINE
  5
173
330
63
100
AcDbEntity
  8
0
  6
Continuous
 62
     7
100
AcDbLine
 10
-176.8000011705495
 20
138.0000001097983
 30
0.0
 11
-176.8000011705495
 21
147.8000001097983
 31
0.0
  0
LINE
  5
174
330
63
100
AcDbEntity
  8
0
  6
Continuous
 62
     7
100
AcDbLine
 10
-162.5000011705495
 20
138.0000001097983
 30
0.0
 11
-162.5000011705495
 21
147.8000001097983
 31
0.0
  0
LINE
  5
175
330
63
100
AcDbEntity
  8
0
  6
Continuous
 62
     7
100
AcDbLine
 10
-162.5000011705495
 20
138.0000001097983
 30
0.0
 11
-159.5000011705495
 21
138.0000001097983
 31
0.0
  0
LINE
  5
176
330
63
100
AcDbEntity
  8
0
  6
Continuous
 62
     7
100
AcDbLine
 10
-159.5000011705495
 20
138.0000001097983
 30
0.0
 11
-156.5000011705495
 21
138.0000001097983
 31
0.0
  0
LINE
  5
177
330
63
100
AcDbEntity
  8
0
  6
Continuous
 62
     7
100
AcDbLine
 10
-156.1912342392708
 20
154.0000001097983
 30
0.0
 11
-154.5000011705495
 21
154.0000001097983
 31
0.0
  0
LINE
  5
178
330
63
100
AcDbEntity
  8
0
  6
Continuous
 62
     7
100
AcDbLine
 10
-159.5000011705495
 20
154.0000001097983
 30
0.0
 11
-156.1912342392708
 21
154.0000001097983
 31
0.0
  0
LINE
  5
179
330
63
100
AcDbEntity
  8
0
  6
Continuous
 62
     7
100
AcDbLine
 10
-156.5000011705495
 20
138.0000001097983
 30
0.0
 11
-156.5000011705495
 21
147.8000001097983
 31
0.0
  0
LINE
  5
17A
330
63
100
AcDbEntity
  8
0
  6
Continuous
 62
     7
100
AcDbLine
 10
-154.5000011705495
 20
154.0000001097983
 30
0.0
 11
-154.5000011705495
 21
160.0000001097983
 31
0.0
  0
LINE
  5
17B
330
63
100
AcDbEntity
  8
0
  6
Continuous
 62
     7
100
AcDbLine
 10
-144.2000011705495
 20
154.0000001097983
 30
0.0
 11
-144.2000011705495
 21
160.0000001097983
 31
0.0
  0
LINE
  5
17C
330
63
100
AcDbEntity
  8
0
  6
Continuous
 62
     7
100
AcDbLine
 10
-144.2000011705495
 20
160.0000001097983
 30
0.0
 11
-134.2000011705495
 21
160.0000001097983
 31
0.0
  0
LINE
  5
17D
330
63
100
AcDbEntity
  8
0
  6
Continuous
 62
     7
100
AcDbLine
 10
-164.5000011705495
 20
160.0000001097983
 30
0.0
 11
-154.5000011705495
 21
160.0000001097983
 31
0.0
  0
LINE
  5
17E
330
63
100
AcDbEntity
  8
0
  6
Continuous
 62
     7
100
AcDbLine
 10
-164.5000011705495
 20
154.0000001097983
 30
0.0
 11
-162.8087681018281
 21
154.0000001097983
 31
0.0
  0
LINE
  5
17F
330
63
100
AcDbEntity
  8
0
  6
Continuous
 62
     7
100
AcDbLine
 10
-164.5000011705495
 20
154.0000001097983
 30
0.0
 11
-164.5000011705495
 21
160.0000001097983
 31
0.0
  0
LINE
  5
180
330
63
100
AcDbEntity
  8
0
  6
Continuous
 62
     7
100
AcDbLine
 10
-174.8000011705495
 20
154.0000001097983
 30
0.0
 11
-174.8000011705495
 21
160.0000001097983
 31
0.0
  0
LINE
  5
181
330
63
100
AcDbEntity
  8
0
  6
Continuous
 62
     7
100
AcDbLine
 10
-176.4912342392709
 20
154.0000001097983
 30
0.0
 11
-174.8000011705495
 21
154.0000001097983
 31
0.0
  0
LINE
  5
182
330
63
100
AcDbEntity
  8
0
  6
Continuous
 62
     7
100
AcDbLine
 10
-162.8087681018281
 20
154.0000001097983
 30
0.0
 11
-164.5000011705495
 21
153.384441613577
 31
0.0
  0
LINE
  5
183
330
63
100
AcDbEntity
  8
0
  6
Continuous
 62
     7
100
AcDbLine
 10
-154.5000011705495
 20
153.384441613577
 30
0.0
 11
-164.5000011705495
 21
153.384441613577
 31
0.0
  0
LINE
  5
184
330
63
100
AcDbEntity
  8
0
  6
Continuous
 62
     7
100
AcDbLine
 10
-154.5000011705495
 20
153.384441613577
 30
0.0
 11
-154.5000011705495
 21
152.8000001097983
 31
0.0
  0
LINE
  5
185
330
63
100
AcDbEntity
  8
0
  6
Continuous
 62
     7
100
AcDbLine
 10
-164.5000011705495
 20
153.384441613577
 30
0.0
 11
-164.5000011705495
 21
152.8000001097983
 31
0.0
  0
LINE
  5
186
330
63
100
AcDbEntity
  8
0
  6
Continuous
 62
     7
100
AcDbLine
 10
-144.2000011705495
 20
153.384441613577
 30
0.0
 11
-144.2000011705495
 21
152.8000001097983
 31
0.0
  0
LINE
  5
187
330
63
100
AcDbEntity
  8
0
  6
Continuous
 62
     7
100
AcDbLine
 10
-162.8087681018281
 20
154.0000001097983
 30
0.0
 11
-159.5000011705495
 21
154.0000001097983
 31
0.0
  0
LINE
  5
188
330
63
100
AcDbEntity
  8
0
  6
Continuous
 62
     7
100
AcDbLine
 10
-156.1912342392708
 20
154.0000001097983
 30
0.0
 11
-154.5000011705495
 21
153.384441613577
 31
0.0
  0
LINE
  5
189
330
63
100
AcDbEntity
  8
0
  6
Continuous
 62
     7
100
AcDbLine
 10
-176.4912342392709
 20
154.0000001097983
 30
0.0
 11
-174.8000011705495
 21
153.384441613577
 31
0.0
  0
LINE
  5
18A
330
63
100
AcDbEntity
  8
0
  6
Continuous
 62
     7
100
AcDbLine
 10
-179.8000011705495
 20
154.0000001097983
 30
0.0
 11
-176.4912342392709
 21
154.0000001097983
 31
0.0
  0
LINE
  5
18B
330
63
100
AcDbEntity
  8
0
  6
Continuous
 62
     7
100
AcDbLine
 10
-139.2000011705495
 20
154.0000001097983
 30
0.0
 11
-135.8912342392708
 21
154.0000001097983
 31
0.0
  0
LINE
  5
18C
330
63
100
AcDbEntity
  8
0
  6
Continuous
 62
     7
100
AcDbLine
 10
-135.8912342392708
 20
154.0000001097983
 30
0.0
 11
-134.2000011705495
 21
154.0000001097983
 31
0.0
  0
LINE
  5
18D
330
63
100
AcDbEntity
  8
0
  6
Continuous
 62
     7
100
AcDbLine
 10
-144.2000011705495
 20
154.0000001097983
 30
0.0
 11
-142.5087681018281
 21
154.0000001097983
 31
0.0
  0
LINE
  5
18E
330
63
100
AcDbEntity
  8
0
  6
Continuous
 62
     7
100
AcDbLine
 10
-142.5087681018281
 20
154.0000001097983
 30
0.0
 11
-139.2000011705495
 21
154.0000001097983
 31
0.0
  0
LINE
  5
18F
330
63
100
AcDbEntity
  8
0
  6
Continuous
 62
     7
100
AcDbLine
 10
-134.2000011705495
 20
153.384441613577
 30
0.0
 11
-144.2000011705495
 21
153.384441613577
 31
0.0
  0
LINE
  5
190
330
63
100
AcDbEntity
  8
0
  6
Continuous
 62
     7
100
AcDbLine
 10
-142.5087681018281
 20
154.0000001097983
 30
0.0
 11
-144.2000011705495
 21
153.384441613577
 31
0.0
  0
LINE
  5
191
330
63
100
AcDbEntity
  8
0
  6
Continuous
 62
     7
100
AcDbLine
 10
-186.6000011705494
 20
147.8000001097983
 30
0.0
 11
-182.8000011705495
 21
147.8000001097983
 31
0.0
  0
LINE
  5
192
330
63
100
AcDbEntity
  8
0
  6
Continuous
 62
     7
100
AcDbLine
 10
-182.8000011705495
 20
147.8000001097983
 30
0.0
 11
-176.8000011705495
 21
147.8000001097983
 31
0.0
  0
LINE
  5
193
330
63
100
AcDbEntity
  8
0
  6
Continuous
 62
     7
100
AcDbLine
 10
-162.5000011705495
 20
147.8000001097983
 30
0.0
 11
-156.5000011705495
 21
147.8000001097983
 31
0.0
  0
LINE
  5
194
330
63
100
AcDbEntity
  8
0
  6
Continuous
 62
     7
100
AcDbLine
 10
-156.5000011705495
 20
147.8000001097983
 30
0.0
 11
-142.2000011705495
 21
147.8000001097983
 31
0.0
  0
LINE
  5
195
330
63
100
AcDbEntity
  8
0
  6
Continuous
 62
     7
100
AcDbLine
 10
-142.2000011705495
 20
147.8000001097983
 30
0.0
 11
-136.2000011705495
 21
147.8000001097983
 31
0.0
  0
LINE
  5
196
330
63
100
AcDbEntity
  8
0
  6
Continuous
 62
     7
100
AcDbLine
 10
-136.2000011705495
 20
147.8000001097983
 30
0.0
 11
-132.4000011705495
 21
147.8000001097983
 31
0.0
  0
LINE
  5
197
330
63
100
AcDbEntity
  8
0
  6
Continuous
 62
     7
100
AcDbLine
 10
-176.8000011705495
 20
147.8000001097983
 30
0.0
 11
-162.5000011705495
 21
147.8000001097983
 31
0.0
  0
LINE
  5
198
330
63
100
AcDbEntity
  8
0
  6
Continuous
 62
     7
100
AcDbLine
 10
-174.8000011705495
 20
153.384441613577
 30
0.0
 11
-174.8000011705495
 21
152.8000001097983
 31
0.0
  0
LINE
  5
199
330
63
100
AcDbEntity
  8
0
  6
Continuous
 62
     7
100
AcDbLine
 10
-174.8000011705495
 20
153.384441613577
 30
0.0
 11
-184.8000011705495
 21
153.384441613577
 31
0.0
  0
LINE
  5
19A
330
63
100
AcDbEntity
  8
0
  6
Continuous
 62
     7
100
AcDbLine
 10
-154.5000011705495
 20
152.8000001097983
 30
0.0
 11
-164.5000011705495
 21
152.8000001097983
 31
0.0
  0
LINE
  5
19B
330
63
100
AcDbEntity
  8
0
  6
Continuous
 62
     7
100
AcDbLine
 10
-144.2000011705495
 20
152.8000001097983
 30
0.0
 11
-154.5000011705495
 21
152.8000001097983
 31
0.0
  0
LINE
  5
19C
330
63
100
AcDbEntity
  8
0
  6
Continuous
 62
     7
100
AcDbLine
 10
-134.2000011705495
 20
152.8000001097983
 30
0.0
 11
-144.2000011705495
 21
152.8000001097983
 31
0.0
  0
LINE
  5
19D
330
63
100
AcDbEntity
  8
0
  6
Continuous
 62
     7
100
AcDbLine
 10
-184.8000011705495
 20
152.8000001097983
 30
0.0
 11
-186.6000011705494
 21
152.8000001097983
 31
0.0
  0
LINE
  5
19E
330
63
100
AcDbEntity
  8
0
  6
Continuous
 62
     7
100
AcDbLine
 10
-174.8000011705495
 20
152.8000001097983
 30
0.0
 11
-184.8000011705495
 21
152.8000001097983
 31
0.0
  0
LINE
  5
19F
330
63
100
AcDbEntity
  8
0
  6
Continuous
 62
     7
100
AcDbLine
 10
-164.5000011705495
 20
152.8000001097983
 30
0.0
 11
-174.8000011705495
 21
152.8000001097983
 31
0.0
  0
LINE
  5
1A0
330
63
100
AcDbEntity
  8
0
  6
Continuous
 62
     7
100
AcDbLine
 10
-142.2000011705495
 20
138.0000001097983
 30
0.0
 11
-136.2000011705495
 21
138.0000001097983
 31
0.0
  0
LINE
  5
1A1
330
63
100
AcDbEntity
  8
0
  6
Continuous
 62
     7
100
AcDbLine
 10
-132.4000011705495
 20
152.8000001097983
 30
0.0
 11
-134.2000011705495
 21
152.8000001097983
 31
0.0
  0
LINE
  5
1A2
330
63
100
AcDbEntity
  8
0
  6
Continuous
 62
     7
100
AcDbLine
 10
-134.2000011705495
 20
153.384441613577
 30
0.0
 11
-134.2000011705495
 21
152.8000001097983
 31
0.0
  0
LINE
  5
1A3
330
63
100
AcDbEntity
  8
0
  6
Continuous
 62
     7
100
AcDbLine
 10
-132.4000011705495
 20
147.8000001097983
 30
0.0
 11
-132.4000011705495
 21
152.8000001097983
 31
0.0
  0
LINE
  5
1A4
330
63
100
AcDbEntity
  8
0
  6
Continuous
 62
     7
100
AcDbLine
 10
-134.2000011705495
 20
154.0000001097983
 30
0.0
 11
-134.2000011705495
 21
160.0000001097983
 31
0.0
  0
LINE
  5
1A5
330
63
100
AcDbEntity
  8
0
  6
Continuous
 62
     7
100
AcDbLine
 10
-136.2000011705495
 20
138.0000001097983
 30
0.0
 11
-136.2000011705495
 21
147.8000001097983
 31
0.0
  0
LINE
  5
1A6
330
63
100
AcDbEntity
  8
0
  6
Continuous
 62
     7
100
AcDbLine
 10
-142.2000011705495
 20
138.0000001097983
 30
0.0
 11
-142.2000011705495
 21
147.8000001097983
 31
0.0
  0
LINE
  5
1A7
330
63
100
AcDbEntity
  8
0
  6
Continuous
 62
     7
100
AcDbLine
 10
-135.8912342392708
 20
154.0000001097983
 30
0.0
 11
-134.2000011705495
 21
153.384441613577
 31
0.0
  0
LINE
  5
1A8
330
63
100
AcDbEntity
  8
1
  6
DOT_CENTER
 62
     2
100
AcDbLine
 10
-179.8000011705495
 20
138.0000001097983
 30
0.0
 11
-179.8000011705495
 21
147.8000001097983
 31
0.0
  0
LINE
  5
1A9
330
63
100
AcDbEntity
  8
1
  6
DOT_CENTER
 62
     2
100
AcDbLine
 10
-139.2000011705495
 20
152.8000001097983
 30
0.0
 11
-139.2000011705495
 21
160.0000001097983
 31
0.0
  0
LINE
  5
1AA
330
63
100
AcDbEntity
  8
1
  6
DOT_CENTER
 62
     2
100
AcDbLine
 10
-139.2000011705495
 20
138.0000001097983
 30
0.0
 11
-139.2000011705495
 21
147.8000001097983
 31
0.0
  0
LINE
  5
1AB
330
63
100
AcDbEntity
  8
1
  6
DOT_CENTER
 62
     2
100
AcDbLine
 10
-159.5000011705495
 20
160.0000001097983
 30
0.0
 11
-159.5000011705495
 21
152.8000001097983
 31
0.0
  0
LINE
  5
1AC
330
63
100
AcDbEntity
  8
1
  6
DOT_CENTER
 62
     2
100
AcDbLine
 10
-159.5000011705495
 20
138.0000001097983
 30
0.0
 11
-159.5000011705495
 21
147.8000001097983
 31
0.0
  0
LINE
  5
1AD
330
63
100
AcDbEntity
  8
1
  6
DOT_CENTER
 62
     2
100
AcDbLine
 10
-179.8000011705494
 20
160.0000001097983
 30
0.0
 11
-179.8000011705495
 21
152.8000001097983
 31
0.0
  0
ENDBLK
  5
65
330
63
100
AcDbEntity
  8
0
100
AcDbBlockEnd
  0
BLOCK
  5
68
330
66
100
AcDbEntity
  8
0
100
AcDbBlockBegin
  2
SA_Rechts1
 70
     0
 10
-149.3500006423722
 20
146.79999999996
 30
0.0
  3
SA_Rechts1
  1

  0
INSERT
  5
67
330
66
100
AcDbEntity
  8
0
100
AcDbBlockReference
  2
FBI_3-20_N_EX-select__5
 10
-186.6000011705494
 20
138.0000001097983
 30
0.0
  0
MTEXT
  5
1AE
330
66
100
AcDbEntity
  8
1
 62
     6
100
AcDbMText
 10
-159.5000006423722
 20
131.49999999996
 30
0.0
 40
5.0
 41
0.0
 71
     2
 72
     1
  1
 
  7
CONVERTER_11
 73
     1
 44
1.32052821128451
  0
ENDBLK
  5
69
330
66
100
AcDbEntity
  8
0
100
AcDbBlockEnd
  0
BLOCK
  5
6B
330
6A
100
AcDbEntity
  8
0
100
AcDbBlockBegin
  2
FBI_3-20_N_EX-select__6
 70
     0
 10
-101.5500009243493
 20
138.0000001097983
 30
0.0
  3
FBI_3-20_N_EX-select__6
  1

  0
LINE
  5
1AF
330
6A
100
AcDbEntity
  8
0
  6
Continuous
 62
     7
100
AcDbLine
 10
-97.75000092434927
 20
138.0000001097983
 30
0.0
 11
-97.75000092434927
 21
147.8000001097983
 31
0.0
  0
LINE
  5
1B0
330
6A
100
AcDbEntity
  8
0
  6
Continuous
 62
     7
100
AcDbLine
 10
-97.75000092434927
 20
138.0000001097983
 30
0.0
 11
-91.75000092434928
 21
138.0000001097983
 31
0.0
  0
LINE
  5
1B1
330
6A
100
AcDbEntity
  8
0
  6
Continuous
 62
     7
100
AcDbLine
 10
-94.75000092434928
 20
153.384441613577
 30
0.0
 11
-99.75000092434928
 21
153.384441613577
 31
0.0
  0
LINE
  5
1B2
330
6A
100
AcDbEntity
  8
0
  6
Continuous
 62
     7
100
AcDbLine
 10
-91.75000092434928
 20
138.0000001097983
 30
0.0
 11
-91.75000092434928
 21
147.8000001097983
 31
0.0
  0
LINE
  5
1B3
330
6A
100
AcDbEntity
  8
0
  6
Continuous
 62
     7
100
AcDbLine
 10
-99.75000092434928
 20
153.384441613577
 30
0.0
 11
-99.75000092434927
 21
152.8000001097983
 31
0.0
  0
LINE
  5
1B4
330
6A
100
AcDbEntity
  8
0
  6
Continuous
 62
     7
100
AcDbLine
 10
-99.75000092434927
 20
152.8000001097983
 30
0.0
 11
-101.5500009243493
 21
152.8000001097983
 31
0.0
  0
LINE
  5
1B5
330
6A
100
AcDbEntity
  8
0
  6
Continuous
 62
     7
100
AcDbLine
 10
-101.5500009243493
 20
152.8000001097983
 30
0.0
 11
-101.5500009243493
 21
147.8000001097983
 31
0.0
  0
LINE
  5
1B6
330
6A
100
AcDbEntity
  8
0
  6
Continuous
 62
     7
100
AcDbLine
 10
-101.5500009243493
 20
147.8000001097983
 30
0.0
 11
-97.75000092434927
 21
147.8000001097983
 31
0.0
  0
LINE
  5
1B7
330
6A
100
AcDbEntity
  8
0
  6
Continuous
 62
     7
100
AcDbLine
 10
-91.75000092434928
 20
147.8000001097983
 30
0.0
 11
-87.95000092434927
 21
147.8000001097983
 31
0.0
  0
LINE
  5
1B8
330
6A
100
AcDbEntity
  8
0
  6
Continuous
 62
     7
100
AcDbLine
 10
-87.95000092434927
 20
152.8000001097983
 30
0.0
 11
-87.95000092434927
 21
147.8000001097983
 31
0.0
  0
LINE
  5
1B9
330
6A
100
AcDbEntity
  8
0
  6
Continuous
 62
     7
100
AcDbLine
 10
-89.75000092434928
 20
153.384441613577
 30
0.0
 11
-94.75000092434928
 21
153.384441613577
 31
0.0
  0
LINE
  5
1BA
330
6A
100
AcDbEntity
  8
0
  6
Continuous
 62
     7
100
AcDbLine
 10
-89.75000092434928
 20
152.8000001097983
 30
0.0
 11
-99.75000092434927
 21
152.8000001097983
 31
0.0
  0
LINE
  5
1BB
330
6A
100
AcDbEntity
  8
0
  6
Continuous
 62
     7
100
AcDbLine
 10
-97.75000092434927
 20
147.8000001097983
 30
0.0
 11
-91.75000092434928
 21
147.8000001097983
 31
0.0
  0
LINE
  5
1BC
330
6A
100
AcDbEntity
  8
0
  6
Continuous
 62
     7
100
AcDbLine
 10
-98.05876785562793
 20
154.0000001097983
 30
0.0
 11
-99.75000092434928
 21
153.384441613577
 31
0.0
  0
LINE
  5
1BD
330
6A
100
AcDbEntity
  8
0
  6
Continuous
 62
     7
100
AcDbLine
 10
-99.75000092434927
 20
154.0000001097983
 30
0.0
 11
-98.05876785562793
 21
154.0000001097983
 31
0.0
  0
LINE
  5
1BE
330
6A
100
AcDbEntity
  8
0
  6
Continuous
 62
     7
100
AcDbLine
 10
-91.44123399307065
 20
154.0000001097983
 30
0.0
 11
-89.75000092434928
 21
154.0000001097983
 31
0.0
  0
LINE
  5
1BF
330
6A
100
AcDbEntity
  8
0
  6
Continuous
 62
     7
100
AcDbLine
 10
-98.05876785562793
 20
154.0000001097983
 30
0.0
 11
-91.44123399307065
 21
154.0000001097983
 31
0.0
  0
LINE
  5
1C0
330
6A
100
AcDbEntity
  8
0
  6
Continuous
 62
     7
100
AcDbLine
 10
-89.75000092434928
 20
153.384441613577
 30
0.0
 11
-89.75000092434928
 21
152.8000001097983
 31
0.0
  0
LINE
  5
1C1
330
6A
100
AcDbEntity
  8
0
  6
Continuous
 62
     7
100
AcDbLine
 10
-87.95000092434927
 20
152.8000001097983
 30
0.0
 11
-89.75000092434928
 21
152.8000001097983
 31
0.0
  0
LINE
  5
1C2
330
6A
100
AcDbEntity
  8
0
  6
Continuous
 62
     7
100
AcDbLine
 10
-99.75000092434927
 20
154.0000001097983
 30
0.0
 11
-99.75000092434927
 21
160.0000001097983
 31
0.0
  0
LINE
  5
1C3
330
6A
100
AcDbEntity
  8
0
  6
Continuous
 62
     7
100
AcDbLine
 10
-99.75000092434927
 20
160.0000001097983
 30
0.0
 11
-89.75000092434928
 21
160.0000001097983
 31
0.0
  0
LINE
  5
1C4
330
6A
100
AcDbEntity
  8
0
  6
Continuous
 62
     7
100
AcDbLine
 10
-89.75000092434928
 20
154.0000001097983
 30
0.0
 11
-89.75000092434928
 21
160.0000001097983
 31
0.0
  0
LINE
  5
1C5
330
6A
100
AcDbEntity
  8
0
  6
Continuous
 62
     7
100
AcDbLine
 10
-91.44123399307065
 20
154.0000001097983
 30
0.0
 11
-89.75000092434928
 21
153.384441613577
 31
0.0
  0
LINE
  5
1C6
330
6A
100
AcDbEntity
  8
1
  6
DOT_CENTER
 62
     2
100
AcDbLine
 10
-94.75000092434928
 20
138.0000001097983
 30
0.0
 11
-94.75000092434928
 21
147.8000001097983
 31
0.0
  0
LINE
  5
1C7
330
6A
100
AcDbEntity
  8
1
  6
DOT_CENTER
 62
     2
100
AcDbLine
 10
-94.75000092434928
 20
152.8000001097983
 30
0.0
 11
-94.75000092434928
 21
160.0000001097983
 31
0.0
  0
ENDBLK
  5
6C
330
6A
100
AcDbEntity
  8
0
100
AcDbBlockEnd
  0
BLOCK
  5
6F
330
6D
100
AcDbEntity
  8
0
100
AcDbBlockBegin
  2
Vordans1
 70
     0
 10
-94.75000040395366
 20
146.79999999996
 30
0.0
  3
Vordans1
  1

  0
INSERT
  5
6E
330
6D
100
AcDbEntity
  8
0
100
AcDbBlockReference
  2
FBI_3-20_N_EX-select__6
 10
-101.5500009243493
 20
138.0000001097983
 30
0.0
  0
MTEXT
  5
1C8
330
6D
100
AcDbEntity
  8
1
 62
     6
100
AcDbMText
 10
-94.75000040395366
 20
131.49999999996
 30
0.0
 40
5.0
 41
0.0
 71
     2
 72
     1
  1
 
  7
CONVERTER_11
 73
     1
 44
1.32052821128451
  0
DIMENSION
  5
1D3
330
6D
100
AcDbEntity
  8
1
100
AcDbDimension
  2
*D18
 10
-111.600000281977
 20
160.0000001097983
 30
0.0
 11
-114.850000281977
 21
148.951188223173
 31
0.0
 70
    32
  1
<>
 71
     5
 42
-1.0
 53
90.0
  3
ME10_DIM_11
100
AcDbAlignedDimension
 13
-97.75000092434927
 23
138.0000001097983
 33
0.0
 14
-99.75000092434927
 24
160.0000001097983
 34
0.0
 50
90.0
100
AcDbRotatedDimension
  0
DIMENSION
  5
1DE
330
6D
100
AcDbEntity
  8
1
100
AcDbDimension
  2
*D19
 10
-101.5500009243492
 20
122.9948153889669
 30
0.0
 11
-94.75000092434922
 21
126.4198153889669
 31
0.0
 70
    32
  1
<>
 71
     5
 42
-1.0
 53
0.00013888888889
  3
ME10_DIM_12
100
AcDbAlignedDimension
 13
-87.95000092434927
 23
147.8000001097983
 33
0.0
 14
-101.5500009243493
 24
147.8000001097983
 34
0.0
100
AcDbRotatedDimension
  0
ENDBLK
  5
70
330
6D
100
AcDbEntity
  8
0
100
AcDbBlockEnd
  0
BLOCK
  5
72
330
71
100
AcDbEntity
  8
0
100
AcDbBlockBegin
  2
_rahmen
 70
     0
 10
68.4569854302092
 20
-1.68244129823603
 30
0.0
  3
_rahmen
  1

  0
LINE
  5
1DF
330
71
100
AcDbEntity
  8
1
  6
DOT_CENTER
 62
     2
100
AcDbLine
 10
-57.10116420997821
 20
24.442558701764
 30
0.0
 11
-51.60116420997821
 21
24.442558701764
 31
0.0
  0
LINE
  5
1E0
330
71
100
AcDbEntity
  8
1
  6
PHANTOM
 62
     2
100
AcDbLine
 10
-48.35116420997821
 20
27.192558701764
 30
0.0
 11
-48.35116420997821
 21
21.692558701764
 31
0.0
  0
LINE
  5
1E1
330
71
100
AcDbEntity
  8
1
  6
PHANTOM
 62
     2
100
AcDbLine
 10
-45.60116420997821
 20
24.442558701764
 30
0.0
 11
-51.10116420997821
 21
24.442558701764
 31
0.0
  0
LINE
  5
1E2
330
71
100
AcDbEntity
  8
1
  6
Continuous
 62
     7
100
AcDbLine
 10
3.2121809034592
 20
11.817558701764
 30
0.0
 11
3.2121809034592
 21
20.31755870176409
 31
0.0
  0
LINE
  5
1E3
330
71
100
AcDbEntity
  8
1
  6
Continuous
 62
     6
100
AcDbLine
 10
-24.68781909654089
 20
20.31755870176409
 30
0.0
 11
68.45698543021089
 21
20.31755870176409
 31
0.0
  0
LINE
  5
1E4
330
71
100
AcDbEntity
  8
1
  6
Continuous
 62
     7
100
AcDbLine
 10
-61.08781909654081
 20
20.31755870176409
 30
0.0
 11
-61.08781909654081
 21
28.81755870176409
 31
0.0
  0
LINE
  5
1E5
330
71
100
AcDbEntity
  8
1
  6
Continuous
 62
     7
100
AcDbLine
 10
-24.68781909654089
 20
20.31755870176409
 30
0.0
 11
-24.68781909654089
 21
28.81755870176409
 31
0.0
  0
LINE
  5
1E6
330
71
100
AcDbEntity
  8
1
  6
Continuous
 62
     7
100
AcDbLine
 10
33.03857714853208
 20
28.81755870176409
 30
0.0
 11
33.03857714853208
 21
20.31755870176409
 31
0.0
  0
LINE
  5
1E7
330
71
100
AcDbEntity
  8
1
  6
Continuous
 62
     7
100
AcDbLine
 10
59.53857714853169
 20
28.81755870176409
 30
0.0
 11
59.53857714853169
 21
20.31755870176409
 31
0.0
  0
LINE
  5
1E8
330
71
100
AcDbEntity
  8
1
  6
Continuous
 62
     6
100
AcDbLine
 10
-130.0878190965408
 20
3.31755870176409
 30
0.0
 11
-175.0430145697908
 21
3.31755870176409
 31
0.0
  0
LINE
  5
1E9
330
71
100
AcDbEntity
  8
1
  6
Continuous
 62
     7
100
AcDbLine
 10
68.4569854302105
 20
11.81755870176409
 30
0.0
 11
-24.68781909654089
 21
11.81755870176409
 31
0.0
  0
LINE
  5
1EA
102
{ACAD_REACTORS
330
2FC
330
2FD
102
}
330
71
100
AcDbEntity
  8
0
  6
Continuous
 62
     2
100
AcDbLine
 10
-47.38039015477341
 20
12.61784781742739
 30
0.0
 11
-47.38039015477341
 21
13.49036482423068
 31
0.0
  0
LINE
  5
1EB
102
{ACAD_REACTORS
330
2FC
330
2FD
102
}
330
71
100
AcDbEntity
  8
0
  6
Continuous
 62
     2
100
AcDbLine
 10
-47.38039015477341
 20
11.65807910994448
 30
0.0
 11
-47.38039015477341
 21
10.78556210314127
 31
0.0
  0
LINE
  5
1EC
102
{ACAD_REACTORS
330
2FE
330
2FF
102
}
330
71
100
AcDbEntity
  8
0
  6
Continuous
 62
     2
100
AcDbLine
 10
-32.0473460184829
 20
12.87960291946789
 30
0.0
 11
-30.9437067189148
 21
12.87960291946789
 31
0.0
  0
LINE
  5
1ED
102
{ACAD_REACTORS
330
2FE
330
2FF
102
}
330
71
100
AcDbEntity
  8
0
  6
Continuous
 62
     2
100
AcDbLine
 10
-31.27768867552149
 20
11.658079109944
 30
0.0
 11
-31.27768867552149
 21
10.78556210314068
 31
0.0
  0
LINE
  5
1EE
102
{ACAD_REACTORS
330
308
330
309
102
}
330
71
100
AcDbEntity
  8
0
  6
Continuous
 62
     2
100
AcDbLine
 10
-33.13844529090142
 20
13.97024917795469
 30
0.0
 11
-31.74049224396111
 21
15.55110817172968
 31
0.0
  0
LINE
  5
1EF
102
{ACAD_REACTORS
330
308
330
309
102
}
330
71
100
AcDbEntity
  8
0
  6
Continuous
 62
     2
100
AcDbLine
 10
-33.0430218747286
 20
17.02405870176588
 30
0.0
 11
-31.74049224396111
 21
15.55110817172968
 31
0.0
  0
LINE
  5
1F0
102
{ACAD_REACTORS
330
308
330
309
102
}
330
71
100
AcDbEntity
  8
0
  6
Continuous
 62
     2
100
AcDbLine
 10
-30.43796261319471
 20
17.02405870176588
 30
0.0
 11
-29.03523839544749
 21
17.02405870176588
 31
0.0
  0
LINE
  5
1F1
102
{ACAD_REACTORS
330
308
330
309
102
}
330
71
100
AcDbEntity
  8
0
  6
Continuous
 62
     2
100
AcDbLine
 10
-31.7357210731532
 20
13.97024917795469
 30
0.0
 11
-31.0391301350875
 21
14.7579809632484
 31
0.0
  0
LINE
  5
1F2
102
{ACAD_REACTORS
330
308
330
309
102
}
330
71
100
AcDbEntity
  8
0
  6
Continuous
 62
     2
100
AcDbLine
 10
-31.7357210731532
 20
13.97024917795469
 30
0.0
 11
-33.13844529090142
 21
13.97024917795469
 31
0.0
  0
LINE
  5
1F3
102
{ACAD_REACTORS
330
30A
330
30B
102
}
330
71
100
AcDbEntity
  8
0
  6
Continuous
 62
     2
100
AcDbLine
 10
-33.2577245611183
 20
13.97024917795469
 30
0.0
 11
-34.49822897137119
 21
13.97024917795469
 31
0.0
  0
LINE
  5
1F4
102
{ACAD_REACTORS
330
30C
330
30D
102
}
330
71
100
AcDbEntity
  8
0
  6
Continuous
 62
     2
100
AcDbLine
 10
-35.3662085795263
 20
11.83258251130488
 30
0.0
 11
-35.6663738167164
 21
12.60039747729158
 31
0.0
  0
LINE
  5
1F5
102
{ACAD_REACTORS
330
30C
330
30D
102
}
330
71
100
AcDbEntity
  8
0
  6
Continuous
 62
     2
100
AcDbLine
 10
-35.9665390539088
 20
11.83258251130488
 30
0.0
 11
-35.3662085795263
 21
11.83258251130488
 31
0.0
  0
LINE
  5
1F6
102
{ACAD_REACTORS
330
30C
330
30D
102
}
330
71
100
AcDbEntity
  8
0
  6
Continuous
 62
     2
100
AcDbLine
 10
-37.6845790687826
 20
10.61105870178039
 30
0.0
 11
-36.44407465852962
 21
10.61105870178039
 31
0.0
  0
LINE
  5
1F7
102
{ACAD_REACTORS
330
30C
330
30D
102
}
330
71
100
AcDbEntity
  8
0
  6
Continuous
 62
     2
100
AcDbLine
 10
-36.28662602184329
 20
13.66486822559148
 30
0.0
 11
-35.04612161159059
 21
13.66486822559148
 31
0.0
  0
LINE
  5
1F8
102
{ACAD_REACTORS
330
30C
330
30D
102
}
330
71
100
AcDbEntity
  8
0
  6
Continuous
 62
     2
100
AcDbLine
 10
-35.04612161159059
 20
13.66486822559148
 30
0.0
 11
-33.64816856465029
 21
10.61105870178039
 31
0.0
  0
LINE
  5
1F9
102
{ACAD_REACTORS
330
30C
330
30D
102
}
330
71
100
AcDbEntity
  8
0
  6
Continuous
 62
     2
100
AcDbLine
 10
-34.88867297490421
 20
10.61105870178039
 30
0.0
 11
-35.10015302837999
 21
11.15201924599828
 31
0.0
  0
LINE
  5
1FA
102
{ACAD_REACTORS
330
30E
330
30F
102
}
330
71
100
AcDbEntity
  8
0
  6
Continuous
 62
     2
100
AcDbLine
 10
-39.03099217049021
 20
10.61105870178039
 30
0.0
 11
-37.83819946832369
 21
10.61105870178039
 31
0.0
  0
LINE
  5
1FB
102
{ACAD_REACTORS
330
30E
330
30F
102
}
330
71
100
AcDbEntity
  8
0
  6
Continuous
 62
     2
100
AcDbLine
 10
-39.03099217049021
 20
12.87960291946789
 30
0.0
 11
-39.03099217049021
 21
10.61105870178039
 31
0.0
  0
LINE
  5
1FC
102
{ACAD_REACTORS
330
30E
330
30F
102
}
330
71
100
AcDbEntity
  8
0
  6
Continuous
 62
     2
100
AcDbLine
 10
-39.84209120796481
 20
13.66486822559148
 30
0.0
 11
-39.84209120796481
 21
12.87960291946789
 31
0.0
  0
LINE
  5
1FD
102
{ACAD_REACTORS
330
310
330
311
102
}
330
71
100
AcDbEntity
  8
0
  6
Continuous
 62
     2
100
AcDbLine
 10
-38.36287732639221
 20
13.97024917795469
 30
0.0
 11
-37.17008462422569
 21
13.97024917795469
 31
0.0
  0
LINE
  5
1FE
102
{ACAD_REACTORS
330
310
330
311
102
}
330
71
100
AcDbEntity
  8
0
  6
Continuous
 62
     2
100
AcDbLine
 10
-35.92958021397169
 20
15.7152831915607
 30
0.0
 11
-37.17008462422569
 21
17.02405870176588
 31
0.0
  0
LINE
  5
1FF
102
{ACAD_REACTORS
330
310
330
311
102
}
330
71
100
AcDbEntity
  8
0
  6
Continuous
 62
     2
100
AcDbLine
 10
-34.73678751180509
 20
17.02405870176588
 30
0.0
 11
-35.92958021397169
 21
17.02405870176588
 31
0.0
  0
LINE
  5
200
102
{ACAD_REACTORS
330
310
330
311
102
}
330
71
100
AcDbEntity
  8
0
  6
Continuous
 62
     2
100
AcDbLine
 10
-34.73678751180509
 20
13.97024917795469
 30
0.0
 11
-34.73678751180509
 21
17.02405870176588
 31
0.0
  0
LINE
  5
201
102
{ACAD_REACTORS
330
310
330
311
102
}
330
71
100
AcDbEntity
  8
0
  6
Continuous
 62
     2
100
AcDbLine
 10
-35.92958021397169
 20
13.97024917795469
 30
0.0
 11
-34.73678751180509
 21
13.97024917795469
 31
0.0
  0
LINE
  5
202
102
{ACAD_REACTORS
330
310
330
311
102
}
330
71
100
AcDbEntity
  8
0
  6
Continuous
 62
     2
100
AcDbLine
 10
-37.17008462422569
 20
15.27902468815938
 30
0.0
 11
-35.92958021397169
 21
13.97024917795469
 31
0.0
  0
LINE
  5
203
102
{ACAD_REACTORS
330
312
330
313
102
}
330
71
100
AcDbEntity
  8
0
  6
Continuous
 62
     2
100
AcDbLine
 10
-41.17801903439141
 20
12.35609271538638
 30
0.0
 11
-42.41852344464431
 21
13.66486822559148
 31
0.0
  0
LINE
  5
204
102
{ACAD_REACTORS
330
312
330
313
102
}
330
71
100
AcDbEntity
  8
0
  6
Continuous
 62
     2
100
AcDbLine
 10
-41.17801903439141
 20
13.66486822559148
 30
0.0
 11
-41.17801903439141
 21
12.35609271538638
 31
0.0
  0
LINE
  5
205
102
{ACAD_REACTORS
330
312
330
313
102
}
330
71
100
AcDbEntity
  8
0
  6
Continuous
 62
     2
100
AcDbLine
 10
-39.98522633222501
 20
13.66486822559148
 30
0.0
 11
-41.17801903439141
 21
13.66486822559148
 31
0.0
  0
LINE
  5
206
102
{ACAD_REACTORS
330
312
330
313
102
}
330
71
100
AcDbEntity
  8
0
  6
Continuous
 62
     2
100
AcDbLine
 10
-39.98522633222501
 20
10.61105870178039
 30
0.0
 11
-39.98522633222501
 21
13.66486822559148
 31
0.0
  0
LINE
  5
207
102
{ACAD_REACTORS
330
312
330
313
102
}
330
71
100
AcDbEntity
  8
0
  6
Continuous
 62
     2
100
AcDbLine
 10
-42.41852344464431
 20
11.91983421198498
 30
0.0
 11
-41.17801903439141
 21
10.61105870178039
 31
0.0
  0
LINE
  5
208
102
{ACAD_REACTORS
330
312
330
313
102
}
330
71
100
AcDbEntity
  8
0
  6
Continuous
 62
     2
100
AcDbLine
 10
-42.41852344464431
 20
10.61105870178039
 30
0.0
 11
-42.41852344464431
 21
11.91983421198498
 31
0.0
  0
LINE
  5
209
102
{ACAD_REACTORS
330
302
330
303
102
}
330
71
100
AcDbEntity
  8
0
  6
Continuous
 62
     2
100
AcDbLine
 10
-39.93736369325279
 20
16.3260450963229
 30
0.0
 11
-38.60143586682511
 21
16.3260450963229
 31
0.0
  0
LINE
  5
20A
102
{ACAD_REACTORS
330
302
330
303
102
}
330
71
100
AcDbEntity
  8
0
  6
Continuous
 62
     2
100
AcDbLine
 10
-39.93736369325279
 20
14.66826278339718
 30
0.0
 11
-39.93736369325279
 21
15.14814713713889
 31
0.0
  0
LINE
  5
20B
102
{ACAD_REACTORS
330
302
330
303
102
}
330
71
100
AcDbEntity
  8
0
  6
Continuous
 62
     2
100
AcDbLine
 10
-38.60143586682511
 20
14.66826278339718
 30
0.0
 11
-39.93736369325279
 21
14.66826278339718
 31
0.0
  0
LINE
  5
20C
102
{ACAD_REACTORS
330
302
330
303
102
}
330
71
100
AcDbEntity
  8
0
  6
Continuous
 62
     2
100
AcDbLine
 10
-38.60143586682511
 20
13.97024917795469
 30
0.0
 11
-38.60143586682511
 21
14.66826278339718
 31
0.0
  0
LINE
  5
20D
102
{ACAD_REACTORS
330
302
330
303
102
}
330
71
100
AcDbEntity
  8
0
  6
Continuous
 62
     2
100
AcDbLine
 10
-41.75175559060611
 20
13.97024917795469
 30
0.0
 11
-38.60143586682511
 21
13.97024917795469
 31
0.0
  0
LINE
  5
20E
102
{ACAD_REACTORS
330
302
330
303
102
}
330
71
100
AcDbEntity
  8
0
  6
Continuous
 62
     2
100
AcDbLine
 10
-41.75175559060611
 20
17.02405870176588
 30
0.0
 11
-38.60143586682511
 21
17.02405870176588
 31
0.0
  0
LINE
  5
20F
102
{ACAD_REACTORS
330
302
330
303
102
}
330
71
100
AcDbEntity
  8
0
  6
Continuous
 62
     2
100
AcDbLine
 10
-38.60143586682511
 20
16.3260450963229
 30
0.0
 11
-38.60143586682511
 21
17.02405870176588
 31
0.0
  0
LINE
  5
210
102
{ACAD_REACTORS
330
314
330
315
102
}
330
71
100
AcDbEntity
  8
0
  6
Continuous
 62
     2
100
AcDbLine
 10
-44.61311108574611
 20
15.95522536843129
 30
0.0
 11
-44.61311108574611
 21
17.02405870176588
 31
0.0
  0
LINE
  5
211
102
{ACAD_REACTORS
330
314
330
315
102
}
330
71
100
AcDbEntity
  8
0
  6
Continuous
 62
     2
100
AcDbLine
 10
-44.61311108574611
 20
17.02405870176588
 30
0.0
 11
-43.42031838357971
 21
17.02405870176588
 31
0.0
  0
LINE
  5
212
102
{ACAD_REACTORS
330
314
330
315
102
}
330
71
100
AcDbEntity
  8
0
  6
Continuous
 62
     2
100
AcDbLine
 10
-44.61311108574611
 20
15.1045212867985
 30
0.0
 11
-45.66276866365359
 21
15.1045212867985
 31
0.0
  0
LINE
  5
213
102
{ACAD_REACTORS
330
314
330
315
102
}
330
71
100
AcDbEntity
  8
0
  6
Continuous
 62
     2
100
AcDbLine
 10
-45.66276866365359
 20
15.1045212867985
 30
0.0
 11
-45.66276866365359
 21
13.97024917795469
 31
0.0
  0
LINE
  5
214
102
{ACAD_REACTORS
330
314
330
315
102
}
330
71
100
AcDbEntity
  8
0
  6
Continuous
 62
     2
100
AcDbLine
 10
-46.85556136582019
 20
17.02405870176588
 30
0.0
 11
-46.85556136582019
 21
13.97024917795469
 31
0.0
  0
LINE
  5
215
102
{ACAD_REACTORS
330
306
330
307
102
}
330
71
100
AcDbEntity
  8
0
  6
Continuous
 62
     2
100
AcDbLine
 10
-48.81174139737379
 20
15.65522520698357
 30
0.0
 11
-48.81174139737379
 21
16.36095285632578
 31
0.0
  0
LINE
  5
216
102
{ACAD_REACTORS
330
306
330
307
102
}
330
71
100
AcDbEntity
  8
0
  6
Continuous
 62
     2
100
AcDbLine
 10
-50.05224580762791
 20
13.97024917795469
 30
0.0
 11
-48.81174139737379
 21
13.97024917795469
 31
0.0
  0
LINE
  5
217
102
{ACAD_REACTORS
330
306
330
307
102
}
330
71
100
AcDbEntity
  8
0
  6
Continuous
 62
     2
100
AcDbLine
 10
-48.81174139737379
 20
13.97024917795469
 30
0.0
 11
-48.81174139737379
 21
14.91332741909849
 31
0.0
  0
LINE
  5
218
102
{ACAD_REACTORS
330
300
330
301
102
}
330
71
100
AcDbEntity
  8
0
  6
Continuous
 62
     2
100
AcDbLine
 10
-54.35719165683929
 20
11.32361425733728
 30
0.0
 11
-55.83302491784892
 21
11.32361425733728
 31
0.0
  0
LINE
  5
219
102
{ACAD_REACTORS
330
300
330
301
102
}
330
71
100
AcDbEntity
  8
0
  6
Continuous
 62
     2
100
AcDbLine
 10
-56.85116420997821
 20
16.59981408636389
 30
0.0
 11
-56.85116420997821
 21
11.03530331716368
 31
0.0
  0
LINE
  5
21A
102
{ACAD_REACTORS
330
300
330
301
102
}
330
71
100
AcDbEntity
  8
0
  6
Continuous
 62
     2
100
AcDbLine
 10
-56.4269195945954
 20
17.02405870174769
 30
0.0
 11
-50.9536075038786
 21
17.02405870174769
 31
0.0
  0
LINE
  5
21B
102
{ACAD_REACTORS
330
300
330
301
102
}
330
71
100
AcDbEntity
  8
0
  6
Continuous
 62
     2
100
AcDbLine
 10
-50.52936288849472
 20
16.59981408636389
 30
0.0
 11
-50.52936288849472
 21
11.03530331716368
 31
0.0
  0
LINE
  5
21C
102
{ACAD_REACTORS
330
300
330
301
102
}
330
71
100
AcDbEntity
  8
0
  6
Continuous
 62
     2
100
AcDbLine
 10
-50.9536075038786
 20
10.61105870178039
 30
0.0
 11
-56.4269195945954
 21
10.61105870178039
 31
0.0
  0
LINE
  5
21D
102
{ACAD_REACTORS
330
300
330
301
102
}
330
71
100
AcDbEntity
  8
0
  6
Continuous
 62
     2
100
AcDbLine
 10
-54.0414747337627
 20
11.63933118041399
 30
0.0
 11
-54.0414747337627
 21
13.1701021119456
 31
0.0
  0
LINE
  5
21E
102
{ACAD_REACTORS
330
300
330
301
102
}
330
71
100
AcDbEntity
  8
0
  6
Continuous
 62
     2
100
AcDbLine
 10
-54.0414747337627
 20
15.39176160407058
 30
0.0
 11
-54.0414747337627
 21
15.99578622313109
 31
0.0
  0
LINE
  5
21F
102
{ACAD_REACTORS
330
300
330
301
102
}
330
71
100
AcDbEntity
  8
0
  6
Continuous
 62
     2
100
AcDbLine
 10
-55.83302491784892
 20
16.31150314620729
 30
0.0
 11
-54.35719165683929
 21
16.31150314620729
 31
0.0
  0
LINE
  5
220
102
{ACAD_REACTORS
330
300
330
301
102
}
330
71
100
AcDbEntity
  8
0
  6
Continuous
 62
     2
100
AcDbLine
 10
-56.1487418409246
 20
15.99578622313109
 30
0.0
 11
-56.1487418409246
 21
11.63933118041399
 31
0.0
  0
LINE
  5
221
102
{ACAD_REACTORS
330
306
330
307
102
}
330
71
100
AcDbEntity
  8
0
  6
Continuous
 62
     2
100
AcDbLine
 10
-48.81174139737379
 20
14.91332741909849
 30
0.0
 11
-48.05297380959351
 21
14.91332741909849
 31
0.0
  0
LINE
  5
222
102
{ACAD_REACTORS
330
306
330
307
102
}
330
71
100
AcDbEntity
  8
0
  6
Continuous
 62
     2
100
AcDbLine
 10
-50.05224580762791
 20
17.02405870176588
 30
0.0
 11
-48.05297380959351
 21
17.02405870176588
 31
0.0
  0
LINE
  5
223
102
{ACAD_REACTORS
330
306
330
307
102
}
330
71
100
AcDbEntity
  8
0
  6
Continuous
 62
     2
100
AcDbLine
 10
-50.05224580762791
 20
17.02405870176588
 30
0.0
 11
-50.05224580762791
 21
13.97024917795469
 31
0.0
  0
LINE
  5
224
102
{ACAD_REACTORS
330
306
330
307
102
}
330
71
100
AcDbEntity
  8
0
  6
Continuous
 62
     2
100
AcDbLine
 10
-48.81174139737379
 20
15.65522520698357
 30
0.0
 11
-48.4944463358319
 21
15.65522520698357
 31
0.0
  0
LINE
  5
225
102
{ACAD_REACTORS
330
306
330
307
102
}
330
71
100
AcDbEntity
  8
0
  6
Continuous
 62
     2
100
AcDbLine
 10
-48.81174139737379
 20
16.36095285632578
 30
0.0
 11
-48.4944463358319
 21
16.36095285632578
 31
0.0
  0
LINE
  5
226
102
{ACAD_REACTORS
330
314
330
315
102
}
330
71
100
AcDbEntity
  8
0
  6
Continuous
 62
     2
100
AcDbLine
 10
-45.66276866365359
 20
15.95522536843129
 30
0.0
 11
-44.61311108574611
 21
15.95522536843129
 31
0.0
  0
LINE
  5
227
102
{ACAD_REACTORS
330
314
330
315
102
}
330
71
100
AcDbEntity
  8
0
  6
Continuous
 62
     2
100
AcDbLine
 10
-45.66276866365359
 20
17.02405870176588
 30
0.0
 11
-45.66276866365359
 21
15.95522536843129
 31
0.0
  0
LINE
  5
228
102
{ACAD_REACTORS
330
314
330
315
102
}
330
71
100
AcDbEntity
  8
0
  6
Continuous
 62
     2
100
AcDbLine
 10
-46.85556136582019
 20
17.02405870176588
 30
0.0
 11
-45.66276866365359
 21
17.02405870176588
 31
0.0
  0
LINE
  5
229
102
{ACAD_REACTORS
330
314
330
315
102
}
330
71
100
AcDbEntity
  8
0
  6
Continuous
 62
     2
100
AcDbLine
 10
-45.66276866365359
 20
13.97024917795469
 30
0.0
 11
-46.85556136582019
 21
13.97024917795469
 31
0.0
  0
LINE
  5
22A
102
{ACAD_REACTORS
330
314
330
315
102
}
330
71
100
AcDbEntity
  8
0
  6
Continuous
 62
     2
100
AcDbLine
 10
-44.61311108574611
 20
13.97024917795469
 30
0.0
 11
-44.61311108574611
 21
15.1045212867985
 31
0.0
  0
LINE
  5
22B
102
{ACAD_REACTORS
330
314
330
315
102
}
330
71
100
AcDbEntity
  8
0
  6
Continuous
 62
     2
100
AcDbLine
 10
-43.42031838357971
 20
13.97024917795469
 30
0.0
 11
-44.61311108574611
 21
13.97024917795469
 31
0.0
  0
LINE
  5
22C
102
{ACAD_REACTORS
330
314
330
315
102
}
330
71
100
AcDbEntity
  8
0
  6
Continuous
 62
     2
100
AcDbLine
 10
-43.42031838357971
 20
17.02405870176588
 30
0.0
 11
-43.42031838357971
 21
13.97024917795469
 31
0.0
  0
LINE
  5
22D
102
{ACAD_REACTORS
330
302
330
303
102
}
330
71
100
AcDbEntity
  8
0
  6
Continuous
 62
     2
100
AcDbLine
 10
-39.93736369325279
 20
15.14814713713889
 30
0.0
 11
-38.60143586682511
 21
15.14814713713889
 31
0.0
  0
LINE
  5
22E
102
{ACAD_REACTORS
330
302
330
303
102
}
330
71
100
AcDbEntity
  8
0
  6
Continuous
 62
     2
100
AcDbLine
 10
-38.60143586682511
 20
15.14814713713889
 30
0.0
 11
-38.60143586682511
 21
15.84616074258119
 31
0.0
  0
LINE
  5
22F
102
{ACAD_REACTORS
330
302
330
303
102
}
330
71
100
AcDbEntity
  8
0
  6
Continuous
 62
     2
100
AcDbLine
 10
-38.60143586682511
 20
15.84616074258119
 30
0.0
 11
-39.93736369325279
 21
15.84616074258119
 31
0.0
  0
LINE
  5
230
102
{ACAD_REACTORS
330
302
330
303
102
}
330
71
100
AcDbEntity
  8
0
  6
Continuous
 62
     2
100
AcDbLine
 10
-39.93736369325279
 20
15.84616074258119
 30
0.0
 11
-39.93736369325279
 21
16.3260450963229
 31
0.0
  0
LINE
  5
231
102
{ACAD_REACTORS
330
312
330
313
102
}
330
71
100
AcDbEntity
  8
0
  6
Continuous
 62
     2
100
AcDbLine
 10
-43.6113161468119
 20
10.61105870178039
 30
0.0
 11
-42.41852344464431
 21
10.61105870178039
 31
0.0
  0
LINE
  5
232
102
{ACAD_REACTORS
330
312
330
313
102
}
330
71
100
AcDbEntity
  8
0
  6
Continuous
 62
     2
100
AcDbLine
 10
-41.17801903439141
 20
10.61105870178039
 30
0.0
 11
-39.98522633222501
 21
10.61105870178039
 31
0.0
  0
LINE
  5
233
102
{ACAD_REACTORS
330
312
330
313
102
}
330
71
100
AcDbEntity
  8
0
  6
Continuous
 62
     2
100
AcDbLine
 10
-42.41852344464431
 20
13.66486822559148
 30
0.0
 11
-43.6113161468119
 21
13.66486822559148
 31
0.0
  0
LINE
  5
234
102
{ACAD_REACTORS
330
312
330
313
102
}
330
71
100
AcDbEntity
  8
0
  6
Continuous
 62
     2
100
AcDbLine
 10
-43.6113161468119
 20
13.66486822559148
 30
0.0
 11
-43.6113161468119
 21
10.61105870178039
 31
0.0
  0
LINE
  5
235
102
{ACAD_REACTORS
330
310
330
311
102
}
330
71
100
AcDbEntity
  8
0
  6
Continuous
 62
     2
100
AcDbLine
 10
-35.92958021397169
 20
17.02405870176588
 30
0.0
 11
-35.92958021397169
 21
15.7152831915607
 31
0.0
  0
LINE
  5
236
102
{ACAD_REACTORS
330
310
330
311
102
}
330
71
100
AcDbEntity
  8
0
  6
Continuous
 62
     2
100
AcDbLine
 10
-37.17008462422569
 20
17.02405870176588
 30
0.0
 11
-38.36287732639221
 21
17.02405870176588
 31
0.0
  0
LINE
  5
237
102
{ACAD_REACTORS
330
310
330
311
102
}
330
71
100
AcDbEntity
  8
0
  6
Continuous
 62
     2
100
AcDbLine
 10
-38.36287732639221
 20
17.02405870176588
 30
0.0
 11
-38.36287732639221
 21
13.97024917795469
 31
0.0
  0
LINE
  5
238
102
{ACAD_REACTORS
330
310
330
311
102
}
330
71
100
AcDbEntity
  8
0
  6
Continuous
 62
     2
100
AcDbLine
 10
-37.17008462422569
 20
13.97024917795469
 30
0.0
 11
-37.17008462422569
 21
15.27902468815938
 31
0.0
  0
LINE
  5
239
102
{ACAD_REACTORS
330
30E
330
30F
102
}
330
71
100
AcDbEntity
  8
0
  6
Continuous
 62
     2
100
AcDbLine
 10
-37.83819946832369
 20
10.61105870178039
 30
0.0
 11
-37.83819946832369
 21
12.87960291946789
 31
0.0
  0
LINE
  5
23A
102
{ACAD_REACTORS
330
30E
330
30F
102
}
330
71
100
AcDbEntity
  8
0
  6
Continuous
 62
     2
100
AcDbLine
 10
-37.83819946832369
 20
12.87960291946789
 30
0.0
 11
-37.02710043085119
 21
12.87960291946789
 31
0.0
  0
LINE
  5
23B
102
{ACAD_REACTORS
330
30E
330
30F
102
}
330
71
100
AcDbEntity
  8
0
  6
Continuous
 62
     2
100
AcDbLine
 10
-37.02710043085119
 20
12.87960291946789
 30
0.0
 11
-37.02710043085119
 21
13.66486822559148
 31
0.0
  0
LINE
  5
23C
102
{ACAD_REACTORS
330
30E
330
30F
102
}
330
71
100
AcDbEntity
  8
0
  6
Continuous
 62
     2
100
AcDbLine
 10
-37.02710043085119
 20
13.66486822559148
 30
0.0
 11
-39.84209120796481
 21
13.66486822559148
 31
0.0
  0
LINE
  5
23D
102
{ACAD_REACTORS
330
30E
330
30F
102
}
330
71
100
AcDbEntity
  8
0
  6
Continuous
 62
     2
100
AcDbLine
 10
-39.84209120796481
 20
12.87960291946789
 30
0.0
 11
-39.03099217049021
 21
12.87960291946789
 31
0.0
  0
LINE
  5
23E
102
{ACAD_REACTORS
330
30C
330
30D
102
}
330
71
100
AcDbEntity
  8
0
  6
Continuous
 62
     2
100
AcDbLine
 10
-36.23259460505381
 20
11.15201924599828
 30
0.0
 11
-35.10015302837999
 21
11.15201924599828
 31
0.0
  0
LINE
  5
23F
102
{ACAD_REACTORS
330
30C
330
30D
102
}
330
71
100
AcDbEntity
  8
0
  6
Continuous
 62
     2
100
AcDbLine
 10
-33.64816856465029
 20
10.61105870178039
 30
0.0
 11
-34.88867297490421
 21
10.61105870178039
 31
0.0
  0
LINE
  5
240
102
{ACAD_REACTORS
330
30C
330
30D
102
}
330
71
100
AcDbEntity
  8
0
  6
Continuous
 62
     2
100
AcDbLine
 10
-36.28662602184329
 20
13.66486822559148
 30
0.0
 11
-37.6845790687826
 21
10.61105870178039
 31
0.0
  0
LINE
  5
241
102
{ACAD_REACTORS
330
30C
330
30D
102
}
330
71
100
AcDbEntity
  8
0
  6
Continuous
 62
     2
100
AcDbLine
 10
-36.44407465852962
 20
10.61105870178039
 30
0.0
 11
-36.23259460505381
 21
11.15201924599828
 31
0.0
  0
LINE
  5
242
102
{ACAD_REACTORS
330
30C
330
30D
102
}
330
71
100
AcDbEntity
  8
0
  6
Continuous
 62
     2
100
AcDbLine
 10
-35.9665390539088
 20
11.83258251130488
 30
0.0
 11
-35.6663738167164
 21
12.60039747729158
 31
0.0
  0
LINE
  5
243
102
{ACAD_REACTORS
330
30A
330
30B
102
}
330
71
100
AcDbEntity
  8
0
  6
Continuous
 62
     2
100
AcDbLine
 10
-34.49822897137119
 20
13.97024917795469
 30
0.0
 11
-34.49822897137119
 21
17.02405870176588
 31
0.0
  0
LINE
  5
244
102
{ACAD_REACTORS
330
30A
330
30B
102
}
330
71
100
AcDbEntity
  8
0
  6
Continuous
 62
     2
100
AcDbLine
 10
-33.2577245611183
 20
17.02405870176588
 30
0.0
 11
-33.2577245611183
 21
13.97024917795469
 31
0.0
  0
LINE
  5
245
102
{ACAD_REACTORS
330
30A
330
30B
102
}
330
71
100
AcDbEntity
  8
0
  6
Continuous
 62
     2
100
AcDbLine
 10
-34.49822897137119
 20
17.02405870176588
 30
0.0
 11
-33.2577245611183
 21
17.02405870176588
 31
0.0
  0
LINE
  5
246
102
{ACAD_REACTORS
330
308
330
309
102
}
330
71
100
AcDbEntity
  8
0
  6
Continuous
 62
     2
100
AcDbLine
 10
-31.0391301350875
 20
14.7579809632484
 30
0.0
 11
-30.34253919702201
 21
13.97024917795469
 31
0.0
  0
LINE
  5
247
102
{ACAD_REACTORS
330
308
330
309
102
}
330
71
100
AcDbEntity
  8
0
  6
Continuous
 62
     2
100
AcDbLine
 10
-30.34253919702201
 20
13.97024917795469
 30
0.0
 11
-28.93981497927371
 21
13.97024917795469
 31
0.0
  0
LINE
  5
248
102
{ACAD_REACTORS
330
308
330
309
102
}
330
71
100
AcDbEntity
  8
0
  6
Continuous
 62
     2
100
AcDbLine
 10
-30.33776802621401
 20
15.55110817172968
 30
0.0
 11
-28.93981497927371
 21
13.97024917795469
 31
0.0
  0
LINE
  5
249
102
{ACAD_REACTORS
330
308
330
309
102
}
330
71
100
AcDbEntity
  8
0
  6
Continuous
 62
     2
100
AcDbLine
 10
-30.33776802621401
 20
15.55110817172968
 30
0.0
 11
-29.03523839544749
 21
17.02405870176588
 31
0.0
  0
LINE
  5
24A
102
{ACAD_REACTORS
330
308
330
309
102
}
330
71
100
AcDbEntity
  8
0
  6
Continuous
 62
     2
100
AcDbLine
 10
-31.0391301350875
 20
16.34423538021039
 30
0.0
 11
-30.43796261319471
 21
17.02405870176588
 31
0.0
  0
LINE
  5
24B
102
{ACAD_REACTORS
330
308
330
309
102
}
330
71
100
AcDbEntity
  8
0
  6
Continuous
 62
     2
100
AcDbLine
 10
-31.6402976569793
 20
17.02405870176588
 30
0.0
 11
-31.0391301350875
 21
16.34423538021039
 31
0.0
  0
LINE
  5
24C
102
{ACAD_REACTORS
330
308
330
309
102
}
330
71
100
AcDbEntity
  8
0
  6
Continuous
 62
     2
100
AcDbLine
 10
-31.6402976569793
 20
17.02405870176588
 30
0.0
 11
-33.0430218747286
 21
17.02405870176588
 31
0.0
  0
LINE
  5
24D
102
{ACAD_REACTORS
330
2FE
330
2FF
102
}
330
71
100
AcDbEntity
  8
0
  6
Continuous
 62
     2
100
AcDbLine
 10
-30.9437067189148
 20
10.61105870178039
 30
0.0
 11
-29.75091401674709
 21
10.61105870178039
 31
0.0
  0
LINE
  5
24E
102
{ACAD_REACTORS
330
2FE
330
2FF
102
}
330
71
100
AcDbEntity
  8
0
  6
Continuous
 62
     2
100
AcDbLine
 10
-29.75091401674709
 20
10.61105870178039
 30
0.0
 11
-29.75091401674709
 21
12.87960291946789
 31
0.0
  0
LINE
  5
24F
102
{ACAD_REACTORS
330
2FE
330
2FF
102
}
330
71
100
AcDbEntity
  8
0
  6
Continuous
 62
     2
100
AcDbLine
 10
-29.75091401674709
 20
12.87960291946789
 30
0.0
 11
-28.93981497927371
 21
12.87960291946789
 31
0.0
  0
LINE
  5
250
102
{ACAD_REACTORS
330
2FE
330
2FF
102
}
330
71
100
AcDbEntity
  8
0
  6
Continuous
 62
     2
100
AcDbLine
 10
-28.93981497927371
 20
12.87960291946789
 30
0.0
 11
-28.93981497927371
 21
13.66486822559148
 31
0.0
  0
LINE
  5
251
102
{ACAD_REACTORS
330
2FE
330
2FF
102
}
330
71
100
AcDbEntity
  8
0
  6
Continuous
 62
     2
100
AcDbLine
 10
-32.32476049790239
 20
13.66486822559099
 30
0.0
 11
-28.93981497927371
 21
13.66486822559148
 31
0.0
  0
LINE
  5
252
102
{ACAD_REACTORS
330
2FE
330
2FF
102
}
330
71
100
AcDbEntity
  8
0
  6
Continuous
 62
     2
100
AcDbLine
 10
-30.9437067189148
 20
12.87960291946789
 30
0.0
 11
-30.9437067189148
 21
10.61105870178039
 31
0.0
  0
LINE
  5
253
102
{ACAD_REACTORS
330
300
330
301
102
}
330
71
100
AcDbEntity
  8
0
  6
Continuous
 62
     2
100
AcDbLine
 10
-53.57319315439401
 20
12.5899388513449
 30
0.0
 11
-53.57319315439401
 21
13.17179025803998
 31
0.0
  0
LINE
  5
254
102
{ACAD_REACTORS
330
300
330
301
102
}
330
71
100
AcDbEntity
  8
0
  6
Continuous
 62
     2
100
AcDbLine
 10
-53.57319315439401
 20
15.3900734579762
 30
0.0
 11
-53.57319315439401
 21
15.99560874648299
 31
0.0
  0
LINE
  5
255
330
71
100
AcDbEntity
  8
1
  6
Continuous
 62
     6
100
AcDbLine
 10
-75.04301456979078
 20
3.31755870176409
 30
0.0
 11
-61.08781909654081
 21
3.31755870176397
 31
0.0
  0
LINE
  5
256
330
71
100
AcDbEntity
  8
1
  6
Continuous
 62
     6
100
AcDbLine
 10
-125.043014569791
 20
3.31755870176409
 30
0.0
 11
-130.0878190965408
 21
3.31755870176409
 31
0.0
  0
LINE
  5
257
330
71
100
AcDbEntity
  8
1
  6
Continuous
 62
     6
100
AcDbLine
 10
24.95698543020919
 20
3.31755870176409
 30
0.0
 11
68.4569854302092
 21
3.31755870176409
 31
0.0
  0
LINE
  5
258
330
71
100
AcDbEntity
  8
1
  6
Continuous
 62
     6
100
AcDbLine
 10
-25.04301456979081
 20
3.31755870176409
 30
0.0
 11
-42.8878190965408
 21
3.31755870176409
 31
0.0
  0
LINE
  5
259
330
71
100
AcDbEntity
  8
1
  6
Continuous
 62
     2
100
AcDbLine
 10
68.4569854302092
 20
3.31755870176409
 30
0.0
 11
73.45698543020819
 21
3.31755870176409
 31
0.0
  0
LINE
  5
25A
330
71
100
AcDbEntity
  8
1
  6
Continuous
 62
     2
100
AcDbLine
 10
68.4569854302092
 20
3.31755870176409
 30
0.0
 11
68.4569854302092
 21
-1.68244129823603
 31
0.0
  0
LINE
  5
25B
330
71
100
AcDbEntity
  8
1
  6
Continuous
 62
     6
100
AcDbLine
 10
-61.08781909654081
 20
20.31755870176409
 30
0.0
 11
-24.68781909654089
 21
20.31755870176409
 31
0.0
  0
LINE
  5
25C
330
71
100
AcDbEntity
  8
1
  6
Continuous
 62
     2
100
AcDbLine
 10
73.45698543020819
 20
-1.68244129823603
 30
0.0
 11
73.45698543020819
 21
3.31755870176409
 31
0.0
  0
LINE
  5
25D
330
71
100
AcDbEntity
  8
1
  6
Continuous
 62
     2
100
AcDbLine
 10
73.45698543020819
 20
-1.68244129823603
 30
0.0
 11
68.4569854302092
 21
-1.68244129823603
 31
0.0
  0
LINE
  5
25E
330
71
100
AcDbEntity
  8
1
  6
Continuous
 62
     2
100
AcDbLine
 10
68.4569854302092
 20
-1.68244129823603
 30
0.0
 11
24.95698543020919
 21
-1.68244129823603
 31
0.0
  0
LINE
  5
25F
330
71
100
AcDbEntity
  8
1
  6
Continuous
 62
     6
100
AcDbLine
 10
68.45698543021089
 20
20.31755870176409
 30
0.0
 11
68.4569854302101
 21
53.3175587017642
 31
0.0
  0
LINE
  5
260
330
71
100
AcDbEntity
  8
1
  6
Continuous
 62
     2
100
AcDbLine
 10
73.45698543020819
 20
208.3175587017641
 30
0.0
 11
-75.04301456979078
 21
208.3175587017641
 31
0.0
  0
LINE
  5
261
330
71
100
AcDbEntity
  8
1
  6
Continuous
 62
     6
100
AcDbLine
 10
68.45698543020819
 20
188.3175587017641
 30
0.0
 11
-218.5430145697899
 21
188.3175587017641
 31
0.0
  0
LINE
  5
262
330
71
100
AcDbEntity
  8
1
  6
Continuous
 62
     2
100
AcDbLine
 10
68.4569854302101
 20
53.3175587017642
 30
0.0
 11
73.45698543020819
 21
53.3175587017642
 31
0.0
  0
LINE
  5
263
330
71
100
AcDbEntity
  8
1
  6
Continuous
 62
     6
100
AcDbLine
 10
68.4569854302101
 20
53.3175587017642
 30
0.0
 11
68.4569854302096
 21
103.317558701764
 31
0.0
  0
LINE
  5
264
330
71
100
AcDbEntity
  8
1
  6
Continuous
 62
     2
100
AcDbLine
 10
73.45698543020819
 20
53.3175587017642
 30
0.0
 11
73.45698543020819
 21
103.317558701764
 31
0.0
  0
LINE
  5
265
330
71
100
AcDbEntity
  8
1
  6
Continuous
 62
     2
100
AcDbLine
 10
68.4569854302096
 20
103.317558701764
 30
0.0
 11
73.45698543020819
 21
103.317558701764
 31
0.0
  0
LINE
  5
266
330
71
100
AcDbEntity
  8
1
  6
Continuous
 62
     6
100
AcDbLine
 10
68.4569854302096
 20
103.317558701764
 30
0.0
 11
68.45698543020839
 21
153.3175587017641
 31
0.0
  0
LINE
  5
267
330
71
100
AcDbEntity
  8
1
  6
Continuous
 62
     2
100
AcDbLine
 10
73.45698543020819
 20
103.317558701764
 30
0.0
 11
73.45698543020819
 21
153.3175587017641
 31
0.0
  0
LINE
  5
268
330
71
100
AcDbEntity
  8
1
  6
Continuous
 62
     2
100
AcDbLine
 10
68.45698543020839
 20
153.3175587017641
 30
0.0
 11
73.45698543020819
 21
153.3175587017641
 31
0.0
  0
LINE
  5
269
330
71
100
AcDbEntity
  8
1
  6
Continuous
 62
     6
100
AcDbLine
 10
68.45698543020839
 20
153.3175587017641
 30
0.0
 11
68.45698543020819
 21
188.3175587017641
 31
0.0
  0
LINE
  5
26A
330
71
100
AcDbEntity
  8
1
  6
Continuous
 62
     2
100
AcDbLine
 10
73.45698543020819
 20
153.3175587017641
 30
0.0
 11
73.45698543020819
 21
208.3175587017641
 31
0.0
  0
LINE
  5
26B
330
71
100
AcDbEntity
  8
1
  6
Continuous
 62
     2
100
AcDbLine
 10
73.45698543020819
 20
3.31755870176409
 30
0.0
 11
73.45698543020819
 21
53.3175587017642
 31
0.0
  0
LINE
  5
26C
330
71
100
AcDbEntity
  8
1
  6
Continuous
 62
     2
100
AcDbLine
 10
-75.04301456979078
 20
208.3175587017641
 30
0.0
 11
-223.5430145697899
 21
208.3175587017641
 31
0.0
  0
LINE
  5
26D
330
71
100
AcDbEntity
  8
1
  6
Continuous
 62
     2
100
AcDbLine
 10
-75.04301456979078
 20
208.3175587017641
 30
0.0
 11
-75.04301456979078
 21
199.1088668570628
 31
0.0
  0
LINE
  5
26E
330
71
100
AcDbEntity
  8
1
  6
Continuous
 62
     2
100
AcDbLine
 10
-223.5430145697899
 20
-1.68244129823603
 30
0.0
 11
-218.5430145697889
 21
-1.68244129823603
 31
0.0
  0
LINE
  5
26F
330
71
100
AcDbEntity
  8
1
  6
Continuous
 62
     2
100
AcDbLine
 10
-223.5430145697899
 20
208.3175587017641
 30
0.0
 11
-223.5430145697899
 21
153.3175587017641
 31
0.0
  0
LINE
  5
270
330
71
100
AcDbEntity
  8
1
  6
Continuous
 62
     6
100
AcDbLine
 10
-218.5430145697899
 20
188.3175587017641
 30
0.0
 11
-218.5430145697898
 21
153.3175587017641
 31
0.0
  0
LINE
  5
271
330
71
100
AcDbEntity
  8
1
  6
Continuous
 62
     2
100
AcDbLine
 10
-223.5430145697899
 20
153.3175587017641
 30
0.0
 11
-218.5430145697898
 21
153.3175587017641
 31
0.0
  0
LINE
  5
272
330
71
100
AcDbEntity
  8
1
  6
Continuous
 62
     2
100
AcDbLine
 10
-223.5430145697899
 20
153.3175587017641
 30
0.0
 11
-223.5430145697899
 21
103.317558701764
 31
0.0
  0
LINE
  5
273
330
71
100
AcDbEntity
  8
1
  6
Continuous
 62
     6
100
AcDbLine
 10
-218.5430145697898
 20
153.3175587017641
 30
0.0
 11
-218.5430145697893
 21
103.317558701764
 31
0.0
  0
LINE
  5
274
330
71
100
AcDbEntity
  8
1
  6
Continuous
 62
     2
100
AcDbLine
 10
-223.5430145697899
 20
103.317558701764
 30
0.0
 11
-218.5430145697893
 21
103.317558701764
 31
0.0
  0
LINE
  5
275
330
71
100
AcDbEntity
  8
1
  6
Continuous
 62
     2
100
AcDbLine
 10
-223.5430145697899
 20
103.317558701764
 30
0.0
 11
-223.5430145697899
 21
53.3175587017642
 31
0.0
  0
LINE
  5
276
330
71
100
AcDbEntity
  8
1
  6
Continuous
 62
     6
100
AcDbLine
 10
-218.5430145697893
 20
103.317558701764
 30
0.0
 11
-218.5430145697891
 21
53.3175587017642
 31
0.0
  0
LINE
  5
277
330
71
100
AcDbEntity
  8
1
  6
Continuous
 62
     2
100
AcDbLine
 10
-223.5430145697899
 20
53.3175587017642
 30
0.0
 11
-218.5430145697891
 21
53.3175587017642
 31
0.0
  0
LINE
  5
278
330
71
100
AcDbEntity
  8
1
  6
Continuous
 62
     2
100
AcDbLine
 10
-223.5430145697899
 20
53.3175587017642
 30
0.0
 11
-223.5430145697899
 21
3.31755870176409
 31
0.0
  0
LINE
  5
279
330
71
100
AcDbEntity
  8
1
  6
Continuous
 62
     6
100
AcDbLine
 10
-218.5430145697891
 20
53.3175587017642
 30
0.0
 11
-218.5430145697889
 21
3.31755870176409
 31
0.0
  0
LINE
  5
27A
330
71
100
AcDbEntity
  8
1
  6
Continuous
 62
     2
100
AcDbLine
 10
-175.0430145697908
 20
-1.68244129823603
 30
0.0
 11
-175.0430145697908
 21
3.31755870176409
 31
0.0
  0
LINE
  5
27B
330
71
100
AcDbEntity
  8
1
  6
Continuous
 62
     2
100
AcDbLine
 10
-175.0430145697908
 20
-1.68244129823603
 30
0.0
 11
-125.043014569791
 21
-1.68244129823603
 31
0.0
  0
LINE
  5
27C
330
71
100
AcDbEntity
  8
1
  6
Continuous
 62
     2
100
AcDbLine
 10
-125.043014569791
 20
-1.68244129823603
 30
0.0
 11
-125.043014569791
 21
3.31755870176409
 31
0.0
  0
LINE
  5
27D
330
71
100
AcDbEntity
  8
1
  6
Continuous
 62
     2
100
AcDbLine
 10
-125.043014569791
 20
-1.68244129823603
 30
0.0
 11
-75.04301456979078
 21
-1.68244129823603
 31
0.0
  0
LINE
  5
27E
330
71
100
AcDbEntity
  8
1
  6
Continuous
 62
     2
100
AcDbLine
 10
-75.04301456979078
 20
-1.68244129823603
 30
0.0
 11
-75.04301456979078
 21
3.31755870176409
 31
0.0
  0
LINE
  5
27F
330
71
100
AcDbEntity
  8
1
  6
Continuous
 62
     2
100
AcDbLine
 10
-75.04301456979078
 20
-1.68244129823603
 30
0.0
 11
-25.04301456979081
 21
-1.68244129823603
 31
0.0
  0
LINE
  5
280
330
71
100
AcDbEntity
  8
1
  6
Continuous
 62
     2
100
AcDbLine
 10
-25.04301456979081
 20
-1.68244129823603
 30
0.0
 11
-25.04301456979081
 21
3.31755870176409
 31
0.0
  0
LINE
  5
281
330
71
100
AcDbEntity
  8
1
  6
Continuous
 62
     2
100
AcDbLine
 10
24.95698543020919
 20
-1.68244129823603
 30
0.0
 11
24.95698543020919
 21
3.31755870176409
 31
0.0
  0
LINE
  5
282
330
71
100
AcDbEntity
  8
1
  6
Continuous
 62
     2
100
AcDbLine
 10
24.95698543020919
 20
-1.68244129823603
 30
0.0
 11
-25.04301456979081
 21
-1.68244129823603
 31
0.0
  0
LINE
  5
283
330
71
100
AcDbEntity
  8
1
  6
Continuous
 62
     2
100
AcDbLine
 10
-218.5430145697889
 20
3.31755870176409
 30
0.0
 11
-218.5430145697889
 21
-1.68244129823603
 31
0.0
  0
LINE
  5
284
330
71
100
AcDbEntity
  8
1
  6
Continuous
 62
     2
100
AcDbLine
 10
-218.5430145697889
 20
-1.68244129823603
 30
0.0
 11
-175.0430145697908
 21
-1.68244129823603
 31
0.0
  0
LINE
  5
285
330
71
100
AcDbEntity
  8
1
  6
Continuous
 62
     2
100
AcDbLine
 10
-218.5430145697889
 20
3.31755870176409
 30
0.0
 11
-223.5430145697899
 21
3.31755870176409
 31
0.0
  0
LINE
  5
286
330
71
100
AcDbEntity
  8
1
  6
Continuous
 62
     2
100
AcDbLine
 10
-223.5430145697899
 20
3.31755870176409
 30
0.0
 11
-223.5430145697899
 21
-1.68244129823603
 31
0.0
  0
LINE
  5
287
330
71
100
AcDbEntity
  8
1
  6
Continuous
 62
     6
100
AcDbLine
 10
68.4569854302092
 20
3.31755870176409
 30
0.0
 11
68.4569854302105
 21
11.81755870176409
 31
0.0
  0
LINE
  5
288
330
71
100
AcDbEntity
  8
1
  6
Continuous
 62
     6
100
AcDbLine
 10
-24.68781909654089
 20
3.31755870176397
 30
0.0
 11
24.95698543020919
 21
3.31755870176409
 31
0.0
  0
LINE
  5
289
330
71
100
AcDbEntity
  8
1
  6
Continuous
 62
     6
100
AcDbLine
 10
-177.343014569791
 20
3.31755870176397
 30
0.0
 11
-175.0430145697908
 21
3.31755870176409
 31
0.0
  0
LINE
  5
28A
330
71
100
AcDbEntity
  8
1
  6
Continuous
 62
     6
100
AcDbLine
 10
-75.04301456979078
 20
3.31755870176409
 30
0.0
 11
-125.043014569791
 21
3.31755870176409
 31
0.0
  0
LINE
  5
28B
330
71
100
AcDbEntity
  8
1
  6
Continuous
 62
     7
100
AcDbLine
 10
-61.08781909654081
 20
20.31755870176409
 30
0.0
 11
-61.08781909654081
 21
7.56755870176397
 31
0.0
  0
LINE
  5
28C
330
71
100
AcDbEntity
  8
1
  6
Continuous
 62
     7
100
AcDbLine
 10
-24.68781909654089
 20
20.31755870176409
 30
0.0
 11
-24.68781909654089
 21
7.56755870176409
 31
0.0
  0
LINE
  5
28D
330
71
100
AcDbEntity
  8
1
  6
Continuous
 62
     6
100
AcDbLine
 10
-177.343014569791
 20
3.31755870176397
 30
0.0
 11
-183.543014569789
 21
3.31755870176409
 31
0.0
  0
LINE
  5
28E
330
71
100
AcDbEntity
  8
1
  6
Continuous
 62
     6
100
AcDbLine
 10
-24.68781909654089
 20
3.31755870176397
 30
0.0
 11
-25.04301456979081
 21
3.31755870176409
 31
0.0
  0
LINE
  5
28F
330
71
100
AcDbEntity
  8
1
  6
Continuous
 62
     6
100
AcDbLine
 10
68.45698543021089
 20
20.31755870176409
 30
0.0
 11
68.4569854302105
 21
11.81755870176409
 31
0.0
  0
LINE
  5
290
330
71
100
AcDbEntity
  8
1
  6
Continuous
 62
     6
100
AcDbLine
 10
-183.543014569789
 20
3.31755870176409
 30
0.0
 11
-218.5430145697889
 21
3.31755870176409
 31
0.0
  0
LINE
  5
291
330
71
100
AcDbEntity
  8
1
  6
Continuous
 62
     2
100
AcDbLine
 10
-56.85116420997821
 20
25.692558701764
 30
0.0
 11
-51.85116420997821
 21
26.942558701764
 31
0.0
  0
LINE
  5
292
330
71
100
AcDbEntity
  8
1
  6
Continuous
 62
     2
100
AcDbLine
 10
-56.85116420997821
 20
23.192558701764
 30
0.0
 11
-56.85116420997821
 21
25.692558701764
 31
0.0
  0
LINE
  5
293
330
71
100
AcDbEntity
  8
1
  6
Continuous
 62
     2
100
AcDbLine
 10
-51.85116420997821
 20
21.942558701764
 30
0.0
 11
-56.85116420997821
 21
23.192558701764
 31
0.0
  0
LINE
  5
294
330
71
100
AcDbEntity
  8
1
  6
Continuous
 62
     2
100
AcDbLine
 10
-51.85116420997821
 20
26.942558701764
 30
0.0
 11
-51.85116420997821
 21
21.942558701764
 31
0.0
  0
LINE
  5
295
330
71
100
AcDbEntity
  8
1
  6
Continuous
 62
     7
100
AcDbLine
 10
-61.08781909654081
 20
7.56755870176397
 30
0.0
 11
-42.8878190965408
 21
7.56755870176409
 31
0.0
  0
LINE
  5
296
330
71
100
AcDbEntity
  8
1
  6
Continuous
 62
     7
100
AcDbLine
 10
-61.08781909654081
 20
7.56755870176397
 30
0.0
 11
-61.08781909654081
 21
3.31755870176397
 31
0.0
  0
LINE
  5
297
330
71
100
AcDbEntity
  8
1
  6
Continuous
 62
     7
100
AcDbLine
 10
-24.68781909654089
 20
7.56755870176409
 30
0.0
 11
-24.68781909654089
 21
3.31755870176397
 31
0.0
  0
LINE
  5
298
330
71
100
AcDbEntity
  8
1
  6
Continuous
 62
     7
100
AcDbLine
 10
-42.8878190965408
 20
7.56755870176409
 30
0.0
 11
-42.8878190965408
 21
3.31755870176409
 31
0.0
  0
LINE
  5
299
330
71
100
AcDbEntity
  8
1
  6
Continuous
 62
     6
100
AcDbLine
 10
-42.8878190965408
 20
3.31755870176409
 30
0.0
 11
-61.08781909654081
 21
3.31755870176397
 31
0.0
  0
LINE
  5
29A
330
71
100
AcDbEntity
  8
1
  6
Continuous
 62
     7
100
AcDbLine
 10
-42.8878190965408
 20
7.56755870176409
 30
0.0
 11
-24.68781909654089
 21
7.56755870176409
 31
0.0
  0
LINE
  5
29B
330
71
100
AcDbEntity
  8
1
  6
Continuous
 62
     6
100
AcDbLine
 10
-61.08781909654081
 20
28.81755870176409
 30
0.0
 11
68.45698543021089
 21
28.81755870176409
 31
0.0
  0
ARC
  5
29C
102
{ACAD_REACTORS
330
304
330
305
102
}
330
71
100
AcDbEntity
  8
0
  6
Continuous
 62
     2
100
AcDbCircle
 10
-45.69617109758082
 20
12.13796346368568
 30
0.0
 40
0.7717997786797003
100
AcDbArc
 50
321.879580202842
 51
38.12041979715276
  0
ARC
  5
29D
102
{ACAD_REACTORS
330
304
330
305
102
}
330
71
100
AcDbEntity
  8
0
  6
Continuous
 62
     2
100
AcDbCircle
 10
-45.4964310612344
 20
11.98123228556568
 30
0.0
 40
0.5179085730137455
100
AcDbArc
 50
218.120419797192
 51
321.8795802028007
  0
ARC
  5
29E
102
{ACAD_REACTORS
330
304
330
305
102
}
330
71
100
AcDbEntity
  8
0
  6
Continuous
 62
     2
100
AcDbCircle
 10
-45.2966910248883
 20
12.13796346368568
 30
0.0
 40
0.7717997786794721
100
AcDbArc
 50
141.8795802028372
 51
218.120419797168
  0
ARC
  5
29F
102
{ACAD_REACTORS
330
304
330
305
102
}
330
71
100
AcDbEntity
  8
0
  6
Continuous
 62
     2
100
AcDbCircle
 10
-45.4964310612344
 20
12.29469464180619
 30
0.0
 40
0.517908573013291
100
AcDbArc
 50
38.12041979714706
 51
141.8795802028602
  0
ARC
  5
2A0
102
{ACAD_REACTORS
330
2FC
330
2FD
102
}
330
71
100
AcDbEntity
  8
0
  6
Continuous
 62
     2
100
AcDbCircle
 10
-48.55844519679829
 20
10.7274970982775
 30
0.0
 40
2.227384008973474
100
AcDbArc
 50
58.06909105004068
 51
71.55192388186741
  0
ARC
  5
2A1
102
{ACAD_REACTORS
330
2FC
330
2FD
102
}
330
71
100
AcDbEntity
  8
0
  6
Continuous
 62
     2
100
AcDbCircle
 10
-48.29671749583952
 20
12.34303489302468
 30
0.0
 40
0.5115800601948767
100
AcDbArc
 50
113.3722778881983
 51
151.4785267423044
  0
ARC
  5
2A2
102
{ACAD_REACTORS
330
2FC
330
2FD
102
}
330
71
100
AcDbEntity
  8
0
  6
Continuous
 62
     2
100
AcDbCircle
 10
-47.91936023775921
 20
12.13796346368568
 30
0.0
 40
0.9410597353332607
100
AcDbArc
 50
151.4785267422671
 51
208.5214732577057
  0
ARC
  5
2A3
102
{ACAD_REACTORS
330
2FC
330
2FD
102
}
330
71
100
AcDbEntity
  8
0
  6
Continuous
 62
     2
100
AcDbCircle
 10
-48.71631807189121
 20
15.45064440894208
 30
0.0
 40
4.852596863498136
100
AcDbArc
 50
275.1581447696248
 51
285.9799912583529
  0
ARC
  5
2A4
102
{ACAD_REACTORS
330
2FC
330
2FD
102
}
330
71
100
AcDbEntity
  8
0
  6
Continuous
 62
     2
100
AcDbCircle
 10
-48.4274619771553
 20
12.25075382572049
 30
0.0
 40
1.639695123939387
100
AcDbArc
 50
195.0618917770895
 51
275.1581447696393
  0
ARC
  5
2A5
102
{ACAD_REACTORS
330
2FC
330
2FD
102
}
330
71
100
AcDbEntity
  8
0
  6
Continuous
 62
     2
100
AcDbCircle
 10
-48.84658982061811
 20
12.13796346368568
 30
0.0
 40
1.205656168390943
100
AcDbArc
 50
164.9381082228765
 51
195.0618917770949
  0
ARC
  5
2A6
102
{ACAD_REACTORS
330
2FC
330
2FD
102
}
330
71
100
AcDbEntity
  8
0
  6
Continuous
 62
     2
100
AcDbCircle
 10
-48.4274619771553
 20
12.02517310165078
 30
0.0
 40
1.639695123940504
100
AcDbArc
 50
84.8418552303626
 51
164.9381082228866
  0
ARC
  5
2A7
102
{ACAD_REACTORS
330
300
330
301
102
}
330
71
100
AcDbEntity
  8
0
  6
Continuous
 62
     2
100
AcDbCircle
 10
-53.25747623131721
 20
13.17179025803998
 30
0.0
 40
0.3157169230765344
100
AcDbArc
 50
115.3740086783517
 51
180.0
  0
ARC
  5
2A8
102
{ACAD_REACTORS
330
300
330
301
102
}
330
71
100
AcDbEntity
  8
0
  6
Continuous
 62
     2
100
AcDbCircle
 10
-53.25747623131721
 20
15.3900734579762
 30
0.0
 40
0.3157169230767991
100
AcDbArc
 50
180.0
 51
244.6259913216483
  0
ARC
  5
2A9
102
{ACAD_REACTORS
330
300
330
301
102
}
330
71
100
AcDbEntity
  8
0
  6
Continuous
 62
     2
100
AcDbCircle
 10
-53.25186009600719
 20
14.29277379891389
 30
0.0
 40
2.018561131933267
100
AcDbArc
 50
269.8110329575858
 51
90.18896704241416
  0
ARC
  5
2AA
102
{ACAD_REACTORS
330
300
330
301
102
}
330
71
100
AcDbEntity
  8
0
  6
Continuous
 62
     2
100
AcDbCircle
 10
-53.25747623131721
 20
12.5899388513449
 30
0.0
 40
0.3157169230767991
100
AcDbArc
 50
180.0
 51
269.8110329574542
  0
ARC
  5
2AB
102
{ACAD_REACTORS
330
2FE
330
2FF
102
}
330
71
100
AcDbEntity
  8
0
  6
Continuous
 62
     2
100
AcDbCircle
 10
-32.1940160165866
 20
12.34303489302468
 30
0.0
 40
0.5115800601944109
100
AcDbArc
 50
109.3371432194854
 51
151.4785267424226
  0
ARC
  5
2AC
102
{ACAD_REACTORS
330
2FE
330
2FF
102
}
330
71
100
AcDbEntity
  8
0
  6
Continuous
 62
     2
100
AcDbCircle
 10
-32.1940160165866
 20
11.93289203434719
 30
0.0
 40
0.5115800601960215
100
AcDbArc
 50
208.5214732576866
 51
246.627722111844
  0
ARC
  5
2AD
102
{ACAD_REACTORS
330
2FE
330
2FF
102
}
330
71
100
AcDbEntity
  8
0
  6
Continuous
 62
     2
100
AcDbCircle
 10
-32.743888341364
 20
12.13796346368568
 30
0.0
 40
1.205656168393002
100
AcDbArc
 50
164.9381082229029
 51
195.0618917770957
  0
ARC
  5
2AE
102
{ACAD_REACTORS
330
2FE
330
2FF
102
}
330
71
100
AcDbEntity
  8
0
  6
Continuous
 62
     2
100
AcDbCircle
 10
-32.32476049790239
 20
12.02517310165078
 30
0.0
 40
1.639695123940209
100
AcDbArc
 50
90.0
 51
164.9381082228951
  0
ARC
  5
2AF
102
{ACAD_REACTORS
330
302
330
303
102
}
330
71
100
AcDbEntity
  8
0
  6
Continuous
 62
     2
100
AcDbCircle
 10
-41.75175559060611
 20
15.49715393986
 30
0.0
 40
1.526904761905881
100
AcDbArc
 50
90.0
 51
270.0
  0
ARC
  5
2B0
102
{ACAD_REACTORS
330
306
330
307
102
}
330
71
100
AcDbEntity
  8
0
  6
Continuous
 62
     2
100
AcDbCircle
 10
-48.4944463358319
 20
16.00808903165469
 30
0.0
 40
0.3528638246711218
100
AcDbArc
 50
270.0
 51
90.0
  0
ARC
  5
2B1
102
{ACAD_REACTORS
330
300
330
301
102
}
330
71
100
AcDbEntity
  8
0
  6
Continuous
 62
     2
100
AcDbCircle
 10
-55.83302491784892
 20
15.99578622313109
 30
0.0
 40
0.3157169230762005
100
AcDbArc
 50
90.0
 51
180.0
  0
ARC
  5
2B2
102
{ACAD_REACTORS
330
300
330
301
102
}
330
71
100
AcDbEntity
  8
0
  6
Continuous
 62
     2
100
AcDbCircle
 10
-53.83460720926431
 20
14.28093185800839
 30
0.0
 40
0.9118975235576038
100
AcDbArc
 50
115.1944106485276
 51
244.8055893514886
  0
ARC
  5
2B3
102
{ACAD_REACTORS
330
300
330
301
102
}
330
71
100
AcDbEntity
  8
0
  6
Continuous
 62
     2
100
AcDbCircle
 10
-54.35719165683929
 20
13.1701021119456
 30
0.0
 40
0.315716923076593
100
AcDbArc
 50
0.0
 51
64.8055893514591
  0
ARC
  5
2B4
102
{ACAD_REACTORS
330
300
330
301
102
}
330
71
100
AcDbEntity
  8
0
  6
Continuous
 62
     2
100
AcDbCircle
 10
-56.4269195945954
 20
11.03530331716368
 30
0.0
 40
0.4242446153828112
100
AcDbArc
 50
180.0
 51
270.0
  0
ARC
  5
2B5
102
{ACAD_REACTORS
330
302
330
303
102
}
330
71
100
AcDbEntity
  8
0
  6
Continuous
 62
     2
100
AcDbCircle
 10
-41.53548358044091
 20
15.65388511798048
 30
0.0
 40
0.517908573013522
100
AcDbArc
 50
38.12041979714398
 51
141.8795802028488
  0
ARC
  5
2B6
102
{ACAD_REACTORS
330
302
330
303
102
}
330
71
100
AcDbEntity
  8
0
  6
Continuous
 62
     2
100
AcDbCircle
 10
-41.33574354409461
 20
15.49715393986
 30
0.0
 40
0.7717997786796724
100
AcDbArc
 50
141.8795802028404
 51
218.1204197971561
  0
ARC
  5
2B7
102
{ACAD_REACTORS
330
304
330
305
102
}
330
71
100
AcDbEntity
  8
0
  6
Continuous
 62
     2
100
AcDbCircle
 10
-45.4964310612344
 20
12.67653847398898
 30
0.0
 40
2.065479772208509
100
AcDbArc
 50
242.45185182434
 51
297.5481481756869
  0
ARC
  5
2B8
102
{ACAD_REACTORS
330
304
330
305
102
}
330
71
100
AcDbEntity
  8
0
  6
Continuous
 62
     2
100
AcDbCircle
 10
-45.4964310612344
 20
11.59938845338289
 30
0.0
 40
2.065479772208563
100
AcDbArc
 50
62.45185182430652
 51
117.5481481756666
  0
ARC
  5
2B9
102
{ACAD_REACTORS
330
304
330
305
102
}
330
71
100
AcDbEntity
  8
0
  6
Continuous
 62
     2
100
AcDbCircle
 10
-45.7773709530677
 20
12.13796346368568
 30
0.0
 40
1.458034083651492
100
AcDbArc
 50
117.5481481756624
 51
242.4518518243375
  0
ARC
  5
2BA
102
{ACAD_REACTORS
330
304
330
305
102
}
330
71
100
AcDbEntity
  8
0
  6
Continuous
 62
     2
100
AcDbCircle
 10
-45.21549116940111
 20
12.13796346368568
 30
0.0
 40
1.458034083652006
100
AcDbArc
 50
297.5481481757013
 51
62.45185182429874
  0
ARC
  5
2BB
102
{ACAD_REACTORS
330
302
330
303
102
}
330
71
100
AcDbEntity
  8
0
  6
Continuous
 62
     2
100
AcDbCircle
 10
-41.53548358044091
 20
15.34042276173958
 30
0.0
 40
0.5179085730134382
100
AcDbArc
 50
218.1204197971512
 51
321.879580202856
  0
ARC
  5
2BC
102
{ACAD_REACTORS
330
302
330
303
102
}
330
71
100
AcDbEntity
  8
0
  6
Continuous
 62
     2
100
AcDbCircle
 10
-41.7352236167871
 20
15.49715393986
 30
0.0
 40
0.7717997786796362
100
AcDbArc
 50
321.8795802028439
 51
38.12041979715956
  0
ARC
  5
2BD
102
{ACAD_REACTORS
330
300
330
301
102
}
330
71
100
AcDbEntity
  8
0
  6
Continuous
 62
     2
100
AcDbCircle
 10
-50.9536075038786
 20
11.03530331716368
 30
0.0
 40
0.4242446153832891
100
AcDbArc
 50
270.0
 51
0.0
  0
ARC
  5
2BE
102
{ACAD_REACTORS
330
300
330
301
102
}
330
71
100
AcDbEntity
  8
0
  6
Continuous
 62
     2
100
AcDbCircle
 10
-50.9536075038786
 20
16.59981408636389
 30
0.0
 40
0.4242446153838841
100
AcDbArc
 50
0.0
 51
90.0
  0
ARC
  5
2BF
102
{ACAD_REACTORS
330
300
330
301
102
}
330
71
100
AcDbEntity
  8
0
  6
Continuous
 62
     2
100
AcDbCircle
 10
-56.4269195945954
 20
16.59981408636389
 30
0.0
 40
0.4242446153838024
100
AcDbArc
 50
90.0
 51
180.0
  0
ARC
  5
2C0
102
{ACAD_REACTORS
330
300
330
301
102
}
330
71
100
AcDbEntity
  8
0
  6
Continuous
 62
     2
100
AcDbCircle
 10
-54.35719165683929
 20
11.63933118041399
 30
0.0
 40
0.3157169230767103
100
AcDbArc
 50
270.0
 51
0.0
  0
ARC
  5
2C1
102
{ACAD_REACTORS
330
300
330
301
102
}
330
71
100
AcDbEntity
  8
0
  6
Continuous
 62
     2
100
AcDbCircle
 10
-54.35719165683929
 20
15.39176160407058
 30
0.0
 40
0.3157169230761233
100
AcDbArc
 50
295.1944106485409
 51
0.0
  0
ARC
  5
2C2
102
{ACAD_REACTORS
330
300
330
301
102
}
330
71
100
AcDbEntity
  8
0
  6
Continuous
 62
     2
100
AcDbCircle
 10
-54.35719165683929
 20
15.99578622313109
 30
0.0
 40
0.315716923076593
100
AcDbArc
 50
0.0
 51
90.0
  0
ARC
  5
2C3
102
{ACAD_REACTORS
330
300
330
301
102
}
330
71
100
AcDbEntity
  8
0
  6
Continuous
 62
     2
100
AcDbCircle
 10
-55.83302491784892
 20
11.63933118041399
 30
0.0
 40
0.3157169230756836
100
AcDbArc
 50
180.0
 51
270.0
  0
ARC
  5
2C4
102
{ACAD_REACTORS
330
306
330
307
102
}
330
71
100
AcDbEntity
  8
0
  6
Continuous
 62
     2
100
AcDbCircle
 10
-48.05297380959351
 20
15.9686930604322
 30
0.0
 40
1.05536564133371
100
AcDbArc
 50
270.0
 51
90.0
  0
ARC
  5
2C5
102
{ACAD_REACTORS
330
2FE
330
2FF
102
}
330
71
100
AcDbEntity
  8
0
  6
Continuous
 62
     2
100
AcDbCircle
 10
-32.32476049790239
 20
12.25075382572049
 30
0.0
 40
1.639695123940446
100
AcDbArc
 50
195.0618917771009
 51
275.1581447696765
  0
ARC
  5
2C6
102
{ACAD_REACTORS
330
2FE
330
2FF
102
}
330
71
100
AcDbEntity
  8
0
  6
Continuous
 62
     2
100
AcDbCircle
 10
-32.61361659263821
 20
15.45064440894208
 30
0.0
 40
4.852596863498825
100
AcDbArc
 50
275.1581447696364
 51
285.9799912583387
  0
ARC
  5
2C7
102
{ACAD_REACTORS
330
2FE
330
2FF
102
}
330
71
100
AcDbEntity
  8
0
  6
Continuous
 62
     2
100
AcDbCircle
 10
-32.4557437175454
 20
13.54842982909378
 30
0.0
 40
2.227384008972748
100
AcDbArc
 50
288.4480761181335
 51
301.9309089499397
  0
ARC
  5
2C8
102
{ACAD_REACTORS
330
2FE
330
2FF
102
}
330
71
100
AcDbEntity
  8
0
  6
Continuous
 62
     2
100
AcDbCircle
 10
-32.0375759838835
 20
12.29488405305719
 30
0.0
 40
0.9059297849852797
100
AcDbArc
 50
246.6277221118177
 51
288.4480761180817
  0
ARC
  5
2C9
102
{ACAD_REACTORS
330
2FE
330
2FF
102
}
330
71
100
AcDbEntity
  8
0
  6
Continuous
 62
     2
100
AcDbCircle
 10
-31.81665875850521
 20
12.13796346368568
 30
0.0
 40
0.9410597353348946
100
AcDbArc
 50
151.4785267423626
 51
208.5214732576694
  0
ARC
  5
2CA
102
{ACAD_REACTORS
330
2FE
330
2FF
102
}
330
71
100
AcDbEntity
  8
0
  6
Continuous
 62
     2
100
AcDbCircle
 10
-32.0473460184829
 20
11.92507991264179
 30
0.0
 40
0.9545230068261006
100
AcDbArc
 50
90.0
 51
109.337143219432
  0
ARC
  5
2CB
102
{ACAD_REACTORS
330
300
330
301
102
}
330
71
100
AcDbEntity
  8
0
  6
Continuous
 62
     2
100
AcDbCircle
 10
-53.25747623131721
 20
15.99560874648299
 30
0.0
 40
0.315716923076064
100
AcDbArc
 50
90.18896704254594
 51
180.0
  0
ARC
  5
2CC
102
{ACAD_REACTORS
330
300
330
301
102
}
330
71
100
AcDbEntity
  8
0
  6
Continuous
 62
     2
100
AcDbCircle
 10
-53.78351892940509
 20
14.28093185800839
 30
0.0
 40
0.9118481501444573
100
AcDbArc
 50
295.3740086781765
 51
64.62599132180733
  0
ARC
  5
2CD
102
{ACAD_REACTORS
330
2FC
330
2FD
102
}
330
71
100
AcDbEntity
  8
0
  6
Continuous
 62
     2
100
AcDbCircle
 10
-48.55844519679829
 20
13.54842982909437
 30
0.0
 40
2.227384008972726
100
AcDbArc
 50
288.4480761181327
 51
301.9309089499593
  0
ARC
  5
2CE
102
{ACAD_REACTORS
330
2FC
330
2FD
102
}
330
71
100
AcDbEntity
  8
0
  6
Continuous
 62
     2
100
AcDbCircle
 10
-48.14027746313749
 20
12.29488405305719
 30
0.0
 40
0.9059297849849188
100
AcDbArc
 50
246.6277221118705
 51
288.4480761181577
  0
ARC
  5
2CF
102
{ACAD_REACTORS
330
2FC
330
2FD
102
}
330
71
100
AcDbEntity
  8
0
  6
Continuous
 62
     2
100
AcDbCircle
 10
-48.29671749583952
 20
11.93289203434719
 30
0.0
 40
0.5115800601948042
100
AcDbArc
 50
208.5214732576957
 51
246.6277221118279
  0
ARC
  5
2D0
102
{ACAD_REACTORS
330
2FC
330
2FD
102
}
330
71
100
AcDbEntity
  8
0
  6
Continuous
 62
     2
100
AcDbCircle
 10
-48.14027746313749
 20
11.98104287431409
 30
0.0
 40
0.9059297849853184
100
AcDbArc
 50
71.55192388185434
 51
113.3722778881295
  0
ARC
  5
2D1
102
{ACAD_REACTORS
330
2FC
330
2FD
102
}
330
71
100
AcDbEntity
  8
0
  6
Continuous
 62
     2
100
AcDbCircle
 10
-48.71631807189121
 20
8.82528251842979
 30
0.0
 40
4.852596863498066
100
AcDbArc
 50
74.02000874164737
 51
84.84185523037515
  0
CIRCLE
  5
2D2
102
{ACAD_REACTORS
330
300
330
301
102
}
330
71
100
AcDbEntity
  8
0
  6
Continuous
 62
     2
100
AcDbCircle
 10
-53.8073339440779
 20
14.28093185800839
 30
0.0
 40
0.4709789327785074
  0
CIRCLE
  5
2D3
330
71
100
AcDbEntity
  8
1
  6
Continuous
 62
     2
100
AcDbCircle
 10
-48.35116420997821
 20
24.442558701764
 30
0.0
 40
1.249999999999915
  0
CIRCLE
  5
2D4
330
71
100
AcDbEntity
  8
1
  6
Continuous
 62
     2
100
AcDbCircle
 10
-48.35116420997821
 20
24.442558701764
 30
0.0
 40
2.5
  0
TEXT
  5
2D5
330
71
100
AcDbEntity
  8
1
 62
     7
100
AcDbText
 10
-5.71427137452702
 20
21.61755870176398
 30
0.0
 40
2.5
  1
/
 41
0.9
  7
CONVERTER_11
100
AcDbText
  0
TEXT
  5
2D7
330
71
100
AcDbEntity
  8
1
 62
     7
100
AcDbText
 10
-3.55790687748501
 20
21.61755870176398
 30
0.0
 40
2.5
  1
00
 41
0.81
  7
CONVERTER_12
100
AcDbText
  0
TEXT
  5
2D8
330
71
100
AcDbEntity
  8
1
 62
     3
100
AcDbText
 10
34.03857714853208
 20
21.61755870176398
 30
0.0
 40
2.5
  1
08.02.2018
 41
0.81
  7
CONVERTER_12
100
AcDbText
  0
MTEXT
  5
2D9
330
71
100
AcDbEntity
  8
1
 62
     2
100
AcDbMText
 10
34.03857714853208
 20
27.817558701764
 30
0.0
 40
1.8
 41
0.0
 71
     1
 72
     1
  1
date
  7
CONVERTER_11
 73
     1
 44
1.32052821128451
  0
MTEXT
  5
2DA
330
71
100
AcDbEntity
  8
1
 62
     2
100
AcDbMText
 10
4.2121809034592
 20
19.317558701764
 30
0.0
 40
1.8
 41
0.0
 71
     1
 72
     1
  1
document-type
  7
CONVERTER_11
 73
     1
 44
1.20048019207683
  0
TEXT
  5
2DB
330
71
100
AcDbEntity
  8
1
 62
     3
100
AcDbText
 10
4.2121809034592
 20
13.11755870176398
 30
0.0
 40
2.5
  1
TECDOC 2D_Productdrawing
 41
0.81
  7
CONVERTER_12
100
AcDbText
  0
MTEXT
  5
2DD
330
71
100
AcDbEntity
  8
1
 62
     2
100
AcDbMText
 10
-23.58781909654081
 20
27.81755870176409
 30
0.0
 40
1.8
 41
0.0
 71
     1
 72
     1
  1
document-No. / RI
  7
CONVERTER_13
 73
     1
 44
1.32052821128451
  0
TEXT
  5
2DE
330
71
100
AcDbEntity
  8
1
 62
     7
100
AcDbText
 10
-23.58781909654081
 20
21.61755870176398
 30
0.0
 40
2.5
  1
01115740
 41
0.81
  7
CONVERTER_12
100
AcDbText
  0
MTEXT
  5
2E0
330
71
100
AcDbEntity
  8
1
 62
     3
100
AcDbMText
 10
63.9977812893715
 20
21.61755870176418
 30
0.0
 40
2.5
 41
0.0
 71
     8
 72
     1
  1
1:1
  7
CONVERTER_14
 73
     1
 44
1.32052821128451
  0
MTEXT
  5
2E1
330
71
100
AcDbEntity
  8
1
 62
     2
100
AcDbMText
 10
60.63857714853191
 20
27.81755870176409
 30
0.0
 40
1.8
 41
0.0
 71
     1
 72
     1
  1
scale
  7
CONVERTER_11
 73
     1
 44
1.20048019207683
  0
MTEXT
  5
2E2
330
71
100
AcDbEntity
  8
1
 62
     2
100
AcDbMText
 10
-23.58781909654081
 20
19.31755870176409
 30
0.0
 40
1.8
 41
0.0
 71
     1
 72
     1
  1
ident.-No.
  7
CONVERTER_11
 73
     1
 44
1.20048019207683
  0
TEXT
  5
2E3
330
71
100
AcDbEntity
  8
1
 62
     7
100
AcDbText
 10
-23.18781909654109
 20
13.11755870176398
 30
0.0
 40
2.5
  1
3213211
 41
0.81
  7
CONVERTER_12
100
AcDbText
  0
MTEXT
  5
2E4
330
71
100
AcDbEntity
  8
1
 62
     2
100
AcDbMText
 10
-95.52583382158832
 20
16.067558701764
 30
0.0
 40
2.0
 41
0.0
 71
     5
 72
     1
  1
General Information\P- Simplified representation\P- Document excluded from change process\P- Linear dimensions [mm]
  7
CONVERTER_11
 73
     1
 44
1.20048019207683
  0
MTEXT
  5
2E5
330
71
100
AcDbEntity
  8
1
 62
     7
100
AcDbMText
 10
70.95698543020819
 20
78.31755870176599
 30
0.0
 40
3.5
 41
0.0
 71
     5
 72
     1
  1
C
  7
CONVERTER_11
 73
     1
 44
1.20048019207683
  0
MTEXT
  5
2E6
330
71
100
AcDbEntity
  8
1
 62
     7
100
AcDbMText
 10
70.95698543020819
 20
180.8175587017641
 30
0.0
 40
3.5
 41
0.0
 71
     5
 72
     1
  1
A
  7
CONVERTER_11
 73
     1
 44
1.20048019207683
  0
MTEXT
  5
2E7
330
71
100
AcDbEntity
  8
1
 62
     7
100
AcDbMText
 10
70.95698543020819
 20
128.317558701766
 30
0.0
 40
3.5
 41
0.0
 71
     5
 72
     1
  1
B
  7
CONVERTER_11
 73
     1
 44
1.20048019207683
  0
MTEXT
  5
2E8
330
71
100
AcDbEntity
  8
1
 62
     7
100
AcDbMText
 10
70.95698543020819
 20
25.81755870176409
 30
0.0
 40
3.5
 41
0.0
 71
     5
 72
     1
  1
D
  7
CONVERTER_11
 73
     1
 44
1.20048019207683
  0
MTEXT
  5
2E9
330
71
100
AcDbEntity
  8
1
 62
     7
100
AcDbMText
 10
-199.2930145697904
 20
0.81755870176397
 30
0.0
 40
3.5
 41
0.0
 71
     5
 72
     1
  1
1
  7
CONVERTER_11
 73
     1
 44
1.20048019207683
  0
MTEXT
  5
2EA
330
71
100
AcDbEntity
  8
1
 62
     7
100
AcDbMText
 10
-150.0430145697908
 20
0.81755870176397
 30
0.0
 40
3.5
 41
0.0
 71
     5
 72
     1
  1
2
  7
CONVERTER_11
 73
     1
 44
1.20048019207683
  0
MTEXT
  5
2EB
330
71
100
AcDbEntity
  8
1
 62
     7
100
AcDbMText
 10
-100.0430145697908
 20
0.81755870176397
 30
0.0
 40
3.5
 41
0.0
 71
     5
 72
     1
  1
3
  7
CONVERTER_11
 73
     1
 44
1.20048019207683
  0
MTEXT
  5
2EC
330
71
100
AcDbEntity
  8
1
 62
     7
100
AcDbMText
 10
-50.0430145697909
 20
0.81755870176397
 30
0.0
 40
3.5
 41
0.0
 71
     5
 72
     1
  1
4
  7
CONVERTER_11
 73
     1
 44
1.20048019207683
  0
MTEXT
  5
2ED
330
71
100
AcDbEntity
  8
1
 62
     7
100
AcDbMText
 10
-0.04301456979081
 20
0.81755870176397
 30
0.0
 40
3.5
 41
0.0
 71
     5
 72
     1
  1
5
  7
CONVERTER_11
 73
     1
 44
1.20048019207683
  0
MTEXT
  5
2EE
330
71
100
AcDbEntity
  8
1
 62
     7
100
AcDbMText
 10
49.20698543020839
 20
0.81755870176397
 30
0.0
 40
3.5
 41
0.0
 71
     5
 72
     1
  1
6
  7
CONVERTER_11
 73
     1
 44
1.20048019207683
  0
MTEXT
  5
2EF
330
71
100
AcDbEntity
  8
1
 62
     7
100
AcDbMText
 10
-221.0430145697899
 20
180.8175587017641
 30
0.0
 40
3.5
 41
0.0
 71
     5
 72
     1
  1
A
  7
CONVERTER_11
 73
     1
 44
1.20048019207683
  0
MTEXT
  5
2F0
330
71
100
AcDbEntity
  8
1
 62
     7
100
AcDbMText
 10
-221.0430145697899
 20
128.3175587017641
 30
0.0
 40
3.5
 41
0.0
 71
     5
 72
     1
  1
B
  7
CONVERTER_11
 73
     1
 44
1.20048019207683
  0
MTEXT
  5
2F1
330
71
100
AcDbEntity
  8
1
 62
     7
100
AcDbMText
 10
-221.0430145697899
 20
78.31755870176409
 30
0.0
 40
3.5
 41
0.0
 71
     5
 72
     1
  1
C
  7
CONVERTER_11
 73
     1
 44
1.20048019207683
  0
MTEXT
  5
2F2
330
71
100
AcDbEntity
  8
1
 62
     7
100
AcDbMText
 10
-221.0430145697899
 20
25.81755870176409
 30
0.0
 40
3.5
 41
0.0
 71
     5
 72
     1
  1
D
  7
CONVERTER_11
 73
     1
 44
1.20048019207683
  0
MTEXT
  5
2F3
330
71
100
AcDbEntity
  8
1
 62
     3
100
AcDbMText
 10
-34.88781909654091
 20
24.44255870176409
 30
0.0
 40
2.5
 41
0.0
 71
     5
 72
     1
  1
DIN A4
  7
CONVERTER_11
 73
     1
 44
1.20048019207683
  0
MTEXT
  5
2F4
330
71
100
AcDbEntity
  8
1
 62
     2
100
AcDbMText
 10
-23.68781909654089
 20
10.81755870176409
 30
0.0
 40
1.8
 41
0.0
 71
     1
 72
     1
  1
description
  7
CONVERTER_11
 73
     1
 44
1.20048019207683
  0
MTEXT
  5
2F5
330
71
100
AcDbEntity
  8
1
 62
     7
100
AcDbMText
 10
21.88458316683469
 20
6.56755870176431
 30
0.0
 40
3.0
 41
0.0
 71
     5
 72
     1
  1
FBI 3-20 N EX
  7
CONVERTER_12
 73
     1
 44
1.20048019207683
  0
TEXT
  5
2F6
330
71
100
AcDbEntity
  8
1
 62
     2
100
AcDbText
 10
-36.65251028672731
 20
4.56755870176397
 30
0.0
 40
1.8
  1
1
 41
0.9
  7
CONVERTER_11
100
AcDbText
  0
TEXT
  5
2F7
330
71
100
AcDbEntity
  8
1
 62
     2
100
AcDbText
 10
-51.44155412619881
 20
4.51831004796207
 30
0.0
 40
1.8
  1
1
 41
0.9
  7
CONVERTER_11
100
AcDbText
  0
TEXT
  5
2F8
330
71
100
AcDbEntity
  8
1
 62
     2
100
AcDbText
 10
-60.08781909654081
 20
4.55854148677241
 30
0.0
 40
1.8
  1
page
 41
0.9
  7
CONVERTER_11
100
AcDbText
  0
TEXT
  5
2F9
330
71
100
AcDbEntity
  8
1
 62
     2
100
AcDbText
 10
-41.88781909654099
 20
4.55854148677247
 30
0.0
 40
1.8
  1
of
 41
0.9
  7
CONVERTER_11
100
AcDbText
  0
MTEXT
  5
2FA
330
71
100
AcDbEntity
  8
1
 62
     3
100
AcDbMText
 10
-35.68483694493091
 20
190.1088668570629
 30
0.0
 40
1.8
 41
0.0
 71
     7
 72
     1
  3
Transfer or duplication of this document as well as the utilisation or\Pcommunication of its content are not permitted unless express consent\Pis granted. Violations give rise to claims for damages. All rights reserved\Pin case of patent, utility mo
  1
del or design patent registrations.
  7
CONVERTER_11
 73
     1
 44
0.99639855942377
  0
MTEXT
  5
2FB
330
71
100
AcDbEntity
  8
1
 62
     3
100
AcDbMText
 10
-218.537946783719
 20
190.1088668570629
 30
0.0
 40
1.8
 41
0.0
 71
     7
 72
     1
  3
Weitergabe sowie Vervielf\U+00e4ltigung dieses Dokuments, Verwertung und \PMitteilung seines Inhalts sind verboten, soweit nicht ausdr\U+00fccklich gestattet. \PZuwiderhandlungen verpflichten zu Schadenersatz. Alle Rechte f\U+00fcr den Fall\Pder Pat
  1
ent-, Gebrauchsmuster- oder Designeintragung vorbehalten.
  7
CONVERTER_11
 73
     1
 44
0.99639855942377
  0
HATCH
  5
2FC
330
71
100
AcDbEntity
  8
1
  6
Continuous
 62
     2
100
AcDbHatch
 10
0.0
 20
0.0
 30
0.0
210
0.0
220
0.0
230
1.0
  2
_USER
 70
     0
 71
     1
 91
        1
 92
        1
 93
       14
 72
     2
 10
-48.84658982061811
 20
12.13796346368568
 40
1.205656168390943
 50
164.9381082228765
 51
195.0618917770949
 73
     1
 72
     2
 10
-48.4274619771553
 20
12.25075382572049
 40
1.639695123939387
 50
195.0618917770895
 51
275.1581447696393
 73
     1
 72
     2
 10
-48.71631807189121
 20
15.45064440894208
 40
4.852596863498136
 50
275.1581447696248
 51
285.9799912583529
 73
     1
 72
     1
 10
-47.38039015477341
 20
10.78556210314127
 11
-47.38039015477341
 21
11.65807910994448
 72
     2
 10
-48.55844519679829
 20
13.54842982909437
 40
2.227384008972726
 50
58.0690910500407
 51
71.55192388186732
 73
     0
 72
     2
 10
-48.14027746313749
 20
12.29488405305719
 40
0.9059297849849188
 50
71.55192388184228
 51
113.3722778881295
 73
     0
 72
     2
 10
-48.29671749583952
 20
11.93289203434719
 40
0.5115800601948042
 50
113.3722778881721
 51
151.4785267423043
 73
     0
 72
     2
 10
-47.91936023775921
 20
12.13796346368568
 40
0.9410597353332607
 50
151.4785267422943
 51
208.5214732577329
 73
     0
 72
     2
 10
-48.29671749583952
 20
12.34303489302468
 40
0.5115800601948767
 50
208.5214732576956
 51
246.6277221118017
 73
     0
 72
     2
 10
-48.14027746313749
 20
11.98104287431409
 40
0.9059297849853184
 50
246.6277221118705
 51
288.4480761181457
 73
     0
 72
     2
 10
-48.55844519679829
 20
10.7274970982775
 40
2.227384008973474
 50
288.4480761181326
 51
301.9309089499593
 73
     0
 72
     1
 10
-47.38039015477341
 20
12.61784781742739
 11
-47.38039015477341
 21
13.49036482423068
 72
     2
 10
-48.71631807189121
 20
8.825282518429788
 40
4.852596863498066
 50
74.02000874164737
 51
84.84185523037515
 73
     1
 72
     2
 10
-48.4274619771553
 20
12.02517310165078
 40
1.639695123940504
 50
84.8418552303626
 51
164.9381082228866
 73
     1
 97
       14
330
2D1
330
1EA
330
2A0
330
2D0
330
2A1
330
2A2
330
2CF
330
2CE
330
2CD
330
1EB
330
2A3
330
2A4
330
2A5
330
2A6
 75
     1
 76
     0
 52
45.0
 41
0.1
 77
     0
 78
     1
 53
45.0
 43
0.0
 44
0.0
 45
-0.0707106781186548
 46
0.0707106781186548
 79
     0
 98
        1
 10
0.0
 20
0.0
  0
HATCH
  5
2FD
330
71
100
AcDbEntity
  8
1
  6
Continuous
 62
     2
100
AcDbHatch
 10
0.0
 20
0.0
 30
0.0
210
0.0
220
0.0
230
1.0
  2
_USER
 70
     0
 71
     1
 91
        1
 92
        1
 93
       14
 72
     2
 10
-48.84658982061811
 20
12.13796346368568
 40
1.205656168390943
 50
164.9381082228765
 51
195.0618917770949
 73
     1
 72
     2
 10
-48.4274619771553
 20
12.25075382572049
 40
1.639695123939387
 50
195.0618917770895
 51
275.1581447696393
 73
     1
 72
     2
 10
-48.71631807189121
 20
15.45064440894208
 40
4.852596863498136
 50
275.1581447696248
 51
285.9799912583529
 73
     1
 72
     1
 10
-47.38039015477341
 20
10.78556210314127
 11
-47.38039015477341
 21
11.65807910994448
 72
     2
 10
-48.55844519679829
 20
13.54842982909437
 40
2.227384008972726
 50
58.0690910500407
 51
71.55192388186732
 73
     0
 72
     2
 10
-48.14027746313749
 20
12.29488405305719
 40
0.9059297849849188
 50
71.55192388184228
 51
113.3722778881295
 73
     0
 72
     2
 10
-48.29671749583952
 20
11.93289203434719
 40
0.5115800601948042
 50
113.3722778881721
 51
151.4785267423043
 73
     0
 72
     2
 10
-47.91936023775921
 20
12.13796346368568
 40
0.9410597353332607
 50
151.4785267422943
 51
208.5214732577329
 73
     0
 72
     2
 10
-48.29671749583952
 20
12.34303489302468
 40
0.5115800601948767
 50
208.5214732576956
 51
246.6277221118017
 73
     0
 72
     2
 10
-48.14027746313749
 20
11.98104287431409
 40
0.9059297849853184
 50
246.6277221118705
 51
288.4480761181457
 73
     0
 72
     2
 10
-48.55844519679829
 20
10.7274970982775
 40
2.227384008973474
 50
288.4480761181326
 51
301.9309089499593
 73
     0
 72
     1
 10
-47.38039015477341
 20
12.61784781742739
 11
-47.38039015477341
 21
13.49036482423068
 72
     2
 10
-48.71631807189121
 20
8.825282518429788
 40
4.852596863498066
 50
74.02000874164737
 51
84.84185523037515
 73
     1
 72
     2
 10
-48.4274619771553
 20
12.02517310165078
 40
1.639695123940504
 50
84.8418552303626
 51
164.9381082228866
 73
     1
 97
       14
330
2D1
330
1EA
330
2A0
330
2D0
330
2A1
330
2A2
330
2CF
330
2CE
330
2CD
330
1EB
330
2A3
330
2A4
330
2A5
330
2A6
 75
     1
 76
     0
 52
45.0
 41
0.1
 77
     0
 78
     1
 53
45.0
 43
0.0
 44
0.0
 45
-0.0707106781186548
 46
0.0707106781186548
 79
     0
 98
        1
 10
0.0
 20
0.0
  0
HATCH
  5
2FE
330
71
100
AcDbEntity
  8
1
  6
Continuous
 62
     2
100
AcDbHatch
 10
0.0
 20
0.0
 30
0.0
210
0.0
220
0.0
230
1.0
  2
_USER
 70
     0
 71
     1
 91
        1
 92
        1
 93
       18
 72
     2
 10
-32.32476049790239
 20
12.02517310165078
 40
1.639695123940209
 50
90.0
 51
164.9381082228951
 73
     1
 72
     2
 10
-32.743888341364
 20
12.13796346368568
 40
1.205656168393002
 50
164.9381082229029
 51
195.0618917770957
 73
     1
 72
     2
 10
-32.32476049790239
 20
12.25075382572049
 40
1.639695123940446
 50
195.0618917771009
 51
275.1581447696765
 73
     1
 72
     2
 10
-32.61361659263821
 20
15.45064440894208
 40
4.852596863498825
 50
275.1581447696364
 51
285.9799912583387
 73
     1
 72
     1
 10
-31.27768867552149
 20
10.78556210314068
 11
-31.27768867552149
 21
11.658079109944
 72
     2
 10
-32.4557437175454
 20
13.54842982909378
 40
2.227384008972748
 50
58.06909105006029
 51
71.55192388186651
 73
     0
 72
     2
 10
-32.0375759838835
 20
12.29488405305719
 40
0.9059297849852797
 50
71.55192388191827
 51
113.3722778881823
 73
     0
 72
     2
 10
-32.1940160165866
 20
11.93289203434719
 40
0.5115800601960215
 50
113.372277888156
 51
151.4785267423134
 73
     0
 72
     2
 10
-31.81665875850521
 20
12.13796346368568
 40
0.9410597353348946
 50
151.4785267423306
 51
208.5214732576374
 73
     0
 72
     2
 10
-32.1940160165866
 20
12.34303489302468
 40
0.5115800601944109
 50
208.5214732575774
 51
250.6628567805146
 73
     0
 72
     2
 10
-32.0473460184829
 20
11.92507991264179
 40
0.9545230068261006
 50
250.6628567805679
 51
270.0
 73
     0
 72
     1
 10
-32.0473460184829
 20
12.87960291946789
 11
-30.9437067189148
 21
12.87960291946789
 72
     1
 10
-30.9437067189148
 20
12.87960291946789
 11
-30.9437067189148
 21
10.61105870178039
 72
     1
 10
-30.9437067189148
 20
10.61105870178039
 11
-29.75091401674709
 21
10.61105870178039
 72
     1
 10
-29.75091401674709
 20
10.61105870178039
 11
-29.75091401674709
 21
12.87960291946789
 72
     1
 10
-29.75091401674709
 20
12.87960291946789
 11
-28.93981497927371
 21
12.87960291946789
 72
     1
 10
-28.93981497927371
 20
12.87960291946789
 11
-28.93981497927371
 21
13.66486822559148
 72
     1
 10
-28.93981497927371
 20
13.66486822559148
 11
-32.32476049790239
 21
13.66486822559099
 97
       18
330
250
330
24F
330
24E
330
24D
330
252
330
1EC
330
2CA
330
2AB
330
2C9
330
2AC
330
2C8
330
2C7
330
1ED
330
2C6
330
2C5
330
2AD
330
2AE
330
251
 75
     1
 76
     0
 52
45.0
 41
0.1
 77
     0
 78
     1
 53
45.0
 43
0.0
 44
0.0
 45
-0.0707106781186548
 46
0.0707106781186548
 79
     0
 98
        1
 10
0.0
 20
0.0
  0
HATCH
  5
2FF
330
71
100
AcDbEntity
  8
1
  6
Continuous
 62
     2
100
AcDbHatch
 10
0.0
 20
0.0
 30
0.0
210
0.0
220
0.0
230
1.0
  2
_USER
 70
     0
 71
     1
 91
        1
 92
        1
 93
       18
 72
     2
 10
-32.32476049790239
 20
12.02517310165078
 40
1.639695123940209
 50
90.0
 51
164.9381082228951
 73
     1
 72
     2
 10
-32.743888341364
 20
12.13796346368568
 40
1.205656168393002
 50
164.9381082229029
 51
195.0618917770957
 73
     1
 72
     2
 10
-32.32476049790239
 20
12.25075382572049
 40
1.639695123940446
 50
195.0618917771009
 51
275.1581447696765
 73
     1
 72
     2
 10
-32.61361659263821
 20
15.45064440894208
 40
4.852596863498825
 50
275.1581447696364
 51
285.9799912583387
 73
     1
 72
     1
 10
-31.27768867552149
 20
10.78556210314068
 11
-31.27768867552149
 21
11.658079109944
 72
     2
 10
-32.4557437175454
 20
13.54842982909378
 40
2.227384008972748
 50
58.06909105006029
 51
71.55192388186651
 73
     0
 72
     2
 10
-32.0375759838835
 20
12.29488405305719
 40
0.9059297849852797
 50
71.55192388191827
 51
113.3722778881823
 73
     0
 72
     2
 10
-32.1940160165866
 20
11.93289203434719
 40
0.5115800601960215
 50
113.372277888156
 51
151.4785267423134
 73
     0
 72
     2
 10
-31.81665875850521
 20
12.13796346368568
 40
0.9410597353348946
 50
151.4785267423306
 51
208.5214732576374
 73
     0
 72
     2
 10
-32.1940160165866
 20
12.34303489302468
 40
0.5115800601944109
 50
208.5214732575774
 51
250.6628567805146
 73
     0
 72
     2
 10
-32.0473460184829
 20
11.92507991264179
 40
0.9545230068261006
 50
250.6628567805679
 51
270.0
 73
     0
 72
     1
 10
-32.0473460184829
 20
12.87960291946789
 11
-30.9437067189148
 21
12.87960291946789
 72
     1
 10
-30.9437067189148
 20
12.87960291946789
 11
-30.9437067189148
 21
10.61105870178039
 72
     1
 10
-30.9437067189148
 20
10.61105870178039
 11
-29.75091401674709
 21
10.61105870178039
 72
     1
 10
-29.75091401674709
 20
10.61105870178039
 11
-29.75091401674709
 21
12.87960291946789
 72
     1
 10
-29.75091401674709
 20
12.87960291946789
 11
-28.93981497927371
 21
12.87960291946789
 72
     1
 10
-28.93981497927371
 20
12.87960291946789
 11
-28.93981497927371
 21
13.66486822559148
 72
     1
 10
-28.93981497927371
 20
13.66486822559148
 11
-32.32476049790239
 21
13.66486822559099
 97
       18
330
250
330
24F
330
24E
330
24D
330
252
330
1EC
330
2CA
330
2AB
330
2C9
330
2AC
330
2C8
330
2C7
330
1ED
330
2C6
330
2C5
330
2AD
330
2AE
330
251
 75
     1
 76
     0
 52
45.0
 41
0.1
 77
     0
 78
     1
 53
45.0
 43
0.0
 44
0.0
 45
-0.0707106781186548
 46
0.0707106781186548
 79
     0
 98
        1
 10
0.0
 20
0.0
  0
HATCH
  5
300
330
71
100
AcDbEntity
  8
1
  6
Continuous
 62
     2
100
AcDbHatch
 10
0.0
 20
0.0
 30
0.0
210
0.0
220
0.0
230
1.0
  2
_USER
 70
     0
 71
     1
 91
        4
 92
        1
 93
        8
 72
     2
 10
-56.4269195945954
 20
16.59981408636389
 40
0.4242446153838024
 50
90.0
 51
180.0
 73
     1
 72
     1
 10
-56.85116420997821
 20
16.59981408636389
 11
-56.85116420997821
 21
11.03530331716368
 72
     2
 10
-56.4269195945954
 20
11.03530331716368
 40
0.4242446153828112
 50
180.0
 51
270.0
 73
     1
 72
     1
 10
-56.4269195945954
 20
10.61105870178039
 11
-50.9536075038786
 21
10.61105870178039
 72
     2
 10
-50.9536075038786
 20
11.03530331716368
 40
0.4242446153832891
 50
270.0
 51
360.0
 73
     1
 72
     1
 10
-50.52936288849472
 20
11.03530331716368
 11
-50.52936288849472
 21
16.59981408636389
 72
     2
 10
-50.9536075038786
 20
16.59981408636389
 40
0.4242446153838841
 50
0.0
 51
90.0
 73
     1
 72
     1
 10
-50.9536075038786
 20
17.02405870174769
 11
-56.4269195945954
 21
17.02405870174769
 97
        8
330
2BE
330
21B
330
2BD
330
21C
330
2B4
330
219
330
2BF
330
21A
 92
       16
 93
        1
 72
     2
 10
-53.8073339440779
 20
14.28093185800839
 40
0.4709789327785074
 50
0.0
 51
360.0
 73
     1
 97
        1
330
2D2
 92
       16
 93
        8
 72
     2
 10
-53.78351892940509
 20
14.28093185800839
 40
0.9118481501444573
 50
295.3740086781765
 51
424.6259913218073
 73
     1
 72
     2
 10
-53.25747623131721
 20
15.3900734579762
 40
0.3157169230767991
 50
115.3740086783517
 51
180.0
 73
     0
 72
     1
 10
-53.57319315439401
 20
15.3900734579762
 11
-53.57319315439401
 21
15.99560874648299
 72
     2
 10
-53.25747623131721
 20
15.99560874648299
 40
0.315716923076064
 50
180.0
 51
269.8110329574541
 73
     0
 72
     2
 10
-53.25186009600719
 20
14.29277379891389
 40
2.018561131933267
 50
269.8110329575858
 51
450.1889670424142
 73
     0
 72
     2
 10
-53.25747623131721
 20
12.5899388513449
 40
0.3157169230767991
 50
90.18896704254585
 51
180.0
 73
     0
 72
     1
 10
-53.57319315439401
 20
12.5899388513449
 11
-53.57319315439401
 21
13.17179025803998
 72
     2
 10
-53.25747623131721
 20
13.17179025803998
 40
0.3157169230765344
 50
180.0
 51
244.6259913216483
 73
     0
 97
        8
330
2CC
330
2A8
330
254
330
2CB
330
2A9
330
2AA
330
253
330
2A7
 92
       16
 93
       12
 72
     1
 10
-55.83302491784892
 20
11.32361425733728
 11
-54.35719165683929
 21
11.32361425733728
 72
     2
 10
-54.35719165683929
 20
11.63933118041399
 40
0.3157169230767103
 50
270.0
 51
360.0
 73
     1
 72
     1
 10
-54.0414747337627
 20
11.63933118041399
 11
-54.0414747337627
 21
13.1701021119456
 72
     2
 10
-54.35719165683929
 20
13.1701021119456
 40
0.315716923076593
 50
0.0
 51
64.8055893514591
 73
     1
 72
     2
 10
-53.83460720926431
 20
14.28093185800839
 40
0.9118975235576038
 50
115.1944106485114
 51
244.8055893514724
 73
     0
 72
     2
 10
-54.35719165683929
 20
15.39176160407058
 40
0.3157169230761233
 50
295.1944106485409
 51
360.0
 73
     1
 72
     1
 10
-54.0414747337627
 20
15.39176160407058
 11
-54.0414747337627
 21
15.99578622313109
 72
     2
 10
-54.35719165683929
 20
15.99578622313109
 40
0.315716923076593
 50
0.0
 51
90.0
 73
     1
 72
     1
 10
-54.35719165683929
 20
16.31150314620729
 11
-55.83302491784892
 21
16.31150314620729
 72
     2
 10
-55.83302491784892
 20
15.99578622313109
 40
0.3157169230762005
 50
90.0
 51
180.0
 73
     1
 72
     1
 10
-56.1487418409246
 20
15.99578622313109
 11
-56.1487418409246
 21
11.63933118041399
 72
     2
 10
-55.83302491784892
 20
11.63933118041399
 40
0.3157169230756836
 50
180.0
 51
270.0
 73
     1
 97
       12
330
220
330
2B1
330
21F
330
2C2
330
21E
330
2C1
330
2B2
330
2B3
330
21D
330
2C0
330
218
330
2C3
 75
     1
 76
     0
 52
45.0
 41
0.1
 77
     0
 78
     1
 53
45.0
 43
0.0
 44
0.0
 45
-0.0707106781186548
 46
0.0707106781186548
 79
     0
 98
        1
 10
0.0
 20
0.0
  0
HATCH
  5
301
330
71
100
AcDbEntity
  8
1
  6
Continuous
 62
     2
100
AcDbHatch
 10
0.0
 20
0.0
 30
0.0
210
0.0
220
0.0
230
1.0
  2
_USER
 70
     0
 71
     1
 91
        4
 92
        1
 93
        8
 72
     2
 10
-56.4269195945954
 20
16.59981408636389
 40
0.4242446153838024
 50
90.0
 51
180.0
 73
     1
 72
     1
 10
-56.85116420997821
 20
16.59981408636389
 11
-56.85116420997821
 21
11.03530331716368
 72
     2
 10
-56.4269195945954
 20
11.03530331716368
 40
0.4242446153828112
 50
180.0
 51
270.0
 73
     1
 72
     1
 10
-56.4269195945954
 20
10.61105870178039
 11
-50.9536075038786
 21
10.61105870178039
 72
     2
 10
-50.9536075038786
 20
11.03530331716368
 40
0.4242446153832891
 50
270.0
 51
360.0
 73
     1
 72
     1
 10
-50.52936288849472
 20
11.03530331716368
 11
-50.52936288849472
 21
16.59981408636389
 72
     2
 10
-50.9536075038786
 20
16.59981408636389
 40
0.4242446153838841
 50
0.0
 51
90.0
 73
     1
 72
     1
 10
-50.9536075038786
 20
17.02405870174769
 11
-56.4269195945954
 21
17.02405870174769
 97
        8
330
2BE
330
21B
330
2BD
330
21C
330
2B4
330
219
330
2BF
330
21A
 92
       16
 93
        1
 72
     2
 10
-53.8073339440779
 20
14.28093185800839
 40
0.4709789327785074
 50
0.0
 51
360.0
 73
     1
 97
        1
330
2D2
 92
       16
 93
        8
 72
     2
 10
-53.78351892940509
 20
14.28093185800839
 40
0.9118481501444573
 50
295.3740086781765
 51
424.6259913218073
 73
     1
 72
     2
 10
-53.25747623131721
 20
15.3900734579762
 40
0.3157169230767991
 50
115.3740086783517
 51
180.0
 73
     0
 72
     1
 10
-53.57319315439401
 20
15.3900734579762
 11
-53.57319315439401
 21
15.99560874648299
 72
     2
 10
-53.25747623131721
 20
15.99560874648299
 40
0.315716923076064
 50
180.0
 51
269.8110329574541
 73
     0
 72
     2
 10
-53.25186009600719
 20
14.29277379891389
 40
2.018561131933267
 50
269.8110329575858
 51
450.1889670424142
 73
     0
 72
     2
 10
-53.25747623131721
 20
12.5899388513449
 40
0.3157169230767991
 50
90.18896704254585
 51
180.0
 73
     0
 72
     1
 10
-53.57319315439401
 20
12.5899388513449
 11
-53.57319315439401
 21
13.17179025803998
 72
     2
 10
-53.25747623131721
 20
13.17179025803998
 40
0.3157169230765344
 50
180.0
 51
244.6259913216483
 73
     0
 97
        8
330
2CC
330
2A8
330
254
330
2CB
330
2A9
330
2AA
330
253
330
2A7
 92
       16
 93
       12
 72
     1
 10
-55.83302491784892
 20
11.32361425733728
 11
-54.35719165683929
 21
11.32361425733728
 72
     2
 10
-54.35719165683929
 20
11.63933118041399
 40
0.3157169230767103
 50
270.0
 51
360.0
 73
     1
 72
     1
 10
-54.0414747337627
 20
11.63933118041399
 11
-54.0414747337627
 21
13.1701021119456
 72
     2
 10
-54.35719165683929
 20
13.1701021119456
 40
0.315716923076593
 50
0.0
 51
64.8055893514591
 73
     1
 72
     2
 10
-53.83460720926431
 20
14.28093185800839
 40
0.9118975235576038
 50
115.1944106485114
 51
244.8055893514724
 73
     0
 72
     2
 10
-54.35719165683929
 20
15.39176160407058
 40
0.3157169230761233
 50
295.1944106485409
 51
360.0
 73
     1
 72
     1
 10
-54.0414747337627
 20
15.39176160407058
 11
-54.0414747337627
 21
15.99578622313109
 72
     2
 10
-54.35719165683929
 20
15.99578622313109
 40
0.315716923076593
 50
0.0
 51
90.0
 73
     1
 72
     1
 10
-54.35719165683929
 20
16.31150314620729
 11
-55.83302491784892
 21
16.31150314620729
 72
     2
 10
-55.83302491784892
 20
15.99578622313109
 40
0.3157169230762005
 50
90.0
 51
180.0
 73
     1
 72
     1
 10
-56.1487418409246
 20
15.99578622313109
 11
-56.1487418409246
 21
11.63933118041399
 72
     2
 10
-55.83302491784892
 20
11.63933118041399
 40
0.3157169230756836
 50
180.0
 51
270.0
 73
     1
 97
       12
330
220
330
2B1
330
21F
330
2C2
330
21E
330
2C1
330
2B2
330
2B3
330
21D
330
2C0
330
218
330
2C3
 75
     1
 76
     0
 52
45.0
 41
0.1
 77
     0
 78
     1
 53
45.0
 43
0.0
 44
0.0
 45
-0.0707106781186548
 46
0.0707106781186548
 79
     0
 98
        1
 10
0.0
 20
0.0
  0
HATCH
  5
302
330
71
100
AcDbEntity
  8
1
  6
Continuous
 62
     2
100
AcDbHatch
 10
0.0
 20
0.0
 30
0.0
210
0.0
220
0.0
230
1.0
  2
_USER
 70
     0
 71
     1
 91
        2
 92
        1
 93
       12
 72
     2
 10
-41.75175559060611
 20
15.49715393986
 40
1.526904761905881
 50
90.0
 51
270.0
 73
     1
 72
     1
 10
-41.75175559060611
 20
13.97024917795469
 11
-38.60143586682511
 21
13.97024917795469
 72
     1
 10
-38.60143586682511
 20
13.97024917795469
 11
-38.60143586682511
 21
14.66826278339718
 72
     1
 10
-38.60143586682511
 20
14.66826278339718
 11
-39.93736369325279
 21
14.66826278339718
 72
     1
 10
-39.93736369325279
 20
14.66826278339718
 11
-39.93736369325279
 21
15.14814713713889
 72
     1
 10
-39.93736369325279
 20
15.14814713713889
 11
-38.60143586682511
 21
15.14814713713889
 72
     1
 10
-38.60143586682511
 20
15.14814713713889
 11
-38.60143586682511
 21
15.84616074258119
 72
     1
 10
-38.60143586682511
 20
15.84616074258119
 11
-39.93736369325279
 21
15.84616074258119
 72
     1
 10
-39.93736369325279
 20
15.84616074258119
 11
-39.93736369325279
 21
16.3260450963229
 72
     1
 10
-39.93736369325279
 20
16.3260450963229
 11
-38.60143586682511
 21
16.3260450963229
 72
     1
 10
-38.60143586682511
 20
16.3260450963229
 11
-38.60143586682511
 21
17.02405870176588
 72
     1
 10
-38.60143586682511
 20
17.02405870176588
 11
-41.75175559060611
 21
17.02405870176588
 97
       12
330
20F
330
209
330
230
330
22F
330
22E
330
22D
330
20A
330
20B
330
20C
330
20D
330
2AF
330
20E
 92
       16
 93
        4
 72
     2
 10
-41.33574354409461
 20
15.49715393986
 40
0.7717997786796724
 50
141.8795802028404
 51
218.1204197971561
 73
     1
 72
     2
 10
-41.53548358044091
 20
15.34042276173958
 40
0.5179085730134382
 50
218.1204197971512
 51
321.879580202856
 73
     1
 72
     2
 10
-41.7352236167871
 20
15.49715393986
 40
0.7717997786796362
 50
321.8795802028439
 51
398.1204197971596
 73
     1
 72
     2
 10
-41.53548358044091
 20
15.65388511798048
 40
0.517908573013522
 50
38.12041979714398
 51
141.8795802028488
 73
     1
 97
        4
330
2BC
330
2BB
330
2B6
330
2B5
 75
     1
 76
     0
 52
45.0
 41
0.1
 77
     0
 78
     1
 53
45.0
 43
0.0
 44
0.0
 45
-0.0707106781186548
 46
0.0707106781186548
 79
     0
 98
        1
 10
0.0
 20
0.0
  0
HATCH
  5
303
330
71
100
AcDbEntity
  8
1
  6
Continuous
 62
     2
100
AcDbHatch
 10
0.0
 20
0.0
 30
0.0
210
0.0
220
0.0
230
1.0
  2
_USER
 70
     0
 71
     1
 91
        2
 92
        1
 93
       12
 72
     2
 10
-41.75175559060611
 20
15.49715393986
 40
1.526904761905881
 50
90.0
 51
270.0
 73
     1
 72
     1
 10
-41.75175559060611
 20
13.97024917795469
 11
-38.60143586682511
 21
13.97024917795469
 72
     1
 10
-38.60143586682511
 20
13.97024917795469
 11
-38.60143586682511
 21
14.66826278339718
 72
     1
 10
-38.60143586682511
 20
14.66826278339718
 11
-39.93736369325279
 21
14.66826278339718
 72
     1
 10
-39.93736369325279
 20
14.66826278339718
 11
-39.93736369325279
 21
15.14814713713889
 72
     1
 10
-39.93736369325279
 20
15.14814713713889
 11
-38.60143586682511
 21
15.14814713713889
 72
     1
 10
-38.60143586682511
 20
15.14814713713889
 11
-38.60143586682511
 21
15.84616074258119
 72
     1
 10
-38.60143586682511
 20
15.84616074258119
 11
-39.93736369325279
 21
15.84616074258119
 72
     1
 10
-39.93736369325279
 20
15.84616074258119
 11
-39.93736369325279
 21
16.3260450963229
 72
     1
 10
-39.93736369325279
 20
16.3260450963229
 11
-38.60143586682511
 21
16.3260450963229
 72
     1
 10
-38.60143586682511
 20
16.3260450963229
 11
-38.60143586682511
 21
17.02405870176588
 72
     1
 10
-38.60143586682511
 20
17.02405870176588
 11
-41.75175559060611
 21
17.02405870176588
 97
       12
330
20F
330
209
330
230
330
22F
330
22E
330
22D
330
20A
330
20B
330
20C
330
20D
330
2AF
330
20E
 92
       16
 93
        4
 72
     2
 10
-41.33574354409461
 20
15.49715393986
 40
0.7717997786796724
 50
141.8795802028404
 51
218.1204197971561
 73
     1
 72
     2
 10
-41.53548358044091
 20
15.34042276173958
 40
0.5179085730134382
 50
218.1204197971512
 51
321.879580202856
 73
     1
 72
     2
 10
-41.7352236167871
 20
15.49715393986
 40
0.7717997786796362
 50
321.8795802028439
 51
398.1204197971596
 73
     1
 72
     2
 10
-41.53548358044091
 20
15.65388511798048
 40
0.517908573013522
 50
38.12041979714398
 51
141.8795802028488
 73
     1
 97
        4
330
2BC
330
2BB
330
2B6
330
2B5
 75
     1
 76
     0
 52
45.0
 41
0.1
 77
     0
 78
     1
 53
45.0
 43
0.0
 44
0.0
 45
-0.0707106781186548
 46
0.0707106781186548
 79
     0
 98
        1
 10
0.0
 20
0.0
  0
HATCH
  5
304
330
71
100
AcDbEntity
  8
1
  6
Continuous
 62
     2
100
AcDbHatch
 10
0.0
 20
0.0
 30
0.0
210
0.0
220
0.0
230
1.0
  2
_USER
 70
     0
 71
     1
 91
        2
 92
        1
 93
        4
 72
     2
 10
-45.7773709530677
 20
12.13796346368568
 40
1.458034083651492
 50
117.5481481756624
 51
242.4518518243375
 73
     1
 72
     2
 10
-45.4964310612344
 20
12.67653847398898
 40
2.065479772208509
 50
242.45185182434
 51
297.5481481756869
 73
     1
 72
     2
 10
-45.21549116940111
 20
12.13796346368568
 40
1.458034083652006
 50
297.5481481757013
 51
422.4518518242987
 73
     1
 72
     2
 10
-45.4964310612344
 20
11.59938845338289
 40
2.065479772208563
 50
62.45185182430652
 51
117.5481481756666
 73
     1
 97
        4
330
2BA
330
2B7
330
2B9
330
2B8
 92
       16
 93
        4
 72
     2
 10
-45.4964310612344
 20
12.29469464180619
 40
0.517908573013291
 50
38.12041979714706
 51
141.8795802028602
 73
     1
 72
     2
 10
-45.2966910248883
 20
12.13796346368568
 40
0.7717997786794721
 50
141.8795802028372
 51
218.120419797168
 73
     1
 72
     2
 10
-45.4964310612344
 20
11.98123228556568
 40
0.5179085730137455
 50
218.120419797192
 51
321.8795802028007
 73
     1
 72
     2
 10
-45.69617109758082
 20
12.13796346368568
 40
0.7717997786797003
 50
321.879580202842
 51
398.1204197971528
 73
     1
 97
        4
330
29D
330
29E
330
29F
330
29C
 75
     1
 76
     0
 52
45.0
 41
0.1
 77
     0
 78
     1
 53
45.0
 43
0.0
 44
0.0
 45
-0.0707106781186548
 46
0.0707106781186548
 79
     0
 98
        1
 10
0.0
 20
0.0
  0
HATCH
  5
305
330
71
100
AcDbEntity
  8
1
  6
Continuous
 62
     2
100
AcDbHatch
 10
0.0
 20
0.0
 30
0.0
210
0.0
220
0.0
230
1.0
  2
_USER
 70
     0
 71
     1
 91
        2
 92
        1
 93
        4
 72
     2
 10
-45.7773709530677
 20
12.13796346368568
 40
1.458034083651492
 50
117.5481481756624
 51
242.4518518243375
 73
     1
 72
     2
 10
-45.4964310612344
 20
12.67653847398898
 40
2.065479772208509
 50
242.45185182434
 51
297.5481481756869
 73
     1
 72
     2
 10
-45.21549116940111
 20
12.13796346368568
 40
1.458034083652006
 50
297.5481481757013
 51
422.4518518242987
 73
     1
 72
     2
 10
-45.4964310612344
 20
11.59938845338289
 40
2.065479772208563
 50
62.45185182430652
 51
117.5481481756666
 73
     1
 97
        4
330
2BA
330
2B7
330
2B9
330
2B8
 92
       16
 93
        4
 72
     2
 10
-45.4964310612344
 20
12.29469464180619
 40
0.517908573013291
 50
38.12041979714706
 51
141.8795802028602
 73
     1
 72
     2
 10
-45.2966910248883
 20
12.13796346368568
 40
0.7717997786794721
 50
141.8795802028372
 51
218.120419797168
 73
     1
 72
     2
 10
-45.4964310612344
 20
11.98123228556568
 40
0.5179085730137455
 50
218.120419797192
 51
321.8795802028007
 73
     1
 72
     2
 10
-45.69617109758082
 20
12.13796346368568
 40
0.7717997786797003
 50
321.879580202842
 51
398.1204197971528
 73
     1
 97
        4
330
29D
330
29E
330
29F
330
29C
 75
     1
 76
     0
 52
45.0
 41
0.1
 77
     0
 78
     1
 53
45.0
 43
0.0
 44
0.0
 45
-0.0707106781186548
 46
0.0707106781186548
 79
     0
 98
        1
 10
0.0
 20
0.0
  0
HATCH
  5
306
330
71
100
AcDbEntity
  8
1
  6
Continuous
 62
     2
100
AcDbHatch
 10
0.0
 20
0.0
 30
0.0
210
0.0
220
0.0
230
1.0
  2
_USER
 70
     0
 71
     1
 91
        2
 92
        1
 93
        6
 72
     1
 10
-50.05224580762791
 20
17.02405870176588
 11
-50.05224580762791
 21
13.97024917795469
 72
     1
 10
-50.05224580762791
 20
13.97024917795469
 11
-48.81174139737379
 21
13.97024917795469
 72
     1
 10
-48.81174139737379
 20
13.97024917795469
 11
-48.81174139737379
 21
14.91332741909849
 72
     1
 10
-48.81174139737379
 20
14.91332741909849
 11
-48.05297380959351
 21
14.91332741909849
 72
     2
 10
-48.05297380959351
 20
15.9686930604322
 40
1.05536564133371
 50
270.0
 51
450.0
 73
     1
 72
     1
 10
-48.05297380959351
 20
17.02405870176588
 11
-50.05224580762791
 21
17.02405870176588
 97
        6
330
2C4
330
221
330
217
330
216
330
223
330
222
 92
       16
 93
        4
 72
     1
 10
-48.4944463358319
 20
16.36095285632578
 11
-48.81174139737379
 21
16.36095285632578
 72
     1
 10
-48.81174139737379
 20
16.36095285632578
 11
-48.81174139737379
 21
15.65522520698357
 72
     1
 10
-48.81174139737379
 20
15.65522520698357
 11
-48.4944463358319
 21
15.65522520698357
 72
     2
 10
-48.4944463358319
 20
16.00808903165469
 40
0.3528638246711218
 50
270.0
 51
450.0
 73
     1
 97
        4
330
224
330
215
330
225
330
2B0
 75
     1
 76
     0
 52
45.0
 41
0.1
 77
     0
 78
     1
 53
45.0
 43
0.0
 44
0.0
 45
-0.0707106781186548
 46
0.0707106781186548
 79
     0
 98
        1
 10
0.0
 20
0.0
  0
HATCH
  5
307
330
71
100
AcDbEntity
  8
1
  6
Continuous
 62
     2
100
AcDbHatch
 10
0.0
 20
0.0
 30
0.0
210
0.0
220
0.0
230
1.0
  2
_USER
 70
     0
 71
     1
 91
        2
 92
        1
 93
        6
 72
     1
 10
-50.05224580762791
 20
17.02405870176588
 11
-50.05224580762791
 21
13.97024917795469
 72
     1
 10
-50.05224580762791
 20
13.97024917795469
 11
-48.81174139737379
 21
13.97024917795469
 72
     1
 10
-48.81174139737379
 20
13.97024917795469
 11
-48.81174139737379
 21
14.91332741909849
 72
     1
 10
-48.81174139737379
 20
14.91332741909849
 11
-48.05297380959351
 21
14.91332741909849
 72
     2
 10
-48.05297380959351
 20
15.9686930604322
 40
1.05536564133371
 50
270.0
 51
450.0
 73
     1
 72
     1
 10
-48.05297380959351
 20
17.02405870176588
 11
-50.05224580762791
 21
17.02405870176588
 97
        6
330
2C4
330
221
330
217
330
216
330
223
330
222
 92
       16
 93
        4
 72
     1
 10
-48.4944463358319
 20
16.36095285632578
 11
-48.81174139737379
 21
16.36095285632578
 72
     1
 10
-48.81174139737379
 20
16.36095285632578
 11
-48.81174139737379
 21
15.65522520698357
 72
     1
 10
-48.81174139737379
 20
15.65522520698357
 11
-48.4944463358319
 21
15.65522520698357
 72
     2
 10
-48.4944463358319
 20
16.00808903165469
 40
0.3528638246711218
 50
270.0
 51
450.0
 73
     1
 97
        4
330
224
330
215
330
225
330
2B0
 75
     1
 76
     0
 52
45.0
 41
0.1
 77
     0
 78
     1
 53
45.0
 43
0.0
 44
0.0
 45
-0.0707106781186548
 46
0.0707106781186548
 79
     0
 98
        1
 10
0.0
 20
0.0
  0
HATCH
  5
308
330
71
100
AcDbEntity
  8
1
  6
Continuous
 62
     2
100
AcDbHatch
 10
0.0
 20
0.0
 30
0.0
210
0.0
220
0.0
230
1.0
  2
_USER
 70
     0
 71
     1
 91
        1
 92
        1
 93
       12
 72
     1
 10
-30.43796261319471
 20
17.02405870176588
 11
-29.03523839544749
 21
17.02405870176588
 72
     1
 10
-29.03523839544749
 20
17.02405870176588
 11
-30.33776802621401
 21
15.55110817172968
 72
     1
 10
-30.33776802621401
 20
15.55110817172968
 11
-28.93981497927371
 21
13.97024917795469
 72
     1
 10
-28.93981497927371
 20
13.97024917795469
 11
-30.34253919702201
 21
13.97024917795469
 72
     1
 10
-30.34253919702201
 20
13.97024917795469
 11
-31.0391301350875
 21
14.7579809632484
 72
     1
 10
-31.0391301350875
 20
14.7579809632484
 11
-31.7357210731532
 21
13.97024917795469
 72
     1
 10
-31.7357210731532
 20
13.97024917795469
 11
-33.13844529090142
 21
13.97024917795469
 72
     1
 10
-33.13844529090142
 20
13.97024917795469
 11
-31.74049224396111
 21
15.55110817172968
 72
     1
 10
-31.74049224396111
 20
15.55110817172968
 11
-33.0430218747286
 21
17.02405870176588
 72
     1
 10
-33.0430218747286
 20
17.02405870176588
 11
-31.6402976569793
 21
17.02405870176588
 72
     1
 10
-31.6402976569793
 20
17.02405870176588
 11
-31.0391301350875
 21
16.34423538021039
 72
     1
 10
-31.0391301350875
 20
16.34423538021039
 11
-30.43796261319471
 21
17.02405870176588
 97
       12
330
1F0
330
249
330
248
330
247
330
246
330
1F1
330
1F2
330
1EE
330
1EF
330
24C
330
24B
330
24A
 75
     1
 76
     0
 52
45.0
 41
0.1
 77
     0
 78
     1
 53
45.0
 43
0.0
 44
0.0
 45
-0.0707106781186548
 46
0.0707106781186548
 79
     0
 98
        1
 10
0.0
 20
0.0
  0
HATCH
  5
309
330
71
100
AcDbEntity
  8
1
  6
Continuous
 62
     2
100
AcDbHatch
 10
0.0
 20
0.0
 30
0.0
210
0.0
220
0.0
230
1.0
  2
_USER
 70
     0
 71
     1
 91
        1
 92
        1
 93
       12
 72
     1
 10
-30.43796261319471
 20
17.02405870176588
 11
-29.03523839544749
 21
17.02405870176588
 72
     1
 10
-29.03523839544749
 20
17.02405870176588
 11
-30.33776802621401
 21
15.55110817172968
 72
     1
 10
-30.33776802621401
 20
15.55110817172968
 11
-28.93981497927371
 21
13.97024917795469
 72
     1
 10
-28.93981497927371
 20
13.97024917795469
 11
-30.34253919702201
 21
13.97024917795469
 72
     1
 10
-30.34253919702201
 20
13.97024917795469
 11
-31.0391301350875
 21
14.7579809632484
 72
     1
 10
-31.0391301350875
 20
14.7579809632484
 11
-31.7357210731532
 21
13.97024917795469
 72
     1
 10
-31.7357210731532
 20
13.97024917795469
 11
-33.13844529090142
 21
13.97024917795469
 72
     1
 10
-33.13844529090142
 20
13.97024917795469
 11
-31.74049224396111
 21
15.55110817172968
 72
     1
 10
-31.74049224396111
 20
15.55110817172968
 11
-33.0430218747286
 21
17.02405870176588
 72
     1
 10
-33.0430218747286
 20
17.02405870176588
 11
-31.6402976569793
 21
17.02405870176588
 72
     1
 10
-31.6402976569793
 20
17.02405870176588
 11
-31.0391301350875
 21
16.34423538021039
 72
     1
 10
-31.0391301350875
 20
16.34423538021039
 11
-30.43796261319471
 21
17.02405870176588
 97
       12
330
1F0
330
249
330
248
330
247
330
246
330
1F1
330
1F2
330
1EE
330
1EF
330
24C
330
24B
330
24A
 75
     1
 76
     0
 52
45.0
 41
0.1
 77
     0
 78
     1
 53
45.0
 43
0.0
 44
0.0
 45
-0.0707106781186548
 46
0.0707106781186548
 79
     0
 98
        1
 10
0.0
 20
0.0
  0
HATCH
  5
30A
330
71
100
AcDbEntity
  8
1
  6
Continuous
 62
     2
100
AcDbHatch
 10
0.0
 20
0.0
 30
0.0
210
0.0
220
0.0
230
1.0
  2
_USER
 70
     0
 71
     1
 91
        1
 92
        1
 93
        4
 72
     1
 10
-33.2577245611183
 20
17.02405870176588
 11
-33.2577245611183
 21
13.97024917795469
 72
     1
 10
-33.2577245611183
 20
13.97024917795469
 11
-34.49822897137119
 21
13.97024917795469
 72
     1
 10
-34.49822897137119
 20
13.97024917795469
 11
-34.49822897137119
 21
17.02405870176588
 72
     1
 10
-34.49822897137119
 20
17.02405870176588
 11
-33.2577245611183
 21
17.02405870176588
 97
        4
330
244
330
1F3
330
243
330
245
 75
     1
 76
     0
 52
45.0
 41
0.1
 77
     0
 78
     1
 53
45.0
 43
0.0
 44
0.0
 45
-0.0707106781186548
 46
0.0707106781186548
 79
     0
 98
        1
 10
0.0
 20
0.0
  0
HATCH
  5
30B
330
71
100
AcDbEntity
  8
1
  6
Continuous
 62
     2
100
AcDbHatch
 10
0.0
 20
0.0
 30
0.0
210
0.0
220
0.0
230
1.0
  2
_USER
 70
     0
 71
     1
 91
        1
 92
        1
 93
        4
 72
     1
 10
-33.2577245611183
 20
17.02405870176588
 11
-33.2577245611183
 21
13.97024917795469
 72
     1
 10
-33.2577245611183
 20
13.97024917795469
 11
-34.49822897137119
 21
13.97024917795469
 72
     1
 10
-34.49822897137119
 20
13.97024917795469
 11
-34.49822897137119
 21
17.02405870176588
 72
     1
 10
-34.49822897137119
 20
17.02405870176588
 11
-33.2577245611183
 21
17.02405870176588
 97
        4
330
244
330
1F3
330
243
330
245
 75
     1
 76
     0
 52
45.0
 41
0.1
 77
     0
 78
     1
 53
45.0
 43
0.0
 44
0.0
 45
-0.0707106781186548
 46
0.0707106781186548
 79
     0
 98
        1
 10
0.0
 20
0.0
  0
HATCH
  5
30C
330
71
100
AcDbEntity
  8
1
  6
Continuous
 62
     2
100
AcDbHatch
 10
0.0
 20
0.0
 30
0.0
210
0.0
220
0.0
230
1.0
  2
_USER
 70
     0
 71
     1
 91
        2
 92
        1
 93
        8
 72
     1
 10
-33.64816856465029
 20
10.61105870178039
 11
-34.88867297490421
 21
10.61105870178039
 72
     1
 10
-34.88867297490421
 20
10.61105870178039
 11
-35.10015302837999
 21
11.15201924599828
 72
     1
 10
-35.10015302837999
 20
11.15201924599828
 11
-36.23259460505381
 21
11.15201924599828
 72
     1
 10
-36.23259460505381
 20
11.15201924599828
 11
-36.44407465852962
 21
10.61105870178039
 72
     1
 10
-36.44407465852962
 20
10.61105870178039
 11
-37.6845790687826
 21
10.61105870178039
 72
     1
 10
-37.6845790687826
 20
10.61105870178039
 11
-36.28662602184329
 21
13.66486822559148
 72
     1
 10
-36.28662602184329
 20
13.66486822559148
 11
-35.04612161159059
 21
13.66486822559148
 72
     1
 10
-35.04612161159059
 20
13.66486822559148
 11
-33.64816856465029
 21
10.61105870178039
 97
        8
330
23F
330
1F9
330
23E
330
241
330
1F6
330
240
330
1F7
330
1F8
 92
       16
 93
        3
 72
     1
 10
-35.9665390539088
 20
11.83258251130488
 11
-35.3662085795263
 21
11.83258251130488
 72
     1
 10
-35.3662085795263
 20
11.83258251130488
 11
-35.6663738167164
 21
12.60039747729158
 72
     1
 10
-35.6663738167164
 20
12.60039747729158
 11
-35.9665390539088
 21
11.83258251130488
 97
        3
330
1F5
330
1F4
330
242
 75
     1
 76
     0
 52
45.0
 41
0.1
 77
     0
 78
     1
 53
45.0
 43
0.0
 44
0.0
 45
-0.0707106781186548
 46
0.0707106781186548
 79
     0
 98
        1
 10
0.0
 20
0.0
  0
HATCH
  5
30D
330
71
100
AcDbEntity
  8
1
  6
Continuous
 62
     2
100
AcDbHatch
 10
0.0
 20
0.0
 30
0.0
210
0.0
220
0.0
230
1.0
  2
_USER
 70
     0
 71
     1
 91
        2
 92
        1
 93
        8
 72
     1
 10
-33.64816856465029
 20
10.61105870178039
 11
-34.88867297490421
 21
10.61105870178039
 72
     1
 10
-34.88867297490421
 20
10.61105870178039
 11
-35.10015302837999
 21
11.15201924599828
 72
     1
 10
-35.10015302837999
 20
11.15201924599828
 11
-36.23259460505381
 21
11.15201924599828
 72
     1
 10
-36.23259460505381
 20
11.15201924599828
 11
-36.44407465852962
 21
10.61105870178039
 72
     1
 10
-36.44407465852962
 20
10.61105870178039
 11
-37.6845790687826
 21
10.61105870178039
 72
     1
 10
-37.6845790687826
 20
10.61105870178039
 11
-36.28662602184329
 21
13.66486822559148
 72
     1
 10
-36.28662602184329
 20
13.66486822559148
 11
-35.04612161159059
 21
13.66486822559148
 72
     1
 10
-35.04612161159059
 20
13.66486822559148
 11
-33.64816856465029
 21
10.61105870178039
 97
        8
330
23F
330
1F9
330
23E
330
241
330
1F6
330
240
330
1F7
330
1F8
 92
       16
 93
        3
 72
     1
 10
-35.9665390539088
 20
11.83258251130488
 11
-35.3662085795263
 21
11.83258251130488
 72
     1
 10
-35.3662085795263
 20
11.83258251130488
 11
-35.6663738167164
 21
12.60039747729158
 72
     1
 10
-35.6663738167164
 20
12.60039747729158
 11
-35.9665390539088
 21
11.83258251130488
 97
        3
330
1F5
330
1F4
330
242
 75
     1
 76
     0
 52
45.0
 41
0.1
 77
     0
 78
     1
 53
45.0
 43
0.0
 44
0.0
 45
-0.0707106781186548
 46
0.0707106781186548
 79
     0
 98
        1
 10
0.0
 20
0.0
  0
HATCH
  5
30E
330
71
100
AcDbEntity
  8
1
  6
Continuous
 62
     2
100
AcDbHatch
 10
0.0
 20
0.0
 30
0.0
210
0.0
220
0.0
230
1.0
  2
_USER
 70
     0
 71
     1
 91
        1
 92
        1
 93
        8
 72
     1
 10
-39.84209120796481
 20
13.66486822559148
 11
-39.84209120796481
 21
12.87960291946789
 72
     1
 10
-39.84209120796481
 20
12.87960291946789
 11
-39.03099217049021
 21
12.87960291946789
 72
     1
 10
-39.03099217049021
 20
12.87960291946789
 11
-39.03099217049021
 21
10.61105870178039
 72
     1
 10
-39.03099217049021
 20
10.61105870178039
 11
-37.83819946832369
 21
10.61105870178039
 72
     1
 10
-37.83819946832369
 20
10.61105870178039
 11
-37.83819946832369
 21
12.87960291946789
 72
     1
 10
-37.83819946832369
 20
12.87960291946789
 11
-37.02710043085119
 21
12.87960291946789
 72
     1
 10
-37.02710043085119
 20
12.87960291946789
 11
-37.02710043085119
 21
13.66486822559148
 72
     1
 10
-37.02710043085119
 20
13.66486822559148
 11
-39.84209120796481
 21
13.66486822559148
 97
        8
330
23B
330
23A
330
239
330
1FA
330
1FB
330
23D
330
1FC
330
23C
 75
     1
 76
     0
 52
45.0
 41
0.1
 77
     0
 78
     1
 53
45.0
 43
0.0
 44
0.0
 45
-0.0707106781186548
 46
0.0707106781186548
 79
     0
 98
        1
 10
0.0
 20
0.0
  0
HATCH
  5
30F
330
71
100
AcDbEntity
  8
1
  6
Continuous
 62
     2
100
AcDbHatch
 10
0.0
 20
0.0
 30
0.0
210
0.0
220
0.0
230
1.0
  2
_USER
 70
     0
 71
     1
 91
        1
 92
        1
 93
        8
 72
     1
 10
-39.84209120796481
 20
13.66486822559148
 11
-39.84209120796481
 21
12.87960291946789
 72
     1
 10
-39.84209120796481
 20
12.87960291946789
 11
-39.03099217049021
 21
12.87960291946789
 72
     1
 10
-39.03099217049021
 20
12.87960291946789
 11
-39.03099217049021
 21
10.61105870178039
 72
     1
 10
-39.03099217049021
 20
10.61105870178039
 11
-37.83819946832369
 21
10.61105870178039
 72
     1
 10
-37.83819946832369
 20
10.61105870178039
 11
-37.83819946832369
 21
12.87960291946789
 72
     1
 10
-37.83819946832369
 20
12.87960291946789
 11
-37.02710043085119
 21
12.87960291946789
 72
     1
 10
-37.02710043085119
 20
12.87960291946789
 11
-37.02710043085119
 21
13.66486822559148
 72
     1
 10
-37.02710043085119
 20
13.66486822559148
 11
-39.84209120796481
 21
13.66486822559148
 97
        8
330
23B
330
23A
330
239
330
1FA
330
1FB
330
23D
330
1FC
330
23C
 75
     1
 76
     0
 52
45.0
 41
0.1
 77
     0
 78
     1
 53
45.0
 43
0.0
 44
0.0
 45
-0.0707106781186548
 46
0.0707106781186548
 79
     0
 98
        1
 10
0.0
 20
0.0
  0
HATCH
  5
310
330
71
100
AcDbEntity
  8
1
  6
Continuous
 62
     2
100
AcDbHatch
 10
0.0
 20
0.0
 30
0.0
210
0.0
220
0.0
230
1.0
  2
_USER
 70
     0
 71
     1
 91
        1
 92
        1
 93
       10
 72
     1
 10
-37.17008462422569
 20
17.02405870176588
 11
-38.36287732639221
 21
17.02405870176588
 72
     1
 10
-38.36287732639221
 20
17.02405870176588
 11
-38.36287732639221
 21
13.97024917795469
 72
     1
 10
-38.36287732639221
 20
13.97024917795469
 11
-37.17008462422569
 21
13.97024917795469
 72
     1
 10
-37.17008462422569
 20
13.97024917795469
 11
-37.17008462422569
 21
15.27902468815938
 72
     1
 10
-37.17008462422569
 20
15.27902468815938
 11
-35.92958021397169
 21
13.97024917795469
 72
     1
 10
-35.92958021397169
 20
13.97024917795469
 11
-34.73678751180509
 21
13.97024917795469
 72
     1
 10
-34.73678751180509
 20
13.97024917795469
 11
-34.73678751180509
 21
17.02405870176588
 72
     1
 10
-34.73678751180509
 20
17.02405870176588
 11
-35.92958021397169
 21
17.02405870176588
 72
     1
 10
-35.92958021397169
 20
17.02405870176588
 11
-35.92958021397169
 21
15.7152831915607
 72
     1
 10
-35.92958021397169
 20
15.7152831915607
 11
-37.17008462422569
 21
17.02405870176588
 97
       10
330
235
330
1FF
330
200
330
201
330
202
330
238
330
1FD
330
237
330
236
330
1FE
 75
     1
 76
     0
 52
45.0
 41
0.1
 77
     0
 78
     1
 53
45.0
 43
0.0
 44
0.0
 45
-0.0707106781186548
 46
0.0707106781186548
 79
     0
 98
        1
 10
0.0
 20
0.0
  0
HATCH
  5
311
330
71
100
AcDbEntity
  8
1
  6
Continuous
 62
     2
100
AcDbHatch
 10
0.0
 20
0.0
 30
0.0
210
0.0
220
0.0
230
1.0
  2
_USER
 70
     0
 71
     1
 91
        1
 92
        1
 93
       10
 72
     1
 10
-37.17008462422569
 20
17.02405870176588
 11
-38.36287732639221
 21
17.02405870176588
 72
     1
 10
-38.36287732639221
 20
17.02405870176588
 11
-38.36287732639221
 21
13.97024917795469
 72
     1
 10
-38.36287732639221
 20
13.97024917795469
 11
-37.17008462422569
 21
13.97024917795469
 72
     1
 10
-37.17008462422569
 20
13.97024917795469
 11
-37.17008462422569
 21
15.27902468815938
 72
     1
 10
-37.17008462422569
 20
15.27902468815938
 11
-35.92958021397169
 21
13.97024917795469
 72
     1
 10
-35.92958021397169
 20
13.97024917795469
 11
-34.73678751180509
 21
13.97024917795469
 72
     1
 10
-34.73678751180509
 20
13.97024917795469
 11
-34.73678751180509
 21
17.02405870176588
 72
     1
 10
-34.73678751180509
 20
17.02405870176588
 11
-35.92958021397169
 21
17.02405870176588
 72
     1
 10
-35.92958021397169
 20
17.02405870176588
 11
-35.92958021397169
 21
15.7152831915607
 72
     1
 10
-35.92958021397169
 20
15.7152831915607
 11
-37.17008462422569
 21
17.02405870176588
 97
       10
330
235
330
1FF
330
200
330
201
330
202
330
238
330
1FD
330
237
330
236
330
1FE
 75
     1
 76
     0
 52
45.0
 41
0.1
 77
     0
 78
     1
 53
45.0
 43
0.0
 44
0.0
 45
-0.0707106781186548
 46
0.0707106781186548
 79
     0
 98
        1
 10
0.0
 20
0.0
  0
HATCH
  5
312
330
71
100
AcDbEntity
  8
1
  6
Continuous
 62
     2
100
AcDbHatch
 10
0.0
 20
0.0
 30
0.0
210
0.0
220
0.0
230
1.0
  2
_USER
 70
     0
 71
     1
 91
        1
 92
        1
 93
       10
 72
     1
 10
-42.41852344464431
 20
13.66486822559148
 11
-43.6113161468119
 21
13.66486822559148
 72
     1
 10
-43.6113161468119
 20
13.66486822559148
 11
-43.6113161468119
 21
10.61105870178039
 72
     1
 10
-43.6113161468119
 20
10.61105870178039
 11
-42.41852344464431
 21
10.61105870178039
 72
     1
 10
-42.41852344464431
 20
10.61105870178039
 11
-42.41852344464431
 21
11.91983421198498
 72
     1
 10
-42.41852344464431
 20
11.91983421198498
 11
-41.17801903439141
 21
10.61105870178039
 72
     1
 10
-41.17801903439141
 20
10.61105870178039
 11
-39.98522633222501
 21
10.61105870178039
 72
     1
 10
-39.98522633222501
 20
10.61105870178039
 11
-39.98522633222501
 21
13.66486822559148
 72
     1
 10
-39.98522633222501
 20
13.66486822559148
 11
-41.17801903439141
 21
13.66486822559148
 72
     1
 10
-41.17801903439141
 20
13.66486822559148
 11
-41.17801903439141
 21
12.35609271538638
 72
     1
 10
-41.17801903439141
 20
12.35609271538638
 11
-42.41852344464431
 21
13.66486822559148
 97
       10
330
204
330
205
330
206
330
232
330
207
330
208
330
231
330
234
330
233
330
203
 75
     1
 76
     0
 52
45.0
 41
0.1
 77
     0
 78
     1
 53
45.0
 43
0.0
 44
0.0
 45
-0.0707106781186548
 46
0.0707106781186548
 79
     0
 98
        1
 10
0.0
 20
0.0
  0
HATCH
  5
313
330
71
100
AcDbEntity
  8
1
  6
Continuous
 62
     2
100
AcDbHatch
 10
0.0
 20
0.0
 30
0.0
210
0.0
220
0.0
230
1.0
  2
_USER
 70
     0
 71
     1
 91
        1
 92
        1
 93
       10
 72
     1
 10
-42.41852344464431
 20
13.66486822559148
 11
-43.6113161468119
 21
13.66486822559148
 72
     1
 10
-43.6113161468119
 20
13.66486822559148
 11
-43.6113161468119
 21
10.61105870178039
 72
     1
 10
-43.6113161468119
 20
10.61105870178039
 11
-42.41852344464431
 21
10.61105870178039
 72
     1
 10
-42.41852344464431
 20
10.61105870178039
 11
-42.41852344464431
 21
11.91983421198498
 72
     1
 10
-42.41852344464431
 20
11.91983421198498
 11
-41.17801903439141
 21
10.61105870178039
 72
     1
 10
-41.17801903439141
 20
10.61105870178039
 11
-39.98522633222501
 21
10.61105870178039
 72
     1
 10
-39.98522633222501
 20
10.61105870178039
 11
-39.98522633222501
 21
13.66486822559148
 72
     1
 10
-39.98522633222501
 20
13.66486822559148
 11
-41.17801903439141
 21
13.66486822559148
 72
     1
 10
-41.17801903439141
 20
13.66486822559148
 11
-41.17801903439141
 21
12.35609271538638
 72
     1
 10
-41.17801903439141
 20
12.35609271538638
 11
-42.41852344464431
 21
13.66486822559148
 97
       10
330
204
330
205
330
206
330
232
330
207
330
208
330
231
330
234
330
233
330
203
 75
     1
 76
     0
 52
45.0
 41
0.1
 77
     0
 78
     1
 53
45.0
 43
0.0
 44
0.0
 45
-0.0707106781186548
 46
0.0707106781186548
 79
     0
 98
        1
 10
0.0
 20
0.0
  0
HATCH
  5
314
330
71
100
AcDbEntity
  8
1
  6
Continuous
 62
     2
100
AcDbHatch
 10
0.0
 20
0.0
 30
0.0
210
0.0
220
0.0
230
1.0
  2
_USER
 70
     0
 71
     1
 91
        1
 92
        1
 93
       12
 72
     1
 10
-43.42031838357971
 20
17.02405870176588
 11
-43.42031838357971
 21
13.97024917795469
 72
     1
 10
-43.42031838357971
 20
13.97024917795469
 11
-44.61311108574611
 21
13.97024917795469
 72
     1
 10
-44.61311108574611
 20
13.97024917795469
 11
-44.61311108574611
 21
15.1045212867985
 72
     1
 10
-44.61311108574611
 20
15.1045212867985
 11
-45.66276866365359
 21
15.1045212867985
 72
     1
 10
-45.66276866365359
 20
15.1045212867985
 11
-45.66276866365359
 21
13.97024917795469
 72
     1
 10
-45.66276866365359
 20
13.97024917795469
 11
-46.85556136582019
 21
13.97024917795469
 72
     1
 10
-46.85556136582019
 20
13.97024917795469
 11
-46.85556136582019
 21
17.02405870176588
 72
     1
 10
-46.85556136582019
 20
17.02405870176588
 11
-45.66276866365359
 21
17.02405870176588
 72
     1
 10
-45.66276866365359
 20
17.02405870176588
 11
-45.66276866365359
 21
15.95522536843129
 72
     1
 10
-45.66276866365359
 20
15.95522536843129
 11
-44.61311108574611
 21
15.95522536843129
 72
     1
 10
-44.61311108574611
 20
15.95522536843129
 11
-44.61311108574611
 21
17.02405870176588
 72
     1
 10
-44.61311108574611
 20
17.02405870176588
 11
-43.42031838357971
 21
17.02405870176588
 97
       12
330
22C
330
22B
330
22A
330
212
330
213
330
229
330
214
330
228
330
227
330
226
330
210
330
211
 75
     1
 76
     0
 52
45.0
 41
0.1
 77
     0
 78
     1
 53
45.0
 43
0.0
 44
0.0
 45
-0.0707106781186548
 46
0.0707106781186548
 79
     0
 98
        1
 10
0.0
 20
0.0
  0
HATCH
  5
315
330
71
100
AcDbEntity
  8
1
  6
Continuous
 62
     2
100
AcDbHatch
 10
0.0
 20
0.0
 30
0.0
210
0.0
220
0.0
230
1.0
  2
_USER
 70
     0
 71
     1
 91
        1
 92
        1
 93
       12
 72
     1
 10
-43.42031838357971
 20
17.02405870176588
 11
-43.42031838357971
 21
13.97024917795469
 72
     1
 10
-43.42031838357971
 20
13.97024917795469
 11
-44.61311108574611
 21
13.97024917795469
 72
     1
 10
-44.61311108574611
 20
13.97024917795469
 11
-44.61311108574611
 21
15.1045212867985
 72
     1
 10
-44.61311108574611
 20
15.1045212867985
 11
-45.66276866365359
 21
15.1045212867985
 72
     1
 10
-45.66276866365359
 20
15.1045212867985
 11
-45.66276866365359
 21
13.97024917795469
 72
     1
 10
-45.66276866365359
 20
13.97024917795469
 11
-46.85556136582019
 21
13.97024917795469
 72
     1
 10
-46.85556136582019
 20
13.97024917795469
 11
-46.85556136582019
 21
17.02405870176588
 72
     1
 10
-46.85556136582019
 20
17.02405870176588
 11
-45.66276866365359
 21
17.02405870176588
 72
     1
 10
-45.66276866365359
 20
17.02405870176588
 11
-45.66276866365359
 21
15.95522536843129
 72
     1
 10
-45.66276866365359
 20
15.95522536843129
 11
-44.61311108574611
 21
15.95522536843129
 72
     1
 10
-44.61311108574611
 20
15.95522536843129
 11
-44.61311108574611
 21
17.02405870176588
 72
     1
 10
-44.61311108574611
 20
17.02405870176588
 11
-43.42031838357971
 21
17.02405870176588
 97
       12
330
22C
330
22B
330
22A
330
212
330
213
330
229
330
214
330
228
330
227
330
226
330
210
330
211
 75
     1
 76
     0
 52
45.0
 41
0.1
 77
     0
 78
     1
 53
45.0
 43
0.0
 44
0.0
 45
-0.0707106781186548
 46
0.0707106781186548
 79
     0
 98
        1
 10
0.0
 20
0.0
  0
ENDBLK
  5
73
330
71
100
AcDbEntity
  8
0
100
AcDbBlockEnd
  0
BLOCK
  5
75
330
74
100
AcDbEntity
  8
0
100
AcDbBlockBegin
  2
_punkt
 70
     0
 10
68.4569854302092
 20
3.31755870176409
 30
0.0
  3
_punkt
  1

  0
LINE
  5
316
330
74
100
AcDbEntity
  8
1
  6
Continuous
 62
     2
100
AcDbLine
 10
68.4569854302092
 20
3.31755870176409
 30
0.0
 11
68.4569854302092
 21
-1.68244129823603
 31
0.0
  0
LINE
  5
317
330
74
100
AcDbEntity
  8
1
  6
Continuous
 62
     2
100
AcDbLine
 10
68.4569854302092
 20
3.31755870176409
 30
0.0
 11
73.45698543020819
 21
3.31755870176409
 31
0.0
  0
ENDBLK
  5
76
330
74
100
AcDbEntity
  8
0
100
AcDbBlockEnd
  0
BLOCK
  5
7A
330
77
100
AcDbEntity
  8
0
100
AcDbBlockBegin
  2
A4I_CS
 70
     0
 10
68.4569854302092
 20
-1.68244129823603
 30
0.0
  3
A4I_CS
  1

  0
INSERT
  5
78
330
77
100
AcDbEntity
  8
1
100
AcDbBlockReference
  2
_rahmen
 10
68.4569854302092
 20
-1.68244129823603
 30
0.0
  0
INSERT
  5
79
330
77
100
AcDbEntity
  8
1
100
AcDbBlockReference
  2
_punkt
 10
68.4569854302092
 20
3.31755870176409
 30
0.0
  0
ENDBLK
  5
7B
330
77
100
AcDbEntity
  8
0
100
AcDbBlockEnd
  0
BLOCK
  5
84
330
7C
100
AcDbEntity
  8
0
100
AcDbBlockBegin
  2
1
 70
     0
 10
0.0
 20
0.0
 30
0.0
  3
1
  1

  0
INSERT
  5
7D
330
7C
100
AcDbEntity
  8
0
100
AcDbBlockReference
  2
AllgSicht1
 10
17.07499999999839
 20
77.48616099996318
 30
0.0
  0
INSERT
  5
7E
330
7C
100
AcDbEntity
  8
0
100
AcDbBlockReference
  2
Drfsicht1
 10
-94.74999976158142
 20
84.69999842910313
 30
0.0
  0
INSERT
  5
7F
330
7C
100
AcDbEntity
  8
0
100
AcDbBlockReference
  2
Rckans1
 10
13.75000023841881
 20
146.7999999999594
 30
0.0
  0
INSERT
  5
80
330
7C
100
AcDbEntity
  8
0
100
AcDbBlockReference
  2
SA_Links1
 10
-49.14999999999
 20
146.7999999999193
 30
0.0
  0
INSERT
  5
81
330
7C
100
AcDbEntity
  8
0
100
AcDbBlockReference
  2
SA_Rechts1
 10
-149.3500006423722
 20
146.79999999996
 30
0.0
  0
INSERT
  5
82
330
7C
100
AcDbEntity
  8
0
100
AcDbBlockReference
  2
Vordans1
 10
-94.75000040395366
 20
146.79999999996
 30
0.0
  0
INSERT
  5
83
330
7C
100
AcDbEntity
  8
0
100
AcDbBlockReference
  2
A4I_CS
 10
68.4569854302092
 20
-1.68244129823603
 30
0.0
  0
ENDBLK
  5
85
330
7C
100
AcDbEntity
  8
0
100
AcDbBlockEnd
  0
BLOCK
  5
106
330
FF
100
AcDbEntity
  8
0
100
AcDbBlockBegin
  2
*D17
 70
     1
 10
0.0
 20
0.0
 30
0.0
  3
*D17
  1

  0
LINE
  5
100
330
FF
100
AcDbEntity
  8
1
  6
Continuous
 62
     2
100
AcDbLine
 10
-111.550000281977
 20
47.44999790092588
 30
0.0
 11
-111.550000281977
 21
101.6499979009258
 31
0.0
  0
LINE
  5
101
330
FF
100
AcDbEntity
  8
1
  6
Continuous
 62
     2
100
AcDbLine
 10
-101.550000281977
 20
47.44999790092588
 30
0.0
 11
-113.050000281977
 21
47.44999790092588
 31
0.0
  0
LINE
  5
102
330
FF
100
AcDbEntity
  8
1
  6
Continuous
 62
     2
100
AcDbLine
 10
-101.550000281977
 20
101.6499979009258
 30
0.0
 11
-113.050000281977
 21
101.6499979009258
 31
0.0
  0
SOLID
  5
103
330
FF
100
AcDbEntity
  8
1
 62
     2
100
AcDbTrace
 10
-112.0107840235329
 20
50.94999790092588
 30
0.0
 11
-111.0892165404211
 21
50.94999790092588
 31
0.0
 12
-111.550000281977
 22
47.44999790092588
 32
0.0
 13
-111.550000281977
 23
47.44999790092588
 33
0.0
  0
SOLID
  5
104
330
FF
100
AcDbEntity
  8
1
 62
     2
100
AcDbTrace
 10
-111.0892165404211
 20
98.14999790092584
 30
0.0
 11
-112.0107840235329
 21
98.14999790092584
 31
0.0
 12
-111.550000281977
 22
101.6499979009258
 32
0.0
 13
-111.550000281977
 23
101.6499979009258
 33
0.0
  0
MTEXT
  5
105
330
FF
100
AcDbEntity
  8
1
 62
     3
100
AcDbMText
 10
-113.400000281977
 20
70.78299578527198
 30
0.0
 40
3.5
 41
0.0
 71
     7
 72
     1
  1
54,2
  7
CONVERTER_11
 11
0.0
 21
1.0
 31
0.0
 73
     1
 44
0.60024009603842
  0
ENDBLK
  5
107
330
FF
100
AcDbEntity
  8
0
100
AcDbBlockEnd
  0
BLOCK
  5
1D0
330
1C9
100
AcDbEntity
  8
0
100
AcDbBlockBegin
  2
*D18
 70
     1
 10
0.0
 20
0.0
 30
0.0
  3
*D18
  1

  0
LINE
  5
1CA
330
1C9
100
AcDbEntity
  8
1
  6
Continuous
 62
     2
100
AcDbLine
 10
-111.600000281977
 20
160.0000001097983
 30
0.0
 11
-111.600000281977
 21
138.0000001097983
 31
0.0
  0
LINE
  5
1CB
330
1C9
100
AcDbEntity
  8
1
  6
Continuous
 62
     2
100
AcDbLine
 10
-99.75000092434925
 20
160.0000001097983
 30
0.0
 11
-113.100000281977
 21
160.0000001097983
 31
0.0
  0
LINE
  5
1CC
330
1C9
100
AcDbEntity
  8
1
  6
Continuous
 62
     2
100
AcDbLine
 10
-97.75000092434925
 20
138.0000001097983
 30
0.0
 11
-113.100000281977
 21
138.0000001097983
 31
0.0
  0
SOLID
  5
1CD
330
1C9
100
AcDbEntity
  8
1
 62
     2
100
AcDbTrace
 10
-111.1392165404211
 20
156.5000001097983
 30
0.0
 11
-112.0607840235329
 21
156.5000001097983
 31
0.0
 12
-111.600000281977
 22
160.0000001097983
 32
0.0
 13
-111.600000281977
 23
160.0000001097983
 33
0.0
  0
SOLID
  5
1CE
330
1C9
100
AcDbEntity
  8
1
 62
     2
100
AcDbTrace
 10
-112.0607840235329
 20
141.5000001097983
 30
0.0
 11
-111.1392165404211
 21
141.5000001097983
 31
0.0
 12
-111.600000281977
 22
138.0000001097983
 32
0.0
 13
-111.600000281977
 23
138.0000001097983
 33
0.0
  0
MTEXT
  5
1CF
330
1C9
100
AcDbEntity
  8
1
 62
     3
100
AcDbMText
 10
-113.100000281977
 20
146.326188223173
 30
0.0
 40
3.5
 41
0.0
 71
     7
 72
     1
  1
22
  7
CONVERTER_11
 11
0.0
 21
1.0
 31
0.0
 73
     1
 44
0.60024009603842
  0
ENDBLK
  5
1D1
330
1C9
100
AcDbEntity
  8
0
100
AcDbBlockEnd
  0
BLOCK
  5
1DB
330
1D4
100
AcDbEntity
  8
0
100
AcDbBlockBegin
  2
*D19
 70
     1
 10
0.0
 20
0.0
 30
0.0
  3
*D19
  1

  0
LINE
  5
1D5
330
1D4
100
AcDbEntity
  8
1
  6
Continuous
 62
     2
100
AcDbLine
 10
-101.5500009243492
 20
122.9948153889669
 30
0.0
 11
-87.95000092434927
 21
122.9948153889669
 31
0.0
  0
LINE
  5
1D6
330
1D4
100
AcDbEntity
  8
1
  6
Continuous
 62
     2
100
AcDbLine
 10
-101.5500009243492
 20
147.8000001097982
 30
0.0
 11
-101.5500009243492
 21
121.4948153889669
 31
0.0
  0
LINE
  5
1D7
330
1D4
100
AcDbEntity
  8
1
  6
Continuous
 62
     2
100
AcDbLine
 10
-87.95000092434927
 20
147.8000001097982
 30
0.0
 11
-87.95000092434927
 21
121.4948153889669
 31
0.0
  0
SOLID
  5
1D8
330
1D4
100
AcDbEntity
  8
1
 62
     2
100
AcDbTrace
 10
-98.05000092434922
 20
123.4555991305228
 30
0.0
 11
-98.05000092434922
 21
122.534031647411
 31
0.0
 12
-101.5500009243492
 22
122.9948153889669
 32
0.0
 13
-101.5500009243492
 23
122.9948153889669
 33
0.0
  0
SOLID
  5
1D9
330
1D4
100
AcDbEntity
  8
1
 62
     2
100
AcDbTrace
 10
-91.45000092434927
 20
122.534031647411
 30
0.0
 11
-91.45000092434927
 21
123.4555991305228
 31
0.0
 12
-87.95000092434927
 22
122.9948153889669
 32
0.0
 13
-87.95000092434927
 23
122.9948153889669
 33
0.0
  0
MTEXT
  5
1DA
330
1D4
100
AcDbEntity
  8
1
 62
     3
100
AcDbMText
 10
-99.03750092434922
 20
124.8448153889669
 30
0.0
 40
3.5
 41
0.0
 71
     7
 72
     1
  1
13,6
  7
CONVERTER_11
 11
0.9999999999970619
 21
2.424068405545306E-6
 31
0.0
 73
     1
 44
0.60024009603842
  0
ENDBLK
  5
1DC
330
1D4
100
AcDbEntity
  8
0
100
AcDbBlockEnd
  0
ENDSEC
  0
SECTION
  2
ENTITIES
  0
INSERT
  5
86
330
1F
100
AcDbEntity
  8
1
100
AcDbBlockReference
  2
1
 10
0.0
 20
0.0
 30
0.0
  0
ENDSEC
  0
SECTION
  2
OBJECTS
  0
DICTIONARY
  5
C
330
0
100
AcDbDictionary
281
     1
  3
ACAD_GROUP
350
D
  3
ACAD_LAYOUT
350
1A
  3
ACAD_MATERIAL
350
3B
  3
ACAD_MLEADERSTYLE
350
33F
  3
ACAD_MLINESTYLE
350
17
  3
ACAD_PLOTSETTINGS
350
19
  3
ACAD_PLOTSTYLENAME
350
E
  3
ACAD_TABLESTYLE
350
33E
  3
ACAD_VISUALSTYLE
350
2A
  0
DICTIONARY
  5
D
102
{ACAD_REACTORS
330
C
102
}
330
C
100
AcDbDictionary
281
     1
  0
DICTIONARY
  5
1A
102
{ACAD_REACTORS
330
C
102
}
330
C
100
AcDbDictionary
281
     1
  3
Layout1
350
1E
  3
Layout2
350
26
  3
Model
350
22
  0
DICTIONARY
  5
3B
102
{ACAD_REACTORS
330
C
102
}
330
C
100
AcDbDictionary
281
     1
  3
ByBlock
350
3D
  3
ByLayer
350
3C
  3
Global
350
3E
  0
DICTIONARY
  5
33F
102
{ACAD_REACTORS
330
C
102
}
330
C
100
AcDbDictionary
281
     1
  0
DICTIONARY
  5
17
102
{ACAD_REACTORS
330
C
102
}
330
C
100
AcDbDictionary
281
     1
  3
Standard
350
18
  0
DICTIONARY
  5
19
102
{ACAD_REACTORS
330
C
102
}
330
C
100
AcDbDictionary
281
     1
  0
ACDBDICTIONARYWDFLT
  5
E
102
{ACAD_REACTORS
330
C
102
}
330
C
100
AcDbDictionary
281
     1
  3
Normal
350
F
100
AcDbDictionaryWithDefault
340
F
  0
DICTIONARY
  5
33E
102
{ACAD_REACTORS
330
C
102
}
330
C
100
AcDbDictionary
281
     1
  0
DICTIONARY
  5
2A
102
{ACAD_REACTORS
330
C
102
}
330
C
100
AcDbDictionary
281
     1
  3
2dWireframe
350
2F
  3
3D Hidden
350
31
  3
3dWireframe
350
30
  3
Basic
350
32
  3
Brighten
350
36
  3
ColorChange
350
3A
  3
Conceptual
350
34
  3
Dim
350
35
  3
Facepattern
350
39
  3
Flat
350
2B
  3
FlatWithEdges
350
2C
  3
Gouraud
350
2D
  3
GouraudWithEdges
350
2E
  3
Linepattern
350
38
  3
Realistic
350
33
  3
Thicken
350
37
  0
LAYOUT
  5
1E
102
{ACAD_REACTORS
330
1A
102
}
330
1A
100
AcDbPlotSettings
  1

  2
none_device
  4

  6

 40
0.0
 41
0.0
 42
0.0
 43
0.0
 44
0.0
 45
0.0
 46
0.0
 47
0.0
 48
0.0
 49
0.0
140
0.0
141
0.0
142
1.0
143
1.0
 70
   688
 72
     0
 73
     0
 74
     5
  7

 75
    16
 76
     0
 77
     2
 78
   300
147
1.0
148
0.0
149
0.0
100
AcDbLayout
  1
Layout1
 70
     1
 71
     1
 10
0.0
 20
0.0
 11
12.0
 21
9.0
 12
0.0
 22
0.0
 32
0.0
 14
1.00000000000000E+20
 24
1.00000000000000E+20
 34
1.00000000000000E+20
 15
-1.00000000000000E+20
 25
-1.00000000000000E+20
 35
-1.00000000000000E+20
146
0.0
 13
0.0
 23
0.0
 33
0.0
 16
1.0
 26
0.0
 36
0.0
 17
0.0
 27
1.0
 37
0.0
 76
     0
330
1B
  0
LAYOUT
  5
26
102
{ACAD_REACTORS
330
1A
102
}
330
1A
100
AcDbPlotSettings
  1

  2
none_device
  4

  6

 40
0.0
 41
0.0
 42
0.0
 43
0.0
 44
0.0
 45
0.0
 46
0.0
 47
0.0
 48
0.0
 49
0.0
140
0.0
141
0.0
142
1.0
143
1.0
 70
   688
 72
     0
 73
     0
 74
     5
  7

 75
    16
 76
     0
 77
     2
 78
   300
147
1.0
148
0.0
149
0.0
100
AcDbLayout
  1
Layout2
 70
     1
 71
     2
 10
0.0
 20
0.0
 11
0.0
 21
0.0
 12
0.0
 22
0.0
 32
0.0
 14
0.0
 24
0.0
 34
0.0
 15
0.0
 25
0.0
 35
0.0
146
0.0
 13
0.0
 23
0.0
 33
0.0
 16
1.0
 26
0.0
 36
0.0
 17
0.0
 27
1.0
 37
0.0
 76
     0
330
23
  0
LAYOUT
  5
22
102
{ACAD_REACTORS
330
1A
102
}
330
1A
100
AcDbPlotSettings
  1

  2
none_device
  4

  6

 40
0.0
 41
0.0
 42
0.0
 43
0.0
 44
0.0
 45
0.0
 46
0.0
 47
0.0
 48
0.0
 49
0.0
140
0.0
141
0.0
142
1.0
143
1.0
 70
  1712
 72
     0
 73
     0
 74
     0
  7

 75
     0
 76
     0
 77
     2
 78
   300
147
1.0
148
0.0
149
0.0
100
AcDbLayout
  1
Model
 70
     1
 71
     0
 10
0.0
 20
0.0
 11
12.0
 21
9.0
 12
0.0
 22
0.0
 32
0.0
 14
-223.5430145697899
 24
-1.68244129823603
 34
0.0
 15
73.45698543020819
 25
208.3175587017641
 35
0.0
146
0.0
 13
0.0
 23
0.0
 33
0.0
 16
1.0
 26
0.0
 36
0.0
 17
0.0
 27
1.0
 37
0.0
 76
     0
330
1F
331
29
  0
MATERIAL
  5
3D
102
{ACAD_REACTORS
330
3B
102
}
102
{ACAD_XDICTIONARY
360
33A
102
}
330
3B
100
AcDbMaterial
  1
ByBlock
  0
MATERIAL
  5
3C
102
{ACAD_REACTORS
330
3B
102
}
102
{ACAD_XDICTIONARY
360
338
102
}
330
3B
100
AcDbMaterial
  1
ByLayer
  0
MATERIAL
  5
3E
102
{ACAD_REACTORS
330
3B
102
}
102
{ACAD_XDICTIONARY
360
33C
102
}
330
3B
100
AcDbMaterial
  1
Global
  0
MLINESTYLE
  5
18
102
{ACAD_REACTORS
330
17
102
}
330
17
100
AcDbMlineStyle
  2
Standard
 70
     0
  3

 62
   256
 51
90.0
 52
90.0
 71
     2
 49
0.5
 62
   256
  6
BYLAYER
 49
-0.5
 62
   256
  6
BYLAYER
  0
ACDBPLACEHOLDER
  5
F
102
{ACAD_REACTORS
330
E
102
}
330
E
  0
VISUALSTYLE
  5
2F
102
{ACAD_REACTORS
330
2A
102
}
102
{ACAD_XDICTIONARY
360
320
102
}
330
2A
100
AcDbVisualStyle
  2
2dWireframe
 70
     4
 71
     0
 72
     2
 73
     0
 90
        0
 40
-0.6
 41
-30.0
 62
     5
 63
     7
421
 16777215
 74
     1
 91
        4
 64
     7
 65
   257
 75
     1
175
     1
 42
1.0
 92
        0
 66
   257
 43
1.0
 76
     1
 77
     6
 78
     2
 67
     7
 79
     5
170
     0
171
     0
290
     0
174
     0
 93
        1
 44
0.0
173
     0
291
     0
 45
0.0
1001
ACAD
1000
AcDbSavedByObjectVersion
1070
     0
  0
VISUALSTYLE
  5
31
102
{ACAD_REACTORS
330
2A
102
}
102
{ACAD_XDICTIONARY
360
324
102
}
330
2A
100
AcDbVisualStyle
  2
3D Hidden
 70
     6
 71
     1
 72
     2
 73
     2
 90
        0
 40
-0.6
 41
-30.0
 62
     5
 63
     7
421
 16777215
 74
     2
 91
        2
 64
     7
 65
   257
 75
     2
175
     1
 42
40.0
 92
        0
 66
   257
 43
1.0
 76
     1
 77
     6
 78
     2
 67
     7
 79
     3
170
     0
171
     0
290
     0
174
     0
 93
        1
 44
0.0
173
     0
291
     0
 45
0.0
1001
ACAD
1000
AcDbSavedByObjectVersion
1070
     0
  0
VISUALSTYLE
  5
30
102
{ACAD_REACTORS
330
2A
102
}
102
{ACAD_XDICTIONARY
360
322
102
}
330
2A
100
AcDbVisualStyle
  2
3dWireframe
 70
     5
 71
     0
 72
     2
 73
     0
 90
        0
 40
-0.6
 41
-30.0
 62
     5
 63
     7
421
 16777215
 74
     1
 91
        4
 64
     7
 65
   257
 75
     1
175
     1
 42
1.0
 92
        0
 66
   257
 43
1.0
 76
     1
 77
     6
 78
     2
 67
     7
 79
     5
170
     0
171
     0
290
     0
174
     0
 93
        1
 44
0.0
173
     0
291
     0
 45
0.0
1001
ACAD
1000
AcDbSavedByObjectVersion
1070
     0
  0
VISUALSTYLE
  5
32
102
{ACAD_REACTORS
330
2A
102
}
102
{ACAD_XDICTIONARY
360
326
102
}
330
2A
100
AcDbVisualStyle
  2
Basic
 70
     7
 71
     1
 72
     0
 73
     1
 90
        0
 40
-0.6
 41
-30.0
 62
     5
 63
     7
421
 16777215
 74
     0
 91
        4
 64
     7
 65
   257
 75
     1
175
     1
 42
1.0
 92
        8
 66
     7
 43
1.0
 76
     1
 77
     6
 78
     2
 67
     7
 79
     5
170
     0
171
     0
290
     0
174
     0
 93
        1
 44
0.0
173
     0
291
     1
 45
0.0
1001
ACAD
1000
AcDbSavedByObjectVersion
1070
     0
  0
VISUALSTYLE
  5
36
102
{ACAD_REACTORS
330
2A
102
}
102
{ACAD_XDICTIONARY
360
32E
102
}
330
2A
100
AcDbVisualStyle
  2
Brighten
 70
    12
 71
     2
 72
     2
 73
     0
 90
        0
 40
-0.6
 41
-30.0
 62
     5
 63
     7
421
 16777215
 74
     1
 91
        4
 64
     7
 65
   257
 75
     1
175
     1
 42
1.0
 92
        8
 66
     7
 43
1.0
 76
     1
 77
     6
 78
     2
 67
     7
 79
     5
170
     0
171
     0
290
     0
174
     0
 93
        1
 44
50.0
173
     0
291
     1
 45
0.0
1001
ACAD
1000
AcDbSavedByObjectVersion
1070
     0
  0
VISUALSTYLE
  5
3A
102
{ACAD_REACTORS
330
2A
102
}
102
{ACAD_XDICTIONARY
360
336
102
}
330
2A
100
AcDbVisualStyle
  2
ColorChange
 70
    16
 71
     2
 72
     2
 73
     3
 90
        0
 40
-0.6
 41
-30.0
 62
     5
 63
     8
421
  8421504
 74
     1
 91
        4
 64
     7
 65
   257
 75
     1
175
     1
 42
1.0
 92
        8
 66
     8
424
  8421504
 43
1.0
 76
     1
 77
     6
 78
     2
 67
     7
 79
     5
170
     0
171
     0
290
     0
174
     0
 93
        1
 44
0.0
173
     0
291
     1
 45
0.0
1001
ACAD
1000
AcDbSavedByObjectVersion
1070
     0
  0
VISUALSTYLE
  5
34
102
{ACAD_REACTORS
330
2A
102
}
102
{ACAD_XDICTIONARY
360
32A
102
}
330
2A
100
AcDbVisualStyle
  2
Conceptual
 70
     9
 71
     3
 72
     2
 73
     0
 90
        0
 40
-0.6
 41
-30.0
 62
     5
 63
     7
421
 16777215
 74
     2
 91
        2
 64
     7
 65
   257
 75
     1
175
     1
 42
40.0
 92
        8
 66
     7
 43
1.0
 76
     1
 77
     6
 78
     2
 67
     7
 79
     3
170
     0
171
     0
290
     0
174
     0
 93
        1
 44
0.0
173
     0
291
     0
 45
0.0
1001
ACAD
1000
AcDbSavedByObjectVersion
1070
     0
  0
VISUALSTYLE
  5
35
102
{ACAD_REACTORS
330
2A
102
}
102
{ACAD_XDICTIONARY
360
32C
102
}
330
2A
100
AcDbVisualStyle
  2
Dim
 70
    11
 71
     2
 72
     2
 73
     0
 90
        0
 40
-0.6
 41
-30.0
 62
     5
 63
     7
421
 16777215
 74
     1
 91
        4
 64
     7
 65
   257
 75
     1
175
     1
 42
1.0
 92
        8
 66
     7
 43
1.0
 76
     1
 77
     6
 78
     2
 67
     7
 79
     5
170
     0
171
     0
290
     0
174
     0
 93
        1
 44
-50.0
173
     0
291
     1
 45
0.0
1001
ACAD
1000
AcDbSavedByObjectVersion
1070
     0
  0
VISUALSTYLE
  5
39
102
{ACAD_REACTORS
330
2A
102
}
102
{ACAD_XDICTIONARY
360
334
102
}
330
2A
100
AcDbVisualStyle
  2
Facepattern
 70
    15
 71
     2
 72
     2
 73
     0
 90
        0
 40
-0.6
 41
-30.0
 62
     5
 63
     7
421
 16777215
 74
     1
 91
        4
 64
     7
 65
   257
 75
     1
175
     1
 42
1.0
 92
        8
 66
     7
 43
1.0
 76
     1
 77
     6
 78
     2
 67
     7
 79
     5
170
     0
171
     0
290
     0
174
     0
 93
        1
 44
0.0
173
     0
291
     1
 45
0.0
1001
ACAD
1000
AcDbSavedByObjectVersion
1070
     0
  0
VISUALSTYLE
  5
2B
102
{ACAD_REACTORS
330
2A
102
}
102
{ACAD_XDICTIONARY
360
318
102
}
330
2A
100
AcDbVisualStyle
  2
Flat
 70
     0
 71
     2
 72
     1
 73
     1
 90
        2
 40
-0.6
 41
30.0
 62
     5
 63
     7
421
 16777215
 74
     0
 91
        4
 64
     7
 65
   257
 75
     1
175
     1
 42
1.0
 92
        8
 66
     7
 43
1.0
 76
     1
 77
     6
 78
     2
 67
     7
 79
     5
170
     0
171
     0
290
     0
174
     0
 93
       13
 44
0.0
173
     0
291
     1
 45
0.0
1001
ACAD
1000
AcDbSavedByObjectVersion
1070
     0
  0
VISUALSTYLE
  5
2C
102
{ACAD_REACTORS
330
2A
102
}
102
{ACAD_XDICTIONARY
360
31A
102
}
330
2A
100
AcDbVisualStyle
  2
FlatWithEdges
 70
     1
 71
     2
 72
     1
 73
     1
 90
        2
 40
-0.6
 41
30.0
 62
     5
 63
     7
421
 16777215
 74
     1
 91
        4
 64
     7
 65
   257
 75
     1
175
     1
 42
1.0
 92
        0
 66
   257
 43
1.0
 76
     1
 77
     6
 78
     2
 67
     7
 79
     5
170
     0
171
     0
290
     0
174
     0
 93
       13
 44
0.0
173
     0
291
     1
 45
0.0
1001
ACAD
1000
AcDbSavedByObjectVersion
1070
     0
  0
VISUALSTYLE
  5
2D
102
{ACAD_REACTORS
330
2A
102
}
102
{ACAD_XDICTIONARY
360
31C
102
}
330
2A
100
AcDbVisualStyle
  2
Gouraud
 70
     2
 71
     2
 72
     2
 73
     1
 90
        2
 40
-0.6
 41
30.0
 62
     5
 63
     7
421
 16777215
 74
     0
 91
        4
 64
     7
 65
   257
 75
     1
175
     1
 42
1.0
 92
        0
 66
     7
 43
1.0
 76
     1
 77
     6
 78
     2
 67
     7
 79
     5
170
     0
171
     0
290
     0
174
     0
 93
       13
 44
0.0
173
     0
291
     1
 45
0.0
1001
ACAD
1000
AcDbSavedByObjectVersion
1070
     0
  0
VISUALSTYLE
  5
2E
102
{ACAD_REACTORS
330
2A
102
}
102
{ACAD_XDICTIONARY
360
31E
102
}
330
2A
100
AcDbVisualStyle
  2
GouraudWithEdges
 70
     3
 71
     2
 72
     2
 73
     1
 90
        2
 40
-0.6
 41
30.0
 62
     5
 63
     7
421
 16777215
 74
     1
 91
        4
 64
     7
 65
   257
 75
     1
175
     1
 42
1.0
 92
        0
 66
   257
 43
1.0
 76
     1
 77
     6
 78
     2
 67
     7
 79
     5
170
     0
171
     0
290
     0
174
     0
 93
       13
 44
0.0
173
     0
291
     1
 45
0.0
1001
ACAD
1000
AcDbSavedByObjectVersion
1070
     0
  0
VISUALSTYLE
  5
38
102
{ACAD_REACTORS
330
2A
102
}
102
{ACAD_XDICTIONARY
360
332
102
}
330
2A
100
AcDbVisualStyle
  2
Linepattern
 70
    14
 71
     2
 72
     2
 73
     0
 90
        0
 40
-0.6
 41
-30.0
 62
     5
 63
     7
421
 16777215
 74
     1
 91
        4
 64
     7
 65
   257
 75
     7
175
     7
 42
1.0
 92
        8
 66
     7
 43
1.0
 76
     1
 77
     6
 78
     2
 67
     7
 79
     5
170
     0
171
     0
290
     0
174
     0
 93
        1
 44
0.0
173
     0
291
     1
 45
0.0
1001
ACAD
1000
AcDbSavedByObjectVersion
1070
     0
  0
VISUALSTYLE
  5
33
102
{ACAD_REACTORS
330
2A
102
}
102
{ACAD_XDICTIONARY
360
328
102
}
330
2A
100
AcDbVisualStyle
  2
Realistic
 70
     8
 71
     2
 72
     2
 73
     0
 90
        0
 40
-0.6
 41
-30.0
 62
     5
 63
     7
421
 16777215
 74
     1
 91
        0
 64
     7
 65
   257
 75
     1
175
     1
 42
1.0
 92
        8
 66
     8
424
  7895160
 43
1.0
 76
     1
 77
     6
 78
     2
 67
     7
 79
     5
170
     0
171
     0
290
     0
174
     0
 93
       13
 44
0.0
173
     0
291
     0
 45
0.0
1001
ACAD
1000
AcDbSavedByObjectVersion
1070
     0
  0
VISUALSTYLE
  5
37
102
{ACAD_REACTORS
330
2A
102
}
102
{ACAD_XDICTIONARY
360
330
102
}
330
2A
100
AcDbVisualStyle
  2
Thicken
 70
    13
 71
     2
 72
     2
 73
     0
 90
        0
 40
-0.6
 41
-30.0
 62
     5
 63
     7
421
 16777215
 74
     1
 91
        4
 64
     7
 65
   257
 75
     1
175
     1
 42
1.0
 92
       12
 66
     7
 43
1.0
 76
     1
 77
     6
 78
     2
 67
     7
 79
     5
170
     0
171
     0
290
     0
174
     0
 93
        1
 44
0.0
173
     0
291
     1
 45
0.0
1001
ACAD
1000
AcDbSavedByObjectVersion
1070
     0
  0
DICTIONARY
  5
33A
330
3D
100
AcDbDictionary
280
     1
281
     1
  3
ACAD_XREC_ROUNDTRIP
360
33B
  0
DICTIONARY
  5
338
330
3C
100
AcDbDictionary
280
     1
281
     1
  3
ACAD_XREC_ROUNDTRIP
360
339
  0
DICTIONARY
  5
33C
330
3E
100
AcDbDictionary
280
     1
281
     1
  3
ACAD_XREC_ROUNDTRIP
360
33D
  0
DICTIONARY
  5
320
330
2F
100
AcDbDictionary
280
     1
281
     1
  3
ACAD_XREC_ROUNDTRIP
360
321
  0
DICTIONARY
  5
324
330
31
100
AcDbDictionary
280
     1
281
     1
  3
ACAD_XREC_ROUNDTRIP
360
325
  0
DICTIONARY
  5
322
330
30
100
AcDbDictionary
280
     1
281
     1
  3
ACAD_XREC_ROUNDTRIP
360
323
  0
DICTIONARY
  5
326
330
32
100
AcDbDictionary
280
     1
281
     1
  3
ACAD_XREC_ROUNDTRIP
360
327
  0
DICTIONARY
  5
32E
330
36
100
AcDbDictionary
280
     1
281
     1
  3
ACAD_XREC_ROUNDTRIP
360
32F
  0
DICTIONARY
  5
336
330
3A
100
AcDbDictionary
280
     1
281
     1
  3
ACAD_XREC_ROUNDTRIP
360
337
  0
DICTIONARY
  5
32A
330
34
100
AcDbDictionary
280
     1
281
     1
  3
ACAD_XREC_ROUNDTRIP
360
32B
  0
DICTIONARY
  5
32C
330
35
100
AcDbDictionary
280
     1
281
     1
  3
ACAD_XREC_ROUNDTRIP
360
32D
  0
DICTIONARY
  5
334
330
39
100
AcDbDictionary
280
     1
281
     1
  3
ACAD_XREC_ROUNDTRIP
360
335
  0
DICTIONARY
  5
318
330
2B
100
AcDbDictionary
280
     1
281
     1
  3
ACAD_XREC_ROUNDTRIP
360
319
  0
DICTIONARY
  5
31A
330
2C
100
AcDbDictionary
280
     1
281
     1
  3
ACAD_XREC_ROUNDTRIP
360
31B
  0
DICTIONARY
  5
31C
330
2D
100
AcDbDictionary
280
     1
281
     1
  3
ACAD_XREC_ROUNDTRIP
360
31D
  0
DICTIONARY
  5
31E
330
2E
100
AcDbDictionary
280
     1
281
     1
  3
ACAD_XREC_ROUNDTRIP
360
31F
  0
DICTIONARY
  5
332
330
38
100
AcDbDictionary
280
     1
281
     1
  3
ACAD_XREC_ROUNDTRIP
360
333
  0
DICTIONARY
  5
328
330
33
100
AcDbDictionary
280
     1
281
     1
  3
ACAD_XREC_ROUNDTRIP
360
329
  0
DICTIONARY
  5
330
330
37
100
AcDbDictionary
280
     1
281
     1
  3
ACAD_XREC_ROUNDTRIP
360
331
  0
XRECORD
  5
33B
102
{ACAD_REACTORS
330
33A
102
}
330
33A
100
AcDbXrecord
280
     1
102
MATERIAL
148
0.0
149
0.0
149
0.0
 93
        0
 94
      127
282
     0
 72
     1
 77
     1
171
     1
175
     1
179
     1
273
     0
  0
XRECORD
  5
339
102
{ACAD_REACTORS
330
338
102
}
330
338
100
AcDbXrecord
280
     1
102
MATERIAL
148
0.0
149
0.0
149
0.0
 93
        0
 94
      127
282
     0
 72
     1
 77
     1
171
     1
175
     1
179
     1
273
     0
  0
XRECORD
  5
33D
102
{ACAD_REACTORS
330
33C
102
}
330
33C
100
AcDbXrecord
280
     1
102
MATERIAL
148
0.0
149
0.0
149
0.0
 93
        0
 94
      127
282
     0
 72
     1
 77
     1
171
     1
175
     1
179
     1
273
     0
  0
XRECORD
  5
321
102
{ACAD_REACTORS
330
320
102
}
330
320
100
AcDbXrecord
280
     1
102
RTVSPropertyOp0
 70
     1
102
RTVSPropertyOp1
 70
     1
102
RTVSPropertyOp2
 70
     1
102
RTVSPropertyOp3
 70
     1
102
RTVSPropertyOp4
 70
     1
102
RTVSPropertyOp5
 70
     1
102
RTVSPropertyOp6
 70
     1
102
RTVSPropertyOp7
 70
     1
102
RTVSPropertyOp8
 70
     1
102
RTVSPropertyOp9
 70
     1
102
RTVSPropertyOp10
 70
     1
102
RTVSPropertyOp11
 70
     1
102
RTVSPropertyOp12
 70
     1
102
RTVSPropertyOp13
 70
     1
102
RTVSPropertyOp14
 70
     1
102
RTVSPropertyOp15
 70
     1
102
RTVSPropertyOp16
 70
     1
102
RTVSPropertyOp17
 70
     1
102
RTVSPropertyOp18
 70
     1
102
RTVSPropertyOp19
 70
     1
102
RTVSPropertyOp20
 70
     1
102
RTVSPropertyOp21
 70
     1
102
RTVSPropertyOp22
 70
     1
102
RTVSPropertyOp23
 70
     1
102
RTVSPropertyOp24
 70
     1
102
RTVSPropertyOp25
 70
     1
102
RTVSPropertyOp26
 70
     1
102
RTVSPropertyOp27
 70
     1
102
RTVSPropertyOp28
 70
     1
102
RTVSPropertyOp29
 70
     1
102
RTVSPropertyOp30
 70
     1
102
RTVSPropertyOp31
 70
     1
102
RTVSPropertyOp32
 70
     1
  0
XRECORD
  5
325
102
{ACAD_REACTORS
330
324
102
}
330
324
100
AcDbXrecord
280
     1
102
RTVSPropertyOp0
 70
     1
102
RTVSPropertyOp1
 70
     1
102
RTVSPropertyOp2
 70
     1
102
RTVSPropertyOp3
 70
     1
102
RTVSPropertyOp4
 70
     1
102
RTVSPropertyOp5
 70
     1
102
RTVSPropertyOp6
 70
     1
102
RTVSPropertyOp7
 70
     1
102
RTVSPropertyOp8
 70
     1
102
RTVSPropertyOp9
 70
     1
102
RTVSPropertyOp10
 70
     1
102
RTVSPropertyOp11
 70
     1
102
RTVSPropertyOp12
 70
     1
102
RTVSPropertyOp13
 70
     1
102
RTVSPropertyOp14
 70
     1
102
RTVSPropertyOp15
 70
     1
102
RTVSPropertyOp16
 70
     1
102
RTVSPropertyOp17
 70
     1
102
RTVSPropertyOp18
 70
     1
102
RTVSPropertyOp19
 70
     1
102
RTVSPropertyOp20
 70
     1
102
RTVSPropertyOp21
 70
     1
102
RTVSPropertyOp22
 70
     1
102
RTVSPropertyOp23
 70
     1
102
RTVSPropertyOp24
 70
     1
102
RTVSPropertyOp25
 70
     1
102
RTVSPropertyOp26
 70
     1
102
RTVSPropertyOp27
 70
     1
102
RTVSPropertyOp28
 70
     1
102
RTVSPropertyOp29
 70
     1
102
RTVSPropertyOp30
 70
     1
102
RTVSPropertyOp31
 70
     1
102
RTVSPropertyOp32
 70
     1
  0
XRECORD
  5
323
102
{ACAD_REACTORS
330
322
102
}
330
322
100
AcDbXrecord
280
     1
102
RTVSPropertyOp0
 70
     1
102
RTVSPropertyOp1
 70
     1
102
RTVSPropertyOp2
 70
     1
102
RTVSPropertyOp3
 70
     1
102
RTVSPropertyOp4
 70
     1
102
RTVSPropertyOp5
 70
     1
102
RTVSPropertyOp6
 70
     1
102
RTVSPropertyOp7
 70
     1
102
RTVSPropertyOp8
 70
     1
102
RTVSPropertyOp9
 70
     1
102
RTVSPropertyOp10
 70
     1
102
RTVSPropertyOp11
 70
     1
102
RTVSPropertyOp12
 70
     1
102
RTVSPropertyOp13
 70
     1
102
RTVSPropertyOp14
 70
     1
102
RTVSPropertyOp15
 70
     1
102
RTVSPropertyOp16
 70
     1
102
RTVSPropertyOp17
 70
     1
102
RTVSPropertyOp18
 70
     1
102
RTVSPropertyOp19
 70
     1
102
RTVSPropertyOp20
 70
     1
102
RTVSPropertyOp21
 70
     1
102
RTVSPropertyOp22
 70
     1
102
RTVSPropertyOp23
 70
     1
102
RTVSPropertyOp24
 70
     1
102
RTVSPropertyOp25
 70
     1
102
RTVSPropertyOp26
 70
     1
102
RTVSPropertyOp27
 70
     1
102
RTVSPropertyOp28
 70
     1
102
RTVSPropertyOp29
 70
     1
102
RTVSPropertyOp30
 70
     1
102
RTVSPropertyOp31
 70
     1
102
RTVSPropertyOp32
 70
     1
  0
XRECORD
  5
327
102
{ACAD_REACTORS
330
326
102
}
330
326
100
AcDbXrecord
280
     1
102
RTVSPropertyOp0
 70
     1
102
RTVSPropertyOp1
 70
     1
102
RTVSPropertyOp2
 70
     1
102
RTVSPropertyOp3
 70
     1
102
RTVSPropertyOp4
 70
     1
102
RTVSPropertyOp5
 70
     1
102
RTVSPropertyOp6
 70
     1
102
RTVSPropertyOp7
 70
     1
102
RTVSPropertyOp8
 70
     1
102
RTVSPropertyOp9
 70
     1
102
RTVSPropertyOp10
 70
     1
102
RTVSPropertyOp11
 70
     1
102
RTVSPropertyOp12
 70
     1
102
RTVSPropertyOp13
 70
     1
102
RTVSPropertyOp14
 70
     1
102
RTVSPropertyOp15
 70
     1
102
RTVSPropertyOp16
 70
     1
102
RTVSPropertyOp17
 70
     1
102
RTVSPropertyOp18
 70
     1
102
RTVSPropertyOp19
 70
     1
102
RTVSPropertyOp20
 70
     1
102
RTVSPropertyOp21
 70
     1
102
RTVSPropertyOp22
 70
     1
102
RTVSPropertyOp23
 70
     1
102
RTVSPropertyOp24
 70
     1
102
RTVSPropertyOp25
 70
     1
102
RTVSPropertyOp26
 70
     1
102
RTVSPropertyOp27
 70
     1
102
RTVSPropertyOp28
 70
     1
102
RTVSPropertyOp29
 70
     1
102
RTVSPropertyOp30
 70
     1
102
RTVSPropertyOp31
 70
     1
102
RTVSPropertyOp32
 70
     1
  0
XRECORD
  5
32F
102
{ACAD_REACTORS
330
32E
102
}
330
32E
100
AcDbXrecord
280
     1
102
RTVSPropertyOp0
 70
     1
102
RTVSPropertyOp1
 70
     1
102
RTVSPropertyOp2
 70
     1
102
RTVSPropertyOp3
 70
     1
102
RTVSPropertyOp4
 70
     1
102
RTVSPropertyOp5
 70
     1
102
RTVSPropertyOp6
 70
     1
102
RTVSPropertyOp7
 70
     1
102
RTVSPropertyOp8
 70
     1
102
RTVSPropertyOp9
 70
     1
102
RTVSPropertyOp10
 70
     1
102
RTVSPropertyOp11
 70
     1
102
RTVSPropertyOp12
 70
     1
102
RTVSPropertyOp13
 70
     1
102
RTVSPropertyOp14
 70
     1
102
RTVSPropertyOp15
 70
     1
102
RTVSPropertyOp16
 70
     1
102
RTVSPropertyOp17
 70
     1
102
RTVSPropertyOp18
 70
     1
102
RTVSPropertyOp19
 70
     1
102
RTVSPropertyOp20
 70
     1
102
RTVSPropertyOp21
 70
     1
102
RTVSPropertyOp22
 70
     1
102
RTVSPropertyOp23
 70
     1
102
RTVSPropertyOp24
 70
     1
102
RTVSPropertyOp25
 70
     1
102
RTVSPropertyOp26
 70
     1
102
RTVSPropertyOp27
 70
     1
102
RTVSPropertyOp28
 70
     1
102
RTVSPropertyOp29
 70
     1
102
RTVSPropertyOp30
 70
     1
102
RTVSPropertyOp31
 70
     1
102
RTVSPropertyOp32
 70
     1
  0
XRECORD
  5
337
102
{ACAD_REACTORS
330
336
102
}
330
336
100
AcDbXrecord
280
     1
102
RTVSPropertyOp0
 70
     1
102
RTVSPropertyOp1
 70
     1
102
RTVSPropertyOp2
 70
     1
102
RTVSPropertyOp3
 70
     1
102
RTVSPropertyOp4
 70
     1
102
RTVSPropertyOp5
 70
     1
102
RTVSPropertyOp6
 70
     1
102
RTVSPropertyOp7
 70
     1
102
RTVSPropertyOp8
 70
     1
102
RTVSPropertyOp9
 70
     1
102
RTVSPropertyOp10
 70
     1
102
RTVSPropertyOp11
 70
     1
102
RTVSPropertyOp12
 70
     1
102
RTVSPropertyOp13
 70
     1
102
RTVSPropertyOp14
 70
     1
102
RTVSPropertyOp15
 70
     1
102
RTVSPropertyOp16
 70
     1
102
RTVSPropertyOp17
 70
     1
102
RTVSPropertyOp18
 70
     1
102
RTVSPropertyOp19
 70
     1
102
RTVSPropertyOp20
 70
     1
102
RTVSPropertyOp21
 70
     1
102
RTVSPropertyOp22
 70
     1
102
RTVSPropertyOp23
 70
     1
102
RTVSPropertyOp24
 70
     1
102
RTVSPropertyOp25
 70
     1
102
RTVSPropertyOp26
 70
     1
102
RTVSPropertyOp27
 70
     1
102
RTVSPropertyOp28
 70
     1
102
RTVSPropertyOp29
 70
     1
102
RTVSPropertyOp30
 70
     1
102
RTVSPropertyOp31
 70
     1
102
RTVSPropertyOp32
 70
     1
  0
XRECORD
  5
32B
102
{ACAD_REACTORS
330
32A
102
}
330
32A
100
AcDbXrecord
280
     1
102
RTVSPropertyOp0
 70
     1
102
RTVSPropertyOp1
 70
     1
102
RTVSPropertyOp2
 70
     1
102
RTVSPropertyOp3
 70
     1
102
RTVSPropertyOp4
 70
     1
102
RTVSPropertyOp5
 70
     1
102
RTVSPropertyOp6
 70
     1
102
RTVSPropertyOp7
 70
     1
102
RTVSPropertyOp8
 70
     1
102
RTVSPropertyOp9
 70
     1
102
RTVSPropertyOp10
 70
     1
102
RTVSPropertyOp11
 70
     1
102
RTVSPropertyOp12
 70
     1
102
RTVSPropertyOp13
 70
     1
102
RTVSPropertyOp14
 70
     1
102
RTVSPropertyOp15
 70
     1
102
RTVSPropertyOp16
 70
     1
102
RTVSPropertyOp17
 70
     1
102
RTVSPropertyOp18
 70
     1
102
RTVSPropertyOp19
 70
     1
102
RTVSPropertyOp20
 70
     1
102
RTVSPropertyOp21
 70
     1
102
RTVSPropertyOp22
 70
     1
102
RTVSPropertyOp23
 70
     1
102
RTVSPropertyOp24
 70
     1
102
RTVSPropertyOp25
 70
     1
102
RTVSPropertyOp26
 70
     1
102
RTVSPropertyOp27
 70
     1
102
RTVSPropertyOp28
 70
     1
102
RTVSPropertyOp29
 70
     1
102
RTVSPropertyOp30
 70
     1
102
RTVSPropertyOp31
 70
     1
102
RTVSPropertyOp32
 70
     1
  0
XRECORD
  5
32D
102
{ACAD_REACTORS
330
32C
102
}
330
32C
100
AcDbXrecord
280
     1
102
RTVSPropertyOp0
 70
     1
102
RTVSPropertyOp1
 70
     1
102
RTVSPropertyOp2
 70
     1
102
RTVSPropertyOp3
 70
     1
102
RTVSPropertyOp4
 70
     1
102
RTVSPropertyOp5
 70
     1
102
RTVSPropertyOp6
 70
     1
102
RTVSPropertyOp7
 70
     1
102
RTVSPropertyOp8
 70
     1
102
RTVSPropertyOp9
 70
     1
102
RTVSPropertyOp10
 70
     1
102
RTVSPropertyOp11
 70
     1
102
RTVSPropertyOp12
 70
     1
102
RTVSPropertyOp13
 70
     1
102
RTVSPropertyOp14
 70
     1
102
RTVSPropertyOp15
 70
     1
102
RTVSPropertyOp16
 70
     1
102
RTVSPropertyOp17
 70
     1
102
RTVSPropertyOp18
 70
     1
102
RTVSPropertyOp19
 70
     1
102
RTVSPropertyOp20
 70
     1
102
RTVSPropertyOp21
 70
     1
102
RTVSPropertyOp22
 70
     1
102
RTVSPropertyOp23
 70
     1
102
RTVSPropertyOp24
 70
     1
102
RTVSPropertyOp25
 70
     1
102
RTVSPropertyOp26
 70
     1
102
RTVSPropertyOp27
 70
     1
102
RTVSPropertyOp28
 70
     1
102
RTVSPropertyOp29
 70
     1
102
RTVSPropertyOp30
 70
     1
102
RTVSPropertyOp31
 70
     1
102
RTVSPropertyOp32
 70
     1
  0
XRECORD
  5
335
102
{ACAD_REACTORS
330
334
102
}
330
334
100
AcDbXrecord
280
     1
102
RTVSPropertyOp0
 70
     1
102
RTVSPropertyOp1
 70
     1
102
RTVSPropertyOp2
 70
     1
102
RTVSPropertyOp3
 70
     1
102
RTVSPropertyOp4
 70
     1
102
RTVSPropertyOp5
 70
     1
102
RTVSPropertyOp6
 70
     1
102
RTVSPropertyOp7
 70
     1
102
RTVSPropertyOp8
 70
     1
102
RTVSPropertyOp9
 70
     1
102
RTVSPropertyOp10
 70
     1
102
RTVSPropertyOp11
 70
     1
102
RTVSPropertyOp12
 70
     1
102
RTVSPropertyOp13
 70
     1
102
RTVSPropertyOp14
 70
     1
102
RTVSPropertyOp15
 70
     1
102
RTVSPropertyOp16
 70
     1
102
RTVSPropertyOp17
 70
     1
102
RTVSPropertyOp18
 70
     1
102
RTVSPropertyOp19
 70
     1
102
RTVSPropertyOp20
 70
     1
102
RTVSPropertyOp21
 70
     1
102
RTVSPropertyOp22
 70
     1
102
RTVSPropertyOp23
 70
     1
102
RTVSPropertyOp24
 70
     1
102
RTVSPropertyOp25
 70
     1
102
RTVSPropertyOp26
 70
     1
102
RTVSPropertyOp27
 70
     1
102
RTVSPropertyOp28
 70
     1
102
RTVSPropertyOp29
 70
     1
102
RTVSPropertyOp30
 70
     1
102
RTVSPropertyOp31
 70
     1
102
RTVSPropertyOp32
 70
     1
  0
XRECORD
  5
319
102
{ACAD_REACTORS
330
318
102
}
330
318
100
AcDbXrecord
280
     1
102
RTVSPropertyOp0
 70
     1
102
RTVSPropertyOp1
 70
     1
102
RTVSPropertyOp2
 70
     1
102
RTVSPropertyOp3
 70
     1
102
RTVSPropertyOp4
 70
     1
102
RTVSPropertyOp5
 70
     1
102
RTVSPropertyOp6
 70
     1
102
RTVSPropertyOp7
 70
     1
102
RTVSPropertyOp8
 70
     1
102
RTVSPropertyOp9
 70
     1
102
RTVSPropertyOp10
 70
     1
102
RTVSPropertyOp11
 70
     1
102
RTVSPropertyOp12
 70
     1
102
RTVSPropertyOp13
 70
     1
102
RTVSPropertyOp14
 70
     1
102
RTVSPropertyOp15
 70
     1
102
RTVSPropertyOp16
 70
     1
102
RTVSPropertyOp17
 70
     1
102
RTVSPropertyOp18
 70
     1
102
RTVSPropertyOp19
 70
     1
102
RTVSPropertyOp20
 70
     1
102
RTVSPropertyOp21
 70
     1
102
RTVSPropertyOp22
 70
     1
102
RTVSPropertyOp23
 70
     1
102
RTVSPropertyOp24
 70
     1
102
RTVSPropertyOp25
 70
     1
102
RTVSPropertyOp26
 70
     1
102
RTVSPropertyOp27
 70
     1
102
RTVSPropertyOp28
 70
     1
102
RTVSPropertyOp29
 70
     1
102
RTVSPropertyOp30
 70
     1
102
RTVSPropertyOp31
 70
     1
102
RTVSPropertyOp32
 70
     1
  0
XRECORD
  5
31B
102
{ACAD_REACTORS
330
31A
102
}
330
31A
100
AcDbXrecord
280
     1
102
RTVSPropertyOp0
 70
     1
102
RTVSPropertyOp1
 70
     1
102
RTVSPropertyOp2
 70
     1
102
RTVSPropertyOp3
 70
     1
102
RTVSPropertyOp4
 70
     1
102
RTVSPropertyOp5
 70
     1
102
RTVSPropertyOp6
 70
     1
102
RTVSPropertyOp7
 70
     1
102
RTVSPropertyOp8
 70
     1
102
RTVSPropertyOp9
 70
     1
102
RTVSPropertyOp10
 70
     1
102
RTVSPropertyOp11
 70
     1
102
RTVSPropertyOp12
 70
     1
102
RTVSPropertyOp13
 70
     1
102
RTVSPropertyOp14
 70
     1
102
RTVSPropertyOp15
 70
     1
102
RTVSPropertyOp16
 70
     1
102
RTVSPropertyOp17
 70
     1
102
RTVSPropertyOp18
 70
     1
102
RTVSPropertyOp19
 70
     1
102
RTVSPropertyOp20
 70
     1
102
RTVSPropertyOp21
 70
     1
102
RTVSPropertyOp22
 70
     1
102
RTVSPropertyOp23
 70
     1
102
RTVSPropertyOp24
 70
     1
102
RTVSPropertyOp25
 70
     1
102
RTVSPropertyOp26
 70
     1
102
RTVSPropertyOp27
 70
     1
102
RTVSPropertyOp28
 70
     1
102
RTVSPropertyOp29
 70
     1
102
RTVSPropertyOp30
 70
     1
102
RTVSPropertyOp31
 70
     1
102
RTVSPropertyOp32
 70
     1
  0
XRECORD
  5
31D
102
{ACAD_REACTORS
330
31C
102
}
330
31C
100
AcDbXrecord
280
     1
102
RTVSPropertyOp0
 70
     1
102
RTVSPropertyOp1
 70
     1
102
RTVSPropertyOp2
 70
     1
102
RTVSPropertyOp3
 70
     1
102
RTVSPropertyOp4
 70
     1
102
RTVSPropertyOp5
 70
     1
102
RTVSPropertyOp6
 70
     1
102
RTVSPropertyOp7
 70
     1
102
RTVSPropertyOp8
 70
     1
102
RTVSPropertyOp9
 70
     1
102
RTVSPropertyOp10
 70
     1
102
RTVSPropertyOp11
 70
     1
102
RTVSPropertyOp12
 70
     1
102
RTVSPropertyOp13
 70
     1
102
RTVSPropertyOp14
 70
     1
102
RTVSPropertyOp15
 70
     1
102
RTVSPropertyOp16
 70
     1
102
RTVSPropertyOp17
 70
     1
102
RTVSPropertyOp18
 70
     1
102
RTVSPropertyOp19
 70
     1
102
RTVSPropertyOp20
 70
     1
102
RTVSPropertyOp21
 70
     1
102
RTVSPropertyOp22
 70
     1
102
RTVSPropertyOp23
 70
     1
102
RTVSPropertyOp24
 70
     1
102
RTVSPropertyOp25
 70
     1
102
RTVSPropertyOp26
 70
     1
102
RTVSPropertyOp27
 70
     1
102
RTVSPropertyOp28
 70
     1
102
RTVSPropertyOp29
 70
     1
102
RTVSPropertyOp30
 70
     1
102
RTVSPropertyOp31
 70
     1
102
RTVSPropertyOp32
 70
     1
  0
XRECORD
  5
31F
102
{ACAD_REACTORS
330
31E
102
}
330
31E
100
AcDbXrecord
280
     1
102
RTVSPropertyOp0
 70
     1
102
RTVSPropertyOp1
 70
     1
102
RTVSPropertyOp2
 70
     1
102
RTVSPropertyOp3
 70
     1
102
RTVSPropertyOp4
 70
     1
102
RTVSPropertyOp5
 70
     1
102
RTVSPropertyOp6
 70
     1
102
RTVSPropertyOp7
 70
     1
102
RTVSPropertyOp8
 70
     1
102
RTVSPropertyOp9
 70
     1
102
RTVSPropertyOp10
 70
     1
102
RTVSPropertyOp11
 70
     1
102
RTVSPropertyOp12
 70
     1
102
RTVSPropertyOp13
 70
     1
102
RTVSPropertyOp14
 70
     1
102
RTVSPropertyOp15
 70
     1
102
RTVSPropertyOp16
 70
     1
102
RTVSPropertyOp17
 70
     1
102
RTVSPropertyOp18
 70
     1
102
RTVSPropertyOp19
 70
     1
102
RTVSPropertyOp20
 70
     1
102
RTVSPropertyOp21
 70
     1
102
RTVSPropertyOp22
 70
     1
102
RTVSPropertyOp23
 70
     1
102
RTVSPropertyOp24
 70
     1
102
RTVSPropertyOp25
 70
     1
102
RTVSPropertyOp26
 70
     1
102
RTVSPropertyOp27
 70
     1
102
RTVSPropertyOp28
 70
     1
102
RTVSPropertyOp29
 70
     1
102
RTVSPropertyOp30
 70
     1
102
RTVSPropertyOp31
 70
     1
102
RTVSPropertyOp32
 70
     1
  0
XRECORD
  5
333
102
{ACAD_REACTORS
330
332
102
}
330
332
100
AcDbXrecord
280
     1
102
RTVSPropertyOp0
 70
     1
102
RTVSPropertyOp1
 70
     1
102
RTVSPropertyOp2
 70
     1
102
RTVSPropertyOp3
 70
     1
102
RTVSPropertyOp4
 70
     1
102
RTVSPropertyOp5
 70
     1
102
RTVSPropertyOp6
 70
     1
102
RTVSPropertyOp7
 70
     1
102
RTVSPropertyOp8
 70
     1
102
RTVSPropertyOp9
 70
     1
102
RTVSPropertyOp10
 70
     1
102
RTVSPropertyOp11
 70
     1
102
RTVSPropertyOp12
 70
     1
102
RTVSPropertyOp13
 70
     1
102
RTVSPropertyOp14
 70
     1
102
RTVSPropertyOp15
 70
     1
102
RTVSPropertyOp16
 70
     1
102
RTVSPropertyOp17
 70
     1
102
RTVSPropertyOp18
 70
     1
102
RTVSPropertyOp19
 70
     1
102
RTVSPropertyOp20
 70
     1
102
RTVSPropertyOp21
 70
     1
102
RTVSPropertyOp22
 70
     1
102
RTVSPropertyOp23
 70
     1
102
RTVSPropertyOp24
 70
     1
102
RTVSPropertyOp25
 70
     1
102
RTVSPropertyOp26
 70
     1
102
RTVSPropertyOp27
 70
     1
102
RTVSPropertyOp28
 70
     1
102
RTVSPropertyOp29
 70
     1
102
RTVSPropertyOp30
 70
     1
102
RTVSPropertyOp31
 70
     1
102
RTVSPropertyOp32
 70
     1
  0
XRECORD
  5
329
102
{ACAD_REACTORS
330
328
102
}
330
328
100
AcDbXrecord
280
     1
102
RTVSPropertyOp0
 70
     1
102
RTVSPropertyOp1
 70
     1
102
RTVSPropertyOp2
 70
     1
102
RTVSPropertyOp3
 70
     1
102
RTVSPropertyOp4
 70
     1
102
RTVSPropertyOp5
 70
     1
102
RTVSPropertyOp6
 70
     1
102
RTVSPropertyOp7
 70
     1
102
RTVSPropertyOp8
 70
     1
102
RTVSPropertyOp9
 70
     1
102
RTVSPropertyOp10
 70
     1
102
RTVSPropertyOp11
 70
     1
102
RTVSPropertyOp12
 70
     1
102
RTVSPropertyOp13
 70
     1
102
RTVSPropertyOp14
 70
     1
102
RTVSPropertyOp15
 70
     1
102
RTVSPropertyOp16
 70
     1
102
RTVSPropertyOp17
 70
     1
102
RTVSPropertyOp18
 70
     1
102
RTVSPropertyOp19
 70
     1
102
RTVSPropertyOp20
 70
     1
102
RTVSPropertyOp21
 70
     1
102
RTVSPropertyOp22
 70
     1
102
RTVSPropertyOp23
 70
     1
102
RTVSPropertyOp24
 70
     1
102
RTVSPropertyOp25
 70
     1
102
RTVSPropertyOp26
 70
     1
102
RTVSPropertyOp27
 70
     1
102
RTVSPropertyOp28
 70
     1
102
RTVSPropertyOp29
 70
     1
102
RTVSPropertyOp30
 70
     1
102
RTVSPropertyOp31
 70
     1
102
RTVSPropertyOp32
 70
     1
  0
XRECORD
  5
331
102
{ACAD_REACTORS
330
330
102
}
330
330
100
AcDbXrecord
280
     1
102
RTVSPropertyOp0
 70
     1
102
RTVSPropertyOp1
 70
     1
102
RTVSPropertyOp2
 70
     1
102
RTVSPropertyOp3
 70
     1
102
RTVSPropertyOp4
 70
     1
102
RTVSPropertyOp5
 70
     1
102
RTVSPropertyOp6
 70
     1
102
RTVSPropertyOp7
 70
     1
102
RTVSPropertyOp8
 70
     1
102
RTVSPropertyOp9
 70
     1
102
RTVSPropertyOp10
 70
     1
102
RTVSPropertyOp11
 70
     1
102
RTVSPropertyOp12
 70
     1
102
RTVSPropertyOp13
 70
     1
102
RTVSPropertyOp14
 70
     1
102
RTVSPropertyOp15
 70
     1
102
RTVSPropertyOp16
 70
     1
102
RTVSPropertyOp17
 70
     1
102
RTVSPropertyOp18
 70
     1
102
RTVSPropertyOp19
 70
     1
102
RTVSPropertyOp20
 70
     1
102
RTVSPropertyOp21
 70
     1
102
RTVSPropertyOp22
 70
     1
102
RTVSPropertyOp23
 70
     1
102
RTVSPropertyOp24
 70
     1
102
RTVSPropertyOp25
 70
     1
102
RTVSPropertyOp26
 70
     1
102
RTVSPropertyOp27
 70
     1
102
RTVSPropertyOp28
 70
     1
102
RTVSPropertyOp29
 70
     1
102
RTVSPropertyOp30
 70
     1
102
RTVSPropertyOp31
 70
     1
102
RTVSPropertyOp32
 70
     1
  0
ENDSEC
  0
EOF
