  0
SECTION
  2
HEADER
  9
$ACADVER
  1
AC1018
  9
$ACADMAINTVER
 70
     0
  9
$DWGCODEPAGE
  3
ANSI_1252
  9
$INSBASE
 10
0.0
 20
0.0
 30
0.0
  9
$EXTMIN
 10
-1193.949431399676
 20
-1130.625241860314
 30
0.0
  9
$EXTMAX
 10
-896.9494313996779
 20
-920.6252418603144
 30
0.0
  9
$LIMMIN
 10
0.0
 20
0.0
  9
$LIMMAX
 10
12.0
 20
9.0
  9
$ORTHOMODE
 70
     0
  9
$REGENMODE
 70
     1
  9
$FILLMODE
 70
     1
  9
$QTEXTMODE
 70
     0
  9
$MIRRTEXT
 70
     1
  9
$LTSCALE
 40
1.0
  9
$ATTMODE
 70
     1
  9
$TEXTSIZE
 40
0.2
  9
$TRACEWID
 40
0.05
  9
$TEXTSTYLE
  7
Standard
  9
$CLAYER
  8
0
  9
$CELTYPE
  6
ByLayer
  9
$CECOLOR
 62
   256
  9
$CELTSCALE
 40
1.0
  9
$DISPSILH
 70
     0
  9
$DIMSCALE
 40
1.0
  9
$DIMASZ
 40
0.18
  9
$DIMEXO
 40
0.0625
  9
$DIMDLI
 40
0.38
  9
$DIMRND
 40
0.0
  9
$DIMDLE
 40
0.0
  9
$DIMEXE
 40
0.18
  9
$DIMTP
 40
0.0
  9
$DIMTM
 40
0.0
  9
$DIMTXT
 40
0.18
  9
$DIMCEN
 40
0.09
  9
$DIMTSZ
 40
0.0
  9
$DIMTOL
 70
     0
  9
$DIMLIM
 70
     0
  9
$DIMTIH
 70
     1
  9
$DIMTOH
 70
     1
  9
$DIMSE1
 70
     0
  9
$DIMSE2
 70
     0
  9
$DIMTAD
 70
     0
  9
$DIMZIN
 70
     0
  9
$DIMBLK
  1

  9
$DIMASO
 70
     1
  9
$DIMSHO
 70
     1
  9
$DIMPOST
  1

  9
$DIMAPOST
  1

  9
$DIMALT
 70
     0
  9
$DIMALTD
 70
     2
  9
$DIMALTF
 40
25.4
  9
$DIMLFAC
 40
1.0
  9
$DIMTOFL
 70
     0
  9
$DIMTVP
 40
0.0
  9
$DIMTIX
 70
     0
  9
$DIMSOXD
 70
     0
  9
$DIMSAH
 70
     0
  9
$DIMBLK1
  1

  9
$DIMBLK2
  1

  9
$DIMSTYLE
  2
Standard
  9
$DIMCLRD
 70
     0
  9
$DIMCLRE
 70
     0
  9
$DIMCLRT
 70
     0
  9
$DIMTFAC
 40
1.0
  9
$DIMGAP
 40
0.09
  9
$DIMJUST
 70
     0
  9
$DIMSD1
 70
     0
  9
$DIMSD2
 70
     0
  9
$DIMTOLJ
 70
     1
  9
$DIMTZIN
 70
     0
  9
$DIMALTZ
 70
     0
  9
$DIMALTTZ
 70
     0
  9
$DIMUPT
 70
     0
  9
$DIMDEC
 70
     4
  9
$DIMTDEC
 70
     4
  9
$DIMALTU
 70
     2
  9
$DIMALTTD
 70
     2
  9
$DIMTXSTY
  7
Standard
  9
$DIMAUNIT
 70
     0
  9
$DIMADEC
 70
     0
  9
$DIMALTRND
 40
0.0
  9
$DIMAZIN
 70
     0
  9
$DIMDSEP
 70
    46
  9
$DIMATFIT
 70
     3
  9
$DIMFRAC
 70
     0
  9
$DIMLDRBLK
  1

  9
$DIMLUNIT
 70
     2
  9
$DIMLWD
 70
    -2
  9
$DIMLWE
 70
    -2
  9
$DIMTMOVE
 70
     0
  9
$LUNITS
 70
     2
  9
$LUPREC
 70
     4
  9
$SKETCHINC
 40
0.1
  9
$FILLETRAD
 40
0.5
  9
$AUNITS
 70
     0
  9
$AUPREC
 70
     0
  9
$MENU
  1
.
  9
$ELEVATION
 40
0.0
  9
$PELEVATION
 40
0.0
  9
$THICKNESS
 40
0.0
  9
$LIMCHECK
 70
     0
  9
$CHAMFERA
 40
0.5
  9
$CHAMFERB
 40
0.5
  9
$CHAMFERC
 40
1.0
  9
$CHAMFERD
 40
0.0
  9
$SKPOLY
 70
     0
  9
$TDCREATE
 40
2458227.429684537
  9
$TDUCREATE
 40
2458227.346351204
  9
$TDUPDATE
 40
2458227.429685081
  9
$TDUUPDATE
 40
2458227.346351748
  9
$TDINDWG
 40
0.0000000116
  9
$TDUSRTIMER
 40
0.0000000116
  9
$USRTIMER
 70
     1
  9
$ANGBASE
 50
0.0
  9
$ANGDIR
 70
     0
  9
$PDMODE
 70
     0
  9
$PDSIZE
 40
0.0
  9
$PLINEWID
 40
0.0
  9
$SPLFRAME
 70
     0
  9
$SPLINETYPE
 70
     6
  9
$SPLINESEGS
 70
     8
  9
$HANDSEED
  5
3EA
  9
$SURFTAB1
 70
     6
  9
$SURFTAB2
 70
     6
  9
$SURFTYPE
 70
     6
  9
$SURFU
 70
     6
  9
$SURFV
 70
     6
  9
$UCSBASE
  2

  9
$UCSNAME
  2

  9
$UCSORG
 10
0.0
 20
0.0
 30
0.0
  9
$UCSXDIR
 10
1.0
 20
0.0
 30
0.0
  9
$UCSYDIR
 10
0.0
 20
1.0
 30
0.0
  9
$UCSORTHOREF
  2

  9
$UCSORTHOVIEW
 70
     0
  9
$UCSORGTOP
 10
0.0
 20
0.0
 30
0.0
  9
$UCSORGBOTTOM
 10
0.0
 20
0.0
 30
0.0
  9
$UCSORGLEFT
 10
0.0
 20
0.0
 30
0.0
  9
$UCSORGRIGHT
 10
0.0
 20
0.0
 30
0.0
  9
$UCSORGFRONT
 10
0.0
 20
0.0
 30
0.0
  9
$UCSORGBACK
 10
0.0
 20
0.0
 30
0.0
  9
$PUCSBASE
  2

  9
$PUCSNAME
  2

  9
$PUCSORG
 10
0.0
 20
0.0
 30
0.0
  9
$PUCSXDIR
 10
1.0
 20
0.0
 30
0.0
  9
$PUCSYDIR
 10
0.0
 20
1.0
 30
0.0
  9
$PUCSORTHOREF
  2

  9
$PUCSORTHOVIEW
 70
     0
  9
$PUCSORGTOP
 10
0.0
 20
0.0
 30
0.0
  9
$PUCSORGBOTTOM
 10
0.0
 20
0.0
 30
0.0
  9
$PUCSORGLEFT
 10
0.0
 20
0.0
 30
0.0
  9
$PUCSORGRIGHT
 10
0.0
 20
0.0
 30
0.0
  9
$PUCSORGFRONT
 10
0.0
 20
0.0
 30
0.0
  9
$PUCSORGBACK
 10
0.0
 20
0.0
 30
0.0
  9
$USERI1
 70
     0
  9
$USERI2
 70
     0
  9
$USERI3
 70
     0
  9
$USERI4
 70
     0
  9
$USERI5
 70
     0
  9
$USERR1
 40
18.1
  9
$USERR2
 40
0.0
  9
$USERR3
 40
0.0
  9
$USERR4
 40
0.0
  9
$USERR5
 40
0.0
  9
$WORLDVIEW
 70
     1
  9
$SHADEDGE
 70
     3
  9
$SHADEDIF
 70
    70
  9
$TILEMODE
 70
     1
  9
$MAXACTVP
 70
    64
  9
$PINSBASE
 10
0.0
 20
0.0
 30
0.0
  9
$PLIMCHECK
 70
     0
  9
$PEXTMIN
 10
1.00000000000000E+20
 20
1.00000000000000E+20
 30
1.00000000000000E+20
  9
$PEXTMAX
 10
-1.00000000000000E+20
 20
-1.00000000000000E+20
 30
-1.00000000000000E+20
  9
$PLIMMIN
 10
0.0
 20
0.0
  9
$PLIMMAX
 10
12.0
 20
9.0
  9
$UNITMODE
 70
     0
  9
$VISRETAIN
 70
     1
  9
$PLINEGEN
 70
     0
  9
$PSLTSCALE
 70
     1
  9
$TREEDEPTH
 70
  3020
  9
$CMLSTYLE
  2
Standard
  9
$CMLJUST
 70
     0
  9
$CMLSCALE
 40
1.0
  9
$PROXYGRAPHICS
 70
     1
  9
$MEASUREMENT
 70
     1
  9
$CELWEIGHT
370
    -1
  9
$ENDCAPS
280
     0
  9
$JOINSTYLE
280
     0
  9
$LWDISPLAY
290
     0
  9
$INSUNITS
 70
     4
  9
$HYPERLINKBASE
  1

  9
$STYLESHEET
  1

  9
$XEDIT
290
     1
  9
$CEPSNTYPE
380
     0
  9
$PSTYLEMODE
290
     1
  9
$FINGERPRINTGUID
  2
{A1C3710A-8DDC-4B53-8429-3FD20E067DEC}
  9
$VERSIONGUID
  2
{FAEB1C32-E019-11D5-929B-00C0DF256EC4}
  9
$EXTNAMES
290
     1
  9
$PSVPSCALE
 40
0.0
  9
$OLESTARTUP
290
     0
  9
$SORTENTS
280
   127
  9
$INDEXCTL
280
     0
  9
$HIDETEXT
280
     1
  9
$XCLIPFRAME
290
     0
  9
$HALOGAP
280
     0
  9
$OBSCOLOR
 70
   257
  9
$OBSLTYPE
280
     0
  9
$INTERSECTIONDISPLAY
280
     0
  9
$INTERSECTIONCOLOR
 70
   257
  9
$DIMASSOC
280
     2
  9
$PROJECTNAME
  1

  0
ENDSEC
  0
SECTION
  2
CLASSES
  0
CLASS
  1
ACDBDICTIONARYWDFLT
  2
AcDbDictionaryWithDefault
  3
ObjectDBX Classes
 90
        0
 91
        4
280
     0
281
     0
  0
CLASS
  1
VISUALSTYLE
  2
AcDbVisualStyle
  3
ObjectDBX Classes
 90
     4095
 91
        4
280
     0
281
     0
  0
CLASS
  1
MATERIAL
  2
AcDbMaterial
  3
ObjectDBX Classes
 90
     1153
 91
        4
280
     0
281
     0
  0
ENDSEC
  0
SECTION
  2
TABLES
  0
TABLE
  2
VPORT
  5
8
330
0
100
AcDbSymbolTable
 70
     1
  0
VPORT
  5
29
330
8
100
AcDbSymbolTableRecord
100
AcDbViewportTableRecord
  2
*Active
 70
     0
 10
0.0
 20
0.0
 11
1.0
 21
1.0
 12
-1045.449431399677
 22
-1025.625241860314
 13
0.0
 23
0.0
 14
0.5
 24
0.5
 15
0.5
 25
0.5
 16
0.0
 26
0.0
 36
1.0
 17
0.0
 27
0.0
 37
0.0
 40
230.9999999999995
 41
1.60267857142857
 42
50.0
 43
0.0
 44
0.0
 50
0.0
 51
0.0
 71
     0
 72
   100
 73
     1
 74
     3
 75
     0
 76
     0
 77
     0
 78
     0
281
     0
 65
     1
110
0.0
120
0.0
130
0.0
111
1.0
121
0.0
131
0.0
112
0.0
122
1.0
132
0.0
 79
     0
146
0.0
  0
ENDTAB
  0
TABLE
  2
LTYPE
  5
5
330
0
100
AcDbSymbolTable
 70
     8
  0
LTYPE
  5
14
330
5
100
AcDbSymbolTableRecord
100
AcDbLinetypeTableRecord
  2
ByBlock
 70
     0
  3

 72
    65
 73
     0
 40
0.0
  0
LTYPE
  5
15
330
5
100
AcDbSymbolTableRecord
100
AcDbLinetypeTableRecord
  2
ByLayer
 70
     0
  3

 72
    65
 73
     0
 40
0.0
  0
LTYPE
  5
16
330
5
100
AcDbSymbolTableRecord
100
AcDbLinetypeTableRecord
  2
Continuous
 70
     0
  3
Solid line
 72
    65
 73
     0
 40
0.0
  0
LTYPE
  5
3F
330
5
100
AcDbSymbolTableRecord
100
AcDbLinetypeTableRecord
  2
DASHED
 70
     0
  3
Dashed
 72
    65
 73
     2
 40
15.0
 49
7.0
 74
     0
 49
-8.0
 74
     0
  0
LTYPE
  5
40
330
5
100
AcDbSymbolTableRecord
100
AcDbLinetypeTableRecord
  2
DOTTED
 70
     0
  3
Dotted
 72
    65
 73
     2
 40
1.0
 49
0.0
 74
     0
 49
-1.0
 74
     0
  0
LTYPE
  5
41
330
5
100
AcDbSymbolTableRecord
100
AcDbLinetypeTableRecord
  2
DOT_CENTER
 70
     0
  3
Dot_Center
 72
    65
 73
     4
 40
14.0
 49
12.0
 74
     0
 49
-1.0
 74
     0
 49
0.0
 74
     0
 49
-1.0
 74
     0
  0
LTYPE
  5
42
330
5
100
AcDbSymbolTableRecord
100
AcDbLinetypeTableRecord
  2
LONG_DASHED
 70
     0
  3
Long_Dashed
 72
    65
 73
     2
 40
15.0
 49
10.0
 74
     0
 49
-5.0
 74
     0
  0
LTYPE
  5
43
330
5
100
AcDbSymbolTableRecord
100
AcDbLinetypeTableRecord
  2
DASH_CENTER
 70
     0
  3
Dash_Center
 72
    65
 73
     4
 40
14.0
 49
11.0
 74
     0
 49
-1.0
 74
     0
 49
1.0
 74
     0
 49
-1.0
 74
     0
  0
LTYPE
  5
44
330
5
100
AcDbSymbolTableRecord
100
AcDbLinetypeTableRecord
  2
PHANTOM
 70
     0
  3
Phantom
 72
    65
 73
     6
 40
13.0
 49
10.0
 74
     0
 49
-1.0
 74
     0
 49
0.0
 74
     0
 49
-1.0
 74
     0
 49
0.0
 74
     0
 49
-1.0
 74
     0
  0
LTYPE
  5
45
330
5
100
AcDbSymbolTableRecord
100
AcDbLinetypeTableRecord
  2
CENTER_DASH_DASH
 70
     0
  3
Center_Dash_Dash
 72
    65
 73
     6
 40
14.0
 49
9.0
 74
     0
 49
-1.0
 74
     0
 49
1.0
 74
     0
 49
-1.0
 74
     0
 49
1.0
 74
     0
 49
-1.0
 74
     0
  0
ENDTAB
  0
TABLE
  2
LAYER
  5
2
330
0
100
AcDbSymbolTable
 70
     2
  0
LAYER
  5
10
330
2
100
AcDbSymbolTableRecord
100
AcDbLayerTableRecord
  2
0
 70
     0
 62
     7
  6
Continuous
370
    -3
390
F
  0
LAYER
  5
46
330
2
100
AcDbSymbolTableRecord
100
AcDbLayerTableRecord
  2
1
 70
     0
 62
     7
  6
Continuous
370
    -3
390
F
  0
ENDTAB
  0
TABLE
  2
STYLE
  5
3
330
0
100
AcDbSymbolTable
 70
     5
  0
STYLE
  5
11
330
3
100
AcDbSymbolTableRecord
100
AcDbTextStyleTableRecord
  2
Standard
 70
     0
 40
0.0
 41
1.0
 50
0.0
 71
     0
 42
0.2
  3
txt
  4

  0
STYLE
  5
F7
330
3
100
AcDbSymbolTableRecord
100
AcDbTextStyleTableRecord
  2
CONVERTER_11
 70
     0
 40
0.0
 41
0.9
 50
0.0
 71
     0
 42
0.2
  3
txt.shx
  4

  0
STYLE
  5
380
330
3
100
AcDbSymbolTableRecord
100
AcDbTextStyleTableRecord
  2
CONVERTER_12
 70
     0
 40
0.0
 41
0.81
 50
0.0
 71
     0
 42
0.2
  3
txt.shx
  4

  0
STYLE
  5
386
330
3
100
AcDbSymbolTableRecord
100
AcDbTextStyleTableRecord
  2
CONVERTER_13
 70
     0
 40
0.0
 41
0.855
 50
0.0
 71
     0
 42
0.2
  3
txt.shx
  4

  0
STYLE
  5
389
330
3
100
AcDbSymbolTableRecord
100
AcDbTextStyleTableRecord
  2
CONVERTER_14
 70
     0
 40
0.0
 41
0.72
 50
0.0
 71
     0
 42
0.2
  3
txt.shx
  4

  0
ENDTAB
  0
TABLE
  2
VIEW
  5
6
330
0
100
AcDbSymbolTable
 70
     0
  0
ENDTAB
  0
TABLE
  2
UCS
  5
7
330
0
100
AcDbSymbolTable
 70
     0
  0
ENDTAB
  0
TABLE
  2
APPID
  5
9
330
0
100
AcDbSymbolTable
 70
     1
  0
APPID
  5
12
330
9
100
AcDbSymbolTableRecord
100
AcDbRegAppTableRecord
  2
ACAD
 70
     0
  0
ENDTAB
  0
TABLE
  2
DIMSTYLE
  5
A
330
0
100
AcDbSymbolTable
 70
     8
100
AcDbDimStyleTable
  0
DIMSTYLE
105
27
330
A
100
AcDbSymbolTableRecord
100
AcDbDimStyleTableRecord
  2
Standard
 70
     0
178
     0
340
11
  0
DIMSTYLE
105
162
102
{ACAD_REACTORS
330
163
102
}
330
A
100
AcDbSymbolTableRecord
100
AcDbDimStyleTableRecord
  2
ME10_DIM_10
 70
     0
 41
3.5
 42
0.0
 44
1.5
 73
     0
 74
     0
 77
     1
 78
     8
140
3.5
147
1.5
172
     1
173
     1
174
     1
175
     1
176
     2
177
     2
178
     3
340
F7
  0
DIMSTYLE
105
16F
102
{ACAD_REACTORS
330
170
102
}
330
A
100
AcDbSymbolTableRecord
100
AcDbDimStyleTableRecord
  2
ME10_DIM_11
 70
     0
 41
3.5
 42
0.0
 44
1.5
 73
     0
 74
     0
 77
     1
 78
     8
140
3.5
147
1.5
172
     1
173
     1
174
     1
175
     1
176
     2
177
     2
178
     3
340
F7
  0
DIMSTYLE
105
25B
102
{ACAD_REACTORS
330
25C
102
}
330
A
100
AcDbSymbolTableRecord
100
AcDbDimStyleTableRecord
  2
ME10_DIM_12
 70
     0
 41
3.5
 42
0.0
 44
1.5
 73
     0
 74
     0
 77
     1
 78
     8
140
3.5
147
1.5
172
     1
173
     1
174
     1
175
     1
176
     2
177
     2
178
     3
340
F7
  0
DIMSTYLE
105
266
102
{ACAD_REACTORS
330
267
102
}
330
A
100
AcDbSymbolTableRecord
100
AcDbDimStyleTableRecord
  2
ME10_DIM_13
 70
     0
 41
3.5
 42
0.0
 44
1.5
 73
     0
 74
     0
 77
     1
 78
     8
140
3.5
147
1.5
172
     1
173
     1
174
     1
175
     1
176
     2
177
     2
271
     1
178
     3
271
     1
340
F7
  0
DIMSTYLE
105
271
102
{ACAD_REACTORS
330
272
102
}
330
A
100
AcDbSymbolTableRecord
100
AcDbDimStyleTableRecord
  2
ME10_DIM_14
 70
     0
 41
3.5
 42
0.0
 44
1.5
 73
     0
 74
     0
 77
     1
 78
     8
140
3.5
147
1.5
172
     1
173
     1
174
     1
175
     1
176
     2
177
     2
271
     2
178
     3
271
     2
340
F7
  0
DIMSTYLE
105
27C
102
{ACAD_REACTORS
330
27D
102
}
330
A
100
AcDbSymbolTableRecord
100
AcDbDimStyleTableRecord
  2
ME10_DIM_15
 70
     0
 41
3.5
 42
0.0
 44
1.5
 73
     0
 74
     0
 77
     1
 78
     8
140
3.5
147
1.5
172
     1
173
     1
174
     1
175
     1
176
     2
177
     2
271
     2
178
     3
271
     2
340
F7
  0
DIMSTYLE
105
287
102
{ACAD_REACTORS
330
288
102
}
330
A
100
AcDbSymbolTableRecord
100
AcDbDimStyleTableRecord
  2
ME10_DIM_16
 70
     0
 41
3.5
 42
0.0
 44
2.0
 73
     0
 74
     0
 77
     1
 78
     8
140
3.5
147
2.0
172
     1
173
     1
174
     1
175
     1
176
     2
177
     2
178
     3
340
F7
  0
ENDTAB
  0
TABLE
  2
BLOCK_RECORD
  5
1
330
0
100
AcDbSymbolTable
 70
    24
  0
BLOCK_RECORD
  5
1F
330
1
100
AcDbSymbolTableRecord
100
AcDbBlockTableRecord
  2
*Model_Space
340
22
  0
BLOCK_RECORD
  5
1B
330
1
100
AcDbSymbolTableRecord
100
AcDbBlockTableRecord
  2
*Paper_Space
340
1E
  0
BLOCK_RECORD
  5
23
330
1
100
AcDbSymbolTableRecord
100
AcDbBlockTableRecord
  2
*Paper_Space0
340
26
  0
BLOCK_RECORD
  5
47
330
1
100
AcDbSymbolTableRecord
100
AcDbBlockTableRecord
  2
AB_SK_E_NS_35-select__1
340
0
102
{BLKREFS
331
4B
102
}
  0
BLOCK_RECORD
  5
4A
330
1
100
AcDbSymbolTableRecord
100
AcDbBlockTableRecord
  2
AllgSicht1
340
0
102
{BLKREFS
331
7D
102
}
  0
BLOCK_RECORD
  5
4E
330
1
100
AcDbSymbolTableRecord
100
AcDbBlockTableRecord
  2
AB_SK_E_NS_35-select__2
340
0
102
{BLKREFS
331
52
102
}
  0
BLOCK_RECORD
  5
51
330
1
100
AcDbSymbolTableRecord
100
AcDbBlockTableRecord
  2
Drfsicht1
340
0
102
{BLKREFS
331
7E
102
}
  0
BLOCK_RECORD
  5
55
330
1
100
AcDbSymbolTableRecord
100
AcDbBlockTableRecord
  2
AB_SK_E_NS_35-select__3
340
0
102
{BLKREFS
331
59
102
}
  0
BLOCK_RECORD
  5
58
330
1
100
AcDbSymbolTableRecord
100
AcDbBlockTableRecord
  2
Rckans1
340
0
102
{BLKREFS
331
7F
102
}
  0
BLOCK_RECORD
  5
5C
330
1
100
AcDbSymbolTableRecord
100
AcDbBlockTableRecord
  2
AB_SK_E_NS_35-select__4
340
0
102
{BLKREFS
331
60
102
}
  0
BLOCK_RECORD
  5
5F
330
1
100
AcDbSymbolTableRecord
100
AcDbBlockTableRecord
  2
SA_Links1
340
0
102
{BLKREFS
331
80
102
}
  0
BLOCK_RECORD
  5
63
330
1
100
AcDbSymbolTableRecord
100
AcDbBlockTableRecord
  2
AB_SK_E_NS_35-select__5
340
0
102
{BLKREFS
331
67
102
}
  0
BLOCK_RECORD
  5
66
330
1
100
AcDbSymbolTableRecord
100
AcDbBlockTableRecord
  2
SA_Rechts1
340
0
102
{BLKREFS
331
81
102
}
  0
BLOCK_RECORD
  5
6A
330
1
100
AcDbSymbolTableRecord
100
AcDbBlockTableRecord
  2
AB_SK_E_NS_35-select__6
340
0
102
{BLKREFS
331
6E
102
}
  0
BLOCK_RECORD
  5
6D
330
1
100
AcDbSymbolTableRecord
100
AcDbBlockTableRecord
  2
Vordans1
340
0
102
{BLKREFS
331
82
102
}
  0
BLOCK_RECORD
  5
71
330
1
100
AcDbSymbolTableRecord
100
AcDbBlockTableRecord
  2
_rahmen
340
0
102
{BLKREFS
331
78
102
}
  0
BLOCK_RECORD
  5
74
330
1
100
AcDbSymbolTableRecord
100
AcDbBlockTableRecord
  2
_punkt
340
0
102
{BLKREFS
331
79
102
}
  0
BLOCK_RECORD
  5
77
330
1
100
AcDbSymbolTableRecord
100
AcDbBlockTableRecord
  2
A4I_CS
340
0
102
{BLKREFS
331
83
102
}
  0
BLOCK_RECORD
  5
7C
330
1
100
AcDbSymbolTableRecord
100
AcDbBlockTableRecord
  2
1
340
0
102
{BLKREFS
331
86
102
}
  0
BLOCK_RECORD
  5
159
330
1
100
AcDbSymbolTableRecord
100
AcDbBlockTableRecord
  2
*D17
340
0
  0
BLOCK_RECORD
  5
164
330
1
100
AcDbSymbolTableRecord
100
AcDbBlockTableRecord
  2
*D18
340
0
  0
BLOCK_RECORD
  5
252
330
1
100
AcDbSymbolTableRecord
100
AcDbBlockTableRecord
  2
*D19
340
0
  0
BLOCK_RECORD
  5
25D
330
1
100
AcDbSymbolTableRecord
100
AcDbBlockTableRecord
  2
*D20
340
0
  0
BLOCK_RECORD
  5
268
330
1
100
AcDbSymbolTableRecord
100
AcDbBlockTableRecord
  2
*D21
340
0
  0
BLOCK_RECORD
  5
273
330
1
100
AcDbSymbolTableRecord
100
AcDbBlockTableRecord
  2
*D22
340
0
  0
BLOCK_RECORD
  5
27E
330
1
100
AcDbSymbolTableRecord
100
AcDbBlockTableRecord
  2
*D23
340
0
  0
ENDTAB
  0
ENDSEC
  0
SECTION
  2
BLOCKS
  0
BLOCK
  5
20
330
1F
100
AcDbEntity
  8
0
100
AcDbBlockBegin
  2
*Model_Space
 70
     0
 10
0.0
 20
0.0
 30
0.0
  3
*Model_Space
  1

  0
ENDBLK
  5
21
330
1F
100
AcDbEntity
  8
0
100
AcDbBlockEnd
  0
BLOCK
  5
1C
330
1B
100
AcDbEntity
 67
     1
  8
0
100
AcDbBlockBegin
  2
*Paper_Space
 70
     0
 10
0.0
 20
0.0
 30
0.0
  3
*Paper_Space
  1

  0
ENDBLK
  5
1D
330
1B
100
AcDbEntity
 67
     1
  8
0
100
AcDbBlockEnd
  0
BLOCK
  5
24
330
23
100
AcDbEntity
  8
0
100
AcDbBlockBegin
  2
*Paper_Space0
 70
     0
 10
0.0
 20
0.0
 30
0.0
  3
*Paper_Space0
  1

  0
ENDBLK
  5
25
330
23
100
AcDbEntity
  8
0
100
AcDbBlockEnd
  0
BLOCK
  5
48
330
47
100
AcDbEntity
  8
0
100
AcDbBlockBegin
  2
AB_SK_E_NS_35-select__1
 70
     0
 10
-980.3938246736161
 20
-1077.384973902792
 30
0.0
  3
AB_SK_E_NS_35-select__1
  1

  0
LINE
  5
87
330
47
100
AcDbEntity
  8
0
  6
Continuous
 62
     7
100
AcDbLine
 10
-947.7282173694273
 20
-1027.465147882075
 30
0.0
 11
-947.9347774094408
 21
-1029.341174801846
 31
0.0
  0
LINE
  5
88
330
47
100
AcDbEntity
  8
0
  6
Continuous
 62
     7
100
AcDbLine
 10
-947.2981820124562
 20
-1027.092726338413
 30
0.0
 11
-938.7890932711373
 21
-1029.549088676092
 31
0.0
  0
LINE
  5
89
330
47
100
AcDbEntity
  8
0
  6
Continuous
 62
     7
100
AcDbLine
 10
-947.7282173694273
 20
-1027.465147882075
 30
0.0
 11
-939.2191286281083
 21
-1029.921510219754
 31
0.0
  0
LINE
  5
8A
330
47
100
AcDbEntity
  8
0
  6
Continuous
 62
     7
100
AcDbLine
 10
-939.2191286281083
 20
-1029.921510219754
 30
0.0
 11
-938.7890932711373
 21
-1029.549088676092
 31
0.0
  0
LINE
  5
8B
330
47
100
AcDbEntity
  8
0
  6
Continuous
 62
     7
100
AcDbLine
 10
-947.7282173694273
 20
-1027.465147882075
 30
0.0
 11
-947.2981820124562
 21
-1027.092726338413
 31
0.0
  0
LINE
  5
8C
330
47
100
AcDbEntity
  8
0
  6
Continuous
 62
     7
100
AcDbLine
 10
-974.0923700368421
 20
-1057.556977388107
 30
0.0
 11
-980.3938246736161
 21
-1055.737904122693
 31
0.0
  0
LINE
  5
8D
330
47
100
AcDbEntity
  8
0
  6
Continuous
 62
     7
100
AcDbLine
 10
-949.9626832031743
 20
-1056.324244438927
 30
0.0
 11
-943.5746824321702
 21
-1058.168301421288
 31
0.0
  0
LINE
  5
8E
330
47
100
AcDbEntity
  8
0
  6
Continuous
 62
     7
100
AcDbLine
 10
-943.8550671898995
 20
-1060.310159849992
 30
0.0
 11
-944.3746824321703
 21
-1060.160159849992
 31
0.0
  0
LINE
  5
8F
330
47
100
AcDbEntity
  8
0
  6
Continuous
 62
     7
100
AcDbLine
 10
-944.3246824321702
 20
-1060.116858579803
 30
0.0
 11
-944.3246824321702
 21
-1060.174593606722
 31
0.0
  0
LINE
  5
90
330
47
100
AcDbEntity
  8
0
  6
Continuous
 62
     7
100
AcDbLine
 10
-964.0170377564282
 20
-1057.330327019936
 30
0.0
 11
-964.0470480294931
 21
-1055.841456072151
 31
0.0
  0
LINE
  5
91
330
47
100
AcDbEntity
  8
0
  6
Continuous
 62
     7
100
AcDbLine
 10
-980.3938246736161
 20
-1055.737904122693
 30
0.0
 11
-980.3938246736161
 21
-1064.917773402796
 31
0.0
  0
LINE
  5
92
330
47
100
AcDbEntity
  8
0
  6
Continuous
 62
     7
100
AcDbLine
 10
-947.4550671898995
 20
-1063.427851303616
 30
0.0
 11
-947.4550671898995
 21
-1064.909897228132
 31
0.0
  0
LINE
  5
93
330
47
100
AcDbEntity
  8
0
  6
Continuous
 62
     7
100
AcDbLine
 10
-980.3938246736161
 20
-1055.737904122693
 30
0.0
 11
-979.7938246736162
 21
-1055.218288880422
 31
0.0
  0
LINE
  5
94
330
47
100
AcDbEntity
  8
0
  6
Continuous
 62
     7
100
AcDbLine
 10
-933.6061752853365
 20
-1065.087413169064
 30
0.0
 11
-943.8550671898995
 21
-1062.128812919067
 31
0.0
  0
LINE
  5
95
330
47
100
AcDbEntity
  8
0
  6
Continuous
 62
     7
100
AcDbLine
 10
-933.6061752853365
 20
-1074.267282449167
 30
0.0
 11
-934.2061752853365
 21
-1074.786897691438
 31
0.0
  0
LINE
  5
96
330
47
100
AcDbEntity
  8
0
  6
Continuous
 62
     7
100
AcDbLine
 10
-944.6930045637575
 20
-1075.223712453154
 30
0.0
 11
-937.2061752853331
 21
-1077.384973902792
 31
0.0
  0
LINE
  5
97
330
47
100
AcDbEntity
  8
0
  6
Continuous
 62
     7
100
AcDbLine
 10
-944.6930045637575
 20
-1075.223712453154
 30
0.0
 11
-945.5665331259993
 21
-1072.89308550879
 31
0.0
  0
LINE
  5
98
330
47
100
AcDbEntity
  8
0
  6
Continuous
 62
     7
100
AcDbLine
 10
-934.2061752853365
 20
-1065.607028411335
 30
0.0
 11
-944.4550671898995
 21
-1062.648428161337
 31
0.0
  0
LINE
  5
99
330
47
100
AcDbEntity
  8
0
  6
Continuous
 62
     7
100
AcDbLine
 10
-934.2061752853365
 20
-1074.786897691438
 30
0.0
 11
-936.606175285333
 21
-1074.094077368411
 31
0.0
  0
LINE
  5
9A
330
47
100
AcDbEntity
  8
0
  6
Continuous
 62
     7
100
AcDbLine
 10
-937.2061752853331
 20
-1068.205104622689
 30
0.0
 11
-936.606175285333
 21
-1067.685489380418
 31
0.0
  0
LINE
  5
9B
330
47
100
AcDbEntity
  8
0
  6
Continuous
 62
     7
100
AcDbLine
 10
-936.2134665000026
 20
-1064.334753026742
 30
0.0
 11
-936.2134665000026
 21
-1063.610838492122
 31
0.0
  0
LINE
  5
9C
330
47
100
AcDbEntity
  8
0
  6
Continuous
 62
     7
100
AcDbLine
 10
-934.2061752853365
 20
-1065.607028411335
 30
0.0
 11
-934.2061752853365
 21
-1074.786897691438
 31
0.0
  0
LINE
  5
9D
330
47
100
AcDbEntity
  8
0
  6
Continuous
 62
     7
100
AcDbLine
 10
-937.2061752853331
 20
-1068.205104622689
 30
0.0
 11
-937.2061752853331
 21
-1077.384973902792
 31
0.0
  0
LINE
  5
9E
330
47
100
AcDbEntity
  8
0
  6
Continuous
 62
     7
100
AcDbLine
 10
-936.606175285333
 20
-1067.685489380418
 30
0.0
 11
-936.606175285333
 21
-1076.865358660521
 31
0.0
  0
LINE
  5
9F
330
47
100
AcDbEntity
  8
0
  6
Continuous
 62
     7
100
AcDbLine
 10
-937.2061752853331
 20
-1077.384973902792
 30
0.0
 11
-936.606175285333
 21
-1076.865358660521
 31
0.0
  0
LINE
  5
A0
330
47
100
AcDbEntity
  8
0
  6
Continuous
 62
     7
100
AcDbLine
 10
-933.6061752853365
 20
-1065.087413169064
 30
0.0
 11
-934.2061752853365
 21
-1065.607028411335
 31
0.0
  0
LINE
  5
A1
330
47
100
AcDbEntity
  8
0
  6
Continuous
 62
     7
100
AcDbLine
 10
-933.6061752853365
 20
-1065.087413169064
 30
0.0
 11
-933.6061752853365
 21
-1074.267282449167
 31
0.0
  0
LINE
  5
A2
330
47
100
AcDbEntity
  8
0
  6
Continuous
 62
     7
100
AcDbLine
 10
-943.8550671898995
 20
-1060.310159849992
 30
0.0
 11
-947.4550671898995
 21
-1063.427851303616
 31
0.0
  0
LINE
  5
A3
330
47
100
AcDbEntity
  8
0
  6
Continuous
 62
     7
100
AcDbLine
 10
-939.3652225495116
 20
-1031.814992204454
 30
0.0
 11
-947.9347774094408
 21
-1029.341174801846
 31
0.0
  0
LINE
  5
A4
330
47
100
AcDbEntity
  8
0
  6
Continuous
 62
     7
100
AcDbLine
 10
-940.6634665000024
 20
-1074.279611692407
 30
0.0
 11
-941.4134665000024
 21
-1074.929130745245
 31
0.0
  0
LINE
  5
A5
330
47
100
AcDbEntity
  8
0
  6
Continuous
 62
     7
100
AcDbLine
 10
-943.6512541430588
 20
-1074.283137096191
 30
0.0
 11
-941.4134665000024
 21
-1074.929130745245
 31
0.0
  0
LINE
  5
A6
330
47
100
AcDbEntity
  8
0
  6
Continuous
 62
     7
100
AcDbLine
 10
-946.8550671898995
 20
-1064.72688913042
 30
0.0
 11
-947.1840882246643
 21
-1065.011829704906
 31
0.0
  0
LINE
  5
A7
330
47
100
AcDbEntity
  8
0
  6
Continuous
 62
     7
100
AcDbLine
 10
-946.8550671898995
 20
-1064.293876707401
 30
0.0
 11
-944.4550671898995
 21
-1062.215415738318
 31
0.0
  0
LINE
  5
A8
330
47
100
AcDbEntity
  8
0
  6
Continuous
 62
     7
100
AcDbLine
 10
-944.4550671898995
 20
-1062.648428161337
 30
0.0
 11
-944.4550671898995
 21
-1062.215415738318
 31
0.0
  0
LINE
  5
A9
330
47
100
AcDbEntity
  8
0
  6
Continuous
 62
     7
100
AcDbLine
 10
-944.3746824321703
 20
-1060.160159849992
 30
0.0
 11
-944.3246824321702
 21
-1060.116858579803
 31
0.0
  0
LINE
  5
AA
330
47
100
AcDbEntity
  8
0
  6
Continuous
 62
     7
100
AcDbLine
 10
-946.8550671898995
 20
-1064.293876707401
 30
0.0
 11
-946.8550671898995
 21
-1064.72688913042
 31
0.0
  0
LINE
  5
AB
330
47
100
AcDbEntity
  8
0
  6
Continuous
 62
     7
100
AcDbLine
 10
-943.5746824321702
 20
-1060.841815548291
 30
0.0
 11
-943.8550671898995
 21
-1061.084635871319
 31
0.0
  0
LINE
  5
AC
330
47
100
AcDbEntity
  8
0
  6
Continuous
 62
     7
100
AcDbLine
 10
-943.5746824321702
 20
-1058.168301421288
 30
0.0
 11
-943.5746824321702
 21
-1060.841815548291
 31
0.0
  0
LINE
  5
AD
330
47
100
AcDbEntity
  8
0
  6
Continuous
 62
     7
100
AcDbLine
 10
-943.8550671898995
 20
-1060.310159849992
 30
0.0
 11
-943.8550671898995
 21
-1062.128812919067
 31
0.0
  0
LINE
  5
AE
330
47
100
AcDbEntity
  8
0
  6
Continuous
 62
     7
100
AcDbLine
 10
-940.6634665000024
 20
-1067.464651538963
 30
0.0
 11
-941.4134665000024
 21
-1068.114170591801
 31
0.0
  0
LINE
  5
AF
330
47
100
AcDbEntity
  8
0
  6
Continuous
 62
     7
100
AcDbLine
 10
-944.4550671898995
 20
-1062.648428161337
 30
0.0
 11
-943.8550671898995
 21
-1062.128812919067
 31
0.0
  0
LINE
  5
B0
330
47
100
AcDbEntity
  8
0
  6
Continuous
 62
     7
100
AcDbLine
 10
-944.4012541430588
 20
-1072.767592639568
 30
0.0
 11
-943.6512541430588
 21
-1074.283137096191
 31
0.0
  0
LINE
  5
B1
330
47
100
AcDbEntity
  8
0
  6
Continuous
 62
     7
100
AcDbLine
 10
-945.5665331259993
 20
-1072.89308550879
 30
0.0
 11
-945.5665331259995
 21
-1072.431205572327
 31
0.0
  0
LINE
  5
B2
330
47
100
AcDbEntity
  8
0
  6
Continuous
 62
     7
100
AcDbLine
 10
-940.6634665000024
 20
-1074.279611692407
 30
0.0
 11
-940.6634665000024
 21
-1067.464651538963
 31
0.0
  0
LINE
  5
B3
330
47
100
AcDbEntity
  8
0
  6
Continuous
 62
     7
100
AcDbLine
 10
-941.4134665000024
 20
-1074.929130745245
 30
0.0
 11
-941.4134665000024
 21
-1068.114170591801
 31
0.0
  0
LINE
  5
B4
330
47
100
AcDbEntity
  8
0
  6
Continuous
 62
     7
100
AcDbLine
 10
-947.9347774094408
 20
-1029.341174801846
 30
0.0
 11
-958.585464730572
 21
-1038.56494058971
 31
0.0
  0
LINE
  5
B5
330
47
100
AcDbEntity
  8
0
  6
Continuous
 62
     7
100
AcDbLine
 10
-970.4253175267824
 20
-1057.922743941987
 30
0.0
 11
-979.7938246736162
 21
-1055.218288880422
 31
0.0
  0
LINE
  5
B6
330
47
100
AcDbEntity
  8
0
  6
Continuous
 62
     7
100
AcDbLine
 10
-963.9840900883095
 20
-1043.240287295026
 30
0.0
 11
-973.3111043901492
 21
-1051.31771862188
 31
0.0
  0
LINE
  5
B7
330
47
100
AcDbEntity
  8
0
  6
Continuous
 62
     7
100
AcDbLine
 10
-964.2956044041691
 20
-1043.510066606203
 30
0.0
 11
-964.3224858861358
 21
-1042.176421375879
 31
0.0
  0
LINE
  5
B8
330
47
100
AcDbEntity
  8
0
  6
Continuous
 62
     7
100
AcDbLine
 10
-975.2109066878152
 20
-1051.265854996114
 30
0.0
 11
-975.3301269983983
 21
-1055.611954508007
 31
0.0
  0
LINE
  5
B9
330
47
100
AcDbEntity
  8
0
  6
Continuous
 62
     7
100
AcDbLine
 10
-966.2709732159337
 20
-1053.350029436162
 30
0.0
 11
-974.7808713308441
 21
-1050.893433452452
 31
0.0
  0
LINE
  5
BA
330
47
100
AcDbEntity
  8
0
  6
Continuous
 62
     7
100
AcDbLine
 10
-975.2109066878152
 20
-1051.265854996114
 30
0.0
 11
-966.7010085729048
 21
-1053.722450979824
 31
0.0
  0
LINE
  5
BB
330
47
100
AcDbEntity
  8
0
  6
Continuous
 62
     7
100
AcDbLine
 10
-966.7010085729048
 20
-1053.722450979824
 30
0.0
 11
-966.2709732159337
 21
-1053.350029436162
 31
0.0
  0
LINE
  5
BC
330
47
100
AcDbEntity
  8
0
  6
Continuous
 62
     7
100
AcDbLine
 10
-975.2109066878152
 20
-1051.265854996114
 30
0.0
 11
-974.7808713308441
 21
-1050.893433452452
 31
0.0
  0
LINE
  5
BD
330
47
100
AcDbEntity
  8
0
  6
Continuous
 62
     7
100
AcDbLine
 10
-975.3301269983983
 20
-1055.611954508007
 30
0.0
 11
-966.6690635869626
 21
-1058.112188154038
 31
0.0
  0
LINE
  5
BE
330
47
100
AcDbEntity
  8
0
  6
Continuous
 62
     7
100
AcDbLine
 10
-970.4253175267825
 20
-1057.027851042388
 30
0.0
 11
-970.4253175267825
 21
-1059.09514764797
 31
0.0
  0
LINE
  5
BF
330
47
100
AcDbEntity
  8
0
  6
Continuous
 62
     7
100
AcDbLine
 10
-977.3938246736195
 20
-1053.139827911339
 30
0.0
 11
-977.3938246736195
 21
-1055.911109203449
 31
0.0
  0
LINE
  5
C0
330
47
100
AcDbEntity
  8
0
  6
Continuous
 62
     7
100
AcDbLine
 10
-977.3938246736195
 20
-1053.139827911339
 30
0.0
 11
-975.2790591253529
 21
-1053.750308140621
 31
0.0
  0
LINE
  5
C1
330
47
100
AcDbEntity
  8
0
  6
Continuous
 62
     7
100
AcDbLine
 10
-977.7865334589501
 20
-1057.614170591801
 30
0.0
 11
-970.4253175267825
 21
-1059.09514764797
 31
0.0
  0
LINE
  5
C2
330
47
100
AcDbEntity
  8
0
  6
Continuous
 62
     7
100
AcDbLine
 10
-977.0365334589501
 20
-1056.964651538963
 30
0.0
 11
-977.7865334589501
 21
-1057.614170591801
 31
0.0
  0
LINE
  5
C3
330
47
100
AcDbEntity
  8
0
  6
Continuous
 62
     7
100
AcDbLine
 10
-977.0365334589501
 20
-1056.964651538963
 30
0.0
 11
-970.4253175267825
 21
-1058.29473874183
 31
0.0
  0
LINE
  5
C4
330
47
100
AcDbEntity
  8
0
  6
Continuous
 62
     7
100
AcDbLine
 10
-976.7938246736196
 20
-1052.620212669068
 30
0.0
 11
-975.2602032954827
 21
-1053.062931026819
 31
0.0
  0
LINE
  5
C5
330
47
100
AcDbEntity
  8
0
  6
Continuous
 62
     7
100
AcDbLine
 10
-976.7938246736196
 20
-1052.620212669068
 30
0.0
 11
-977.3938246736195
 21
-1053.139827911339
 31
0.0
  0
LINE
  5
C6
330
47
100
AcDbEntity
  8
0
  6
Continuous
 62
     7
100
AcDbLine
 10
-977.7865334589501
 20
-1064.429130745245
 30
0.0
 11
-977.7865334589501
 21
-1057.614170591801
 31
0.0
  0
LINE
  5
C7
330
47
100
AcDbEntity
  8
0
  6
Continuous
 62
     7
100
AcDbLine
 10
-980.3938246736161
 20
-1064.917773402796
 30
0.0
 11
-972.906995395195
 21
-1067.079034852432
 31
0.0
  0
LINE
  5
C8
330
47
100
AcDbEntity
  8
0
  6
Continuous
 62
     7
100
AcDbLine
 10
-972.306995395195
 20
-1066.559419610162
 30
0.0
 11
-971.5305256793017
 21
-1064.936046527384
 31
0.0
  0
LINE
  5
C9
330
47
100
AcDbEntity
  8
0
  6
Continuous
 62
     7
100
AcDbLine
 10
-938.6698729605539
 20
-1033.863243202043
 30
0.0
 11
-949.702535987089
 21
-1043.417809654416
 31
0.0
  0
LINE
  5
CA
330
47
100
AcDbEntity
  8
0
  6
Continuous
 62
     7
100
AcDbLine
 10
-938.6698729605539
 20
-1033.863243202043
 30
0.0
 11
-938.7890932711373
 21
-1029.549088676092
 31
0.0
  0
LINE
  5
CB
330
47
100
AcDbEntity
  8
0
  6
Continuous
 62
     7
100
AcDbLine
 10
-939.3652225495116
 20
-1031.814992204454
 30
0.0
 11
-950.0159098706432
 21
-1041.038757992317
 31
0.0
  0
LINE
  5
CC
330
47
100
AcDbEntity
  8
0
  6
Continuous
 62
     7
100
AcDbLine
 10
-939.2191286281083
 20
-1029.921510219754
 30
0.0
 11
-939.3652225495116
 21
-1031.814992204454
 31
0.0
  0
LINE
  5
CD
330
47
100
AcDbEntity
  8
0
  6
Continuous
 62
     7
100
AcDbLine
 10
-955.3077524456398
 20
-1048.273004085329
 30
0.0
 11
-966.6690635869626
 21
-1058.112188154038
 31
0.0
  0
LINE
  5
CE
330
47
100
AcDbEntity
  8
0
  6
Continuous
 62
     7
100
AcDbLine
 10
-955.4132975249579
 20
-1045.713967399148
 30
0.0
 11
-966.0644131759202
 21
-1054.938104131529
 31
0.0
  0
LINE
  5
CF
330
47
100
AcDbEntity
  8
0
  6
Continuous
 62
     7
100
AcDbLine
 10
-966.7010085729048
 20
-1053.722450979824
 30
0.0
 11
-966.6690635869626
 21
-1058.112188154038
 31
0.0
  0
LINE
  5
D0
330
47
100
AcDbEntity
  8
0
  6
Continuous
 62
     7
100
AcDbLine
 10
-966.0644131759202
 20
-1054.938104131529
 30
0.0
 11
-966.2709732159337
 21
-1053.350029436162
 31
0.0
  0
LINE
  5
D1
330
47
100
AcDbEntity
  8
0
  6
Continuous
 62
     7
100
AcDbLine
 10
-966.1440638131925
 20
-1057.657525012972
 30
0.0
 11
-963.6807922212936
 21
-1058.36861001008
 31
0.0
  0
LINE
  5
D2
330
47
100
AcDbEntity
  8
0
  6
Continuous
 62
     7
100
AcDbLine
 10
-955.5192077376587
 20
-1060.7246565094
 30
0.0
 11
-948.7746824321703
 21
-1062.671633520967
 31
0.0
  0
LINE
  5
D3
330
47
100
AcDbEntity
  8
0
  6
Continuous
 62
     7
100
AcDbLine
 10
-972.906995395195
 20
-1067.079034852432
 30
0.0
 11
-972.0334668329533
 21
-1065.252739858623
 31
0.0
  0
LINE
  5
D4
330
47
100
AcDbEntity
  8
0
  6
Continuous
 62
     7
100
AcDbLine
 10
-941.4134665000024
 20
-1068.114170591801
 30
0.0
 11
-948.7746824321703
 21
-1065.34514764797
 31
0.0
  0
LINE
  5
D5
330
47
100
AcDbEntity
  8
0
  6
Continuous
 62
     7
100
AcDbLine
 10
-974.7987458158938
 20
-1063.992592639568
 30
0.0
 11
-975.5487458158938
 21
-1065.075124394299
 31
0.0
  0
LINE
  5
D6
330
47
100
AcDbEntity
  8
0
  6
Continuous
 62
     7
100
AcDbLine
 10
-974.7987458158938
 20
-1064.42560534146
 30
0.0
 11
-974.5487458158938
 21
-1064.064761423217
 31
0.0
  0
LINE
  5
D7
330
47
100
AcDbEntity
  8
0
  6
Continuous
 62
     7
100
AcDbLine
 10
-975.5487458158938
 20
-1065.075124394299
 30
0.0
 11
-974.7987458158938
 21
-1064.42560534146
 31
0.0
  0
LINE
  5
D8
330
47
100
AcDbEntity
  8
0
  6
Continuous
 62
     7
100
AcDbLine
 10
-948.7746824321703
 20
-1065.34514764797
 30
0.0
 11
-948.0246824321703
 21
-1064.695628595132
 31
0.0
  0
LINE
  5
D9
330
47
100
AcDbEntity
  8
0
  6
Continuous
 62
     7
100
AcDbLine
 10
-972.0334668329533
 20
-1065.252739858623
 30
0.0
 11
-971.6334670744787
 21
-1064.906329906276
 31
0.0
  0
LINE
  5
DA
330
47
100
AcDbEntity
  8
0
  6
Continuous
 62
     7
100
AcDbLine
 10
-972.0334668329533
 20
-1065.252739858623
 30
0.0
 11
-972.0334668329531
 21
-1064.790859922161
 31
0.0
  0
LINE
  5
DB
330
47
100
AcDbEntity
  8
0
  6
Continuous
 62
     7
100
AcDbLine
 10
-972.906995395195
 20
-1067.079034852432
 30
0.0
 11
-972.306995395195
 21
-1066.559419610162
 31
0.0
  0
LINE
  5
DC
330
47
100
AcDbEntity
  8
0
  6
Continuous
 62
     7
100
AcDbLine
 10
-948.7746824321703
 20
-1062.671633520967
 30
0.0
 11
-948.7746824321703
 21
-1065.34514764797
 31
0.0
  0
LINE
  5
DD
330
47
100
AcDbEntity
  8
0
  6
Continuous
 62
     7
100
AcDbLine
 10
-948.0246824321703
 20
-1063.321152573805
 30
0.0
 11
-948.0246824321703
 21
-1064.695628595132
 31
0.0
  0
LINE
  5
DE
330
47
100
AcDbEntity
  8
0
  6
Continuous
 62
     7
100
AcDbLine
 10
-947.4550671898995
 20
-1063.427851303616
 30
0.0
 11
-947.9746824321703
 21
-1063.277851303616
 31
0.0
  0
LINE
  5
DF
330
47
100
AcDbEntity
  8
0
  6
Continuous
 62
     7
100
AcDbLine
 10
-948.0246824321703
 20
-1063.321152573805
 30
0.0
 11
-947.9746824321703
 21
-1063.277851303616
 31
0.0
  0
LINE
  5
E0
330
47
100
AcDbEntity
  8
0
  6
Continuous
 62
     7
100
AcDbLine
 10
-975.5487458158938
 20
-1065.075124394299
 30
0.0
 11
-977.7865334589501
 21
-1064.429130745245
 31
0.0
  0
LINE
  5
E1
330
47
100
AcDbEntity
  8
0
  6
Continuous
 62
     7
100
AcDbLine
 10
-938.5878011673408
 20
-1063.649341647076
 30
0.0
 11
-943.8550671898995
 21
-1061.667986854317
 31
0.0
  0
LINE
  5
E2
330
47
100
AcDbEntity
  8
0
  6
Continuous
 62
     7
100
AcDbLine
 10
-947.9746824321703
 20
-1063.277851303616
 30
0.0
 11
-944.3746824321703
 21
-1060.160159849992
 31
0.0
  0
LINE
  5
E3
330
47
100
AcDbEntity
  8
0
  6
Continuous
 62
     7
100
AcDbLine
 10
-936.2134665000026
 20
-1063.610838492122
 30
0.0
 11
-943.5746824321702
 21
-1060.841815548291
 31
0.0
  0
LINE
  5
E4
330
47
100
AcDbEntity
  8
0
  6
Continuous
 62
     7
100
AcDbLine
 10
-943.5746824321702
 20
-1058.168301421288
 30
0.0
 11
-948.7746824321703
 21
-1062.671633520967
 31
0.0
  0
LINE
  5
E5
330
47
100
AcDbEntity
  8
0
  6
Continuous
 62
     7
100
AcDbLine
 10
-936.8403948771523
 20
-1064.153774393087
 30
0.0
 11
-936.2134665000026
 21
-1063.610838492122
 31
0.0
  0
LINE
  5
E6
330
47
100
AcDbEntity
  8
0
  6
Continuous
 62
     7
100
AcDbLine
 10
-940.6634665000024
 20
-1067.464651538963
 30
0.0
 11
-948.0246824321703
 21
-1064.695628595132
 31
0.0
  0
LINE
  5
E7
330
47
100
AcDbEntity
  8
0
  6
Continuous
 62
     7
100
AcDbLine
 10
-946.8550671898995
 20
-1064.72688913042
 30
0.0
 11
-936.606175285333
 21
-1067.685489380418
 31
0.0
  0
LINE
  5
E8
330
47
100
AcDbEntity
  8
0
  6
Continuous
 62
     7
100
AcDbLine
 10
-943.6076299221104
 20
-1066.357163843815
 30
0.0
 11
-937.2061752853331
 21
-1068.205104622689
 31
0.0
  0
LINE
  5
E9
330
47
100
AcDbEntity
  8
0
  6
Continuous
 62
     7
100
AcDbLine
 10
-974.7987458158938
 20
-1063.992592639568
 30
0.0
 11
-944.4012541430588
 21
-1072.767592639568
 31
0.0
  0
LINE
  5
EA
330
47
100
AcDbEntity
  8
0
  6
Continuous
 62
     7
100
AcDbLine
 10
-949.9829622025239
 20
-1057.330327019936
 30
0.0
 11
-949.6775140728166
 21
-1042.176421375879
 31
0.0
  0
SPLINE
  5
EB
330
47
100
AcDbEntity
  8
0
  6
Continuous
 62
     7
100
AcDbSpline
210
0.0
220
0.0
230
1.0
 70
     8
 71
     3
 72
    15
 73
    11
 74
     9
 42
0.000000001
 43
0.0000000001
 44
0.00000001
 40
0.0
 40
0.0
 40
0.0
 40
0.0
 40
0.7795914119903034
 40
1.67327047039096
 40
2.684137532308275
 40
3.801020744573886
 40
5.003172538034592
 40
6.263561384732261
 40
7.551368926185207
 40
8.83410513886653
 40
8.83410513886653
 40
8.83410513886653
 40
8.83410513886653
 10
-963.6807922212936
 20
-1058.36861001008
 30
0.0
 10
-963.5206817276652
 20
-1058.574822310888
 30
0.0
 10
-963.1770296981699
 20
-1059.017424601121
 30
0.0
 10
-962.4373556975817
 20
-1059.539532799589
 30
0.0
 10
-961.5391411580733
 20
-1059.997491827481
 30
0.0
 10
-960.4868938465867
 20
-1060.361924879282
 30
0.0
 10
-959.3215837170347
 20
-1060.627201458422
 30
0.0
 10
-958.079268882818
 20
-1060.780236853402
 30
0.0
 10
-956.8004433629071
 20
-1060.827274269412
 30
0.0
 10
-955.9457241982205
 20
-1060.758817413731
 30
0.0
 10
-955.5192077376587
 20
-1060.7246565094
 30
0.0
 11
-963.6807922212936
 21
-1058.36861001008
 31
0.0
 11
-963.1749646606828
 21
-1058.961822665905
 31
0.0
 11
-962.4605458871126
 21
-1059.498728699855
 31
0.0
 11
-961.5616683806761
 21
-1059.961191068491
 31
0.0
 11
-960.5086970463315
 21
-1060.33358800398
 31
0.0
 11
-959.3372009663091
 21
-1060.603339498736
 31
0.0
 11
-958.0867538940233
 21
-1060.761333692149
 31
0.0
 11
-956.7995959775461
 21
-1060.802233078601
 31
0.0
 11
-955.5192077376587
 21
-1060.7246565094
 31
0.0
  0
SPLINE
  5
EC
330
47
100
AcDbEntity
  8
0
  6
Continuous
 62
     7
100
AcDbSpline
210
0.0
220
0.0
230
1.0
 70
     8
 71
     3
 72
     9
 73
     5
 74
     3
 42
0.000000001
 43
0.0000000001
 44
0.00000001
 40
0.0
 40
0.0
 40
0.0
 40
0.0
 40
0.5331066353893255
 40
1.102027743882007
 40
1.102027743882007
 40
1.102027743882007
 40
1.102027743882007
 10
-964.0170377564282
 20
-1057.330327019936
 30
0.0
 10
-963.9984494064607
 20
-1057.509110439899
 30
0.0
 10
-963.9600239091408
 20
-1057.878688069267
 30
0.0
 10
-963.775864438238
 20
-1058.201802432962
 30
0.0
 10
-963.6807922212936
 20
-1058.36861001008
 30
0.0
 11
-964.0170377564282
 21
-1057.330327019936
 31
0.0
 11
-963.9271688069289
 21
-1057.855804191744
 31
0.0
 11
-963.6807922212936
 21
-1058.36861001008
 31
0.0
  0
SPLINE
  5
ED
330
47
100
AcDbEntity
  8
0
  6
Continuous
 62
     7
100
AcDbSpline
210
0.0
220
0.0
230
1.0
 70
     8
 71
     3
 72
    13
 73
     9
 74
     7
 42
0.000000001
 43
0.0000000001
 44
0.00000001
 40
0.0
 40
0.0
 40
0.0
 40
0.0
 40
1.512042539814564
 40
2.915210660327566
 40
4.167312686724689
 40
5.245533349417988
 40
6.158621807046099
 40
6.96271610147674
 40
6.96271610147674
 40
6.96271610147674
 40
6.96271610147674
 10
-955.5192077376587
 20
-1060.7246565094
 30
0.0
 10
-955.019415590853
 20
-1060.654380160207
 30
0.0
 10
-954.0558187644621
 20
-1060.518887695616
 30
0.0
 10
-952.7226692444049
 20
-1060.110863663501
 30
0.0
 10
-951.5896740630972
 20
-1059.57647103034
 30
0.0
 10
-950.7250911067171
 20
-1058.923607380101
 30
0.0
 10
-950.1199723232133
 20
-1058.171959005734
 30
0.0
 10
-950.0266579339913
 20
-1057.598743171302
 30
0.0
 10
-949.9829622025239
 20
-1057.330327019936
 30
0.0
 11
-955.5192077376587
 21
-1060.7246565094
 31
0.0
 11
-954.0281716987288
 21
-1060.473490937798
 31
0.0
 11
-952.6865311982285
 21
-1060.062538943879
 31
0.0
 11
-951.5617330780324
 21
-1059.512458337677
 31
0.0
 11
-950.7103198036893
 21
-1058.850903173547
 31
0.0
 11
-950.1750950288371
 21
-1058.111129568844
 31
0.0
 11
-949.9829622025239
 21
-1057.330327019936
 31
0.0
  0
SPLINE
  5
EE
330
47
100
AcDbEntity
  8
0
  6
Continuous
 62
     7
100
AcDbSpline
210
0.0
220
0.0
230
1.0
 70
     8
 71
     3
 72
     9
 73
     5
 74
     3
 42
0.000000001
 43
0.0000000001
 44
0.00000001
 40
0.0
 40
0.0
 40
0.0
 40
0.0
 40
0.5457487510404738
 40
1.126935807022666
 40
1.126935807022666
 40
1.126935807022666
 40
1.126935807022666
 10
-964.3224858861358
 20
-1042.176421375879
 30
0.0
 10
-964.3037935304925
 20
-1042.359414966463
 30
0.0
 10
-964.2651950081524
 20
-1042.737284868748
 30
0.0
 10
-964.0797357558415
 20
-1043.069141236686
 30
0.0
 10
-963.9840900883095
 20
-1043.240287295026
 30
0.0
 11
-964.3224858861358
 21
-1042.176421375879
 31
0.0
 11
-964.2319664561081
 21
-1042.714610871819
 31
0.0
 11
-963.9840900883095
 21
-1043.240287295026
 31
0.0
  0
SPLINE
  5
EF
330
47
100
AcDbEntity
  8
0
  6
Continuous
 62
     7
100
AcDbSpline
210
0.0
220
0.0
230
1.0
 70
     8
 71
     3
 72
    11
 73
     7
 74
     5
 42
0.000000001
 43
0.0000000001
 44
0.00000001
 40
0.0
 40
0.0
 40
0.0
 40
0.0
 40
0.6403092776241252
 40
1.280730802306203
 40
1.922751719347894
 40
2.561212345589868
 40
2.561212345589868
 40
2.561212345589868
 40
2.561212345589868
 10
-955.4132975249579
 20
-1045.713967399148
 30
0.0
 10
-955.4045517772228
 20
-1045.927224567708
 30
0.0
 10
-955.3870587336223
 20
-1046.353776288475
 30
0.0
 10
-955.3606859152376
 20
-1046.994150699198
 30
0.0
 10
-955.3342631396822
 20
-1047.633906308823
 30
0.0
 10
-955.3165729531963
 20
-1048.060366741328
 30
0.0
 10
-955.3077524456398
 20
-1048.273004085329
 30
0.0
 11
-955.4132975249579
 21
-1045.713967399148
 31
0.0
 11
-955.3870418557152
 21
-1046.353738147811
 31
0.0
 11
-955.3606953238167
 21
-1046.993617503264
 31
0.0
 11
-955.3341949046702
 21
-1047.635091263995
 31
0.0
 11
-955.3077524456398
 21
-1048.273004085329
 31
0.0
  0
SPLINE
  5
F0
330
47
100
AcDbEntity
  8
0
  6
Continuous
 62
     7
100
AcDbSpline
210
0.0
220
0.0
230
1.0
 70
     8
 71
     3
 72
    11
 73
     7
 74
     5
 42
0.000000001
 43
0.0000000001
 44
0.00000001
 40
0.0
 40
0.0
 40
0.0
 40
0.0
 40
0.433371071555113
 40
0.8271220041095708
 40
1.190257514873408
 40
1.536483591082404
 40
1.536483591082404
 40
1.536483591082404
 40
1.536483591082404
 10
-952.444636668731
 20
-1043.454542760529
 30
0.0
 10
-952.3389717701226
 20
-1043.355404167508
 30
0.0
 10
-952.1373021989739
 20
-1043.166190531787
 30
0.0
 10
-951.9135462700503
 20
-1042.835554938982
 30
0.0
 10
-951.7673575420243
 20
-1042.492381629511
 30
0.0
 10
-951.7489190074994
 20
-1042.255258159639
 30
0.0
 10
-951.7399195120456
 20
-1042.139522643672
 30
0.0
 11
-952.444636668731
 21
-1043.454542760529
 31
0.0
 11
-952.1403193164847
 21
-1043.145995463379
 31
0.0
 11
-951.9191524076264
 21
-1042.820227145543
 31
0.0
 11
-951.7849202513389
 21
-1042.482811779335
 31
0.0
 11
-951.7399195120456
 21
-1042.139522643672
 31
0.0
  0
SPLINE
  5
F1
330
47
100
AcDbEntity
  8
0
  6
Continuous
 62
     7
100
AcDbSpline
210
0.0
220
0.0
230
1.0
 70
     8
 71
     3
 72
    19
 73
    15
 74
    13
 42
0.000000001
 43
0.0000000001
 44
0.00000001
 40
0.0
 40
0.0
 40
0.0
 40
0.0
 40
0.5827401823611017
 40
1.238158651867571
 40
2.008020222110011
 40
2.901529839069231
 40
3.905548796072744
 40
4.992965195391225
 40
6.128279768361472
 40
7.271738150823264
 40
8.38289560634693
 40
9.424100724285202
 40
10.36432400289527
 40
11.18402037021762
 40
11.18402037021762
 40
11.18402037021762
 40
11.18402037021762
 10
-962.2600804469066
 20
-1042.139522643672
 30
0.0
 10
-962.2332928995445
 20
-1042.334701169425
 30
0.0
 10
-962.1763769021015
 20
-1042.749400525035
 30
0.0
 10
-961.7595671215823
 20
-1043.302680284332
 30
0.0
 10
-961.1546118068699
 20
-1043.786782766438
 30
0.0
 10
-960.3556368716804
 20
-1044.191108404923
 30
0.0
 10
-959.4074566590527
 20
-1044.500919208865
 30
0.0
 10
-958.3482326801487
 20
-1044.702827374961
 30
0.0
 10
-957.2271202303866
 20
-1044.787645544296
 30
0.0
 10
-956.0957569843742
 20
-1044.75091485945
 30
0.0
 10
-955.0050077584199
 20
-1044.596093493388
 30
0.0
 10
-954.0095394383869
 20
-1044.324423859973
 30
0.0
 10
-953.1381320460113
 20
-1043.967632632398
 30
0.0
 10
-952.6650011078398
 20
-1043.617581720878
 30
0.0
 10
-952.444636668731
 20
-1043.454542760529
 30
0.0
 11
-962.2600804469066
 21
-1042.139522643672
 31
0.0
 11
-962.1353950785722
 21
-1042.708767485688
 31
0.0
 11
-961.7672518675479
 21
-1043.251025675553
 31
0.0
 11
-961.1731020160214
 21
-1043.740589551787
 31
0.0
 11
-960.3811145298946
 21
-1044.154250349889
 31
0.0
 11
-959.4288346240189
 21
-1044.472396614439
 31
0.0
 11
-958.361408983219
 21
-1044.679946429596
 31
0.0
 11
-957.229441446478
 21
-1044.76705942732
 31
0.0
 11
-956.0865965919254
 21
-1044.729606656569
 31
0.0
 11
-954.987054511359
 21
-1044.569362768395
 31
0.0
 11
-953.9829417700478
 21
-1044.293925477682
 31
0.0
 11
-953.121862207205
 21
-1043.916351912605
 31
0.0
 11
-952.444636668731
 21
-1043.454542760529
 31
0.0
  0
SPLINE
  5
F2
330
47
100
AcDbEntity
  8
0
  6
Continuous
 62
     7
100
AcDbSpline
210
0.0
220
0.0
230
1.0
 70
     8
 71
     3
 72
    13
 73
     9
 74
     7
 42
0.000000001
 43
0.0000000001
 44
0.00000001
 40
0.0
 40
0.0
 40
0.0
 40
0.0
 40
1.569040965495348
 40
3.024350780254109
 40
4.322757165732538
 40
5.441130669054738
 40
6.388908979277685
 40
7.224273244892329
 40
7.224273244892329
 40
7.224273244892329
 40
7.224273244892329
 10
-955.4132975249579
 20
-1045.713967399148
 30
0.0
 10
-954.8948818224774
 20
-1045.639533707401
 30
0.0
 10
-953.8956275218588
 20
-1045.49606160758
 30
0.0
 10
-952.5139024978578
 20
-1045.069090305243
 30
0.0
 10
-951.3403577513543
 20
-1044.511718444246
 30
0.0
 10
-950.4452157936806
 20
-1043.83208643059
 30
0.0
 10
-949.8191870428911
 20
-1043.050521099792
 30
0.0
 10
-949.7227110235134
 20
-1042.455279412854
 30
0.0
 10
-949.6775140728166
 20
-1042.176421375879
 30
0.0
 11
-955.4132975249579
 21
-1045.713967399148
 31
0.0
 11
-953.8668118813414
 21
-1045.448879345866
 31
0.0
 11
-952.4764879292131
 21
-1045.018849155641
 31
0.0
 11
-951.311622841511
 21
-1044.445308861212
 31
0.0
 11
-950.4302730002162
 21
-1043.756845534823
 31
0.0
 11
-949.8763685526495
 21
-1042.987772324256
 31
0.0
 11
-949.6775140728166
 21
-1042.176421375879
 31
0.0
  0
SPLINE
  5
F3
330
47
100
AcDbEntity
  8
0
  6
Continuous
 62
     7
100
AcDbSpline
210
0.0
220
0.0
230
1.0
 70
     8
 71
     3
 72
    13
 73
     9
 74
     7
 42
0.000000001
 43
0.0000000001
 44
0.00000001
 40
0.0
 40
0.0
 40
0.0
 40
0.0
 40
1.592095761480433
 40
3.066270225005167
 40
4.377739344006793
 40
5.503336623514918
 40
6.455227253133858
 40
7.298148735546948
 40
7.298148735546948
 40
7.298148735546948
 40
7.298148735546948
 10
-958.585464730572
 20
-1038.56494058971
 30
0.0
 10
-959.1114919510006
 20
-1038.640666509025
 30
0.0
 10
-960.1245852842486
 20
-1038.786509583075
 30
0.0
 10
-961.5228210563305
 20
-1039.222981955222
 30
0.0
 10
-962.7051272506615
 20
-1039.79337659412
 30
0.0
 10
-963.5992044929787
 20
-1040.488253593758
 30
0.0
 10
-964.2134788967287
 20
-1041.290205091995
 30
0.0
 10
-964.2876513140452
 20
-1041.893219634583
 30
0.0
 10
-964.3224858861358
 20
-1042.176421375879
 30
0.0
 11
-958.585464730572
 21
-1038.56494058971
 31
0.0
 11
-960.1544510573794
 21
-1038.835219686389
 31
0.0
 11
-961.5614383991128
 21
-1039.275193513542
 31
0.0
 11
-962.7341679426122
 21
-1039.862268183392
 31
0.0
 11
-963.6124153821476
 21
-1040.566292808151
 31
0.0
 11
-964.1510747946755
 21
-1041.351112419815
 31
0.0
 11
-964.3224858861358
 21
-1042.176421375879
 31
0.0
  0
SPLINE
  5
F4
330
47
100
AcDbEntity
  8
0
  6
Continuous
 62
     7
100
AcDbSpline
210
0.0
220
0.0
230
1.0
 70
     8
 71
     3
 72
    11
 73
     7
 74
     5
 42
0.000000001
 43
0.0000000001
 44
0.00000001
 40
0.0
 40
0.0
 40
0.0
 40
0.0
 40
0.2543193336203047
 40
0.5306515658433462
 40
0.8250905453036423
 40
1.13274169801169
 40
1.13274169801169
 40
1.13274169801169
 40
1.13274169801169
 10
-958.4908326707962
 20
-1068.70028166169
 30
0.0
 10
-958.4151199719656
 20
-1068.7386489168
 30
0.0
 10
-958.2571411692156
 20
-1068.818704334516
 30
0.0
 10
-957.9951748559151
 20
-1068.90509249872
 30
0.0
 10
-957.710210175587
 20
-1068.974156883437
 30
0.0
 10
-957.5109722667548
 20
-1068.99955423536
 30
0.0
 10
-957.4091672881561
 20
-1069.01253156161
 30
0.0
 11
-958.4908326707962
 21
-1068.70028166169
 31
0.0
 11
-958.2612821244096
 21
-1068.809757095083
 31
0.0
 11
-957.9999999794761
 21
-1068.899707881839
 31
0.0
 11
-957.7135595741673
 21
-1068.967870975995
 31
0.0
 11
-957.4091672881561
 21
-1069.01253156161
 31
0.0
  0
SPLINE
  5
F5
330
47
100
AcDbEntity
  8
0
  6
Continuous
 62
     7
100
AcDbSpline
210
0.0
220
0.0
230
1.0
 70
     8
 71
     3
 72
    21
 73
    17
 74
    15
 42
0.000000001
 43
0.0000000001
 44
0.00000001
 40
0.0
 40
0.0
 40
0.0
 40
0.0
 40
0.5999145041585956
 40
1.278413631703073
 40
2.079283036138507
 40
3.010482034851917
 40
4.055887795453327
 40
5.184560665672327
 40
6.356894630610009
 40
7.529228595547691
 40
8.65790146576658
 40
9.703307226368096
 40
10.63450622508151
 40
11.43537562951685
 40
12.11387475706126
 40
12.71378926121986
 40
12.71378926121986
 40
12.71378926121986
 40
12.71378926121986
 10
-951.7399195120456
 20
-1042.139522643672
 30
0.0
 10
-951.768413094307
 20
-1041.93858352047
 30
0.0
 10
-951.8291327372016
 20
-1041.510383654222
 30
0.0
 10
-952.2706058306946
 20
-1040.943768908952
 30
0.0
 10
-952.9079625678581
 20
-1040.451685348569
 30
0.0
 10
-953.7473418064494
 20
-1040.045433499564
 30
0.0
 10
-954.7393416642799
 20
-1039.740845770357
 30
0.0
 10
-955.8416281218402
 20
-1039.551907669977
 30
0.0
 10
-956.9999999794763
 20
-1039.487867679534
 30
0.0
 10
-958.1583718371122
 20
-1039.551907669977
 30
0.0
 10
-959.2606582946726
 20
-1039.740845770356
 30
0.0
 10
-960.2526581525029
 20
-1040.045433499564
 30
0.0
 10
-961.092037391094
 20
-1040.451685348569
 30
0.0
 10
-961.7293941282576
 20
-1040.943768908951
 30
0.0
 10
-962.170867221751
 20
-1041.510383654222
 30
0.0
 10
-962.2315868646451
 20
-1041.938583520469
 30
0.0
 10
-962.2600804469066
 20
-1042.139522643672
 30
0.0
 11
-951.7399195120456
 21
-1042.139522643672
 31
0.0
 11
-951.8718012535131
 21
-1041.554283696383
 31
0.0
 11
-952.2608312356597
 21
-1040.998390953037
 31
0.0
 11
-952.8875039044202
 21
-1040.499719552801
 31
0.0
 11
-953.7203934510769
 21
-1040.083274388796
 31
0.0
 11
-954.7177368394464
 21
-1039.769938522232
 31
0.0
 11
-955.8295219611782
 21
-1039.575423009662
 31
0.0
 11
-956.9999999794762
 21
-1039.509482687955
 31
0.0
 11
-958.1704779977742
 21
-1039.575423009662
 31
0.0
 11
-959.282263119506
 21
-1039.769938522232
 31
0.0
 11
-960.2796065078755
 21
-1040.083274388796
 31
0.0
 11
-961.1124960545322
 21
-1040.499719552801
 31
0.0
 11
-961.7391687232927
 21
-1040.998390953037
 31
0.0
 11
-962.1281987054391
 21
-1041.554283696383
 31
0.0
 11
-962.2600804469066
 21
-1042.139522643672
 31
0.0
  0
SPLINE
  5
F6
330
47
100
AcDbEntity
  8
0
  6
Continuous
 62
     7
100
AcDbSpline
210
0.0
220
0.0
230
1.0
 70
     8
 71
     3
 72
     9
 73
     5
 74
     3
 42
0.000000001
 43
0.0000000001
 44
0.00000001
 40
0.0
 40
0.0
 40
0.0
 40
0.0
 40
0.5809540574239689
 40
1.199938275248662
 40
1.199938275248662
 40
1.199938275248662
 40
1.199938275248662
 10
-949.6775140728166
 20
-1042.176421375879
 30
0.0
 10
-949.6907216445352
 20
-1041.980716514283
 30
0.0
 10
-949.7180013954923
 20
-1041.576495649054
 30
0.0
 10
-949.9145308088221
 20
-1041.221751561261
 30
0.0
 10
-950.0159098706432
 20
-1041.038757992317
 30
0.0
 11
-949.6775140728166
 21
-1042.176421375879
 31
0.0
 11
-949.7568096630858
 21
-1041.600904366653
 31
0.0
 11
-950.0159098706432
 21
-1041.038757992317
 31
0.0
  0
ENDBLK
  5
49
330
47
100
AcDbEntity
  8
0
100
AcDbBlockEnd
  0
BLOCK
  5
4C
330
4A
100
AcDbEntity
  8
0
100
AcDbBlockBegin
  2
AllgSicht1
 70
     0
 10
-956.9999999999899
 20
-1055.000000000067
 30
0.0
  3
AllgSicht1
  1

  0
INSERT
  5
4B
330
4A
100
AcDbEntity
  8
0
100
AcDbBlockReference
  2
AB_SK_E_NS_35-select__1
 10
-980.3938246736161
 20
-1077.384973902792
 30
0.0
  0
MTEXT
  5
F8
330
4A
100
AcDbEntity
  8
1
 62
     6
100
AcDbMText
 10
-956.9999999999901
 20
-1092.95048397032
 30
0.0
 40
5.0
 41
0.0
 71
     2
 72
     1
  1
 
  7
CONVERTER_11
 73
     1
 44
1.32052821128451
  0
ENDBLK
  5
4D
330
4A
100
AcDbEntity
  8
0
100
AcDbBlockEnd
  0
BLOCK
  5
4F
330
4E
100
AcDbEntity
  8
0
100
AcDbBlockBegin
  2
AB_SK_E_NS_35-select__2
 70
     0
 10
-1094.934400999995
 20
-1083.189837905371
 30
0.0
  3
AB_SK_E_NS_35-select__2
  1

  0
LINE
  5
F9
330
4E
100
AcDbEntity
  8
0
  6
Continuous
 62
     7
100
AcDbLine
 10
-1064.999065415878
 20
-1060.539127503469
 30
0.0
 11
-1064.999065415878
 21
-1083.189837905371
 31
0.0
  0
LINE
  5
FA
330
4E
100
AcDbEntity
  8
0
  6
Continuous
 62
     7
100
AcDbLine
 10
-1065.0
 20
-1027.189837905371
 30
0.0
 11
-1065.0
 21
-1049.83967473786
 31
0.0
  0
LINE
  5
FB
330
4E
100
AcDbEntity
  8
0
  6
Continuous
 62
     7
100
AcDbLine
 10
-1091.000000000001
 20
-1060.389837905371
 30
0.0
 11
-1082.500000000001
 21
-1060.389837905371
 31
0.0
  0
LINE
  5
FC
330
4E
100
AcDbEntity
  8
0
  6
Continuous
 62
     7
100
AcDbLine
 10
-1074.912724675359
 20
-1028.137183943954
 30
0.0
 11
-1074.947634805215
 21
-1028.489837905371
 31
0.0
  0
LINE
  5
FD
330
4E
100
AcDbEntity
  8
0
  6
Continuous
 62
     7
100
AcDbLine
 10
-1091.000000000001
 20
-1058.889837905371
 30
0.0
 11
-1091.000000000001
 21
-1060.389837905371
 31
0.0
  0
LINE
  5
FE
330
4E
100
AcDbEntity
  8
0
  6
Continuous
 62
     7
100
AcDbLine
 10
-1082.500000000001
 20
-1060.389837905371
 30
0.0
 11
-1075.15599126444
 21
-1060.389837905371
 31
0.0
  0
LINE
  5
FF
330
4E
100
AcDbEntity
  8
0
  6
Continuous
 62
     7
100
AcDbLine
 10
-1091.000000000001
 20
-1051.489837905371
 30
0.0
 11
-1091.000000000001
 21
-1049.989837905371
 31
0.0
  0
LINE
  5
100
330
4E
100
AcDbEntity
  8
0
  6
Continuous
 62
     7
100
AcDbLine
 10
-1083.100000000001
 20
-1052.789837905371
 30
0.0
 11
-1083.100000000001
 21
-1057.589837905371
 31
0.0
  0
LINE
  5
101
330
4E
100
AcDbEntity
  8
0
  6
Continuous
 62
     7
100
AcDbLine
 10
-1082.500000000001
 20
-1049.989837905371
 30
0.0
 11
-1082.500000000001
 21
-1051.489837905371
 31
0.0
  0
LINE
  5
102
330
4E
100
AcDbEntity
  8
0
  6
Continuous
 62
     7
100
AcDbLine
 10
-1082.500000000001
 20
-1051.489837905371
 30
0.0
 11
-1082.500000000001
 21
-1051.589837905371
 31
0.0
  0
LINE
  5
103
330
4E
100
AcDbEntity
  8
0
  6
Continuous
 62
     7
100
AcDbLine
 10
-1083.100000000001
 20
-1057.589837905371
 30
0.0
 11
-1083.100000000001
 21
-1058.789837905371
 31
0.0
  0
LINE
  5
104
330
4E
100
AcDbEntity
  8
0
  6
Continuous
 62
     7
100
AcDbLine
 10
-1083.100000000001
 20
-1051.589837905371
 30
0.0
 11
-1083.100000000001
 21
-1052.789837905371
 31
0.0
  0
LINE
  5
105
330
4E
100
AcDbEntity
  8
0
  6
Continuous
 62
     7
100
AcDbLine
 10
-1091.000000000001
 20
-1049.989837905371
 30
0.0
 11
-1082.500000000001
 21
-1049.989837905371
 31
0.0
  0
LINE
  5
106
330
4E
100
AcDbEntity
  8
0
  6
Continuous
 62
     7
100
AcDbLine
 10
-1082.500000000001
 20
-1049.989837905371
 30
0.0
 11
-1075.15599126444
 21
-1049.989837905371
 31
0.0
  0
LINE
  5
107
330
4E
100
AcDbEntity
  8
0
  6
Continuous
 62
     7
100
AcDbLine
 10
-1082.500000000001
 20
-1051.589837905371
 30
0.0
 11
-1082.500000000001
 21
-1058.789837905371
 31
0.0
  0
LINE
  5
108
330
4E
100
AcDbEntity
  8
0
  6
Continuous
 62
     7
100
AcDbLine
 10
-1082.500000000001
 20
-1058.889837905371
 30
0.0
 11
-1082.500000000001
 21
-1060.389837905371
 31
0.0
  0
LINE
  5
109
330
4E
100
AcDbEntity
  8
0
  6
Continuous
 62
     7
100
AcDbLine
 10
-1082.500000000001
 20
-1058.789837905371
 30
0.0
 11
-1082.500000000001
 21
-1058.889837905371
 31
0.0
  0
LINE
  5
10A
330
4E
100
AcDbEntity
  8
0
  6
Continuous
 62
     7
100
AcDbLine
 10
-1091.000000000001
 20
-1058.889837905371
 30
0.0
 11
-1082.500000000001
 21
-1058.889837905371
 31
0.0
  0
LINE
  5
10B
330
4E
100
AcDbEntity
  8
0
  6
Continuous
 62
     7
100
AcDbLine
 10
-1082.500000000001
 20
-1058.789837905371
 30
0.0
 11
-1083.100000000001
 21
-1058.789837905371
 31
0.0
  0
LINE
  5
10C
330
4E
100
AcDbEntity
  8
0
  6
Continuous
 62
     7
100
AcDbLine
 10
-1083.100000000001
 20
-1057.589837905371
 30
0.0
 11
-1094.934400999991
 21
-1057.589837905371
 31
0.0
  0
LINE
  5
10D
330
4E
100
AcDbEntity
  8
0
  6
Continuous
 62
     7
100
AcDbLine
 10
-1082.500000000001
 20
-1051.589837905371
 30
0.0
 11
-1083.100000000001
 21
-1051.589837905371
 31
0.0
  0
LINE
  5
10E
330
4E
100
AcDbEntity
  8
0
  6
Continuous
 62
     7
100
AcDbLine
 10
-1091.000000000001
 20
-1051.489837905371
 30
0.0
 11
-1082.500000000001
 21
-1051.489837905371
 31
0.0
  0
LINE
  5
10F
330
4E
100
AcDbEntity
  8
0
  6
Continuous
 62
     7
100
AcDbLine
 10
-1094.934400999995
 20
-1051.589837905371
 30
0.0
 11
-1083.100000000001
 21
-1051.589837905371
 31
0.0
  0
LINE
  5
110
330
4E
100
AcDbEntity
  8
0
  6
Continuous
 62
     7
100
AcDbLine
 10
-1094.934400999991
 20
-1058.789837905371
 30
0.0
 11
-1094.934400999991
 21
-1057.589837905371
 31
0.0
  0
LINE
  5
111
330
4E
100
AcDbEntity
  8
0
  6
Continuous
 62
     7
100
AcDbLine
 10
-1083.100000000001
 20
-1058.789837905371
 30
0.0
 11
-1094.934400999991
 21
-1058.789837905371
 31
0.0
  0
LINE
  5
112
330
4E
100
AcDbEntity
  8
0
  6
Continuous
 62
     7
100
AcDbLine
 10
-1094.934400999995
 20
-1052.789837905371
 30
0.0
 11
-1083.100000000001
 21
-1052.789837905371
 31
0.0
  0
LINE
  5
113
330
4E
100
AcDbEntity
  8
0
  6
Continuous
 62
     7
100
AcDbLine
 10
-1094.934400999995
 20
-1051.589837905371
 30
0.0
 11
-1094.934400999995
 21
-1052.789837905371
 31
0.0
  0
LINE
  5
114
330
4E
100
AcDbEntity
  8
0
  6
Continuous
 62
     7
100
AcDbLine
 10
-1065.051430610663
 20
-1081.889837905371
 30
0.0
 11
-1065.086340740519
 21
-1082.242491866788
 31
0.0
  0
LINE
  5
115
330
4E
100
AcDbEntity
  8
0
  6
Continuous
 62
     7
100
AcDbLine
 10
-1065.051430610664
 20
-1060.587606603445
 30
0.0
 11
-1065.051430610663
 21
-1081.889837905371
 31
0.0
  0
LINE
  5
116
330
4E
100
AcDbEntity
  8
0
  6
Continuous
 62
     7
100
AcDbLine
 10
-1075.0
 20
-1083.189837905371
 30
0.0
 11
-1064.999065415878
 21
-1083.189837905371
 31
0.0
  0
LINE
  5
117
330
4E
100
AcDbEntity
  8
0
  6
Continuous
 62
     7
100
AcDbLine
 10
-1074.912724675359
 20
-1083.10256258073
 30
0.0
 11
-1065.086340740519
 21
-1083.10256258073
 31
0.0
  0
LINE
  5
118
330
4E
100
AcDbEntity
  8
0
  6
Continuous
 62
     7
100
AcDbLine
 10
-1065.086340740519
 20
-1082.242491866788
 30
0.0
 11
-1074.912724675359
 21
-1082.242491866788
 31
0.0
  0
LINE
  5
119
330
4E
100
AcDbEntity
  8
0
  6
Continuous
 62
     7
100
AcDbLine
 10
-1065.086340740519
 20
-1083.10256258073
 30
0.0
 11
-1064.999065415878
 21
-1083.189837905371
 31
0.0
  0
LINE
  5
11A
330
4E
100
AcDbEntity
  8
0
  6
Continuous
 62
     7
100
AcDbLine
 10
-1065.086340740519
 20
-1083.10256258073
 30
0.0
 11
-1065.086340740519
 21
-1082.242491866788
 31
0.0
  0
LINE
  5
11B
330
4E
100
AcDbEntity
  8
0
  6
Continuous
 62
     7
100
AcDbLine
 10
-1074.912724675359
 20
-1083.10256258073
 30
0.0
 11
-1075.0
 21
-1083.189837905371
 31
0.0
  0
LINE
  5
11C
330
4E
100
AcDbEntity
  8
0
  6
Continuous
 62
     7
100
AcDbLine
 10
-1074.947634805215
 20
-1060.588463263108
 30
0.0
 11
-1074.947634805215
 21
-1081.889837905371
 31
0.0
  0
LINE
  5
11D
330
4E
100
AcDbEntity
  8
0
  6
Continuous
 62
     7
100
AcDbLine
 10
-1074.947634805215
 20
-1028.489837905371
 30
0.0
 11
-1074.947634805215
 21
-1049.791212547633
 31
0.0
  0
LINE
  5
11E
330
4E
100
AcDbEntity
  8
0
  6
Continuous
 62
     7
100
AcDbLine
 10
-1074.912724675359
 20
-1083.10256258073
 30
0.0
 11
-1074.912724675359
 21
-1082.242491866788
 31
0.0
  0
LINE
  5
11F
330
4E
100
AcDbEntity
  8
0
  6
Continuous
 62
     7
100
AcDbLine
 10
-1074.912724675359
 20
-1028.137183943954
 30
0.0
 11
-1065.087275324641
 21
-1028.137183943954
 31
0.0
  0
LINE
  5
120
330
4E
100
AcDbEntity
  8
0
  6
Continuous
 62
     7
100
AcDbLine
 10
-1074.912724675359
 20
-1027.277113230012
 30
0.0
 11
-1065.087275324641
 21
-1027.277113230012
 31
0.0
  0
LINE
  5
121
330
4E
100
AcDbEntity
  8
0
  6
Continuous
 62
     7
100
AcDbLine
 10
-1075.0
 20
-1027.189837905371
 30
0.0
 11
-1074.912724675359
 21
-1027.277113230012
 31
0.0
  0
LINE
  5
122
330
4E
100
AcDbEntity
  8
0
  6
Continuous
 62
     7
100
AcDbLine
 10
-1065.0
 20
-1027.189837905371
 30
0.0
 11
-1075.0
 21
-1027.189837905371
 31
0.0
  0
LINE
  5
123
330
4E
100
AcDbEntity
  8
0
  6
Continuous
 62
     7
100
AcDbLine
 10
-1065.0
 20
-1027.189837905371
 30
0.0
 11
-1065.087275324641
 21
-1027.277113230012
 31
0.0
  0
LINE
  5
124
330
4E
100
AcDbEntity
  8
0
  6
Continuous
 62
     7
100
AcDbLine
 10
-1075.0
 20
-1060.540001072881
 30
0.0
 11
-1075.0
 21
-1083.189837905371
 31
0.0
  0
LINE
  5
125
330
4E
100
AcDbEntity
  8
0
  6
Continuous
 62
     7
100
AcDbLine
 10
-1075.0
 20
-1027.189837905371
 30
0.0
 11
-1075.0
 21
-1049.83967473786
 31
0.0
  0
LINE
  5
126
330
4E
100
AcDbEntity
  8
0
  6
Continuous
 62
     7
100
AcDbLine
 10
-1074.947634805215
 20
-1081.889837905371
 30
0.0
 11
-1074.912724675359
 21
-1082.242491866788
 31
0.0
  0
LINE
  5
127
330
4E
100
AcDbEntity
  8
0
  6
Continuous
 62
     7
100
AcDbLine
 10
-1074.912724675359
 20
-1028.137183943954
 30
0.0
 11
-1074.912724675359
 21
-1027.277113230012
 31
0.0
  0
LINE
  5
128
330
4E
100
AcDbEntity
  8
0
  6
Continuous
 62
     7
100
AcDbLine
 10
-1066.779309640466
 20
-1057.562000127481
 30
0.0
 11
-1069.198909287025
 21
-1055.142400480922
 31
0.0
  0
LINE
  5
129
330
4E
100
AcDbEntity
  8
0
  6
Continuous
 62
     7
100
AcDbLine
 10
-1065.052365194785
 20
-1028.489837905371
 30
0.0
 11
-1074.947634805215
 21
-1028.489837905371
 31
0.0
  0
LINE
  5
12A
330
4E
100
AcDbEntity
  8
0
  6
Continuous
 62
     7
100
AcDbLine
 10
-1065.052365194785
 20
-1028.489837905371
 30
0.0
 11
-1065.052365194786
 21
-1049.791212547633
 31
0.0
  0
LINE
  5
12B
330
4E
100
AcDbEntity
  8
0
  6
Continuous
 62
     7
100
AcDbLine
 10
-1074.947634805215
 20
-1081.889837905371
 30
0.0
 11
-1065.051430610663
 21
-1081.889837905371
 31
0.0
  0
LINE
  5
12C
330
4E
100
AcDbEntity
  8
0
  6
Continuous
 62
     7
100
AcDbLine
 10
-1072.322776777496
 20
-1058.446324976115
 30
0.0
 11
-1070.023668230426
 21
-1056.014697812369
 31
0.0
  0
LINE
  5
12D
330
4E
100
AcDbEntity
  8
0
  6
Continuous
 62
     7
100
AcDbLine
 10
-1070.827978394218
 20
-1055.210387648577
 30
0.0
 11
-1073.145219559525
 21
-1057.661192578902
 31
0.0
  0
LINE
  5
12E
330
4E
100
AcDbEntity
  8
0
  6
Continuous
 62
     7
100
AcDbLine
 10
-1067.708592044011
 20
-1051.911202582674
 30
0.0
 11
-1070.003219450817
 21
-1054.33809031713
 31
0.0
  0
LINE
  5
12F
330
4E
100
AcDbEntity
  8
0
  6
Continuous
 62
     7
100
AcDbLine
 10
-1069.198909287025
 20
-1055.142400480922
 30
0.0
 11
-1066.878650006253
 21
-1052.688403473582
 31
0.0
  0
LINE
  5
130
330
4E
100
AcDbEntity
  8
0
  6
Continuous
 62
     7
100
AcDbLine
 10
-1073.220690359534
 20
-1052.817675683261
 30
0.0
 11
-1070.827978394218
 21
-1055.210387648577
 31
0.0
  0
LINE
  5
131
330
4E
100
AcDbEntity
  8
0
  6
Continuous
 62
     7
100
AcDbLine
 10
-1070.003219450817
 20
-1054.33809031713
 30
0.0
 11
-1072.37216222211
 21
-1051.969147545837
 31
0.0
  0
LINE
  5
132
330
4E
100
AcDbEntity
  8
0
  6
Continuous
 62
     7
100
AcDbLine
 10
-1070.023668230426
 20
-1056.014697812369
 30
0.0
 11
-1067.62783777789
 21
-1058.410528264905
 31
0.0
  0
LINE
  5
133
330
4E
100
AcDbEntity
  8
0
  6
Continuous
 62
     7
100
AcDbLine
 10
-1049.0
 20
-1058.889837905371
 30
0.0
 11
-1057.5
 21
-1058.889837905371
 31
0.0
  0
LINE
  5
134
330
4E
100
AcDbEntity
  8
0
  6
Continuous
 62
     7
100
AcDbLine
 10
-1049.0
 20
-1049.989837905371
 30
0.0
 11
-1057.5
 21
-1049.989837905371
 31
0.0
  0
LINE
  5
135
330
4E
100
AcDbEntity
  8
0
  6
Continuous
 62
     7
100
AcDbLine
 10
-1057.5
 20
-1051.589837905371
 30
0.0
 11
-1057.5
 21
-1058.789837905371
 31
0.0
  0
LINE
  5
136
330
4E
100
AcDbEntity
  8
0
  6
Continuous
 62
     7
100
AcDbLine
 10
-1065.087275324641
 20
-1028.137183943954
 30
0.0
 11
-1065.052365194785
 21
-1028.489837905371
 31
0.0
  0
LINE
  5
137
330
4E
100
AcDbEntity
  8
0
  6
Continuous
 62
     7
100
AcDbLine
 10
-1065.087275324641
 20
-1028.137183943954
 30
0.0
 11
-1065.087275324641
 21
-1027.277113230012
 31
0.0
  0
LINE
  5
138
330
4E
100
AcDbEntity
  8
0
  6
Continuous
 62
     7
100
AcDbLine
 10
-1064.84400873556
 20
-1049.989837905371
 30
0.0
 11
-1057.5
 21
-1049.989837905371
 31
0.0
  0
LINE
  5
139
330
4E
100
AcDbEntity
  8
0
  6
Continuous
 62
     7
100
AcDbLine
 10
-1064.84400873556
 20
-1060.389837905371
 30
0.0
 11
-1057.5
 21
-1060.389837905371
 31
0.0
  0
LINE
  5
13A
330
4E
100
AcDbEntity
  8
0
  6
Continuous
 62
     7
100
AcDbLine
 10
-1057.5
 20
-1049.989837905371
 30
0.0
 11
-1057.5
 21
-1051.489837905371
 31
0.0
  0
LINE
  5
13B
330
4E
100
AcDbEntity
  8
0
  6
Continuous
 62
     7
100
AcDbLine
 10
-1057.5
 20
-1058.889837905371
 30
0.0
 11
-1057.5
 21
-1060.389837905371
 31
0.0
  0
LINE
  5
13C
330
4E
100
AcDbEntity
  8
0
  6
Continuous
 62
     7
100
AcDbLine
 10
-1057.5
 20
-1058.789837905371
 30
0.0
 11
-1057.5
 21
-1058.889837905371
 31
0.0
  0
LINE
  5
13D
330
4E
100
AcDbEntity
  8
0
  6
Continuous
 62
     7
100
AcDbLine
 10
-1057.5
 20
-1051.489837905371
 30
0.0
 11
-1057.5
 21
-1051.589837905371
 31
0.0
  0
LINE
  5
13E
330
4E
100
AcDbEntity
  8
0
  6
Continuous
 62
     7
100
AcDbLine
 10
-1049.0
 20
-1051.489837905371
 30
0.0
 11
-1057.5
 21
-1051.489837905371
 31
0.0
  0
LINE
  5
13F
330
4E
100
AcDbEntity
  8
0
  6
Continuous
 62
     7
100
AcDbLine
 10
-1049.0
 20
-1051.489837905371
 30
0.0
 11
-1049.0
 21
-1049.989837905371
 31
0.0
  0
LINE
  5
140
330
4E
100
AcDbEntity
  8
0
  6
Continuous
 62
     7
100
AcDbLine
 10
-1056.899999999999
 20
-1052.789837905371
 30
0.0
 11
-1056.899999999999
 21
-1057.589837905371
 31
0.0
  0
LINE
  5
141
330
4E
100
AcDbEntity
  8
0
  6
Continuous
 62
     7
100
AcDbLine
 10
-1056.899999999999
 20
-1057.589837905371
 30
0.0
 11
-1056.899999999999
 21
-1058.789837905371
 31
0.0
  0
LINE
  5
142
330
4E
100
AcDbEntity
  8
0
  6
Continuous
 62
     7
100
AcDbLine
 10
-1056.899999999999
 20
-1051.589837905371
 30
0.0
 11
-1056.899999999999
 21
-1052.789837905371
 31
0.0
  0
LINE
  5
143
330
4E
100
AcDbEntity
  8
0
  6
Continuous
 62
     7
100
AcDbLine
 10
-1056.899999999999
 20
-1058.789837905371
 30
0.0
 11
-1057.5
 21
-1058.789837905371
 31
0.0
  0
LINE
  5
144
330
4E
100
AcDbEntity
  8
0
  6
Continuous
 62
     7
100
AcDbLine
 10
-1056.899999999999
 20
-1052.789837905371
 30
0.0
 11
-1045.06559900001
 21
-1052.789837905371
 31
0.0
  0
LINE
  5
145
330
4E
100
AcDbEntity
  8
0
  6
Continuous
 62
     7
100
AcDbLine
 10
-1056.899999999999
 20
-1051.589837905371
 30
0.0
 11
-1057.5
 21
-1051.589837905371
 31
0.0
  0
LINE
  5
146
330
4E
100
AcDbEntity
  8
0
  6
Continuous
 62
     7
100
AcDbLine
 10
-1056.899999999999
 20
-1058.789837905371
 30
0.0
 11
-1045.065599000006
 21
-1058.789837905371
 31
0.0
  0
LINE
  5
147
330
4E
100
AcDbEntity
  8
0
  6
Continuous
 62
     7
100
AcDbLine
 10
-1045.065599000006
 20
-1058.789837905371
 30
0.0
 11
-1045.065599000006
 21
-1057.589837905371
 31
0.0
  0
LINE
  5
148
330
4E
100
AcDbEntity
  8
0
  6
Continuous
 62
     7
100
AcDbLine
 10
-1045.06559900001
 20
-1051.589837905371
 30
0.0
 11
-1045.06559900001
 21
-1052.789837905371
 31
0.0
  0
LINE
  5
149
330
4E
100
AcDbEntity
  8
0
  6
Continuous
 62
     7
100
AcDbLine
 10
-1056.899999999999
 20
-1057.589837905371
 30
0.0
 11
-1045.065599000006
 21
-1057.589837905371
 31
0.0
  0
LINE
  5
14A
330
4E
100
AcDbEntity
  8
0
  6
Continuous
 62
     7
100
AcDbLine
 10
-1045.06559900001
 20
-1051.589837905371
 30
0.0
 11
-1056.899999999999
 21
-1051.589837905371
 31
0.0
  0
LINE
  5
14B
330
4E
100
AcDbEntity
  8
0
  6
Continuous
 62
     7
100
AcDbLine
 10
-1049.0
 20
-1058.889837905371
 30
0.0
 11
-1049.0
 21
-1060.389837905371
 31
0.0
  0
LINE
  5
14C
330
4E
100
AcDbEntity
  8
0
  6
Continuous
 62
     7
100
AcDbLine
 10
-1049.0
 20
-1060.389837905371
 30
0.0
 11
-1057.5
 21
-1060.389837905371
 31
0.0
  0
ARC
  5
14D
330
4E
100
AcDbEntity
  8
0
  6
Continuous
 62
     7
100
AcDbCircle
 10
-1070.0
 20
-1055.189837905371
 30
0.0
 40
7.322857769954784
100
AcDbArc
 50
132.5040731919109
 51
227.4959268080843
  0
ARC
  5
14E
330
4E
100
AcDbEntity
  8
0
  6
Continuous
 62
     7
100
AcDbCircle
 10
-1070.0
 20
-1055.189837905371
 30
0.0
 40
7.322857769954354
100
AcDbArc
 50
312.5139927493724
 51
47.49592680809569
  0
ARC
  5
14F
330
4E
100
AcDbEntity
  8
0
  6
Continuous
 62
     7
100
AcDbCircle
 10
-1070.0
 20
-1055.189837905371
 30
0.0
 40
4.000000000000094
100
AcDbArc
 50
143.6269265586818
 51
218.1584738033255
  0
ARC
  5
150
330
4E
100
AcDbEntity
  8
0
  6
Continuous
 62
     7
100
AcDbCircle
 10
-1070.0
 20
-1055.189837905371
 30
0.0
 40
4.000000000000229
100
AcDbArc
 50
323.6269265586791
 51
38.70851316576762
  0
ARC
  5
151
330
4E
100
AcDbEntity
  8
0
  6
Continuous
 62
     7
100
AcDbCircle
 10
-1070.0
 20
-1055.189837905371
 30
0.0
 40
4.00000000000033
100
AcDbArc
 50
218.1584738033255
 51
234.500616602544
  0
ARC
  5
152
330
4E
100
AcDbEntity
  8
0
  6
Continuous
 62
     7
100
AcDbCircle
 10
-1070.0
 20
-1055.189837905371
 30
0.0
 40
4.000000000000743
100
AcDbArc
 50
55.05065596499222
 51
126.3730734413209
  0
ARC
  5
153
330
4E
100
AcDbEntity
  8
0
  6
Continuous
 62
     7
100
AcDbCircle
 10
-1070.0
 20
-1055.189837905371
 30
0.0
 40
4.000000000000404
100
AcDbArc
 50
38.70851316576762
 51
55.05065596499222
  0
ARC
  5
154
330
4E
100
AcDbEntity
  8
0
  6
Continuous
 62
     7
100
AcDbCircle
 10
-1070.0
 20
-1055.189837905371
 30
0.0
 40
4.000000000000229
100
AcDbArc
 50
126.3730734413209
 51
143.6269265586818
  0
ARC
  5
155
330
4E
100
AcDbEntity
  8
0
  6
Continuous
 62
     7
100
AcDbCircle
 10
-1070.0
 20
-1055.189837905371
 30
0.0
 40
3.999999999999747
100
AcDbArc
 50
234.500616602544
 51
306.3730734413209
  0
ARC
  5
156
330
4E
100
AcDbEntity
  8
0
  6
Continuous
 62
     7
100
AcDbCircle
 10
-1070.0
 20
-1055.189837905371
 30
0.0
 40
4.000000000000229
100
AcDbArc
 50
306.3730734413209
 51
323.6269265586791
  0
CIRCLE
  5
157
330
4E
100
AcDbEntity
  8
0
  6
Continuous
 62
     7
100
AcDbCircle
 10
-1070.0
 20
-1055.189837905371
 30
0.0
 40
5.260080467430043
  0
ENDBLK
  5
50
330
4E
100
AcDbEntity
  8
0
100
AcDbBlockEnd
  0
BLOCK
  5
53
330
51
100
AcDbEntity
  8
0
100
AcDbBlockBegin
  2
Drfsicht1
 70
     0
 10
-1070.0
 20
-1055.189837946398
 30
0.0
  3
Drfsicht1
  1

  0
INSERT
  5
52
330
51
100
AcDbEntity
  8
0
100
AcDbBlockReference
  2
AB_SK_E_NS_35-select__2
 10
-1094.934400999995
 20
-1083.189837905371
 30
0.0
  0
MTEXT
  5
158
330
51
100
AcDbEntity
  8
1
 62
     6
100
AcDbMText
 10
-1067.0360800568
 20
-1087.339837905371
 30
0.0
 40
5.0
 41
0.0
 71
     2
 72
     1
  1
 
  7
CONVERTER_11
 73
     1
 44
1.32052821128451
  0
DIMENSION
  5
163
330
51
100
AcDbEntity
  8
1
100
AcDbDimension
  2
*D17
 10
-1112.32613024861
 20
-1027.189837905371
 30
0.0
 11
-1115.57613024861
 21
-1054.66640868099
 31
0.0
 70
    32
  1
<>
 71
     5
 42
-1.0
 53
90.0
  3
ME10_DIM_10
100
AcDbAlignedDimension
 13
-1075.0
 23
-1083.189837905371
 33
0.0
 14
-1075.0
 24
-1027.189837905371
 34
0.0
 50
90.0
100
AcDbRotatedDimension
  0
DIMENSION
  5
170
330
51
100
AcDbEntity
  8
1
100
AcDbDimension
  2
*D18
 10
-1105.32613024861
 20
-1049.989837905371
 30
0.0
 11
-1108.75113024861
 21
-1054.66640868099
 31
0.0
 70
    32
  1
<>
 71
     5
 42
-1.0
 53
90.0
  3
ME10_DIM_11
100
AcDbAlignedDimension
 13
-1091.000000000001
 23
-1060.389837905371
 33
0.0
 14
-1091.000000000001
 24
-1049.989837905371
 34
0.0
 50
90.0
100
AcDbRotatedDimension
  0
ENDBLK
  5
54
330
51
100
AcDbEntity
  8
0
100
AcDbBlockEnd
  0
BLOCK
  5
56
330
55
100
AcDbEntity
  8
0
100
AcDbBlockBegin
  2
AB_SK_E_NS_35-select__3
 70
     0
 10
-960.8332642819249
 20
-986.99999972992
 30
0.0
  3
AB_SK_E_NS_35-select__3
  1

  0
LINE
  5
171
330
55
100
AcDbEntity
  8
0
  6
Continuous
 62
     7
100
AcDbLine
 10
-956.8988632819352
 20
-976.6307618937342
 30
0.0
 11
-948.3988632819352
 21
-975.8871082537638
 31
0.0
  0
LINE
  5
172
330
55
100
AcDbEntity
  8
0
  6
Continuous
 62
     7
100
AcDbLine
 10
-953.4488632819351
 20
-983.0000000519487
 30
0.0
 11
-918.3488632819337
 21
-983.0000000519487
 31
0.0
  0
LINE
  5
173
330
55
100
AcDbEntity
  8
0
  6
Continuous
 62
     7
100
AcDbLine
 10
-948.3988632819352
 20
-974.3000000519487
 30
0.0
 11
-948.3988632819352
 21
-975.8871082537638
 31
0.0
  0
LINE
  5
174
330
55
100
AcDbEntity
  8
0
  6
Continuous
 62
     7
100
AcDbLine
 10
-948.9988632819352
 20
-974.3000000519487
 30
0.0
 11
-948.9988632819352
 21
-975.9396014518794
 31
0.0
  0
LINE
  5
175
330
55
100
AcDbEntity
  8
0
  6
Continuous
 62
     7
100
AcDbLine
 10
-948.9988632819352
 20
-974.3000000519487
 30
0.0
 11
-948.3988632819352
 21
-974.3000000519487
 31
0.0
  0
LINE
  5
176
330
55
100
AcDbEntity
  8
0
  6
Continuous
 62
     7
100
AcDbLine
 10
-923.3988632819338
 20
-974.3000000519487
 30
0.0
 11
-922.7988632819338
 21
-974.3000000519487
 31
0.0
  0
LINE
  5
177
330
55
100
AcDbEntity
  8
0
  6
Continuous
 62
     7
100
AcDbLine
 10
-923.3988632819338
 20
-972.8000000519487
 30
0.0
 11
-923.3988632819338
 21
-974.3000000519487
 31
0.0
  0
LINE
  5
178
330
55
100
AcDbEntity
  8
0
  6
Continuous
 62
     7
100
AcDbLine
 10
-923.3988632819338
 20
-972.8000000519487
 30
0.0
 11
-928.8814691534892
 21
-972.8000000519487
 31
0.0
  0
LINE
  5
179
330
55
100
AcDbEntity
  8
0
  6
Continuous
 62
     7
100
AcDbLine
 10
-942.9162574103802
 20
-972.8000000519487
 30
0.0
 11
-948.3988632819352
 21
-972.8000000519487
 31
0.0
  0
LINE
  5
17A
330
55
100
AcDbEntity
  8
0
  6
Continuous
 62
     7
100
AcDbLine
 10
-923.3988632819338
 20
-974.3000000519487
 30
0.0
 11
-923.3988632819338
 21
-975.8871082537639
 31
0.0
  0
LINE
  5
17B
330
55
100
AcDbEntity
  8
0
  6
Continuous
 62
     7
100
AcDbLine
 10
-948.3988632819352
 20
-972.8000000519487
 30
0.0
 11
-948.3988632819352
 21
-974.3000000519487
 31
0.0
  0
LINE
  5
17C
330
55
100
AcDbEntity
  8
0
  6
Continuous
 62
     7
100
AcDbLine
 10
-922.7988632819338
 20
-974.3000000519487
 30
0.0
 11
-922.7988632819338
 21
-975.9396014518794
 31
0.0
  0
LINE
  5
17D
330
55
100
AcDbEntity
  8
0
  6
Continuous
 62
     7
100
AcDbLine
 10
-928.8814691534892
 20
-972.8000000519487
 30
0.0
 11
-942.9162574103802
 21
-972.8000000519487
 31
0.0
  0
LINE
  5
17E
330
55
100
AcDbEntity
  8
0
  6
Continuous
 62
     7
100
AcDbLine
 10
-952.1882184833785
 20
-986.99999972992
 30
0.0
 11
-951.1795545822683
 21
-984.5999997299148
 31
0.0
  0
LINE
  5
17F
330
55
100
AcDbEntity
  8
0
  6
Continuous
 62
     7
100
AcDbLine
 10
-942.9162574103802
 20
-972.8000000519487
 30
0.0
 11
-943.2217210518892
 21
-955.2999997503089
 31
0.0
  0
LINE
  5
180
330
55
100
AcDbEntity
  8
0
  6
Continuous
 62
     7
100
AcDbLine
 10
-920.6181719816007
 20
-984.5999997299148
 30
0.0
 11
-919.6095080804905
 21
-986.99999972992
 31
0.0
  0
LINE
  5
181
330
55
100
AcDbEntity
  8
0
  6
Continuous
 62
     7
100
AcDbLine
 10
-917.4828378781494
 20
-984.5000000519487
 30
0.0
 11
-918.3488632819337
 21
-983.0000000519487
 31
0.0
  0
LINE
  5
182
330
55
100
AcDbEntity
  8
0
  6
Continuous
 62
     7
100
AcDbLine
 10
-918.171279858652
 20
-983.3075835636548
 30
0.0
 11
-918.6843988103878
 21
-983.709155855845
 31
0.0
  0
LINE
  5
183
330
55
100
AcDbEntity
  8
0
  6
Continuous
 62
     7
100
AcDbLine
 10
-918.6843988103878
 20
-983.709155855845
 30
0.0
 11
-919.5134235808343
 21
-983.709155855845
 31
0.0
  0
LINE
  5
184
330
55
100
AcDbEntity
  8
0
  6
Continuous
 62
     7
100
AcDbLine
 10
-919.5134235808343
 20
-983.709155855845
 30
0.0
 11
-920.6181719816013
 21
-983.0167541183163
 31
0.0
  0
LINE
  5
185
330
55
100
AcDbEntity
  8
0
  6
Continuous
 62
     7
100
AcDbLine
 10
-920.6181719816013
 20
-983.0167541183163
 30
0.0
 11
-920.6181719816007
 21
-984.5999997299148
 31
0.0
  0
LINE
  5
186
330
55
100
AcDbEntity
  8
0
  6
Continuous
 62
     7
100
AcDbLine
 10
-933.8988632819345
 20
-985.2000000519488
 30
0.0
 11
-933.8988632819345
 21
-983.0000000519487
 31
0.0
  0
LINE
  5
187
330
55
100
AcDbEntity
  8
0
  6
Continuous
 62
     7
100
AcDbLine
 10
-940.846498087149
 20
-955.2999997503089
 30
0.0
 11
-940.8115879572936
 21
-953.2999997503088
 31
0.0
  0
LINE
  5
188
330
55
100
AcDbEntity
  8
0
  6
Continuous
 62
     7
100
AcDbLine
 10
-940.8115879572936
 20
-953.2999997503088
 30
0.0
 11
-930.9861386065758
 21
-953.2999997503089
 31
0.0
  0
LINE
  5
189
330
55
100
AcDbEntity
  8
0
  6
Continuous
 62
     7
100
AcDbLine
 10
-940.8125225414153
 20
-953.2999997503089
 30
0.0
 11
-940.8115879572936
 21
-953.2999997503088
 31
0.0
  0
LINE
  5
18A
330
55
100
AcDbEntity
  8
0
  6
Continuous
 62
     7
100
AcDbLine
 10
-940.8474326712717
 20
-955.2999997503089
 30
0.0
 11
-940.846498087149
 21
-955.2999997503089
 31
0.0
  0
LINE
  5
18B
330
55
100
AcDbEntity
  8
0
  6
Continuous
 62
     7
100
AcDbLine
 10
-943.2217210518892
 20
-955.2999997503089
 30
0.0
 11
-940.8474326712717
 21
-955.2999997503089
 31
0.0
  0
LINE
  5
18C
330
55
100
AcDbEntity
  8
0
  6
Continuous
 62
     7
100
AcDbLine
 10
-951.1795545822677
 20
-983.0167541183163
 30
0.0
 11
-952.2843029830346
 21
-983.709155855845
 31
0.0
  0
LINE
  5
18D
330
55
100
AcDbEntity
  8
0
  6
Continuous
 62
     7
100
AcDbLine
 10
-953.4488632819351
 20
-983.0000000519487
 30
0.0
 11
-954.3148886857196
 21
-984.5000000519487
 31
0.0
  0
LINE
  5
18E
330
55
100
AcDbEntity
  8
0
  6
Continuous
 62
     7
100
AcDbLine
 10
-952.2843029830346
 20
-983.709155855845
 30
0.0
 11
-953.1133277534664
 21
-983.709155855845
 31
0.0
  0
LINE
  5
18F
330
55
100
AcDbEntity
  8
0
  6
Continuous
 62
     7
100
AcDbLine
 10
-953.1133277534664
 20
-983.709155855845
 30
0.0
 11
-953.6264467052166
 21
-983.3075835636542
 31
0.0
  0
LINE
  5
190
330
55
100
AcDbEntity
  8
0
  6
Continuous
 62
     7
100
AcDbLine
 10
-960.8332642819249
 20
-976.399999729934
 30
0.0
 11
-954.2612396802011
 21
-976.399999729934
 31
0.0
  0
LINE
  5
191
330
55
100
AcDbEntity
  8
0
  6
Continuous
 62
     7
100
AcDbLine
 10
-960.8332642819249
 20
-986.99999972992
 30
0.0
 11
-952.1882184833785
 21
-986.99999972992
 31
0.0
  0
LINE
  5
192
330
55
100
AcDbEntity
  8
0
  6
Continuous
 62
     7
100
AcDbLine
 10
-951.1795545822677
 20
-983.0167541183163
 30
0.0
 11
-951.1795545822683
 21
-984.5999997299148
 31
0.0
  0
LINE
  5
193
330
55
100
AcDbEntity
  8
0
  6
Continuous
 62
     7
100
AcDbLine
 10
-960.8332642819249
 20
-976.399999729934
 30
0.0
 11
-960.8332642819249
 21
-986.99999972992
 31
0.0
  0
LINE
  5
194
330
55
100
AcDbEntity
  8
0
  6
Continuous
 62
     7
100
AcDbLine
 10
-937.8988632819348
 20
-985.2000000519488
 30
0.0
 11
-937.8988632819348
 21
-983.0000000519487
 31
0.0
  0
LINE
  5
195
330
55
100
AcDbEntity
  8
0
  6
Continuous
 62
     7
100
AcDbLine
 10
-928.8814691534892
 20
-972.8000000519487
 30
0.0
 11
-928.5760055119802
 21
-955.2999997503089
 31
0.0
  0
LINE
  5
196
330
55
100
AcDbEntity
  8
0
  6
Continuous
 62
     7
100
AcDbLine
 10
-930.8988632819347
 20
-958.2999997503088
 30
0.0
 11
-930.9512284767193
 21
-955.2999997503089
 31
0.0
  0
LINE
  5
197
330
55
100
AcDbEntity
  8
0
  6
Continuous
 62
     7
100
AcDbLine
 10
-930.9512284767193
 20
-955.2999997503089
 30
0.0
 11
-930.9861386065758
 21
-953.2999997503089
 31
0.0
  0
LINE
  5
198
330
55
100
AcDbEntity
  8
0
  6
Continuous
 62
     7
100
AcDbLine
 10
-930.9512284767193
 20
-955.2999997503089
 30
0.0
 11
-928.5760055119802
 21
-955.2999997503089
 31
0.0
  0
LINE
  5
199
330
55
100
AcDbEntity
  8
0
  6
Continuous
 62
     7
100
AcDbLine
 10
-940.8474326712717
 20
-955.2999997503089
 30
0.0
 11
-940.8125225414153
 21
-953.2999997503089
 31
0.0
  0
LINE
  5
19A
330
55
100
AcDbEntity
  8
0
  6
Continuous
 62
     7
100
AcDbLine
 10
-940.8988632819347
 20
-958.2999997503088
 30
0.0
 11
-930.8988632819347
 21
-958.2999997503088
 31
0.0
  0
LINE
  5
19B
330
55
100
AcDbEntity
  8
0
  6
Continuous
 62
     7
100
AcDbLine
 10
-914.8988632819338
 20
-976.6307618937342
 30
0.0
 11
-923.3988632819338
 21
-975.8871082537639
 31
0.0
  0
LINE
  5
19C
330
55
100
AcDbEntity
  8
0
  6
Continuous
 62
     7
100
AcDbLine
 10
-914.8988632819338
 20
-984.5000000519487
 30
0.0
 11
-914.8988632819338
 21
-976.6307618937342
 31
0.0
  0
LINE
  5
19D
330
55
100
AcDbEntity
  8
0
  6
Continuous
 62
     7
100
AcDbLine
 10
-917.4828378781494
 20
-984.5000000519487
 30
0.0
 11
-914.8988632819338
 21
-984.5000000519487
 31
0.0
  0
LINE
  5
19E
330
55
100
AcDbEntity
  8
0
  6
Continuous
 62
     7
100
AcDbLine
 10
-954.3148886857196
 20
-984.5000000519487
 30
0.0
 11
-956.8988632819352
 21
-984.5000000519487
 31
0.0
  0
LINE
  5
19F
330
55
100
AcDbEntity
  8
0
  6
Continuous
 62
     7
100
AcDbLine
 10
-956.8988632819352
 20
-984.5000000519487
 30
0.0
 11
-956.8988632819352
 21
-976.6307618937342
 31
0.0
  0
LINE
  5
1A0
330
55
100
AcDbEntity
  8
0
  6
Continuous
 62
     7
100
AcDbLine
 10
-910.9644622819401
 20
-986.99999972992
 30
0.0
 11
-919.6095080804905
 21
-986.99999972992
 31
0.0
  0
LINE
  5
1A1
330
55
100
AcDbEntity
  8
0
  6
Continuous
 62
     7
100
AcDbLine
 10
-910.9644622819401
 20
-976.399999729934
 30
0.0
 11
-917.5364868836679
 21
-976.399999729934
 31
0.0
  0
LINE
  5
1A2
330
55
100
AcDbEntity
  8
0
  6
Continuous
 62
     7
100
AcDbLine
 10
-910.9644622819401
 20
-976.399999729934
 30
0.0
 11
-910.9644622819401
 21
-986.99999972992
 31
0.0
  0
LINE
  5
1A3
330
55
100
AcDbEntity
  8
0
  6
Continuous
 62
     7
100
AcDbLine
 10
-937.8988632819348
 20
-985.2000000519488
 30
0.0
 11
-933.8988632819345
 21
-985.2000000519488
 31
0.0
  0
LINE
  5
1A4
330
55
100
AcDbEntity
  8
0
  6
Continuous
 62
     7
100
AcDbLine
 10
-940.8988632819347
 20
-958.2999997503088
 30
0.0
 11
-940.846498087149
 21
-955.2999997503089
 31
0.0
  0
ENDBLK
  5
57
330
55
100
AcDbEntity
  8
0
100
AcDbBlockEnd
  0
BLOCK
  5
5A
330
58
100
AcDbEntity
  8
0
100
AcDbBlockBegin
  2
Rckans1
 70
     0
 10
-935.8988632819347
 20
-970.1499998570389
 30
0.0
  3
Rckans1
  1

  0
INSERT
  5
59
330
58
100
AcDbEntity
  8
0
100
AcDbBlockReference
  2
AB_SK_E_NS_35-select__3
 10
-960.8332642819249
 20
-986.99999972992
 30
0.0
  0
MTEXT
  5
1A5
330
58
100
AcDbEntity
  8
1
 62
     6
100
AcDbMText
 10
-935.8988632819346
 20
-992.00000000009
 30
0.0
 40
5.0
 41
0.0
 71
     2
 72
     1
  1
 
  7
CONVERTER_11
 73
     1
 44
1.32052821128451
  0
ENDBLK
  5
5B
330
58
100
AcDbEntity
  8
0
100
AcDbBlockEnd
  0
BLOCK
  5
5D
330
5C
100
AcDbEntity
  8
0
100
AcDbBlockBegin
  2
AB_SK_E_NS_35-select__4
 70
     0
 10
-1030.06559948258
 20
-986.99999972992
 30
0.0
  3
AB_SK_E_NS_35-select__4
  1

  0
LINE
  5
1A6
330
5C
100
AcDbEntity
  8
0
  6
Continuous
 62
     7
100
AcDbLine
 10
-995.0482053488697
 20
-972.7999997503096
 30
0.0
 11
-994.7951069074105
 21
-958.2999997503089
 31
0.0
  0
LINE
  5
1A7
330
5C
100
AcDbEntity
  8
0
  6
Continuous
 62
     7
100
AcDbLine
 10
-996.8655994825804
 20
-972.8000000519488
 30
0.0
 11
-995.0482053488697
 21
-972.7999997503096
 31
0.0
  0
LINE
  5
1A8
330
5C
100
AcDbEntity
  8
0
  6
Continuous
 62
     7
100
AcDbLine
 10
-998.3655994825804
 20
-984.5000000519489
 30
0.0
 11
-998.3655994825804
 21
-976.6307618937343
 31
0.0
  0
LINE
  5
1A9
330
5C
100
AcDbEntity
  8
0
  6
Continuous
 62
     7
100
AcDbLine
 10
-998.3655994825804
 20
-976.6307618937343
 30
0.0
 11
-998.3655994825804
 21
-975.8871082537639
 31
0.0
  0
LINE
  5
1AA
330
5C
100
AcDbEntity
  8
0
  6
Continuous
 62
     7
100
AcDbLine
 10
-1009.082993616291
 20
-972.7999997503096
 30
0.0
 11
-1009.33609205775
 21
-958.2999997503089
 31
0.0
  0
LINE
  5
1AB
330
5C
100
AcDbEntity
  8
0
  6
Continuous
 62
     7
100
AcDbLine
 10
-1005.76559948258
 20
-976.6307618937343
 30
0.0
 11
-1005.76559948258
 21
-975.8871082537639
 31
0.0
  0
LINE
  5
1AC
330
5C
100
AcDbEntity
  8
0
  6
Continuous
 62
     7
100
AcDbLine
 10
-1005.66559948258
 20
-974.3000000519488
 30
0.0
 11
-1005.76559948258
 21
-974.3000000519488
 31
0.0
  0
LINE
  5
1AD
330
5C
100
AcDbEntity
  8
0
  6
Continuous
 62
     7
100
AcDbLine
 10
-1007.26559948258
 20
-976.6307618937343
 30
0.0
 11
-1007.26559948258
 21
-975.8871082537639
 31
0.0
  0
LINE
  5
1AE
330
5C
100
AcDbEntity
  8
0
  6
Continuous
 62
     7
100
AcDbLine
 10
-1005.66559948258
 20
-986.99999972992
 30
0.0
 11
-1004.46559948258
 21
-986.99999972992
 31
0.0
  0
LINE
  5
1AF
330
5C
100
AcDbEntity
  8
0
  6
Continuous
 62
     7
100
AcDbLine
 10
-974.1528748072215
 20
-953.299999750309
 30
0.0
 11
-974.0655994825803
 21
-958.299999750309
 31
0.0
  0
LINE
  5
1B0
330
5C
100
AcDbEntity
  8
0
  6
Continuous
 62
     7
100
AcDbLine
 10
-996.666974124843
 20
-955.299999750309
 30
0.0
 11
-975.3655994825804
 21
-955.299999750309
 31
0.0
  0
LINE
  5
1B1
330
5C
100
AcDbEntity
  8
0
  6
Continuous
 62
     7
100
AcDbLine
 10
-996.78733629422
 20
-958.2999997503109
 30
0.0
 11
-994.7951069074105
 21
-958.2999997503089
 31
0.0
  0
LINE
  5
1B2
330
5C
100
AcDbEntity
  8
0
  6
Continuous
 62
     7
100
AcDbLine
 10
-974.1528748072215
 20
-953.299999750309
 30
0.0
 11
-975.0129455211634
 21
-953.299999750309
 31
0.0
  0
LINE
  5
1B3
330
5C
100
AcDbEntity
  8
0
  6
Continuous
 62
     7
100
AcDbLine
 10
-1029.118253443997
 20
-953.2999997503089
 30
0.0
 11
-1029.978324157939
 21
-953.2999997503089
 31
0.0
  0
LINE
  5
1B4
330
5C
100
AcDbEntity
  8
0
  6
Continuous
 62
     7
100
AcDbLine
 10
-994.7951069074105
 20
-958.2999997503089
 30
0.0
 11
-974.0655994825803
 21
-958.299999750309
 31
0.0
  0
LINE
  5
1B5
330
5C
100
AcDbEntity
  8
0
  6
Continuous
 62
     7
100
AcDbLine
 10
-1030.06559948258
 20
-958.2999997503089
 30
0.0
 11
-1009.33609205775
 21
-958.2999997503089
 31
0.0
  0
LINE
  5
1B6
330
5C
100
AcDbEntity
  8
0
  6
Continuous
 62
     7
100
AcDbLine
 10
-1009.33609205775
 20
-958.2999997503089
 30
0.0
 11
-1007.343862670941
 21
-958.299999750309
 31
0.0
  0
LINE
  5
1B7
330
5C
100
AcDbEntity
  8
0
  6
Continuous
 62
     7
100
AcDbLine
 10
-1009.082993616291
 20
-972.7999997503096
 30
0.0
 11
-1007.26559948258
 21
-972.8000000519488
 31
0.0
  0
LINE
  5
1B8
330
5C
100
AcDbEntity
  8
0
  6
Continuous
 62
     7
100
AcDbLine
 10
-1007.26559948258
 20
-972.8000000519488
 30
0.0
 11
-996.8655994825804
 21
-972.8000000519488
 31
0.0
  0
LINE
  5
1B9
330
5C
100
AcDbEntity
  8
0
  6
Continuous
 62
     7
100
AcDbLine
 10
-996.8655994825804
 20
-972.8000000519488
 30
0.0
 11
-996.8655994825804
 21
-975.8871082537639
 31
0.0
  0
LINE
  5
1BA
330
5C
100
AcDbEntity
  8
0
  6
Continuous
 62
     7
100
AcDbLine
 10
-998.4655994825804
 20
-974.3000000519488
 30
0.0
 11
-998.4655994825804
 21
-976.3999997299342
 31
0.0
  0
LINE
  5
1BB
330
5C
100
AcDbEntity
  8
0
  6
Continuous
 62
     7
100
AcDbLine
 10
-998.3655994825804
 20
-976.6307618937343
 30
0.0
 11
-996.8655994825804
 21
-976.6307618937343
 31
0.0
  0
LINE
  5
1BC
330
5C
100
AcDbEntity
  8
0
  6
Continuous
 62
     7
100
AcDbLine
 10
-998.3655994825804
 20
-974.3000000519488
 30
0.0
 11
-998.4655994825804
 21
-974.3000000519488
 31
0.0
  0
LINE
  5
1BD
330
5C
100
AcDbEntity
  8
0
  6
Continuous
 62
     7
100
AcDbLine
 10
-998.3655994825804
 20
-975.8871082537639
 30
0.0
 11
-996.8655994825804
 21
-975.8871082537639
 31
0.0
  0
LINE
  5
1BE
330
5C
100
AcDbEntity
  8
0
  6
Continuous
 62
     7
100
AcDbLine
 10
-998.3655994825804
 20
-974.3000000519488
 30
0.0
 11
-998.3655994825804
 21
-975.8871082537639
 31
0.0
  0
LINE
  5
1BF
330
5C
100
AcDbEntity
  8
0
  6
Continuous
 62
     7
100
AcDbLine
 10
-999.6655994825804
 20
-976.3999997299342
 30
0.0
 11
-999.6655994825804
 21
-975.9000000519488
 31
0.0
  0
LINE
  5
1C0
330
5C
100
AcDbEntity
  8
0
  6
Continuous
 62
     7
100
AcDbLine
 10
-998.4655994825804
 20
-976.3999997299342
 30
0.0
 11
-999.6655994825804
 21
-976.3999997299342
 31
0.0
  0
LINE
  5
1C1
330
5C
100
AcDbEntity
  8
0
  6
Continuous
 62
     7
100
AcDbLine
 10
-1007.26559948258
 20
-972.8000000519488
 30
0.0
 11
-1007.26559948258
 21
-975.8871082537639
 31
0.0
  0
LINE
  5
1C2
330
5C
100
AcDbEntity
  8
0
  6
Continuous
 62
     7
100
AcDbLine
 10
-1005.76559948258
 20
-975.8871082537639
 30
0.0
 11
-1007.26559948258
 21
-975.8871082537639
 31
0.0
  0
LINE
  5
1C3
330
5C
100
AcDbEntity
  8
0
  6
Continuous
 62
     7
100
AcDbLine
 10
-1005.76559948258
 20
-974.3000000519488
 30
0.0
 11
-1005.76559948258
 21
-975.8871082537639
 31
0.0
  0
LINE
  5
1C4
330
5C
100
AcDbEntity
  8
0
  6
Continuous
 62
     7
100
AcDbLine
 10
-1005.76559948258
 20
-976.6307618937343
 30
0.0
 11
-1007.26559948258
 21
-976.6307618937343
 31
0.0
  0
LINE
  5
1C5
330
5C
100
AcDbEntity
  8
0
  6
Continuous
 62
     7
100
AcDbLine
 10
-1005.66559948258
 20
-974.3000000519488
 30
0.0
 11
-998.4655994825804
 21
-974.3000000519488
 31
0.0
  0
LINE
  5
1C6
330
5C
100
AcDbEntity
  8
0
  6
Continuous
 62
     7
100
AcDbLine
 10
-1005.66559948258
 20
-974.3000000519488
 30
0.0
 11
-1005.66559948258
 21
-976.3999997299342
 31
0.0
  0
LINE
  5
1C7
330
5C
100
AcDbEntity
  8
0
  6
Continuous
 62
     7
100
AcDbLine
 10
-1004.46559948258
 20
-975.9000000519488
 30
0.0
 11
-1004.46559948258
 21
-976.3999997299342
 31
0.0
  0
LINE
  5
1C8
330
5C
100
AcDbEntity
  8
0
  6
Continuous
 62
     7
100
AcDbLine
 10
-1004.065599482581
 20
-975.9000000519488
 30
0.0
 11
-1000.06559948258
 21
-975.9000000519488
 31
0.0
  0
LINE
  5
1C9
330
5C
100
AcDbEntity
  8
0
  6
Continuous
 62
     7
100
AcDbLine
 10
-1000.06559948258
 20
-975.9000000519488
 30
0.0
 11
-999.6655994825804
 21
-975.9000000519488
 31
0.0
  0
LINE
  5
1CA
330
5C
100
AcDbEntity
  8
0
  6
Continuous
 62
     7
100
AcDbLine
 10
-1004.46559948258
 20
-975.9000000519488
 30
0.0
 11
-1004.065599482581
 21
-975.9000000519488
 31
0.0
  0
LINE
  5
1CB
330
5C
100
AcDbEntity
  8
0
  6
Continuous
 62
     7
100
AcDbLine
 10
-1005.66559948258
 20
-976.3999997299342
 30
0.0
 11
-1004.46559948258
 21
-976.3999997299342
 31
0.0
  0
LINE
  5
1CC
330
5C
100
AcDbEntity
  8
0
  6
Continuous
 62
     7
100
AcDbLine
 10
-1029.118253443997
 20
-953.2999997503089
 30
0.0
 11
-1028.76559948258
 21
-955.2999997503089
 31
0.0
  0
LINE
  5
1CD
330
5C
100
AcDbEntity
  8
0
  6
Continuous
 62
     7
100
AcDbLine
 10
-1030.06559948258
 20
-958.2999997503089
 30
0.0
 11
-1029.978324157939
 21
-953.2999997503089
 31
0.0
  0
LINE
  5
1CE
330
5C
100
AcDbEntity
  8
0
  6
Continuous
 62
     7
100
AcDbLine
 10
-1004.065599482581
 20
-985.2000000519488
 30
0.0
 11
-1004.065599482581
 21
-975.9000000519488
 31
0.0
  0
LINE
  5
1CF
330
5C
100
AcDbEntity
  8
0
  6
Continuous
 62
     7
100
AcDbLine
 10
-1000.06559948258
 20
-985.2000000519488
 30
0.0
 11
-1000.06559948258
 21
-975.9000000519488
 31
0.0
  0
LINE
  5
1D0
330
5C
100
AcDbEntity
  8
0
  6
Continuous
 62
     7
100
AcDbLine
 10
-996.8655994825804
 20
-976.6307618937343
 30
0.0
 11
-996.8655994825804
 21
-975.8871082537639
 31
0.0
  0
LINE
  5
1D1
330
5C
100
AcDbEntity
  8
0
  6
Continuous
 62
     7
100
AcDbLine
 10
-996.8655994825804
 20
-984.5000000519489
 30
0.0
 11
-996.8655994825804
 21
-976.6307618937343
 31
0.0
  0
LINE
  5
1D2
330
5C
100
AcDbEntity
  8
0
  6
Continuous
 62
     7
100
AcDbLine
 10
-998.4655994825804
 20
-986.99999972992
 30
0.0
 11
-999.6655994825804
 21
-986.99999972992
 31
0.0
  0
LINE
  5
1D3
330
5C
100
AcDbEntity
  8
0
  6
Continuous
 62
     7
100
AcDbLine
 10
-998.4655994825804
 20
-976.3999997299342
 30
0.0
 11
-998.4655994825804
 21
-986.99999972992
 31
0.0
  0
LINE
  5
1D4
330
5C
100
AcDbEntity
  8
0
  6
Continuous
 62
     7
100
AcDbLine
 10
-999.6655994825804
 20
-976.3999997299342
 30
0.0
 11
-999.6655994825804
 21
-986.99999972992
 31
0.0
  0
LINE
  5
1D5
330
5C
100
AcDbEntity
  8
0
  6
Continuous
 62
     7
100
AcDbLine
 10
-1004.065599482581
 20
-985.2000000519488
 30
0.0
 11
-1002.06559948258
 21
-985.2000000519488
 31
0.0
  0
LINE
  5
1D6
330
5C
100
AcDbEntity
  8
0
  6
Continuous
 62
     7
100
AcDbLine
 10
-1002.06559948258
 20
-985.2000000519488
 30
0.0
 11
-1000.06559948258
 21
-985.2000000519488
 31
0.0
  0
LINE
  5
1D7
330
5C
100
AcDbEntity
  8
0
  6
Continuous
 62
     7
100
AcDbLine
 10
-1007.26559948258
 20
-976.6307618937343
 30
0.0
 11
-1007.26559948258
 21
-984.5000000519489
 31
0.0
  0
LINE
  5
1D8
330
5C
100
AcDbEntity
  8
0
  6
Continuous
 62
     7
100
AcDbLine
 10
-998.3655994825804
 20
-984.5000000519489
 30
0.0
 11
-996.8655994825804
 21
-984.5000000519489
 31
0.0
  0
LINE
  5
1D9
330
5C
100
AcDbEntity
  8
0
  6
Continuous
 62
     7
100
AcDbLine
 10
-1005.76559948258
 20
-984.5000000519489
 30
0.0
 11
-1007.26559948258
 21
-984.5000000519489
 31
0.0
  0
LINE
  5
1DA
330
5C
100
AcDbEntity
  8
0
  6
Continuous
 62
     7
100
AcDbLine
 10
-1005.76559948258
 20
-984.5000000519489
 30
0.0
 11
-1005.76559948258
 21
-976.6307618937343
 31
0.0
  0
LINE
  5
1DB
330
5C
100
AcDbEntity
  8
0
  6
Continuous
 62
     7
100
AcDbLine
 10
-1004.46559948258
 20
-976.3999997299342
 30
0.0
 11
-1004.46559948258
 21
-986.99999972992
 31
0.0
  0
LINE
  5
1DC
330
5C
100
AcDbEntity
  8
0
  6
Continuous
 62
     7
100
AcDbLine
 10
-1005.66559948258
 20
-976.3999997299342
 30
0.0
 11
-1005.66559948258
 21
-986.99999972992
 31
0.0
  0
LINE
  5
1DD
330
5C
100
AcDbEntity
  8
0
  6
Continuous
 62
     7
100
AcDbLine
 10
-1007.464224840318
 20
-955.2999997503088
 30
0.0
 11
-996.666974124843
 21
-955.299999750309
 31
0.0
  0
LINE
  5
1DE
330
5C
100
AcDbEntity
  8
0
  6
Continuous
 62
     7
100
AcDbLine
 10
-975.3655994825804
 20
-955.299999750309
 30
0.0
 11
-975.0129455211634
 21
-953.299999750309
 31
0.0
  0
LINE
  5
1DF
330
5C
100
AcDbEntity
  8
0
  6
Continuous
 62
     7
100
AcDbLine
 10
-1028.76559948258
 20
-955.2999997503089
 30
0.0
 11
-1007.464224840318
 21
-955.2999997503088
 31
0.0
  0
SPLINE
  5
1E0
330
5C
100
AcDbEntity
  8
0
  6
Continuous
 62
     7
100
AcDbSpline
210
0.0
220
0.0
230
1.0
 70
     8
 71
     3
 72
    11
 73
     7
 74
     5
 42
0.000000001
 43
0.0000000001
 44
0.00000001
 40
0.0
 40
0.0
 40
0.0
 40
0.0
 40
0.7526914471486293
 40
1.501206488319268
 40
2.253946020653089
 40
3.002413633431352
 40
3.002413633431352
 40
3.002413633431352
 40
3.002413633431352
 10
-1007.464224840318
 20
-955.2999997503088
 30
0.0
 10
-1007.454263037831
 20
-955.5506990572071
 30
0.0
 10
-1007.434394692246
 20
-956.0507066328348
 30
0.0
 10
-1007.404350156407
 20
-956.8014210114154
 30
0.0
 10
-1007.374216949038
 20
-957.5507227560759
 30
0.0
 10
-1007.353961555335
 20
-958.0507150211447
 30
0.0
 10
-1007.343862670941
 20
-958.299999750309
 30
0.0
 11
-1007.464224840318
 21
-955.2999997503088
 31
0.0
 11
-1007.434303639331
 21
-956.0520962443463
 31
0.0
 11
-1007.404382428172
 21
-956.8000130097587
 31
0.0
 11
-1007.374122544501
 21
-957.552144077447
 31
0.0
 11
-1007.343862670941
 21
-958.299999750309
 31
0.0
  0
SPLINE
  5
1E1
330
5C
100
AcDbEntity
  8
0
  6
Continuous
 62
     7
100
AcDbSpline
210
0.0
220
0.0
230
1.0
 70
     8
 71
     3
 72
    11
 73
     7
 74
     5
 42
0.000000001
 43
0.0000000001
 44
0.00000001
 40
0.0
 40
0.0
 40
0.0
 40
0.0
 40
0.7482263422496351
 40
1.501238190749679
 40
2.248841760463331
 40
3.002413633433107
 40
3.002413633433107
 40
3.002413633433107
 40
3.002413633433107
 10
-996.78733629422
 20
-958.2999997503109
 30
0.0
 10
-996.7772406604631
 20
-958.0507953789369
 30
0.0
 10
-996.7569848383096
 20
-957.550792774193
 30
0.0
 10
-996.7268634041781
 20
-956.8017842685558
 30
0.0
 10
-996.6968155618475
 20
-956.0509895344303
 30
0.0
 10
-996.6769475955521
 20
-955.550992300437
 30
0.0
 10
-996.666974124843
 20
-955.299999750309
 30
0.0
 11
-996.78733629422
 21
-958.2999997503109
 31
0.0
 11
-996.7570861472677
 21
-957.5523851518396
 31
0.0
 11
-996.726815292553
 21
-956.7999819890739
 31
0.0
 11
-996.6969304222285
 21
-956.0529759703714
 31
0.0
 11
-996.666974124843
 21
-955.299999750309
 31
0.0
  0
ENDBLK
  5
5E
330
5C
100
AcDbEntity
  8
0
100
AcDbBlockEnd
  0
BLOCK
  5
61
330
5F
100
AcDbEntity
  8
0
100
AcDbBlockBegin
  2
SA_Links1
 70
     0
 10
-1002.065599441553
 20
-970.1499998570389
 30
0.0
  3
SA_Links1
  1

  0
INSERT
  5
60
330
5F
100
AcDbEntity
  8
0
100
AcDbBlockReference
  2
AB_SK_E_NS_35-select__4
 10
-1030.06559948258
 20
-986.99999972992
 30
0.0
  0
MTEXT
  5
1E2
330
5F
100
AcDbEntity
  8
1
 62
     6
100
AcDbMText
 10
-1002.065599441553
 20
-992.00000000009
 30
0.0
 40
5.0
 41
0.0
 71
     2
 72
     1
  1
 
  7
CONVERTER_11
 73
     1
 44
1.32052821128451
  0
ENDBLK
  5
62
330
5F
100
AcDbEntity
  8
0
100
AcDbBlockEnd
  0
BLOCK
  5
64
330
63
100
AcDbEntity
  8
0
100
AcDbBlockBegin
  2
AB_SK_E_NS_35-select__5
 70
     0
 10
-1179.934400517415
 20
-986.99999972992
 30
0.0
  3
AB_SK_E_NS_35-select__5
  1

  0
LINE
  5
1E3
330
63
100
AcDbEntity
  8
0
  6
Continuous
 62
     7
100
AcDbLine
 10
-1158.951794651125
 20
-972.7999997503096
 30
0.0
 11
-1159.204893092584
 21
-958.2999997503089
 31
0.0
  0
LINE
  5
1E4
330
63
100
AcDbEntity
  8
0
  6
Continuous
 62
     7
100
AcDbLine
 10
-1179.847125192774
 20
-953.299999750309
 30
0.0
 11
-1179.934400517415
 21
-958.299999750309
 31
0.0
  0
LINE
  5
1E5
330
63
100
AcDbEntity
  8
0
  6
Continuous
 62
     7
100
AcDbLine
 10
-1157.211778234703
 20
-958.2999997503101
 30
0.0
 11
-1159.204893092584
 21
-958.2999997503089
 31
0.0
  0
LINE
  5
1E6
330
63
100
AcDbEntity
  8
0
  6
Continuous
 62
     7
100
AcDbLine
 10
-1144.917006383704
 20
-972.7999997503096
 30
0.0
 11
-1144.663907942245
 21
-958.2999997503089
 31
0.0
  0
LINE
  5
1E7
330
63
100
AcDbEntity
  8
0
  6
Continuous
 62
     7
100
AcDbLine
 10
-1146.734400517415
 20
-972.7999997503085
 30
0.0
 11
-1144.917006383704
 21
-972.7999997503096
 31
0.0
  0
LINE
  5
1E8
330
63
100
AcDbEntity
  8
0
  6
Continuous
 62
     7
100
AcDbLine
 10
-1179.847125192774
 20
-953.299999750309
 30
0.0
 11
-1178.987054478832
 21
-953.299999750309
 31
0.0
  0
LINE
  5
1E9
330
63
100
AcDbEntity
  8
0
  6
Continuous
 62
     7
100
AcDbLine
 10
-1178.634400517415
 20
-955.299999750309
 30
0.0
 11
-1178.987054478832
 21
-953.299999750309
 31
0.0
  0
LINE
  5
1EA
330
63
100
AcDbEntity
  8
0
  6
Continuous
 62
     7
100
AcDbLine
 10
-1157.332169215488
 20
-955.299999750309
 30
0.0
 11
-1178.634400517415
 21
-955.299999750309
 31
0.0
  0
LINE
  5
1EB
330
63
100
AcDbEntity
  8
0
  6
Continuous
 62
     7
100
AcDbLine
 10
-1157.332169215488
 20
-955.299999750309
 30
0.0
 11
-1146.535775159677
 21
-955.299999750309
 31
0.0
  0
LINE
  5
1EC
330
63
100
AcDbEntity
  8
0
  6
Continuous
 62
     7
100
AcDbLine
 10
-1125.234400517415
 20
-955.2999997503089
 30
0.0
 11
-1146.535775159677
 21
-955.299999750309
 31
0.0
  0
LINE
  5
1ED
330
63
100
AcDbEntity
  8
0
  6
Continuous
 62
     7
100
AcDbLine
 10
-1123.934400517415
 20
-958.2999997503089
 30
0.0
 11
-1124.021675842056
 21
-953.2999997503089
 31
0.0
  0
LINE
  5
1EE
330
63
100
AcDbEntity
  8
0
  6
Continuous
 62
     7
100
AcDbLine
 10
-1153.934400517415
 20
-985.2000000519488
 30
0.0
 11
-1153.934400517415
 21
-975.9000000519488
 31
0.0
  0
LINE
  5
1EF
330
63
100
AcDbEntity
  8
0
  6
Continuous
 62
     7
100
AcDbLine
 10
-1155.634400517415
 20
-984.5000000519489
 30
0.0
 11
-1155.634400517415
 21
-976.6307618937343
 31
0.0
  0
LINE
  5
1F0
330
63
100
AcDbEntity
  8
0
  6
Continuous
 62
     7
100
AcDbLine
 10
-1155.634400517415
 20
-974.3000000519488
 30
0.0
 11
-1155.534400517415
 21
-974.3000000519488
 31
0.0
  0
LINE
  5
1F1
330
63
100
AcDbEntity
  8
0
  6
Continuous
 62
     7
100
AcDbLine
 10
-1155.534400517415
 20
-974.3000000519488
 30
0.0
 11
-1155.534400517415
 21
-976.3999997299342
 31
0.0
  0
LINE
  5
1F2
330
63
100
AcDbEntity
  8
0
  6
Continuous
 62
     7
100
AcDbLine
 10
-1155.534400517415
 20
-976.3999997299342
 30
0.0
 11
-1154.334400517415
 21
-976.3999997299342
 31
0.0
  0
LINE
  5
1F3
330
63
100
AcDbEntity
  8
0
  6
Continuous
 62
     7
100
AcDbLine
 10
-1154.334400517415
 20
-975.9000000519488
 30
0.0
 11
-1154.334400517415
 21
-976.3999997299342
 31
0.0
  0
LINE
  5
1F4
330
63
100
AcDbEntity
  8
0
  6
Continuous
 62
     7
100
AcDbLine
 10
-1155.634400517415
 20
-976.6307618937343
 30
0.0
 11
-1155.634400517415
 21
-975.8871082537639
 31
0.0
  0
LINE
  5
1F5
330
63
100
AcDbEntity
  8
0
  6
Continuous
 62
     7
100
AcDbLine
 10
-1155.634400517415
 20
-974.3000000519488
 30
0.0
 11
-1155.634400517415
 21
-975.8871082537639
 31
0.0
  0
LINE
  5
1F6
330
63
100
AcDbEntity
  8
0
  6
Continuous
 62
     7
100
AcDbLine
 10
-1157.134400517415
 20
-984.5000000519489
 30
0.0
 11
-1155.634400517415
 21
-984.5000000519489
 31
0.0
  0
LINE
  5
1F7
330
63
100
AcDbEntity
  8
0
  6
Continuous
 62
     7
100
AcDbLine
 10
-1157.134400517415
 20
-976.6307618937343
 30
0.0
 11
-1157.134400517415
 21
-984.5000000519489
 31
0.0
  0
LINE
  5
1F8
330
63
100
AcDbEntity
  8
0
  6
Continuous
 62
     7
100
AcDbLine
 10
-1157.134400517415
 20
-975.8871082537639
 30
0.0
 11
-1155.634400517415
 21
-975.8871082537639
 31
0.0
  0
LINE
  5
1F9
330
63
100
AcDbEntity
  8
0
  6
Continuous
 62
     7
100
AcDbLine
 10
-1155.634400517415
 20
-976.6307618937343
 30
0.0
 11
-1157.134400517415
 21
-976.6307618937343
 31
0.0
  0
LINE
  5
1FA
330
63
100
AcDbEntity
  8
0
  6
Continuous
 62
     7
100
AcDbLine
 10
-1157.134400517415
 20
-972.8000000519488
 30
0.0
 11
-1157.134400517415
 21
-975.8871082537639
 31
0.0
  0
LINE
  5
1FB
330
63
100
AcDbEntity
  8
0
  6
Continuous
 62
     7
100
AcDbLine
 10
-1157.134400517415
 20
-976.6307618937343
 30
0.0
 11
-1157.134400517415
 21
-975.8871082537639
 31
0.0
  0
LINE
  5
1FC
330
63
100
AcDbEntity
  8
0
  6
Continuous
 62
     7
100
AcDbLine
 10
-1155.534400517415
 20
-986.99999972992
 30
0.0
 11
-1155.534400517415
 21
-976.3999997299342
 31
0.0
  0
LINE
  5
1FD
330
63
100
AcDbEntity
  8
0
  6
Continuous
 62
     7
100
AcDbLine
 10
-1155.534400517415
 20
-986.99999972992
 30
0.0
 11
-1154.334400517415
 21
-986.99999972992
 31
0.0
  0
LINE
  5
1FE
330
63
100
AcDbEntity
  8
0
  6
Continuous
 62
     7
100
AcDbLine
 10
-1154.334400517415
 20
-986.99999972992
 30
0.0
 11
-1154.334400517415
 21
-976.3999997299342
 31
0.0
  0
LINE
  5
1FF
330
63
100
AcDbEntity
  8
0
  6
Continuous
 62
     7
100
AcDbLine
 10
-1159.204893092584
 20
-958.2999997503089
 30
0.0
 11
-1179.934400517415
 21
-958.299999750309
 31
0.0
  0
LINE
  5
200
330
63
100
AcDbEntity
  8
0
  6
Continuous
 62
     7
100
AcDbLine
 10
-1123.934400517415
 20
-958.2999997503089
 30
0.0
 11
-1144.663907942245
 21
-958.2999997503089
 31
0.0
  0
LINE
  5
201
330
63
100
AcDbEntity
  8
0
  6
Continuous
 62
     7
100
AcDbLine
 10
-1144.663907942245
 20
-958.2999997503089
 30
0.0
 11
-1146.656137329054
 21
-958.2999997503089
 31
0.0
  0
LINE
  5
202
330
63
100
AcDbEntity
  8
0
  6
Continuous
 62
     7
100
AcDbLine
 10
-1153.934400517415
 20
-975.9000000519488
 30
0.0
 11
-1149.934400517414
 21
-975.9000000519488
 31
0.0
  0
LINE
  5
203
330
63
100
AcDbEntity
  8
0
  6
Continuous
 62
     7
100
AcDbLine
 10
-1158.951794651125
 20
-972.7999997503096
 30
0.0
 11
-1157.134400517415
 21
-972.8000000519488
 31
0.0
  0
LINE
  5
204
330
63
100
AcDbEntity
  8
0
  6
Continuous
 62
     7
100
AcDbLine
 10
-1154.334400517415
 20
-975.9000000519488
 30
0.0
 11
-1153.934400517415
 21
-975.9000000519488
 31
0.0
  0
LINE
  5
205
330
63
100
AcDbEntity
  8
0
  6
Continuous
 62
     7
100
AcDbLine
 10
-1149.934400517414
 20
-975.9000000519488
 30
0.0
 11
-1149.534400517415
 21
-975.9000000519488
 31
0.0
  0
LINE
  5
206
330
63
100
AcDbEntity
  8
0
  6
Continuous
 62
     7
100
AcDbLine
 10
-1148.334400517415
 20
-974.3000000519488
 30
0.0
 11
-1155.534400517415
 21
-974.3000000519488
 31
0.0
  0
LINE
  5
207
330
63
100
AcDbEntity
  8
0
  6
Continuous
 62
     7
100
AcDbLine
 10
-1146.734400517415
 20
-972.7999997503085
 30
0.0
 11
-1157.134400517415
 21
-972.8000000519488
 31
0.0
  0
LINE
  5
208
330
63
100
AcDbEntity
  8
0
  6
Continuous
 62
     7
100
AcDbLine
 10
-1124.881746555998
 20
-953.2999997503089
 30
0.0
 11
-1125.234400517415
 21
-955.2999997503089
 31
0.0
  0
LINE
  5
209
330
63
100
AcDbEntity
  8
0
  6
Continuous
 62
     7
100
AcDbLine
 10
-1124.881746555998
 20
-953.2999997503089
 30
0.0
 11
-1124.021675842056
 21
-953.2999997503089
 31
0.0
  0
LINE
  5
20A
330
63
100
AcDbEntity
  8
0
  6
Continuous
 62
     7
100
AcDbLine
 10
-1149.934400517414
 20
-985.2000000519488
 30
0.0
 11
-1149.934400517414
 21
-975.9000000519488
 31
0.0
  0
LINE
  5
20B
330
63
100
AcDbEntity
  8
0
  6
Continuous
 62
     7
100
AcDbLine
 10
-1146.734400517415
 20
-972.7999997503085
 30
0.0
 11
-1146.734400517415
 21
-975.8871082537639
 31
0.0
  0
LINE
  5
20C
330
63
100
AcDbEntity
  8
0
  6
Continuous
 62
     7
100
AcDbLine
 10
-1146.734400517415
 20
-976.6307618937343
 30
0.0
 11
-1146.734400517415
 21
-975.8871082537639
 31
0.0
  0
LINE
  5
20D
330
63
100
AcDbEntity
  8
0
  6
Continuous
 62
     7
100
AcDbLine
 10
-1148.234400517415
 20
-976.6307618937343
 30
0.0
 11
-1148.234400517415
 21
-975.8871082537639
 31
0.0
  0
LINE
  5
20E
330
63
100
AcDbEntity
  8
0
  6
Continuous
 62
     7
100
AcDbLine
 10
-1148.234400517415
 20
-976.6307618937343
 30
0.0
 11
-1146.734400517415
 21
-976.6307618937343
 31
0.0
  0
LINE
  5
20F
330
63
100
AcDbEntity
  8
0
  6
Continuous
 62
     7
100
AcDbLine
 10
-1146.734400517415
 20
-975.8871082537639
 30
0.0
 11
-1148.234400517415
 21
-975.8871082537639
 31
0.0
  0
LINE
  5
210
330
63
100
AcDbEntity
  8
0
  6
Continuous
 62
     7
100
AcDbLine
 10
-1148.234400517415
 20
-974.3000000519488
 30
0.0
 11
-1148.234400517415
 21
-975.8871082537639
 31
0.0
  0
LINE
  5
211
330
63
100
AcDbEntity
  8
0
  6
Continuous
 62
     7
100
AcDbLine
 10
-1148.334400517415
 20
-974.3000000519488
 30
0.0
 11
-1148.234400517415
 21
-974.3000000519488
 31
0.0
  0
LINE
  5
212
330
63
100
AcDbEntity
  8
0
  6
Continuous
 62
     7
100
AcDbLine
 10
-1149.534400517415
 20
-976.3999997299342
 30
0.0
 11
-1149.534400517415
 21
-975.9000000519488
 31
0.0
  0
LINE
  5
213
330
63
100
AcDbEntity
  8
0
  6
Continuous
 62
     7
100
AcDbLine
 10
-1148.334400517415
 20
-974.3000000519488
 30
0.0
 11
-1148.334400517415
 21
-976.3999997299342
 31
0.0
  0
LINE
  5
214
330
63
100
AcDbEntity
  8
0
  6
Continuous
 62
     7
100
AcDbLine
 10
-1148.334400517415
 20
-976.3999997299342
 30
0.0
 11
-1149.534400517415
 21
-976.3999997299342
 31
0.0
  0
LINE
  5
215
330
63
100
AcDbEntity
  8
0
  6
Continuous
 62
     7
100
AcDbLine
 10
-1146.734400517415
 20
-984.5000000519489
 30
0.0
 11
-1148.234400517415
 21
-984.5000000519489
 31
0.0
  0
LINE
  5
216
330
63
100
AcDbEntity
  8
0
  6
Continuous
 62
     7
100
AcDbLine
 10
-1148.234400517415
 20
-984.5000000519489
 30
0.0
 11
-1148.234400517415
 21
-976.6307618937343
 31
0.0
  0
LINE
  5
217
330
63
100
AcDbEntity
  8
0
  6
Continuous
 62
     7
100
AcDbLine
 10
-1146.734400517415
 20
-976.6307618937343
 30
0.0
 11
-1146.734400517415
 21
-984.5000000519489
 31
0.0
  0
LINE
  5
218
330
63
100
AcDbEntity
  8
0
  6
Continuous
 62
     7
100
AcDbLine
 10
-1148.334400517415
 20
-986.99999972992
 30
0.0
 11
-1149.534400517415
 21
-986.99999972992
 31
0.0
  0
LINE
  5
219
330
63
100
AcDbEntity
  8
0
  6
Continuous
 62
     7
100
AcDbLine
 10
-1149.534400517415
 20
-976.3999997299342
 30
0.0
 11
-1149.534400517415
 21
-986.99999972992
 31
0.0
  0
LINE
  5
21A
330
63
100
AcDbEntity
  8
0
  6
Continuous
 62
     7
100
AcDbLine
 10
-1148.334400517415
 20
-976.3999997299342
 30
0.0
 11
-1148.334400517415
 21
-986.99999972992
 31
0.0
  0
LINE
  5
21B
330
63
100
AcDbEntity
  8
0
  6
Continuous
 62
     7
100
AcDbLine
 10
-1153.934400517415
 20
-985.2000000519488
 30
0.0
 11
-1149.934400517414
 21
-985.2000000519488
 31
0.0
  0
SPLINE
  5
21C
330
63
100
AcDbEntity
  8
0
  6
Continuous
 62
     7
100
AcDbSpline
210
0.0
220
0.0
230
1.0
 70
     8
 71
     3
 72
    11
 73
     7
 74
     5
 42
0.000000001
 43
0.0000000001
 44
0.00000001
 40
0.0
 40
0.0
 40
0.0
 40
0.0
 40
0.7508886689185623
 40
1.501175934958923
 40
2.253708116051287
 40
3.002414788698145
 40
3.002414788698145
 40
3.002414788698145
 40
3.002414788698145
 10
-1157.332169215488
 20
-955.299999750309
 30
0.0
 10
-1157.322228968434
 20
-955.55009851341
 30
0.0
 10
-1157.3023564207
 20
-956.0500957295396
 30
0.0
 10
-1157.272308104531
 20
-956.8007305918186
 30
0.0
 10
-1157.242143524812
 20
-957.550632872019
 30
0.0
 10
-1157.221882793367
 20
-958.0506354990415
 30
0.0
 10
-1157.211778234703
 20
-958.2999997503101
 30
0.0
 11
-1157.332169215488
 21
-955.299999750309
 31
0.0
 11
-1157.302312845354
 21
-956.0502946191933
 31
0.0
 11
-1157.272313862972
 21
-956.7999819157656
 31
0.0
 11
-1157.242055082872
 21
-957.5519055088321
 31
0.0
 11
-1157.211778234703
 21
-958.2999997503101
 31
0.0
  0
SPLINE
  5
21D
330
63
100
AcDbEntity
  8
0
  6
Continuous
 62
     7
100
AcDbSpline
210
0.0
220
0.0
230
1.0
 70
     8
 71
     3
 72
    11
 73
     7
 74
     5
 42
0.000000001
 43
0.0000000001
 44
0.00000001
 40
0.0
 40
0.0
 40
0.0
 40
0.0
 40
0.7424645739503263
 40
1.501207145111784
 40
2.255746843586272
 40
3.002413633429798
 40
3.002413633429798
 40
3.002413633429798
 40
3.002413633429798
 10
-1146.656137329054
 20
-958.2999997503089
 30
0.0
 10
-1146.646119328741
 20
-958.0527143987225
 30
0.0
 10
-1146.625863705822
 20
-957.5527221429824
 30
0.0
 10
-1146.59564913745
 20
-956.8014138277862
 30
0.0
 10
-1146.565525250905
 20
-956.0487000099881
 30
0.0
 10
-1146.545657119705
 20
-955.5486924258829
 30
0.0
 10
-1146.535775159677
 20
-955.299999750309
 30
0.0
 11
-1146.656137329054
 21
-958.2999997503089
 31
0.0
 11
-1146.626119467882
 21
-957.5581422359683
 31
0.0
 11
-1146.595617571823
 21
-956.8000130097587
 31
0.0
 11
-1146.565456205841
 21
-956.0460763754322
 31
0.0
 11
-1146.535775159677
 21
-955.299999750309
 31
0.0
  0
ENDBLK
  5
65
330
63
100
AcDbEntity
  8
0
100
AcDbBlockEnd
  0
BLOCK
  5
68
330
66
100
AcDbEntity
  8
0
100
AcDbBlockBegin
  2
SA_Rechts1
 70
     0
 10
-1151.934400558442
 20
-970.1499998570389
 30
0.0
  3
SA_Rechts1
  1

  0
INSERT
  5
67
330
66
100
AcDbEntity
  8
0
100
AcDbBlockReference
  2
AB_SK_E_NS_35-select__5
 10
-1179.934400517415
 20
-986.99999972992
 30
0.0
  0
MTEXT
  5
21E
330
66
100
AcDbEntity
  8
1
 62
     6
100
AcDbMText
 10
-1151.934400558442
 20
-992.00000000009
 30
0.0
 40
5.0
 41
0.0
 71
     2
 72
     1
  1
 
  7
CONVERTER_11
 73
     1
 44
1.32052821128451
  0
ENDBLK
  5
69
330
66
100
AcDbEntity
  8
0
100
AcDbBlockEnd
  0
BLOCK
  5
6B
330
6A
100
AcDbEntity
  8
0
100
AcDbBlockBegin
  2
AB_SK_E_NS_35-select__6
 70
     0
 10
-1094.934400999995
 20
-986.9999997299199
 30
0.0
  3
AB_SK_E_NS_35-select__6
  1

  0
LINE
  5
21F
330
6A
100
AcDbEntity
  8
1
  6
DOT_CENTER
 62
     2
100
AcDbLine
 10
-1070.0
 20
-985.2000000519487
 30
0.0
 11
-1070.0
 21
-972.8000000519486
 31
0.0
  0
LINE
  5
220
330
6A
100
AcDbEntity
  8
0
  6
Continuous
 62
     7
100
AcDbLine
 10
-1091.000000000001
 20
-976.6307618937341
 30
0.0
 11
-1082.500000000001
 21
-975.8871082537637
 31
0.0
  0
LINE
  5
221
330
6A
100
AcDbEntity
  8
0
  6
Continuous
 62
     7
100
AcDbLine
 10
-1065.08634074052
 20
-953.2999997503088
 30
0.0
 11
-1065.051430610664
 21
-955.2999997503088
 31
0.0
  0
LINE
  5
222
330
6A
100
AcDbEntity
  8
0
  6
Continuous
 62
     7
100
AcDbLine
 10
-1068.0
 20
-985.2000000519487
 30
0.0
 11
-1068.0
 21
-983.0000000519486
 31
0.0
  0
LINE
  5
223
330
6A
100
AcDbEntity
  8
0
  6
Continuous
 62
     7
100
AcDbLine
 10
-1065.051430610664
 20
-955.2999997503088
 30
0.0
 11
-1064.999065415879
 21
-958.2999997503088
 31
0.0
  0
LINE
  5
224
330
6A
100
AcDbEntity
  8
0
  6
Continuous
 62
     7
100
AcDbLine
 10
-1072.0
 20
-985.2000000519487
 30
0.0
 11
-1072.0
 21
-983.0000000519486
 31
0.0
  0
LINE
  5
225
330
6A
100
AcDbEntity
  8
0
  6
Continuous
 62
     7
100
AcDbLine
 10
-1072.0
 20
-985.2000000519487
 30
0.0
 11
-1068.0
 21
-985.2000000519487
 31
0.0
  0
LINE
  5
226
330
6A
100
AcDbEntity
  8
0
  6
Continuous
 62
     7
100
AcDbLine
 10
-1062.982605871555
 20
-972.8000000519486
 30
0.0
 11
-1062.677142230046
 21
-955.2999997503088
 31
0.0
  0
LINE
  5
227
330
6A
100
AcDbEntity
  8
0
  6
Continuous
 62
     7
100
AcDbLine
 10
-1075.0
 20
-958.2999997503088
 30
0.0
 11
-1064.999065415879
 21
-958.2999997503088
 31
0.0
  0
LINE
  5
228
330
6A
100
AcDbEntity
  8
0
  6
Continuous
 62
     7
100
AcDbLine
 10
-1087.550000000001
 20
-983.0000000519486
 30
0.0
 11
-1088.416025403785
 21
-984.5000000519486
 31
0.0
  0
LINE
  5
229
330
6A
100
AcDbEntity
  8
0
  6
Continuous
 62
     7
100
AcDbLine
 10
-1082.500000000001
 20
-972.8000000519487
 30
0.0
 11
-1077.017394128446
 21
-972.8000000519486
 31
0.0
  0
LINE
  5
22A
330
6A
100
AcDbEntity
  8
0
  6
Continuous
 62
     7
100
AcDbLine
 10
-1082.500000000001
 20
-974.3000000519487
 30
0.0
 11
-1082.500000000001
 21
-975.8871082537637
 31
0.0
  0
LINE
  5
22B
330
6A
100
AcDbEntity
  8
0
  6
Continuous
 62
     7
100
AcDbLine
 10
-1082.500000000001
 20
-972.8000000519487
 30
0.0
 11
-1082.500000000001
 21
-974.3000000519487
 31
0.0
  0
LINE
  5
22C
330
6A
100
AcDbEntity
  8
0
  6
Continuous
 62
     7
100
AcDbLine
 10
-1082.500000000001
 20
-974.3000000519487
 30
0.0
 11
-1083.100000000001
 21
-974.3000000519487
 31
0.0
  0
LINE
  5
22D
330
6A
100
AcDbEntity
  8
0
  6
Continuous
 62
     7
100
AcDbLine
 10
-1083.100000000001
 20
-974.3000000519487
 30
0.0
 11
-1083.100000000001
 21
-975.9396014518793
 31
0.0
  0
LINE
  5
22E
330
6A
100
AcDbEntity
  8
0
  6
Continuous
 62
     7
100
AcDbLine
 10
-1088.416025403785
 20
-984.5000000519486
 30
0.0
 11
-1091.000000000001
 21
-984.5000000519486
 31
0.0
  0
LINE
  5
22F
330
6A
100
AcDbEntity
  8
0
  6
Continuous
 62
     7
100
AcDbLine
 10
-1091.000000000001
 20
-984.5000000519486
 30
0.0
 11
-1091.000000000001
 21
-976.6307618937341
 31
0.0
  0
LINE
  5
230
330
6A
100
AcDbEntity
  8
0
  6
Continuous
 62
     7
100
AcDbLine
 10
-1087.214464471547
 20
-983.7091558558449
 30
0.0
 11
-1086.385439701101
 21
-983.7091558558449
 31
0.0
  0
LINE
  5
231
330
6A
100
AcDbEntity
  8
0
  6
Continuous
 62
     7
100
AcDbLine
 10
-1087.727583423283
 20
-983.3075835636548
 30
0.0
 11
-1087.214464471547
 21
-983.7091558558449
 31
0.0
  0
LINE
  5
232
330
6A
100
AcDbEntity
  8
0
  6
Continuous
 62
     7
100
AcDbLine
 10
-1086.385439701101
 20
-983.7091558558449
 30
0.0
 11
-1085.280691300333
 21
-983.0167541183162
 31
0.0
  0
LINE
  5
233
330
6A
100
AcDbEntity
  8
0
  6
Continuous
 62
     7
100
AcDbLine
 10
-1094.934400999995
 20
-986.9999997299199
 30
0.0
 11
-1086.289355201444
 21
-986.9999997299199
 31
0.0
  0
LINE
  5
234
330
6A
100
AcDbEntity
  8
0
  6
Continuous
 62
     7
100
AcDbLine
 10
-1085.280691300333
 20
-983.0167541183162
 30
0.0
 11
-1085.280691300334
 21
-984.5999997299147
 31
0.0
  0
LINE
  5
235
330
6A
100
AcDbEntity
  8
0
  6
Continuous
 62
     7
100
AcDbLine
 10
-1094.934400999995
 20
-976.399999729934
 30
0.0
 11
-1094.934400999995
 21
-986.9999997299199
 31
0.0
  0
LINE
  5
236
330
6A
100
AcDbEntity
  8
0
  6
Continuous
 62
     7
100
AcDbLine
 10
-1094.934400999995
 20
-976.399999729934
 30
0.0
 11
-1088.362376398267
 21
-976.3999997299339
 31
0.0
  0
LINE
  5
237
330
6A
100
AcDbEntity
  8
0
  6
Continuous
 62
     7
100
AcDbLine
 10
-1049.0
 20
-976.6307618937341
 30
0.0
 11
-1057.5
 21
-975.8871082537637
 31
0.0
  0
LINE
  5
238
330
6A
100
AcDbEntity
  8
0
  6
Continuous
 62
     7
100
AcDbLine
 10
-1051.583974596215
 20
-984.5000000519486
 30
0.0
 11
-1049.0
 21
-984.5000000519486
 31
0.0
  0
LINE
  5
239
330
6A
100
AcDbEntity
  8
0
  6
Continuous
 62
     7
100
AcDbLine
 10
-1052.785535528469
 20
-983.7091558558448
 30
0.0
 11
-1052.272416576718
 21
-983.3075835636541
 31
0.0
  0
LINE
  5
23A
330
6A
100
AcDbEntity
  8
0
  6
Continuous
 62
     7
100
AcDbLine
 10
-1062.982605871555
 20
-972.8000000519486
 30
0.0
 11
-1057.5
 21
-972.8000000519486
 31
0.0
  0
LINE
  5
23B
330
6A
100
AcDbEntity
  8
0
  6
Continuous
 62
     7
100
AcDbLine
 10
-1077.017394128446
 20
-972.8000000519486
 30
0.0
 11
-1062.982605871555
 21
-972.8000000519486
 31
0.0
  0
LINE
  5
23C
330
6A
100
AcDbEntity
  8
0
  6
Continuous
 62
     7
100
AcDbLine
 10
-1049.0
 20
-984.5000000519486
 30
0.0
 11
-1049.0
 21
-976.6307618937341
 31
0.0
  0
LINE
  5
23D
330
6A
100
AcDbEntity
  8
0
  6
Continuous
 62
     7
100
AcDbLine
 10
-1052.45
 20
-983.0000000519486
 30
0.0
 11
-1051.583974596215
 21
-984.5000000519486
 31
0.0
  0
LINE
  5
23E
330
6A
100
AcDbEntity
  8
0
  6
Continuous
 62
     7
100
AcDbLine
 10
-1053.6145602989
 20
-983.7091558558448
 30
0.0
 11
-1052.785535528469
 21
-983.7091558558448
 31
0.0
  0
LINE
  5
23F
330
6A
100
AcDbEntity
  8
0
  6
Continuous
 62
     7
100
AcDbLine
 10
-1054.719308699667
 20
-983.0167541183162
 30
0.0
 11
-1053.6145602989
 21
-983.7091558558448
 31
0.0
  0
LINE
  5
240
330
6A
100
AcDbEntity
  8
0
  6
Continuous
 62
     7
100
AcDbLine
 10
-1057.5
 20
-974.3000000519486
 30
0.0
 11
-1057.5
 21
-975.8871082537637
 31
0.0
  0
LINE
  5
241
330
6A
100
AcDbEntity
  8
0
  6
Continuous
 62
     7
100
AcDbLine
 10
-1057.5
 20
-972.8000000519486
 30
0.0
 11
-1057.5
 21
-974.3000000519486
 31
0.0
  0
LINE
  5
242
330
6A
100
AcDbEntity
  8
0
  6
Continuous
 62
     7
100
AcDbLine
 10
-1056.9
 20
-975.9396014518793
 30
0.0
 11
-1056.9
 21
-974.3000000519486
 31
0.0
  0
LINE
  5
243
330
6A
100
AcDbEntity
  8
0
  6
Continuous
 62
     7
100
AcDbLine
 10
-1056.9
 20
-974.3000000519486
 30
0.0
 11
-1057.5
 21
-974.3000000519486
 31
0.0
  0
LINE
  5
244
330
6A
100
AcDbEntity
  8
0
  6
Continuous
 62
     7
100
AcDbLine
 10
-1045.06559900001
 20
-986.9999997299199
 30
0.0
 11
-1053.710644798556
 21
-986.9999997299199
 31
0.0
  0
LINE
  5
245
330
6A
100
AcDbEntity
  8
0
  6
Continuous
 62
     7
100
AcDbLine
 10
-1045.06559900001
 20
-976.3999997299339
 30
0.0
 11
-1051.637623601734
 21
-976.3999997299339
 31
0.0
  0
LINE
  5
246
330
6A
100
AcDbEntity
  8
0
  6
Continuous
 62
     7
100
AcDbLine
 10
-1045.06559900001
 20
-976.3999997299339
 30
0.0
 11
-1045.06559900001
 21
-986.9999997299199
 31
0.0
  0
LINE
  5
247
330
6A
100
AcDbEntity
  8
0
  6
Continuous
 62
     7
100
AcDbLine
 10
-1054.719308699667
 20
-983.0167541183162
 30
0.0
 11
-1054.719308699667
 21
-984.5999997299147
 31
0.0
  0
LINE
  5
248
330
6A
100
AcDbEntity
  8
0
  6
Continuous
 62
     7
100
AcDbLine
 10
-1087.550000000001
 20
-983.0000000519486
 30
0.0
 11
-1052.45
 21
-983.0000000519486
 31
0.0
  0
LINE
  5
249
330
6A
100
AcDbEntity
  8
0
  6
Continuous
 62
     7
100
AcDbLine
 10
-1053.710644798556
 20
-986.9999997299199
 30
0.0
 11
-1054.719308699667
 21
-984.5999997299147
 31
0.0
  0
LINE
  5
24A
330
6A
100
AcDbEntity
  8
0
  6
Continuous
 62
     7
100
AcDbLine
 10
-1077.017394128446
 20
-972.8000000519486
 30
0.0
 11
-1077.322857769955
 21
-955.2999997503088
 31
0.0
  0
LINE
  5
24B
330
6A
100
AcDbEntity
  8
0
  6
Continuous
 62
     7
100
AcDbLine
 10
-1074.947634805216
 20
-955.2999997503088
 30
0.0
 11
-1075.0
 21
-958.2999997503088
 31
0.0
  0
LINE
  5
24C
330
6A
100
AcDbEntity
  8
0
  6
Continuous
 62
     7
100
AcDbLine
 10
-1074.912724675359
 20
-953.2999997503088
 30
0.0
 11
-1074.947634805216
 21
-955.2999997503088
 31
0.0
  0
LINE
  5
24D
330
6A
100
AcDbEntity
  8
0
  6
Continuous
 62
     7
100
AcDbLine
 10
-1077.322857769955
 20
-955.2999997503088
 30
0.0
 11
-1074.947634805216
 21
-955.2999997503088
 31
0.0
  0
LINE
  5
24E
330
6A
100
AcDbEntity
  8
0
  6
Continuous
 62
     7
100
AcDbLine
 10
-1085.280691300334
 20
-984.5999997299147
 30
0.0
 11
-1086.289355201444
 21
-986.9999997299199
 31
0.0
  0
LINE
  5
24F
330
6A
100
AcDbEntity
  8
0
  6
Continuous
 62
     7
100
AcDbLine
 10
-1065.051430610664
 20
-955.2999997503088
 30
0.0
 11
-1062.677142230046
 21
-955.2999997503088
 31
0.0
  0
LINE
  5
250
330
6A
100
AcDbEntity
  8
0
  6
Continuous
 62
     7
100
AcDbLine
 10
-1074.912724675359
 20
-953.2999997503088
 30
0.0
 11
-1065.08634074052
 21
-953.2999997503088
 31
0.0
  0
ENDBLK
  5
6C
330
6A
100
AcDbEntity
  8
0
100
AcDbBlockEnd
  0
BLOCK
  5
6F
330
6D
100
AcDbEntity
  8
0
100
AcDbBlockBegin
  2
Vordans1
 70
     0
 10
-1070.0
 20
-970.1499998570388
 30
0.0
  3
Vordans1
  1

  0
INSERT
  5
6E
330
6D
100
AcDbEntity
  8
0
100
AcDbBlockReference
  2
AB_SK_E_NS_35-select__6
 10
-1094.934400999995
 20
-986.9999997299199
 30
0.0
  0
MTEXT
  5
251
330
6D
100
AcDbEntity
  8
1
 62
     6
100
AcDbMText
 10
-1070.0
 20
-992.0000000000902
 30
0.0
 40
5.0
 41
0.0
 71
     2
 72
     1
  1
 
  7
CONVERTER_11
 73
     1
 44
1.32052821128451
  0
DIMENSION
  5
25C
330
6D
100
AcDbEntity
  8
1
100
AcDbDimension
  2
*D19
 10
-1112.32613024861
 20
-986.9999997299199
 30
0.0
 11
-1115.75113024861
 21
-969.411907632012
 31
0.0
 70
    32
  1
<>
 71
     5
 42
-1.0
 53
90.0
  3
ME10_DIM_12
100
AcDbAlignedDimension
 13
-1074.912724675359
 23
-953.2999997503088
 33
0.0
 14
-1086.289355201444
 24
-986.9999997299199
 34
0.0
 50
90.0
100
AcDbRotatedDimension
  0
DIMENSION
  5
267
330
6D
100
AcDbEntity
  8
1
100
AcDbDimension
  2
*D20
 10
-1045.06559900001
 20
-1014.44194680819
 30
0.0
 11
-1071.40782055907
 21
-1011.01694680819
 31
0.0
 70
    32
  1
<>
 71
     5
 42
-1.0
 53
0.00013888888889
  3
ME10_DIM_13
100
AcDbAlignedDimension
 13
-1094.934400999995
 23
-986.9999997299199
 33
0.0
 14
-1045.06559900001
 24
-986.9999997299199
 34
0.0
100
AcDbRotatedDimension
  0
DIMENSION
  5
272
330
6D
100
AcDbEntity
  8
1
100
AcDbDimension
  2
*D21
 10
-1070.0
 20
-1005.00877654599
 30
0.0
 11
-1057.52504168262
 21
-1001.58377654599
 31
0.0
 70
    32
  1
24,95
 71
     5
 42
-1.0
 53
0.00013888888889
  3
ME10_DIM_14
100
AcDbAlignedDimension
 13
-1045.06559900001
 23
-986.9999997299199
 33
0.0
 14
-1070.0
 24
-985.2000000519487
 34
0.0
100
AcDbRotatedDimension
  0
DIMENSION
  5
27D
330
6D
100
AcDbEntity
  8
1
100
AcDbDimension
  2
*D22
 10
-1070.0
 20
-995.352607639438
 30
0.0
 11
-1060.49575580313
 21
-991.9276076394381
 31
0.0
 70
    32
  1
<>
 71
     5
 42
-1.0
 53
0.00013888888889
  3
ME10_DIM_15
100
AcDbAlignedDimension
 13
-1052.45
 23
-983.0000000519486
 33
0.0
 14
-1070.0
 24
-985.2000000519487
 34
0.0
100
AcDbRotatedDimension
  0
DIMENSION
  5
288
330
6D
100
AcDbEntity
  8
1
100
AcDbDimension
  2
*D23
 10
-1104.32613024861
 20
-983.0000000519486
 30
0.0
 11
-1108.25113024861
 21
-966.890864804763
 31
0.0
 70
    32
  1
<>
 71
     5
 42
-1.0
 53
90.0
  3
ME10_DIM_16
100
AcDbAlignedDimension
 13
-1074.912724675359
 23
-953.2999997503088
 33
0.0
 14
-1087.550000000001
 24
-983.0000000519486
 34
0.0
 50
90.0
100
AcDbRotatedDimension
  0
ENDBLK
  5
70
330
6D
100
AcDbEntity
  8
0
100
AcDbBlockEnd
  0
BLOCK
  5
72
330
71
100
AcDbEntity
  8
0
100
AcDbBlockBegin
  2
_rahmen
 70
     0
 10
-901.9494313996769
 20
-1130.625241860314
 30
0.0
  3
_rahmen
  1

  0
LINE
  5
289
330
71
100
AcDbEntity
  8
1
  6
DOT_CENTER
 62
     2
100
AcDbLine
 10
-1027.507581039864
 20
-1104.500241860314
 30
0.0
 11
-1022.007581039864
 21
-1104.500241860314
 31
0.0
  0
LINE
  5
28A
330
71
100
AcDbEntity
  8
1
  6
PHANTOM
 62
     2
100
AcDbLine
 10
-1018.757581039864
 20
-1101.750241860314
 30
0.0
 11
-1018.757581039864
 21
-1107.250241860314
 31
0.0
  0
LINE
  5
28B
330
71
100
AcDbEntity
  8
1
  6
PHANTOM
 62
     2
100
AcDbLine
 10
-1016.007581039864
 20
-1104.500241860314
 30
0.0
 11
-1021.507581039864
 21
-1104.500241860314
 31
0.0
  0
LINE
  5
28C
330
71
100
AcDbEntity
  8
1
  6
Continuous
 62
     7
100
AcDbLine
 10
-967.1942359264269
 20
-1117.125241860314
 30
0.0
 11
-967.1942359264269
 21
-1108.625241860314
 31
0.0
  0
LINE
  5
28D
330
71
100
AcDbEntity
  8
1
  6
Continuous
 62
     6
100
AcDbLine
 10
-995.094235926427
 20
-1108.625241860314
 30
0.0
 11
-901.9494313996752
 21
-1108.625241860314
 31
0.0
  0
LINE
  5
28E
330
71
100
AcDbEntity
  8
1
  6
Continuous
 62
     7
100
AcDbLine
 10
-1031.494235926427
 20
-1108.625241860314
 30
0.0
 11
-1031.494235926427
 21
-1100.125241860314
 31
0.0
  0
LINE
  5
28F
330
71
100
AcDbEntity
  8
1
  6
Continuous
 62
     7
100
AcDbLine
 10
-995.094235926427
 20
-1108.625241860314
 30
0.0
 11
-995.094235926427
 21
-1100.125241860314
 31
0.0
  0
LINE
  5
290
330
71
100
AcDbEntity
  8
1
  6
Continuous
 62
     7
100
AcDbLine
 10
-937.367839681354
 20
-1100.125241860314
 30
0.0
 11
-937.367839681354
 21
-1108.625241860314
 31
0.0
  0
LINE
  5
291
330
71
100
AcDbEntity
  8
1
  6
Continuous
 62
     7
100
AcDbLine
 10
-910.8678396813544
 20
-1100.125241860314
 30
0.0
 11
-910.8678396813544
 21
-1108.625241860314
 31
0.0
  0
LINE
  5
292
330
71
100
AcDbEntity
  8
1
  6
Continuous
 62
     6
100
AcDbLine
 10
-1100.494235926427
 20
-1125.625241860314
 30
0.0
 11
-1145.449431399677
 21
-1125.625241860314
 31
0.0
  0
LINE
  5
293
330
71
100
AcDbEntity
  8
1
  6
Continuous
 62
     7
100
AcDbLine
 10
-901.9494313996756
 20
-1117.125241860314
 30
0.0
 11
-995.094235926427
 21
-1117.125241860314
 31
0.0
  0
LINE
  5
294
102
{ACAD_REACTORS
330
3A6
330
3A7
102
}
330
71
100
AcDbEntity
  8
0
  6
Continuous
 62
     2
100
AcDbLine
 10
-1017.78680698466
 20
-1116.324952744651
 30
0.0
 11
-1017.78680698466
 21
-1115.452435737848
 31
0.0
  0
LINE
  5
295
102
{ACAD_REACTORS
330
3A6
330
3A7
102
}
330
71
100
AcDbEntity
  8
0
  6
Continuous
 62
     2
100
AcDbLine
 10
-1017.78680698466
 20
-1117.284721452134
 30
0.0
 11
-1017.78680698466
 21
-1118.157238458937
 31
0.0
  0
LINE
  5
296
102
{ACAD_REACTORS
330
3A8
330
3A9
102
}
330
71
100
AcDbEntity
  8
0
  6
Continuous
 62
     2
100
AcDbLine
 10
-1002.453762848369
 20
-1116.063197642611
 30
0.0
 11
-1001.350123548801
 21
-1116.063197642611
 31
0.0
  0
LINE
  5
297
102
{ACAD_REACTORS
330
3A8
330
3A9
102
}
330
71
100
AcDbEntity
  8
0
  6
Continuous
 62
     2
100
AcDbLine
 10
-1001.684105505408
 20
-1117.284721452135
 30
0.0
 11
-1001.684105505408
 21
-1118.157238458938
 31
0.0
  0
LINE
  5
298
102
{ACAD_REACTORS
330
3B2
330
3B3
102
}
330
71
100
AcDbEntity
  8
0
  6
Continuous
 62
     2
100
AcDbLine
 10
-1003.544862120788
 20
-1114.972551384124
 30
0.0
 11
-1002.146909073847
 21
-1113.391692390349
 31
0.0
  0
LINE
  5
299
102
{ACAD_REACTORS
330
3B2
330
3B3
102
}
330
71
100
AcDbEntity
  8
0
  6
Continuous
 62
     2
100
AcDbLine
 10
-1003.449438704615
 20
-1111.918741860313
 30
0.0
 11
-1002.146909073847
 21
-1113.391692390349
 31
0.0
  0
LINE
  5
29A
102
{ACAD_REACTORS
330
3B2
330
3B3
102
}
330
71
100
AcDbEntity
  8
0
  6
Continuous
 62
     2
100
AcDbLine
 10
-1000.844379443081
 20
-1111.918741860313
 30
0.0
 11
-999.4416552253335
 21
-1111.918741860313
 31
0.0
  0
LINE
  5
29B
102
{ACAD_REACTORS
330
3B2
330
3B3
102
}
330
71
100
AcDbEntity
  8
0
  6
Continuous
 62
     2
100
AcDbLine
 10
-1002.142137903039
 20
-1114.972551384124
 30
0.0
 11
-1001.445546964974
 21
-1114.18481959883
 31
0.0
  0
LINE
  5
29C
102
{ACAD_REACTORS
330
3B2
330
3B3
102
}
330
71
100
AcDbEntity
  8
0
  6
Continuous
 62
     2
100
AcDbLine
 10
-1002.142137903039
 20
-1114.972551384124
 30
0.0
 11
-1003.544862120788
 21
-1114.972551384124
 31
0.0
  0
LINE
  5
29D
102
{ACAD_REACTORS
330
3B4
330
3B5
102
}
330
71
100
AcDbEntity
  8
0
  6
Continuous
 62
     2
100
AcDbLine
 10
-1003.664141391004
 20
-1114.972551384124
 30
0.0
 11
-1004.904645801257
 21
-1114.972551384124
 31
0.0
  0
LINE
  5
29E
102
{ACAD_REACTORS
330
3B6
330
3B7
102
}
330
71
100
AcDbEntity
  8
0
  6
Continuous
 62
     2
100
AcDbLine
 10
-1005.772625409412
 20
-1117.110218050774
 30
0.0
 11
-1006.072790646603
 21
-1116.342403084787
 31
0.0
  0
LINE
  5
29F
102
{ACAD_REACTORS
330
3B6
330
3B7
102
}
330
71
100
AcDbEntity
  8
0
  6
Continuous
 62
     2
100
AcDbLine
 10
-1006.372955883795
 20
-1117.110218050774
 30
0.0
 11
-1005.772625409412
 21
-1117.110218050774
 31
0.0
  0
LINE
  5
2A0
102
{ACAD_REACTORS
330
3B6
330
3B7
102
}
330
71
100
AcDbEntity
  8
0
  6
Continuous
 62
     2
100
AcDbLine
 10
-1008.090995898669
 20
-1118.331741860298
 30
0.0
 11
-1006.850491488416
 21
-1118.331741860298
 31
0.0
  0
LINE
  5
2A1
102
{ACAD_REACTORS
330
3B6
330
3B7
102
}
330
71
100
AcDbEntity
  8
0
  6
Continuous
 62
     2
100
AcDbLine
 10
-1006.693042851729
 20
-1115.277932336487
 30
0.0
 11
-1005.452538441477
 21
-1115.277932336487
 31
0.0
  0
LINE
  5
2A2
102
{ACAD_REACTORS
330
3B6
330
3B7
102
}
330
71
100
AcDbEntity
  8
0
  6
Continuous
 62
     2
100
AcDbLine
 10
-1005.452538441477
 20
-1115.277932336487
 30
0.0
 11
-1004.054585394536
 21
-1118.331741860298
 31
0.0
  0
LINE
  5
2A3
102
{ACAD_REACTORS
330
3B6
330
3B7
102
}
330
71
100
AcDbEntity
  8
0
  6
Continuous
 62
     2
100
AcDbLine
 10
-1005.29508980479
 20
-1118.331741860298
 30
0.0
 11
-1005.506569858266
 21
-1117.79078131608
 31
0.0
  0
LINE
  5
2A4
102
{ACAD_REACTORS
330
3B8
330
3B9
102
}
330
71
100
AcDbEntity
  8
0
  6
Continuous
 62
     2
100
AcDbLine
 10
-1009.437409000376
 20
-1118.331741860298
 30
0.0
 11
-1008.24461629821
 21
-1118.331741860298
 31
0.0
  0
LINE
  5
2A5
102
{ACAD_REACTORS
330
3B8
330
3B9
102
}
330
71
100
AcDbEntity
  8
0
  6
Continuous
 62
     2
100
AcDbLine
 10
-1009.437409000376
 20
-1116.063197642611
 30
0.0
 11
-1009.437409000376
 21
-1118.331741860298
 31
0.0
  0
LINE
  5
2A6
102
{ACAD_REACTORS
330
3B8
330
3B9
102
}
330
71
100
AcDbEntity
  8
0
  6
Continuous
 62
     2
100
AcDbLine
 10
-1010.248508037851
 20
-1115.277932336487
 30
0.0
 11
-1010.248508037851
 21
-1116.063197642611
 31
0.0
  0
LINE
  5
2A7
102
{ACAD_REACTORS
330
3BA
330
3BB
102
}
330
71
100
AcDbEntity
  8
0
  6
Continuous
 62
     2
100
AcDbLine
 10
-1008.769294156278
 20
-1114.972551384124
 30
0.0
 11
-1007.576501454112
 21
-1114.972551384124
 31
0.0
  0
LINE
  5
2A8
102
{ACAD_REACTORS
330
3BA
330
3BB
102
}
330
71
100
AcDbEntity
  8
0
  6
Continuous
 62
     2
100
AcDbLine
 10
-1006.335997043858
 20
-1113.227517370518
 30
0.0
 11
-1007.576501454112
 21
-1111.918741860313
 31
0.0
  0
LINE
  5
2A9
102
{ACAD_REACTORS
330
3BA
330
3BB
102
}
330
71
100
AcDbEntity
  8
0
  6
Continuous
 62
     2
100
AcDbLine
 10
-1005.143204341691
 20
-1111.918741860313
 30
0.0
 11
-1006.335997043858
 21
-1111.918741860313
 31
0.0
  0
LINE
  5
2AA
102
{ACAD_REACTORS
330
3BA
330
3BB
102
}
330
71
100
AcDbEntity
  8
0
  6
Continuous
 62
     2
100
AcDbLine
 10
-1005.143204341691
 20
-1114.972551384124
 30
0.0
 11
-1005.143204341691
 21
-1111.918741860313
 31
0.0
  0
LINE
  5
2AB
102
{ACAD_REACTORS
330
3BA
330
3BB
102
}
330
71
100
AcDbEntity
  8
0
  6
Continuous
 62
     2
100
AcDbLine
 10
-1006.335997043858
 20
-1114.972551384124
 30
0.0
 11
-1005.143204341691
 21
-1114.972551384124
 31
0.0
  0
LINE
  5
2AC
102
{ACAD_REACTORS
330
3BA
330
3BB
102
}
330
71
100
AcDbEntity
  8
0
  6
Continuous
 62
     2
100
AcDbLine
 10
-1007.576501454112
 20
-1113.663775873919
 30
0.0
 11
-1006.335997043858
 21
-1114.972551384124
 31
0.0
  0
LINE
  5
2AD
102
{ACAD_REACTORS
330
3BC
330
3BD
102
}
330
71
100
AcDbEntity
  8
0
  6
Continuous
 62
     2
100
AcDbLine
 10
-1011.584435864278
 20
-1116.586707846692
 30
0.0
 11
-1012.82494027453
 21
-1115.277932336487
 31
0.0
  0
LINE
  5
2AE
102
{ACAD_REACTORS
330
3BC
330
3BD
102
}
330
71
100
AcDbEntity
  8
0
  6
Continuous
 62
     2
100
AcDbLine
 10
-1011.584435864278
 20
-1115.277932336487
 30
0.0
 11
-1011.584435864278
 21
-1116.586707846692
 31
0.0
  0
LINE
  5
2AF
102
{ACAD_REACTORS
330
3BC
330
3BD
102
}
330
71
100
AcDbEntity
  8
0
  6
Continuous
 62
     2
100
AcDbLine
 10
-1010.391643162111
 20
-1115.277932336487
 30
0.0
 11
-1011.584435864278
 21
-1115.277932336487
 31
0.0
  0
LINE
  5
2B0
102
{ACAD_REACTORS
330
3BC
330
3BD
102
}
330
71
100
AcDbEntity
  8
0
  6
Continuous
 62
     2
100
AcDbLine
 10
-1010.391643162111
 20
-1118.331741860298
 30
0.0
 11
-1010.391643162111
 21
-1115.277932336487
 31
0.0
  0
LINE
  5
2B1
102
{ACAD_REACTORS
330
3BC
330
3BD
102
}
330
71
100
AcDbEntity
  8
0
  6
Continuous
 62
     2
100
AcDbLine
 10
-1012.82494027453
 20
-1117.022966350094
 30
0.0
 11
-1011.584435864278
 21
-1118.331741860298
 31
0.0
  0
LINE
  5
2B2
102
{ACAD_REACTORS
330
3BC
330
3BD
102
}
330
71
100
AcDbEntity
  8
0
  6
Continuous
 62
     2
100
AcDbLine
 10
-1012.82494027453
 20
-1118.331741860298
 30
0.0
 11
-1012.82494027453
 21
-1117.022966350094
 31
0.0
  0
LINE
  5
2B3
102
{ACAD_REACTORS
330
3AC
330
3AD
102
}
330
71
100
AcDbEntity
  8
0
  6
Continuous
 62
     2
100
AcDbLine
 10
-1010.343780523139
 20
-1112.616755465756
 30
0.0
 11
-1009.007852696711
 21
-1112.616755465756
 31
0.0
  0
LINE
  5
2B4
102
{ACAD_REACTORS
330
3AC
330
3AD
102
}
330
71
100
AcDbEntity
  8
0
  6
Continuous
 62
     2
100
AcDbLine
 10
-1010.343780523139
 20
-1114.274537778681
 30
0.0
 11
-1010.343780523139
 21
-1113.79465342494
 31
0.0
  0
LINE
  5
2B5
102
{ACAD_REACTORS
330
3AC
330
3AD
102
}
330
71
100
AcDbEntity
  8
0
  6
Continuous
 62
     2
100
AcDbLine
 10
-1009.007852696711
 20
-1114.274537778681
 30
0.0
 11
-1010.343780523139
 21
-1114.274537778681
 31
0.0
  0
LINE
  5
2B6
102
{ACAD_REACTORS
330
3AC
330
3AD
102
}
330
71
100
AcDbEntity
  8
0
  6
Continuous
 62
     2
100
AcDbLine
 10
-1009.007852696711
 20
-1114.972551384124
 30
0.0
 11
-1009.007852696711
 21
-1114.274537778681
 31
0.0
  0
LINE
  5
2B7
102
{ACAD_REACTORS
330
3AC
330
3AD
102
}
330
71
100
AcDbEntity
  8
0
  6
Continuous
 62
     2
100
AcDbLine
 10
-1012.158172420492
 20
-1114.972551384124
 30
0.0
 11
-1009.007852696711
 21
-1114.972551384124
 31
0.0
  0
LINE
  5
2B8
102
{ACAD_REACTORS
330
3AC
330
3AD
102
}
330
71
100
AcDbEntity
  8
0
  6
Continuous
 62
     2
100
AcDbLine
 10
-1012.158172420492
 20
-1111.918741860313
 30
0.0
 11
-1009.007852696711
 21
-1111.918741860313
 31
0.0
  0
LINE
  5
2B9
102
{ACAD_REACTORS
330
3AC
330
3AD
102
}
330
71
100
AcDbEntity
  8
0
  6
Continuous
 62
     2
100
AcDbLine
 10
-1009.007852696711
 20
-1112.616755465756
 30
0.0
 11
-1009.007852696711
 21
-1111.918741860313
 31
0.0
  0
LINE
  5
2BA
102
{ACAD_REACTORS
330
3BE
330
3BF
102
}
330
71
100
AcDbEntity
  8
0
  6
Continuous
 62
     2
100
AcDbLine
 10
-1015.019527915632
 20
-1112.987575193647
 30
0.0
 11
-1015.019527915632
 21
-1111.918741860313
 31
0.0
  0
LINE
  5
2BB
102
{ACAD_REACTORS
330
3BE
330
3BF
102
}
330
71
100
AcDbEntity
  8
0
  6
Continuous
 62
     2
100
AcDbLine
 10
-1015.019527915632
 20
-1111.918741860313
 30
0.0
 11
-1013.826735213466
 21
-1111.918741860313
 31
0.0
  0
LINE
  5
2BC
102
{ACAD_REACTORS
330
3BE
330
3BF
102
}
330
71
100
AcDbEntity
  8
0
  6
Continuous
 62
     2
100
AcDbLine
 10
-1015.019527915632
 20
-1113.83827927528
 30
0.0
 11
-1016.06918549354
 21
-1113.83827927528
 31
0.0
  0
LINE
  5
2BD
102
{ACAD_REACTORS
330
3BE
330
3BF
102
}
330
71
100
AcDbEntity
  8
0
  6
Continuous
 62
     2
100
AcDbLine
 10
-1016.06918549354
 20
-1113.83827927528
 30
0.0
 11
-1016.06918549354
 21
-1114.972551384124
 31
0.0
  0
LINE
  5
2BE
102
{ACAD_REACTORS
330
3BE
330
3BF
102
}
330
71
100
AcDbEntity
  8
0
  6
Continuous
 62
     2
100
AcDbLine
 10
-1017.261978195706
 20
-1111.918741860313
 30
0.0
 11
-1017.261978195706
 21
-1114.972551384124
 31
0.0
  0
LINE
  5
2BF
102
{ACAD_REACTORS
330
3B0
330
3B1
102
}
330
71
100
AcDbEntity
  8
0
  6
Continuous
 62
     2
100
AcDbLine
 10
-1019.21815822726
 20
-1113.287575355095
 30
0.0
 11
-1019.21815822726
 21
-1112.581847705753
 31
0.0
  0
LINE
  5
2C0
102
{ACAD_REACTORS
330
3B0
330
3B1
102
}
330
71
100
AcDbEntity
  8
0
  6
Continuous
 62
     2
100
AcDbLine
 10
-1020.458662637514
 20
-1114.972551384124
 30
0.0
 11
-1019.21815822726
 21
-1114.972551384124
 31
0.0
  0
LINE
  5
2C1
102
{ACAD_REACTORS
330
3B0
330
3B1
102
}
330
71
100
AcDbEntity
  8
0
  6
Continuous
 62
     2
100
AcDbLine
 10
-1019.21815822726
 20
-1114.972551384124
 30
0.0
 11
-1019.21815822726
 21
-1114.02947314298
 31
0.0
  0
LINE
  5
2C2
102
{ACAD_REACTORS
330
3AA
330
3AB
102
}
330
71
100
AcDbEntity
  8
0
  6
Continuous
 62
     2
100
AcDbLine
 10
-1024.763608486725
 20
-1117.619186304741
 30
0.0
 11
-1026.239441747735
 21
-1117.619186304741
 31
0.0
  0
LINE
  5
2C3
102
{ACAD_REACTORS
330
3AA
330
3AB
102
}
330
71
100
AcDbEntity
  8
0
  6
Continuous
 62
     2
100
AcDbLine
 10
-1027.257581039864
 20
-1112.342986475715
 30
0.0
 11
-1027.257581039864
 21
-1117.907497244915
 31
0.0
  0
LINE
  5
2C4
102
{ACAD_REACTORS
330
3AA
330
3AB
102
}
330
71
100
AcDbEntity
  8
0
  6
Continuous
 62
     2
100
AcDbLine
 10
-1026.833336424482
 20
-1111.918741860331
 30
0.0
 11
-1021.360024333765
 21
-1111.918741860331
 31
0.0
  0
LINE
  5
2C5
102
{ACAD_REACTORS
330
3AA
330
3AB
102
}
330
71
100
AcDbEntity
  8
0
  6
Continuous
 62
     2
100
AcDbLine
 10
-1020.935779718381
 20
-1112.342986475715
 30
0.0
 11
-1020.935779718381
 21
-1117.907497244915
 31
0.0
  0
LINE
  5
2C6
102
{ACAD_REACTORS
330
3AA
330
3AB
102
}
330
71
100
AcDbEntity
  8
0
  6
Continuous
 62
     2
100
AcDbLine
 10
-1021.360024333765
 20
-1118.331741860298
 30
0.0
 11
-1026.833336424482
 21
-1118.331741860298
 31
0.0
  0
LINE
  5
2C7
102
{ACAD_REACTORS
330
3AA
330
3AB
102
}
330
71
100
AcDbEntity
  8
0
  6
Continuous
 62
     2
100
AcDbLine
 10
-1024.447891563649
 20
-1117.303469381664
 30
0.0
 11
-1024.447891563649
 21
-1115.772698450133
 31
0.0
  0
LINE
  5
2C8
102
{ACAD_REACTORS
330
3AA
330
3AB
102
}
330
71
100
AcDbEntity
  8
0
  6
Continuous
 62
     2
100
AcDbLine
 10
-1024.447891563649
 20
-1113.551038958008
 30
0.0
 11
-1024.447891563649
 21
-1112.947014338947
 31
0.0
  0
LINE
  5
2C9
102
{ACAD_REACTORS
330
3AA
330
3AB
102
}
330
71
100
AcDbEntity
  8
0
  6
Continuous
 62
     2
100
AcDbLine
 10
-1026.239441747735
 20
-1112.631297415871
 30
0.0
 11
-1024.763608486725
 21
-1112.631297415871
 31
0.0
  0
LINE
  5
2CA
102
{ACAD_REACTORS
330
3AA
330
3AB
102
}
330
71
100
AcDbEntity
  8
0
  6
Continuous
 62
     2
100
AcDbLine
 10
-1026.555158670811
 20
-1112.947014338947
 30
0.0
 11
-1026.555158670811
 21
-1117.303469381664
 31
0.0
  0
LINE
  5
2CB
102
{ACAD_REACTORS
330
3B0
330
3B1
102
}
330
71
100
AcDbEntity
  8
0
  6
Continuous
 62
     2
100
AcDbLine
 10
-1019.21815822726
 20
-1114.02947314298
 30
0.0
 11
-1018.45939063948
 21
-1114.02947314298
 31
0.0
  0
LINE
  5
2CC
102
{ACAD_REACTORS
330
3B0
330
3B1
102
}
330
71
100
AcDbEntity
  8
0
  6
Continuous
 62
     2
100
AcDbLine
 10
-1020.458662637514
 20
-1111.918741860313
 30
0.0
 11
-1018.45939063948
 21
-1111.918741860313
 31
0.0
  0
LINE
  5
2CD
102
{ACAD_REACTORS
330
3B0
330
3B1
102
}
330
71
100
AcDbEntity
  8
0
  6
Continuous
 62
     2
100
AcDbLine
 10
-1020.458662637514
 20
-1111.918741860313
 30
0.0
 11
-1020.458662637514
 21
-1114.972551384124
 31
0.0
  0
LINE
  5
2CE
102
{ACAD_REACTORS
330
3B0
330
3B1
102
}
330
71
100
AcDbEntity
  8
0
  6
Continuous
 62
     2
100
AcDbLine
 10
-1019.21815822726
 20
-1113.287575355095
 30
0.0
 11
-1018.900863165718
 21
-1113.287575355095
 31
0.0
  0
LINE
  5
2CF
102
{ACAD_REACTORS
330
3B0
330
3B1
102
}
330
71
100
AcDbEntity
  8
0
  6
Continuous
 62
     2
100
AcDbLine
 10
-1019.21815822726
 20
-1112.581847705753
 30
0.0
 11
-1018.900863165718
 21
-1112.581847705753
 31
0.0
  0
LINE
  5
2D0
102
{ACAD_REACTORS
330
3BE
330
3BF
102
}
330
71
100
AcDbEntity
  8
0
  6
Continuous
 62
     2
100
AcDbLine
 10
-1016.06918549354
 20
-1112.987575193647
 30
0.0
 11
-1015.019527915632
 21
-1112.987575193647
 31
0.0
  0
LINE
  5
2D1
102
{ACAD_REACTORS
330
3BE
330
3BF
102
}
330
71
100
AcDbEntity
  8
0
  6
Continuous
 62
     2
100
AcDbLine
 10
-1016.06918549354
 20
-1111.918741860313
 30
0.0
 11
-1016.06918549354
 21
-1112.987575193647
 31
0.0
  0
LINE
  5
2D2
102
{ACAD_REACTORS
330
3BE
330
3BF
102
}
330
71
100
AcDbEntity
  8
0
  6
Continuous
 62
     2
100
AcDbLine
 10
-1017.261978195706
 20
-1111.918741860313
 30
0.0
 11
-1016.06918549354
 21
-1111.918741860313
 31
0.0
  0
LINE
  5
2D3
102
{ACAD_REACTORS
330
3BE
330
3BF
102
}
330
71
100
AcDbEntity
  8
0
  6
Continuous
 62
     2
100
AcDbLine
 10
-1016.06918549354
 20
-1114.972551384124
 30
0.0
 11
-1017.261978195706
 21
-1114.972551384124
 31
0.0
  0
LINE
  5
2D4
102
{ACAD_REACTORS
330
3BE
330
3BF
102
}
330
71
100
AcDbEntity
  8
0
  6
Continuous
 62
     2
100
AcDbLine
 10
-1015.019527915632
 20
-1114.972551384124
 30
0.0
 11
-1015.019527915632
 21
-1113.83827927528
 31
0.0
  0
LINE
  5
2D5
102
{ACAD_REACTORS
330
3BE
330
3BF
102
}
330
71
100
AcDbEntity
  8
0
  6
Continuous
 62
     2
100
AcDbLine
 10
-1013.826735213466
 20
-1114.972551384124
 30
0.0
 11
-1015.019527915632
 21
-1114.972551384124
 31
0.0
  0
LINE
  5
2D6
102
{ACAD_REACTORS
330
3BE
330
3BF
102
}
330
71
100
AcDbEntity
  8
0
  6
Continuous
 62
     2
100
AcDbLine
 10
-1013.826735213466
 20
-1111.918741860313
 30
0.0
 11
-1013.826735213466
 21
-1114.972551384124
 31
0.0
  0
LINE
  5
2D7
102
{ACAD_REACTORS
330
3AC
330
3AD
102
}
330
71
100
AcDbEntity
  8
0
  6
Continuous
 62
     2
100
AcDbLine
 10
-1010.343780523139
 20
-1113.79465342494
 30
0.0
 11
-1009.007852696711
 21
-1113.79465342494
 31
0.0
  0
LINE
  5
2D8
102
{ACAD_REACTORS
330
3AC
330
3AD
102
}
330
71
100
AcDbEntity
  8
0
  6
Continuous
 62
     2
100
AcDbLine
 10
-1009.007852696711
 20
-1113.79465342494
 30
0.0
 11
-1009.007852696711
 21
-1113.096639819497
 31
0.0
  0
LINE
  5
2D9
102
{ACAD_REACTORS
330
3AC
330
3AD
102
}
330
71
100
AcDbEntity
  8
0
  6
Continuous
 62
     2
100
AcDbLine
 10
-1009.007852696711
 20
-1113.096639819497
 30
0.0
 11
-1010.343780523139
 21
-1113.096639819497
 31
0.0
  0
LINE
  5
2DA
102
{ACAD_REACTORS
330
3AC
330
3AD
102
}
330
71
100
AcDbEntity
  8
0
  6
Continuous
 62
     2
100
AcDbLine
 10
-1010.343780523139
 20
-1113.096639819497
 30
0.0
 11
-1010.343780523139
 21
-1112.616755465756
 31
0.0
  0
LINE
  5
2DB
102
{ACAD_REACTORS
330
3BC
330
3BD
102
}
330
71
100
AcDbEntity
  8
0
  6
Continuous
 62
     2
100
AcDbLine
 10
-1014.017732976698
 20
-1118.331741860298
 30
0.0
 11
-1012.82494027453
 21
-1118.331741860298
 31
0.0
  0
LINE
  5
2DC
102
{ACAD_REACTORS
330
3BC
330
3BD
102
}
330
71
100
AcDbEntity
  8
0
  6
Continuous
 62
     2
100
AcDbLine
 10
-1011.584435864278
 20
-1118.331741860298
 30
0.0
 11
-1010.391643162111
 21
-1118.331741860298
 31
0.0
  0
LINE
  5
2DD
102
{ACAD_REACTORS
330
3BC
330
3BD
102
}
330
71
100
AcDbEntity
  8
0
  6
Continuous
 62
     2
100
AcDbLine
 10
-1012.82494027453
 20
-1115.277932336487
 30
0.0
 11
-1014.017732976698
 21
-1115.277932336487
 31
0.0
  0
LINE
  5
2DE
102
{ACAD_REACTORS
330
3BC
330
3BD
102
}
330
71
100
AcDbEntity
  8
0
  6
Continuous
 62
     2
100
AcDbLine
 10
-1014.017732976698
 20
-1115.277932336487
 30
0.0
 11
-1014.017732976698
 21
-1118.331741860298
 31
0.0
  0
LINE
  5
2DF
102
{ACAD_REACTORS
330
3BA
330
3BB
102
}
330
71
100
AcDbEntity
  8
0
  6
Continuous
 62
     2
100
AcDbLine
 10
-1006.335997043858
 20
-1111.918741860313
 30
0.0
 11
-1006.335997043858
 21
-1113.227517370518
 31
0.0
  0
LINE
  5
2E0
102
{ACAD_REACTORS
330
3BA
330
3BB
102
}
330
71
100
AcDbEntity
  8
0
  6
Continuous
 62
     2
100
AcDbLine
 10
-1007.576501454112
 20
-1111.918741860313
 30
0.0
 11
-1008.769294156278
 21
-1111.918741860313
 31
0.0
  0
LINE
  5
2E1
102
{ACAD_REACTORS
330
3BA
330
3BB
102
}
330
71
100
AcDbEntity
  8
0
  6
Continuous
 62
     2
100
AcDbLine
 10
-1008.769294156278
 20
-1111.918741860313
 30
0.0
 11
-1008.769294156278
 21
-1114.972551384124
 31
0.0
  0
LINE
  5
2E2
102
{ACAD_REACTORS
330
3BA
330
3BB
102
}
330
71
100
AcDbEntity
  8
0
  6
Continuous
 62
     2
100
AcDbLine
 10
-1007.576501454112
 20
-1114.972551384124
 30
0.0
 11
-1007.576501454112
 21
-1113.663775873919
 31
0.0
  0
LINE
  5
2E3
102
{ACAD_REACTORS
330
3B8
330
3B9
102
}
330
71
100
AcDbEntity
  8
0
  6
Continuous
 62
     2
100
AcDbLine
 10
-1008.24461629821
 20
-1118.331741860298
 30
0.0
 11
-1008.24461629821
 21
-1116.063197642611
 31
0.0
  0
LINE
  5
2E4
102
{ACAD_REACTORS
330
3B8
330
3B9
102
}
330
71
100
AcDbEntity
  8
0
  6
Continuous
 62
     2
100
AcDbLine
 10
-1008.24461629821
 20
-1116.063197642611
 30
0.0
 11
-1007.433517260737
 21
-1116.063197642611
 31
0.0
  0
LINE
  5
2E5
102
{ACAD_REACTORS
330
3B8
330
3B9
102
}
330
71
100
AcDbEntity
  8
0
  6
Continuous
 62
     2
100
AcDbLine
 10
-1007.433517260737
 20
-1116.063197642611
 30
0.0
 11
-1007.433517260737
 21
-1115.277932336487
 31
0.0
  0
LINE
  5
2E6
102
{ACAD_REACTORS
330
3B8
330
3B9
102
}
330
71
100
AcDbEntity
  8
0
  6
Continuous
 62
     2
100
AcDbLine
 10
-1007.433517260737
 20
-1115.277932336487
 30
0.0
 11
-1010.248508037851
 21
-1115.277932336487
 31
0.0
  0
LINE
  5
2E7
102
{ACAD_REACTORS
330
3B8
330
3B9
102
}
330
71
100
AcDbEntity
  8
0
  6
Continuous
 62
     2
100
AcDbLine
 10
-1010.248508037851
 20
-1116.063197642611
 30
0.0
 11
-1009.437409000376
 21
-1116.063197642611
 31
0.0
  0
LINE
  5
2E8
102
{ACAD_REACTORS
330
3B6
330
3B7
102
}
330
71
100
AcDbEntity
  8
0
  6
Continuous
 62
     2
100
AcDbLine
 10
-1006.63901143494
 20
-1117.79078131608
 30
0.0
 11
-1005.506569858266
 21
-1117.79078131608
 31
0.0
  0
LINE
  5
2E9
102
{ACAD_REACTORS
330
3B6
330
3B7
102
}
330
71
100
AcDbEntity
  8
0
  6
Continuous
 62
     2
100
AcDbLine
 10
-1004.054585394536
 20
-1118.331741860298
 30
0.0
 11
-1005.29508980479
 21
-1118.331741860298
 31
0.0
  0
LINE
  5
2EA
102
{ACAD_REACTORS
330
3B6
330
3B7
102
}
330
71
100
AcDbEntity
  8
0
  6
Continuous
 62
     2
100
AcDbLine
 10
-1006.693042851729
 20
-1115.277932336487
 30
0.0
 11
-1008.090995898669
 21
-1118.331741860298
 31
0.0
  0
LINE
  5
2EB
102
{ACAD_REACTORS
330
3B6
330
3B7
102
}
330
71
100
AcDbEntity
  8
0
  6
Continuous
 62
     2
100
AcDbLine
 10
-1006.850491488416
 20
-1118.331741860298
 30
0.0
 11
-1006.63901143494
 21
-1117.79078131608
 31
0.0
  0
LINE
  5
2EC
102
{ACAD_REACTORS
330
3B6
330
3B7
102
}
330
71
100
AcDbEntity
  8
0
  6
Continuous
 62
     2
100
AcDbLine
 10
-1006.372955883795
 20
-1117.110218050774
 30
0.0
 11
-1006.072790646603
 21
-1116.342403084787
 31
0.0
  0
LINE
  5
2ED
102
{ACAD_REACTORS
330
3B4
330
3B5
102
}
330
71
100
AcDbEntity
  8
0
  6
Continuous
 62
     2
100
AcDbLine
 10
-1004.904645801257
 20
-1114.972551384124
 30
0.0
 11
-1004.904645801257
 21
-1111.918741860313
 31
0.0
  0
LINE
  5
2EE
102
{ACAD_REACTORS
330
3B4
330
3B5
102
}
330
71
100
AcDbEntity
  8
0
  6
Continuous
 62
     2
100
AcDbLine
 10
-1003.664141391004
 20
-1111.918741860313
 30
0.0
 11
-1003.664141391004
 21
-1114.972551384124
 31
0.0
  0
LINE
  5
2EF
102
{ACAD_REACTORS
330
3B4
330
3B5
102
}
330
71
100
AcDbEntity
  8
0
  6
Continuous
 62
     2
100
AcDbLine
 10
-1004.904645801257
 20
-1111.918741860313
 30
0.0
 11
-1003.664141391004
 21
-1111.918741860313
 31
0.0
  0
LINE
  5
2F0
102
{ACAD_REACTORS
330
3B2
330
3B3
102
}
330
71
100
AcDbEntity
  8
0
  6
Continuous
 62
     2
100
AcDbLine
 10
-1001.445546964974
 20
-1114.18481959883
 30
0.0
 11
-1000.748956026908
 21
-1114.972551384124
 31
0.0
  0
LINE
  5
2F1
102
{ACAD_REACTORS
330
3B2
330
3B3
102
}
330
71
100
AcDbEntity
  8
0
  6
Continuous
 62
     2
100
AcDbLine
 10
-1000.748956026908
 20
-1114.972551384124
 30
0.0
 11
-999.3462318091598
 21
-1114.972551384124
 31
0.0
  0
LINE
  5
2F2
102
{ACAD_REACTORS
330
3B2
330
3B3
102
}
330
71
100
AcDbEntity
  8
0
  6
Continuous
 62
     2
100
AcDbLine
 10
-1000.7441848561
 20
-1113.391692390349
 30
0.0
 11
-999.3462318091598
 21
-1114.972551384124
 31
0.0
  0
LINE
  5
2F3
102
{ACAD_REACTORS
330
3B2
330
3B3
102
}
330
71
100
AcDbEntity
  8
0
  6
Continuous
 62
     2
100
AcDbLine
 10
-1000.7441848561
 20
-1113.391692390349
 30
0.0
 11
-999.4416552253335
 21
-1111.918741860313
 31
0.0
  0
LINE
  5
2F4
102
{ACAD_REACTORS
330
3B2
330
3B3
102
}
330
71
100
AcDbEntity
  8
0
  6
Continuous
 62
     2
100
AcDbLine
 10
-1001.445546964974
 20
-1112.598565181868
 30
0.0
 11
-1000.844379443081
 21
-1111.918741860313
 31
0.0
  0
LINE
  5
2F5
102
{ACAD_REACTORS
330
3B2
330
3B3
102
}
330
71
100
AcDbEntity
  8
0
  6
Continuous
 62
     2
100
AcDbLine
 10
-1002.046714486865
 20
-1111.918741860313
 30
0.0
 11
-1001.445546964974
 21
-1112.598565181868
 31
0.0
  0
LINE
  5
2F6
102
{ACAD_REACTORS
330
3B2
330
3B3
102
}
330
71
100
AcDbEntity
  8
0
  6
Continuous
 62
     2
100
AcDbLine
 10
-1002.046714486865
 20
-1111.918741860313
 30
0.0
 11
-1003.449438704615
 21
-1111.918741860313
 31
0.0
  0
LINE
  5
2F7
102
{ACAD_REACTORS
330
3A8
330
3A9
102
}
330
71
100
AcDbEntity
  8
0
  6
Continuous
 62
     2
100
AcDbLine
 10
-1001.350123548801
 20
-1118.331741860298
 30
0.0
 11
-1000.157330846633
 21
-1118.331741860298
 31
0.0
  0
LINE
  5
2F8
102
{ACAD_REACTORS
330
3A8
330
3A9
102
}
330
71
100
AcDbEntity
  8
0
  6
Continuous
 62
     2
100
AcDbLine
 10
-1000.157330846633
 20
-1118.331741860298
 30
0.0
 11
-1000.157330846633
 21
-1116.063197642611
 31
0.0
  0
LINE
  5
2F9
102
{ACAD_REACTORS
330
3A8
330
3A9
102
}
330
71
100
AcDbEntity
  8
0
  6
Continuous
 62
     2
100
AcDbLine
 10
-1000.157330846633
 20
-1116.063197642611
 30
0.0
 11
-999.3462318091598
 21
-1116.063197642611
 31
0.0
  0
LINE
  5
2FA
102
{ACAD_REACTORS
330
3A8
330
3A9
102
}
330
71
100
AcDbEntity
  8
0
  6
Continuous
 62
     2
100
AcDbLine
 10
-999.3462318091598
 20
-1116.063197642611
 30
0.0
 11
-999.3462318091598
 21
-1115.277932336487
 31
0.0
  0
LINE
  5
2FB
102
{ACAD_REACTORS
330
3A8
330
3A9
102
}
330
71
100
AcDbEntity
  8
0
  6
Continuous
 62
     2
100
AcDbLine
 10
-1002.731177327789
 20
-1115.277932336488
 30
0.0
 11
-999.3462318091598
 21
-1115.277932336487
 31
0.0
  0
LINE
  5
2FC
102
{ACAD_REACTORS
330
3A8
330
3A9
102
}
330
71
100
AcDbEntity
  8
0
  6
Continuous
 62
     2
100
AcDbLine
 10
-1001.350123548801
 20
-1116.063197642611
 30
0.0
 11
-1001.350123548801
 21
-1118.331741860298
 31
0.0
  0
LINE
  5
2FD
102
{ACAD_REACTORS
330
3AA
330
3AB
102
}
330
71
100
AcDbEntity
  8
0
  6
Continuous
 62
     2
100
AcDbLine
 10
-1023.97960998428
 20
-1116.352861710734
 30
0.0
 11
-1023.97960998428
 21
-1115.771010304039
 31
0.0
  0
LINE
  5
2FE
102
{ACAD_REACTORS
330
3AA
330
3AB
102
}
330
71
100
AcDbEntity
  8
0
  6
Continuous
 62
     2
100
AcDbLine
 10
-1023.97960998428
 20
-1113.552727104102
 30
0.0
 11
-1023.97960998428
 21
-1112.947191815596
 31
0.0
  0
LINE
  5
2FF
330
71
100
AcDbEntity
  8
1
  6
Continuous
 62
     6
100
AcDbLine
 10
-1045.449431399677
 20
-1125.625241860314
 30
0.0
 11
-1031.494235926427
 21
-1125.625241860314
 31
0.0
  0
LINE
  5
300
330
71
100
AcDbEntity
  8
1
  6
Continuous
 62
     6
100
AcDbLine
 10
-1095.449431399677
 20
-1125.625241860314
 30
0.0
 11
-1100.494235926427
 21
-1125.625241860314
 31
0.0
  0
LINE
  5
301
330
71
100
AcDbEntity
  8
1
  6
Continuous
 62
     6
100
AcDbLine
 10
-945.4494313996769
 20
-1125.625241860314
 30
0.0
 11
-901.9494313996769
 21
-1125.625241860314
 31
0.0
  0
LINE
  5
302
330
71
100
AcDbEntity
  8
1
  6
Continuous
 62
     6
100
AcDbLine
 10
-995.4494313996769
 20
-1125.625241860314
 30
0.0
 11
-1013.294235926427
 21
-1125.625241860314
 31
0.0
  0
LINE
  5
303
330
71
100
AcDbEntity
  8
1
  6
Continuous
 62
     2
100
AcDbLine
 10
-901.9494313996769
 20
-1125.625241860314
 30
0.0
 11
-896.9494313996779
 21
-1125.625241860314
 31
0.0
  0
LINE
  5
304
330
71
100
AcDbEntity
  8
1
  6
Continuous
 62
     2
100
AcDbLine
 10
-901.9494313996769
 20
-1125.625241860314
 30
0.0
 11
-901.9494313996769
 21
-1130.625241860314
 31
0.0
  0
LINE
  5
305
330
71
100
AcDbEntity
  8
1
  6
Continuous
 62
     6
100
AcDbLine
 10
-1031.494235926427
 20
-1108.625241860314
 30
0.0
 11
-995.094235926427
 21
-1108.625241860314
 31
0.0
  0
LINE
  5
306
330
71
100
AcDbEntity
  8
1
  6
Continuous
 62
     2
100
AcDbLine
 10
-896.9494313996779
 20
-1130.625241860314
 30
0.0
 11
-896.9494313996779
 21
-1125.625241860314
 31
0.0
  0
LINE
  5
307
330
71
100
AcDbEntity
  8
1
  6
Continuous
 62
     2
100
AcDbLine
 10
-896.9494313996779
 20
-1130.625241860314
 30
0.0
 11
-901.9494313996769
 21
-1130.625241860314
 31
0.0
  0
LINE
  5
308
330
71
100
AcDbEntity
  8
1
  6
Continuous
 62
     2
100
AcDbLine
 10
-901.9494313996769
 20
-1130.625241860314
 30
0.0
 11
-945.4494313996769
 21
-1130.625241860314
 31
0.0
  0
LINE
  5
309
330
71
100
AcDbEntity
  8
1
  6
Continuous
 62
     6
100
AcDbLine
 10
-901.9494313996752
 20
-1108.625241860314
 30
0.0
 11
-901.949431399676
 21
-1075.625241860314
 31
0.0
  0
LINE
  5
30A
330
71
100
AcDbEntity
  8
1
  6
Continuous
 62
     2
100
AcDbLine
 10
-896.9494313996779
 20
-920.6252418603144
 30
0.0
 11
-1045.449431399677
 21
-920.6252418603144
 31
0.0
  0
LINE
  5
30B
330
71
100
AcDbEntity
  8
1
  6
Continuous
 62
     6
100
AcDbLine
 10
-901.9494313996779
 20
-940.6252418603144
 30
0.0
 11
-1188.949431399676
 21
-940.6252418603144
 31
0.0
  0
LINE
  5
30C
330
71
100
AcDbEntity
  8
1
  6
Continuous
 62
     2
100
AcDbLine
 10
-901.949431399676
 20
-1075.625241860314
 30
0.0
 11
-896.9494313996779
 21
-1075.625241860314
 31
0.0
  0
LINE
  5
30D
330
71
100
AcDbEntity
  8
1
  6
Continuous
 62
     6
100
AcDbLine
 10
-901.949431399676
 20
-1075.625241860314
 30
0.0
 11
-901.9494313996765
 21
-1025.625241860314
 31
0.0
  0
LINE
  5
30E
330
71
100
AcDbEntity
  8
1
  6
Continuous
 62
     2
100
AcDbLine
 10
-896.9494313996779
 20
-1075.625241860314
 30
0.0
 11
-896.9494313996779
 21
-1025.625241860314
 31
0.0
  0
LINE
  5
30F
330
71
100
AcDbEntity
  8
1
  6
Continuous
 62
     2
100
AcDbLine
 10
-901.9494313996765
 20
-1025.625241860314
 30
0.0
 11
-896.9494313996779
 21
-1025.625241860314
 31
0.0
  0
LINE
  5
310
330
71
100
AcDbEntity
  8
1
  6
Continuous
 62
     6
100
AcDbLine
 10
-901.9494313996765
 20
-1025.625241860314
 30
0.0
 11
-901.9494313996777
 21
-975.6252418603144
 31
0.0
  0
LINE
  5
311
330
71
100
AcDbEntity
  8
1
  6
Continuous
 62
     2
100
AcDbLine
 10
-896.9494313996779
 20
-1025.625241860314
 30
0.0
 11
-896.9494313996779
 21
-975.6252418603144
 31
0.0
  0
LINE
  5
312
330
71
100
AcDbEntity
  8
1
  6
Continuous
 62
     2
100
AcDbLine
 10
-901.9494313996777
 20
-975.6252418603144
 30
0.0
 11
-896.9494313996779
 21
-975.6252418603144
 31
0.0
  0
LINE
  5
313
330
71
100
AcDbEntity
  8
1
  6
Continuous
 62
     6
100
AcDbLine
 10
-901.9494313996777
 20
-975.6252418603144
 30
0.0
 11
-901.9494313996779
 21
-940.6252418603144
 31
0.0
  0
LINE
  5
314
330
71
100
AcDbEntity
  8
1
  6
Continuous
 62
     2
100
AcDbLine
 10
-896.9494313996779
 20
-975.6252418603144
 30
0.0
 11
-896.9494313996779
 21
-920.6252418603144
 31
0.0
  0
LINE
  5
315
330
71
100
AcDbEntity
  8
1
  6
Continuous
 62
     2
100
AcDbLine
 10
-896.9494313996779
 20
-1125.625241860314
 30
0.0
 11
-896.9494313996779
 21
-1075.625241860314
 31
0.0
  0
LINE
  5
316
330
71
100
AcDbEntity
  8
1
  6
Continuous
 62
     2
100
AcDbLine
 10
-1045.449431399677
 20
-920.6252418603144
 30
0.0
 11
-1193.949431399676
 21
-920.6252418603144
 31
0.0
  0
LINE
  5
317
330
71
100
AcDbEntity
  8
1
  6
Continuous
 62
     2
100
AcDbLine
 10
-1045.449431399677
 20
-920.6252418603144
 30
0.0
 11
-1045.449431399677
 21
-929.8339337050157
 31
0.0
  0
LINE
  5
318
330
71
100
AcDbEntity
  8
1
  6
Continuous
 62
     2
100
AcDbLine
 10
-1193.949431399676
 20
-1130.625241860314
 30
0.0
 11
-1188.949431399675
 21
-1130.625241860314
 31
0.0
  0
LINE
  5
319
330
71
100
AcDbEntity
  8
1
  6
Continuous
 62
     2
100
AcDbLine
 10
-1193.949431399676
 20
-920.6252418603144
 30
0.0
 11
-1193.949431399676
 21
-975.6252418603144
 31
0.0
  0
LINE
  5
31A
330
71
100
AcDbEntity
  8
1
  6
Continuous
 62
     6
100
AcDbLine
 10
-1188.949431399676
 20
-940.6252418603144
 30
0.0
 11
-1188.949431399676
 21
-975.6252418603144
 31
0.0
  0
LINE
  5
31B
330
71
100
AcDbEntity
  8
1
  6
Continuous
 62
     2
100
AcDbLine
 10
-1193.949431399676
 20
-975.6252418603144
 30
0.0
 11
-1188.949431399676
 21
-975.6252418603144
 31
0.0
  0
LINE
  5
31C
330
71
100
AcDbEntity
  8
1
  6
Continuous
 62
     2
100
AcDbLine
 10
-1193.949431399676
 20
-975.6252418603144
 30
0.0
 11
-1193.949431399676
 21
-1025.625241860314
 31
0.0
  0
LINE
  5
31D
330
71
100
AcDbEntity
  8
1
  6
Continuous
 62
     6
100
AcDbLine
 10
-1188.949431399676
 20
-975.6252418603144
 30
0.0
 11
-1188.949431399675
 21
-1025.625241860314
 31
0.0
  0
LINE
  5
31E
330
71
100
AcDbEntity
  8
1
  6
Continuous
 62
     2
100
AcDbLine
 10
-1193.949431399676
 20
-1025.625241860314
 30
0.0
 11
-1188.949431399675
 21
-1025.625241860314
 31
0.0
  0
LINE
  5
31F
330
71
100
AcDbEntity
  8
1
  6
Continuous
 62
     2
100
AcDbLine
 10
-1193.949431399676
 20
-1025.625241860314
 30
0.0
 11
-1193.949431399676
 21
-1075.625241860314
 31
0.0
  0
LINE
  5
320
330
71
100
AcDbEntity
  8
1
  6
Continuous
 62
     6
100
AcDbLine
 10
-1188.949431399675
 20
-1025.625241860314
 30
0.0
 11
-1188.949431399675
 21
-1075.625241860314
 31
0.0
  0
LINE
  5
321
330
71
100
AcDbEntity
  8
1
  6
Continuous
 62
     2
100
AcDbLine
 10
-1193.949431399676
 20
-1075.625241860314
 30
0.0
 11
-1188.949431399675
 21
-1075.625241860314
 31
0.0
  0
LINE
  5
322
330
71
100
AcDbEntity
  8
1
  6
Continuous
 62
     2
100
AcDbLine
 10
-1193.949431399676
 20
-1075.625241860314
 30
0.0
 11
-1193.949431399676
 21
-1125.625241860314
 31
0.0
  0
LINE
  5
323
330
71
100
AcDbEntity
  8
1
  6
Continuous
 62
     6
100
AcDbLine
 10
-1188.949431399675
 20
-1075.625241860314
 30
0.0
 11
-1188.949431399675
 21
-1125.625241860314
 31
0.0
  0
LINE
  5
324
330
71
100
AcDbEntity
  8
1
  6
Continuous
 62
     2
100
AcDbLine
 10
-1145.449431399677
 20
-1130.625241860314
 30
0.0
 11
-1145.449431399677
 21
-1125.625241860314
 31
0.0
  0
LINE
  5
325
330
71
100
AcDbEntity
  8
1
  6
Continuous
 62
     2
100
AcDbLine
 10
-1145.449431399677
 20
-1130.625241860314
 30
0.0
 11
-1095.449431399677
 21
-1130.625241860314
 31
0.0
  0
LINE
  5
326
330
71
100
AcDbEntity
  8
1
  6
Continuous
 62
     2
100
AcDbLine
 10
-1095.449431399677
 20
-1130.625241860314
 30
0.0
 11
-1095.449431399677
 21
-1125.625241860314
 31
0.0
  0
LINE
  5
327
330
71
100
AcDbEntity
  8
1
  6
Continuous
 62
     2
100
AcDbLine
 10
-1095.449431399677
 20
-1130.625241860314
 30
0.0
 11
-1045.449431399677
 21
-1130.625241860314
 31
0.0
  0
LINE
  5
328
330
71
100
AcDbEntity
  8
1
  6
Continuous
 62
     2
100
AcDbLine
 10
-1045.449431399677
 20
-1130.625241860314
 30
0.0
 11
-1045.449431399677
 21
-1125.625241860314
 31
0.0
  0
LINE
  5
329
330
71
100
AcDbEntity
  8
1
  6
Continuous
 62
     2
100
AcDbLine
 10
-1045.449431399677
 20
-1130.625241860314
 30
0.0
 11
-995.4494313996769
 21
-1130.625241860314
 31
0.0
  0
LINE
  5
32A
330
71
100
AcDbEntity
  8
1
  6
Continuous
 62
     2
100
AcDbLine
 10
-995.4494313996769
 20
-1130.625241860314
 30
0.0
 11
-995.4494313996769
 21
-1125.625241860314
 31
0.0
  0
LINE
  5
32B
330
71
100
AcDbEntity
  8
1
  6
Continuous
 62
     2
100
AcDbLine
 10
-945.4494313996769
 20
-1130.625241860314
 30
0.0
 11
-945.4494313996769
 21
-1125.625241860314
 31
0.0
  0
LINE
  5
32C
330
71
100
AcDbEntity
  8
1
  6
Continuous
 62
     2
100
AcDbLine
 10
-945.4494313996769
 20
-1130.625241860314
 30
0.0
 11
-995.4494313996769
 21
-1130.625241860314
 31
0.0
  0
LINE
  5
32D
330
71
100
AcDbEntity
  8
1
  6
Continuous
 62
     2
100
AcDbLine
 10
-1188.949431399675
 20
-1125.625241860314
 30
0.0
 11
-1188.949431399675
 21
-1130.625241860314
 31
0.0
  0
LINE
  5
32E
330
71
100
AcDbEntity
  8
1
  6
Continuous
 62
     2
100
AcDbLine
 10
-1188.949431399675
 20
-1130.625241860314
 30
0.0
 11
-1145.449431399677
 21
-1130.625241860314
 31
0.0
  0
LINE
  5
32F
330
71
100
AcDbEntity
  8
1
  6
Continuous
 62
     2
100
AcDbLine
 10
-1188.949431399675
 20
-1125.625241860314
 30
0.0
 11
-1193.949431399676
 21
-1125.625241860314
 31
0.0
  0
LINE
  5
330
330
71
100
AcDbEntity
  8
1
  6
Continuous
 62
     2
100
AcDbLine
 10
-1193.949431399676
 20
-1125.625241860314
 30
0.0
 11
-1193.949431399676
 21
-1130.625241860314
 31
0.0
  0
LINE
  5
331
330
71
100
AcDbEntity
  8
1
  6
Continuous
 62
     6
100
AcDbLine
 10
-901.9494313996769
 20
-1125.625241860314
 30
0.0
 11
-901.9494313996756
 21
-1117.125241860314
 31
0.0
  0
LINE
  5
332
330
71
100
AcDbEntity
  8
1
  6
Continuous
 62
     6
100
AcDbLine
 10
-995.094235926427
 20
-1125.625241860314
 30
0.0
 11
-945.4494313996769
 21
-1125.625241860314
 31
0.0
  0
LINE
  5
333
330
71
100
AcDbEntity
  8
1
  6
Continuous
 62
     6
100
AcDbLine
 10
-1147.749431399677
 20
-1125.625241860314
 30
0.0
 11
-1145.449431399677
 21
-1125.625241860314
 31
0.0
  0
LINE
  5
334
330
71
100
AcDbEntity
  8
1
  6
Continuous
 62
     6
100
AcDbLine
 10
-1045.449431399677
 20
-1125.625241860314
 30
0.0
 11
-1095.449431399677
 21
-1125.625241860314
 31
0.0
  0
LINE
  5
335
330
71
100
AcDbEntity
  8
1
  6
Continuous
 62
     7
100
AcDbLine
 10
-1031.494235926427
 20
-1108.625241860314
 30
0.0
 11
-1031.494235926427
 21
-1121.375241860314
 31
0.0
  0
LINE
  5
336
330
71
100
AcDbEntity
  8
1
  6
Continuous
 62
     7
100
AcDbLine
 10
-995.094235926427
 20
-1108.625241860314
 30
0.0
 11
-995.094235926427
 21
-1121.375241860314
 31
0.0
  0
LINE
  5
337
330
71
100
AcDbEntity
  8
1
  6
Continuous
 62
     6
100
AcDbLine
 10
-1147.749431399677
 20
-1125.625241860314
 30
0.0
 11
-1153.949431399675
 21
-1125.625241860314
 31
0.0
  0
LINE
  5
338
330
71
100
AcDbEntity
  8
1
  6
Continuous
 62
     6
100
AcDbLine
 10
-995.094235926427
 20
-1125.625241860314
 30
0.0
 11
-995.4494313996769
 21
-1125.625241860314
 31
0.0
  0
LINE
  5
339
330
71
100
AcDbEntity
  8
1
  6
Continuous
 62
     6
100
AcDbLine
 10
-901.9494313996752
 20
-1108.625241860314
 30
0.0
 11
-901.9494313996756
 21
-1117.125241860314
 31
0.0
  0
LINE
  5
33A
330
71
100
AcDbEntity
  8
1
  6
Continuous
 62
     6
100
AcDbLine
 10
-1153.949431399675
 20
-1125.625241860314
 30
0.0
 11
-1188.949431399675
 21
-1125.625241860314
 31
0.0
  0
LINE
  5
33B
330
71
100
AcDbEntity
  8
1
  6
Continuous
 62
     2
100
AcDbLine
 10
-1027.257581039864
 20
-1103.250241860314
 30
0.0
 11
-1022.257581039864
 21
-1102.000241860314
 31
0.0
  0
LINE
  5
33C
330
71
100
AcDbEntity
  8
1
  6
Continuous
 62
     2
100
AcDbLine
 10
-1027.257581039864
 20
-1105.750241860314
 30
0.0
 11
-1027.257581039864
 21
-1103.250241860314
 31
0.0
  0
LINE
  5
33D
330
71
100
AcDbEntity
  8
1
  6
Continuous
 62
     2
100
AcDbLine
 10
-1022.257581039864
 20
-1107.000241860314
 30
0.0
 11
-1027.257581039864
 21
-1105.750241860314
 31
0.0
  0
LINE
  5
33E
330
71
100
AcDbEntity
  8
1
  6
Continuous
 62
     2
100
AcDbLine
 10
-1022.257581039864
 20
-1102.000241860314
 30
0.0
 11
-1022.257581039864
 21
-1107.000241860314
 31
0.0
  0
LINE
  5
33F
330
71
100
AcDbEntity
  8
1
  6
Continuous
 62
     7
100
AcDbLine
 10
-1031.494235926427
 20
-1121.375241860314
 30
0.0
 11
-1013.294235926427
 21
-1121.375241860314
 31
0.0
  0
LINE
  5
340
330
71
100
AcDbEntity
  8
1
  6
Continuous
 62
     7
100
AcDbLine
 10
-1031.494235926427
 20
-1121.375241860314
 30
0.0
 11
-1031.494235926427
 21
-1125.625241860314
 31
0.0
  0
LINE
  5
341
330
71
100
AcDbEntity
  8
1
  6
Continuous
 62
     7
100
AcDbLine
 10
-995.094235926427
 20
-1121.375241860314
 30
0.0
 11
-995.094235926427
 21
-1125.625241860314
 31
0.0
  0
LINE
  5
342
330
71
100
AcDbEntity
  8
1
  6
Continuous
 62
     7
100
AcDbLine
 10
-1013.294235926427
 20
-1121.375241860314
 30
0.0
 11
-1013.294235926427
 21
-1125.625241860314
 31
0.0
  0
LINE
  5
343
330
71
100
AcDbEntity
  8
1
  6
Continuous
 62
     6
100
AcDbLine
 10
-1013.294235926427
 20
-1125.625241860314
 30
0.0
 11
-1031.494235926427
 21
-1125.625241860314
 31
0.0
  0
LINE
  5
344
330
71
100
AcDbEntity
  8
1
  6
Continuous
 62
     7
100
AcDbLine
 10
-1013.294235926427
 20
-1121.375241860314
 30
0.0
 11
-995.094235926427
 21
-1121.375241860314
 31
0.0
  0
LINE
  5
345
330
71
100
AcDbEntity
  8
1
  6
Continuous
 62
     6
100
AcDbLine
 10
-1031.494235926427
 20
-1100.125241860314
 30
0.0
 11
-901.9494313996752
 21
-1100.125241860314
 31
0.0
  0
ARC
  5
346
102
{ACAD_REACTORS
330
3AE
330
3AF
102
}
330
71
100
AcDbEntity
  8
0
  6
Continuous
 62
     2
100
AcDbCircle
 10
-1016.102587927467
 20
-1116.804837098393
 30
0.0
 40
0.7717997786795062
100
AcDbArc
 50
321.8795802028254
 51
38.12041979716133
  0
ARC
  5
347
102
{ACAD_REACTORS
330
3AE
330
3AF
102
}
330
71
100
AcDbEntity
  8
0
  6
Continuous
 62
     2
100
AcDbCircle
 10
-1015.902847891121
 20
-1116.961568276513
 30
0.0
 40
0.5179085730130374
100
AcDbArc
 50
218.1204197972577
 51
321.8795802028121
  0
ARC
  5
348
102
{ACAD_REACTORS
330
3AE
330
3AF
102
}
330
71
100
AcDbEntity
  8
0
  6
Continuous
 62
     2
100
AcDbCircle
 10
-1015.703107854774
 20
-1116.804837098393
 30
0.0
 40
0.7717997786794554
100
AcDbArc
 50
141.8795802028439
 51
218.1204197971694
  0
ARC
  5
349
102
{ACAD_REACTORS
330
3AE
330
3AF
102
}
330
71
100
AcDbEntity
  8
0
  6
Continuous
 62
     2
100
AcDbCircle
 10
-1015.902847891121
 20
-1116.648105920272
 30
0.0
 40
0.5179085730131405
100
AcDbArc
 50
38.12041979708892
 51
141.8795802028412
  0
ARC
  5
34A
102
{ACAD_REACTORS
330
3A6
330
3A7
102
}
330
71
100
AcDbEntity
  8
0
  6
Continuous
 62
     2
100
AcDbCircle
 10
-1018.964862026684
 20
-1118.215303463801
 30
0.0
 40
2.227384008973226
100
AcDbArc
 50
58.06909105006081
 51
71.55192388187925
  0
ARC
  5
34B
102
{ACAD_REACTORS
330
3A6
330
3A7
102
}
330
71
100
AcDbEntity
  8
0
  6
Continuous
 62
     2
100
AcDbCircle
 10
-1018.703134325726
 20
-1116.599765669054
 30
0.0
 40
0.5115800601952438
100
AcDbArc
 50
113.3722778882057
 51
151.4785267422724
  0
ARC
  5
34C
102
{ACAD_REACTORS
330
3A6
330
3A7
102
}
330
71
100
AcDbEntity
  8
0
  6
Continuous
 62
     2
100
AcDbCircle
 10
-1018.325777067645
 20
-1116.804837098393
 30
0.0
 40
0.9410597353339125
100
AcDbArc
 50
151.4785267422729
 51
208.5214732576785
  0
ARC
  5
34D
102
{ACAD_REACTORS
330
3A6
330
3A7
102
}
330
71
100
AcDbEntity
  8
0
  6
Continuous
 62
     2
100
AcDbCircle
 10
-1019.122734901777
 20
-1113.492156153136
 30
0.0
 40
4.852596863499065
100
AcDbArc
 50
275.1581447696229
 51
285.9799912583437
  0
ARC
  5
34E
102
{ACAD_REACTORS
330
3A6
330
3A7
102
}
330
71
100
AcDbEntity
  8
0
  6
Continuous
 62
     2
100
AcDbCircle
 10
-1018.833878807041
 20
-1116.692046736358
 30
0.0
 40
1.639695123940531
100
AcDbArc
 50
195.0618917771004
 51
275.1581447696299
  0
ARC
  5
34F
102
{ACAD_REACTORS
330
3A6
330
3A7
102
}
330
71
100
AcDbEntity
  8
0
  6
Continuous
 62
     2
100
AcDbCircle
 10
-1019.253006650504
 20
-1116.804837098393
 30
0.0
 40
1.205656168391636
100
AcDbArc
 50
164.9381082229049
 51
195.0618917771056
  0
ARC
  5
350
102
{ACAD_REACTORS
330
3A6
330
3A7
102
}
330
71
100
AcDbEntity
  8
0
  6
Continuous
 62
     2
100
AcDbCircle
 10
-1018.833878807041
 20
-1116.917627460428
 30
0.0
 40
1.63969512394043
100
AcDbArc
 50
84.84185523037009
 51
164.9381082228996
  0
ARC
  5
351
102
{ACAD_REACTORS
330
3AA
330
3AB
102
}
330
71
100
AcDbEntity
  8
0
  6
Continuous
 62
     2
100
AcDbCircle
 10
-1023.663893061203
 20
-1115.771010304039
 30
0.0
 40
0.3157169230773483
100
AcDbArc
 50
115.3740086784472
 51
180.0
  0
ARC
  5
352
102
{ACAD_REACTORS
330
3AA
330
3AB
102
}
330
71
100
AcDbEntity
  8
0
  6
Continuous
 62
     2
100
AcDbCircle
 10
-1023.663893061203
 20
-1113.552727104102
 30
0.0
 40
0.3157169230770478
100
AcDbArc
 50
180.0
 51
244.6259913215528
  0
ARC
  5
353
102
{ACAD_REACTORS
330
3AA
330
3AB
102
}
330
71
100
AcDbEntity
  8
0
  6
Continuous
 62
     2
100
AcDbCircle
 10
-1023.658276925893
 20
-1114.650026763165
 30
0.0
 40
2.018561131933155
100
AcDbArc
 50
269.8110329575649
 51
90.18896704243514
  0
ARC
  5
354
102
{ACAD_REACTORS
330
3AA
330
3AB
102
}
330
71
100
AcDbEntity
  8
0
  6
Continuous
 62
     2
100
AcDbCircle
 10
-1023.663893061203
 20
-1116.352861710734
 30
0.0
 40
0.3157169230770478
100
AcDbArc
 50
180.0
 51
269.8110329573148
  0
ARC
  5
355
102
{ACAD_REACTORS
330
3A8
330
3A9
102
}
330
71
100
AcDbEntity
  8
0
  6
Continuous
 62
     2
100
AcDbCircle
 10
-1002.600432846473
 20
-1116.599765669054
 30
0.0
 40
0.5115800601944311
100
AcDbArc
 50
109.3371432194138
 51
151.4785267424105
  0
ARC
  5
356
102
{ACAD_REACTORS
330
3A8
330
3A9
102
}
330
71
100
AcDbEntity
  8
0
  6
Continuous
 62
     2
100
AcDbCircle
 10
-1002.600432846473
 20
-1117.009908527731
 30
0.0
 40
0.5115800601962246
100
AcDbArc
 50
208.5214732577685
 51
246.6277221119516
  0
ARC
  5
357
102
{ACAD_REACTORS
330
3A8
330
3A9
102
}
330
71
100
AcDbEntity
  8
0
  6
Continuous
 62
     2
100
AcDbCircle
 10
-1003.15030517125
 20
-1116.804837098393
 30
0.0
 40
1.205656168393503
100
AcDbArc
 50
164.9381082229288
 51
195.0618917770817
  0
ARC
  5
358
102
{ACAD_REACTORS
330
3A8
330
3A9
102
}
330
71
100
AcDbEntity
  8
0
  6
Continuous
 62
     2
100
AcDbCircle
 10
-1002.731177327789
 20
-1116.917627460428
 30
0.0
 40
1.639695123940101
100
AcDbArc
 50
90.0
 51
164.9381082228985
  0
ARC
  5
359
102
{ACAD_REACTORS
330
3AC
330
3AD
102
}
330
71
100
AcDbEntity
  8
0
  6
Continuous
 62
     2
100
AcDbCircle
 10
-1012.158172420492
 20
-1113.445646622218
 30
0.0
 40
1.526904761904916
100
AcDbArc
 50
90.0
 51
270.0
  0
ARC
  5
35A
102
{ACAD_REACTORS
330
3B0
330
3B1
102
}
330
71
100
AcDbEntity
  8
0
  6
Continuous
 62
     2
100
AcDbCircle
 10
-1018.900863165718
 20
-1112.934711530424
 30
0.0
 40
0.3528638246709761
100
AcDbArc
 50
270.0
 51
90.0
  0
ARC
  5
35B
102
{ACAD_REACTORS
330
3AA
330
3AB
102
}
330
71
100
AcDbEntity
  8
0
  6
Continuous
 62
     2
100
AcDbCircle
 10
-1026.239441747735
 20
-1112.947014338947
 30
0.0
 40
0.3157169230760246
100
AcDbArc
 50
90.0
 51
180.0
  0
ARC
  5
35C
102
{ACAD_REACTORS
330
3AA
330
3AB
102
}
330
71
100
AcDbEntity
  8
0
  6
Continuous
 62
     2
100
AcDbCircle
 10
-1024.241024039151
 20
-1114.66186870407
 30
0.0
 40
0.9118975235569959
100
AcDbArc
 50
115.1944106485169
 51
244.8055893515074
  0
ARC
  5
35D
102
{ACAD_REACTORS
330
3AA
330
3AB
102
}
330
71
100
AcDbEntity
  8
0
  6
Continuous
 62
     2
100
AcDbCircle
 10
-1024.763608486725
 20
-1115.772698450133
 30
0.0
 40
0.3157169230760246
100
AcDbArc
 50
0.0
 51
64.80558935158436
  0
ARC
  5
35E
102
{ACAD_REACTORS
330
3AA
330
3AB
102
}
330
71
100
AcDbEntity
  8
0
  6
Continuous
 62
     2
100
AcDbCircle
 10
-1026.833336424482
 20
-1117.907497244915
 30
0.0
 40
0.4242446153818946
100
AcDbArc
 50
180.0
 51
270.0
  0
ARC
  5
35F
102
{ACAD_REACTORS
330
3AC
330
3AD
102
}
330
71
100
AcDbEntity
  8
0
  6
Continuous
 62
     2
100
AcDbCircle
 10
-1011.941900410327
 20
-1113.288915444098
 30
0.0
 40
0.5179085730131405
100
AcDbArc
 50
38.12041979708892
 51
141.8795802029111
  0
ARC
  5
360
102
{ACAD_REACTORS
330
3AC
330
3AD
102
}
330
71
100
AcDbEntity
  8
0
  6
Continuous
 62
     2
100
AcDbCircle
 10
-1011.742160373981
 20
-1113.445646622218
 30
0.0
 40
0.7717997786788044
100
AcDbArc
 50
141.8795802028918
 51
218.1204197972278
  0
ARC
  5
361
102
{ACAD_REACTORS
330
3AE
330
3AF
102
}
330
71
100
AcDbEntity
  8
0
  6
Continuous
 62
     2
100
AcDbCircle
 10
-1015.902847891121
 20
-1116.266262088089
 30
0.0
 40
2.065479772208354
100
AcDbArc
 50
242.4518518243637
 51
297.5481481756866
  0
ARC
  5
362
102
{ACAD_REACTORS
330
3AE
330
3AF
102
}
330
71
100
AcDbEntity
  8
0
  6
Continuous
 62
     2
100
AcDbCircle
 10
-1015.902847891121
 20
-1117.343412108696
 30
0.0
 40
2.065479772209099
100
AcDbArc
 50
62.4518518243105
 51
117.5481481756392
  0
ARC
  5
363
102
{ACAD_REACTORS
330
3AE
330
3AF
102
}
330
71
100
AcDbEntity
  8
0
  6
Continuous
 62
     2
100
AcDbCircle
 10
-1016.183787782954
 20
-1116.804837098393
 30
0.0
 40
1.458034083651531
100
AcDbArc
 50
117.5481481756389
 51
242.4518518243487
  0
ARC
  5
364
102
{ACAD_REACTORS
330
3AE
330
3AF
102
}
330
71
100
AcDbEntity
  8
0
  6
Continuous
 62
     2
100
AcDbCircle
 10
-1015.621907999287
 20
-1116.804837098393
 30
0.0
 40
1.458034083651399
100
AcDbArc
 50
297.548148175687
 51
62.45185182432542
  0
ARC
  5
365
102
{ACAD_REACTORS
330
3AC
330
3AD
102
}
330
71
100
AcDbEntity
  8
0
  6
Continuous
 62
     2
100
AcDbCircle
 10
-1011.941900410327
 20
-1113.602377800339
 30
0.0
 40
0.5179085730138424
100
AcDbArc
 50
218.1204197971879
 51
321.8795802028121
  0
ARC
  5
366
102
{ACAD_REACTORS
330
3AC
330
3AD
102
}
330
71
100
AcDbEntity
  8
0
  6
Continuous
 62
     2
100
AcDbCircle
 10
-1012.141640446673
 20
-1113.445646622218
 30
0.0
 40
0.7717997786801571
100
AcDbArc
 50
321.8795802027775
 51
38.120419797103
  0
ARC
  5
367
102
{ACAD_REACTORS
330
3AA
330
3AB
102
}
330
71
100
AcDbEntity
  8
0
  6
Continuous
 62
     2
100
AcDbCircle
 10
-1021.360024333765
 20
-1117.907497244915
 30
0.0
 40
0.4242446153830315
100
AcDbArc
 50
270.0
 51
0.0
  0
ARC
  5
368
102
{ACAD_REACTORS
330
3AA
330
3AB
102
}
330
71
100
AcDbEntity
  8
0
  6
Continuous
 62
     2
100
AcDbCircle
 10
-1021.360024333765
 20
-1112.342986475715
 30
0.0
 40
0.424244615383941
100
AcDbArc
 50
0.0
 51
90.0
  0
ARC
  5
369
102
{ACAD_REACTORS
330
3AA
330
3AB
102
}
330
71
100
AcDbEntity
  8
0
  6
Continuous
 62
     2
100
AcDbCircle
 10
-1026.833336424482
 20
-1112.342986475715
 30
0.0
 40
0.424244615383941
100
AcDbArc
 50
90.0
 51
180.0
  0
ARC
  5
36A
102
{ACAD_REACTORS
330
3AA
330
3AB
102
}
330
71
100
AcDbEntity
  8
0
  6
Continuous
 62
     2
100
AcDbCircle
 10
-1024.763608486725
 20
-1117.303469381664
 30
0.0
 40
0.3157169230771615
100
AcDbArc
 50
270.0
 51
0.0
  0
ARC
  5
36B
102
{ACAD_REACTORS
330
3AA
330
3AB
102
}
330
71
100
AcDbEntity
  8
0
  6
Continuous
 62
     2
100
AcDbCircle
 10
-1024.763608486725
 20
-1113.551038958008
 30
0.0
 40
0.3157169230762383
100
AcDbArc
 50
295.1944106484157
 51
0.0
  0
ARC
  5
36C
102
{ACAD_REACTORS
330
3AA
330
3AB
102
}
330
71
100
AcDbEntity
  8
0
  6
Continuous
 62
     2
100
AcDbCircle
 10
-1024.763608486725
 20
-1112.947014338947
 30
0.0
 40
0.3157169230760246
100
AcDbArc
 50
0.0
 51
90.0
  0
ARC
  5
36D
102
{ACAD_REACTORS
330
3AA
330
3AB
102
}
330
71
100
AcDbEntity
  8
0
  6
Continuous
 62
     2
100
AcDbCircle
 10
-1026.239441747735
 20
-1117.303469381664
 30
0.0
 40
0.3157169230757972
100
AcDbArc
 50
180.0
 51
270.0
  0
ARC
  5
36E
102
{ACAD_REACTORS
330
3B0
330
3B1
102
}
330
71
100
AcDbEntity
  8
0
  6
Continuous
 62
     2
100
AcDbCircle
 10
-1018.45939063948
 20
-1112.974107501646
 30
0.0
 40
1.055365641333992
100
AcDbArc
 50
270.0
 51
90.0
  0
ARC
  5
36F
102
{ACAD_REACTORS
330
3A8
330
3A9
102
}
330
71
100
AcDbEntity
  8
0
  6
Continuous
 62
     2
100
AcDbCircle
 10
-1002.731177327789
 20
-1116.692046736358
 30
0.0
 40
1.639695123940421
100
AcDbArc
 50
195.0618917771015
 51
275.1581447697012
  0
ARC
  5
370
102
{ACAD_REACTORS
330
3A8
330
3A9
102
}
330
71
100
AcDbEntity
  8
0
  6
Continuous
 62
     2
100
AcDbCircle
 10
-1003.020033422524
 20
-1113.492156153136
 30
0.0
 40
4.852596863499147
100
AcDbArc
 50
275.1581447696337
 51
285.9799912583284
  0
ARC
  5
371
102
{ACAD_REACTORS
330
3A8
330
3A9
102
}
330
71
100
AcDbEntity
  8
0
  6
Continuous
 62
     2
100
AcDbCircle
 10
-1002.862160547432
 20
-1115.394370732985
 30
0.0
 40
2.227384008972755
100
AcDbArc
 50
288.4480761181457
 51
301.9309089499392
  0
ARC
  5
372
102
{ACAD_REACTORS
330
3A8
330
3A9
102
}
330
71
100
AcDbEntity
  8
0
  6
Continuous
 62
     2
100
AcDbCircle
 10
-1002.44399281377
 20
-1116.647916509021
 30
0.0
 40
0.9059297849857245
100
AcDbArc
 50
246.6277221118892
 51
288.4480761180919
  0
ARC
  5
373
102
{ACAD_REACTORS
330
3A8
330
3A9
102
}
330
71
100
AcDbEntity
  8
0
  6
Continuous
 62
     2
100
AcDbCircle
 10
-1002.223075588391
 20
-1116.804837098393
 30
0.0
 40
0.9410597353352762
100
AcDbArc
 50
151.4785267423811
 51
208.5214732576798
  0
ARC
  5
374
102
{ACAD_REACTORS
330
3A8
330
3A9
102
}
330
71
100
AcDbEntity
  8
0
  6
Continuous
 62
     2
100
AcDbCircle
 10
-1002.453762848369
 20
-1117.017720649437
 30
0.0
 40
0.9545230068260935
100
AcDbArc
 50
90.0
 51
109.3371432194091
  0
ARC
  5
375
102
{ACAD_REACTORS
330
3AA
330
3AB
102
}
330
71
100
AcDbEntity
  8
0
  6
Continuous
 62
     2
100
AcDbCircle
 10
-1023.663893061203
 20
-1112.947191815596
 30
0.0
 40
0.3157169230760167
100
AcDbArc
 50
90.18896704268522
 51
180.0
  0
ARC
  5
376
102
{ACAD_REACTORS
330
3AA
330
3AB
102
}
330
71
100
AcDbEntity
  8
0
  6
Continuous
 62
     2
100
AcDbCircle
 10
-1024.189935759291
 20
-1114.66186870407
 30
0.0
 40
0.911848150144268
100
AcDbArc
 50
295.3740086781386
 51
64.62599132183684
  0
ARC
  5
377
102
{ACAD_REACTORS
330
3A6
330
3A7
102
}
330
71
100
AcDbEntity
  8
0
  6
Continuous
 62
     2
100
AcDbCircle
 10
-1018.964862026684
 20
-1115.394370732984
 30
0.0
 40
2.227384008972431
100
AcDbArc
 50
288.4480761181208
 51
301.9309089499423
  0
ARC
  5
378
102
{ACAD_REACTORS
330
3A6
330
3A7
102
}
330
71
100
AcDbEntity
  8
0
  6
Continuous
 62
     2
100
AcDbCircle
 10
-1018.546694293024
 20
-1116.647916509021
 30
0.0
 40
0.9059297849857696
100
AcDbArc
 50
246.6277221118825
 51
288.4480761181647
  0
ARC
  5
379
102
{ACAD_REACTORS
330
3A6
330
3A7
102
}
330
71
100
AcDbEntity
  8
0
  6
Continuous
 62
     2
100
AcDbCircle
 10
-1018.703134325726
 20
-1117.009908527731
 30
0.0
 40
0.5115800601948827
100
AcDbArc
 50
208.5214732577052
 51
246.6277221118347
  0
ARC
  5
37A
102
{ACAD_REACTORS
330
3A6
330
3A7
102
}
330
71
100
AcDbEntity
  8
0
  6
Continuous
 62
     2
100
AcDbCircle
 10
-1018.546694293024
 20
-1116.961757687765
 30
0.0
 40
0.9059297849856465
100
AcDbArc
 50
71.55192388184894
 51
113.3722778881232
  0
ARC
  5
37B
102
{ACAD_REACTORS
330
3A6
330
3A7
102
}
330
71
100
AcDbEntity
  8
0
  6
Continuous
 62
     2
100
AcDbCircle
 10
-1019.122734901777
 20
-1120.117518043649
 30
0.0
 40
4.852596863497939
100
AcDbArc
 50
74.02000874165637
 51
84.84185523037584
  0
CIRCLE
  5
37C
102
{ACAD_REACTORS
330
3AA
330
3AB
102
}
330
71
100
AcDbEntity
  8
0
  6
Continuous
 62
     2
100
AcDbCircle
 10
-1024.213750773964
 20
-1114.66186870407
 30
0.0
 40
0.470978932777939
  0
CIRCLE
  5
37D
330
71
100
AcDbEntity
  8
1
  6
Continuous
 62
     2
100
AcDbCircle
 10
-1018.757581039864
 20
-1104.500241860314
 30
0.0
 40
1.25
  0
CIRCLE
  5
37E
330
71
100
AcDbEntity
  8
1
  6
Continuous
 62
     2
100
AcDbCircle
 10
-1018.757581039864
 20
-1104.500241860314
 30
0.0
 40
2.5
  0
TEXT
  5
37F
330
71
100
AcDbEntity
  8
1
 62
     7
100
AcDbText
 10
-976.1206882044131
 20
-1107.325241860315
 30
0.0
 40
2.5
  1
/
 41
0.9
  7
CONVERTER_11
100
AcDbText
  0
TEXT
  5
381
330
71
100
AcDbEntity
  8
1
 62
     7
100
AcDbText
 10
-973.9643237073711
 20
-1107.325241860315
 30
0.0
 40
2.5
  1
02
 41
0.81
  7
CONVERTER_12
100
AcDbText
  0
TEXT
  5
382
330
71
100
AcDbEntity
  8
1
 62
     3
100
AcDbText
 10
-936.367839681354
 20
-1107.325241860315
 30
0.0
 40
2.5
  1
18.04.2018
 41
0.81
  7
CONVERTER_12
100
AcDbText
  0
MTEXT
  5
383
330
71
100
AcDbEntity
  8
1
 62
     2
100
AcDbMText
 10
-936.367839681354
 20
-1101.125241860314
 30
0.0
 40
1.8
 41
0.0
 71
     1
 72
     1
  1
date
  7
CONVERTER_11
 73
     1
 44
1.32052821128451
  0
MTEXT
  5
384
330
71
100
AcDbEntity
  8
1
 62
     2
100
AcDbMText
 10
-966.1942359264269
 20
-1109.625241860314
 30
0.0
 40
1.8
 41
0.0
 71
     1
 72
     1
  1
document-type
  7
CONVERTER_11
 73
     1
 44
1.20048019207683
  0
TEXT
  5
385
330
71
100
AcDbEntity
  8
1
 62
     3
100
AcDbText
 10
-966.1942359264269
 20
-1115.825241860315
 30
0.0
 40
2.5
  1
 
 41
0.81
  7
CONVERTER_12
100
AcDbText
  0
MTEXT
  5
387
330
71
100
AcDbEntity
  8
1
 62
     2
100
AcDbMText
 10
-993.9942359264269
 20
-1101.125241860314
 30
0.0
 40
1.8
 41
0.0
 71
     1
 72
     1
  1
document-No. / RI
  7
CONVERTER_13
 73
     1
 44
1.32052821128451
  0
TEXT
  5
388
330
71
100
AcDbEntity
  8
1
 62
     7
100
AcDbText
 10
-993.9942359264269
 20
-1107.325241860315
 30
0.0
 40
2.5
  1
00544614
 41
0.81
  7
CONVERTER_12
100
AcDbText
  0
MTEXT
  5
38A
330
71
100
AcDbEntity
  8
1
 62
     3
100
AcDbMText
 10
-906.4086355405146
 20
-1107.325241860314
 30
0.0
 40
2.5
 41
0.0
 71
     8
 72
     1
  1
1:1
  7
CONVERTER_14
 73
     1
 44
1.32052821128451
  0
MTEXT
  5
38B
330
71
100
AcDbEntity
  8
1
 62
     2
100
AcDbMText
 10
-909.7678396813542
 20
-1101.125241860314
 30
0.0
 40
1.8
 41
0.0
 71
     1
 72
     1
  1
scale
  7
CONVERTER_11
 73
     1
 44
1.20048019207683
  0
MTEXT
  5
38C
330
71
100
AcDbEntity
  8
1
 62
     2
100
AcDbMText
 10
-993.9942359264269
 20
-1109.625241860314
 30
0.0
 40
1.8
 41
0.0
 71
     1
 72
     1
  1
ident.-No.
  7
CONVERTER_11
 73
     1
 44
1.20048019207683
  0
TEXT
  5
38D
330
71
100
AcDbEntity
  8
1
 62
     7
100
AcDbText
 10
-993.5942359264272
 20
-1115.825241860315
 30
0.0
 40
2.5
  1
3213111
 41
0.81
  7
CONVERTER_12
100
AcDbText
  0
MTEXT
  5
38E
330
71
100
AcDbEntity
  8
1
 62
     2
100
AcDbMText
 10
-1065.932250651475
 20
-1112.875241860314
 30
0.0
 40
2.0
 41
0.0
 71
     5
 72
     1
  1
General Information\P- Simplified representation\P- Document excluded from change process\P- Linear dimensions [mm]
  7
CONVERTER_11
 73
     1
 44
1.20048019207683
  0
MTEXT
  5
38F
330
71
100
AcDbEntity
  8
1
 62
     7
100
AcDbMText
 10
-899.4494313996779
 20
-1050.625241860313
 30
0.0
 40
3.5
 41
0.0
 71
     5
 72
     1
  1
C
  7
CONVERTER_11
 73
     1
 44
1.20048019207683
  0
MTEXT
  5
390
330
71
100
AcDbEntity
  8
1
 62
     7
100
AcDbMText
 10
-899.4494313996779
 20
-948.1252418603144
 30
0.0
 40
3.5
 41
0.0
 71
     5
 72
     1
  1
A
  7
CONVERTER_11
 73
     1
 44
1.20048019207683
  0
MTEXT
  5
391
330
71
100
AcDbEntity
  8
1
 62
     7
100
AcDbMText
 10
-899.4494313996779
 20
-1000.625241860313
 30
0.0
 40
3.5
 41
0.0
 71
     5
 72
     1
  1
B
  7
CONVERTER_11
 73
     1
 44
1.20048019207683
  0
MTEXT
  5
392
330
71
100
AcDbEntity
  8
1
 62
     7
100
AcDbMText
 10
-899.4494313996779
 20
-1103.125241860314
 30
0.0
 40
3.5
 41
0.0
 71
     5
 72
     1
  1
D
  7
CONVERTER_11
 73
     1
 44
1.20048019207683
  0
MTEXT
  5
393
330
71
100
AcDbEntity
  8
1
 62
     7
100
AcDbMText
 10
-1169.699431399677
 20
-1128.125241860314
 30
0.0
 40
3.5
 41
0.0
 71
     5
 72
     1
  1
1
  7
CONVERTER_11
 73
     1
 44
1.20048019207683
  0
MTEXT
  5
394
330
71
100
AcDbEntity
  8
1
 62
     7
100
AcDbMText
 10
-1120.449431399677
 20
-1128.125241860314
 30
0.0
 40
3.5
 41
0.0
 71
     5
 72
     1
  1
2
  7
CONVERTER_11
 73
     1
 44
1.20048019207683
  0
MTEXT
  5
395
330
71
100
AcDbEntity
  8
1
 62
     7
100
AcDbMText
 10
-1070.449431399677
 20
-1128.125241860314
 30
0.0
 40
3.5
 41
0.0
 71
     5
 72
     1
  1
3
  7
CONVERTER_11
 73
     1
 44
1.20048019207683
  0
MTEXT
  5
396
330
71
100
AcDbEntity
  8
1
 62
     7
100
AcDbMText
 10
-1020.449431399677
 20
-1128.125241860314
 30
0.0
 40
3.5
 41
0.0
 71
     5
 72
     1
  1
4
  7
CONVERTER_11
 73
     1
 44
1.20048019207683
  0
MTEXT
  5
397
330
71
100
AcDbEntity
  8
1
 62
     7
100
AcDbMText
 10
-970.4494313996769
 20
-1128.125241860314
 30
0.0
 40
3.5
 41
0.0
 71
     5
 72
     1
  1
5
  7
CONVERTER_11
 73
     1
 44
1.20048019207683
  0
MTEXT
  5
398
330
71
100
AcDbEntity
  8
1
 62
     7
100
AcDbMText
 10
-921.1994313996777
 20
-1128.125241860314
 30
0.0
 40
3.5
 41
0.0
 71
     5
 72
     1
  1
6
  7
CONVERTER_11
 73
     1
 44
1.20048019207683
  0
MTEXT
  5
399
330
71
100
AcDbEntity
  8
1
 62
     7
100
AcDbMText
 10
-1191.449431399676
 20
-948.1252418603144
 30
0.0
 40
3.5
 41
0.0
 71
     5
 72
     1
  1
A
  7
CONVERTER_11
 73
     1
 44
1.20048019207683
  0
MTEXT
  5
39A
330
71
100
AcDbEntity
  8
1
 62
     7
100
AcDbMText
 10
-1191.449431399676
 20
-1000.625241860314
 30
0.0
 40
3.5
 41
0.0
 71
     5
 72
     1
  1
B
  7
CONVERTER_11
 73
     1
 44
1.20048019207683
  0
MTEXT
  5
39B
330
71
100
AcDbEntity
  8
1
 62
     7
100
AcDbMText
 10
-1191.449431399676
 20
-1050.625241860314
 30
0.0
 40
3.5
 41
0.0
 71
     5
 72
     1
  1
C
  7
CONVERTER_11
 73
     1
 44
1.20048019207683
  0
MTEXT
  5
39C
330
71
100
AcDbEntity
  8
1
 62
     7
100
AcDbMText
 10
-1191.449431399676
 20
-1103.125241860314
 30
0.0
 40
3.5
 41
0.0
 71
     5
 72
     1
  1
D
  7
CONVERTER_11
 73
     1
 44
1.20048019207683
  0
MTEXT
  5
39D
330
71
100
AcDbEntity
  8
1
 62
     3
100
AcDbMText
 10
-1005.294235926427
 20
-1104.500241860314
 30
0.0
 40
2.5
 41
0.0
 71
     5
 72
     1
  1
DIN A4
  7
CONVERTER_11
 73
     1
 44
1.20048019207683
  0
MTEXT
  5
39E
330
71
100
AcDbEntity
  8
1
 62
     2
100
AcDbMText
 10
-994.094235926427
 20
-1118.125241860314
 30
0.0
 40
1.8
 41
0.0
 71
     1
 72
     1
  1
description
  7
CONVERTER_11
 73
     1
 44
1.20048019207683
  0
MTEXT
  5
39F
330
71
100
AcDbEntity
  8
1
 62
     7
100
AcDbMText
 10
-948.5218336630514
 20
-1122.375241860314
 30
0.0
 40
3.0
 41
0.0
 71
     5
 72
     1
  1
AB-SK/E-NS 35
  7
CONVERTER_12
 73
     1
 44
1.20048019207683
  0
TEXT
  5
3A0
330
71
100
AcDbEntity
  8
1
 62
     2
100
AcDbText
 10
-1007.058927116613
 20
-1124.375241860314
 30
0.0
 40
1.8
  1
1
 41
0.9
  7
CONVERTER_11
100
AcDbText
  0
TEXT
  5
3A1
330
71
100
AcDbEntity
  8
1
 62
     2
100
AcDbText
 10
-1021.847970956085
 20
-1124.424490514116
 30
0.0
 40
1.8
  1
1
 41
0.9
  7
CONVERTER_11
100
AcDbText
  0
TEXT
  5
3A2
330
71
100
AcDbEntity
  8
1
 62
     2
100
AcDbText
 10
-1030.494235926427
 20
-1124.384259075306
 30
0.0
 40
1.8
  1
page
 41
0.9
  7
CONVERTER_11
100
AcDbText
  0
TEXT
  5
3A3
330
71
100
AcDbEntity
  8
1
 62
     2
100
AcDbText
 10
-1012.294235926427
 20
-1124.384259075306
 30
0.0
 40
1.8
  1
of
 41
0.9
  7
CONVERTER_11
100
AcDbText
  0
MTEXT
  5
3A4
330
71
100
AcDbEntity
  8
1
 62
     3
100
AcDbMText
 10
-1006.091253774817
 20
-938.8339337050156
 30
0.0
 40
1.8
 41
0.0
 71
     7
 72
     1
  3
Transfer or duplication of this document as well as the utilisation or\Pcommunication of its content are not permitted unless express consent\Pis granted. Violations give rise to claims for damages. All rights reserved\Pin case of patent, utility mo
  1
del or design patent registrations.
  7
CONVERTER_11
 73
     1
 44
0.99639855942377
  0
MTEXT
  5
3A5
330
71
100
AcDbEntity
  8
1
 62
     3
100
AcDbMText
 10
-1188.944363613605
 20
-938.8339337050156
 30
0.0
 40
1.8
 41
0.0
 71
     7
 72
     1
  3
Weitergabe sowie Vervielf\U+00e4ltigung dieses Dokuments, Verwertung und \PMitteilung seines Inhalts sind verboten, soweit nicht ausdr\U+00fccklich gestattet. \PZuwiderhandlungen verpflichten zu Schadenersatz. Alle Rechte f\U+00fcr den Fall\Pder Pat
  1
ent-, Gebrauchsmuster- oder Designeintragung vorbehalten.
  7
CONVERTER_11
 73
     1
 44
0.99639855942377
  0
HATCH
  5
3A6
330
71
100
AcDbEntity
  8
1
  6
Continuous
 62
     2
100
AcDbHatch
 10
0.0
 20
0.0
 30
0.0
210
0.0
220
0.0
230
1.0
  2
_USER
 70
     0
 71
     1
 91
        1
 92
        1
 93
       14
 72
     2
 10
-1019.253006650504
 20
-1116.804837098393
 40
1.205656168391636
 50
164.9381082229049
 51
195.0618917771056
 73
     1
 72
     2
 10
-1018.833878807041
 20
-1116.692046736358
 40
1.639695123940531
 50
195.0618917771004
 51
275.1581447696299
 73
     1
 72
     2
 10
-1019.122734901777
 20
-1113.492156153136
 40
4.852596863499065
 50
275.1581447696229
 51
285.9799912583437
 73
     1
 72
     1
 10
-1017.78680698466
 20
-1118.157238458937
 11
-1017.78680698466
 21
-1117.284721452134
 72
     2
 10
-1018.964862026684
 20
-1115.394370732984
 40
2.227384008972431
 50
58.0690910500577
 51
71.55192388187925
 73
     0
 72
     2
 10
-1018.546694293024
 20
-1116.647916509021
 40
0.9059297849857696
 50
71.55192388183528
 51
113.3722778881175
 73
     0
 72
     2
 10
-1018.703134325726
 20
-1117.009908527731
 40
0.5115800601948827
 50
113.3722778881653
 51
151.4785267422948
 73
     0
 72
     2
 10
-1018.325777067645
 20
-1116.804837098393
 40
0.9410597353339125
 50
151.4785267423215
 51
208.5214732577271
 73
     0
 72
     2
 10
-1018.703134325726
 20
-1116.599765669054
 40
0.5115800601952438
 50
208.5214732577276
 51
246.6277221117943
 73
     0
 72
     2
 10
-1018.546694293024
 20
-1116.961757687765
 40
0.9059297849856465
 50
246.6277221118768
 51
288.4480761181511
 73
     0
 72
     2
 10
-1018.964862026684
 20
-1118.215303463801
 40
2.227384008973226
 50
288.4480761181208
 51
301.9309089499392
 73
     0
 72
     1
 10
-1017.78680698466
 20
-1116.324952744651
 11
-1017.78680698466
 21
-1115.452435737848
 72
     2
 10
-1019.122734901777
 20
-1120.117518043649
 40
4.852596863497939
 50
74.02000874165637
 51
84.84185523037584
 73
     1
 72
     2
 10
-1018.833878807041
 20
-1116.917627460428
 40
1.63969512394043
 50
84.84185523037009
 51
164.9381082228996
 73
     1
 97
       14
330
37B
330
294
330
34A
330
37A
330
34B
330
34C
330
379
330
378
330
377
330
295
330
34D
330
34E
330
34F
330
350
 75
     1
 76
     0
 52
45.0
 41
0.1
 77
     0
 78
     1
 53
45.0
 43
0.0
 44
0.0
 45
-0.0707106781186548
 46
0.0707106781186548
 79
     0
 98
        1
 10
0.0
 20
0.0
  0
HATCH
  5
3A7
330
71
100
AcDbEntity
  8
1
  6
Continuous
 62
     2
100
AcDbHatch
 10
0.0
 20
0.0
 30
0.0
210
0.0
220
0.0
230
1.0
  2
_USER
 70
     0
 71
     1
 91
        1
 92
        1
 93
       14
 72
     2
 10
-1019.253006650504
 20
-1116.804837098393
 40
1.205656168391636
 50
164.9381082229049
 51
195.0618917771056
 73
     1
 72
     2
 10
-1018.833878807041
 20
-1116.692046736358
 40
1.639695123940531
 50
195.0618917771004
 51
275.1581447696299
 73
     1
 72
     2
 10
-1019.122734901777
 20
-1113.492156153136
 40
4.852596863499065
 50
275.1581447696229
 51
285.9799912583437
 73
     1
 72
     1
 10
-1017.78680698466
 20
-1118.157238458937
 11
-1017.78680698466
 21
-1117.284721452134
 72
     2
 10
-1018.964862026684
 20
-1115.394370732984
 40
2.227384008972431
 50
58.0690910500577
 51
71.55192388187925
 73
     0
 72
     2
 10
-1018.546694293024
 20
-1116.647916509021
 40
0.9059297849857696
 50
71.55192388183528
 51
113.3722778881175
 73
     0
 72
     2
 10
-1018.703134325726
 20
-1117.009908527731
 40
0.5115800601948827
 50
113.3722778881653
 51
151.4785267422948
 73
     0
 72
     2
 10
-1018.325777067645
 20
-1116.804837098393
 40
0.9410597353339125
 50
151.4785267423215
 51
208.5214732577271
 73
     0
 72
     2
 10
-1018.703134325726
 20
-1116.599765669054
 40
0.5115800601952438
 50
208.5214732577276
 51
246.6277221117943
 73
     0
 72
     2
 10
-1018.546694293024
 20
-1116.961757687765
 40
0.9059297849856465
 50
246.6277221118768
 51
288.4480761181511
 73
     0
 72
     2
 10
-1018.964862026684
 20
-1118.215303463801
 40
2.227384008973226
 50
288.4480761181208
 51
301.9309089499392
 73
     0
 72
     1
 10
-1017.78680698466
 20
-1116.324952744651
 11
-1017.78680698466
 21
-1115.452435737848
 72
     2
 10
-1019.122734901777
 20
-1120.117518043649
 40
4.852596863497939
 50
74.02000874165637
 51
84.84185523037584
 73
     1
 72
     2
 10
-1018.833878807041
 20
-1116.917627460428
 40
1.63969512394043
 50
84.84185523037009
 51
164.9381082228996
 73
     1
 97
       14
330
37B
330
294
330
34A
330
37A
330
34B
330
34C
330
379
330
378
330
377
330
295
330
34D
330
34E
330
34F
330
350
 75
     1
 76
     0
 52
45.0
 41
0.1
 77
     0
 78
     1
 53
45.0
 43
0.0
 44
0.0
 45
-0.0707106781186548
 46
0.0707106781186548
 79
     0
 98
        1
 10
0.0
 20
0.0
  0
HATCH
  5
3A8
330
71
100
AcDbEntity
  8
1
  6
Continuous
 62
     2
100
AcDbHatch
 10
0.0
 20
0.0
 30
0.0
210
0.0
220
0.0
230
1.0
  2
_USER
 70
     0
 71
     1
 91
        1
 92
        1
 93
       18
 72
     2
 10
-1002.731177327789
 20
-1116.917627460428
 40
1.639695123940101
 50
90.0
 51
164.9381082228985
 73
     1
 72
     2
 10
-1003.15030517125
 20
-1116.804837098393
 40
1.205656168393503
 50
164.9381082229288
 51
195.0618917770817
 73
     1
 72
     2
 10
-1002.731177327789
 20
-1116.692046736358
 40
1.639695123940421
 50
195.0618917771015
 51
275.1581447697012
 73
     1
 72
     2
 10
-1003.020033422524
 20
-1113.492156153136
 40
4.852596863499147
 50
275.1581447696337
 51
285.9799912583284
 73
     1
 72
     1
 10
-1001.684105505408
 20
-1118.157238458938
 11
-1001.684105505408
 21
-1117.284721452135
 72
     2
 10
-1002.862160547432
 20
-1115.394370732985
 40
2.227384008972755
 50
58.06909105006081
 51
71.5519238818543
 73
     0
 72
     2
 10
-1002.44399281377
 20
-1116.647916509021
 40
0.9059297849857245
 50
71.55192388190805
 51
113.3722778881109
 73
     0
 72
     2
 10
-1002.600432846473
 20
-1117.009908527731
 40
0.5115800601962246
 50
113.3722778880484
 51
151.4785267422315
 73
     0
 72
     2
 10
-1002.223075588391
 20
-1116.804837098393
 40
0.9410597353352762
 50
151.4785267423202
 51
208.521473257619
 73
     0
 72
     2
 10
-1002.600432846473
 20
-1116.599765669054
 40
0.5115800601944311
 50
208.5214732575895
 51
250.6628567805863
 73
     0
 72
     2
 10
-1002.453762848369
 20
-1117.017720649437
 40
0.9545230068260935
 50
250.6628567805909
 51
270.0
 73
     0
 72
     1
 10
-1002.453762848369
 20
-1116.063197642611
 11
-1001.350123548801
 21
-1116.063197642611
 72
     1
 10
-1001.350123548801
 20
-1116.063197642611
 11
-1001.350123548801
 21
-1118.331741860298
 72
     1
 10
-1001.350123548801
 20
-1118.331741860298
 11
-1000.157330846633
 21
-1118.331741860298
 72
     1
 10
-1000.157330846633
 20
-1118.331741860298
 11
-1000.157330846633
 21
-1116.063197642611
 72
     1
 10
-1000.157330846633
 20
-1116.063197642611
 11
-999.3462318091598
 21
-1116.063197642611
 72
     1
 10
-999.3462318091598
 20
-1116.063197642611
 11
-999.3462318091598
 21
-1115.277932336487
 72
     1
 10
-999.3462318091598
 20
-1115.277932336487
 11
-1002.731177327789
 21
-1115.277932336488
 97
       18
330
2FA
330
2F9
330
2F8
330
2F7
330
2FC
330
296
330
374
330
355
330
373
330
356
330
372
330
371
330
297
330
370
330
36F
330
357
330
358
330
2FB
 75
     1
 76
     0
 52
45.0
 41
0.1
 77
     0
 78
     1
 53
45.0
 43
0.0
 44
0.0
 45
-0.0707106781186548
 46
0.0707106781186548
 79
     0
 98
        1
 10
0.0
 20
0.0
  0
HATCH
  5
3A9
330
71
100
AcDbEntity
  8
1
  6
Continuous
 62
     2
100
AcDbHatch
 10
0.0
 20
0.0
 30
0.0
210
0.0
220
0.0
230
1.0
  2
_USER
 70
     0
 71
     1
 91
        1
 92
        1
 93
       18
 72
     2
 10
-1002.731177327789
 20
-1116.917627460428
 40
1.639695123940101
 50
90.0
 51
164.9381082228985
 73
     1
 72
     2
 10
-1003.15030517125
 20
-1116.804837098393
 40
1.205656168393503
 50
164.9381082229288
 51
195.0618917770817
 73
     1
 72
     2
 10
-1002.731177327789
 20
-1116.692046736358
 40
1.639695123940421
 50
195.0618917771015
 51
275.1581447697012
 73
     1
 72
     2
 10
-1003.020033422524
 20
-1113.492156153136
 40
4.852596863499147
 50
275.1581447696337
 51
285.9799912583284
 73
     1
 72
     1
 10
-1001.684105505408
 20
-1118.157238458938
 11
-1001.684105505408
 21
-1117.284721452135
 72
     2
 10
-1002.862160547432
 20
-1115.394370732985
 40
2.227384008972755
 50
58.06909105006081
 51
71.5519238818543
 73
     0
 72
     2
 10
-1002.44399281377
 20
-1116.647916509021
 40
0.9059297849857245
 50
71.55192388190805
 51
113.3722778881109
 73
     0
 72
     2
 10
-1002.600432846473
 20
-1117.009908527731
 40
0.5115800601962246
 50
113.3722778880484
 51
151.4785267422315
 73
     0
 72
     2
 10
-1002.223075588391
 20
-1116.804837098393
 40
0.9410597353352762
 50
151.4785267423202
 51
208.521473257619
 73
     0
 72
     2
 10
-1002.600432846473
 20
-1116.599765669054
 40
0.5115800601944311
 50
208.5214732575895
 51
250.6628567805863
 73
     0
 72
     2
 10
-1002.453762848369
 20
-1117.017720649437
 40
0.9545230068260935
 50
250.6628567805909
 51
270.0
 73
     0
 72
     1
 10
-1002.453762848369
 20
-1116.063197642611
 11
-1001.350123548801
 21
-1116.063197642611
 72
     1
 10
-1001.350123548801
 20
-1116.063197642611
 11
-1001.350123548801
 21
-1118.331741860298
 72
     1
 10
-1001.350123548801
 20
-1118.331741860298
 11
-1000.157330846633
 21
-1118.331741860298
 72
     1
 10
-1000.157330846633
 20
-1118.331741860298
 11
-1000.157330846633
 21
-1116.063197642611
 72
     1
 10
-1000.157330846633
 20
-1116.063197642611
 11
-999.3462318091598
 21
-1116.063197642611
 72
     1
 10
-999.3462318091598
 20
-1116.063197642611
 11
-999.3462318091598
 21
-1115.277932336487
 72
     1
 10
-999.3462318091598
 20
-1115.277932336487
 11
-1002.731177327789
 21
-1115.277932336488
 97
       18
330
2FA
330
2F9
330
2F8
330
2F7
330
2FC
330
296
330
374
330
355
330
373
330
356
330
372
330
371
330
297
330
370
330
36F
330
357
330
358
330
2FB
 75
     1
 76
     0
 52
45.0
 41
0.1
 77
     0
 78
     1
 53
45.0
 43
0.0
 44
0.0
 45
-0.0707106781186548
 46
0.0707106781186548
 79
     0
 98
        1
 10
0.0
 20
0.0
  0
HATCH
  5
3AA
330
71
100
AcDbEntity
  8
1
  6
Continuous
 62
     2
100
AcDbHatch
 10
0.0
 20
0.0
 30
0.0
210
0.0
220
0.0
230
1.0
  2
_USER
 70
     0
 71
     1
 91
        4
 92
        1
 93
        8
 72
     2
 10
-1026.833336424482
 20
-1112.342986475715
 40
0.424244615383941
 50
90.0
 51
180.0
 73
     1
 72
     1
 10
-1027.257581039864
 20
-1112.342986475715
 11
-1027.257581039864
 21
-1117.907497244915
 72
     2
 10
-1026.833336424482
 20
-1117.907497244915
 40
0.4242446153818946
 50
180.0
 51
270.0
 73
     1
 72
     1
 10
-1026.833336424482
 20
-1118.331741860298
 11
-1021.360024333765
 21
-1118.331741860298
 72
     2
 10
-1021.360024333765
 20
-1117.907497244915
 40
0.4242446153830315
 50
270.0
 51
360.0
 73
     1
 72
     1
 10
-1020.935779718381
 20
-1117.907497244915
 11
-1020.935779718381
 21
-1112.342986475715
 72
     2
 10
-1021.360024333765
 20
-1112.342986475715
 40
0.424244615383941
 50
0.0
 51
90.0
 73
     1
 72
     1
 10
-1021.360024333765
 20
-1111.918741860331
 11
-1026.833336424482
 21
-1111.918741860331
 97
        8
330
368
330
2C5
330
367
330
2C6
330
35E
330
2C3
330
369
330
2C4
 92
       16
 93
        1
 72
     2
 10
-1024.213750773964
 20
-1114.66186870407
 40
0.470978932777939
 50
0.0
 51
360.0
 73
     1
 97
        1
330
37C
 92
       16
 93
        8
 72
     2
 10
-1024.189935759291
 20
-1114.66186870407
 40
0.911848150144268
 50
295.3740086781386
 51
424.6259913218368
 73
     1
 72
     2
 10
-1023.663893061203
 20
-1113.552727104102
 40
0.3157169230770478
 50
115.3740086784472
 51
180.0
 73
     0
 72
     1
 10
-1023.97960998428
 20
-1113.552727104102
 11
-1023.97960998428
 21
-1112.947191815596
 72
     2
 10
-1023.663893061203
 20
-1112.947191815596
 40
0.3157169230760167
 50
180.0
 51
269.8110329573148
 73
     0
 72
     2
 10
-1023.658276925893
 20
-1114.650026763165
 40
2.018561131933155
 50
269.8110329575649
 51
450.1889670424352
 73
     0
 72
     2
 10
-1023.663893061203
 20
-1116.352861710734
 40
0.3157169230770478
 50
90.18896704268525
 51
180.0
 73
     0
 72
     1
 10
-1023.97960998428
 20
-1116.352861710734
 11
-1023.97960998428
 21
-1115.771010304039
 72
     2
 10
-1023.663893061203
 20
-1115.771010304039
 40
0.3157169230773483
 50
180.0
 51
244.6259913215528
 73
     0
 97
        8
330
376
330
352
330
2FE
330
375
330
353
330
354
330
2FD
330
351
 92
       16
 93
       12
 72
     1
 10
-1026.239441747735
 20
-1117.619186304741
 11
-1024.763608486725
 21
-1117.619186304741
 72
     2
 10
-1024.763608486725
 20
-1117.303469381664
 40
0.3157169230771615
 50
270.0
 51
360.0
 73
     1
 72
     1
 10
-1024.447891563649
 20
-1117.303469381664
 11
-1024.447891563649
 21
-1115.772698450133
 72
     2
 10
-1024.763608486725
 20
-1115.772698450133
 40
0.3157169230760246
 50
0.0
 51
64.80558935158436
 73
     1
 72
     2
 10
-1024.241024039151
 20
-1114.66186870407
 40
0.9118975235569959
 50
115.1944106484926
 51
244.8055893514831
 73
     0
 72
     2
 10
-1024.763608486725
 20
-1113.551038958008
 40
0.3157169230762383
 50
295.1944106484157
 51
360.0
 73
     1
 72
     1
 10
-1024.447891563649
 20
-1113.551038958008
 11
-1024.447891563649
 21
-1112.947014338947
 72
     2
 10
-1024.763608486725
 20
-1112.947014338947
 40
0.3157169230760246
 50
0.0
 51
90.0
 73
     1
 72
     1
 10
-1024.763608486725
 20
-1112.631297415871
 11
-1026.239441747735
 21
-1112.631297415871
 72
     2
 10
-1026.239441747735
 20
-1112.947014338947
 40
0.3157169230760246
 50
90.0
 51
180.0
 73
     1
 72
     1
 10
-1026.555158670811
 20
-1112.947014338947
 11
-1026.555158670811
 21
-1117.303469381664
 72
     2
 10
-1026.239441747735
 20
-1117.303469381664
 40
0.3157169230757972
 50
180.0
 51
270.0
 73
     1
 97
       12
330
2CA
330
35B
330
2C9
330
36C
330
2C8
330
36B
330
35C
330
35D
330
2C7
330
36A
330
2C2
330
36D
 75
     1
 76
     0
 52
45.0
 41
0.1
 77
     0
 78
     1
 53
45.0
 43
0.0
 44
0.0
 45
-0.0707106781186548
 46
0.0707106781186548
 79
     0
 98
        1
 10
0.0
 20
0.0
  0
HATCH
  5
3AB
330
71
100
AcDbEntity
  8
1
  6
Continuous
 62
     2
100
AcDbHatch
 10
0.0
 20
0.0
 30
0.0
210
0.0
220
0.0
230
1.0
  2
_USER
 70
     0
 71
     1
 91
        4
 92
        1
 93
        8
 72
     2
 10
-1026.833336424482
 20
-1112.342986475715
 40
0.424244615383941
 50
90.0
 51
180.0
 73
     1
 72
     1
 10
-1027.257581039864
 20
-1112.342986475715
 11
-1027.257581039864
 21
-1117.907497244915
 72
     2
 10
-1026.833336424482
 20
-1117.907497244915
 40
0.4242446153818946
 50
180.0
 51
270.0
 73
     1
 72
     1
 10
-1026.833336424482
 20
-1118.331741860298
 11
-1021.360024333765
 21
-1118.331741860298
 72
     2
 10
-1021.360024333765
 20
-1117.907497244915
 40
0.4242446153830315
 50
270.0
 51
360.0
 73
     1
 72
     1
 10
-1020.935779718381
 20
-1117.907497244915
 11
-1020.935779718381
 21
-1112.342986475715
 72
     2
 10
-1021.360024333765
 20
-1112.342986475715
 40
0.424244615383941
 50
0.0
 51
90.0
 73
     1
 72
     1
 10
-1021.360024333765
 20
-1111.918741860331
 11
-1026.833336424482
 21
-1111.918741860331
 97
        8
330
368
330
2C5
330
367
330
2C6
330
35E
330
2C3
330
369
330
2C4
 92
       16
 93
        1
 72
     2
 10
-1024.213750773964
 20
-1114.66186870407
 40
0.470978932777939
 50
0.0
 51
360.0
 73
     1
 97
        1
330
37C
 92
       16
 93
        8
 72
     2
 10
-1024.189935759291
 20
-1114.66186870407
 40
0.911848150144268
 50
295.3740086781386
 51
424.6259913218368
 73
     1
 72
     2
 10
-1023.663893061203
 20
-1113.552727104102
 40
0.3157169230770478
 50
115.3740086784472
 51
180.0
 73
     0
 72
     1
 10
-1023.97960998428
 20
-1113.552727104102
 11
-1023.97960998428
 21
-1112.947191815596
 72
     2
 10
-1023.663893061203
 20
-1112.947191815596
 40
0.3157169230760167
 50
180.0
 51
269.8110329573148
 73
     0
 72
     2
 10
-1023.658276925893
 20
-1114.650026763165
 40
2.018561131933155
 50
269.8110329575649
 51
450.1889670424352
 73
     0
 72
     2
 10
-1023.663893061203
 20
-1116.352861710734
 40
0.3157169230770478
 50
90.18896704268525
 51
180.0
 73
     0
 72
     1
 10
-1023.97960998428
 20
-1116.352861710734
 11
-1023.97960998428
 21
-1115.771010304039
 72
     2
 10
-1023.663893061203
 20
-1115.771010304039
 40
0.3157169230773483
 50
180.0
 51
244.6259913215528
 73
     0
 97
        8
330
376
330
352
330
2FE
330
375
330
353
330
354
330
2FD
330
351
 92
       16
 93
       12
 72
     1
 10
-1026.239441747735
 20
-1117.619186304741
 11
-1024.763608486725
 21
-1117.619186304741
 72
     2
 10
-1024.763608486725
 20
-1117.303469381664
 40
0.3157169230771615
 50
270.0
 51
360.0
 73
     1
 72
     1
 10
-1024.447891563649
 20
-1117.303469381664
 11
-1024.447891563649
 21
-1115.772698450133
 72
     2
 10
-1024.763608486725
 20
-1115.772698450133
 40
0.3157169230760246
 50
0.0
 51
64.80558935158436
 73
     1
 72
     2
 10
-1024.241024039151
 20
-1114.66186870407
 40
0.9118975235569959
 50
115.1944106484926
 51
244.8055893514831
 73
     0
 72
     2
 10
-1024.763608486725
 20
-1113.551038958008
 40
0.3157169230762383
 50
295.1944106484157
 51
360.0
 73
     1
 72
     1
 10
-1024.447891563649
 20
-1113.551038958008
 11
-1024.447891563649
 21
-1112.947014338947
 72
     2
 10
-1024.763608486725
 20
-1112.947014338947
 40
0.3157169230760246
 50
0.0
 51
90.0
 73
     1
 72
     1
 10
-1024.763608486725
 20
-1112.631297415871
 11
-1026.239441747735
 21
-1112.631297415871
 72
     2
 10
-1026.239441747735
 20
-1112.947014338947
 40
0.3157169230760246
 50
90.0
 51
180.0
 73
     1
 72
     1
 10
-1026.555158670811
 20
-1112.947014338947
 11
-1026.555158670811
 21
-1117.303469381664
 72
     2
 10
-1026.239441747735
 20
-1117.303469381664
 40
0.3157169230757972
 50
180.0
 51
270.0
 73
     1
 97
       12
330
2CA
330
35B
330
2C9
330
36C
330
2C8
330
36B
330
35C
330
35D
330
2C7
330
36A
330
2C2
330
36D
 75
     1
 76
     0
 52
45.0
 41
0.1
 77
     0
 78
     1
 53
45.0
 43
0.0
 44
0.0
 45
-0.0707106781186548
 46
0.0707106781186548
 79
     0
 98
        1
 10
0.0
 20
0.0
  0
HATCH
  5
3AC
330
71
100
AcDbEntity
  8
1
  6
Continuous
 62
     2
100
AcDbHatch
 10
0.0
 20
0.0
 30
0.0
210
0.0
220
0.0
230
1.0
  2
_USER
 70
     0
 71
     1
 91
        2
 92
        1
 93
       12
 72
     2
 10
-1012.158172420492
 20
-1113.445646622218
 40
1.526904761904916
 50
90.0
 51
270.0
 73
     1
 72
     1
 10
-1012.158172420492
 20
-1114.972551384124
 11
-1009.007852696711
 21
-1114.972551384124
 72
     1
 10
-1009.007852696711
 20
-1114.972551384124
 11
-1009.007852696711
 21
-1114.274537778681
 72
     1
 10
-1009.007852696711
 20
-1114.274537778681
 11
-1010.343780523139
 21
-1114.274537778681
 72
     1
 10
-1010.343780523139
 20
-1114.274537778681
 11
-1010.343780523139
 21
-1113.79465342494
 72
     1
 10
-1010.343780523139
 20
-1113.79465342494
 11
-1009.007852696711
 21
-1113.79465342494
 72
     1
 10
-1009.007852696711
 20
-1113.79465342494
 11
-1009.007852696711
 21
-1113.096639819497
 72
     1
 10
-1009.007852696711
 20
-1113.096639819497
 11
-1010.343780523139
 21
-1113.096639819497
 72
     1
 10
-1010.343780523139
 20
-1113.096639819497
 11
-1010.343780523139
 21
-1112.616755465756
 72
     1
 10
-1010.343780523139
 20
-1112.616755465756
 11
-1009.007852696711
 21
-1112.616755465756
 72
     1
 10
-1009.007852696711
 20
-1112.616755465756
 11
-1009.007852696711
 21
-1111.918741860313
 72
     1
 10
-1009.007852696711
 20
-1111.918741860313
 11
-1012.158172420492
 21
-1111.918741860313
 97
       12
330
2B9
330
2B3
330
2DA
330
2D9
330
2D8
330
2D7
330
2B4
330
2B5
330
2B6
330
2B7
330
359
330
2B8
 92
       16
 93
        4
 72
     2
 10
-1011.742160373981
 20
-1113.445646622218
 40
0.7717997786788044
 50
141.8795802028918
 51
218.1204197972278
 73
     1
 72
     2
 10
-1011.941900410327
 20
-1113.602377800339
 40
0.5179085730138424
 50
218.1204197971879
 51
321.8795802028121
 73
     1
 72
     2
 10
-1012.141640446673
 20
-1113.445646622218
 40
0.7717997786801571
 50
321.8795802027775
 51
398.120419797103
 73
     1
 72
     2
 10
-1011.941900410327
 20
-1113.288915444098
 40
0.5179085730131405
 50
38.12041979708892
 51
141.8795802029111
 73
     1
 97
        4
330
366
330
365
330
360
330
35F
 75
     1
 76
     0
 52
45.0
 41
0.1
 77
     0
 78
     1
 53
45.0
 43
0.0
 44
0.0
 45
-0.0707106781186548
 46
0.0707106781186548
 79
     0
 98
        1
 10
0.0
 20
0.0
  0
HATCH
  5
3AD
330
71
100
AcDbEntity
  8
1
  6
Continuous
 62
     2
100
AcDbHatch
 10
0.0
 20
0.0
 30
0.0
210
0.0
220
0.0
230
1.0
  2
_USER
 70
     0
 71
     1
 91
        2
 92
        1
 93
       12
 72
     2
 10
-1012.158172420492
 20
-1113.445646622218
 40
1.526904761904916
 50
90.0
 51
270.0
 73
     1
 72
     1
 10
-1012.158172420492
 20
-1114.972551384124
 11
-1009.007852696711
 21
-1114.972551384124
 72
     1
 10
-1009.007852696711
 20
-1114.972551384124
 11
-1009.007852696711
 21
-1114.274537778681
 72
     1
 10
-1009.007852696711
 20
-1114.274537778681
 11
-1010.343780523139
 21
-1114.274537778681
 72
     1
 10
-1010.343780523139
 20
-1114.274537778681
 11
-1010.343780523139
 21
-1113.79465342494
 72
     1
 10
-1010.343780523139
 20
-1113.79465342494
 11
-1009.007852696711
 21
-1113.79465342494
 72
     1
 10
-1009.007852696711
 20
-1113.79465342494
 11
-1009.007852696711
 21
-1113.096639819497
 72
     1
 10
-1009.007852696711
 20
-1113.096639819497
 11
-1010.343780523139
 21
-1113.096639819497
 72
     1
 10
-1010.343780523139
 20
-1113.096639819497
 11
-1010.343780523139
 21
-1112.616755465756
 72
     1
 10
-1010.343780523139
 20
-1112.616755465756
 11
-1009.007852696711
 21
-1112.616755465756
 72
     1
 10
-1009.007852696711
 20
-1112.616755465756
 11
-1009.007852696711
 21
-1111.918741860313
 72
     1
 10
-1009.007852696711
 20
-1111.918741860313
 11
-1012.158172420492
 21
-1111.918741860313
 97
       12
330
2B9
330
2B3
330
2DA
330
2D9
330
2D8
330
2D7
330
2B4
330
2B5
330
2B6
330
2B7
330
359
330
2B8
 92
       16
 93
        4
 72
     2
 10
-1011.742160373981
 20
-1113.445646622218
 40
0.7717997786788044
 50
141.8795802028918
 51
218.1204197972278
 73
     1
 72
     2
 10
-1011.941900410327
 20
-1113.602377800339
 40
0.5179085730138424
 50
218.1204197971879
 51
321.8795802028121
 73
     1
 72
     2
 10
-1012.141640446673
 20
-1113.445646622218
 40
0.7717997786801571
 50
321.8795802027775
 51
398.120419797103
 73
     1
 72
     2
 10
-1011.941900410327
 20
-1113.288915444098
 40
0.5179085730131405
 50
38.12041979708892
 51
141.8795802029111
 73
     1
 97
        4
330
366
330
365
330
360
330
35F
 75
     1
 76
     0
 52
45.0
 41
0.1
 77
     0
 78
     1
 53
45.0
 43
0.0
 44
0.0
 45
-0.0707106781186548
 46
0.0707106781186548
 79
     0
 98
        1
 10
0.0
 20
0.0
  0
HATCH
  5
3AE
330
71
100
AcDbEntity
  8
1
  6
Continuous
 62
     2
100
AcDbHatch
 10
0.0
 20
0.0
 30
0.0
210
0.0
220
0.0
230
1.0
  2
_USER
 70
     0
 71
     1
 91
        2
 92
        1
 93
        4
 72
     2
 10
-1016.183787782954
 20
-1116.804837098393
 40
1.458034083651531
 50
117.5481481756389
 51
242.4518518243487
 73
     1
 72
     2
 10
-1015.902847891121
 20
-1116.266262088089
 40
2.065479772208354
 50
242.4518518243637
 51
297.5481481756866
 73
     1
 72
     2
 10
-1015.621907999287
 20
-1116.804837098393
 40
1.458034083651399
 50
297.548148175687
 51
422.4518518243254
 73
     1
 72
     2
 10
-1015.902847891121
 20
-1117.343412108696
 40
2.065479772209099
 50
62.4518518243105
 51
117.5481481756392
 73
     1
 97
        4
330
364
330
361
330
363
330
362
 92
       16
 93
        4
 72
     2
 10
-1015.902847891121
 20
-1116.648105920272
 40
0.5179085730131405
 50
38.12041979708892
 51
141.8795802028412
 73
     1
 72
     2
 10
-1015.703107854774
 20
-1116.804837098393
 40
0.7717997786794554
 50
141.8795802028439
 51
218.1204197971694
 73
     1
 72
     2
 10
-1015.902847891121
 20
-1116.961568276513
 40
0.5179085730130374
 50
218.1204197972577
 51
321.8795802028121
 73
     1
 72
     2
 10
-1016.102587927467
 20
-1116.804837098393
 40
0.7717997786795062
 50
321.8795802028254
 51
398.1204197971613
 73
     1
 97
        4
330
347
330
348
330
349
330
346
 75
     1
 76
     0
 52
45.0
 41
0.1
 77
     0
 78
     1
 53
45.0
 43
0.0
 44
0.0
 45
-0.0707106781186548
 46
0.0707106781186548
 79
     0
 98
        1
 10
0.0
 20
0.0
  0
HATCH
  5
3AF
330
71
100
AcDbEntity
  8
1
  6
Continuous
 62
     2
100
AcDbHatch
 10
0.0
 20
0.0
 30
0.0
210
0.0
220
0.0
230
1.0
  2
_USER
 70
     0
 71
     1
 91
        2
 92
        1
 93
        4
 72
     2
 10
-1016.183787782954
 20
-1116.804837098393
 40
1.458034083651531
 50
117.5481481756389
 51
242.4518518243487
 73
     1
 72
     2
 10
-1015.902847891121
 20
-1116.266262088089
 40
2.065479772208354
 50
242.4518518243637
 51
297.5481481756866
 73
     1
 72
     2
 10
-1015.621907999287
 20
-1116.804837098393
 40
1.458034083651399
 50
297.548148175687
 51
422.4518518243254
 73
     1
 72
     2
 10
-1015.902847891121
 20
-1117.343412108696
 40
2.065479772209099
 50
62.4518518243105
 51
117.5481481756392
 73
     1
 97
        4
330
364
330
361
330
363
330
362
 92
       16
 93
        4
 72
     2
 10
-1015.902847891121
 20
-1116.648105920272
 40
0.5179085730131405
 50
38.12041979708892
 51
141.8795802028412
 73
     1
 72
     2
 10
-1015.703107854774
 20
-1116.804837098393
 40
0.7717997786794554
 50
141.8795802028439
 51
218.1204197971694
 73
     1
 72
     2
 10
-1015.902847891121
 20
-1116.961568276513
 40
0.5179085730130374
 50
218.1204197972577
 51
321.8795802028121
 73
     1
 72
     2
 10
-1016.102587927467
 20
-1116.804837098393
 40
0.7717997786795062
 50
321.8795802028254
 51
398.1204197971613
 73
     1
 97
        4
330
347
330
348
330
349
330
346
 75
     1
 76
     0
 52
45.0
 41
0.1
 77
     0
 78
     1
 53
45.0
 43
0.0
 44
0.0
 45
-0.0707106781186548
 46
0.0707106781186548
 79
     0
 98
        1
 10
0.0
 20
0.0
  0
HATCH
  5
3B0
330
71
100
AcDbEntity
  8
1
  6
Continuous
 62
     2
100
AcDbHatch
 10
0.0
 20
0.0
 30
0.0
210
0.0
220
0.0
230
1.0
  2
_USER
 70
     0
 71
     1
 91
        2
 92
        1
 93
        6
 72
     1
 10
-1020.458662637514
 20
-1111.918741860313
 11
-1020.458662637514
 21
-1114.972551384124
 72
     1
 10
-1020.458662637514
 20
-1114.972551384124
 11
-1019.21815822726
 21
-1114.972551384124
 72
     1
 10
-1019.21815822726
 20
-1114.972551384124
 11
-1019.21815822726
 21
-1114.02947314298
 72
     1
 10
-1019.21815822726
 20
-1114.02947314298
 11
-1018.45939063948
 21
-1114.02947314298
 72
     2
 10
-1018.45939063948
 20
-1112.974107501646
 40
1.055365641333992
 50
270.0
 51
450.0
 73
     1
 72
     1
 10
-1018.45939063948
 20
-1111.918741860313
 11
-1020.458662637514
 21
-1111.918741860313
 97
        6
330
36E
330
2CB
330
2C1
330
2C0
330
2CD
330
2CC
 92
       16
 93
        4
 72
     1
 10
-1018.900863165718
 20
-1112.581847705753
 11
-1019.21815822726
 21
-1112.581847705753
 72
     1
 10
-1019.21815822726
 20
-1112.581847705753
 11
-1019.21815822726
 21
-1113.287575355095
 72
     1
 10
-1019.21815822726
 20
-1113.287575355095
 11
-1018.900863165718
 21
-1113.287575355095
 72
     2
 10
-1018.900863165718
 20
-1112.934711530424
 40
0.3528638246709761
 50
270.0
 51
450.0
 73
     1
 97
        4
330
2CE
330
2BF
330
2CF
330
35A
 75
     1
 76
     0
 52
45.0
 41
0.1
 77
     0
 78
     1
 53
45.0
 43
0.0
 44
0.0
 45
-0.0707106781186548
 46
0.0707106781186548
 79
     0
 98
        1
 10
0.0
 20
0.0
  0
HATCH
  5
3B1
330
71
100
AcDbEntity
  8
1
  6
Continuous
 62
     2
100
AcDbHatch
 10
0.0
 20
0.0
 30
0.0
210
0.0
220
0.0
230
1.0
  2
_USER
 70
     0
 71
     1
 91
        2
 92
        1
 93
        6
 72
     1
 10
-1020.458662637514
 20
-1111.918741860313
 11
-1020.458662637514
 21
-1114.972551384124
 72
     1
 10
-1020.458662637514
 20
-1114.972551384124
 11
-1019.21815822726
 21
-1114.972551384124
 72
     1
 10
-1019.21815822726
 20
-1114.972551384124
 11
-1019.21815822726
 21
-1114.02947314298
 72
     1
 10
-1019.21815822726
 20
-1114.02947314298
 11
-1018.45939063948
 21
-1114.02947314298
 72
     2
 10
-1018.45939063948
 20
-1112.974107501646
 40
1.055365641333992
 50
270.0
 51
450.0
 73
     1
 72
     1
 10
-1018.45939063948
 20
-1111.918741860313
 11
-1020.458662637514
 21
-1111.918741860313
 97
        6
330
36E
330
2CB
330
2C1
330
2C0
330
2CD
330
2CC
 92
       16
 93
        4
 72
     1
 10
-1018.900863165718
 20
-1112.581847705753
 11
-1019.21815822726
 21
-1112.581847705753
 72
     1
 10
-1019.21815822726
 20
-1112.581847705753
 11
-1019.21815822726
 21
-1113.287575355095
 72
     1
 10
-1019.21815822726
 20
-1113.287575355095
 11
-1018.900863165718
 21
-1113.287575355095
 72
     2
 10
-1018.900863165718
 20
-1112.934711530424
 40
0.3528638246709761
 50
270.0
 51
450.0
 73
     1
 97
        4
330
2CE
330
2BF
330
2CF
330
35A
 75
     1
 76
     0
 52
45.0
 41
0.1
 77
     0
 78
     1
 53
45.0
 43
0.0
 44
0.0
 45
-0.0707106781186548
 46
0.0707106781186548
 79
     0
 98
        1
 10
0.0
 20
0.0
  0
HATCH
  5
3B2
330
71
100
AcDbEntity
  8
1
  6
Continuous
 62
     2
100
AcDbHatch
 10
0.0
 20
0.0
 30
0.0
210
0.0
220
0.0
230
1.0
  2
_USER
 70
     0
 71
     1
 91
        1
 92
        1
 93
       12
 72
     1
 10
-1000.844379443081
 20
-1111.918741860313
 11
-999.4416552253335
 21
-1111.918741860313
 72
     1
 10
-999.4416552253335
 20
-1111.918741860313
 11
-1000.7441848561
 21
-1113.391692390349
 72
     1
 10
-1000.7441848561
 20
-1113.391692390349
 11
-999.3462318091598
 21
-1114.972551384124
 72
     1
 10
-999.3462318091598
 20
-1114.972551384124
 11
-1000.748956026908
 21
-1114.972551384124
 72
     1
 10
-1000.748956026908
 20
-1114.972551384124
 11
-1001.445546964974
 21
-1114.18481959883
 72
     1
 10
-1001.445546964974
 20
-1114.18481959883
 11
-1002.142137903039
 21
-1114.972551384124
 72
     1
 10
-1002.142137903039
 20
-1114.972551384124
 11
-1003.544862120788
 21
-1114.972551384124
 72
     1
 10
-1003.544862120788
 20
-1114.972551384124
 11
-1002.146909073847
 21
-1113.391692390349
 72
     1
 10
-1002.146909073847
 20
-1113.391692390349
 11
-1003.449438704615
 21
-1111.918741860313
 72
     1
 10
-1003.449438704615
 20
-1111.918741860313
 11
-1002.046714486865
 21
-1111.918741860313
 72
     1
 10
-1002.046714486865
 20
-1111.918741860313
 11
-1001.445546964974
 21
-1112.598565181868
 72
     1
 10
-1001.445546964974
 20
-1112.598565181868
 11
-1000.844379443081
 21
-1111.918741860313
 97
       12
330
29A
330
2F3
330
2F2
330
2F1
330
2F0
330
29B
330
29C
330
298
330
299
330
2F6
330
2F5
330
2F4
 75
     1
 76
     0
 52
45.0
 41
0.1
 77
     0
 78
     1
 53
45.0
 43
0.0
 44
0.0
 45
-0.0707106781186548
 46
0.0707106781186548
 79
     0
 98
        1
 10
0.0
 20
0.0
  0
HATCH
  5
3B3
330
71
100
AcDbEntity
  8
1
  6
Continuous
 62
     2
100
AcDbHatch
 10
0.0
 20
0.0
 30
0.0
210
0.0
220
0.0
230
1.0
  2
_USER
 70
     0
 71
     1
 91
        1
 92
        1
 93
       12
 72
     1
 10
-1000.844379443081
 20
-1111.918741860313
 11
-999.4416552253335
 21
-1111.918741860313
 72
     1
 10
-999.4416552253335
 20
-1111.918741860313
 11
-1000.7441848561
 21
-1113.391692390349
 72
     1
 10
-1000.7441848561
 20
-1113.391692390349
 11
-999.3462318091598
 21
-1114.972551384124
 72
     1
 10
-999.3462318091598
 20
-1114.972551384124
 11
-1000.748956026908
 21
-1114.972551384124
 72
     1
 10
-1000.748956026908
 20
-1114.972551384124
 11
-1001.445546964974
 21
-1114.18481959883
 72
     1
 10
-1001.445546964974
 20
-1114.18481959883
 11
-1002.142137903039
 21
-1114.972551384124
 72
     1
 10
-1002.142137903039
 20
-1114.972551384124
 11
-1003.544862120788
 21
-1114.972551384124
 72
     1
 10
-1003.544862120788
 20
-1114.972551384124
 11
-1002.146909073847
 21
-1113.391692390349
 72
     1
 10
-1002.146909073847
 20
-1113.391692390349
 11
-1003.449438704615
 21
-1111.918741860313
 72
     1
 10
-1003.449438704615
 20
-1111.918741860313
 11
-1002.046714486865
 21
-1111.918741860313
 72
     1
 10
-1002.046714486865
 20
-1111.918741860313
 11
-1001.445546964974
 21
-1112.598565181868
 72
     1
 10
-1001.445546964974
 20
-1112.598565181868
 11
-1000.844379443081
 21
-1111.918741860313
 97
       12
330
29A
330
2F3
330
2F2
330
2F1
330
2F0
330
29B
330
29C
330
298
330
299
330
2F6
330
2F5
330
2F4
 75
     1
 76
     0
 52
45.0
 41
0.1
 77
     0
 78
     1
 53
45.0
 43
0.0
 44
0.0
 45
-0.0707106781186548
 46
0.0707106781186548
 79
     0
 98
        1
 10
0.0
 20
0.0
  0
HATCH
  5
3B4
330
71
100
AcDbEntity
  8
1
  6
Continuous
 62
     2
100
AcDbHatch
 10
0.0
 20
0.0
 30
0.0
210
0.0
220
0.0
230
1.0
  2
_USER
 70
     0
 71
     1
 91
        1
 92
        1
 93
        4
 72
     1
 10
-1003.664141391004
 20
-1111.918741860313
 11
-1003.664141391004
 21
-1114.972551384124
 72
     1
 10
-1003.664141391004
 20
-1114.972551384124
 11
-1004.904645801257
 21
-1114.972551384124
 72
     1
 10
-1004.904645801257
 20
-1114.972551384124
 11
-1004.904645801257
 21
-1111.918741860313
 72
     1
 10
-1004.904645801257
 20
-1111.918741860313
 11
-1003.664141391004
 21
-1111.918741860313
 97
        4
330
2EE
330
29D
330
2ED
330
2EF
 75
     1
 76
     0
 52
45.0
 41
0.1
 77
     0
 78
     1
 53
45.0
 43
0.0
 44
0.0
 45
-0.0707106781186548
 46
0.0707106781186548
 79
     0
 98
        1
 10
0.0
 20
0.0
  0
HATCH
  5
3B5
330
71
100
AcDbEntity
  8
1
  6
Continuous
 62
     2
100
AcDbHatch
 10
0.0
 20
0.0
 30
0.0
210
0.0
220
0.0
230
1.0
  2
_USER
 70
     0
 71
     1
 91
        1
 92
        1
 93
        4
 72
     1
 10
-1003.664141391004
 20
-1111.918741860313
 11
-1003.664141391004
 21
-1114.972551384124
 72
     1
 10
-1003.664141391004
 20
-1114.972551384124
 11
-1004.904645801257
 21
-1114.972551384124
 72
     1
 10
-1004.904645801257
 20
-1114.972551384124
 11
-1004.904645801257
 21
-1111.918741860313
 72
     1
 10
-1004.904645801257
 20
-1111.918741860313
 11
-1003.664141391004
 21
-1111.918741860313
 97
        4
330
2EE
330
29D
330
2ED
330
2EF
 75
     1
 76
     0
 52
45.0
 41
0.1
 77
     0
 78
     1
 53
45.0
 43
0.0
 44
0.0
 45
-0.0707106781186548
 46
0.0707106781186548
 79
     0
 98
        1
 10
0.0
 20
0.0
  0
HATCH
  5
3B6
330
71
100
AcDbEntity
  8
1
  6
Continuous
 62
     2
100
AcDbHatch
 10
0.0
 20
0.0
 30
0.0
210
0.0
220
0.0
230
1.0
  2
_USER
 70
     0
 71
     1
 91
        2
 92
        1
 93
        8
 72
     1
 10
-1004.054585394536
 20
-1118.331741860298
 11
-1005.29508980479
 21
-1118.331741860298
 72
     1
 10
-1005.29508980479
 20
-1118.331741860298
 11
-1005.506569858266
 21
-1117.79078131608
 72
     1
 10
-1005.506569858266
 20
-1117.79078131608
 11
-1006.63901143494
 21
-1117.79078131608
 72
     1
 10
-1006.63901143494
 20
-1117.79078131608
 11
-1006.850491488416
 21
-1118.331741860298
 72
     1
 10
-1006.850491488416
 20
-1118.331741860298
 11
-1008.090995898669
 21
-1118.331741860298
 72
     1
 10
-1008.090995898669
 20
-1118.331741860298
 11
-1006.693042851729
 21
-1115.277932336487
 72
     1
 10
-1006.693042851729
 20
-1115.277932336487
 11
-1005.452538441477
 21
-1115.277932336487
 72
     1
 10
-1005.452538441477
 20
-1115.277932336487
 11
-1004.054585394536
 21
-1118.331741860298
 97
        8
330
2E9
330
2A3
330
2E8
330
2EB
330
2A0
330
2EA
330
2A1
330
2A2
 92
       16
 93
        3
 72
     1
 10
-1006.372955883795
 20
-1117.110218050774
 11
-1005.772625409412
 21
-1117.110218050774
 72
     1
 10
-1005.772625409412
 20
-1117.110218050774
 11
-1006.072790646603
 21
-1116.342403084787
 72
     1
 10
-1006.072790646603
 20
-1116.342403084787
 11
-1006.372955883795
 21
-1117.110218050774
 97
        3
330
29F
330
29E
330
2EC
 75
     1
 76
     0
 52
45.0
 41
0.1
 77
     0
 78
     1
 53
45.0
 43
0.0
 44
0.0
 45
-0.0707106781186548
 46
0.0707106781186548
 79
     0
 98
        1
 10
0.0
 20
0.0
  0
HATCH
  5
3B7
330
71
100
AcDbEntity
  8
1
  6
Continuous
 62
     2
100
AcDbHatch
 10
0.0
 20
0.0
 30
0.0
210
0.0
220
0.0
230
1.0
  2
_USER
 70
     0
 71
     1
 91
        2
 92
        1
 93
        8
 72
     1
 10
-1004.054585394536
 20
-1118.331741860298
 11
-1005.29508980479
 21
-1118.331741860298
 72
     1
 10
-1005.29508980479
 20
-1118.331741860298
 11
-1005.506569858266
 21
-1117.79078131608
 72
     1
 10
-1005.506569858266
 20
-1117.79078131608
 11
-1006.63901143494
 21
-1117.79078131608
 72
     1
 10
-1006.63901143494
 20
-1117.79078131608
 11
-1006.850491488416
 21
-1118.331741860298
 72
     1
 10
-1006.850491488416
 20
-1118.331741860298
 11
-1008.090995898669
 21
-1118.331741860298
 72
     1
 10
-1008.090995898669
 20
-1118.331741860298
 11
-1006.693042851729
 21
-1115.277932336487
 72
     1
 10
-1006.693042851729
 20
-1115.277932336487
 11
-1005.452538441477
 21
-1115.277932336487
 72
     1
 10
-1005.452538441477
 20
-1115.277932336487
 11
-1004.054585394536
 21
-1118.331741860298
 97
        8
330
2E9
330
2A3
330
2E8
330
2EB
330
2A0
330
2EA
330
2A1
330
2A2
 92
       16
 93
        3
 72
     1
 10
-1006.372955883795
 20
-1117.110218050774
 11
-1005.772625409412
 21
-1117.110218050774
 72
     1
 10
-1005.772625409412
 20
-1117.110218050774
 11
-1006.072790646603
 21
-1116.342403084787
 72
     1
 10
-1006.072790646603
 20
-1116.342403084787
 11
-1006.372955883795
 21
-1117.110218050774
 97
        3
330
29F
330
29E
330
2EC
 75
     1
 76
     0
 52
45.0
 41
0.1
 77
     0
 78
     1
 53
45.0
 43
0.0
 44
0.0
 45
-0.0707106781186548
 46
0.0707106781186548
 79
     0
 98
        1
 10
0.0
 20
0.0
  0
HATCH
  5
3B8
330
71
100
AcDbEntity
  8
1
  6
Continuous
 62
     2
100
AcDbHatch
 10
0.0
 20
0.0
 30
0.0
210
0.0
220
0.0
230
1.0
  2
_USER
 70
     0
 71
     1
 91
        1
 92
        1
 93
        8
 72
     1
 10
-1010.248508037851
 20
-1115.277932336487
 11
-1010.248508037851
 21
-1116.063197642611
 72
     1
 10
-1010.248508037851
 20
-1116.063197642611
 11
-1009.437409000376
 21
-1116.063197642611
 72
     1
 10
-1009.437409000376
 20
-1116.063197642611
 11
-1009.437409000376
 21
-1118.331741860298
 72
     1
 10
-1009.437409000376
 20
-1118.331741860298
 11
-1008.24461629821
 21
-1118.331741860298
 72
     1
 10
-1008.24461629821
 20
-1118.331741860298
 11
-1008.24461629821
 21
-1116.063197642611
 72
     1
 10
-1008.24461629821
 20
-1116.063197642611
 11
-1007.433517260737
 21
-1116.063197642611
 72
     1
 10
-1007.433517260737
 20
-1116.063197642611
 11
-1007.433517260737
 21
-1115.277932336487
 72
     1
 10
-1007.433517260737
 20
-1115.277932336487
 11
-1010.248508037851
 21
-1115.277932336487
 97
        8
330
2E5
330
2E4
330
2E3
330
2A4
330
2A5
330
2E7
330
2A6
330
2E6
 75
     1
 76
     0
 52
45.0
 41
0.1
 77
     0
 78
     1
 53
45.0
 43
0.0
 44
0.0
 45
-0.0707106781186548
 46
0.0707106781186548
 79
     0
 98
        1
 10
0.0
 20
0.0
  0
HATCH
  5
3B9
330
71
100
AcDbEntity
  8
1
  6
Continuous
 62
     2
100
AcDbHatch
 10
0.0
 20
0.0
 30
0.0
210
0.0
220
0.0
230
1.0
  2
_USER
 70
     0
 71
     1
 91
        1
 92
        1
 93
        8
 72
     1
 10
-1010.248508037851
 20
-1115.277932336487
 11
-1010.248508037851
 21
-1116.063197642611
 72
     1
 10
-1010.248508037851
 20
-1116.063197642611
 11
-1009.437409000376
 21
-1116.063197642611
 72
     1
 10
-1009.437409000376
 20
-1116.063197642611
 11
-1009.437409000376
 21
-1118.331741860298
 72
     1
 10
-1009.437409000376
 20
-1118.331741860298
 11
-1008.24461629821
 21
-1118.331741860298
 72
     1
 10
-1008.24461629821
 20
-1118.331741860298
 11
-1008.24461629821
 21
-1116.063197642611
 72
     1
 10
-1008.24461629821
 20
-1116.063197642611
 11
-1007.433517260737
 21
-1116.063197642611
 72
     1
 10
-1007.433517260737
 20
-1116.063197642611
 11
-1007.433517260737
 21
-1115.277932336487
 72
     1
 10
-1007.433517260737
 20
-1115.277932336487
 11
-1010.248508037851
 21
-1115.277932336487
 97
        8
330
2E5
330
2E4
330
2E3
330
2A4
330
2A5
330
2E7
330
2A6
330
2E6
 75
     1
 76
     0
 52
45.0
 41
0.1
 77
     0
 78
     1
 53
45.0
 43
0.0
 44
0.0
 45
-0.0707106781186548
 46
0.0707106781186548
 79
     0
 98
        1
 10
0.0
 20
0.0
  0
HATCH
  5
3BA
330
71
100
AcDbEntity
  8
1
  6
Continuous
 62
     2
100
AcDbHatch
 10
0.0
 20
0.0
 30
0.0
210
0.0
220
0.0
230
1.0
  2
_USER
 70
     0
 71
     1
 91
        1
 92
        1
 93
       10
 72
     1
 10
-1007.576501454112
 20
-1111.918741860313
 11
-1008.769294156278
 21
-1111.918741860313
 72
     1
 10
-1008.769294156278
 20
-1111.918741860313
 11
-1008.769294156278
 21
-1114.972551384124
 72
     1
 10
-1008.769294156278
 20
-1114.972551384124
 11
-1007.576501454112
 21
-1114.972551384124
 72
     1
 10
-1007.576501454112
 20
-1114.972551384124
 11
-1007.576501454112
 21
-1113.663775873919
 72
     1
 10
-1007.576501454112
 20
-1113.663775873919
 11
-1006.335997043858
 21
-1114.972551384124
 72
     1
 10
-1006.335997043858
 20
-1114.972551384124
 11
-1005.143204341691
 21
-1114.972551384124
 72
     1
 10
-1005.143204341691
 20
-1114.972551384124
 11
-1005.143204341691
 21
-1111.918741860313
 72
     1
 10
-1005.143204341691
 20
-1111.918741860313
 11
-1006.335997043858
 21
-1111.918741860313
 72
     1
 10
-1006.335997043858
 20
-1111.918741860313
 11
-1006.335997043858
 21
-1113.227517370518
 72
     1
 10
-1006.335997043858
 20
-1113.227517370518
 11
-1007.576501454112
 21
-1111.918741860313
 97
       10
330
2DF
330
2A9
330
2AA
330
2AB
330
2AC
330
2E2
330
2A7
330
2E1
330
2E0
330
2A8
 75
     1
 76
     0
 52
45.0
 41
0.1
 77
     0
 78
     1
 53
45.0
 43
0.0
 44
0.0
 45
-0.0707106781186548
 46
0.0707106781186548
 79
     0
 98
        1
 10
0.0
 20
0.0
  0
HATCH
  5
3BB
330
71
100
AcDbEntity
  8
1
  6
Continuous
 62
     2
100
AcDbHatch
 10
0.0
 20
0.0
 30
0.0
210
0.0
220
0.0
230
1.0
  2
_USER
 70
     0
 71
     1
 91
        1
 92
        1
 93
       10
 72
     1
 10
-1007.576501454112
 20
-1111.918741860313
 11
-1008.769294156278
 21
-1111.918741860313
 72
     1
 10
-1008.769294156278
 20
-1111.918741860313
 11
-1008.769294156278
 21
-1114.972551384124
 72
     1
 10
-1008.769294156278
 20
-1114.972551384124
 11
-1007.576501454112
 21
-1114.972551384124
 72
     1
 10
-1007.576501454112
 20
-1114.972551384124
 11
-1007.576501454112
 21
-1113.663775873919
 72
     1
 10
-1007.576501454112
 20
-1113.663775873919
 11
-1006.335997043858
 21
-1114.972551384124
 72
     1
 10
-1006.335997043858
 20
-1114.972551384124
 11
-1005.143204341691
 21
-1114.972551384124
 72
     1
 10
-1005.143204341691
 20
-1114.972551384124
 11
-1005.143204341691
 21
-1111.918741860313
 72
     1
 10
-1005.143204341691
 20
-1111.918741860313
 11
-1006.335997043858
 21
-1111.918741860313
 72
     1
 10
-1006.335997043858
 20
-1111.918741860313
 11
-1006.335997043858
 21
-1113.227517370518
 72
     1
 10
-1006.335997043858
 20
-1113.227517370518
 11
-1007.576501454112
 21
-1111.918741860313
 97
       10
330
2DF
330
2A9
330
2AA
330
2AB
330
2AC
330
2E2
330
2A7
330
2E1
330
2E0
330
2A8
 75
     1
 76
     0
 52
45.0
 41
0.1
 77
     0
 78
     1
 53
45.0
 43
0.0
 44
0.0
 45
-0.0707106781186548
 46
0.0707106781186548
 79
     0
 98
        1
 10
0.0
 20
0.0
  0
HATCH
  5
3BC
330
71
100
AcDbEntity
  8
1
  6
Continuous
 62
     2
100
AcDbHatch
 10
0.0
 20
0.0
 30
0.0
210
0.0
220
0.0
230
1.0
  2
_USER
 70
     0
 71
     1
 91
        1
 92
        1
 93
       10
 72
     1
 10
-1012.82494027453
 20
-1115.277932336487
 11
-1014.017732976698
 21
-1115.277932336487
 72
     1
 10
-1014.017732976698
 20
-1115.277932336487
 11
-1014.017732976698
 21
-1118.331741860298
 72
     1
 10
-1014.017732976698
 20
-1118.331741860298
 11
-1012.82494027453
 21
-1118.331741860298
 72
     1
 10
-1012.82494027453
 20
-1118.331741860298
 11
-1012.82494027453
 21
-1117.022966350094
 72
     1
 10
-1012.82494027453
 20
-1117.022966350094
 11
-1011.584435864278
 21
-1118.331741860298
 72
     1
 10
-1011.584435864278
 20
-1118.331741860298
 11
-1010.391643162111
 21
-1118.331741860298
 72
     1
 10
-1010.391643162111
 20
-1118.331741860298
 11
-1010.391643162111
 21
-1115.277932336487
 72
     1
 10
-1010.391643162111
 20
-1115.277932336487
 11
-1011.584435864278
 21
-1115.277932336487
 72
     1
 10
-1011.584435864278
 20
-1115.277932336487
 11
-1011.584435864278
 21
-1116.586707846692
 72
     1
 10
-1011.584435864278
 20
-1116.586707846692
 11
-1012.82494027453
 21
-1115.277932336487
 97
       10
330
2AE
330
2AF
330
2B0
330
2DC
330
2B1
330
2B2
330
2DB
330
2DE
330
2DD
330
2AD
 75
     1
 76
     0
 52
45.0
 41
0.1
 77
     0
 78
     1
 53
45.0
 43
0.0
 44
0.0
 45
-0.0707106781186548
 46
0.0707106781186548
 79
     0
 98
        1
 10
0.0
 20
0.0
  0
HATCH
  5
3BD
330
71
100
AcDbEntity
  8
1
  6
Continuous
 62
     2
100
AcDbHatch
 10
0.0
 20
0.0
 30
0.0
210
0.0
220
0.0
230
1.0
  2
_USER
 70
     0
 71
     1
 91
        1
 92
        1
 93
       10
 72
     1
 10
-1012.82494027453
 20
-1115.277932336487
 11
-1014.017732976698
 21
-1115.277932336487
 72
     1
 10
-1014.017732976698
 20
-1115.277932336487
 11
-1014.017732976698
 21
-1118.331741860298
 72
     1
 10
-1014.017732976698
 20
-1118.331741860298
 11
-1012.82494027453
 21
-1118.331741860298
 72
     1
 10
-1012.82494027453
 20
-1118.331741860298
 11
-1012.82494027453
 21
-1117.022966350094
 72
     1
 10
-1012.82494027453
 20
-1117.022966350094
 11
-1011.584435864278
 21
-1118.331741860298
 72
     1
 10
-1011.584435864278
 20
-1118.331741860298
 11
-1010.391643162111
 21
-1118.331741860298
 72
     1
 10
-1010.391643162111
 20
-1118.331741860298
 11
-1010.391643162111
 21
-1115.277932336487
 72
     1
 10
-1010.391643162111
 20
-1115.277932336487
 11
-1011.584435864278
 21
-1115.277932336487
 72
     1
 10
-1011.584435864278
 20
-1115.277932336487
 11
-1011.584435864278
 21
-1116.586707846692
 72
     1
 10
-1011.584435864278
 20
-1116.586707846692
 11
-1012.82494027453
 21
-1115.277932336487
 97
       10
330
2AE
330
2AF
330
2B0
330
2DC
330
2B1
330
2B2
330
2DB
330
2DE
330
2DD
330
2AD
 75
     1
 76
     0
 52
45.0
 41
0.1
 77
     0
 78
     1
 53
45.0
 43
0.0
 44
0.0
 45
-0.0707106781186548
 46
0.0707106781186548
 79
     0
 98
        1
 10
0.0
 20
0.0
  0
HATCH
  5
3BE
330
71
100
AcDbEntity
  8
1
  6
Continuous
 62
     2
100
AcDbHatch
 10
0.0
 20
0.0
 30
0.0
210
0.0
220
0.0
230
1.0
  2
_USER
 70
     0
 71
     1
 91
        1
 92
        1
 93
       12
 72
     1
 10
-1013.826735213466
 20
-1111.918741860313
 11
-1013.826735213466
 21
-1114.972551384124
 72
     1
 10
-1013.826735213466
 20
-1114.972551384124
 11
-1015.019527915632
 21
-1114.972551384124
 72
     1
 10
-1015.019527915632
 20
-1114.972551384124
 11
-1015.019527915632
 21
-1113.83827927528
 72
     1
 10
-1015.019527915632
 20
-1113.83827927528
 11
-1016.06918549354
 21
-1113.83827927528
 72
     1
 10
-1016.06918549354
 20
-1113.83827927528
 11
-1016.06918549354
 21
-1114.972551384124
 72
     1
 10
-1016.06918549354
 20
-1114.972551384124
 11
-1017.261978195706
 21
-1114.972551384124
 72
     1
 10
-1017.261978195706
 20
-1114.972551384124
 11
-1017.261978195706
 21
-1111.918741860313
 72
     1
 10
-1017.261978195706
 20
-1111.918741860313
 11
-1016.06918549354
 21
-1111.918741860313
 72
     1
 10
-1016.06918549354
 20
-1111.918741860313
 11
-1016.06918549354
 21
-1112.987575193647
 72
     1
 10
-1016.06918549354
 20
-1112.987575193647
 11
-1015.019527915632
 21
-1112.987575193647
 72
     1
 10
-1015.019527915632
 20
-1112.987575193647
 11
-1015.019527915632
 21
-1111.918741860313
 72
     1
 10
-1015.019527915632
 20
-1111.918741860313
 11
-1013.826735213466
 21
-1111.918741860313
 97
       12
330
2D6
330
2D5
330
2D4
330
2BC
330
2BD
330
2D3
330
2BE
330
2D2
330
2D1
330
2D0
330
2BA
330
2BB
 75
     1
 76
     0
 52
45.0
 41
0.1
 77
     0
 78
     1
 53
45.0
 43
0.0
 44
0.0
 45
-0.0707106781186548
 46
0.0707106781186548
 79
     0
 98
        1
 10
0.0
 20
0.0
  0
HATCH
  5
3BF
330
71
100
AcDbEntity
  8
1
  6
Continuous
 62
     2
100
AcDbHatch
 10
0.0
 20
0.0
 30
0.0
210
0.0
220
0.0
230
1.0
  2
_USER
 70
     0
 71
     1
 91
        1
 92
        1
 93
       12
 72
     1
 10
-1013.826735213466
 20
-1111.918741860313
 11
-1013.826735213466
 21
-1114.972551384124
 72
     1
 10
-1013.826735213466
 20
-1114.972551384124
 11
-1015.019527915632
 21
-1114.972551384124
 72
     1
 10
-1015.019527915632
 20
-1114.972551384124
 11
-1015.019527915632
 21
-1113.83827927528
 72
     1
 10
-1015.019527915632
 20
-1113.83827927528
 11
-1016.06918549354
 21
-1113.83827927528
 72
     1
 10
-1016.06918549354
 20
-1113.83827927528
 11
-1016.06918549354
 21
-1114.972551384124
 72
     1
 10
-1016.06918549354
 20
-1114.972551384124
 11
-1017.261978195706
 21
-1114.972551384124
 72
     1
 10
-1017.261978195706
 20
-1114.972551384124
 11
-1017.261978195706
 21
-1111.918741860313
 72
     1
 10
-1017.261978195706
 20
-1111.918741860313
 11
-1016.06918549354
 21
-1111.918741860313
 72
     1
 10
-1016.06918549354
 20
-1111.918741860313
 11
-1016.06918549354
 21
-1112.987575193647
 72
     1
 10
-1016.06918549354
 20
-1112.987575193647
 11
-1015.019527915632
 21
-1112.987575193647
 72
     1
 10
-1015.019527915632
 20
-1112.987575193647
 11
-1015.019527915632
 21
-1111.918741860313
 72
     1
 10
-1015.019527915632
 20
-1111.918741860313
 11
-1013.826735213466
 21
-1111.918741860313
 97
       12
330
2D6
330
2D5
330
2D4
330
2BC
330
2BD
330
2D3
330
2BE
330
2D2
330
2D1
330
2D0
330
2BA
330
2BB
 75
     1
 76
     0
 52
45.0
 41
0.1
 77
     0
 78
     1
 53
45.0
 43
0.0
 44
0.0
 45
-0.0707106781186548
 46
0.0707106781186548
 79
     0
 98
        1
 10
0.0
 20
0.0
  0
ENDBLK
  5
73
330
71
100
AcDbEntity
  8
0
100
AcDbBlockEnd
  0
BLOCK
  5
75
330
74
100
AcDbEntity
  8
0
100
AcDbBlockBegin
  2
_punkt
 70
     0
 10
-901.9494313996769
 20
-1125.625241860314
 30
0.0
  3
_punkt
  1

  0
LINE
  5
3C0
330
74
100
AcDbEntity
  8
1
  6
Continuous
 62
     2
100
AcDbLine
 10
-901.9494313996769
 20
-1125.625241860314
 30
0.0
 11
-901.9494313996769
 21
-1130.625241860314
 31
0.0
  0
LINE
  5
3C1
330
74
100
AcDbEntity
  8
1
  6
Continuous
 62
     2
100
AcDbLine
 10
-901.9494313996769
 20
-1125.625241860314
 30
0.0
 11
-896.9494313996779
 21
-1125.625241860314
 31
0.0
  0
ENDBLK
  5
76
330
74
100
AcDbEntity
  8
0
100
AcDbBlockEnd
  0
BLOCK
  5
7A
330
77
100
AcDbEntity
  8
0
100
AcDbBlockBegin
  2
A4I_CS
 70
     0
 10
-901.9494313996769
 20
-1130.625241860314
 30
0.0
  3
A4I_CS
  1

  0
INSERT
  5
78
330
77
100
AcDbEntity
  8
1
100
AcDbBlockReference
  2
_rahmen
 10
-901.9494313996769
 20
-1130.625241860314
 30
0.0
  0
INSERT
  5
79
330
77
100
AcDbEntity
  8
1
100
AcDbBlockReference
  2
_punkt
 10
-901.9494313996769
 20
-1125.625241860314
 30
0.0
  0
ENDBLK
  5
7B
330
77
100
AcDbEntity
  8
0
100
AcDbBlockEnd
  0
BLOCK
  5
84
330
7C
100
AcDbEntity
  8
0
100
AcDbBlockBegin
  2
1
 70
     0
 10
0.0
 20
0.0
 30
0.0
  3
1
  1

  0
INSERT
  5
7D
330
7C
100
AcDbEntity
  8
0
100
AcDbBlockReference
  2
AllgSicht1
 10
-956.9999999999899
 20
-1055.000000000067
 30
0.0
  0
INSERT
  5
7E
330
7C
100
AcDbEntity
  8
0
100
AcDbBlockReference
  2
Drfsicht1
 10
-1070.0
 20
-1055.189837946398
 30
0.0
  0
INSERT
  5
7F
330
7C
100
AcDbEntity
  8
0
100
AcDbBlockReference
  2
Rckans1
 10
-935.8988632819347
 20
-970.1499998570389
 30
0.0
  0
INSERT
  5
80
330
7C
100
AcDbEntity
  8
0
100
AcDbBlockReference
  2
SA_Links1
 10
-1002.065599441553
 20
-970.1499998570389
 30
0.0
  0
INSERT
  5
81
330
7C
100
AcDbEntity
  8
0
100
AcDbBlockReference
  2
SA_Rechts1
 10
-1151.934400558442
 20
-970.1499998570389
 30
0.0
  0
INSERT
  5
82
330
7C
100
AcDbEntity
  8
0
100
AcDbBlockReference
  2
Vordans1
 10
-1070.0
 20
-970.1499998570388
 30
0.0
  0
INSERT
  5
83
330
7C
100
AcDbEntity
  8
0
100
AcDbBlockReference
  2
A4I_CS
 10
-901.9494313996769
 20
-1130.625241860314
 30
0.0
  0
ENDBLK
  5
85
330
7C
100
AcDbEntity
  8
0
100
AcDbBlockEnd
  0
BLOCK
  5
160
330
159
100
AcDbEntity
  8
0
100
AcDbBlockBegin
  2
*D17
 70
     1
 10
0.0
 20
0.0
 30
0.0
  3
*D17
  1

  0
LINE
  5
15A
330
159
100
AcDbEntity
  8
1
  6
Continuous
 62
     2
100
AcDbLine
 10
-1112.32613024861
 20
-1027.189837905371
 30
0.0
 11
-1112.32613024861
 21
-1083.189837905371
 31
0.0
  0
LINE
  5
15B
330
159
100
AcDbEntity
  8
1
  6
Continuous
 62
     2
100
AcDbLine
 10
-1075.0
 20
-1083.189837905371
 30
0.0
 11
-1113.82613024861
 21
-1083.189837905371
 31
0.0
  0
LINE
  5
15C
330
159
100
AcDbEntity
  8
1
  6
Continuous
 62
     2
100
AcDbLine
 10
-1075.0
 20
-1027.189837905371
 30
0.0
 11
-1113.82613024861
 21
-1027.189837905371
 31
0.0
  0
SOLID
  5
15D
330
159
100
AcDbEntity
  8
1
 62
     2
100
AcDbTrace
 10
-1111.865346507054
 20
-1030.689837905371
 30
0.0
 11
-1112.786913990166
 21
-1030.689837905371
 31
0.0
 12
-1112.32613024861
 22
-1027.189837905371
 32
0.0
 13
-1112.32613024861
 23
-1027.189837905371
 33
0.0
  0
SOLID
  5
15E
330
159
100
AcDbEntity
  8
1
 62
     2
100
AcDbTrace
 10
-1112.786913990166
 20
-1079.689837905371
 30
0.0
 11
-1111.865346507054
 21
-1079.689837905371
 31
0.0
 12
-1112.32613024861
 22
-1083.189837905371
 32
0.0
 13
-1112.32613024861
 23
-1083.189837905371
 33
0.0
  0
MTEXT
  5
15F
330
159
100
AcDbEntity
  8
1
 62
     3
100
AcDbMText
 10
-1113.82613024861
 20
-1057.29140868099
 30
0.0
 40
3.5
 41
0.0
 71
     7
 72
     1
  1
56
  7
CONVERTER_11
 11
0.0
 21
1.0
 31
0.0
 73
     1
 44
0.60024009603842
  0
ENDBLK
  5
161
330
159
100
AcDbEntity
  8
0
100
AcDbBlockEnd
  0
BLOCK
  5
16D
330
164
100
AcDbEntity
  8
0
100
AcDbBlockBegin
  2
*D18
 70
     1
 10
0.0
 20
0.0
 30
0.0
  3
*D18
  1

  0
LINE
  5
165
330
164
100
AcDbEntity
  8
1
  6
Continuous
 62
     2
100
AcDbLine
 10
-1105.32613024861
 20
-1060.389837905371
 30
0.0
 11
-1105.32613024861
 21
-1067.389837905371
 31
0.0
  0
LINE
  5
166
330
164
100
AcDbEntity
  8
1
  6
Continuous
 62
     2
100
AcDbLine
 10
-1105.32613024861
 20
-1049.989837905371
 30
0.0
 11
-1105.32613024861
 21
-1060.389837905371
 31
0.0
  0
LINE
  5
167
330
164
100
AcDbEntity
  8
1
  6
Continuous
 62
     2
100
AcDbLine
 10
-1105.32613024861
 20
-1042.989837905371
 30
0.0
 11
-1105.32613024861
 21
-1049.989837905371
 31
0.0
  0
LINE
  5
168
330
164
100
AcDbEntity
  8
1
  6
Continuous
 62
     2
100
AcDbLine
 10
-1091.000000000001
 20
-1060.389837905371
 30
0.0
 11
-1106.82613024861
 21
-1060.389837905371
 31
0.0
  0
LINE
  5
169
330
164
100
AcDbEntity
  8
1
  6
Continuous
 62
     2
100
AcDbLine
 10
-1091.000000000001
 20
-1049.989837905371
 30
0.0
 11
-1106.82613024861
 21
-1049.989837905371
 31
0.0
  0
SOLID
  5
16A
330
164
100
AcDbEntity
  8
1
 62
     2
100
AcDbTrace
 10
-1105.786913990166
 20
-1046.489837905371
 30
0.0
 11
-1104.865346507054
 21
-1046.489837905371
 31
0.0
 12
-1105.32613024861
 22
-1049.989837905371
 32
0.0
 13
-1105.32613024861
 23
-1049.989837905371
 33
0.0
  0
SOLID
  5
16B
330
164
100
AcDbEntity
  8
1
 62
     2
100
AcDbTrace
 10
-1104.865346507054
 20
-1063.889837905371
 30
0.0
 11
-1105.786913990166
 21
-1063.889837905371
 31
0.0
 12
-1105.32613024861
 22
-1060.389837905371
 32
0.0
 13
-1105.32613024861
 23
-1060.389837905371
 33
0.0
  0
MTEXT
  5
16C
330
164
100
AcDbEntity
  8
1
 62
     3
100
AcDbMText
 10
-1107.17613024861
 20
-1058.95390868099
 30
0.0
 40
3.5
 41
0.0
 71
     7
 72
     1
  1
10,4
  7
CONVERTER_11
 11
0.0
 21
1.0
 31
0.0
 73
     1
 44
0.60024009603842
  0
ENDBLK
  5
16E
330
164
100
AcDbEntity
  8
0
100
AcDbBlockEnd
  0
BLOCK
  5
259
330
252
100
AcDbEntity
  8
0
100
AcDbBlockBegin
  2
*D19
 70
     1
 10
0.0
 20
0.0
 30
0.0
  3
*D19
  1

  0
LINE
  5
253
330
252
100
AcDbEntity
  8
1
  6
Continuous
 62
     2
100
AcDbLine
 10
-1112.32613024861
 20
-986.9999997299199
 30
0.0
 11
-1112.32613024861
 21
-953.2999997503088
 31
0.0
  0
LINE
  5
254
330
252
100
AcDbEntity
  8
1
  6
Continuous
 62
     2
100
AcDbLine
 10
-1074.912724675359
 20
-953.2999997503088
 30
0.0
 11
-1113.82613024861
 21
-953.2999997503088
 31
0.0
  0
LINE
  5
255
330
252
100
AcDbEntity
  8
1
  6
Continuous
 62
     2
100
AcDbLine
 10
-1086.289355201445
 20
-986.9999997299199
 30
0.0
 11
-1113.82613024861
 21
-986.9999997299199
 31
0.0
  0
SOLID
  5
256
330
252
100
AcDbEntity
  8
1
 62
     2
100
AcDbTrace
 10
-1112.786913990166
 20
-983.4999997299199
 30
0.0
 11
-1111.865346507054
 21
-983.4999997299199
 31
0.0
 12
-1112.32613024861
 22
-986.9999997299199
 32
0.0
 13
-1112.32613024861
 23
-986.9999997299199
 33
0.0
  0
SOLID
  5
257
330
252
100
AcDbEntity
  8
1
 62
     2
100
AcDbTrace
 10
-1111.865346507054
 20
-956.7999997503088
 30
0.0
 11
-1112.786913990166
 21
-956.7999997503088
 31
0.0
 12
-1112.32613024861
 22
-953.2999997503088
 32
0.0
 13
-1112.32613024861
 23
-953.2999997503088
 33
0.0
  0
MTEXT
  5
258
330
252
100
AcDbEntity
  8
1
 62
     3
100
AcDbMText
 10
-1114.17613024861
 20
-974.224407632012
 30
0.0
 40
3.5
 41
0.0
 71
     7
 72
     1
  1
33,7
  7
CONVERTER_11
 11
0.0
 21
1.0
 31
0.0
 73
     1
 44
0.60024009603842
  0
ENDBLK
  5
25A
330
252
100
AcDbEntity
  8
0
100
AcDbBlockEnd
  0
BLOCK
  5
264
330
25D
100
AcDbEntity
  8
0
100
AcDbBlockBegin
  2
*D20
 70
     1
 10
0.0
 20
0.0
 30
0.0
  3
*D20
  1

  0
LINE
  5
25E
330
25D
100
AcDbEntity
  8
1
  6
Continuous
 62
     2
100
AcDbLine
 10
-1045.06559900001
 20
-1014.44194680819
 30
0.0
 11
-1094.934400999995
 21
-1014.44194680819
 31
0.0
  0
LINE
  5
25F
330
25D
100
AcDbEntity
  8
1
  6
Continuous
 62
     2
100
AcDbLine
 10
-1045.06559900001
 20
-986.9999997299199
 30
0.0
 11
-1045.06559900001
 21
-1015.94194680819
 31
0.0
  0
LINE
  5
260
330
25D
100
AcDbEntity
  8
1
  6
Continuous
 62
     2
100
AcDbLine
 10
-1094.934400999995
 20
-986.9999997299199
 30
0.0
 11
-1094.934400999995
 21
-1015.94194680819
 31
0.0
  0
SOLID
  5
261
330
25D
100
AcDbEntity
  8
1
 62
     2
100
AcDbTrace
 10
-1048.56559900001
 20
-1014.902730549746
 30
0.0
 11
-1048.56559900001
 21
-1013.981163066634
 31
0.0
 12
-1045.06559900001
 22
-1014.44194680819
 32
0.0
 13
-1045.06559900001
 23
-1014.44194680819
 33
0.0
  0
SOLID
  5
262
330
25D
100
AcDbEntity
  8
1
 62
     2
100
AcDbTrace
 10
-1091.434400999995
 20
-1013.981163066634
 30
0.0
 11
-1091.434400999995
 21
-1014.902730549746
 31
0.0
 12
-1094.934400999995
 22
-1014.44194680819
 32
0.0
 13
-1094.934400999995
 23
-1014.44194680819
 33
0.0
  0
MTEXT
  5
263
330
25D
100
AcDbEntity
  8
1
 62
     3
100
AcDbMText
 10
-1076.22032055907
 20
-1012.59194680819
 30
0.0
 40
3.5
 41
0.0
 71
     7
 72
     1
  1
49,9
  7
CONVERTER_11
 11
0.9999999999970619
 21
2.424068405545306E-6
 31
0.0
 73
     1
 44
0.60024009603842
  0
ENDBLK
  5
265
330
25D
100
AcDbEntity
  8
0
100
AcDbBlockEnd
  0
BLOCK
  5
26F
330
268
100
AcDbEntity
  8
0
100
AcDbBlockBegin
  2
*D21
 70
     1
 10
0.0
 20
0.0
 30
0.0
  3
*D21
  1

  0
LINE
  5
269
330
268
100
AcDbEntity
  8
1
  6
Continuous
 62
     2
100
AcDbLine
 10
-1070.0
 20
-1005.00877654599
 30
0.0
 11
-1045.06559900001
 21
-1005.00877654599
 31
0.0
  0
LINE
  5
26A
330
268
100
AcDbEntity
  8
1
  6
Continuous
 62
     2
100
AcDbLine
 10
-1070.0
 20
-985.2000000519486
 30
0.0
 11
-1070.0
 21
-1006.50877654599
 31
0.0
  0
LINE
  5
26B
330
268
100
AcDbEntity
  8
1
  6
Continuous
 62
     2
100
AcDbLine
 10
-1045.06559900001
 20
-986.9999997299198
 30
0.0
 11
-1045.06559900001
 21
-1006.50877654599
 31
0.0
  0
SOLID
  5
26C
330
268
100
AcDbEntity
  8
1
 62
     2
100
AcDbTrace
 10
-1066.5
 20
-1004.547992804434
 30
0.0
 11
-1066.5
 21
-1005.469560287546
 31
0.0
 12
-1070.0
 22
-1005.00877654599
 32
0.0
 13
-1070.0
 23
-1005.00877654599
 33
0.0
  0
SOLID
  5
26D
330
268
100
AcDbEntity
  8
1
 62
     2
100
AcDbTrace
 10
-1048.56559900001
 20
-1005.469560287546
 30
0.0
 11
-1048.56559900001
 21
-1004.547992804434
 31
0.0
 12
-1045.06559900001
 22
-1005.00877654599
 32
0.0
 13
-1045.06559900001
 23
-1005.00877654599
 33
0.0
  0
MTEXT
  5
26E
330
268
100
AcDbEntity
  8
1
 62
     3
100
AcDbMText
 10
-1063.91254168262
 20
-1003.15877654599
 30
0.0
 40
3.5
 41
0.0
 71
     7
 72
     1
  1
24,95
  7
CONVERTER_11
 11
0.9999999999970619
 21
2.424068405545306E-6
 31
0.0
 73
     1
 44
0.60024009603842
  0
ENDBLK
  5
270
330
268
100
AcDbEntity
  8
0
100
AcDbBlockEnd
  0
BLOCK
  5
27A
330
273
100
AcDbEntity
  8
0
100
AcDbBlockBegin
  2
*D22
 70
     1
 10
0.0
 20
0.0
 30
0.0
  3
*D22
  1

  0
LINE
  5
274
330
273
100
AcDbEntity
  8
1
  6
Continuous
 62
     2
100
AcDbLine
 10
-1070.0
 20
-995.352607639438
 30
0.0
 11
-1052.45
 21
-995.352607639438
 31
0.0
  0
LINE
  5
275
330
273
100
AcDbEntity
  8
1
  6
Continuous
 62
     2
100
AcDbLine
 10
-1052.45
 20
-983.0000000519486
 30
0.0
 11
-1052.45
 21
-996.852607639438
 31
0.0
  0
LINE
  5
276
330
273
100
AcDbEntity
  8
1
  6
Continuous
 62
     2
100
AcDbLine
 10
-1070.0
 20
-985.2000000519487
 30
0.0
 11
-1070.0
 21
-996.852607639438
 31
0.0
  0
SOLID
  5
277
330
273
100
AcDbEntity
  8
1
 62
     2
100
AcDbTrace
 10
-1066.5
 20
-994.8918238978821
 30
0.0
 11
-1066.5
 21
-995.813391380994
 31
0.0
 12
-1070.0
 22
-995.352607639438
 32
0.0
 13
-1070.0
 23
-995.352607639438
 33
0.0
  0
SOLID
  5
278
330
273
100
AcDbEntity
  8
1
 62
     2
100
AcDbTrace
 10
-1055.95
 20
-995.813391380994
 30
0.0
 11
-1055.95
 21
-994.8918238978821
 31
0.0
 12
-1052.45
 22
-995.352607639438
 32
0.0
 13
-1052.45
 23
-995.352607639438
 33
0.0
  0
MTEXT
  5
279
330
273
100
AcDbEntity
  8
1
 62
     3
100
AcDbMText
 10
-1066.35825580313
 20
-993.5026076394381
 30
0.0
 40
3.5
 41
0.0
 71
     7
 72
     1
  1
17,55
  7
CONVERTER_11
 11
0.9999999999970619
 21
2.424068405545306E-6
 31
0.0
 73
     1
 44
0.60024009603842
  0
ENDBLK
  5
27B
330
273
100
AcDbEntity
  8
0
100
AcDbBlockEnd
  0
BLOCK
  5
285
330
27E
100
AcDbEntity
  8
0
100
AcDbBlockBegin
  2
*D23
 70
     1
 10
0.0
 20
0.0
 30
0.0
  3
*D23
  1

  0
LINE
  5
27F
330
27E
100
AcDbEntity
  8
1
  6
Continuous
 62
     2
100
AcDbLine
 10
-1104.32613024861
 20
-983.0000000519486
 30
0.0
 11
-1104.32613024861
 21
-953.2999997503088
 31
0.0
  0
LINE
  5
280
330
27E
100
AcDbEntity
  8
1
  6
Continuous
 62
     2
100
AcDbLine
 10
-1074.912724675359
 20
-953.2999997503088
 30
0.0
 11
-1106.32613024861
 21
-953.2999997503088
 31
0.0
  0
LINE
  5
281
330
27E
100
AcDbEntity
  8
1
  6
Continuous
 62
     2
100
AcDbLine
 10
-1087.550000000001
 20
-983.0000000519486
 30
0.0
 11
-1106.32613024861
 21
-983.0000000519486
 31
0.0
  0
SOLID
  5
282
330
27E
100
AcDbEntity
  8
1
 62
     2
100
AcDbTrace
 10
-1104.786913990166
 20
-979.5000000519486
 30
0.0
 11
-1103.865346507054
 21
-979.5000000519486
 31
0.0
 12
-1104.32613024861
 22
-983.0000000519486
 32
0.0
 13
-1104.32613024861
 23
-983.0000000519486
 33
0.0
  0
SOLID
  5
283
330
27E
100
AcDbEntity
  8
1
 62
     2
100
AcDbTrace
 10
-1103.865346507054
 20
-956.7999997503088
 30
0.0
 11
-1104.786913990166
 21
-956.7999997503088
 31
0.0
 12
-1104.32613024861
 22
-953.2999997503088
 32
0.0
 13
-1104.32613024861
 23
-953.2999997503088
 33
0.0
  0
MTEXT
  5
284
330
27E
100
AcDbEntity
  8
1
 62
     3
100
AcDbMText
 10
-1106.67613024861
 20
-971.703364804763
 30
0.0
 40
3.5
 41
0.0
 71
     7
 72
     1
  1
29,7
  7
CONVERTER_11
 11
0.0
 21
1.0
 31
0.0
 73
     1
 44
0.60024009603842
  0
ENDBLK
  5
286
330
27E
100
AcDbEntity
  8
0
100
AcDbBlockEnd
  0
ENDSEC
  0
SECTION
  2
ENTITIES
  0
INSERT
  5
86
330
1F
100
AcDbEntity
  8
1
100
AcDbBlockReference
  2
1
 10
0.0
 20
0.0
 30
0.0
  0
ENDSEC
  0
SECTION
  2
OBJECTS
  0
DICTIONARY
  5
C
330
0
100
AcDbDictionary
281
     1
  3
ACAD_GROUP
350
D
  3
ACAD_LAYOUT
350
1A
  3
ACAD_MATERIAL
350
3B
  3
ACAD_MLEADERSTYLE
350
3E9
  3
ACAD_MLINESTYLE
350
17
  3
ACAD_PLOTSETTINGS
350
19
  3
ACAD_PLOTSTYLENAME
350
E
  3
ACAD_TABLESTYLE
350
3E8
  3
ACAD_VISUALSTYLE
350
2A
  0
DICTIONARY
  5
D
102
{ACAD_REACTORS
330
C
102
}
330
C
100
AcDbDictionary
281
     1
  0
DICTIONARY
  5
1A
102
{ACAD_REACTORS
330
C
102
}
330
C
100
AcDbDictionary
281
     1
  3
Layout1
350
1E
  3
Layout2
350
26
  3
Model
350
22
  0
DICTIONARY
  5
3B
102
{ACAD_REACTORS
330
C
102
}
330
C
100
AcDbDictionary
281
     1
  3
ByBlock
350
3D
  3
ByLayer
350
3C
  3
Global
350
3E
  0
DICTIONARY
  5
3E9
102
{ACAD_REACTORS
330
C
102
}
330
C
100
AcDbDictionary
281
     1
  0
DICTIONARY
  5
17
102
{ACAD_REACTORS
330
C
102
}
330
C
100
AcDbDictionary
281
     1
  3
Standard
350
18
  0
DICTIONARY
  5
19
102
{ACAD_REACTORS
330
C
102
}
330
C
100
AcDbDictionary
281
     1
  0
ACDBDICTIONARYWDFLT
  5
E
102
{ACAD_REACTORS
330
C
102
}
330
C
100
AcDbDictionary
281
     1
  3
Normal
350
F
100
AcDbDictionaryWithDefault
340
F
  0
DICTIONARY
  5
3E8
102
{ACAD_REACTORS
330
C
102
}
330
C
100
AcDbDictionary
281
     1
  0
DICTIONARY
  5
2A
102
{ACAD_REACTORS
330
C
102
}
330
C
100
AcDbDictionary
281
     1
  3
2dWireframe
350
2F
  3
3D Hidden
350
31
  3
3dWireframe
350
30
  3
Basic
350
32
  3
Brighten
350
36
  3
ColorChange
350
3A
  3
Conceptual
350
34
  3
Dim
350
35
  3
Facepattern
350
39
  3
Flat
350
2B
  3
FlatWithEdges
350
2C
  3
Gouraud
350
2D
  3
GouraudWithEdges
350
2E
  3
Linepattern
350
38
  3
Realistic
350
33
  3
Thicken
350
37
  0
LAYOUT
  5
1E
102
{ACAD_REACTORS
330
1A
102
}
330
1A
100
AcDbPlotSettings
  1

  2
none_device
  4

  6

 40
0.0
 41
0.0
 42
0.0
 43
0.0
 44
0.0
 45
0.0
 46
0.0
 47
0.0
 48
0.0
 49
0.0
140
0.0
141
0.0
142
1.0
143
1.0
 70
   688
 72
     0
 73
     0
 74
     5
  7

 75
    16
 76
     0
 77
     2
 78
   300
147
1.0
148
0.0
149
0.0
100
AcDbLayout
  1
Layout1
 70
     1
 71
     1
 10
0.0
 20
0.0
 11
12.0
 21
9.0
 12
0.0
 22
0.0
 32
0.0
 14
1.00000000000000E+20
 24
1.00000000000000E+20
 34
1.00000000000000E+20
 15
-1.00000000000000E+20
 25
-1.00000000000000E+20
 35
-1.00000000000000E+20
146
0.0
 13
0.0
 23
0.0
 33
0.0
 16
1.0
 26
0.0
 36
0.0
 17
0.0
 27
1.0
 37
0.0
 76
     0
330
1B
  0
LAYOUT
  5
26
102
{ACAD_REACTORS
330
1A
102
}
330
1A
100
AcDbPlotSettings
  1

  2
none_device
  4

  6

 40
0.0
 41
0.0
 42
0.0
 43
0.0
 44
0.0
 45
0.0
 46
0.0
 47
0.0
 48
0.0
 49
0.0
140
0.0
141
0.0
142
1.0
143
1.0
 70
   688
 72
     0
 73
     0
 74
     5
  7

 75
    16
 76
     0
 77
     2
 78
   300
147
1.0
148
0.0
149
0.0
100
AcDbLayout
  1
Layout2
 70
     1
 71
     2
 10
0.0
 20
0.0
 11
0.0
 21
0.0
 12
0.0
 22
0.0
 32
0.0
 14
0.0
 24
0.0
 34
0.0
 15
0.0
 25
0.0
 35
0.0
146
0.0
 13
0.0
 23
0.0
 33
0.0
 16
1.0
 26
0.0
 36
0.0
 17
0.0
 27
1.0
 37
0.0
 76
     0
330
23
  0
LAYOUT
  5
22
102
{ACAD_REACTORS
330
1A
102
}
330
1A
100
AcDbPlotSettings
  1

  2
none_device
  4

  6

 40
0.0
 41
0.0
 42
0.0
 43
0.0
 44
0.0
 45
0.0
 46
0.0
 47
0.0
 48
0.0
 49
0.0
140
0.0
141
0.0
142
1.0
143
1.0
 70
  1712
 72
     0
 73
     0
 74
     0
  7

 75
     0
 76
     0
 77
     2
 78
   300
147
1.0
148
0.0
149
0.0
100
AcDbLayout
  1
Model
 70
     1
 71
     0
 10
0.0
 20
0.0
 11
12.0
 21
9.0
 12
0.0
 22
0.0
 32
0.0
 14
-1193.949431399676
 24
-1130.625241860314
 34
0.0
 15
-896.9494313996779
 25
-920.6252418603144
 35
0.0
146
0.0
 13
0.0
 23
0.0
 33
0.0
 16
1.0
 26
0.0
 36
0.0
 17
0.0
 27
1.0
 37
0.0
 76
     0
330
1F
331
29
  0
MATERIAL
  5
3D
102
{ACAD_REACTORS
330
3B
102
}
102
{ACAD_XDICTIONARY
360
3E4
102
}
330
3B
100
AcDbMaterial
  1
ByBlock
  0
MATERIAL
  5
3C
102
{ACAD_REACTORS
330
3B
102
}
102
{ACAD_XDICTIONARY
360
3E2
102
}
330
3B
100
AcDbMaterial
  1
ByLayer
  0
MATERIAL
  5
3E
102
{ACAD_REACTORS
330
3B
102
}
102
{ACAD_XDICTIONARY
360
3E6
102
}
330
3B
100
AcDbMaterial
  1
Global
  0
MLINESTYLE
  5
18
102
{ACAD_REACTORS
330
17
102
}
330
17
100
AcDbMlineStyle
  2
Standard
 70
     0
  3

 62
   256
 51
90.0
 52
90.0
 71
     2
 49
0.5
 62
   256
  6
BYLAYER
 49
-0.5
 62
   256
  6
BYLAYER
  0
ACDBPLACEHOLDER
  5
F
102
{ACAD_REACTORS
330
E
102
}
330
E
  0
VISUALSTYLE
  5
2F
102
{ACAD_REACTORS
330
2A
102
}
102
{ACAD_XDICTIONARY
360
3CA
102
}
330
2A
100
AcDbVisualStyle
  2
2dWireframe
 70
     4
 71
     0
 72
     2
 73
     0
 90
        0
 40
-0.6
 41
-30.0
 62
     5
 63
     7
421
 16777215
 74
     1
 91
        4
 64
     7
 65
   257
 75
     1
175
     1
 42
1.0
 92
        0
 66
   257
 43
1.0
 76
     1
 77
     6
 78
     2
 67
     7
 79
     5
170
     0
171
     0
290
     0
174
     0
 93
        1
 44
0.0
173
     0
291
     0
 45
0.0
1001
ACAD
1000
AcDbSavedByObjectVersion
1070
     0
  0
VISUALSTYLE
  5
31
102
{ACAD_REACTORS
330
2A
102
}
102
{ACAD_XDICTIONARY
360
3CE
102
}
330
2A
100
AcDbVisualStyle
  2
3D Hidden
 70
     6
 71
     1
 72
     2
 73
     2
 90
        0
 40
-0.6
 41
-30.0
 62
     5
 63
     7
421
 16777215
 74
     2
 91
        2
 64
     7
 65
   257
 75
     2
175
     1
 42
40.0
 92
        0
 66
   257
 43
1.0
 76
     1
 77
     6
 78
     2
 67
     7
 79
     3
170
     0
171
     0
290
     0
174
     0
 93
        1
 44
0.0
173
     0
291
     0
 45
0.0
1001
ACAD
1000
AcDbSavedByObjectVersion
1070
     0
  0
VISUALSTYLE
  5
30
102
{ACAD_REACTORS
330
2A
102
}
102
{ACAD_XDICTIONARY
360
3CC
102
}
330
2A
100
AcDbVisualStyle
  2
3dWireframe
 70
     5
 71
     0
 72
     2
 73
     0
 90
        0
 40
-0.6
 41
-30.0
 62
     5
 63
     7
421
 16777215
 74
     1
 91
        4
 64
     7
 65
   257
 75
     1
175
     1
 42
1.0
 92
        0
 66
   257
 43
1.0
 76
     1
 77
     6
 78
     2
 67
     7
 79
     5
170
     0
171
     0
290
     0
174
     0
 93
        1
 44
0.0
173
     0
291
     0
 45
0.0
1001
ACAD
1000
AcDbSavedByObjectVersion
1070
     0
  0
VISUALSTYLE
  5
32
102
{ACAD_REACTORS
330
2A
102
}
102
{ACAD_XDICTIONARY
360
3D0
102
}
330
2A
100
AcDbVisualStyle
  2
Basic
 70
     7
 71
     1
 72
     0
 73
     1
 90
        0
 40
-0.6
 41
-30.0
 62
     5
 63
     7
421
 16777215
 74
     0
 91
        4
 64
     7
 65
   257
 75
     1
175
     1
 42
1.0
 92
        8
 66
     7
 43
1.0
 76
     1
 77
     6
 78
     2
 67
     7
 79
     5
170
     0
171
     0
290
     0
174
     0
 93
        1
 44
0.0
173
     0
291
     1
 45
0.0
1001
ACAD
1000
AcDbSavedByObjectVersion
1070
     0
  0
VISUALSTYLE
  5
36
102
{ACAD_REACTORS
330
2A
102
}
102
{ACAD_XDICTIONARY
360
3D8
102
}
330
2A
100
AcDbVisualStyle
  2
Brighten
 70
    12
 71
     2
 72
     2
 73
     0
 90
        0
 40
-0.6
 41
-30.0
 62
     5
 63
     7
421
 16777215
 74
     1
 91
        4
 64
     7
 65
   257
 75
     1
175
     1
 42
1.0
 92
        8
 66
     7
 43
1.0
 76
     1
 77
     6
 78
     2
 67
     7
 79
     5
170
     0
171
     0
290
     0
174
     0
 93
        1
 44
50.0
173
     0
291
     1
 45
0.0
1001
ACAD
1000
AcDbSavedByObjectVersion
1070
     0
  0
VISUALSTYLE
  5
3A
102
{ACAD_REACTORS
330
2A
102
}
102
{ACAD_XDICTIONARY
360
3E0
102
}
330
2A
100
AcDbVisualStyle
  2
ColorChange
 70
    16
 71
     2
 72
     2
 73
     3
 90
        0
 40
-0.6
 41
-30.0
 62
     5
 63
     8
421
  8421504
 74
     1
 91
        4
 64
     7
 65
   257
 75
     1
175
     1
 42
1.0
 92
        8
 66
     8
424
  8421504
 43
1.0
 76
     1
 77
     6
 78
     2
 67
     7
 79
     5
170
     0
171
     0
290
     0
174
     0
 93
        1
 44
0.0
173
     0
291
     1
 45
0.0
1001
ACAD
1000
AcDbSavedByObjectVersion
1070
     0
  0
VISUALSTYLE
  5
34
102
{ACAD_REACTORS
330
2A
102
}
102
{ACAD_XDICTIONARY
360
3D4
102
}
330
2A
100
AcDbVisualStyle
  2
Conceptual
 70
     9
 71
     3
 72
     2
 73
     0
 90
        0
 40
-0.6
 41
-30.0
 62
     5
 63
     7
421
 16777215
 74
     2
 91
        2
 64
     7
 65
   257
 75
     1
175
     1
 42
40.0
 92
        8
 66
     7
 43
1.0
 76
     1
 77
     6
 78
     2
 67
     7
 79
     3
170
     0
171
     0
290
     0
174
     0
 93
        1
 44
0.0
173
     0
291
     0
 45
0.0
1001
ACAD
1000
AcDbSavedByObjectVersion
1070
     0
  0
VISUALSTYLE
  5
35
102
{ACAD_REACTORS
330
2A
102
}
102
{ACAD_XDICTIONARY
360
3D6
102
}
330
2A
100
AcDbVisualStyle
  2
Dim
 70
    11
 71
     2
 72
     2
 73
     0
 90
        0
 40
-0.6
 41
-30.0
 62
     5
 63
     7
421
 16777215
 74
     1
 91
        4
 64
     7
 65
   257
 75
     1
175
     1
 42
1.0
 92
        8
 66
     7
 43
1.0
 76
     1
 77
     6
 78
     2
 67
     7
 79
     5
170
     0
171
     0
290
     0
174
     0
 93
        1
 44
-50.0
173
     0
291
     1
 45
0.0
1001
ACAD
1000
AcDbSavedByObjectVersion
1070
     0
  0
VISUALSTYLE
  5
39
102
{ACAD_REACTORS
330
2A
102
}
102
{ACAD_XDICTIONARY
360
3DE
102
}
330
2A
100
AcDbVisualStyle
  2
Facepattern
 70
    15
 71
     2
 72
     2
 73
     0
 90
        0
 40
-0.6
 41
-30.0
 62
     5
 63
     7
421
 16777215
 74
     1
 91
        4
 64
     7
 65
   257
 75
     1
175
     1
 42
1.0
 92
        8
 66
     7
 43
1.0
 76
     1
 77
     6
 78
     2
 67
     7
 79
     5
170
     0
171
     0
290
     0
174
     0
 93
        1
 44
0.0
173
     0
291
     1
 45
0.0
1001
ACAD
1000
AcDbSavedByObjectVersion
1070
     0
  0
VISUALSTYLE
  5
2B
102
{ACAD_REACTORS
330
2A
102
}
102
{ACAD_XDICTIONARY
360
3C2
102
}
330
2A
100
AcDbVisualStyle
  2
Flat
 70
     0
 71
     2
 72
     1
 73
     1
 90
        2
 40
-0.6
 41
30.0
 62
     5
 63
     7
421
 16777215
 74
     0
 91
        4
 64
     7
 65
   257
 75
     1
175
     1
 42
1.0
 92
        8
 66
     7
 43
1.0
 76
     1
 77
     6
 78
     2
 67
     7
 79
     5
170
     0
171
     0
290
     0
174
     0
 93
       13
 44
0.0
173
     0
291
     1
 45
0.0
1001
ACAD
1000
AcDbSavedByObjectVersion
1070
     0
  0
VISUALSTYLE
  5
2C
102
{ACAD_REACTORS
330
2A
102
}
102
{ACAD_XDICTIONARY
360
3C4
102
}
330
2A
100
AcDbVisualStyle
  2
FlatWithEdges
 70
     1
 71
     2
 72
     1
 73
     1
 90
        2
 40
-0.6
 41
30.0
 62
     5
 63
     7
421
 16777215
 74
     1
 91
        4
 64
     7
 65
   257
 75
     1
175
     1
 42
1.0
 92
        0
 66
   257
 43
1.0
 76
     1
 77
     6
 78
     2
 67
     7
 79
     5
170
     0
171
     0
290
     0
174
     0
 93
       13
 44
0.0
173
     0
291
     1
 45
0.0
1001
ACAD
1000
AcDbSavedByObjectVersion
1070
     0
  0
VISUALSTYLE
  5
2D
102
{ACAD_REACTORS
330
2A
102
}
102
{ACAD_XDICTIONARY
360
3C6
102
}
330
2A
100
AcDbVisualStyle
  2
Gouraud
 70
     2
 71
     2
 72
     2
 73
     1
 90
        2
 40
-0.6
 41
30.0
 62
     5
 63
     7
421
 16777215
 74
     0
 91
        4
 64
     7
 65
   257
 75
     1
175
     1
 42
1.0
 92
        0
 66
     7
 43
1.0
 76
     1
 77
     6
 78
     2
 67
     7
 79
     5
170
     0
171
     0
290
     0
174
     0
 93
       13
 44
0.0
173
     0
291
     1
 45
0.0
1001
ACAD
1000
AcDbSavedByObjectVersion
1070
     0
  0
VISUALSTYLE
  5
2E
102
{ACAD_REACTORS
330
2A
102
}
102
{ACAD_XDICTIONARY
360
3C8
102
}
330
2A
100
AcDbVisualStyle
  2
GouraudWithEdges
 70
     3
 71
     2
 72
     2
 73
     1
 90
        2
 40
-0.6
 41
30.0
 62
     5
 63
     7
421
 16777215
 74
     1
 91
        4
 64
     7
 65
   257
 75
     1
175
     1
 42
1.0
 92
        0
 66
   257
 43
1.0
 76
     1
 77
     6
 78
     2
 67
     7
 79
     5
170
     0
171
     0
290
     0
174
     0
 93
       13
 44
0.0
173
     0
291
     1
 45
0.0
1001
ACAD
1000
AcDbSavedByObjectVersion
1070
     0
  0
VISUALSTYLE
  5
38
102
{ACAD_REACTORS
330
2A
102
}
102
{ACAD_XDICTIONARY
360
3DC
102
}
330
2A
100
AcDbVisualStyle
  2
Linepattern
 70
    14
 71
     2
 72
     2
 73
     0
 90
        0
 40
-0.6
 41
-30.0
 62
     5
 63
     7
421
 16777215
 74
     1
 91
        4
 64
     7
 65
   257
 75
     7
175
     7
 42
1.0
 92
        8
 66
     7
 43
1.0
 76
     1
 77
     6
 78
     2
 67
     7
 79
     5
170
     0
171
     0
290
     0
174
     0
 93
        1
 44
0.0
173
     0
291
     1
 45
0.0
1001
ACAD
1000
AcDbSavedByObjectVersion
1070
     0
  0
VISUALSTYLE
  5
33
102
{ACAD_REACTORS
330
2A
102
}
102
{ACAD_XDICTIONARY
360
3D2
102
}
330
2A
100
AcDbVisualStyle
  2
Realistic
 70
     8
 71
     2
 72
     2
 73
     0
 90
        0
 40
-0.6
 41
-30.0
 62
     5
 63
     7
421
 16777215
 74
     1
 91
        0
 64
     7
 65
   257
 75
     1
175
     1
 42
1.0
 92
        8
 66
     8
424
  7895160
 43
1.0
 76
     1
 77
     6
 78
     2
 67
     7
 79
     5
170
     0
171
     0
290
     0
174
     0
 93
       13
 44
0.0
173
     0
291
     0
 45
0.0
1001
ACAD
1000
AcDbSavedByObjectVersion
1070
     0
  0
VISUALSTYLE
  5
37
102
{ACAD_REACTORS
330
2A
102
}
102
{ACAD_XDICTIONARY
360
3DA
102
}
330
2A
100
AcDbVisualStyle
  2
Thicken
 70
    13
 71
     2
 72
     2
 73
     0
 90
        0
 40
-0.6
 41
-30.0
 62
     5
 63
     7
421
 16777215
 74
     1
 91
        4
 64
     7
 65
   257
 75
     1
175
     1
 42
1.0
 92
       12
 66
     7
 43
1.0
 76
     1
 77
     6
 78
     2
 67
     7
 79
     5
170
     0
171
     0
290
     0
174
     0
 93
        1
 44
0.0
173
     0
291
     1
 45
0.0
1001
ACAD
1000
AcDbSavedByObjectVersion
1070
     0
  0
DICTIONARY
  5
3E4
330
3D
100
AcDbDictionary
280
     1
281
     1
  3
ACAD_XREC_ROUNDTRIP
360
3E5
  0
DICTIONARY
  5
3E2
330
3C
100
AcDbDictionary
280
     1
281
     1
  3
ACAD_XREC_ROUNDTRIP
360
3E3
  0
DICTIONARY
  5
3E6
330
3E
100
AcDbDictionary
280
     1
281
     1
  3
ACAD_XREC_ROUNDTRIP
360
3E7
  0
DICTIONARY
  5
3CA
330
2F
100
AcDbDictionary
280
     1
281
     1
  3
ACAD_XREC_ROUNDTRIP
360
3CB
  0
DICTIONARY
  5
3CE
330
31
100
AcDbDictionary
280
     1
281
     1
  3
ACAD_XREC_ROUNDTRIP
360
3CF
  0
DICTIONARY
  5
3CC
330
30
100
AcDbDictionary
280
     1
281
     1
  3
ACAD_XREC_ROUNDTRIP
360
3CD
  0
DICTIONARY
  5
3D0
330
32
100
AcDbDictionary
280
     1
281
     1
  3
ACAD_XREC_ROUNDTRIP
360
3D1
  0
DICTIONARY
  5
3D8
330
36
100
AcDbDictionary
280
     1
281
     1
  3
ACAD_XREC_ROUNDTRIP
360
3D9
  0
DICTIONARY
  5
3E0
330
3A
100
AcDbDictionary
280
     1
281
     1
  3
ACAD_XREC_ROUNDTRIP
360
3E1
  0
DICTIONARY
  5
3D4
330
34
100
AcDbDictionary
280
     1
281
     1
  3
ACAD_XREC_ROUNDTRIP
360
3D5
  0
DICTIONARY
  5
3D6
330
35
100
AcDbDictionary
280
     1
281
     1
  3
ACAD_XREC_ROUNDTRIP
360
3D7
  0
DICTIONARY
  5
3DE
330
39
100
AcDbDictionary
280
     1
281
     1
  3
ACAD_XREC_ROUNDTRIP
360
3DF
  0
DICTIONARY
  5
3C2
330
2B
100
AcDbDictionary
280
     1
281
     1
  3
ACAD_XREC_ROUNDTRIP
360
3C3
  0
DICTIONARY
  5
3C4
330
2C
100
AcDbDictionary
280
     1
281
     1
  3
ACAD_XREC_ROUNDTRIP
360
3C5
  0
DICTIONARY
  5
3C6
330
2D
100
AcDbDictionary
280
     1
281
     1
  3
ACAD_XREC_ROUNDTRIP
360
3C7
  0
DICTIONARY
  5
3C8
330
2E
100
AcDbDictionary
280
     1
281
     1
  3
ACAD_XREC_ROUNDTRIP
360
3C9
  0
DICTIONARY
  5
3DC
330
38
100
AcDbDictionary
280
     1
281
     1
  3
ACAD_XREC_ROUNDTRIP
360
3DD
  0
DICTIONARY
  5
3D2
330
33
100
AcDbDictionary
280
     1
281
     1
  3
ACAD_XREC_ROUNDTRIP
360
3D3
  0
DICTIONARY
  5
3DA
330
37
100
AcDbDictionary
280
     1
281
     1
  3
ACAD_XREC_ROUNDTRIP
360
3DB
  0
XRECORD
  5
3E5
102
{ACAD_REACTORS
330
3E4
102
}
330
3E4
100
AcDbXrecord
280
     1
102
MATERIAL
148
0.0
149
0.0
149
0.0
 93
        0
 94
      127
282
     0
 72
     1
 77
     1
171
     1
175
     1
179
     1
273
     0
  0
XRECORD
  5
3E3
102
{ACAD_REACTORS
330
3E2
102
}
330
3E2
100
AcDbXrecord
280
     1
102
MATERIAL
148
0.0
149
0.0
149
0.0
 93
        0
 94
      127
282
     0
 72
     1
 77
     1
171
     1
175
     1
179
     1
273
     0
  0
XRECORD
  5
3E7
102
{ACAD_REACTORS
330
3E6
102
}
330
3E6
100
AcDbXrecord
280
     1
102
MATERIAL
148
0.0
149
0.0
149
0.0
 93
        0
 94
      127
282
     0
 72
     1
 77
     1
171
     1
175
     1
179
     1
273
     0
  0
XRECORD
  5
3CB
102
{ACAD_REACTORS
330
3CA
102
}
330
3CA
100
AcDbXrecord
280
     1
102
RTVSPropertyOp0
 70
     1
102
RTVSPropertyOp1
 70
     1
102
RTVSPropertyOp2
 70
     1
102
RTVSPropertyOp3
 70
     1
102
RTVSPropertyOp4
 70
     1
102
RTVSPropertyOp5
 70
     1
102
RTVSPropertyOp6
 70
     1
102
RTVSPropertyOp7
 70
     1
102
RTVSPropertyOp8
 70
     1
102
RTVSPropertyOp9
 70
     1
102
RTVSPropertyOp10
 70
     1
102
RTVSPropertyOp11
 70
     1
102
RTVSPropertyOp12
 70
     1
102
RTVSPropertyOp13
 70
     1
102
RTVSPropertyOp14
 70
     1
102
RTVSPropertyOp15
 70
     1
102
RTVSPropertyOp16
 70
     1
102
RTVSPropertyOp17
 70
     1
102
RTVSPropertyOp18
 70
     1
102
RTVSPropertyOp19
 70
     1
102
RTVSPropertyOp20
 70
     1
102
RTVSPropertyOp21
 70
     1
102
RTVSPropertyOp22
 70
     1
102
RTVSPropertyOp23
 70
     1
102
RTVSPropertyOp24
 70
     1
102
RTVSPropertyOp25
 70
     1
102
RTVSPropertyOp26
 70
     1
102
RTVSPropertyOp27
 70
     1
102
RTVSPropertyOp28
 70
     1
102
RTVSPropertyOp29
 70
     1
102
RTVSPropertyOp30
 70
     1
102
RTVSPropertyOp31
 70
     1
102
RTVSPropertyOp32
 70
     1
  0
XRECORD
  5
3CF
102
{ACAD_REACTORS
330
3CE
102
}
330
3CE
100
AcDbXrecord
280
     1
102
RTVSPropertyOp0
 70
     1
102
RTVSPropertyOp1
 70
     1
102
RTVSPropertyOp2
 70
     1
102
RTVSPropertyOp3
 70
     1
102
RTVSPropertyOp4
 70
     1
102
RTVSPropertyOp5
 70
     1
102
RTVSPropertyOp6
 70
     1
102
RTVSPropertyOp7
 70
     1
102
RTVSPropertyOp8
 70
     1
102
RTVSPropertyOp9
 70
     1
102
RTVSPropertyOp10
 70
     1
102
RTVSPropertyOp11
 70
     1
102
RTVSPropertyOp12
 70
     1
102
RTVSPropertyOp13
 70
     1
102
RTVSPropertyOp14
 70
     1
102
RTVSPropertyOp15
 70
     1
102
RTVSPropertyOp16
 70
     1
102
RTVSPropertyOp17
 70
     1
102
RTVSPropertyOp18
 70
     1
102
RTVSPropertyOp19
 70
     1
102
RTVSPropertyOp20
 70
     1
102
RTVSPropertyOp21
 70
     1
102
RTVSPropertyOp22
 70
     1
102
RTVSPropertyOp23
 70
     1
102
RTVSPropertyOp24
 70
     1
102
RTVSPropertyOp25
 70
     1
102
RTVSPropertyOp26
 70
     1
102
RTVSPropertyOp27
 70
     1
102
RTVSPropertyOp28
 70
     1
102
RTVSPropertyOp29
 70
     1
102
RTVSPropertyOp30
 70
     1
102
RTVSPropertyOp31
 70
     1
102
RTVSPropertyOp32
 70
     1
  0
XRECORD
  5
3CD
102
{ACAD_REACTORS
330
3CC
102
}
330
3CC
100
AcDbXrecord
280
     1
102
RTVSPropertyOp0
 70
     1
102
RTVSPropertyOp1
 70
     1
102
RTVSPropertyOp2
 70
     1
102
RTVSPropertyOp3
 70
     1
102
RTVSPropertyOp4
 70
     1
102
RTVSPropertyOp5
 70
     1
102
RTVSPropertyOp6
 70
     1
102
RTVSPropertyOp7
 70
     1
102
RTVSPropertyOp8
 70
     1
102
RTVSPropertyOp9
 70
     1
102
RTVSPropertyOp10
 70
     1
102
RTVSPropertyOp11
 70
     1
102
RTVSPropertyOp12
 70
     1
102
RTVSPropertyOp13
 70
     1
102
RTVSPropertyOp14
 70
     1
102
RTVSPropertyOp15
 70
     1
102
RTVSPropertyOp16
 70
     1
102
RTVSPropertyOp17
 70
     1
102
RTVSPropertyOp18
 70
     1
102
RTVSPropertyOp19
 70
     1
102
RTVSPropertyOp20
 70
     1
102
RTVSPropertyOp21
 70
     1
102
RTVSPropertyOp22
 70
     1
102
RTVSPropertyOp23
 70
     1
102
RTVSPropertyOp24
 70
     1
102
RTVSPropertyOp25
 70
     1
102
RTVSPropertyOp26
 70
     1
102
RTVSPropertyOp27
 70
     1
102
RTVSPropertyOp28
 70
     1
102
RTVSPropertyOp29
 70
     1
102
RTVSPropertyOp30
 70
     1
102
RTVSPropertyOp31
 70
     1
102
RTVSPropertyOp32
 70
     1
  0
XRECORD
  5
3D1
102
{ACAD_REACTORS
330
3D0
102
}
330
3D0
100
AcDbXrecord
280
     1
102
RTVSPropertyOp0
 70
     1
102
RTVSPropertyOp1
 70
     1
102
RTVSPropertyOp2
 70
     1
102
RTVSPropertyOp3
 70
     1
102
RTVSPropertyOp4
 70
     1
102
RTVSPropertyOp5
 70
     1
102
RTVSPropertyOp6
 70
     1
102
RTVSPropertyOp7
 70
     1
102
RTVSPropertyOp8
 70
     1
102
RTVSPropertyOp9
 70
     1
102
RTVSPropertyOp10
 70
     1
102
RTVSPropertyOp11
 70
     1
102
RTVSPropertyOp12
 70
     1
102
RTVSPropertyOp13
 70
     1
102
RTVSPropertyOp14
 70
     1
102
RTVSPropertyOp15
 70
     1
102
RTVSPropertyOp16
 70
     1
102
RTVSPropertyOp17
 70
     1
102
RTVSPropertyOp18
 70
     1
102
RTVSPropertyOp19
 70
     1
102
RTVSPropertyOp20
 70
     1
102
RTVSPropertyOp21
 70
     1
102
RTVSPropertyOp22
 70
     1
102
RTVSPropertyOp23
 70
     1
102
RTVSPropertyOp24
 70
     1
102
RTVSPropertyOp25
 70
     1
102
RTVSPropertyOp26
 70
     1
102
RTVSPropertyOp27
 70
     1
102
RTVSPropertyOp28
 70
     1
102
RTVSPropertyOp29
 70
     1
102
RTVSPropertyOp30
 70
     1
102
RTVSPropertyOp31
 70
     1
102
RTVSPropertyOp32
 70
     1
  0
XRECORD
  5
3D9
102
{ACAD_REACTORS
330
3D8
102
}
330
3D8
100
AcDbXrecord
280
     1
102
RTVSPropertyOp0
 70
     1
102
RTVSPropertyOp1
 70
     1
102
RTVSPropertyOp2
 70
     1
102
RTVSPropertyOp3
 70
     1
102
RTVSPropertyOp4
 70
     1
102
RTVSPropertyOp5
 70
     1
102
RTVSPropertyOp6
 70
     1
102
RTVSPropertyOp7
 70
     1
102
RTVSPropertyOp8
 70
     1
102
RTVSPropertyOp9
 70
     1
102
RTVSPropertyOp10
 70
     1
102
RTVSPropertyOp11
 70
     1
102
RTVSPropertyOp12
 70
     1
102
RTVSPropertyOp13
 70
     1
102
RTVSPropertyOp14
 70
     1
102
RTVSPropertyOp15
 70
     1
102
RTVSPropertyOp16
 70
     1
102
RTVSPropertyOp17
 70
     1
102
RTVSPropertyOp18
 70
     1
102
RTVSPropertyOp19
 70
     1
102
RTVSPropertyOp20
 70
     1
102
RTVSPropertyOp21
 70
     1
102
RTVSPropertyOp22
 70
     1
102
RTVSPropertyOp23
 70
     1
102
RTVSPropertyOp24
 70
     1
102
RTVSPropertyOp25
 70
     1
102
RTVSPropertyOp26
 70
     1
102
RTVSPropertyOp27
 70
     1
102
RTVSPropertyOp28
 70
     1
102
RTVSPropertyOp29
 70
     1
102
RTVSPropertyOp30
 70
     1
102
RTVSPropertyOp31
 70
     1
102
RTVSPropertyOp32
 70
     1
  0
XRECORD
  5
3E1
102
{ACAD_REACTORS
330
3E0
102
}
330
3E0
100
AcDbXrecord
280
     1
102
RTVSPropertyOp0
 70
     1
102
RTVSPropertyOp1
 70
     1
102
RTVSPropertyOp2
 70
     1
102
RTVSPropertyOp3
 70
     1
102
RTVSPropertyOp4
 70
     1
102
RTVSPropertyOp5
 70
     1
102
RTVSPropertyOp6
 70
     1
102
RTVSPropertyOp7
 70
     1
102
RTVSPropertyOp8
 70
     1
102
RTVSPropertyOp9
 70
     1
102
RTVSPropertyOp10
 70
     1
102
RTVSPropertyOp11
 70
     1
102
RTVSPropertyOp12
 70
     1
102
RTVSPropertyOp13
 70
     1
102
RTVSPropertyOp14
 70
     1
102
RTVSPropertyOp15
 70
     1
102
RTVSPropertyOp16
 70
     1
102
RTVSPropertyOp17
 70
     1
102
RTVSPropertyOp18
 70
     1
102
RTVSPropertyOp19
 70
     1
102
RTVSPropertyOp20
 70
     1
102
RTVSPropertyOp21
 70
     1
102
RTVSPropertyOp22
 70
     1
102
RTVSPropertyOp23
 70
     1
102
RTVSPropertyOp24
 70
     1
102
RTVSPropertyOp25
 70
     1
102
RTVSPropertyOp26
 70
     1
102
RTVSPropertyOp27
 70
     1
102
RTVSPropertyOp28
 70
     1
102
RTVSPropertyOp29
 70
     1
102
RTVSPropertyOp30
 70
     1
102
RTVSPropertyOp31
 70
     1
102
RTVSPropertyOp32
 70
     1
  0
XRECORD
  5
3D5
102
{ACAD_REACTORS
330
3D4
102
}
330
3D4
100
AcDbXrecord
280
     1
102
RTVSPropertyOp0
 70
     1
102
RTVSPropertyOp1
 70
     1
102
RTVSPropertyOp2
 70
     1
102
RTVSPropertyOp3
 70
     1
102
RTVSPropertyOp4
 70
     1
102
RTVSPropertyOp5
 70
     1
102
RTVSPropertyOp6
 70
     1
102
RTVSPropertyOp7
 70
     1
102
RTVSPropertyOp8
 70
     1
102
RTVSPropertyOp9
 70
     1
102
RTVSPropertyOp10
 70
     1
102
RTVSPropertyOp11
 70
     1
102
RTVSPropertyOp12
 70
     1
102
RTVSPropertyOp13
 70
     1
102
RTVSPropertyOp14
 70
     1
102
RTVSPropertyOp15
 70
     1
102
RTVSPropertyOp16
 70
     1
102
RTVSPropertyOp17
 70
     1
102
RTVSPropertyOp18
 70
     1
102
RTVSPropertyOp19
 70
     1
102
RTVSPropertyOp20
 70
     1
102
RTVSPropertyOp21
 70
     1
102
RTVSPropertyOp22
 70
     1
102
RTVSPropertyOp23
 70
     1
102
RTVSPropertyOp24
 70
     1
102
RTVSPropertyOp25
 70
     1
102
RTVSPropertyOp26
 70
     1
102
RTVSPropertyOp27
 70
     1
102
RTVSPropertyOp28
 70
     1
102
RTVSPropertyOp29
 70
     1
102
RTVSPropertyOp30
 70
     1
102
RTVSPropertyOp31
 70
     1
102
RTVSPropertyOp32
 70
     1
  0
XRECORD
  5
3D7
102
{ACAD_REACTORS
330
3D6
102
}
330
3D6
100
AcDbXrecord
280
     1
102
RTVSPropertyOp0
 70
     1
102
RTVSPropertyOp1
 70
     1
102
RTVSPropertyOp2
 70
     1
102
RTVSPropertyOp3
 70
     1
102
RTVSPropertyOp4
 70
     1
102
RTVSPropertyOp5
 70
     1
102
RTVSPropertyOp6
 70
     1
102
RTVSPropertyOp7
 70
     1
102
RTVSPropertyOp8
 70
     1
102
RTVSPropertyOp9
 70
     1
102
RTVSPropertyOp10
 70
     1
102
RTVSPropertyOp11
 70
     1
102
RTVSPropertyOp12
 70
     1
102
RTVSPropertyOp13
 70
     1
102
RTVSPropertyOp14
 70
     1
102
RTVSPropertyOp15
 70
     1
102
RTVSPropertyOp16
 70
     1
102
RTVSPropertyOp17
 70
     1
102
RTVSPropertyOp18
 70
     1
102
RTVSPropertyOp19
 70
     1
102
RTVSPropertyOp20
 70
     1
102
RTVSPropertyOp21
 70
     1
102
RTVSPropertyOp22
 70
     1
102
RTVSPropertyOp23
 70
     1
102
RTVSPropertyOp24
 70
     1
102
RTVSPropertyOp25
 70
     1
102
RTVSPropertyOp26
 70
     1
102
RTVSPropertyOp27
 70
     1
102
RTVSPropertyOp28
 70
     1
102
RTVSPropertyOp29
 70
     1
102
RTVSPropertyOp30
 70
     1
102
RTVSPropertyOp31
 70
     1
102
RTVSPropertyOp32
 70
     1
  0
XRECORD
  5
3DF
102
{ACAD_REACTORS
330
3DE
102
}
330
3DE
100
AcDbXrecord
280
     1
102
RTVSPropertyOp0
 70
     1
102
RTVSPropertyOp1
 70
     1
102
RTVSPropertyOp2
 70
     1
102
RTVSPropertyOp3
 70
     1
102
RTVSPropertyOp4
 70
     1
102
RTVSPropertyOp5
 70
     1
102
RTVSPropertyOp6
 70
     1
102
RTVSPropertyOp7
 70
     1
102
RTVSPropertyOp8
 70
     1
102
RTVSPropertyOp9
 70
     1
102
RTVSPropertyOp10
 70
     1
102
RTVSPropertyOp11
 70
     1
102
RTVSPropertyOp12
 70
     1
102
RTVSPropertyOp13
 70
     1
102
RTVSPropertyOp14
 70
     1
102
RTVSPropertyOp15
 70
     1
102
RTVSPropertyOp16
 70
     1
102
RTVSPropertyOp17
 70
     1
102
RTVSPropertyOp18
 70
     1
102
RTVSPropertyOp19
 70
     1
102
RTVSPropertyOp20
 70
     1
102
RTVSPropertyOp21
 70
     1
102
RTVSPropertyOp22
 70
     1
102
RTVSPropertyOp23
 70
     1
102
RTVSPropertyOp24
 70
     1
102
RTVSPropertyOp25
 70
     1
102
RTVSPropertyOp26
 70
     1
102
RTVSPropertyOp27
 70
     1
102
RTVSPropertyOp28
 70
     1
102
RTVSPropertyOp29
 70
     1
102
RTVSPropertyOp30
 70
     1
102
RTVSPropertyOp31
 70
     1
102
RTVSPropertyOp32
 70
     1
  0
XRECORD
  5
3C3
102
{ACAD_REACTORS
330
3C2
102
}
330
3C2
100
AcDbXrecord
280
     1
102
RTVSPropertyOp0
 70
     1
102
RTVSPropertyOp1
 70
     1
102
RTVSPropertyOp2
 70
     1
102
RTVSPropertyOp3
 70
     1
102
RTVSPropertyOp4
 70
     1
102
RTVSPropertyOp5
 70
     1
102
RTVSPropertyOp6
 70
     1
102
RTVSPropertyOp7
 70
     1
102
RTVSPropertyOp8
 70
     1
102
RTVSPropertyOp9
 70
     1
102
RTVSPropertyOp10
 70
     1
102
RTVSPropertyOp11
 70
     1
102
RTVSPropertyOp12
 70
     1
102
RTVSPropertyOp13
 70
     1
102
RTVSPropertyOp14
 70
     1
102
RTVSPropertyOp15
 70
     1
102
RTVSPropertyOp16
 70
     1
102
RTVSPropertyOp17
 70
     1
102
RTVSPropertyOp18
 70
     1
102
RTVSPropertyOp19
 70
     1
102
RTVSPropertyOp20
 70
     1
102
RTVSPropertyOp21
 70
     1
102
RTVSPropertyOp22
 70
     1
102
RTVSPropertyOp23
 70
     1
102
RTVSPropertyOp24
 70
     1
102
RTVSPropertyOp25
 70
     1
102
RTVSPropertyOp26
 70
     1
102
RTVSPropertyOp27
 70
     1
102
RTVSPropertyOp28
 70
     1
102
RTVSPropertyOp29
 70
     1
102
RTVSPropertyOp30
 70
     1
102
RTVSPropertyOp31
 70
     1
102
RTVSPropertyOp32
 70
     1
  0
XRECORD
  5
3C5
102
{ACAD_REACTORS
330
3C4
102
}
330
3C4
100
AcDbXrecord
280
     1
102
RTVSPropertyOp0
 70
     1
102
RTVSPropertyOp1
 70
     1
102
RTVSPropertyOp2
 70
     1
102
RTVSPropertyOp3
 70
     1
102
RTVSPropertyOp4
 70
     1
102
RTVSPropertyOp5
 70
     1
102
RTVSPropertyOp6
 70
     1
102
RTVSPropertyOp7
 70
     1
102
RTVSPropertyOp8
 70
     1
102
RTVSPropertyOp9
 70
     1
102
RTVSPropertyOp10
 70
     1
102
RTVSPropertyOp11
 70
     1
102
RTVSPropertyOp12
 70
     1
102
RTVSPropertyOp13
 70
     1
102
RTVSPropertyOp14
 70
     1
102
RTVSPropertyOp15
 70
     1
102
RTVSPropertyOp16
 70
     1
102
RTVSPropertyOp17
 70
     1
102
RTVSPropertyOp18
 70
     1
102
RTVSPropertyOp19
 70
     1
102
RTVSPropertyOp20
 70
     1
102
RTVSPropertyOp21
 70
     1
102
RTVSPropertyOp22
 70
     1
102
RTVSPropertyOp23
 70
     1
102
RTVSPropertyOp24
 70
     1
102
RTVSPropertyOp25
 70
     1
102
RTVSPropertyOp26
 70
     1
102
RTVSPropertyOp27
 70
     1
102
RTVSPropertyOp28
 70
     1
102
RTVSPropertyOp29
 70
     1
102
RTVSPropertyOp30
 70
     1
102
RTVSPropertyOp31
 70
     1
102
RTVSPropertyOp32
 70
     1
  0
XRECORD
  5
3C7
102
{ACAD_REACTORS
330
3C6
102
}
330
3C6
100
AcDbXrecord
280
     1
102
RTVSPropertyOp0
 70
     1
102
RTVSPropertyOp1
 70
     1
102
RTVSPropertyOp2
 70
     1
102
RTVSPropertyOp3
 70
     1
102
RTVSPropertyOp4
 70
     1
102
RTVSPropertyOp5
 70
     1
102
RTVSPropertyOp6
 70
     1
102
RTVSPropertyOp7
 70
     1
102
RTVSPropertyOp8
 70
     1
102
RTVSPropertyOp9
 70
     1
102
RTVSPropertyOp10
 70
     1
102
RTVSPropertyOp11
 70
     1
102
RTVSPropertyOp12
 70
     1
102
RTVSPropertyOp13
 70
     1
102
RTVSPropertyOp14
 70
     1
102
RTVSPropertyOp15
 70
     1
102
RTVSPropertyOp16
 70
     1
102
RTVSPropertyOp17
 70
     1
102
RTVSPropertyOp18
 70
     1
102
RTVSPropertyOp19
 70
     1
102
RTVSPropertyOp20
 70
     1
102
RTVSPropertyOp21
 70
     1
102
RTVSPropertyOp22
 70
     1
102
RTVSPropertyOp23
 70
     1
102
RTVSPropertyOp24
 70
     1
102
RTVSPropertyOp25
 70
     1
102
RTVSPropertyOp26
 70
     1
102
RTVSPropertyOp27
 70
     1
102
RTVSPropertyOp28
 70
     1
102
RTVSPropertyOp29
 70
     1
102
RTVSPropertyOp30
 70
     1
102
RTVSPropertyOp31
 70
     1
102
RTVSPropertyOp32
 70
     1
  0
XRECORD
  5
3C9
102
{ACAD_REACTORS
330
3C8
102
}
330
3C8
100
AcDbXrecord
280
     1
102
RTVSPropertyOp0
 70
     1
102
RTVSPropertyOp1
 70
     1
102
RTVSPropertyOp2
 70
     1
102
RTVSPropertyOp3
 70
     1
102
RTVSPropertyOp4
 70
     1
102
RTVSPropertyOp5
 70
     1
102
RTVSPropertyOp6
 70
     1
102
RTVSPropertyOp7
 70
     1
102
RTVSPropertyOp8
 70
     1
102
RTVSPropertyOp9
 70
     1
102
RTVSPropertyOp10
 70
     1
102
RTVSPropertyOp11
 70
     1
102
RTVSPropertyOp12
 70
     1
102
RTVSPropertyOp13
 70
     1
102
RTVSPropertyOp14
 70
     1
102
RTVSPropertyOp15
 70
     1
102
RTVSPropertyOp16
 70
     1
102
RTVSPropertyOp17
 70
     1
102
RTVSPropertyOp18
 70
     1
102
RTVSPropertyOp19
 70
     1
102
RTVSPropertyOp20
 70
     1
102
RTVSPropertyOp21
 70
     1
102
RTVSPropertyOp22
 70
     1
102
RTVSPropertyOp23
 70
     1
102
RTVSPropertyOp24
 70
     1
102
RTVSPropertyOp25
 70
     1
102
RTVSPropertyOp26
 70
     1
102
RTVSPropertyOp27
 70
     1
102
RTVSPropertyOp28
 70
     1
102
RTVSPropertyOp29
 70
     1
102
RTVSPropertyOp30
 70
     1
102
RTVSPropertyOp31
 70
     1
102
RTVSPropertyOp32
 70
     1
  0
XRECORD
  5
3DD
102
{ACAD_REACTORS
330
3DC
102
}
330
3DC
100
AcDbXrecord
280
     1
102
RTVSPropertyOp0
 70
     1
102
RTVSPropertyOp1
 70
     1
102
RTVSPropertyOp2
 70
     1
102
RTVSPropertyOp3
 70
     1
102
RTVSPropertyOp4
 70
     1
102
RTVSPropertyOp5
 70
     1
102
RTVSPropertyOp6
 70
     1
102
RTVSPropertyOp7
 70
     1
102
RTVSPropertyOp8
 70
     1
102
RTVSPropertyOp9
 70
     1
102
RTVSPropertyOp10
 70
     1
102
RTVSPropertyOp11
 70
     1
102
RTVSPropertyOp12
 70
     1
102
RTVSPropertyOp13
 70
     1
102
RTVSPropertyOp14
 70
     1
102
RTVSPropertyOp15
 70
     1
102
RTVSPropertyOp16
 70
     1
102
RTVSPropertyOp17
 70
     1
102
RTVSPropertyOp18
 70
     1
102
RTVSPropertyOp19
 70
     1
102
RTVSPropertyOp20
 70
     1
102
RTVSPropertyOp21
 70
     1
102
RTVSPropertyOp22
 70
     1
102
RTVSPropertyOp23
 70
     1
102
RTVSPropertyOp24
 70
     1
102
RTVSPropertyOp25
 70
     1
102
RTVSPropertyOp26
 70
     1
102
RTVSPropertyOp27
 70
     1
102
RTVSPropertyOp28
 70
     1
102
RTVSPropertyOp29
 70
     1
102
RTVSPropertyOp30
 70
     1
102
RTVSPropertyOp31
 70
     1
102
RTVSPropertyOp32
 70
     1
  0
XRECORD
  5
3D3
102
{ACAD_REACTORS
330
3D2
102
}
330
3D2
100
AcDbXrecord
280
     1
102
RTVSPropertyOp0
 70
     1
102
RTVSPropertyOp1
 70
     1
102
RTVSPropertyOp2
 70
     1
102
RTVSPropertyOp3
 70
     1
102
RTVSPropertyOp4
 70
     1
102
RTVSPropertyOp5
 70
     1
102
RTVSPropertyOp6
 70
     1
102
RTVSPropertyOp7
 70
     1
102
RTVSPropertyOp8
 70
     1
102
RTVSPropertyOp9
 70
     1
102
RTVSPropertyOp10
 70
     1
102
RTVSPropertyOp11
 70
     1
102
RTVSPropertyOp12
 70
     1
102
RTVSPropertyOp13
 70
     1
102
RTVSPropertyOp14
 70
     1
102
RTVSPropertyOp15
 70
     1
102
RTVSPropertyOp16
 70
     1
102
RTVSPropertyOp17
 70
     1
102
RTVSPropertyOp18
 70
     1
102
RTVSPropertyOp19
 70
     1
102
RTVSPropertyOp20
 70
     1
102
RTVSPropertyOp21
 70
     1
102
RTVSPropertyOp22
 70
     1
102
RTVSPropertyOp23
 70
     1
102
RTVSPropertyOp24
 70
     1
102
RTVSPropertyOp25
 70
     1
102
RTVSPropertyOp26
 70
     1
102
RTVSPropertyOp27
 70
     1
102
RTVSPropertyOp28
 70
     1
102
RTVSPropertyOp29
 70
     1
102
RTVSPropertyOp30
 70
     1
102
RTVSPropertyOp31
 70
     1
102
RTVSPropertyOp32
 70
     1
  0
XRECORD
  5
3DB
102
{ACAD_REACTORS
330
3DA
102
}
330
3DA
100
AcDbXrecord
280
     1
102
RTVSPropertyOp0
 70
     1
102
RTVSPropertyOp1
 70
     1
102
RTVSPropertyOp2
 70
     1
102
RTVSPropertyOp3
 70
     1
102
RTVSPropertyOp4
 70
     1
102
RTVSPropertyOp5
 70
     1
102
RTVSPropertyOp6
 70
     1
102
RTVSPropertyOp7
 70
     1
102
RTVSPropertyOp8
 70
     1
102
RTVSPropertyOp9
 70
     1
102
RTVSPropertyOp10
 70
     1
102
RTVSPropertyOp11
 70
     1
102
RTVSPropertyOp12
 70
     1
102
RTVSPropertyOp13
 70
     1
102
RTVSPropertyOp14
 70
     1
102
RTVSPropertyOp15
 70
     1
102
RTVSPropertyOp16
 70
     1
102
RTVSPropertyOp17
 70
     1
102
RTVSPropertyOp18
 70
     1
102
RTVSPropertyOp19
 70
     1
102
RTVSPropertyOp20
 70
     1
102
RTVSPropertyOp21
 70
     1
102
RTVSPropertyOp22
 70
     1
102
RTVSPropertyOp23
 70
     1
102
RTVSPropertyOp24
 70
     1
102
RTVSPropertyOp25
 70
     1
102
RTVSPropertyOp26
 70
     1
102
RTVSPropertyOp27
 70
     1
102
RTVSPropertyOp28
 70
     1
102
RTVSPropertyOp29
 70
     1
102
RTVSPropertyOp30
 70
     1
102
RTVSPropertyOp31
 70
     1
102
RTVSPropertyOp32
 70
     1
  0
ENDSEC
  0
EOF
