  0
SECTION
  2
HEADER
  9
$ACADVER
  1
AC1018
  9
$ACADMAINTVER
 70
     0
  9
$DWGCODEPAGE
  3
ANSI_1252
  9
$INSBASE
 10
0.0
 20
0.0
 30
0.0
  9
$EXTMIN
 10
-241.3612529203984
 20
2.49602771639076
 30
0.0
  9
$EXTMAX
 10
55.63874707959963
 20
212.4960277163909
 30
0.0
  9
$LIMMIN
 10
0.0
 20
0.0
  9
$LIMMAX
 10
12.0
 20
9.0
  9
$ORTHOMODE
 70
     0
  9
$REGENMODE
 70
     1
  9
$FILLMODE
 70
     1
  9
$QTEXTMODE
 70
     0
  9
$MIRRTEXT
 70
     1
  9
$LTSCALE
 40
1.0
  9
$ATTMODE
 70
     1
  9
$TEXTSIZE
 40
0.2
  9
$TRACEWID
 40
0.05
  9
$TEXTSTYLE
  7
Standard
  9
$CLAYER
  8
0
  9
$CELTYPE
  6
ByLayer
  9
$CECOLOR
 62
   256
  9
$CELTSCALE
 40
1.0
  9
$DISPSILH
 70
     0
  9
$DIMSCALE
 40
1.0
  9
$DIMASZ
 40
0.18
  9
$DIMEXO
 40
0.0625
  9
$DIMDLI
 40
0.38
  9
$DIMRND
 40
0.0
  9
$DIMDLE
 40
0.0
  9
$DIMEXE
 40
0.18
  9
$DIMTP
 40
0.0
  9
$DIMTM
 40
0.0
  9
$DIMTXT
 40
0.18
  9
$DIMCEN
 40
0.09
  9
$DIMTSZ
 40
0.0
  9
$DIMTOL
 70
     0
  9
$DIMLIM
 70
     0
  9
$DIMTIH
 70
     1
  9
$DIMTOH
 70
     1
  9
$DIMSE1
 70
     0
  9
$DIMSE2
 70
     0
  9
$DIMTAD
 70
     0
  9
$DIMZIN
 70
     0
  9
$DIMBLK
  1

  9
$DIMASO
 70
     1
  9
$DIMSHO
 70
     1
  9
$DIMPOST
  1

  9
$DIMAPOST
  1

  9
$DIMALT
 70
     0
  9
$DIMALTD
 70
     2
  9
$DIMALTF
 40
25.4
  9
$DIMLFAC
 40
1.0
  9
$DIMTOFL
 70
     0
  9
$DIMTVP
 40
0.0
  9
$DIMTIX
 70
     0
  9
$DIMSOXD
 70
     0
  9
$DIMSAH
 70
     0
  9
$DIMBLK1
  1

  9
$DIMBLK2
  1

  9
$DIMSTYLE
  2
Standard
  9
$DIMCLRD
 70
     0
  9
$DIMCLRE
 70
     0
  9
$DIMCLRT
 70
     0
  9
$DIMTFAC
 40
1.0
  9
$DIMGAP
 40
0.09
  9
$DIMJUST
 70
     0
  9
$DIMSD1
 70
     0
  9
$DIMSD2
 70
     0
  9
$DIMTOLJ
 70
     1
  9
$DIMTZIN
 70
     0
  9
$DIMALTZ
 70
     0
  9
$DIMALTTZ
 70
     0
  9
$DIMUPT
 70
     0
  9
$DIMDEC
 70
     4
  9
$DIMTDEC
 70
     4
  9
$DIMALTU
 70
     2
  9
$DIMALTTD
 70
     2
  9
$DIMTXSTY
  7
Standard
  9
$DIMAUNIT
 70
     0
  9
$DIMADEC
 70
     0
  9
$DIMALTRND
 40
0.0
  9
$DIMAZIN
 70
     0
  9
$DIMDSEP
 70
    46
  9
$DIMATFIT
 70
     3
  9
$DIMFRAC
 70
     0
  9
$DIMLDRBLK
  1

  9
$DIMLUNIT
 70
     2
  9
$DIMLWD
 70
    -2
  9
$DIMLWE
 70
    -2
  9
$DIMTMOVE
 70
     0
  9
$LUNITS
 70
     2
  9
$LUPREC
 70
     4
  9
$SKETCHINC
 40
0.1
  9
$FILLETRAD
 40
0.5
  9
$AUNITS
 70
     0
  9
$AUPREC
 70
     0
  9
$MENU
  1
.
  9
$ELEVATION
 40
0.0
  9
$PELEVATION
 40
0.0
  9
$THICKNESS
 40
0.0
  9
$LIMCHECK
 70
     0
  9
$CHAMFERA
 40
0.0
  9
$CHAMFERB
 40
0.0
  9
$CHAMFERC
 40
0.0
  9
$CHAMFERD
 40
0.0
  9
$SKPOLY
 70
     0
  9
$TDCREATE
 40
2458748.36623544
  9
$TDUCREATE
 40
2458748.282902107
  9
$TDUPDATE
 40
2458748.366235625
  9
$TDUUPDATE
 40
2458748.282902292
  9
$TDINDWG
 40
0.0000000116
  9
$TDUSRTIMER
 40
0.0000000116
  9
$USRTIMER
 70
     1
  9
$ANGBASE
 50
0.0
  9
$ANGDIR
 70
     0
  9
$PDMODE
 70
     0
  9
$PDSIZE
 40
0.0
  9
$PLINEWID
 40
0.0
  9
$SPLFRAME
 70
     0
  9
$SPLINETYPE
 70
     6
  9
$SPLINESEGS
 70
     8
  9
$HANDSEED
  5
380
  9
$SURFTAB1
 70
     6
  9
$SURFTAB2
 70
     6
  9
$SURFTYPE
 70
     6
  9
$SURFU
 70
     6
  9
$SURFV
 70
     6
  9
$UCSBASE
  2

  9
$UCSNAME
  2

  9
$UCSORG
 10
0.0
 20
0.0
 30
0.0
  9
$UCSXDIR
 10
1.0
 20
0.0
 30
0.0
  9
$UCSYDIR
 10
0.0
 20
1.0
 30
0.0
  9
$UCSORTHOREF
  2

  9
$UCSORTHOVIEW
 70
     0
  9
$UCSORGTOP
 10
0.0
 20
0.0
 30
0.0
  9
$UCSORGBOTTOM
 10
0.0
 20
0.0
 30
0.0
  9
$UCSORGLEFT
 10
0.0
 20
0.0
 30
0.0
  9
$UCSORGRIGHT
 10
0.0
 20
0.0
 30
0.0
  9
$UCSORGFRONT
 10
0.0
 20
0.0
 30
0.0
  9
$UCSORGBACK
 10
0.0
 20
0.0
 30
0.0
  9
$PUCSBASE
  2

  9
$PUCSNAME
  2

  9
$PUCSORG
 10
0.0
 20
0.0
 30
0.0
  9
$PUCSXDIR
 10
1.0
 20
0.0
 30
0.0
  9
$PUCSYDIR
 10
0.0
 20
1.0
 30
0.0
  9
$PUCSORTHOREF
  2

  9
$PUCSORTHOVIEW
 70
     0
  9
$PUCSORGTOP
 10
0.0
 20
0.0
 30
0.0
  9
$PUCSORGBOTTOM
 10
0.0
 20
0.0
 30
0.0
  9
$PUCSORGLEFT
 10
0.0
 20
0.0
 30
0.0
  9
$PUCSORGRIGHT
 10
0.0
 20
0.0
 30
0.0
  9
$PUCSORGFRONT
 10
0.0
 20
0.0
 30
0.0
  9
$PUCSORGBACK
 10
0.0
 20
0.0
 30
0.0
  9
$USERI1
 70
     0
  9
$USERI2
 70
     0
  9
$USERI3
 70
     0
  9
$USERI4
 70
     0
  9
$USERI5
 70
     0
  9
$USERR1
 40
20.1
  9
$USERR2
 40
0.0
  9
$USERR3
 40
0.0
  9
$USERR4
 40
0.0
  9
$USERR5
 40
0.0
  9
$WORLDVIEW
 70
     1
  9
$SHADEDGE
 70
     3
  9
$SHADEDIF
 70
    70
  9
$TILEMODE
 70
     1
  9
$MAXACTVP
 70
    64
  9
$PINSBASE
 10
0.0
 20
0.0
 30
0.0
  9
$PLIMCHECK
 70
     0
  9
$PEXTMIN
 10
1.00000000000000E+20
 20
1.00000000000000E+20
 30
1.00000000000000E+20
  9
$PEXTMAX
 10
-1.00000000000000E+20
 20
-1.00000000000000E+20
 30
-1.00000000000000E+20
  9
$PLIMMIN
 10
0.0
 20
0.0
  9
$PLIMMAX
 10
12.0
 20
9.0
  9
$UNITMODE
 70
     0
  9
$VISRETAIN
 70
     1
  9
$PLINEGEN
 70
     0
  9
$PSLTSCALE
 70
     1
  9
$TREEDEPTH
 70
  3020
  9
$CMLSTYLE
  2
Standard
  9
$CMLJUST
 70
     0
  9
$CMLSCALE
 40
1.0
  9
$PROXYGRAPHICS
 70
     1
  9
$MEASUREMENT
 70
     1
  9
$CELWEIGHT
370
    -1
  9
$ENDCAPS
280
     0
  9
$JOINSTYLE
280
     0
  9
$LWDISPLAY
290
     0
  9
$INSUNITS
 70
     4
  9
$HYPERLINKBASE
  1

  9
$STYLESHEET
  1

  9
$XEDIT
290
     1
  9
$CEPSNTYPE
380
     0
  9
$PSTYLEMODE
290
     1
  9
$FINGERPRINTGUID
  2
{d40f2391-415d-4d35-bbd6-f57bacb3e838}
  9
$VERSIONGUID
  2
{FAEB1C32-E019-11D5-929B-00C0DF256EC4}
  9
$EXTNAMES
290
     1
  9
$PSVPSCALE
 40
0.0
  9
$OLESTARTUP
290
     0
  9
$SORTENTS
280
   127
  9
$INDEXCTL
280
     0
  9
$HIDETEXT
280
     1
  9
$XCLIPFRAME
290
     0
  9
$HALOGAP
280
     0
  9
$OBSCOLOR
 70
   257
  9
$OBSLTYPE
280
     0
  9
$INTERSECTIONDISPLAY
280
     0
  9
$INTERSECTIONCOLOR
 70
   257
  9
$DIMASSOC
280
     2
  9
$PROJECTNAME
  1

  0
ENDSEC
  0
SECTION
  2
CLASSES
  0
CLASS
  1
ACDBDICTIONARYWDFLT
  2
AcDbDictionaryWithDefault
  3
ObjectDBX Classes
 90
        0
 91
        3
280
     0
281
     0
  0
CLASS
  1
VISUALSTYLE
  2
AcDbVisualStyle
  3
ObjectDBX Classes
 90
     4095
 91
        3
280
     0
281
     0
  0
CLASS
  1
MATERIAL
  2
AcDbMaterial
  3
ObjectDBX Classes
 90
     1153
 91
        3
280
     0
281
     0
  0
CLASS
  1
SCALE
  2
AcDbScale
  3
ObjectDBX Classes
 90
     1153
 91
        3
280
     0
281
     0
  0
CLASS
  1
TABLESTYLE
  2
AcDbTableStyle
  3
ObjectDBX Classes
 90
     4095
 91
        3
280
     0
281
     0
  0
CLASS
  1
MLEADERSTYLE
  2
AcDbMLeaderStyle
  3
ACDB_MLEADERSTYLE_CLASS
 90
     4095
 91
        3
280
     0
281
     0
  0
CLASS
  1
SUN
  2
AcDbSun
  3
SCENEOE
 90
     1153
 91
        3
280
     0
281
     0
  0
CLASS
  1
DICTIONARYVAR
  2
AcDbDictionaryVar
  3
ObjectDBX Classes
 90
        0
 91
        3
280
     0
281
     0
  0
CLASS
  1
CELLSTYLEMAP
  2
AcDbCellStyleMap
  3
ObjectDBX Classes
 90
     1152
 91
        3
280
     0
281
     0
  0
ENDSEC
  0
SECTION
  2
TABLES
  0
TABLE
  2
VPORT
  5
8
102
{ACAD_XDICTIONARY
360
339
102
}
330
0
100
AcDbSymbolTable
 70
     1
  0
VPORT
  5
29
330
8
100
AcDbSymbolTableRecord
100
AcDbViewportTableRecord
  2
*Active
 70
     0
 10
0.0
 20
0.0
 11
1.0
 21
1.0
 12
-92.8612529203994
 22
107.4960277163908
 13
0.0
 23
0.0
 14
0.5
 24
0.5
 15
0.5
 25
0.5
 16
0.0
 26
0.0
 36
1.0
 17
0.0
 27
0.0
 37
0.0
 40
231.0000000000002
 41
1.60267857142857
 42
50.0
 43
0.0
 44
0.0
 50
0.0
 51
0.0
 71
     0
 72
   100
 73
     1
 74
     3
 75
     0
 76
     0
 77
     0
 78
     0
281
     0
 65
     1
110
0.0
120
0.0
130
0.0
111
1.0
121
0.0
131
0.0
112
0.0
122
1.0
132
0.0
 79
     0
146
0.0
  0
ENDTAB
  0
TABLE
  2
LTYPE
  5
5
330
0
100
AcDbSymbolTable
 70
     8
  0
LTYPE
  5
14
330
5
100
AcDbSymbolTableRecord
100
AcDbLinetypeTableRecord
  2
ByBlock
 70
     0
  3

 72
    65
 73
     0
 40
0.0
  0
LTYPE
  5
15
330
5
100
AcDbSymbolTableRecord
100
AcDbLinetypeTableRecord
  2
ByLayer
 70
     0
  3

 72
    65
 73
     0
 40
0.0
  0
LTYPE
  5
16
330
5
100
AcDbSymbolTableRecord
100
AcDbLinetypeTableRecord
  2
Continuous
 70
     0
  3
Solid line
 72
    65
 73
     0
 40
0.0
  0
LTYPE
  5
6E
330
5
100
AcDbSymbolTableRecord
100
AcDbLinetypeTableRecord
  2
DASHED
 70
     0
  3
Dashed
 72
    65
 73
     2
 40
15.0
 49
7.0
 74
     0
 49
-8.0
 74
     0
  0
LTYPE
  5
6F
330
5
100
AcDbSymbolTableRecord
100
AcDbLinetypeTableRecord
  2
DOTTED
 70
     0
  3
Dotted
 72
    65
 73
     2
 40
1.0
 49
0.0
 74
     0
 49
-1.0
 74
     0
  0
LTYPE
  5
70
330
5
100
AcDbSymbolTableRecord
100
AcDbLinetypeTableRecord
  2
DOT_CENTER
 70
     0
  3
Dot_Center
 72
    65
 73
     4
 40
14.0
 49
12.0
 74
     0
 49
-1.0
 74
     0
 49
0.0
 74
     0
 49
-1.0
 74
     0
  0
LTYPE
  5
71
330
5
100
AcDbSymbolTableRecord
100
AcDbLinetypeTableRecord
  2
LONG_DASHED
 70
     0
  3
Long_Dashed
 72
    65
 73
     2
 40
15.0
 49
10.0
 74
     0
 49
-5.0
 74
     0
  0
LTYPE
  5
72
330
5
100
AcDbSymbolTableRecord
100
AcDbLinetypeTableRecord
  2
DASH_CENTER
 70
     0
  3
Dash_Center
 72
    65
 73
     4
 40
14.0
 49
11.0
 74
     0
 49
-1.0
 74
     0
 49
1.0
 74
     0
 49
-1.0
 74
     0
  0
LTYPE
  5
73
330
5
100
AcDbSymbolTableRecord
100
AcDbLinetypeTableRecord
  2
PHANTOM
 70
     0
  3
Phantom
 72
    65
 73
     6
 40
13.0
 49
10.0
 74
     0
 49
-1.0
 74
     0
 49
0.0
 74
     0
 49
-1.0
 74
     0
 49
0.0
 74
     0
 49
-1.0
 74
     0
  0
LTYPE
  5
74
330
5
100
AcDbSymbolTableRecord
100
AcDbLinetypeTableRecord
  2
CENTER_DASH_DASH
 70
     0
  3
Center_Dash_Dash
 72
    65
 73
     6
 40
14.0
 49
9.0
 74
     0
 49
-1.0
 74
     0
 49
1.0
 74
     0
 49
-1.0
 74
     0
 49
1.0
 74
     0
 49
-1.0
 74
     0
  0
ENDTAB
  0
TABLE
  2
LAYER
  5
2
330
0
100
AcDbSymbolTable
 70
     2
  0
LAYER
  5
10
330
2
100
AcDbSymbolTableRecord
100
AcDbLayerTableRecord
  2
0
 70
     0
 62
     7
  6
Continuous
370
    -3
390
F
  0
LAYER
  5
75
330
2
100
AcDbSymbolTableRecord
100
AcDbLayerTableRecord
  2
1
 70
     0
 62
     7
  6
Continuous
370
    -3
390
F
  0
ENDTAB
  0
TABLE
  2
STYLE
  5
3
330
0
100
AcDbSymbolTable
 70
     5
  0
STYLE
  5
11
330
3
100
AcDbSymbolTableRecord
100
AcDbTextStyleTableRecord
  2
Standard
 70
     0
 40
0.0
 41
1.0
 50
0.0
 71
     0
 42
0.2
  3
txt
  4

  0
STYLE
  5
149
330
3
100
AcDbSymbolTableRecord
100
AcDbTextStyleTableRecord
  2
CONVERTER_11
 70
     0
 40
0.0
 41
0.9
 50
0.0
 71
     0
 42
0.2
  3
txt.shx
  4

  0
STYLE
  5
2F7
330
3
100
AcDbSymbolTableRecord
100
AcDbTextStyleTableRecord
  2
CONVERTER_12
 70
     0
 40
0.0
 41
0.81
 50
0.0
 71
     0
 42
0.2
  3
txt.shx
  4

  0
STYLE
  5
2FD
330
3
100
AcDbSymbolTableRecord
100
AcDbTextStyleTableRecord
  2
CONVERTER_13
 70
     0
 40
0.0
 41
0.855
 50
0.0
 71
     0
 42
0.2
  3
txt.shx
  4

  0
STYLE
  5
300
330
3
100
AcDbSymbolTableRecord
100
AcDbTextStyleTableRecord
  2
CONVERTER_14
 70
     0
 40
0.0
 41
0.72
 50
0.0
 71
     0
 42
0.2
  3
txt.shx
  4

  0
ENDTAB
  0
TABLE
  2
VIEW
  5
6
330
0
100
AcDbSymbolTable
 70
     0
  0
ENDTAB
  0
TABLE
  2
UCS
  5
7
330
0
100
AcDbSymbolTable
 70
     0
  0
ENDTAB
  0
TABLE
  2
APPID
  5
9
330
0
100
AcDbSymbolTable
 70
     2
  0
APPID
  5
12
330
9
100
AcDbSymbolTableRecord
100
AcDbRegAppTableRecord
  2
ACAD
 70
     0
  0
APPID
  5
378
330
9
100
AcDbSymbolTableRecord
100
AcDbRegAppTableRecord
  2
ACAD_MLEADERVER
 70
     0
  0
ENDTAB
  0
TABLE
  2
DIMSTYLE
  5
A
330
0
100
AcDbSymbolTable
 70
     6
100
AcDbDimStyleTable
  0
DIMSTYLE
105
27
330
A
100
AcDbSymbolTableRecord
100
AcDbDimStyleTableRecord
  2
Standard
 70
     0
178
     0
340
11
  0
DIMSTYLE
105
14D
102
{ACAD_REACTORS
330
14E
102
}
330
A
100
AcDbSymbolTableRecord
100
AcDbDimStyleTableRecord
  2
ME10_DIM_10
 70
     0
 41
3.5
 42
0.0
 44
1.5
 73
     0
 74
     0
 77
     1
 78
     8
140
3.5
147
1.5
172
     1
173
     1
174
     1
175
     1
176
     2
177
     2
178
     3
340
149
  0
DIMSTYLE
105
15A
102
{ACAD_REACTORS
330
15B
102
}
330
A
100
AcDbSymbolTableRecord
100
AcDbDimStyleTableRecord
  2
ME10_DIM_11
 70
     0
 41
3.5
 42
0.0
 44
1.5
 73
     0
 74
     0
 77
     1
 78
     8
140
3.5
147
1.5
172
     1
173
     1
174
     1
175
     1
176
     2
177
     2
178
     3
340
149
  0
DIMSTYLE
105
1E8
102
{ACAD_REACTORS
330
1E9
102
}
330
A
100
AcDbSymbolTableRecord
100
AcDbDimStyleTableRecord
  2
ME10_DIM_12
 70
     0
 41
3.5
 42
0.0
 44
1.5
 73
     0
 74
     0
 77
     1
 78
     8
140
3.5
147
1.5
172
     1
173
     1
174
     1
175
     1
176
     2
177
     2
271
     2
178
     3
271
     2
340
149
  0
DIMSTYLE
105
1F3
102
{ACAD_REACTORS
330
1F4
102
}
330
A
100
AcDbSymbolTableRecord
100
AcDbDimStyleTableRecord
  2
ME10_DIM_13
 70
     0
 41
3.5
 42
0.0
 44
1.5
 73
     0
 74
     0
 77
     1
 78
     8
140
3.5
147
1.5
172
     1
173
     1
174
     1
175
     1
176
     2
177
     2
271
     2
178
     3
271
     2
340
149
  0
DIMSTYLE
105
1FE
102
{ACAD_REACTORS
330
1FF
102
}
330
A
100
AcDbSymbolTableRecord
100
AcDbDimStyleTableRecord
  2
ME10_DIM_14
 70
     0
 41
3.5
 42
0.0
 44
2.0
 73
     0
 74
     0
 77
     1
 78
     8
140
3.5
147
2.0
172
     1
173
     1
174
     1
175
     1
176
     2
177
     2
271
     1
178
     3
271
     1
340
149
  0
ENDTAB
  0
TABLE
  2
BLOCK_RECORD
  5
1
330
0
100
AcDbSymbolTable
 70
    22
  0
BLOCK_RECORD
  5
1F
330
1
100
AcDbSymbolTableRecord
100
AcDbBlockTableRecord
  2
*Model_Space
340
22
  0
BLOCK_RECORD
  5
1B
330
1
100
AcDbSymbolTableRecord
100
AcDbBlockTableRecord
  2
*Paper_Space
340
1E
  0
BLOCK_RECORD
  5
23
330
1
100
AcDbSymbolTableRecord
100
AcDbBlockTableRecord
  2
*Paper_Space0
340
26
  0
BLOCK_RECORD
  5
76
330
1
100
AcDbSymbolTableRecord
100
AcDbBlockTableRecord
  2
D-RSC_6-F-select__1
340
0
102
{BLKREFS
331
7A
102
}
  0
BLOCK_RECORD
  5
79
330
1
100
AcDbSymbolTableRecord
100
AcDbBlockTableRecord
  2
AllgSicht1
340
0
102
{BLKREFS
331
AC
102
}
  0
BLOCK_RECORD
  5
7D
330
1
100
AcDbSymbolTableRecord
100
AcDbBlockTableRecord
  2
D-RSC_6-F-select__2
340
0
102
{BLKREFS
331
81
102
}
  0
BLOCK_RECORD
  5
80
330
1
100
AcDbSymbolTableRecord
100
AcDbBlockTableRecord
  2
Drfsicht1
340
0
102
{BLKREFS
331
AD
102
}
  0
BLOCK_RECORD
  5
84
330
1
100
AcDbSymbolTableRecord
100
AcDbBlockTableRecord
  2
D-RSC_6-F-select__3
340
0
102
{BLKREFS
331
88
102
}
  0
BLOCK_RECORD
  5
87
330
1
100
AcDbSymbolTableRecord
100
AcDbBlockTableRecord
  2
Rckans1
340
0
102
{BLKREFS
331
AE
102
}
  0
BLOCK_RECORD
  5
8B
330
1
100
AcDbSymbolTableRecord
100
AcDbBlockTableRecord
  2
D-RSC_6-F-select__4
340
0
102
{BLKREFS
331
8F
102
}
  0
BLOCK_RECORD
  5
8E
330
1
100
AcDbSymbolTableRecord
100
AcDbBlockTableRecord
  2
SA_Links1
340
0
102
{BLKREFS
331
AF
102
}
  0
BLOCK_RECORD
  5
92
330
1
100
AcDbSymbolTableRecord
100
AcDbBlockTableRecord
  2
D-RSC_6-F-select__5
340
0
102
{BLKREFS
331
96
102
}
  0
BLOCK_RECORD
  5
95
330
1
100
AcDbSymbolTableRecord
100
AcDbBlockTableRecord
  2
SA_Rechts1
340
0
102
{BLKREFS
331
B0
102
}
  0
BLOCK_RECORD
  5
99
330
1
100
AcDbSymbolTableRecord
100
AcDbBlockTableRecord
  2
D-RSC_6-F-select__6
340
0
102
{BLKREFS
331
9D
102
}
  0
BLOCK_RECORD
  5
9C
330
1
100
AcDbSymbolTableRecord
100
AcDbBlockTableRecord
  2
Vordans1
340
0
102
{BLKREFS
331
B1
102
}
  0
BLOCK_RECORD
  5
A0
330
1
100
AcDbSymbolTableRecord
100
AcDbBlockTableRecord
  2
_rahmen
340
0
102
{BLKREFS
331
A7
102
}
  0
BLOCK_RECORD
  5
A3
330
1
100
AcDbSymbolTableRecord
100
AcDbBlockTableRecord
  2
_punkt
340
0
102
{BLKREFS
331
A8
102
}
  0
BLOCK_RECORD
  5
A6
330
1
100
AcDbSymbolTableRecord
100
AcDbBlockTableRecord
  2
A4I_CS
340
0
102
{BLKREFS
331
B2
102
}
  0
BLOCK_RECORD
  5
AB
330
1
100
AcDbSymbolTableRecord
100
AcDbBlockTableRecord
  2
1
340
0
102
{BLKREFS
331
B5
102
}
  0
BLOCK_RECORD
  5
143
330
1
100
AcDbSymbolTableRecord
100
AcDbBlockTableRecord
  2
*D17
340
0
  0
BLOCK_RECORD
  5
14F
330
1
100
AcDbSymbolTableRecord
100
AcDbBlockTableRecord
  2
*D18
340
0
  0
BLOCK_RECORD
  5
1DF
330
1
100
AcDbSymbolTableRecord
100
AcDbBlockTableRecord
  2
*D19
340
0
  0
BLOCK_RECORD
  5
1EA
330
1
100
AcDbSymbolTableRecord
100
AcDbBlockTableRecord
  2
*D20
340
0
  0
BLOCK_RECORD
  5
1F5
330
1
100
AcDbSymbolTableRecord
100
AcDbBlockTableRecord
  2
*D21
340
0
  0
ENDTAB
  0
ENDSEC
  0
SECTION
  2
BLOCKS
  0
BLOCK
  5
20
330
1F
100
AcDbEntity
  8
0
100
AcDbBlockBegin
  2
*Model_Space
 70
     0
 10
0.0
 20
0.0
 30
0.0
  3
*Model_Space
  1

  0
ENDBLK
  5
21
330
1F
100
AcDbEntity
  8
0
100
AcDbBlockEnd
  0
BLOCK
  5
1C
330
1B
100
AcDbEntity
 67
     1
  8
0
100
AcDbBlockBegin
  2
*Paper_Space
 70
     0
 10
0.0
 20
0.0
 30
0.0
  3
*Paper_Space
  1

  0
ENDBLK
  5
1D
330
1B
100
AcDbEntity
 67
     1
  8
0
100
AcDbBlockEnd
  0
BLOCK
  5
24
330
23
100
AcDbEntity
  8
0
100
AcDbBlockBegin
  2
*Paper_Space0
 70
     0
 10
0.0
 20
0.0
 30
0.0
  3
*Paper_Space0
  1

  0
ENDBLK
  5
25
330
23
100
AcDbEntity
  8
0
100
AcDbBlockEnd
  0
BLOCK
  5
77
330
76
100
AcDbEntity
  8
0
100
AcDbBlockBegin
  2
D-RSC_6-F-select__1
 70
     0
 10
-57.54825674681007
 20
53.71550100230894
 30
0.0
  3
D-RSC_6-F-select__1
  1

  0
LINE
  5
B6
330
76
100
AcDbEntity
  8
0
  6
Continuous
 62
     7
100
AcDbLine
 10
-21.13244285152626
 20
65.17511049655023
 30
0.0
 11
-22.17167332749037
 21
65.4751104940742
 31
0.0
  0
LINE
  5
B7
330
76
100
AcDbEntity
  8
0
  6
Continuous
 62
     7
100
AcDbLine
 10
-27.05333721605047
 20
67.88025468850296
 30
0.0
 11
-21.30917332749047
 21
66.22205740483822
 31
0.0
  0
LINE
  5
B8
330
76
100
AcDbEntity
  8
0
  6
Continuous
 62
     7
100
AcDbLine
 10
-17.00744285152635
 20
68.74746528716099
 30
0.0
 11
-21.13244285152626
 21
65.17511049655023
 31
0.0
  0
LINE
  5
B9
330
76
100
AcDbEntity
  8
0
  6
Continuous
 62
     7
100
AcDbLine
 10
-18.04667333606767
 20
69.04746528716099
 30
0.0
 11
-22.17167332749037
 21
65.4751104940742
 31
0.0
  0
LINE
  5
BA
330
76
100
AcDbEntity
  8
0
  6
Continuous
 62
     7
100
AcDbLine
 10
12.44818636883585
 20
70.90686437428064
 30
0.0
 11
13.54818636883533
 21
71.85949231844462
 31
0.0
  0
LINE
  5
BB
330
76
100
AcDbEntity
  8
0
  6
Continuous
 62
     7
100
AcDbLine
 10
13.54818636883533
 20
71.85949231844462
 30
0.0
 11
13.54825750290453
 21
57.09586005968932
 31
0.0
  0
LINE
  5
BC
330
76
100
AcDbEntity
  8
0
  6
Continuous
 62
     7
100
AcDbLine
 10
13.54818636883533
 20
71.85949231844462
 30
0.0
 11
11.55386033134494
 21
75.88936553164213
 31
0.0
  0
LINE
  5
BD
330
76
100
AcDbEntity
  8
0
  6
Continuous
 62
     7
100
AcDbLine
 10
-33.96756770059176
 20
59.84518370463644
 30
0.0
 11
-30.76327401738746
 21
58.92018379435615
 31
0.0
  0
LINE
  5
BE
330
76
100
AcDbEntity
  8
0
  6
Continuous
 62
     7
100
AcDbLine
 10
-22.88244285152626
 20
60.62847712668192
 30
0.0
 11
-23.92167333606756
 21
60.92847712668193
 31
0.0
  0
LINE
  5
BF
330
76
100
AcDbEntity
  8
0
  6
Continuous
 62
     7
100
AcDbLine
 10
-22.88244285152626
 20
60.62847712668192
 30
0.0
 11
-21.13244285152626
 21
65.17511049655023
 31
0.0
  0
LINE
  5
C0
330
76
100
AcDbEntity
  8
0
  6
Continuous
 62
     7
100
AcDbLine
 10
-22.88244285152626
 20
60.62847712668192
 30
0.0
 11
-22.88244285152626
 21
56.64518379683216
 31
0.0
  0
LINE
  5
C1
330
76
100
AcDbEntity
  8
0
  6
Continuous
 62
     7
100
AcDbLine
 10
-26.08673683695156
 20
57.57018379435617
 30
0.0
 11
-26.08673683695156
 21
60.81735553098915
 31
0.0
  0
LINE
  5
C2
330
76
100
AcDbEntity
  8
0
  6
Continuous
 62
     7
100
AcDbLine
 10
-32.92833721605035
 20
63.5284770344862
 30
0.0
 11
-33.96756770059176
 21
63.8284770344862
 31
0.0
  0
LINE
  5
C3
330
76
100
AcDbEntity
  8
0
  6
Continuous
 62
     7
100
AcDbLine
 10
-33.96756770059176
 20
63.8284770344862
 30
0.0
 11
-33.96756770059176
 21
59.84518370463644
 31
0.0
  0
LINE
  5
C4
330
76
100
AcDbEntity
  8
0
  6
Continuous
 62
     7
100
AcDbLine
 10
-23.92167333606756
 20
60.19235553346515
 30
0.0
 11
-23.92167333606756
 21
60.92847712668193
 31
0.0
  0
LINE
  5
C5
330
76
100
AcDbEntity
  8
0
  6
Continuous
 62
     7
100
AcDbLine
 10
-32.92833721605035
 20
62.79235544126944
 30
0.0
 11
-30.76327401738746
 21
62.16735553098913
 31
0.0
  0
LINE
  5
C6
330
76
100
AcDbEntity
  8
0
  6
Continuous
 62
     2
100
AcDbLine
 10
-28.38827401738746
 20
64.22416586497718
 30
0.0
 11
-28.38827401738746
 21
60.97699412834419
 31
0.0
  0
LINE
  5
C7
330
76
100
AcDbEntity
  8
0
  6
Continuous
 62
     7
100
AcDbLine
 10
-32.92833721605035
 20
63.5284770344862
 30
0.0
 11
-32.92833721605035
 21
62.79235544126944
 31
0.0
  0
LINE
  5
C8
330
76
100
AcDbEntity
  8
0
  6
Continuous
 62
     7
100
AcDbLine
 10
-30.76327401738746
 20
62.16735553098913
 30
0.0
 11
-30.76327401738746
 21
58.92018379435615
 31
0.0
  0
LINE
  5
C9
330
76
100
AcDbEntity
  8
0
  6
Continuous
 62
     7
100
AcDbLine
 10
-28.38827401738746
 20
60.97699412834419
 30
0.0
 11
-30.76327401738746
 21
58.92018379435615
 31
0.0
  0
LINE
  5
CA
330
76
100
AcDbEntity
  8
0
  6
Continuous
 62
     7
100
AcDbLine
 10
-30.76327401738746
 20
62.16735553098913
 30
0.0
 11
-28.38827401738746
 21
64.22416586497718
 31
0.0
  0
LINE
  5
CB
330
76
100
AcDbEntity
  8
0
  6
Continuous
 62
     7
100
AcDbLine
 10
-27.05333721605047
 20
67.88025468850296
 30
0.0
 11
-32.92833721605035
 21
62.79235544126944
 31
0.0
  0
LINE
  5
CC
330
76
100
AcDbEntity
  8
0
  6
Continuous
 62
     7
100
AcDbLine
 10
-26.08673683695156
 20
60.81735553098915
 30
0.0
 11
-23.92167333606756
 21
60.19235553346515
 31
0.0
  0
LINE
  5
CD
330
76
100
AcDbEntity
  8
0
  6
Continuous
 62
     7
100
AcDbLine
 10
-23.71173683695145
 20
62.87416586497719
 30
0.0
 11
-26.08673683695156
 21
60.81735553098915
 31
0.0
  0
LINE
  5
CE
330
76
100
AcDbEntity
  8
0
  6
Continuous
 62
     7
100
AcDbLine
 10
-26.08673683695156
 20
57.57018379435617
 30
0.0
 11
-22.88244285152626
 21
56.64518379683216
 31
0.0
  0
LINE
  5
CF
330
76
100
AcDbEntity
  8
0
  6
Continuous
 62
     7
100
AcDbLine
 10
-17.00744285152635
 20
61.73308304406569
 30
0.0
 11
-22.88244285152626
 21
56.64518379683216
 31
0.0
  0
LINE
  5
D0
330
76
100
AcDbEntity
  8
0
  6
Continuous
 62
     7
100
AcDbLine
 10
-22.17167332749037
 20
65.4751104940742
 30
0.0
 11
-23.92167333606756
 21
60.92847712668193
 31
0.0
  0
LINE
  5
D1
330
76
100
AcDbEntity
  8
0
  6
Continuous
 62
     7
100
AcDbLine
 10
-18.04667333606767
 20
69.04746528716099
 30
0.0
 11
-17.00744285152635
 21
68.74746528716099
 31
0.0
  0
LINE
  5
D2
330
76
100
AcDbEntity
  8
0
  6
Continuous
 62
     7
100
AcDbLine
 10
-17.00744285152635
 20
61.73308304406569
 30
0.0
 11
-17.00744285152635
 21
68.74746528716099
 31
0.0
  0
LINE
  5
D3
330
76
100
AcDbEntity
  8
0
  6
Continuous
 62
     7
100
AcDbLine
 10
-53.45935675151827
 20
95.36920213212409
 30
0.0
 11
-55.07353178676445
 21
95.55054369814519
 31
0.0
  0
LINE
  5
D4
330
76
100
AcDbEntity
  8
0
  6
Continuous
 62
     7
100
AcDbLine
 10
-31.17833721605035
 20
68.07511040435452
 30
0.0
 11
-32.92833721605035
 21
63.5284770344862
 31
0.0
  0
LINE
  5
D5
330
76
100
AcDbEntity
  8
0
  6
Continuous
 62
     7
100
AcDbLine
 10
-47.30377785934937
 20
106.1302607518321
 30
0.0
 11
-48.40377785934936
 21
105.1776328076692
 31
0.0
  0
LINE
  5
D6
330
76
100
AcDbEntity
  8
0
  6
Continuous
 62
     7
100
AcDbLine
 10
-54.45369412717207
 20
94.9440751157725
 30
0.0
 11
-53.87052226964747
 21
94.77572790130972
 31
0.0
  0
LINE
  5
D7
330
76
100
AcDbEntity
  8
0
  6
Continuous
 62
     7
100
AcDbLine
 10
-48.40377785934936
 20
105.1776328076692
 30
0.0
 11
-55.07353178676445
 21
95.55054369814519
 31
0.0
  0
LINE
  5
D8
330
76
100
AcDbEntity
  8
0
  6
Continuous
 62
     7
100
AcDbLine
 10
-53.45935675151827
 20
95.36920213212409
 30
0.0
 11
-54.60384744308485
 21
93.71725005223635
 31
0.0
  0
LINE
  5
D9
330
76
100
AcDbEntity
  8
0
  6
Continuous
 62
     7
100
AcDbLine
 10
11.07369078744534
 20
77.72563347155389
 30
0.0
 11
9.97369078744603
 21
76.77300552739075
 31
0.0
  0
LINE
  5
DA
330
76
100
AcDbEntity
  8
0
  6
Continuous
 62
     7
100
AcDbLine
 10
9.97369078744603
 20
76.77300552739075
 30
0.0
 11
8.35934259230305
 21
77.52365724306576
 31
0.0
  0
LINE
  5
DB
330
76
100
AcDbEntity
  8
0
  6
Continuous
 62
     7
100
AcDbLine
 10
10.20369506207933
 20
76.97219507220234
 30
0.0
 11
10.60385519425543
 21
76.16360381514016
 31
0.0
  0
LINE
  5
DC
330
76
100
AcDbEntity
  8
0
  6
Continuous
 62
     7
100
AcDbLine
 10
10.60385519425543
 20
76.16360381514016
 30
0.0
 11
11.55386033134494
 21
75.88936553164213
 31
0.0
  0
LINE
  5
DD
330
76
100
AcDbEntity
  8
0
  6
Continuous
 62
     7
100
AcDbLine
 10
10.45386033134494
 20
74.93673758747926
 30
0.0
 11
9.50385519425544
 21
75.2109758709773
 31
0.0
  0
LINE
  5
DE
330
76
100
AcDbEntity
  8
0
  6
Continuous
 62
     7
100
AcDbLine
 10
9.50385519425544
 20
75.2109758709773
 30
0.0
 11
10.60385519425543
 21
76.16360381514016
 31
0.0
  0
LINE
  5
DF
330
76
100
AcDbEntity
  8
0
  6
Continuous
 62
     7
100
AcDbLine
 10
11.55386033134494
 20
75.88936553164213
 30
0.0
 11
10.45386033134494
 21
74.93673758747926
 31
0.0
  0
LINE
  5
E0
330
76
100
AcDbEntity
  8
0
  6
Continuous
 62
     7
100
AcDbLine
 10
12.44825750290514
 20
56.14323211552723
 30
0.0
 11
12.44818636883585
 21
70.90686437428064
 31
0.0
  0
LINE
  5
E1
330
76
100
AcDbEntity
  8
0
  6
Continuous
 62
     7
100
AcDbLine
 10
9.50385519425544
 20
75.2109758709773
 30
0.0
 11
8.35934259230305
 21
77.52365724306576
 31
0.0
  0
LINE
  5
E2
330
76
100
AcDbEntity
  8
0
  6
Continuous
 62
     7
100
AcDbLine
 10
10.45386033134494
 20
74.93673758747926
 30
0.0
 11
12.44818636883585
 21
70.90686437428064
 31
0.0
  0
LINE
  5
E3
330
76
100
AcDbEntity
  8
0
  6
Continuous
 62
     7
100
AcDbLine
 10
3.30363120389865
 20
90.25098953846728
 30
0.0
 11
9.97369078744603
 21
76.77300552739075
 31
0.0
  0
LINE
  5
E4
330
76
100
AcDbEntity
  8
0
  6
Continuous
 62
     7
100
AcDbLine
 10
11.07369078744534
 20
77.72563347155389
 30
0.0
 11
4.40363120389804
 21
91.2036174826303
 31
0.0
  0
LINE
  5
E5
330
76
100
AcDbEntity
  8
0
  6
Continuous
 62
     7
100
AcDbLine
 10
-57.54825674681007
 20
91.1125055670545
 30
0.0
 11
-55.55369412717195
 21
93.99144717160965
 31
0.0
  0
LINE
  5
E6
330
76
100
AcDbEntity
  8
0
  6
Continuous
 62
     7
100
AcDbLine
 10
-57.54825674681007
 20
76.34946622483618
 30
0.0
 11
-55.86628629869537
 21
72.95066490637595
 31
0.0
  0
LINE
  5
E7
330
76
100
AcDbEntity
  8
0
  6
Continuous
 62
     7
100
AcDbLine
 10
-57.54825674681007
 20
91.1125055670545
 30
0.0
 11
-57.54825674681007
 21
76.34946622483618
 31
0.0
  0
LINE
  5
E8
330
76
100
AcDbEntity
  8
0
  6
Continuous
 62
     7
100
AcDbLine
 10
-54.60384744308485
 20
93.71725005223635
 30
0.0
 11
-55.55369412717195
 21
93.99144717160965
 31
0.0
  0
LINE
  5
E9
330
76
100
AcDbEntity
  8
0
  6
Continuous
 62
     7
100
AcDbLine
 10
-54.45369412717207
 20
94.9440751157725
 30
0.0
 11
-55.55369412717195
 21
93.99144717160965
 31
0.0
  0
LINE
  5
EA
330
76
100
AcDbEntity
  8
0
  6
Continuous
 62
     7
100
AcDbLine
 10
-31.17833721605035
 20
68.07511040435452
 30
0.0
 11
-32.21756770059176
 21
68.3751104043545
 31
0.0
  0
LINE
  5
EB
330
76
100
AcDbEntity
  8
0
  6
Continuous
 62
     7
100
AcDbLine
 10
-28.09256770059176
 20
71.94746519496526
 30
0.0
 11
-27.05333721605047
 21
71.64746519496526
 31
0.0
  0
LINE
  5
EC
330
76
100
AcDbEntity
  8
0
  6
Continuous
 62
     7
100
AcDbLine
 10
-27.05333721605047
 20
67.88025468850296
 30
0.0
 11
-27.05333721605047
 21
71.64746519496526
 31
0.0
  0
LINE
  5
ED
330
76
100
AcDbEntity
  8
0
  6
Continuous
 62
     7
100
AcDbLine
 10
-27.05333721605047
 20
71.64746519496526
 30
0.0
 11
-31.17833721605035
 21
68.07511040435452
 31
0.0
  0
LINE
  5
EE
330
76
100
AcDbEntity
  8
0
  6
Continuous
 62
     7
100
AcDbLine
 10
-28.09256770059176
 20
71.94746519496526
 30
0.0
 11
-32.21756770059176
 21
68.3751104043545
 31
0.0
  0
LINE
  5
EF
330
76
100
AcDbEntity
  8
0
  6
Continuous
 62
     7
100
AcDbLine
 10
-32.21756770059176
 20
68.3751104043545
 30
0.0
 11
-33.96756770059176
 21
63.8284770344862
 31
0.0
  0
LINE
  5
F0
330
76
100
AcDbEntity
  8
0
  6
Continuous
 62
     7
100
AcDbLine
 10
-55.86628629869537
 20
72.95066490637595
 30
0.0
 11
-32.99742098635446
 21
66.34899213426877
 31
0.0
  0
LINE
  5
F1
330
76
100
AcDbEntity
  8
0
  6
Continuous
 62
     7
100
AcDbLine
 10
4.40363120389804
 20
91.2036174826303
 30
0.0
 11
3.30363120389865
 21
90.25098953846728
 31
0.0
  0
LINE
  5
F2
330
76
100
AcDbEntity
  8
0
  6
Continuous
 62
     7
100
AcDbLine
 10
4.40363120389804
 20
91.2036174826303
 30
0.0
 11
-47.30377785934937
 21
106.1302607518321
 31
0.0
  0
LINE
  5
F3
330
76
100
AcDbEntity
  8
0
  6
Continuous
 62
     7
100
AcDbLine
 10
12.44825750290514
 20
56.14323211552723
 30
0.0
 11
13.54825750290453
 21
57.09586005968932
 31
0.0
  0
LINE
  5
F4
330
76
100
AcDbEntity
  8
0
  6
Continuous
 62
     7
100
AcDbLine
 10
11.86627604882264
 20
54.66812894647181
 30
0.0
 11
13.54825750290453
 21
57.09586005968932
 31
0.0
  0
LINE
  5
F5
330
76
100
AcDbEntity
  8
0
  6
Continuous
 62
     7
100
AcDbLine
 10
10.76627604882265
 20
53.71550100230894
 30
0.0
 11
12.44825750290514
 21
56.14323211552723
 31
0.0
  0
LINE
  5
F6
330
76
100
AcDbEntity
  8
0
  6
Continuous
 62
     7
100
AcDbLine
 10
11.86627604882264
 20
54.66812894647181
 30
0.0
 11
10.76627604882265
 21
53.71550100230894
 31
0.0
  0
LINE
  5
F7
330
76
100
AcDbEntity
  8
0
  6
Continuous
 62
     7
100
AcDbLine
 10
-17.00744285152635
 20
61.73308304406569
 30
0.0
 11
10.76627604882265
 21
53.71550100230894
 31
0.0
  0
LINE
  5
F8
330
76
100
AcDbEntity
  8
0
  6
Continuous
 62
     7
100
AcDbLine
 10
-48.40377785934936
 20
105.1776328076692
 30
0.0
 11
3.30363120389865
 21
90.25098953846728
 31
0.0
  0
SPLINE
  5
F9
330
76
100
AcDbEntity
  8
0
  6
Continuous
 62
     7
100
AcDbSpline
210
0.0
220
0.0
230
1.0
 70
  1064
 71
     3
 72
     9
 73
     5
 74
     3
 42
0.000000001
 43
0.0000000001
 44
0.00000001
 40
0.0
 40
0.0
 40
0.0
 40
0.0
 40
0.3613149063969791
 40
0.7841224431624364
 40
0.7841224431624364
 40
0.7841224431624364
 40
0.7841224431624364
 10
-23.35000542716946
 20
63.54916586497717
 30
0.0
 10
-23.37003585613992
 20
63.42723196333672
 30
0.0
 10
-23.41350573573506
 20
63.1626120852828
 30
0.0
 10
-23.60726154322572
 20
62.97521334374895
 30
0.0
 10
-23.71173683695145
 20
62.87416586497719
 30
0.0
 11
-23.35000542716946
 21
63.54916586497717
 31
0.0
 11
-23.44200639149675
 21
63.19976024724236
 31
0.0
 11
-23.71173683695145
 21
62.87416586497719
 31
0.0
  0
SPLINE
  5
FA
330
76
100
AcDbEntity
  8
0
  6
Continuous
 62
     7
100
AcDbSpline
210
0.0
220
0.0
230
1.0
 70
  1064
 71
     3
 72
    13
 73
     9
 74
     7
 42
0.000000001
 43
0.0000000001
 44
0.00000001
 40
0.0
 40
0.0
 40
0.0
 40
0.0
 40
0.4407027844846331
 40
0.9485011264919657
 40
1.51145468646705
 40
2.110907668644968
 40
2.724492911793455
 40
3.328519786547618
 40
3.328519786547618
 40
3.328519786547618
 40
3.328519786547618
 10
-28.38827401738746
 20
60.97699412834419
 30
0.0
 10
-28.26946446994994
 20
61.06425761142232
 30
0.0
 10
-28.01375700152595
 20
61.25207014474872
 30
0.0
 10
-27.54107475539921
 20
61.43908491737926
 30
0.0
 10
-27.00136286269675
 20
61.57835589680044
 30
0.0
 10
-26.4122900840822
 20
61.6502956200527
 30
0.0
 10
-25.80481655673626
 20
61.66131449176089
 30
0.0
 10
-25.40180604073543
 20
61.60941019274552
 30
0.0
 10
-25.20188261845985
 20
61.58366176284878
 30
0.0
 11
-28.38827401738746
 21
60.97699412834419
 31
0.0
 11
-28.02301139541684
 21
61.22357507474843
 31
0.0
 11
-27.5558172127932
 21
61.42254431310575
 31
0.0
 11
-27.01082748029018
 21
61.56362197522277
 31
0.0
 11
-26.41619872339466
 21
61.63952005984978
 31
0.0
 11
-25.8026511287573
 21
61.6463168355929
 31
0.0
 11
-25.20188261845985
 21
61.58366176284878
 31
0.0
  0
SPLINE
  5
FB
330
76
100
AcDbEntity
  8
0
  6
Continuous
 62
     7
100
AcDbSpline
210
0.0
220
0.0
230
1.0
 70
  1064
 71
     3
 72
    17
 73
    13
 74
    11
 42
0.000000001
 43
0.0000000001
 44
0.00000001
 40
0.0
 40
0.0
 40
0.0
 40
0.0
 40
0.5121358029670773
 40
1.111066999936035
 40
1.776074845698003
 40
2.476398476230123
 40
3.176722106985236
 40
3.841729953656243
 40
4.440661150018013
 40
4.9527969473115
 40
5.375604486133756
 40
5.736919385740325
 40
5.736919385740325
 40
5.736919385740325
 40
5.736919385740325
 10
-28.38827401738746
 20
64.22416586497718
 30
0.0
 10
-28.24885461451657
 20
64.32393156520392
 30
0.0
 10
-27.9463873780022
 20
64.54037097648423
 30
0.0
 10
-27.38145833742166
 20
64.73811521722331
 30
0.0
 10
-26.73957327648781
 20
64.87058791149653
 30
0.0
 10
-26.04990507330551
 20
64.91397789638108
 30
0.0
 10
-25.36082882111434
 20
64.86998960032776
 30
0.0
 10
-24.71731184525279
 20
64.74027554408536
 30
0.0
 10
-24.15748363943926
 20
64.53358845403963
 30
0.0
 10
-23.72479656764232
 20
64.26136087366275
 30
0.0
 10
-23.4152270612604
 20
63.93269332051683
 30
0.0
 10
-23.37057883038694
 20
63.67014514627998
 30
0.0
 10
-23.35000542716946
 20
63.54916586497717
 30
0.0
 11
-28.38827401738746
 21
64.22416586497718
 31
0.0
 11
-27.95919322737259
 21
64.50375976507871
 31
0.0
 11
-27.40000542716952
 21
64.71830016008616
 31
0.0
 11
-26.74881666263914
 21
64.85316538281353
 31
0.0
 11
-26.05000542716947
 21
64.89916586497718
 31
0.0
 11
-25.35119419169984
 21
64.85316538281353
 31
0.0
 11
-24.7000054271695
 21
64.71830016008616
 31
0.0
 11
-24.14081762696643
 21
64.50375976507871
 31
0.0
 11
-23.71173683695151
 21
64.22416586497718
 31
0.0
 11
-23.44200639149676
 21
63.898571482712
 31
0.0
 11
-23.35000542716946
 21
63.54916586497717
 31
0.0
  0
ENDBLK
  5
78
330
76
100
AcDbEntity
  8
0
100
AcDbBlockEnd
  0
BLOCK
  5
7B
330
79
100
AcDbEntity
  8
0
100
AcDbBlockBegin
  2
AllgSicht1
 70
     0
 10
-22.00000000005045
 20
81.00000000003001
 30
0.0
  3
AllgSicht1
  1

  0
INSERT
  5
7A
330
79
100
AcDbEntity
  8
0
100
AcDbBlockReference
  2
D-RSC_6-F-select__1
 10
-57.54825674681007
 20
53.71550100230894
 30
0.0
  0
ENDBLK
  5
7C
330
79
100
AcDbEntity
  8
0
100
AcDbBlockEnd
  0
BLOCK
  5
7E
330
7D
100
AcDbEntity
  8
0
100
AcDbBlockBegin
  2
D-RSC_6-F-select__2
 70
     0
 10
-172.675011852761
 20
71.45000040463736
 30
0.0
  3
D-RSC_6-F-select__2
  1

  0
LINE
  5
FC
330
7D
100
AcDbEntity
  8
0
  6
Continuous
 62
     7
100
AcDbLine
 10
-125.8625122215439
 20
71.45000040463736
 30
0.0
 11
-127.0625122215439
 21
71.45000040463736
 31
0.0
  0
LINE
  5
FD
330
7D
100
AcDbEntity
  8
0
  6
Continuous
 62
     7
100
AcDbLine
 10
-137.462511852761
 20
74.95000040463736
 30
0.0
 11
-137.462511852761
 21
71.45000040463736
 31
0.0
  0
LINE
  5
FE
330
7D
100
AcDbEntity
  8
0
  6
Continuous
 62
     7
100
AcDbLine
 10
-137.462511852761
 20
71.45000040463736
 30
0.0
 11
-138.662511852761
 21
71.45000040463736
 31
0.0
  0
LINE
  5
FF
330
7D
100
AcDbEntity
  8
0
  6
Continuous
 62
     7
100
AcDbLine
 10
-137.462511852761
 20
71.45000040463736
 30
0.0
 11
-134.9625122116398
 21
71.45000040463736
 31
0.0
  0
LINE
  5
100
330
7D
100
AcDbEntity
  8
0
  6
Continuous
 62
     7
100
AcDbLine
 10
-137.462511852761
 20
74.95000040463736
 30
0.0
 11
-138.662511852761
 21
74.95000040463736
 31
0.0
  0
LINE
  5
101
330
7D
100
AcDbEntity
  8
0
  6
Continuous
 62
     7
100
AcDbLine
 10
-129.5625122116398
 20
71.45000040463736
 30
0.0
 11
-127.0625122215439
 21
71.45000040463736
 31
0.0
  0
LINE
  5
102
330
7D
100
AcDbEntity
  8
0
  6
Continuous
 62
     7
100
AcDbLine
 10
-129.5625122116398
 20
76.20000040463736
 30
0.0
 11
-129.5625122116398
 21
71.45000040463736
 31
0.0
  0
LINE
  5
103
330
7D
100
AcDbEntity
  8
0
  6
Continuous
 62
     7
100
AcDbLine
 10
-138.662511852761
 20
74.95000040463736
 30
0.0
 11
-138.662511852761
 21
71.45000040463736
 31
0.0
  0
LINE
  5
104
330
7D
100
AcDbEntity
  8
0
  6
Continuous
 62
     7
100
AcDbLine
 10
-125.8625122215439
 20
74.95000040463736
 30
0.0
 11
-127.0625122116398
 21
74.95000040463736
 31
0.0
  0
LINE
  5
105
330
7D
100
AcDbEntity
  8
0
  6
Continuous
 62
     7
100
AcDbLine
 10
-127.0625122116398
 20
74.95000040463736
 30
0.0
 11
-127.0625122215439
 21
71.45000040463736
 31
0.0
  0
LINE
  5
106
330
7D
100
AcDbEntity
  8
0
  6
Continuous
 62
     7
100
AcDbLine
 10
-125.8625122215439
 20
71.45000040463736
 30
0.0
 11
-125.8625122215439
 21
74.95000040463736
 31
0.0
  0
LINE
  5
107
330
7D
100
AcDbEntity
  8
0
  6
Continuous
 62
     7
100
AcDbLine
 10
-125.8625122215439
 20
83.20000040463721
 30
0.0
 11
-125.8625122215439
 21
74.95000040463736
 31
0.0
  0
LINE
  5
108
330
7D
100
AcDbEntity
  8
0
  6
Continuous
 62
     7
100
AcDbLine
 10
-162.1158771582124
 20
83.20000040463721
 30
0.0
 11
-138.662511852761
 21
83.20000040463721
 31
0.0
  0
LINE
  5
109
330
7D
100
AcDbEntity
  8
0
  6
Continuous
 62
     7
100
AcDbLine
 10
-172.675011852761
 20
83.20000040463721
 30
0.0
 11
-170.3718893220338
 21
83.20000040463721
 31
0.0
  0
LINE
  5
10A
330
7D
100
AcDbEntity
  8
0
  6
Continuous
 62
     7
100
AcDbLine
 10
-172.675011852761
 20
85.40000040463718
 30
0.0
 11
-172.675011852761
 21
83.20000040463721
 31
0.0
  0
LINE
  5
10B
330
7D
100
AcDbEntity
  8
0
  6
Continuous
 62
     7
100
AcDbLine
 10
-162.1158771582124
 20
83.20000040463721
 30
0.0
 11
-169.8174456090558
 21
83.20000040463721
 31
0.0
  0
LINE
  5
10C
330
7D
100
AcDbEntity
  8
0
  6
Continuous
 62
     7
100
AcDbLine
 10
-169.8174456090558
 20
85.40000040463721
 30
0.0
 11
-169.8174456090558
 21
83.20000040463721
 31
0.0
  0
LINE
  5
10D
330
7D
100
AcDbEntity
  8
0
  6
Continuous
 62
     7
100
AcDbLine
 10
-170.3718893220338
 20
85.40000040463718
 30
0.0
 11
-170.3718893220338
 21
83.20000040463721
 31
0.0
  0
LINE
  5
10E
330
7D
100
AcDbEntity
  8
0
  6
Continuous
 62
     7
100
AcDbLine
 10
-169.8174456090558
 20
85.40000040463721
 30
0.0
 11
-162.1158771582124
 21
85.40000040463718
 31
0.0
  0
LINE
  5
10F
330
7D
100
AcDbEntity
  8
0
  6
Continuous
 62
     7
100
AcDbLine
 10
-170.3718893220338
 20
85.40000040463718
 30
0.0
 11
-169.8174456090558
 21
85.40000040463721
 31
0.0
  0
LINE
  5
110
330
7D
100
AcDbEntity
  8
0
  6
Continuous
 62
     7
100
AcDbLine
 10
-169.8174456090558
 20
83.20000040463721
 30
0.0
 11
-170.3718893220338
 21
83.20000040463721
 31
0.0
  0
LINE
  5
111
330
7D
100
AcDbEntity
  8
0
  6
Continuous
 62
     7
100
AcDbLine
 10
-162.1158771582124
 20
85.40000040463718
 30
0.0
 11
-162.1158771582124
 21
83.20000040463721
 31
0.0
  0
LINE
  5
112
330
7D
100
AcDbEntity
  8
0
  6
Continuous
 62
     7
100
AcDbLine
 10
-170.3718893220338
 20
85.40000040463718
 30
0.0
 11
-172.675011852761
 21
85.40000040463718
 31
0.0
  0
LINE
  5
113
330
7D
100
AcDbEntity
  8
0
  6
Continuous
 62
     7
100
AcDbLine
 10
-137.4625118527611
 20
85.40000040463718
 30
0.0
 11
-138.662511852761
 21
85.40000040463718
 31
0.0
  0
LINE
  5
114
330
7D
100
AcDbEntity
  8
0
  6
Continuous
 62
     7
100
AcDbLine
 10
-138.662511852761
 20
85.40000040463718
 30
0.0
 11
-162.1158771582124
 21
85.40000040463718
 31
0.0
  0
LINE
  5
115
330
7D
100
AcDbEntity
  8
0
  6
Continuous
 62
     7
100
AcDbLine
 10
-91.85008130249264
 20
85.40000040463721
 30
0.0
 11
-91.84999916394463
 21
85.40000040463721
 31
0.0
  0
LINE
  5
116
330
7D
100
AcDbEntity
  8
0
  6
Continuous
 62
     7
100
AcDbLine
 10
-127.062512221544
 20
85.40000040463718
 30
0.0
 11
-137.4625118527611
 21
85.40000040463718
 31
0.0
  0
LINE
  5
117
330
7D
100
AcDbEntity
  8
0
  6
Continuous
 62
     7
100
AcDbLine
 10
-102.4093040746845
 20
85.40000040463718
 30
0.0
 11
-125.862512221544
 21
85.40000040463718
 31
0.0
  0
LINE
  5
118
330
7D
100
AcDbEntity
  8
0
  6
Continuous
 62
     7
100
AcDbLine
 10
-138.6625118527611
 20
97.15000040463705
 30
0.0
 11
-138.6625118527611
 21
93.65000040463705
 31
0.0
  0
LINE
  5
119
330
7D
100
AcDbEntity
  8
0
  6
Continuous
 62
     7
100
AcDbLine
 10
-137.4625118527611
 20
97.15000040463705
 30
0.0
 11
-138.6625118527611
 21
97.15000040463705
 31
0.0
  0
LINE
  5
11A
330
7D
100
AcDbEntity
  8
0
  6
Continuous
 62
     7
100
AcDbLine
 10
-137.4625118527611
 20
97.15000040463705
 30
0.0
 11
-137.4625118527611
 21
93.65000040463705
 31
0.0
  0
LINE
  5
11B
330
7D
100
AcDbEntity
  8
0
  6
Continuous
 62
     7
100
AcDbLine
 10
-138.662511852761
 20
83.20000040463721
 30
0.0
 11
-138.662511852761
 21
74.95000040463736
 31
0.0
  0
LINE
  5
11C
330
7D
100
AcDbEntity
  8
0
  6
Continuous
 62
     7
100
AcDbLine
 10
-134.9625122116398
 20
71.45000040463736
 30
0.0
 11
-134.9625122116398
 21
76.20000040463736
 31
0.0
  0
LINE
  5
11D
330
7D
100
AcDbEntity
  8
0
  6
Continuous
 62
     7
100
AcDbLine
 10
-138.6625118527611
 20
93.65000040463705
 30
0.0
 11
-137.4625118527611
 21
93.65000040463705
 31
0.0
  0
LINE
  5
11E
330
7D
100
AcDbEntity
  8
0
  6
Continuous
 62
     7
100
AcDbLine
 10
-138.662511852761
 20
85.40000040463718
 30
0.0
 11
-138.6625118527611
 21
93.65000040463705
 31
0.0
  0
LINE
  5
11F
330
7D
100
AcDbEntity
  8
0
  6
Continuous
 62
     7
100
AcDbLine
 10
-137.4625118527611
 20
85.40000040463718
 30
0.0
 11
-137.4625118527611
 21
93.65000040463705
 31
0.0
  0
LINE
  5
120
330
7D
100
AcDbEntity
  8
0
  6
Continuous
 62
     7
100
AcDbLine
 10
-137.4625118527611
 20
97.15000040463705
 30
0.0
 11
-134.9625118626651
 21
97.15000040463705
 31
0.0
  0
LINE
  5
121
330
7D
100
AcDbEntity
  8
0
  6
Continuous
 62
     7
100
AcDbLine
 10
-91.84999916394393
 20
83.20000040463721
 30
0.0
 11
-91.84999916394463
 21
85.40000040463721
 31
0.0
  0
LINE
  5
122
330
7D
100
AcDbEntity
  8
0
  6
Continuous
 62
     7
100
AcDbLine
 10
-91.84999916394393
 20
83.20000040463721
 30
0.0
 11
-91.85008130249204
 21
83.20000040463721
 31
0.0
  0
LINE
  5
123
330
7D
100
AcDbEntity
  8
0
  6
Continuous
 62
     7
100
AcDbLine
 10
-102.4093040746839
 20
83.20000040463721
 30
0.0
 11
-94.70738268253994
 21
83.20000040463721
 31
0.0
  0
LINE
  5
124
330
7D
100
AcDbEntity
  8
0
  6
Continuous
 62
     7
100
AcDbLine
 10
-91.85008130249264
 20
85.40000040463721
 30
0.0
 11
-94.15293065168663
 21
85.40000040463718
 31
0.0
  0
LINE
  5
125
330
7D
100
AcDbEntity
  8
0
  6
Continuous
 62
     7
100
AcDbLine
 10
-94.70738268254074
 20
85.40000040463718
 30
0.0
 11
-94.15293065168663
 21
85.40000040463718
 31
0.0
  0
LINE
  5
126
330
7D
100
AcDbEntity
  8
0
  6
Continuous
 62
     7
100
AcDbLine
 10
-94.70738268254074
 20
85.40000040463718
 30
0.0
 11
-94.70738268253994
 21
83.20000040463721
 31
0.0
  0
LINE
  5
127
330
7D
100
AcDbEntity
  8
0
  6
Continuous
 62
     7
100
AcDbLine
 10
-94.70738268254074
 20
85.40000040463718
 30
0.0
 11
-102.4093040746845
 21
85.40000040463718
 31
0.0
  0
LINE
  5
128
330
7D
100
AcDbEntity
  8
0
  6
Continuous
 62
     7
100
AcDbLine
 10
-94.15293065168663
 20
83.20000040463721
 30
0.0
 11
-91.85008130249204
 21
83.20000040463721
 31
0.0
  0
LINE
  5
129
330
7D
100
AcDbEntity
  8
0
  6
Continuous
 62
     7
100
AcDbLine
 10
-94.15293065168663
 20
83.20000040463721
 30
0.0
 11
-94.70738268253994
 21
83.20000040463721
 31
0.0
  0
LINE
  5
12A
330
7D
100
AcDbEntity
  8
0
  6
Continuous
 62
     7
100
AcDbLine
 10
-102.4093040746845
 20
85.40000040463718
 30
0.0
 11
-102.4093040746839
 21
83.20000040463721
 31
0.0
  0
LINE
  5
12B
330
7D
100
AcDbEntity
  8
0
  6
Continuous
 62
     7
100
AcDbLine
 10
-94.15293065168663
 20
85.40000040463718
 30
0.0
 11
-94.15293065168663
 21
83.20000040463721
 31
0.0
  0
LINE
  5
12C
330
7D
100
AcDbEntity
  8
0
  6
Continuous
 62
     7
100
AcDbLine
 10
-91.85008130249204
 20
83.20000040463721
 30
0.0
 11
-91.85008130249264
 21
85.40000040463721
 31
0.0
  0
LINE
  5
12D
330
7D
100
AcDbEntity
  8
0
  6
Continuous
 62
     7
100
AcDbLine
 10
-127.0625122215439
 20
83.20000040463721
 30
0.0
 11
-125.8625122215439
 21
83.20000040463721
 31
0.0
  0
LINE
  5
12E
330
7D
100
AcDbEntity
  8
0
  6
Continuous
 62
     7
100
AcDbLine
 10
-138.662511852761
 20
83.20000040463721
 30
0.0
 11
-137.462511852761
 21
83.20000040463721
 31
0.0
  0
LINE
  5
12F
330
7D
100
AcDbEntity
  8
0
  6
Continuous
 62
     7
100
AcDbLine
 10
-125.8625122215439
 20
83.20000040463721
 30
0.0
 11
-102.4093040746839
 21
83.20000040463721
 31
0.0
  0
LINE
  5
130
330
7D
100
AcDbEntity
  8
0
  6
Continuous
 62
     7
100
AcDbLine
 10
-134.9625118626652
 20
92.40000040463705
 30
0.0
 11
-134.9625118626651
 21
97.15000040463705
 31
0.0
  0
LINE
  5
131
330
7D
100
AcDbEntity
  8
0
  6
Continuous
 62
     7
100
AcDbLine
 10
-129.5625118626652
 20
97.15000040463705
 30
0.0
 11
-129.5625118626652
 21
92.40000040463705
 31
0.0
  0
LINE
  5
132
330
7D
100
AcDbEntity
  8
0
  6
Continuous
 62
     7
100
AcDbLine
 10
-125.862512221544
 20
97.15000040463705
 30
0.0
 11
-125.862512221544
 21
93.65000040463705
 31
0.0
  0
LINE
  5
133
330
7D
100
AcDbEntity
  8
0
  6
Continuous
 62
     7
100
AcDbLine
 10
-129.5625118626652
 20
97.15000040463705
 30
0.0
 11
-127.062512221544
 21
97.15000040463705
 31
0.0
  0
LINE
  5
134
330
7D
100
AcDbEntity
  8
0
  6
Continuous
 62
     7
100
AcDbLine
 10
-127.062512221544
 20
97.15000040463705
 30
0.0
 11
-127.062512221544
 21
93.65000040463705
 31
0.0
  0
LINE
  5
135
330
7D
100
AcDbEntity
  8
0
  6
Continuous
 62
     7
100
AcDbLine
 10
-125.862512221544
 20
97.15000040463705
 30
0.0
 11
-127.062512221544
 21
97.15000040463705
 31
0.0
  0
LINE
  5
136
330
7D
100
AcDbEntity
  8
0
  6
Continuous
 62
     7
100
AcDbLine
 10
-125.862512221544
 20
85.40000040463718
 30
0.0
 11
-127.062512221544
 21
85.40000040463718
 31
0.0
  0
LINE
  5
137
330
7D
100
AcDbEntity
  8
0
  6
Continuous
 62
     7
100
AcDbLine
 10
-127.062512221544
 20
85.40000040463718
 30
0.0
 11
-127.062512221544
 21
93.65000040463705
 31
0.0
  0
LINE
  5
138
330
7D
100
AcDbEntity
  8
0
  6
Continuous
 62
     7
100
AcDbLine
 10
-125.862512221544
 20
85.40000040463718
 30
0.0
 11
-125.862512221544
 21
93.65000040463705
 31
0.0
  0
LINE
  5
139
330
7D
100
AcDbEntity
  8
0
  6
Continuous
 62
     7
100
AcDbLine
 10
-127.0625122215439
 20
83.20000040463721
 30
0.0
 11
-127.0625122116398
 21
74.95000040463736
 31
0.0
  0
LINE
  5
13A
330
7D
100
AcDbEntity
  8
0
  6
Continuous
 62
     7
100
AcDbLine
 10
-127.062512221544
 20
93.65000040463705
 30
0.0
 11
-125.862512221544
 21
93.65000040463705
 31
0.0
  0
LINE
  5
13B
330
7D
100
AcDbEntity
  8
0
  6
Continuous
 62
     7
100
AcDbLine
 10
-137.462511852761
 20
83.20000040463721
 30
0.0
 11
-137.462511852761
 21
74.95000040463736
 31
0.0
  0
LINE
  5
13C
330
7D
100
AcDbEntity
  8
0
  6
Continuous
 62
     7
100
AcDbLine
 10
-137.462511852761
 20
83.20000040463721
 30
0.0
 11
-127.0625122215439
 21
83.20000040463721
 31
0.0
  0
LINE
  5
13D
330
7D
100
AcDbEntity
  8
1
  6
DOT_CENTER
 62
     2
100
AcDbLine
 10
-129.2925118626652
 20
92.40000040463705
 30
0.0
 11
-135.2325118626652
 21
92.40000040463705
 31
0.0
  0
LINE
  5
13E
330
7D
100
AcDbEntity
  8
1
  6
DOT_CENTER
 62
     2
100
AcDbLine
 10
-132.2625118626652
 20
95.37000040463704
 30
0.0
 11
-132.2625118626652
 21
89.43000040463707
 31
0.0
  0
LINE
  5
13F
330
7D
100
AcDbEntity
  8
1
  6
DOT_CENTER
 62
     2
100
AcDbLine
 10
-129.2925122116398
 20
76.20000040463736
 30
0.0
 11
-135.2325122116398
 21
76.20000040463736
 31
0.0
  0
LINE
  5
140
330
7D
100
AcDbEntity
  8
1
  6
DOT_CENTER
 62
     2
100
AcDbLine
 10
-132.2625122116398
 20
79.17000040463738
 30
0.0
 11
-132.2625122116398
 21
73.23000040463735
 31
0.0
  0
ARC
  5
141
330
7D
100
AcDbEntity
  8
0
  6
Continuous
 62
     7
100
AcDbCircle
 10
-132.2625118626652
 20
92.40000040463705
 30
0.0
 40
2.699999999999989
100
AcDbArc
 50
180.0
 51
0.0
  0
ARC
  5
142
330
7D
100
AcDbEntity
  8
0
  6
Continuous
 62
     7
100
AcDbCircle
 10
-132.2625122116398
 20
76.20000040463736
 30
0.0
 40
2.699999999999989
100
AcDbArc
 50
0.0
 51
180.0
  0
ENDBLK
  5
7F
330
7D
100
AcDbEntity
  8
0
100
AcDbBlockEnd
  0
BLOCK
  5
82
330
80
100
AcDbEntity
  8
0
100
AcDbBlockBegin
  2
Drfsicht1
 70
     0
 10
-132.2625060000001
 20
84.3000004999998
 30
0.0
  3
Drfsicht1
  1

  0
INSERT
  5
81
330
80
100
AcDbEntity
  8
0
100
AcDbBlockReference
  2
D-RSC_6-F-select__2
 10
-172.675011852761
 20
71.45000040463736
 30
0.0
  0
DIMENSION
  5
14E
330
80
100
AcDbEntity
  8
1
100
AcDbDimension
  2
*D17
 10
-190.518047907671
 20
71.45000040463736
 30
0.0
 11
-193.943047907671
 21
84.08433658195946
 31
0.0
 70
    32
  1
<>
 71
     5
 42
-1.0
 53
90.0
  3
ME10_DIM_10
100
AcDbAlignedDimension
 13
-134.9625118626651
 23
97.15000040463705
 33
0.0
 14
-134.9625122116398
 24
71.45000040463736
 34
0.0
 50
90.0
100
AcDbRotatedDimension
  0
DIMENSION
  5
15B
330
80
100
AcDbEntity
  8
1
100
AcDbDimension
  2
*D18
 10
-180.5180479076711
 20
85.40000040463721
 30
0.0
 11
-183.9430479076711
 21
84.84623433567974
 31
0.0
 70
    32
  1
<>
 71
     5
 42
-1.0
 53
90.0
  3
ME10_DIM_11
100
AcDbAlignedDimension
 13
-169.8174456090558
 23
83.20000040463721
 33
0.0
 14
-169.8174456090558
 24
85.40000040463721
 34
0.0
 50
90.0
100
AcDbRotatedDimension
  0
ENDBLK
  5
83
330
80
100
AcDbEntity
  8
0
100
AcDbBlockEnd
  0
BLOCK
  5
85
330
84
100
AcDbEntity
  8
0
100
AcDbBlockBegin
  2
D-RSC_6-F-select__3
 70
     0
 10
-39.15000082787807
 20
137.1499997311428
 30
0.0
  3
D-RSC_6-F-select__3
  1

  0
LINE
  5
15C
330
84
100
AcDbEntity
  8
0
  6
Continuous
 62
     7
100
AcDbLine
 10
3.96251187084243
 20
137.1499997311428
 30
0.0
 11
7.66251186093842
 21
137.1499997311428
 31
0.0
  0
LINE
  5
15D
330
84
100
AcDbEntity
  8
0
  6
Continuous
 62
     7
100
AcDbLine
 10
6.46251186093843
 20
140.9499997311818
 30
0.0
 11
3.96251187084243
 21
140.9499997311818
 31
0.0
  0
LINE
  5
15E
330
84
100
AcDbEntity
  8
0
  6
Continuous
 62
     7
100
AcDbLine
 10
3.96251187084243
 20
137.1499997311428
 30
0.0
 11
3.96251187084243
 21
140.9499997311818
 31
0.0
  0
LINE
  5
15F
330
84
100
AcDbEntity
  8
0
  6
Continuous
 62
     7
100
AcDbLine
 10
-1.43748812915757
 20
137.1499997311428
 30
0.0
 11
3.96251187084243
 21
137.1499997311428
 31
0.0
  0
LINE
  5
160
330
84
100
AcDbEntity
  8
0
  6
Continuous
 62
     7
100
AcDbLine
 10
-37.20781593730578
 20
137.1499997311428
 30
0.0
 11
-5.13748777027877
 21
137.1499997311428
 31
0.0
  0
LINE
  5
161
330
84
100
AcDbEntity
  8
0
  6
Continuous
 62
     7
100
AcDbLine
 10
6.46251186093843
 20
141.7499997311427
 30
0.0
 11
6.46251186093843
 21
140.9499997311818
 31
0.0
  0
LINE
  5
162
330
84
100
AcDbEntity
  8
0
  6
Continuous
 62
     7
100
AcDbLine
 10
-1.43748812915757
 20
140.9499997311818
 30
0.0
 11
3.96251187084243
 21
140.9499997311818
 31
0.0
  0
LINE
  5
163
330
84
100
AcDbEntity
  8
0
  6
Continuous
 62
     7
100
AcDbLine
 10
7.66251186093842
 20
141.7499997311427
 30
0.0
 11
7.66251186093834
 21
145.2499997311427
 31
0.0
  0
LINE
  5
164
330
84
100
AcDbEntity
  8
0
  6
Continuous
 62
     7
100
AcDbLine
 10
7.66251186093842
 20
141.7499997311427
 30
0.0
 11
7.66251186093842
 21
137.1499997311428
 31
0.0
  0
LINE
  5
165
330
84
100
AcDbEntity
  8
0
  6
Continuous
 62
     7
100
AcDbLine
 10
-5.13748777027877
 20
141.7499997311427
 30
0.0
 11
-5.13748777027877
 21
145.2499997311427
 31
0.0
  0
LINE
  5
166
330
84
100
AcDbEntity
  8
0
  6
Continuous
 62
     7
100
AcDbLine
 10
-5.13748777027877
 20
141.7499997311427
 30
0.0
 11
-5.13748777027877
 21
137.1499997311428
 31
0.0
  0
LINE
  5
167
330
84
100
AcDbEntity
  8
0
  6
Continuous
 62
     7
100
AcDbLine
 10
-39.14991868933008
 20
157.5615130455707
 30
0.0
 11
-39.15000082787807
 21
140.5139626393091
 31
0.0
  0
LINE
  5
168
330
84
100
AcDbEntity
  8
0
  6
Continuous
 62
     7
100
AcDbLine
 10
-1.43748812915757
 20
140.9499997311818
 30
0.0
 11
-3.93748777027878
 21
140.9499997311818
 31
0.0
  0
LINE
  5
169
330
84
100
AcDbEntity
  8
0
  6
Continuous
 62
     7
100
AcDbLine
 10
-3.93748777027878
 20
140.9499997311818
 30
0.0
 11
-3.93748777027878
 21
141.7499997311427
 31
0.0
  0
LINE
  5
16A
330
84
100
AcDbEntity
  8
0
  6
Continuous
 62
     7
100
AcDbLine
 10
-5.13748777027877
 20
141.7499997311427
 30
0.0
 11
-3.93748777027878
 21
141.7499997311427
 31
0.0
  0
LINE
  5
16B
330
84
100
AcDbEntity
  8
0
  6
Continuous
 62
     7
100
AcDbLine
 10
-5.13748777027877
 20
137.1499997311428
 30
0.0
 11
-1.43748812915757
 21
137.1499997311428
 31
0.0
  0
LINE
  5
16C
330
84
100
AcDbEntity
  8
0
  6
Continuous
 62
     7
100
AcDbLine
 10
-1.43748812915757
 20
140.9499997311818
 30
0.0
 11
-1.43748812915757
 21
137.1499997311428
 31
0.0
  0
LINE
  5
16D
330
84
100
AcDbEntity
  8
0
  6
Continuous
 62
     7
100
AcDbLine
 10
-37.20781593730578
 20
137.1499997311428
 30
0.0
 11
-39.15000082787807
 21
140.5139626393091
 31
0.0
  0
LINE
  5
16E
330
84
100
AcDbEntity
  8
0
  6
Continuous
 62
     7
100
AcDbLine
 10
6.46251186093843
 20
141.7499997311427
 30
0.0
 11
7.66251186093842
 21
141.7499997311427
 31
0.0
  0
LINE
  5
16F
330
84
100
AcDbEntity
  8
0
  6
Continuous
 62
     7
100
AcDbLine
 10
7.66251186093842
 20
137.1499997311428
 30
0.0
 11
39.73283967896234
 21
137.1499997311428
 31
0.0
  0
LINE
  5
170
330
84
100
AcDbEntity
  8
0
  6
Continuous
 62
     7
100
AcDbLine
 10
41.67501186093833
 20
140.5139406273747
 30
0.0
 11
39.73283967896234
 21
137.1499997311428
 31
0.0
  0
LINE
  5
171
330
84
100
AcDbEntity
  8
0
  6
Continuous
 62
     7
100
AcDbLine
 10
-3.93748777027878
 20
145.2499997311427
 30
0.0
 11
-5.13748777027877
 21
145.2499997311427
 31
0.0
  0
LINE
  5
172
330
84
100
AcDbEntity
  8
0
  6
Continuous
 62
     7
100
AcDbLine
 10
-28.59069591713816
 20
176.8499997321524
 30
0.0
 11
31.11587716638974
 21
176.8499997302122
 31
0.0
  0
LINE
  5
173
330
84
100
AcDbEntity
  8
0
  6
Continuous
 62
     7
100
AcDbLine
 10
38.81744561723312
 20
163.5103434432815
 30
0.0
 11
36.95355683499594
 21
163.8390065844484
 31
0.0
  0
LINE
  5
174
330
84
100
AcDbEntity
  8
0
  6
Continuous
 62
     7
100
AcDbLine
 10
6.46251186093843
 20
141.7499997311427
 30
0.0
 11
6.46251186093843
 21
145.2499997311427
 31
0.0
  0
LINE
  5
175
330
84
100
AcDbEntity
  8
0
  6
Continuous
 62
     7
100
AcDbLine
 10
39.37188933021113
 20
161.5499997312365
 30
0.0
 11
38.27510085271794
 21
161.5499997312365
 31
0.0
  0
LINE
  5
176
330
84
100
AcDbEntity
  8
0
  6
Continuous
 62
     7
100
AcDbLine
 10
38.27510085271794
 20
161.5499997312365
 30
0.0
 11
36.95355683499594
 21
163.8390065844484
 31
0.0
  0
LINE
  5
177
330
84
100
AcDbEntity
  8
0
  6
Continuous
 62
     7
100
AcDbLine
 10
38.81744561723312
 20
163.5103434432815
 30
0.0
 11
31.11587716638974
 21
176.8499997302122
 31
0.0
  0
LINE
  5
178
330
84
100
AcDbEntity
  8
0
  6
Continuous
 62
     7
100
AcDbLine
 10
-34.42852857921957
 20
163.8389794079888
 30
0.0
 11
-36.29261730928198
 21
163.5103175328113
 31
0.0
  0
LINE
  5
179
330
84
100
AcDbEntity
  8
0
  6
Continuous
 62
     7
100
AcDbLine
 10
-3.93748777027878
 20
141.7499997311427
 30
0.0
 11
-3.93748777027878
 21
145.2499997311427
 31
0.0
  0
LINE
  5
17A
330
84
100
AcDbEntity
  8
0
  6
Continuous
 62
     7
100
AcDbLine
 10
-34.42852857921957
 20
163.8389794079888
 30
0.0
 11
-35.75009789687579
 21
161.5500291831894
 31
0.0
  0
LINE
  5
17B
330
84
100
AcDbEntity
  8
0
  6
Continuous
 62
     7
100
AcDbLine
 10
-35.75009789687579
 20
161.5500291831894
 30
0.0
 11
-36.84706934013607
 21
161.5500344686198
 31
0.0
  0
LINE
  5
17C
330
84
100
AcDbEntity
  8
0
  6
Continuous
 62
     7
100
AcDbLine
 10
-39.14991868933008
 20
157.5615130455707
 30
0.0
 11
-36.84706934013607
 21
161.5500344686198
 31
0.0
  0
LINE
  5
17D
330
84
100
AcDbEntity
  8
0
  6
Continuous
 62
     7
100
AcDbLine
 10
7.66251186093834
 20
145.2499997311427
 30
0.0
 11
6.46251186093843
 21
145.2499997311427
 31
0.0
  0
LINE
  5
17E
330
84
100
AcDbEntity
  8
0
  6
Continuous
 62
     7
100
AcDbLine
 10
41.67501186093833
 20
140.5139406273747
 30
0.0
 11
41.67501186093833
 21
157.5608301039482
 31
0.0
  0
LINE
  5
17F
330
84
100
AcDbEntity
  8
0
  6
Continuous
 62
     7
100
AcDbLine
 10
39.37188933021113
 20
161.5499997312365
 30
0.0
 11
41.67501186093833
 21
157.5608301039482
 31
0.0
  0
LINE
  5
180
330
84
100
AcDbEntity
  8
0
  6
Continuous
 62
     7
100
AcDbLine
 10
-36.29261730928198
 20
163.5103175328113
 30
0.0
 11
-28.59069591713816
 21
176.8499997321524
 31
0.0
  0
ENDBLK
  5
86
330
84
100
AcDbEntity
  8
0
100
AcDbBlockEnd
  0
BLOCK
  5
89
330
87
100
AcDbEntity
  8
0
100
AcDbBlockBegin
  2
Rckans1
 70
     0
 10
1.26250600817733
 20
157.00000000002
 30
0.0
  3
Rckans1
  1

  0
INSERT
  5
88
330
87
100
AcDbEntity
  8
0
100
AcDbBlockReference
  2
D-RSC_6-F-select__3
 10
-39.15000082787807
 20
137.1499997311428
 30
0.0
  0
ENDBLK
  5
8A
330
87
100
AcDbEntity
  8
0
100
AcDbBlockEnd
  0
BLOCK
  5
8C
330
8B
100
AcDbEntity
  8
0
100
AcDbBlockBegin
  2
D-RSC_6-F-select__4
 70
     0
 10
-79.84556357323967
 20
137.1499997311429
 30
0.0
  3
D-RSC_6-F-select__4
  1

  0
LINE
  5
181
330
8B
100
AcDbEntity
  8
0
  6
Continuous
 62
     7
100
AcDbLine
 10
-68.0955635732398
 20
140.5139406273748
 30
0.0
 11
-68.0955635732398
 21
145.2499997311429
 31
0.0
  0
LINE
  5
182
330
8B
100
AcDbEntity
  8
0
  6
Continuous
 62
     7
100
AcDbLine
 10
-68.0955635732398
 20
161.5499997312366
 30
0.0
 11
-68.0955635732398
 21
161.5500291831895
 31
0.0
  0
LINE
  5
183
330
8B
100
AcDbEntity
  8
0
  6
Continuous
 62
     7
100
AcDbLine
 10
-68.0955635732398
 20
161.5500344686199
 30
0.0
 11
-68.09556357323983
 21
163.5103434432816
 31
0.0
  0
LINE
  5
184
330
8B
100
AcDbEntity
  8
0
  6
Continuous
 62
     7
100
AcDbLine
 10
-68.0955635732398
 20
176.8499997302124
 30
0.0
 11
-68.09556357323983
 21
163.5103434432816
 31
0.0
  0
LINE
  5
185
330
8B
100
AcDbEntity
  8
0
  6
Continuous
 62
     7
100
AcDbLine
 10
-68.0955635732398
 20
145.2499997311429
 30
0.0
 11
-68.0955635732398
 21
157.5608301039483
 31
0.0
  0
LINE
  5
186
330
8B
100
AcDbEntity
  8
0
  6
Continuous
 62
     7
100
AcDbLine
 10
-68.0955635732398
 20
140.5139406273748
 30
0.0
 11
-68.09556357323983
 21
137.1499997311429
 31
0.0
  0
LINE
  5
187
330
8B
100
AcDbEntity
  8
0
  6
Continuous
 62
     7
100
AcDbLine
 10
-65.89556357323984
 20
145.2495106836429
 30
0.0
 11
-57.64556357323998
 21
145.2495106836429
 31
0.0
  0
LINE
  5
188
330
8B
100
AcDbEntity
  8
0
  6
Continuous
 62
     7
100
AcDbLine
 10
-68.0955635732398
 20
145.2499997311429
 30
0.0
 11
-76.34556357323967
 21
145.2499997311429
 31
0.0
  0
LINE
  5
189
330
8B
100
AcDbEntity
  8
0
  6
Continuous
 62
     7
100
AcDbLine
 10
-79.84556357323967
 20
141.7499997311429
 30
0.0
 11
-79.84556357323967
 21
137.1499997311429
 31
0.0
  0
LINE
  5
18A
330
8B
100
AcDbEntity
  8
0
  6
Continuous
 62
     7
100
AcDbLine
 10
-79.84556357323967
 20
141.7499997311429
 30
0.0
 11
-76.34556357323967
 21
145.2499997311429
 31
0.0
  0
LINE
  5
18B
330
8B
100
AcDbEntity
  8
0
  6
Continuous
 62
     7
100
AcDbLine
 10
-65.89556357323984
 20
137.1499997311429
 30
0.0
 11
-54.14556357323999
 21
137.1499997311429
 31
0.0
  0
LINE
  5
18C
330
8B
100
AcDbEntity
  8
0
  6
Continuous
 62
     7
100
AcDbLine
 10
-54.14556357323998
 20
141.7495106836429
 30
0.0
 11
-54.14556357323999
 21
137.1499997311429
 31
0.0
  0
LINE
  5
18D
330
8B
100
AcDbEntity
  8
0
  6
Continuous
 62
     7
100
AcDbLine
 10
-68.09556357323983
 20
163.5103434432816
 30
0.0
 11
-65.89556357323984
 21
163.5103434432816
 31
0.0
  0
LINE
  5
18E
330
8B
100
AcDbEntity
  8
0
  6
Continuous
 62
     7
100
AcDbLine
 10
-68.0955635732398
 20
176.8499997302124
 30
0.0
 11
-65.89556357323984
 21
176.8499997302124
 31
0.0
  0
LINE
  5
18F
330
8B
100
AcDbEntity
  8
0
  6
Continuous
 62
     7
100
AcDbLine
 10
-68.0955635732398
 20
161.5500291831895
 30
0.0
 11
-68.0955635732398
 21
161.5500344686199
 31
0.0
  0
LINE
  5
190
330
8B
100
AcDbEntity
  8
0
  6
Continuous
 62
     7
100
AcDbLine
 10
-65.89556357323984
 20
157.5608301039483
 30
0.0
 11
-65.89556357323984
 21
161.5499997312366
 31
0.0
  0
LINE
  5
191
330
8B
100
AcDbEntity
  8
0
  6
Continuous
 62
     7
100
AcDbLine
 10
-68.0955635732398
 20
161.5499997312366
 30
0.0
 11
-65.89556357323984
 21
161.5499997312366
 31
0.0
  0
LINE
  5
192
330
8B
100
AcDbEntity
  8
0
  6
Continuous
 62
     7
100
AcDbLine
 10
-68.0955635732398
 20
157.5608301039483
 30
0.0
 11
-65.89556357323984
 21
157.5608301039483
 31
0.0
  0
LINE
  5
193
330
8B
100
AcDbEntity
  8
0
  6
Continuous
 62
     7
100
AcDbLine
 10
-68.0955635732398
 20
161.5499997312366
 30
0.0
 11
-68.0955635732398
 21
157.5608301039483
 31
0.0
  0
LINE
  5
194
330
8B
100
AcDbEntity
  8
0
  6
Continuous
 62
     7
100
AcDbLine
 10
-68.09556357323983
 20
137.1499997311429
 30
0.0
 11
-79.84556357323967
 21
137.1499997311429
 31
0.0
  0
LINE
  5
195
330
8B
100
AcDbEntity
  8
0
  6
Continuous
 62
     7
100
AcDbLine
 10
-65.89556357323984
 20
137.1499997311429
 30
0.0
 11
-68.09556357323983
 21
137.1499997311429
 31
0.0
  0
LINE
  5
196
330
8B
100
AcDbEntity
  8
0
  6
Continuous
 62
     7
100
AcDbLine
 10
-68.0955635732398
 20
140.5139406273748
 30
0.0
 11
-65.89556357323984
 21
140.5139406273748
 31
0.0
  0
LINE
  5
197
330
8B
100
AcDbEntity
  8
0
  6
Continuous
 62
     7
100
AcDbLine
 10
-65.89556357323984
 20
176.8499997302124
 30
0.0
 11
-65.89556357323984
 21
163.5103434432816
 31
0.0
  0
LINE
  5
198
330
8B
100
AcDbEntity
  8
0
  6
Continuous
 62
     7
100
AcDbLine
 10
-65.89556357323984
 20
161.5500344686199
 30
0.0
 11
-65.89556357323984
 21
163.5103434432816
 31
0.0
  0
LINE
  5
199
330
8B
100
AcDbEntity
  8
0
  6
Continuous
 62
     7
100
AcDbLine
 10
-65.89556357323984
 20
145.2495106836429
 30
0.0
 11
-65.89556357323984
 21
140.5139406273748
 31
0.0
  0
LINE
  5
19A
330
8B
100
AcDbEntity
  8
0
  6
Continuous
 62
     7
100
AcDbLine
 10
-65.89556357323984
 20
161.5500344686199
 30
0.0
 11
-65.89556357323984
 21
161.5500291831895
 31
0.0
  0
LINE
  5
19B
330
8B
100
AcDbEntity
  8
0
  6
Continuous
 62
     7
100
AcDbLine
 10
-65.89556357323984
 20
161.5500291831895
 30
0.0
 11
-65.89556357323984
 21
161.5499997312366
 31
0.0
  0
LINE
  5
19C
330
8B
100
AcDbEntity
  8
0
  6
Continuous
 62
     7
100
AcDbLine
 10
-65.89556357323984
 20
157.5608301039483
 30
0.0
 11
-65.89556357323984
 21
145.2495106836429
 31
0.0
  0
LINE
  5
19D
330
8B
100
AcDbEntity
  8
0
  6
Continuous
 62
     7
100
AcDbLine
 10
-65.89556357323984
 20
140.5139406273748
 30
0.0
 11
-65.89556357323984
 21
137.1499997311429
 31
0.0
  0
LINE
  5
19E
330
8B
100
AcDbEntity
  8
0
  6
Continuous
 62
     7
100
AcDbLine
 10
-57.64556357323998
 20
145.2495106836429
 30
0.0
 11
-54.14556357323998
 21
141.7495106836429
 31
0.0
  0
ENDBLK
  5
8D
330
8B
100
AcDbEntity
  8
0
100
AcDbBlockEnd
  0
BLOCK
  5
90
330
8E
100
AcDbEntity
  8
0
100
AcDbBlockBegin
  2
SA_Links1
 70
     0
 10
-66.99556366860241
 20
157.0000000000201
 30
0.0
  3
SA_Links1
  1

  0
INSERT
  5
8F
330
8E
100
AcDbEntity
  8
0
100
AcDbBlockReference
  2
D-RSC_6-F-select__4
 10
-79.84556357323967
 20
137.1499997311429
 30
0.0
  0
ENDBLK
  5
91
330
8E
100
AcDbEntity
  8
0
100
AcDbBlockEnd
  0
BLOCK
  5
93
330
92
100
AcDbEntity
  8
0
100
AcDbBlockBegin
  2
D-RSC_6-F-select__5
 70
     0
 10
-227.3975177017377
 20
137.1499997311377
 30
0.0
  3
D-RSC_6-F-select__5
  1

  0
LINE
  5
19F
330
92
100
AcDbEntity
  8
0
  6
Continuous
 62
     7
100
AcDbLine
 10
-223.8975177017377
 20
145.2495106836377
 30
0.0
 11
-227.3975177017377
 21
141.7495106836377
 31
0.0
  0
LINE
  5
1A0
330
92
100
AcDbEntity
  8
0
  6
Continuous
 62
     7
100
AcDbLine
 10
-215.6475177017379
 20
176.8499997321474
 30
0.0
 11
-215.6475177017379
 21
163.5103175328062
 31
0.0
  0
LINE
  5
1A1
330
92
100
AcDbEntity
  8
0
  6
Continuous
 62
     7
100
AcDbLine
 10
-215.6475177017379
 20
161.5500344686148
 30
0.0
 11
-215.6475177017379
 21
163.5103175328062
 31
0.0
  0
LINE
  5
1A2
330
92
100
AcDbEntity
  8
0
  6
Continuous
 62
     7
100
AcDbLine
 10
-213.4475177017379
 20
163.5103175328063
 30
0.0
 11
-213.4475177017379
 21
161.5500344686148
 31
0.0
  0
LINE
  5
1A3
330
92
100
AcDbEntity
  8
0
  6
Continuous
 62
     7
100
AcDbLine
 10
-213.4475177017379
 20
163.5103175328063
 30
0.0
 11
-215.6475177017379
 21
163.5103175328062
 31
0.0
  0
LINE
  5
1A4
330
92
100
AcDbEntity
  8
0
  6
Continuous
 62
     7
100
AcDbLine
 10
-213.4475177017379
 20
163.5103175328063
 30
0.0
 11
-213.4475177017379
 21
176.8499997321474
 31
0.0
  0
LINE
  5
1A5
330
92
100
AcDbEntity
  8
0
  6
Continuous
 62
     7
100
AcDbLine
 10
-213.4475177017379
 20
176.8499997321474
 30
0.0
 11
-215.6475177017379
 21
176.8499997321474
 31
0.0
  0
LINE
  5
1A6
330
92
100
AcDbEntity
  8
0
  6
Continuous
 62
     7
100
AcDbLine
 10
-215.6475177017379
 20
161.5500344686148
 30
0.0
 11
-215.6475177017379
 21
157.5615130455645
 31
0.0
  0
LINE
  5
1A7
330
92
100
AcDbEntity
  8
0
  6
Continuous
 62
     7
100
AcDbLine
 10
-213.4475177017379
 20
157.5615130455657
 30
0.0
 11
-213.4475177017379
 21
161.5500344686148
 31
0.0
  0
LINE
  5
1A8
330
92
100
AcDbEntity
  8
0
  6
Continuous
 62
     7
100
AcDbLine
 10
-213.4475177017379
 20
161.5500344686148
 30
0.0
 11
-215.6475177017379
 21
161.5500344686148
 31
0.0
  0
LINE
  5
1A9
330
92
100
AcDbEntity
  8
0
  6
Continuous
 62
     7
100
AcDbLine
 10
-215.6475177017379
 20
157.5615130455645
 30
0.0
 11
-213.4475177017379
 21
157.5615130455657
 31
0.0
  0
LINE
  5
1AA
330
92
100
AcDbEntity
  8
0
  6
Continuous
 62
     7
100
AcDbLine
 10
-213.4475177017379
 20
157.5615130455657
 30
0.0
 11
-213.4475177017379
 21
145.2499997311377
 31
0.0
  0
LINE
  5
1AB
330
92
100
AcDbEntity
  8
0
  6
Continuous
 62
     7
100
AcDbLine
 10
-215.6475177017379
 20
145.2495106836377
 30
0.0
 11
-215.6475177017379
 21
157.5615130455645
 31
0.0
  0
LINE
  5
1AC
330
92
100
AcDbEntity
  8
0
  6
Continuous
 62
     7
100
AcDbLine
 10
-215.6475177017379
 20
140.5139626393051
 30
0.0
 11
-213.4475177017379
 21
140.513962639304
 31
0.0
  0
LINE
  5
1AD
330
92
100
AcDbEntity
  8
0
  6
Continuous
 62
     7
100
AcDbLine
 10
-213.4475177017379
 20
145.2499997311377
 30
0.0
 11
-213.4475177017379
 21
140.513962639304
 31
0.0
  0
LINE
  5
1AE
330
92
100
AcDbEntity
  8
0
  6
Continuous
 62
     7
100
AcDbLine
 10
-227.3975177017377
 20
141.7495106836377
 30
0.0
 11
-227.3975177017377
 21
137.1499997311377
 31
0.0
  0
LINE
  5
1AF
330
92
100
AcDbEntity
  8
0
  6
Continuous
 62
     7
100
AcDbLine
 10
-201.697517701738
 20
141.7499997311377
 30
0.0
 11
-201.697517701738
 21
137.1499997311377
 31
0.0
  0
LINE
  5
1B0
330
92
100
AcDbEntity
  8
0
  6
Continuous
 62
     7
100
AcDbLine
 10
-215.6475177017379
 20
145.2495106836377
 30
0.0
 11
-223.8975177017377
 21
145.2495106836377
 31
0.0
  0
LINE
  5
1B1
330
92
100
AcDbEntity
  8
0
  6
Continuous
 62
     7
100
AcDbLine
 10
-213.4475177017379
 20
145.2499997311377
 30
0.0
 11
-205.197517701738
 21
145.2499997311377
 31
0.0
  0
LINE
  5
1B2
330
92
100
AcDbEntity
  8
0
  6
Continuous
 62
     7
100
AcDbLine
 10
-215.6475177017379
 20
137.1499997311377
 30
0.0
 11
-227.3975177017377
 21
137.1499997311377
 31
0.0
  0
LINE
  5
1B3
330
92
100
AcDbEntity
  8
0
  6
Continuous
 62
     7
100
AcDbLine
 10
-213.4475177017379
 20
137.1499997311377
 30
0.0
 11
-215.6475177017379
 21
137.1499997311377
 31
0.0
  0
LINE
  5
1B4
330
92
100
AcDbEntity
  8
0
  6
Continuous
 62
     7
100
AcDbLine
 10
-213.4475177017379
 20
137.1499997311377
 30
0.0
 11
-201.697517701738
 21
137.1499997311377
 31
0.0
  0
LINE
  5
1B5
330
92
100
AcDbEntity
  8
0
  6
Continuous
 62
     7
100
AcDbLine
 10
-213.4475177017379
 20
137.1499997311377
 30
0.0
 11
-213.4475177017379
 21
140.513962639304
 31
0.0
  0
LINE
  5
1B6
330
92
100
AcDbEntity
  8
0
  6
Continuous
 62
     7
100
AcDbLine
 10
-215.6475177017379
 20
140.5139626393051
 30
0.0
 11
-215.6475177017379
 21
145.2495106836377
 31
0.0
  0
LINE
  5
1B7
330
92
100
AcDbEntity
  8
0
  6
Continuous
 62
     7
100
AcDbLine
 10
-215.6475177017379
 20
137.1499997311377
 30
0.0
 11
-215.6475177017379
 21
140.5139626393051
 31
0.0
  0
LINE
  5
1B8
330
92
100
AcDbEntity
  8
0
  6
Continuous
 62
     7
100
AcDbLine
 10
-201.697517701738
 20
141.7499997311377
 30
0.0
 11
-205.197517701738
 21
145.2499997311377
 31
0.0
  0
ENDBLK
  5
94
330
92
100
AcDbEntity
  8
0
100
AcDbBlockEnd
  0
BLOCK
  5
97
330
95
100
AcDbEntity
  8
0
100
AcDbBlockBegin
  2
SA_Rechts1
 70
     0
 10
-214.5475176063753
 20
157.000000000015
 30
0.0
  3
SA_Rechts1
  1

  0
INSERT
  5
96
330
95
100
AcDbEntity
  8
0
100
AcDbBlockReference
  2
D-RSC_6-F-select__5
 10
-227.3975177017377
 20
137.1499997311377
 30
0.0
  0
ENDBLK
  5
98
330
95
100
AcDbEntity
  8
0
100
AcDbBlockEnd
  0
BLOCK
  5
9A
330
99
100
AcDbEntity
  8
0
100
AcDbBlockBegin
  2
D-RSC_6-F-select__6
 70
     0
 10
-172.675011852761
 20
137.1499997311377
 30
0.0
  3
D-RSC_6-F-select__6
  1

  0
LINE
  5
1B9
330
99
100
AcDbEntity
  8
0
  6
Continuous
 62
     7
100
AcDbLine
 10
-125.8625122215439
 20
141.7495106836377
 30
0.0
 11
-125.8625122215439
 21
145.2495106836377
 31
0.0
  0
LINE
  5
1BA
330
99
100
AcDbEntity
  8
0
  6
Continuous
 62
     7
100
AcDbLine
 10
-138.662511852761
 20
145.2495106836377
 30
0.0
 11
-138.662511852761
 21
141.7495106836377
 31
0.0
  0
LINE
  5
1BB
330
99
100
AcDbEntity
  8
0
  6
Continuous
 62
     7
100
AcDbLine
 10
-137.462511852761
 20
145.2495106836377
 30
0.0
 11
-137.462511852761
 21
141.7495106836377
 31
0.0
  0
LINE
  5
1BC
330
99
100
AcDbEntity
  8
0
  6
Continuous
 62
     7
100
AcDbLine
 10
-137.462511852761
 20
141.7495106836377
 30
0.0
 11
-137.462511852761
 21
140.8995106836377
 31
0.0
  0
LINE
  5
1BD
330
99
100
AcDbEntity
  8
0
  6
Continuous
 62
     7
100
AcDbLine
 10
-137.462511852761
 20
145.2495106836377
 30
0.0
 11
-138.662511852761
 21
145.2495106836377
 31
0.0
  0
LINE
  5
1BE
330
99
100
AcDbEntity
  8
0
  6
Continuous
 62
     7
100
AcDbLine
 10
-137.462511852761
 20
141.7495106836377
 30
0.0
 11
-138.662511852761
 21
141.7495106836377
 31
0.0
  0
LINE
  5
1BF
330
99
100
AcDbEntity
  8
0
  6
Continuous
 62
     7
100
AcDbLine
 10
-129.5625122116398
 20
137.1499997311377
 30
0.0
 11
-129.5625122116398
 21
140.8995106836377
 31
0.0
  0
LINE
  5
1C0
330
99
100
AcDbEntity
  8
0
  6
Continuous
 62
     7
100
AcDbLine
 10
-137.462511852761
 20
140.8995106836377
 30
0.0
 11
-134.9625122116398
 21
140.8995106836377
 31
0.0
  0
LINE
  5
1C1
330
99
100
AcDbEntity
  8
0
  6
Continuous
 62
     7
100
AcDbLine
 10
-172.675011852761
 20
140.5139406273696
 30
0.0
 11
-170.732839670785
 21
137.1499997311377
 31
0.0
  0
LINE
  5
1C2
330
99
100
AcDbEntity
  8
0
  6
Continuous
 62
     7
100
AcDbLine
 10
-134.9625122116398
 20
140.8995106836377
 30
0.0
 11
-129.5625122116398
 21
140.8995106836377
 31
0.0
  0
LINE
  5
1C3
330
99
100
AcDbEntity
  8
0
  6
Continuous
 62
     7
100
AcDbLine
 10
-134.9625122116398
 20
140.8995106836377
 30
0.0
 11
-134.9625122116398
 21
137.1499997311377
 31
0.0
  0
LINE
  5
1C4
330
99
100
AcDbEntity
  8
0
  6
Continuous
 62
     7
100
AcDbLine
 10
-138.662511852761
 20
141.7495106836377
 30
0.0
 11
-138.662511852761
 21
137.1499997311377
 31
0.0
  0
LINE
  5
1C5
330
99
100
AcDbEntity
  8
0
  6
Continuous
 62
     7
100
AcDbLine
 10
-125.8625122215439
 20
145.2495106836377
 30
0.0
 11
-127.0625122116398
 21
145.2495106836377
 31
0.0
  0
LINE
  5
1C6
330
99
100
AcDbEntity
  8
0
  6
Continuous
 62
     7
100
AcDbLine
 10
-127.0625122116398
 20
145.2495106836377
 30
0.0
 11
-127.0625122215439
 21
141.7495106836377
 31
0.0
  0
LINE
  5
1C7
330
99
100
AcDbEntity
  8
0
  6
Continuous
 62
     7
100
AcDbLine
 10
-129.5625122116398
 20
140.8995106836377
 30
0.0
 11
-127.0625122215439
 21
140.8995106836377
 31
0.0
  0
LINE
  5
1C8
330
99
100
AcDbEntity
  8
0
  6
Continuous
 62
     7
100
AcDbLine
 10
-127.0625122215439
 20
140.8995106836377
 30
0.0
 11
-127.0625122215439
 21
141.7495106836377
 31
0.0
  0
LINE
  5
1C9
330
99
100
AcDbEntity
  8
0
  6
Continuous
 62
     7
100
AcDbLine
 10
-125.8625122215439
 20
141.7495106836377
 30
0.0
 11
-127.0625122215439
 21
141.7495106836377
 31
0.0
  0
LINE
  5
1CA
330
99
100
AcDbEntity
  8
0
  6
Continuous
 62
     7
100
AcDbLine
 10
-129.5625122116398
 20
137.1499997311377
 30
0.0
 11
-125.8625122215439
 21
137.1499997311377
 31
0.0
  0
LINE
  5
1CB
330
99
100
AcDbEntity
  8
0
  6
Continuous
 62
     7
100
AcDbLine
 10
-138.662511852761
 20
137.1499997311377
 30
0.0
 11
-134.9625122116398
 21
137.1499997311377
 31
0.0
  0
LINE
  5
1CC
330
99
100
AcDbEntity
  8
0
  6
Continuous
 62
     7
100
AcDbLine
 10
-170.732839670785
 20
137.1499997311377
 30
0.0
 11
-138.662511852761
 21
137.1499997311377
 31
0.0
  0
LINE
  5
1CD
330
99
100
AcDbEntity
  8
0
  6
Continuous
 62
     7
100
AcDbLine
 10
-125.8625122215439
 20
137.1499997311377
 30
0.0
 11
-93.79218405451694
 21
137.1499997311377
 31
0.0
  0
LINE
  5
1CE
330
99
100
AcDbEntity
  8
0
  6
Continuous
 62
     7
100
AcDbLine
 10
-134.9625122116398
 20
137.1499997311377
 30
0.0
 11
-129.5625122116398
 21
137.1499997311377
 31
0.0
  0
LINE
  5
1CF
330
99
100
AcDbEntity
  8
0
  6
Continuous
 62
     7
100
AcDbLine
 10
-125.8625122215439
 20
141.7495106836377
 30
0.0
 11
-125.8625122215439
 21
137.1499997311377
 31
0.0
  0
LINE
  5
1D0
330
99
100
AcDbEntity
  8
0
  6
Continuous
 62
     7
100
AcDbLine
 10
-172.675011852761
 20
157.5608301039432
 30
0.0
 11
-172.675011852761
 21
140.5139406273696
 31
0.0
  0
LINE
  5
1D1
330
99
100
AcDbEntity
  8
0
  6
Continuous
 62
     7
100
AcDbLine
 10
-172.675011852761
 20
157.5608301039432
 30
0.0
 11
-170.3718893220338
 21
161.5499997312315
 31
0.0
  0
LINE
  5
1D2
330
99
100
AcDbEntity
  8
0
  6
Continuous
 62
     7
100
AcDbLine
 10
-169.2751008445407
 20
161.5499997312315
 30
0.0
 11
-170.3718893220338
 21
161.5499997312315
 31
0.0
  0
LINE
  5
1D3
330
99
100
AcDbEntity
  8
0
  6
Continuous
 62
     7
100
AcDbLine
 10
-167.9535568268186
 20
163.8390065844434
 30
0.0
 11
-169.8174456090558
 21
163.5103434432765
 31
0.0
  0
LINE
  5
1D4
330
99
100
AcDbEntity
  8
0
  6
Continuous
 62
     7
100
AcDbLine
 10
-167.9535568268186
 20
163.8390065844434
 30
0.0
 11
-169.2751008445407
 21
161.5499997312315
 31
0.0
  0
LINE
  5
1D5
330
99
100
AcDbEntity
  8
0
  6
Continuous
 62
     7
100
AcDbLine
 10
-162.1158771582125
 20
176.8499997302072
 30
0.0
 11
-169.8174456090558
 21
163.5103434432765
 31
0.0
  0
LINE
  5
1D6
330
99
100
AcDbEntity
  8
0
  6
Continuous
 62
     7
100
AcDbLine
 10
-162.1158771582125
 20
176.8499997302072
 30
0.0
 11
-102.4093040746839
 21
176.8499997321474
 31
0.0
  0
LINE
  5
1D7
330
99
100
AcDbEntity
  8
0
  6
Continuous
 62
     7
100
AcDbLine
 10
-94.15293065168663
 20
161.5500344686148
 30
0.0
 11
-95.24990209494683
 21
161.5500291831844
 31
0.0
  0
LINE
  5
1D8
330
99
100
AcDbEntity
  8
0
  6
Continuous
 62
     7
100
AcDbLine
 10
-93.79218405451694
 20
137.1499997311377
 30
0.0
 11
-91.84999916394393
 21
140.5139626393051
 31
0.0
  0
LINE
  5
1D9
330
99
100
AcDbEntity
  8
0
  6
Continuous
 62
     7
100
AcDbLine
 10
-91.84999916394393
 20
140.5139626393051
 30
0.0
 11
-91.85008130249204
 21
157.5615130455645
 31
0.0
  0
LINE
  5
1DA
330
99
100
AcDbEntity
  8
0
  6
Continuous
 62
     7
100
AcDbLine
 10
-95.24990209494683
 20
161.5500291831844
 30
0.0
 11
-96.57147141260313
 21
163.8389794079838
 31
0.0
  0
LINE
  5
1DB
330
99
100
AcDbEntity
  8
0
  6
Continuous
 62
     7
100
AcDbLine
 10
-94.15293065168663
 20
161.5500344686148
 30
0.0
 11
-91.85008130249204
 21
157.5615130455645
 31
0.0
  0
LINE
  5
1DC
330
99
100
AcDbEntity
  8
0
  6
Continuous
 62
     7
100
AcDbLine
 10
-94.70738268254004
 20
163.5103175328062
 30
0.0
 11
-96.57147141260313
 21
163.8389794079838
 31
0.0
  0
LINE
  5
1DD
330
99
100
AcDbEntity
  8
0
  6
Continuous
 62
     7
100
AcDbLine
 10
-102.4093040746839
 20
176.8499997321474
 30
0.0
 11
-94.70738268254004
 21
163.5103175328062
 31
0.0
  0
LINE
  5
1DE
330
99
100
AcDbEntity
  8
1
  6
DOT_CENTER
 62
     2
100
AcDbLine
 10
-132.2625120371524
 20
140.294453717468
 30
0.0
 11
-132.2625120371524
 21
133.284650423139
 31
0.0
  0
ENDBLK
  5
9B
330
99
100
AcDbEntity
  8
0
100
AcDbBlockEnd
  0
BLOCK
  5
9E
330
9C
100
AcDbEntity
  8
0
100
AcDbBlockBegin
  2
Vordans1
 70
     0
 10
-132.2625060000001
 20
157.000000000015
 30
0.0
  3
Vordans1
  1

  0
INSERT
  5
9D
330
9C
100
AcDbEntity
  8
0
100
AcDbBlockReference
  2
D-RSC_6-F-select__6
 10
-172.675011852761
 20
137.1499997311377
 30
0.0
  0
DIMENSION
  5
1E9
330
9C
100
AcDbEntity
  8
1
100
AcDbDimension
  2
*D19
 10
-183.502115044844
 20
137.1499997311377
 30
0.0
 11
-186.927115044844
 21
157.03878812957
 31
0.0
 70
    32
  1
<>
 71
     5
 42
-1.0
 53
90.0
  3
ME10_DIM_12
100
AcDbAlignedDimension
 13
-162.1158771582125
 23
176.8499997302072
 33
0.0
 14
-170.732839670785
 24
137.1499997311377
 34
0.0
 50
90.0
100
AcDbRotatedDimension
  0
DIMENSION
  5
1F4
330
9C
100
AcDbEntity
  8
1
100
AcDbDimension
  2
*D20
 10
-132.2625120371524
 20
125.026816517881
 30
0.0
 11
-113.464505238972
 21
128.451816517881
 31
0.0
 70
    32
  1
<>
 71
     5
 42
-1.0
 53
0.00013888888889
  3
ME10_DIM_13
100
AcDbAlignedDimension
 13
-91.84999916394393
 23
140.5139626393051
 33
0.0
 14
-132.2625120371524
 24
140.294453717468
 34
0.0
100
AcDbRotatedDimension
  0
DIMENSION
  5
1FF
330
9C
100
AcDbEntity
  8
1
100
AcDbDimension
  2
*D21
 10
-91.84999916394392
 20
116.2338073177406
 30
0.0
 11
-131.9579558495624
 21
120.1588073177406
 31
0.0
 70
    32
  1
<>
 71
     5
 42
-1.0
 53
0.00013888888889
  3
ME10_DIM_14
100
AcDbAlignedDimension
 13
-172.675011852761
 23
140.5139406273696
 33
0.0
 14
-91.84999916394393
 24
140.5139626393051
 34
0.0
100
AcDbRotatedDimension
  0
ENDBLK
  5
9F
330
9C
100
AcDbEntity
  8
0
100
AcDbBlockEnd
  0
BLOCK
  5
A1
330
A0
100
AcDbEntity
  8
0
100
AcDbBlockBegin
  2
_rahmen
 70
     0
 10
50.63874707960063
 20
2.49602771639076
 30
0.0
  3
_rahmen
  1

  0
LINE
  5
200
330
A0
100
AcDbEntity
  8
1
  6
DOT_CENTER
 62
     2
100
AcDbLine
 10
-74.91940256058678
 20
28.62102771639079
 30
0.0
 11
-69.41940256058678
 21
28.62102771639079
 31
0.0
  0
LINE
  5
201
330
A0
100
AcDbEntity
  8
1
  6
PHANTOM
 62
     2
100
AcDbLine
 10
-66.16940256058678
 20
31.37102771639079
 30
0.0
 11
-66.16940256058678
 21
25.87102771639079
 31
0.0
  0
LINE
  5
202
330
A0
100
AcDbEntity
  8
1
  6
PHANTOM
 62
     2
100
AcDbLine
 10
-63.41940256058678
 20
28.62102771639079
 30
0.0
 11
-68.91940256058678
 21
28.62102771639079
 31
0.0
  0
LINE
  5
203
330
A0
100
AcDbEntity
  8
1
  6
Continuous
 62
     7
100
AcDbLine
 10
-14.60605744714937
 20
15.99602771639079
 30
0.0
 11
-14.60605744714937
 21
24.49602771639087
 31
0.0
  0
LINE
  5
204
330
A0
100
AcDbEntity
  8
1
  6
Continuous
 62
     6
100
AcDbLine
 10
-42.50605744714946
 20
24.49602771639087
 30
0.0
 11
50.63874707960233
 21
24.49602771639087
 31
0.0
  0
LINE
  5
205
330
A0
100
AcDbEntity
  8
1
  6
Continuous
 62
     7
100
AcDbLine
 10
-78.90605744714938
 20
24.49602771639087
 30
0.0
 11
-78.90605744714938
 21
32.99602771639087
 31
0.0
  0
LINE
  5
206
330
A0
100
AcDbEntity
  8
1
  6
Continuous
 62
     7
100
AcDbLine
 10
-42.50605744714946
 20
24.49602771639087
 30
0.0
 11
-42.50605744714946
 21
32.99602771639087
 31
0.0
  0
LINE
  5
207
330
A0
100
AcDbEntity
  8
1
  6
Continuous
 62
     7
100
AcDbLine
 10
15.22033879792352
 20
32.99602771639087
 30
0.0
 11
15.22033879792352
 21
24.49602771639087
 31
0.0
  0
LINE
  5
208
330
A0
100
AcDbEntity
  8
1
  6
Continuous
 62
     7
100
AcDbLine
 10
41.72033879792312
 20
32.99602771639087
 30
0.0
 11
41.72033879792312
 21
24.49602771639087
 31
0.0
  0
LINE
  5
209
330
A0
100
AcDbEntity
  8
1
  6
Continuous
 62
     6
100
AcDbLine
 10
-147.9060574471494
 20
7.49602771639087
 30
0.0
 11
-192.8612529203994
 21
7.49602771639087
 31
0.0
  0
LINE
  5
20A
330
A0
100
AcDbEntity
  8
1
  6
Continuous
 62
     7
100
AcDbLine
 10
50.63874707960193
 20
15.99602771639087
 30
0.0
 11
-42.50605744714946
 21
15.99602771639087
 31
0.0
  0
LINE
  5
20B
102
{ACAD_REACTORS
330
31D
330
31E
102
}
330
A0
100
AcDbEntity
  8
0
  6
Continuous
 62
     2
100
AcDbLine
 10
-65.19862850538198
 20
16.79631683205417
 30
0.0
 11
-65.19862850538198
 21
17.66883383885747
 31
0.0
  0
LINE
  5
20C
102
{ACAD_REACTORS
330
31D
330
31E
102
}
330
A0
100
AcDbEntity
  8
0
  6
Continuous
 62
     2
100
AcDbLine
 10
-65.19862850538198
 20
15.83654812457127
 30
0.0
 11
-65.19862850538198
 21
14.96403111776806
 31
0.0
  0
LINE
  5
20D
102
{ACAD_REACTORS
330
31F
330
320
102
}
330
A0
100
AcDbEntity
  8
0
  6
Continuous
 62
     2
100
AcDbLine
 10
-49.86558436909147
 20
17.05807193409467
 30
0.0
 11
-48.76194506952336
 21
17.05807193409467
 31
0.0
  0
LINE
  5
20E
102
{ACAD_REACTORS
330
31F
330
320
102
}
330
A0
100
AcDbEntity
  8
0
  6
Continuous
 62
     2
100
AcDbLine
 10
-49.09592702613006
 20
15.83654812457078
 30
0.0
 11
-49.09592702613006
 21
14.96403111776746
 31
0.0
  0
LINE
  5
20F
102
{ACAD_REACTORS
330
329
330
32A
102
}
330
A0
100
AcDbEntity
  8
0
  6
Continuous
 62
     2
100
AcDbLine
 10
-50.95668364150998
 20
18.14871819258147
 30
0.0
 11
-49.55873059456968
 21
19.72957718635647
 31
0.0
  0
LINE
  5
210
102
{ACAD_REACTORS
330
329
330
32A
102
}
330
A0
100
AcDbEntity
  8
0
  6
Continuous
 62
     2
100
AcDbLine
 10
-50.86126022533716
 20
21.20252771639267
 30
0.0
 11
-49.55873059456968
 21
19.72957718635647
 31
0.0
  0
LINE
  5
211
102
{ACAD_REACTORS
330
329
330
32A
102
}
330
A0
100
AcDbEntity
  8
0
  6
Continuous
 62
     2
100
AcDbLine
 10
-48.25620096380328
 20
21.20252771639267
 30
0.0
 11
-46.85347674605606
 21
21.20252771639267
 31
0.0
  0
LINE
  5
212
102
{ACAD_REACTORS
330
329
330
32A
102
}
330
A0
100
AcDbEntity
  8
0
  6
Continuous
 62
     2
100
AcDbLine
 10
-49.55395942376177
 20
18.14871819258147
 30
0.0
 11
-48.85736848569607
 21
18.93644997787519
 31
0.0
  0
LINE
  5
213
102
{ACAD_REACTORS
330
329
330
32A
102
}
330
A0
100
AcDbEntity
  8
0
  6
Continuous
 62
     2
100
AcDbLine
 10
-49.55395942376177
 20
18.14871819258147
 30
0.0
 11
-50.95668364150998
 21
18.14871819258147
 31
0.0
  0
LINE
  5
214
102
{ACAD_REACTORS
330
32B
330
32C
102
}
330
A0
100
AcDbEntity
  8
0
  6
Continuous
 62
     2
100
AcDbLine
 10
-51.07596291172686
 20
18.14871819258147
 30
0.0
 11
-52.31646732197976
 21
18.14871819258147
 31
0.0
  0
LINE
  5
215
102
{ACAD_REACTORS
330
32D
330
32E
102
}
330
A0
100
AcDbEntity
  8
0
  6
Continuous
 62
     2
100
AcDbLine
 10
-53.18444693013487
 20
16.01105152593166
 30
0.0
 11
-53.48461216732497
 21
16.77886649191837
 31
0.0
  0
LINE
  5
216
102
{ACAD_REACTORS
330
32D
330
32E
102
}
330
A0
100
AcDbEntity
  8
0
  6
Continuous
 62
     2
100
AcDbLine
 10
-53.78477740451737
 20
16.01105152593166
 30
0.0
 11
-53.18444693013487
 21
16.01105152593166
 31
0.0
  0
LINE
  5
217
102
{ACAD_REACTORS
330
32D
330
32E
102
}
330
A0
100
AcDbEntity
  8
0
  6
Continuous
 62
     2
100
AcDbLine
 10
-55.50281741939116
 20
14.78952771640718
 30
0.0
 11
-54.26231300913818
 21
14.78952771640718
 31
0.0
  0
LINE
  5
218
102
{ACAD_REACTORS
330
32D
330
32E
102
}
330
A0
100
AcDbEntity
  8
0
  6
Continuous
 62
     2
100
AcDbLine
 10
-54.10486437245186
 20
17.84333724021826
 30
0.0
 11
-52.86435996219916
 21
17.84333724021826
 31
0.0
  0
LINE
  5
219
102
{ACAD_REACTORS
330
32D
330
32E
102
}
330
A0
100
AcDbEntity
  8
0
  6
Continuous
 62
     2
100
AcDbLine
 10
-52.86435996219916
 20
17.84333724021826
 30
0.0
 11
-51.46640691525886
 21
14.78952771640718
 31
0.0
  0
LINE
  5
21A
102
{ACAD_REACTORS
330
32D
330
32E
102
}
330
A0
100
AcDbEntity
  8
0
  6
Continuous
 62
     2
100
AcDbLine
 10
-52.70691132551278
 20
14.78952771640718
 30
0.0
 11
-52.91839137898856
 21
15.33048826062506
 31
0.0
  0
LINE
  5
21B
102
{ACAD_REACTORS
330
32F
330
330
102
}
330
A0
100
AcDbEntity
  8
0
  6
Continuous
 62
     2
100
AcDbLine
 10
-56.84923052109878
 20
14.78952771640718
 30
0.0
 11
-55.65643781893226
 21
14.78952771640718
 31
0.0
  0
LINE
  5
21C
102
{ACAD_REACTORS
330
32F
330
330
102
}
330
A0
100
AcDbEntity
  8
0
  6
Continuous
 62
     2
100
AcDbLine
 10
-56.84923052109878
 20
17.05807193409467
 30
0.0
 11
-56.84923052109878
 21
14.78952771640718
 31
0.0
  0
LINE
  5
21D
102
{ACAD_REACTORS
330
32F
330
330
102
}
330
A0
100
AcDbEntity
  8
0
  6
Continuous
 62
     2
100
AcDbLine
 10
-57.66032955857338
 20
17.84333724021826
 30
0.0
 11
-57.66032955857338
 21
17.05807193409467
 31
0.0
  0
LINE
  5
21E
102
{ACAD_REACTORS
330
331
330
332
102
}
330
A0
100
AcDbEntity
  8
0
  6
Continuous
 62
     2
100
AcDbLine
 10
-56.18111567700078
 20
18.14871819258147
 30
0.0
 11
-54.98832297483426
 21
18.14871819258147
 31
0.0
  0
LINE
  5
21F
102
{ACAD_REACTORS
330
331
330
332
102
}
330
A0
100
AcDbEntity
  8
0
  6
Continuous
 62
     2
100
AcDbLine
 10
-53.74781856458026
 20
19.89375220618749
 30
0.0
 11
-54.98832297483426
 21
21.20252771639267
 31
0.0
  0
LINE
  5
220
102
{ACAD_REACTORS
330
331
330
332
102
}
330
A0
100
AcDbEntity
  8
0
  6
Continuous
 62
     2
100
AcDbLine
 10
-52.55502586241366
 20
21.20252771639267
 30
0.0
 11
-53.74781856458026
 21
21.20252771639267
 31
0.0
  0
LINE
  5
221
102
{ACAD_REACTORS
330
331
330
332
102
}
330
A0
100
AcDbEntity
  8
0
  6
Continuous
 62
     2
100
AcDbLine
 10
-52.55502586241366
 20
18.14871819258147
 30
0.0
 11
-52.55502586241366
 21
21.20252771639267
 31
0.0
  0
LINE
  5
222
102
{ACAD_REACTORS
330
331
330
332
102
}
330
A0
100
AcDbEntity
  8
0
  6
Continuous
 62
     2
100
AcDbLine
 10
-53.74781856458026
 20
18.14871819258147
 30
0.0
 11
-52.55502586241366
 21
18.14871819258147
 31
0.0
  0
LINE
  5
223
102
{ACAD_REACTORS
330
331
330
332
102
}
330
A0
100
AcDbEntity
  8
0
  6
Continuous
 62
     2
100
AcDbLine
 10
-54.98832297483426
 20
19.45749370278617
 30
0.0
 11
-53.74781856458026
 21
18.14871819258147
 31
0.0
  0
LINE
  5
224
102
{ACAD_REACTORS
330
333
330
334
102
}
330
A0
100
AcDbEntity
  8
0
  6
Continuous
 62
     2
100
AcDbLine
 10
-58.99625738499998
 20
16.53456173001317
 30
0.0
 11
-60.23676179525288
 21
17.84333724021826
 31
0.0
  0
LINE
  5
225
102
{ACAD_REACTORS
330
333
330
334
102
}
330
A0
100
AcDbEntity
  8
0
  6
Continuous
 62
     2
100
AcDbLine
 10
-58.99625738499998
 20
17.84333724021826
 30
0.0
 11
-58.99625738499998
 21
16.53456173001317
 31
0.0
  0
LINE
  5
226
102
{ACAD_REACTORS
330
333
330
334
102
}
330
A0
100
AcDbEntity
  8
0
  6
Continuous
 62
     2
100
AcDbLine
 10
-57.80346468283358
 20
17.84333724021826
 30
0.0
 11
-58.99625738499998
 21
17.84333724021826
 31
0.0
  0
LINE
  5
227
102
{ACAD_REACTORS
330
333
330
334
102
}
330
A0
100
AcDbEntity
  8
0
  6
Continuous
 62
     2
100
AcDbLine
 10
-57.80346468283358
 20
14.78952771640718
 30
0.0
 11
-57.80346468283358
 21
17.84333724021826
 31
0.0
  0
LINE
  5
228
102
{ACAD_REACTORS
330
333
330
334
102
}
330
A0
100
AcDbEntity
  8
0
  6
Continuous
 62
     2
100
AcDbLine
 10
-60.23676179525288
 20
16.09830322661176
 30
0.0
 11
-58.99625738499998
 21
14.78952771640718
 31
0.0
  0
LINE
  5
229
102
{ACAD_REACTORS
330
333
330
334
102
}
330
A0
100
AcDbEntity
  8
0
  6
Continuous
 62
     2
100
AcDbLine
 10
-60.23676179525288
 20
14.78952771640718
 30
0.0
 11
-60.23676179525288
 21
16.09830322661176
 31
0.0
  0
LINE
  5
22A
102
{ACAD_REACTORS
330
323
330
324
102
}
330
A0
100
AcDbEntity
  8
0
  6
Continuous
 62
     2
100
AcDbLine
 10
-57.75560204386136
 20
20.50451411094969
 30
0.0
 11
-56.41967421743368
 21
20.50451411094969
 31
0.0
  0
LINE
  5
22B
102
{ACAD_REACTORS
330
323
330
324
102
}
330
A0
100
AcDbEntity
  8
0
  6
Continuous
 62
     2
100
AcDbLine
 10
-57.75560204386136
 20
18.84673179802397
 30
0.0
 11
-57.75560204386136
 21
19.32661615176568
 31
0.0
  0
LINE
  5
22C
102
{ACAD_REACTORS
330
323
330
324
102
}
330
A0
100
AcDbEntity
  8
0
  6
Continuous
 62
     2
100
AcDbLine
 10
-56.41967421743368
 20
18.84673179802397
 30
0.0
 11
-57.75560204386136
 21
18.84673179802397
 31
0.0
  0
LINE
  5
22D
102
{ACAD_REACTORS
330
323
330
324
102
}
330
A0
100
AcDbEntity
  8
0
  6
Continuous
 62
     2
100
AcDbLine
 10
-56.41967421743368
 20
18.14871819258147
 30
0.0
 11
-56.41967421743368
 21
18.84673179802397
 31
0.0
  0
LINE
  5
22E
102
{ACAD_REACTORS
330
323
330
324
102
}
330
A0
100
AcDbEntity
  8
0
  6
Continuous
 62
     2
100
AcDbLine
 10
-59.56999394121468
 20
18.14871819258147
 30
0.0
 11
-56.41967421743368
 21
18.14871819258147
 31
0.0
  0
LINE
  5
22F
102
{ACAD_REACTORS
330
323
330
324
102
}
330
A0
100
AcDbEntity
  8
0
  6
Continuous
 62
     2
100
AcDbLine
 10
-59.56999394121468
 20
21.20252771639267
 30
0.0
 11
-56.41967421743368
 21
21.20252771639267
 31
0.0
  0
LINE
  5
230
102
{ACAD_REACTORS
330
323
330
324
102
}
330
A0
100
AcDbEntity
  8
0
  6
Continuous
 62
     2
100
AcDbLine
 10
-56.41967421743368
 20
20.50451411094969
 30
0.0
 11
-56.41967421743368
 21
21.20252771639267
 31
0.0
  0
LINE
  5
231
102
{ACAD_REACTORS
330
335
330
336
102
}
330
A0
100
AcDbEntity
  8
0
  6
Continuous
 62
     2
100
AcDbLine
 10
-62.43134943635468
 20
20.13369438305807
 30
0.0
 11
-62.43134943635468
 21
21.20252771639267
 31
0.0
  0
LINE
  5
232
102
{ACAD_REACTORS
330
335
330
336
102
}
330
A0
100
AcDbEntity
  8
0
  6
Continuous
 62
     2
100
AcDbLine
 10
-62.43134943635468
 20
21.20252771639267
 30
0.0
 11
-61.23855673418828
 21
21.20252771639267
 31
0.0
  0
LINE
  5
233
102
{ACAD_REACTORS
330
335
330
336
102
}
330
A0
100
AcDbEntity
  8
0
  6
Continuous
 62
     2
100
AcDbLine
 10
-62.43134943635468
 20
19.28299030142529
 30
0.0
 11
-63.48100701426216
 21
19.28299030142529
 31
0.0
  0
LINE
  5
234
102
{ACAD_REACTORS
330
335
330
336
102
}
330
A0
100
AcDbEntity
  8
0
  6
Continuous
 62
     2
100
AcDbLine
 10
-63.48100701426216
 20
19.28299030142529
 30
0.0
 11
-63.48100701426216
 21
18.14871819258147
 31
0.0
  0
LINE
  5
235
102
{ACAD_REACTORS
330
335
330
336
102
}
330
A0
100
AcDbEntity
  8
0
  6
Continuous
 62
     2
100
AcDbLine
 10
-64.67379971642876
 20
21.20252771639267
 30
0.0
 11
-64.67379971642876
 21
18.14871819258147
 31
0.0
  0
LINE
  5
236
102
{ACAD_REACTORS
330
327
330
328
102
}
330
A0
100
AcDbEntity
  8
0
  6
Continuous
 62
     2
100
AcDbLine
 10
-66.62997974798236
 20
19.83369422161036
 30
0.0
 11
-66.62997974798236
 21
20.53942187095257
 31
0.0
  0
LINE
  5
237
102
{ACAD_REACTORS
330
327
330
328
102
}
330
A0
100
AcDbEntity
  8
0
  6
Continuous
 62
     2
100
AcDbLine
 10
-67.87048415823648
 20
18.14871819258147
 30
0.0
 11
-66.62997974798236
 21
18.14871819258147
 31
0.0
  0
LINE
  5
238
102
{ACAD_REACTORS
330
327
330
328
102
}
330
A0
100
AcDbEntity
  8
0
  6
Continuous
 62
     2
100
AcDbLine
 10
-66.62997974798236
 20
18.14871819258147
 30
0.0
 11
-66.62997974798236
 21
19.09179643372528
 31
0.0
  0
LINE
  5
239
102
{ACAD_REACTORS
330
321
330
322
102
}
330
A0
100
AcDbEntity
  8
0
  6
Continuous
 62
     2
100
AcDbLine
 10
-72.17543000744786
 20
15.50208327196407
 30
0.0
 11
-73.65126326845748
 21
15.50208327196407
 31
0.0
  0
LINE
  5
23A
102
{ACAD_REACTORS
330
321
330
322
102
}
330
A0
100
AcDbEntity
  8
0
  6
Continuous
 62
     2
100
AcDbLine
 10
-74.66940256058678
 20
20.77828310099068
 30
0.0
 11
-74.66940256058678
 21
15.21377233179047
 31
0.0
  0
LINE
  5
23B
102
{ACAD_REACTORS
330
321
330
322
102
}
330
A0
100
AcDbEntity
  8
0
  6
Continuous
 62
     2
100
AcDbLine
 10
-74.24515794520397
 20
21.20252771637448
 30
0.0
 11
-68.77184585448717
 21
21.20252771637448
 31
0.0
  0
LINE
  5
23C
102
{ACAD_REACTORS
330
321
330
322
102
}
330
A0
100
AcDbEntity
  8
0
  6
Continuous
 62
     2
100
AcDbLine
 10
-68.34760123910328
 20
20.77828310099068
 30
0.0
 11
-68.34760123910328
 21
15.21377233179047
 31
0.0
  0
LINE
  5
23D
102
{ACAD_REACTORS
330
321
330
322
102
}
330
A0
100
AcDbEntity
  8
0
  6
Continuous
 62
     2
100
AcDbLine
 10
-68.77184585448717
 20
14.78952771640718
 30
0.0
 11
-74.24515794520397
 21
14.78952771640718
 31
0.0
  0
LINE
  5
23E
102
{ACAD_REACTORS
330
321
330
322
102
}
330
A0
100
AcDbEntity
  8
0
  6
Continuous
 62
     2
100
AcDbLine
 10
-71.85971308437126
 20
15.81780019504078
 30
0.0
 11
-71.85971308437126
 21
17.34857112657238
 31
0.0
  0
LINE
  5
23F
102
{ACAD_REACTORS
330
321
330
322
102
}
330
A0
100
AcDbEntity
  8
0
  6
Continuous
 62
     2
100
AcDbLine
 10
-71.85971308437126
 20
19.57023061869737
 30
0.0
 11
-71.85971308437126
 21
20.17425523775788
 31
0.0
  0
LINE
  5
240
102
{ACAD_REACTORS
330
321
330
322
102
}
330
A0
100
AcDbEntity
  8
0
  6
Continuous
 62
     2
100
AcDbLine
 10
-73.65126326845748
 20
20.48997216083407
 30
0.0
 11
-72.17543000744786
 21
20.48997216083407
 31
0.0
  0
LINE
  5
241
102
{ACAD_REACTORS
330
321
330
322
102
}
330
A0
100
AcDbEntity
  8
0
  6
Continuous
 62
     2
100
AcDbLine
 10
-73.96698019153317
 20
20.17425523775788
 30
0.0
 11
-73.96698019153317
 21
15.81780019504078
 31
0.0
  0
LINE
  5
242
102
{ACAD_REACTORS
330
327
330
328
102
}
330
A0
100
AcDbEntity
  8
0
  6
Continuous
 62
     2
100
AcDbLine
 10
-66.62997974798236
 20
19.09179643372528
 30
0.0
 11
-65.87121216020208
 21
19.09179643372528
 31
0.0
  0
LINE
  5
243
102
{ACAD_REACTORS
330
327
330
328
102
}
330
A0
100
AcDbEntity
  8
0
  6
Continuous
 62
     2
100
AcDbLine
 10
-67.87048415823648
 20
21.20252771639267
 30
0.0
 11
-65.87121216020208
 21
21.20252771639267
 31
0.0
  0
LINE
  5
244
102
{ACAD_REACTORS
330
327
330
328
102
}
330
A0
100
AcDbEntity
  8
0
  6
Continuous
 62
     2
100
AcDbLine
 10
-67.87048415823648
 20
21.20252771639267
 30
0.0
 11
-67.87048415823648
 21
18.14871819258147
 31
0.0
  0
LINE
  5
245
102
{ACAD_REACTORS
330
327
330
328
102
}
330
A0
100
AcDbEntity
  8
0
  6
Continuous
 62
     2
100
AcDbLine
 10
-66.62997974798236
 20
19.83369422161036
 30
0.0
 11
-66.31268468644046
 21
19.83369422161036
 31
0.0
  0
LINE
  5
246
102
{ACAD_REACTORS
330
327
330
328
102
}
330
A0
100
AcDbEntity
  8
0
  6
Continuous
 62
     2
100
AcDbLine
 10
-66.62997974798236
 20
20.53942187095257
 30
0.0
 11
-66.31268468644046
 21
20.53942187095257
 31
0.0
  0
LINE
  5
247
102
{ACAD_REACTORS
330
335
330
336
102
}
330
A0
100
AcDbEntity
  8
0
  6
Continuous
 62
     2
100
AcDbLine
 10
-63.48100701426216
 20
20.13369438305807
 30
0.0
 11
-62.43134943635468
 21
20.13369438305807
 31
0.0
  0
LINE
  5
248
102
{ACAD_REACTORS
330
335
330
336
102
}
330
A0
100
AcDbEntity
  8
0
  6
Continuous
 62
     2
100
AcDbLine
 10
-63.48100701426216
 20
21.20252771639267
 30
0.0
 11
-63.48100701426216
 21
20.13369438305807
 31
0.0
  0
LINE
  5
249
102
{ACAD_REACTORS
330
335
330
336
102
}
330
A0
100
AcDbEntity
  8
0
  6
Continuous
 62
     2
100
AcDbLine
 10
-64.67379971642876
 20
21.20252771639267
 30
0.0
 11
-63.48100701426216
 21
21.20252771639267
 31
0.0
  0
LINE
  5
24A
102
{ACAD_REACTORS
330
335
330
336
102
}
330
A0
100
AcDbEntity
  8
0
  6
Continuous
 62
     2
100
AcDbLine
 10
-63.48100701426216
 20
18.14871819258147
 30
0.0
 11
-64.67379971642876
 21
18.14871819258147
 31
0.0
  0
LINE
  5
24B
102
{ACAD_REACTORS
330
335
330
336
102
}
330
A0
100
AcDbEntity
  8
0
  6
Continuous
 62
     2
100
AcDbLine
 10
-62.43134943635468
 20
18.14871819258147
 30
0.0
 11
-62.43134943635468
 21
19.28299030142529
 31
0.0
  0
LINE
  5
24C
102
{ACAD_REACTORS
330
335
330
336
102
}
330
A0
100
AcDbEntity
  8
0
  6
Continuous
 62
     2
100
AcDbLine
 10
-61.23855673418828
 20
18.14871819258147
 30
0.0
 11
-62.43134943635468
 21
18.14871819258147
 31
0.0
  0
LINE
  5
24D
102
{ACAD_REACTORS
330
335
330
336
102
}
330
A0
100
AcDbEntity
  8
0
  6
Continuous
 62
     2
100
AcDbLine
 10
-61.23855673418828
 20
21.20252771639267
 30
0.0
 11
-61.23855673418828
 21
18.14871819258147
 31
0.0
  0
LINE
  5
24E
102
{ACAD_REACTORS
330
323
330
324
102
}
330
A0
100
AcDbEntity
  8
0
  6
Continuous
 62
     2
100
AcDbLine
 10
-57.75560204386136
 20
19.32661615176568
 30
0.0
 11
-56.41967421743368
 21
19.32661615176568
 31
0.0
  0
LINE
  5
24F
102
{ACAD_REACTORS
330
323
330
324
102
}
330
A0
100
AcDbEntity
  8
0
  6
Continuous
 62
     2
100
AcDbLine
 10
-56.41967421743368
 20
19.32661615176568
 30
0.0
 11
-56.41967421743368
 21
20.02462975720798
 31
0.0
  0
LINE
  5
250
102
{ACAD_REACTORS
330
323
330
324
102
}
330
A0
100
AcDbEntity
  8
0
  6
Continuous
 62
     2
100
AcDbLine
 10
-56.41967421743368
 20
20.02462975720798
 30
0.0
 11
-57.75560204386136
 21
20.02462975720798
 31
0.0
  0
LINE
  5
251
102
{ACAD_REACTORS
330
323
330
324
102
}
330
A0
100
AcDbEntity
  8
0
  6
Continuous
 62
     2
100
AcDbLine
 10
-57.75560204386136
 20
20.02462975720798
 30
0.0
 11
-57.75560204386136
 21
20.50451411094969
 31
0.0
  0
LINE
  5
252
102
{ACAD_REACTORS
330
333
330
334
102
}
330
A0
100
AcDbEntity
  8
0
  6
Continuous
 62
     2
100
AcDbLine
 10
-61.42955449742047
 20
14.78952771640718
 30
0.0
 11
-60.23676179525288
 21
14.78952771640718
 31
0.0
  0
LINE
  5
253
102
{ACAD_REACTORS
330
333
330
334
102
}
330
A0
100
AcDbEntity
  8
0
  6
Continuous
 62
     2
100
AcDbLine
 10
-58.99625738499998
 20
14.78952771640718
 30
0.0
 11
-57.80346468283358
 21
14.78952771640718
 31
0.0
  0
LINE
  5
254
102
{ACAD_REACTORS
330
333
330
334
102
}
330
A0
100
AcDbEntity
  8
0
  6
Continuous
 62
     2
100
AcDbLine
 10
-60.23676179525288
 20
17.84333724021826
 30
0.0
 11
-61.42955449742047
 21
17.84333724021826
 31
0.0
  0
LINE
  5
255
102
{ACAD_REACTORS
330
333
330
334
102
}
330
A0
100
AcDbEntity
  8
0
  6
Continuous
 62
     2
100
AcDbLine
 10
-61.42955449742047
 20
17.84333724021826
 30
0.0
 11
-61.42955449742047
 21
14.78952771640718
 31
0.0
  0
LINE
  5
256
102
{ACAD_REACTORS
330
331
330
332
102
}
330
A0
100
AcDbEntity
  8
0
  6
Continuous
 62
     2
100
AcDbLine
 10
-53.74781856458026
 20
21.20252771639267
 30
0.0
 11
-53.74781856458026
 21
19.89375220618749
 31
0.0
  0
LINE
  5
257
102
{ACAD_REACTORS
330
331
330
332
102
}
330
A0
100
AcDbEntity
  8
0
  6
Continuous
 62
     2
100
AcDbLine
 10
-54.98832297483426
 20
21.20252771639267
 30
0.0
 11
-56.18111567700078
 21
21.20252771639267
 31
0.0
  0
LINE
  5
258
102
{ACAD_REACTORS
330
331
330
332
102
}
330
A0
100
AcDbEntity
  8
0
  6
Continuous
 62
     2
100
AcDbLine
 10
-56.18111567700078
 20
21.20252771639267
 30
0.0
 11
-56.18111567700078
 21
18.14871819258147
 31
0.0
  0
LINE
  5
259
102
{ACAD_REACTORS
330
331
330
332
102
}
330
A0
100
AcDbEntity
  8
0
  6
Continuous
 62
     2
100
AcDbLine
 10
-54.98832297483426
 20
18.14871819258147
 30
0.0
 11
-54.98832297483426
 21
19.45749370278617
 31
0.0
  0
LINE
  5
25A
102
{ACAD_REACTORS
330
32F
330
330
102
}
330
A0
100
AcDbEntity
  8
0
  6
Continuous
 62
     2
100
AcDbLine
 10
-55.65643781893226
 20
14.78952771640718
 30
0.0
 11
-55.65643781893226
 21
17.05807193409467
 31
0.0
  0
LINE
  5
25B
102
{ACAD_REACTORS
330
32F
330
330
102
}
330
A0
100
AcDbEntity
  8
0
  6
Continuous
 62
     2
100
AcDbLine
 10
-55.65643781893226
 20
17.05807193409467
 30
0.0
 11
-54.84533878145976
 21
17.05807193409467
 31
0.0
  0
LINE
  5
25C
102
{ACAD_REACTORS
330
32F
330
330
102
}
330
A0
100
AcDbEntity
  8
0
  6
Continuous
 62
     2
100
AcDbLine
 10
-54.84533878145976
 20
17.05807193409467
 30
0.0
 11
-54.84533878145976
 21
17.84333724021826
 31
0.0
  0
LINE
  5
25D
102
{ACAD_REACTORS
330
32F
330
330
102
}
330
A0
100
AcDbEntity
  8
0
  6
Continuous
 62
     2
100
AcDbLine
 10
-54.84533878145976
 20
17.84333724021826
 30
0.0
 11
-57.66032955857338
 21
17.84333724021826
 31
0.0
  0
LINE
  5
25E
102
{ACAD_REACTORS
330
32F
330
330
102
}
330
A0
100
AcDbEntity
  8
0
  6
Continuous
 62
     2
100
AcDbLine
 10
-57.66032955857338
 20
17.05807193409467
 30
0.0
 11
-56.84923052109878
 21
17.05807193409467
 31
0.0
  0
LINE
  5
25F
102
{ACAD_REACTORS
330
32D
330
32E
102
}
330
A0
100
AcDbEntity
  8
0
  6
Continuous
 62
     2
100
AcDbLine
 10
-54.05083295566237
 20
15.33048826062506
 30
0.0
 11
-52.91839137898856
 21
15.33048826062506
 31
0.0
  0
LINE
  5
260
102
{ACAD_REACTORS
330
32D
330
32E
102
}
330
A0
100
AcDbEntity
  8
0
  6
Continuous
 62
     2
100
AcDbLine
 10
-51.46640691525886
 20
14.78952771640718
 30
0.0
 11
-52.70691132551278
 21
14.78952771640718
 31
0.0
  0
LINE
  5
261
102
{ACAD_REACTORS
330
32D
330
32E
102
}
330
A0
100
AcDbEntity
  8
0
  6
Continuous
 62
     2
100
AcDbLine
 10
-54.10486437245186
 20
17.84333724021826
 30
0.0
 11
-55.50281741939116
 21
14.78952771640718
 31
0.0
  0
LINE
  5
262
102
{ACAD_REACTORS
330
32D
330
32E
102
}
330
A0
100
AcDbEntity
  8
0
  6
Continuous
 62
     2
100
AcDbLine
 10
-54.26231300913818
 20
14.78952771640718
 30
0.0
 11
-54.05083295566237
 21
15.33048826062506
 31
0.0
  0
LINE
  5
263
102
{ACAD_REACTORS
330
32D
330
32E
102
}
330
A0
100
AcDbEntity
  8
0
  6
Continuous
 62
     2
100
AcDbLine
 10
-53.78477740451737
 20
16.01105152593166
 30
0.0
 11
-53.48461216732497
 21
16.77886649191837
 31
0.0
  0
LINE
  5
264
102
{ACAD_REACTORS
330
32B
330
32C
102
}
330
A0
100
AcDbEntity
  8
0
  6
Continuous
 62
     2
100
AcDbLine
 10
-52.31646732197976
 20
18.14871819258147
 30
0.0
 11
-52.31646732197976
 21
21.20252771639267
 31
0.0
  0
LINE
  5
265
102
{ACAD_REACTORS
330
32B
330
32C
102
}
330
A0
100
AcDbEntity
  8
0
  6
Continuous
 62
     2
100
AcDbLine
 10
-51.07596291172686
 20
21.20252771639267
 30
0.0
 11
-51.07596291172686
 21
18.14871819258147
 31
0.0
  0
LINE
  5
266
102
{ACAD_REACTORS
330
32B
330
32C
102
}
330
A0
100
AcDbEntity
  8
0
  6
Continuous
 62
     2
100
AcDbLine
 10
-52.31646732197976
 20
21.20252771639267
 30
0.0
 11
-51.07596291172686
 21
21.20252771639267
 31
0.0
  0
LINE
  5
267
102
{ACAD_REACTORS
330
329
330
32A
102
}
330
A0
100
AcDbEntity
  8
0
  6
Continuous
 62
     2
100
AcDbLine
 10
-48.85736848569607
 20
18.93644997787519
 30
0.0
 11
-48.16077754763057
 21
18.14871819258147
 31
0.0
  0
LINE
  5
268
102
{ACAD_REACTORS
330
329
330
32A
102
}
330
A0
100
AcDbEntity
  8
0
  6
Continuous
 62
     2
100
AcDbLine
 10
-48.16077754763057
 20
18.14871819258147
 30
0.0
 11
-46.75805332988227
 21
18.14871819258147
 31
0.0
  0
LINE
  5
269
102
{ACAD_REACTORS
330
329
330
32A
102
}
330
A0
100
AcDbEntity
  8
0
  6
Continuous
 62
     2
100
AcDbLine
 10
-48.15600637682258
 20
19.72957718635647
 30
0.0
 11
-46.75805332988227
 21
18.14871819258147
 31
0.0
  0
LINE
  5
26A
102
{ACAD_REACTORS
330
329
330
32A
102
}
330
A0
100
AcDbEntity
  8
0
  6
Continuous
 62
     2
100
AcDbLine
 10
-48.15600637682258
 20
19.72957718635647
 30
0.0
 11
-46.85347674605606
 21
21.20252771639267
 31
0.0
  0
LINE
  5
26B
102
{ACAD_REACTORS
330
329
330
32A
102
}
330
A0
100
AcDbEntity
  8
0
  6
Continuous
 62
     2
100
AcDbLine
 10
-48.85736848569607
 20
20.52270439483718
 30
0.0
 11
-48.25620096380328
 21
21.20252771639267
 31
0.0
  0
LINE
  5
26C
102
{ACAD_REACTORS
330
329
330
32A
102
}
330
A0
100
AcDbEntity
  8
0
  6
Continuous
 62
     2
100
AcDbLine
 10
-49.45853600758787
 20
21.20252771639267
 30
0.0
 11
-48.85736848569607
 21
20.52270439483718
 31
0.0
  0
LINE
  5
26D
102
{ACAD_REACTORS
330
329
330
32A
102
}
330
A0
100
AcDbEntity
  8
0
  6
Continuous
 62
     2
100
AcDbLine
 10
-49.45853600758787
 20
21.20252771639267
 30
0.0
 11
-50.86126022533716
 21
21.20252771639267
 31
0.0
  0
LINE
  5
26E
102
{ACAD_REACTORS
330
31F
330
320
102
}
330
A0
100
AcDbEntity
  8
0
  6
Continuous
 62
     2
100
AcDbLine
 10
-48.76194506952336
 20
14.78952771640718
 30
0.0
 11
-47.56915236735566
 21
14.78952771640718
 31
0.0
  0
LINE
  5
26F
102
{ACAD_REACTORS
330
31F
330
320
102
}
330
A0
100
AcDbEntity
  8
0
  6
Continuous
 62
     2
100
AcDbLine
 10
-47.56915236735566
 20
14.78952771640718
 30
0.0
 11
-47.56915236735566
 21
17.05807193409467
 31
0.0
  0
LINE
  5
270
102
{ACAD_REACTORS
330
31F
330
320
102
}
330
A0
100
AcDbEntity
  8
0
  6
Continuous
 62
     2
100
AcDbLine
 10
-47.56915236735566
 20
17.05807193409467
 30
0.0
 11
-46.75805332988227
 21
17.05807193409467
 31
0.0
  0
LINE
  5
271
102
{ACAD_REACTORS
330
31F
330
320
102
}
330
A0
100
AcDbEntity
  8
0
  6
Continuous
 62
     2
100
AcDbLine
 10
-46.75805332988227
 20
17.05807193409467
 30
0.0
 11
-46.75805332988227
 21
17.84333724021826
 31
0.0
  0
LINE
  5
272
102
{ACAD_REACTORS
330
31F
330
320
102
}
330
A0
100
AcDbEntity
  8
0
  6
Continuous
 62
     2
100
AcDbLine
 10
-50.14299884851096
 20
17.84333724021778
 30
0.0
 11
-46.75805332988227
 21
17.84333724021826
 31
0.0
  0
LINE
  5
273
102
{ACAD_REACTORS
330
31F
330
320
102
}
330
A0
100
AcDbEntity
  8
0
  6
Continuous
 62
     2
100
AcDbLine
 10
-48.76194506952336
 20
17.05807193409467
 30
0.0
 11
-48.76194506952336
 21
14.78952771640718
 31
0.0
  0
LINE
  5
274
102
{ACAD_REACTORS
330
321
330
322
102
}
330
A0
100
AcDbEntity
  8
0
  6
Continuous
 62
     2
100
AcDbLine
 10
-71.39143150500257
 20
16.76840786597168
 30
0.0
 11
-71.39143150500257
 21
17.35025927266676
 31
0.0
  0
LINE
  5
275
102
{ACAD_REACTORS
330
321
330
322
102
}
330
A0
100
AcDbEntity
  8
0
  6
Continuous
 62
     2
100
AcDbLine
 10
-71.39143150500257
 20
19.56854247260299
 30
0.0
 11
-71.39143150500257
 21
20.17407776110977
 31
0.0
  0
LINE
  5
276
330
A0
100
AcDbEntity
  8
1
  6
Continuous
 62
     6
100
AcDbLine
 10
-92.86125292039935
 20
7.49602771639087
 30
0.0
 11
-78.90605744714938
 21
7.49602771639076
 31
0.0
  0
LINE
  5
277
330
A0
100
AcDbEntity
  8
1
  6
Continuous
 62
     6
100
AcDbLine
 10
-142.8612529203996
 20
7.49602771639087
 30
0.0
 11
-147.9060574471494
 21
7.49602771639087
 31
0.0
  0
LINE
  5
278
330
A0
100
AcDbEntity
  8
1
  6
Continuous
 62
     6
100
AcDbLine
 10
7.13874707960062
 20
7.49602771639087
 30
0.0
 11
50.63874707960063
 21
7.49602771639087
 31
0.0
  0
LINE
  5
279
330
A0
100
AcDbEntity
  8
1
  6
Continuous
 62
     6
100
AcDbLine
 10
-42.86125292039938
 20
7.49602771639087
 30
0.0
 11
-60.70605744714936
 21
7.49602771639087
 31
0.0
  0
LINE
  5
27A
330
A0
100
AcDbEntity
  8
1
  6
Continuous
 62
     2
100
AcDbLine
 10
50.63874707960063
 20
7.49602771639087
 30
0.0
 11
55.63874707959963
 21
7.49602771639087
 31
0.0
  0
LINE
  5
27B
330
A0
100
AcDbEntity
  8
1
  6
Continuous
 62
     2
100
AcDbLine
 10
50.63874707960063
 20
7.49602771639087
 30
0.0
 11
50.63874707960063
 21
2.49602771639076
 31
0.0
  0
LINE
  5
27C
330
A0
100
AcDbEntity
  8
1
  6
Continuous
 62
     6
100
AcDbLine
 10
-78.90605744714938
 20
24.49602771639087
 30
0.0
 11
-42.50605744714946
 21
24.49602771639087
 31
0.0
  0
LINE
  5
27D
330
A0
100
AcDbEntity
  8
1
  6
Continuous
 62
     2
100
AcDbLine
 10
55.63874707959963
 20
2.49602771639076
 30
0.0
 11
55.63874707959963
 21
7.49602771639087
 31
0.0
  0
LINE
  5
27E
330
A0
100
AcDbEntity
  8
1
  6
Continuous
 62
     2
100
AcDbLine
 10
55.63874707959963
 20
2.49602771639076
 30
0.0
 11
50.63874707960063
 21
2.49602771639076
 31
0.0
  0
LINE
  5
27F
330
A0
100
AcDbEntity
  8
1
  6
Continuous
 62
     2
100
AcDbLine
 10
50.63874707960063
 20
2.49602771639076
 30
0.0
 11
7.13874707960062
 21
2.49602771639076
 31
0.0
  0
LINE
  5
280
330
A0
100
AcDbEntity
  8
1
  6
Continuous
 62
     6
100
AcDbLine
 10
50.63874707960233
 20
24.49602771639087
 30
0.0
 11
50.63874707960153
 21
57.49602771639098
 31
0.0
  0
LINE
  5
281
330
A0
100
AcDbEntity
  8
1
  6
Continuous
 62
     2
100
AcDbLine
 10
55.63874707959963
 20
212.4960277163909
 30
0.0
 11
-92.86125292039935
 21
212.4960277163909
 31
0.0
  0
LINE
  5
282
330
A0
100
AcDbEntity
  8
1
  6
Continuous
 62
     6
100
AcDbLine
 10
50.63874707959963
 20
192.4960277163909
 30
0.0
 11
-236.3612529203984
 21
192.4960277163909
 31
0.0
  0
LINE
  5
283
330
A0
100
AcDbEntity
  8
1
  6
Continuous
 62
     2
100
AcDbLine
 10
50.63874707960153
 20
57.49602771639098
 30
0.0
 11
55.63874707959963
 21
57.49602771639098
 31
0.0
  0
LINE
  5
284
330
A0
100
AcDbEntity
  8
1
  6
Continuous
 62
     6
100
AcDbLine
 10
50.63874707960153
 20
57.49602771639098
 30
0.0
 11
50.63874707960103
 21
107.4960277163908
 31
0.0
  0
LINE
  5
285
330
A0
100
AcDbEntity
  8
1
  6
Continuous
 62
     2
100
AcDbLine
 10
55.63874707959963
 20
57.49602771639098
 30
0.0
 11
55.63874707959963
 21
107.4960277163908
 31
0.0
  0
LINE
  5
286
330
A0
100
AcDbEntity
  8
1
  6
Continuous
 62
     2
100
AcDbLine
 10
50.63874707960103
 20
107.4960277163908
 30
0.0
 11
55.63874707959963
 21
107.4960277163908
 31
0.0
  0
LINE
  5
287
330
A0
100
AcDbEntity
  8
1
  6
Continuous
 62
     6
100
AcDbLine
 10
50.63874707960103
 20
107.4960277163908
 30
0.0
 11
50.63874707959982
 21
157.4960277163909
 31
0.0
  0
LINE
  5
288
330
A0
100
AcDbEntity
  8
1
  6
Continuous
 62
     2
100
AcDbLine
 10
55.63874707959963
 20
107.4960277163908
 30
0.0
 11
55.63874707959963
 21
157.4960277163909
 31
0.0
  0
LINE
  5
289
330
A0
100
AcDbEntity
  8
1
  6
Continuous
 62
     2
100
AcDbLine
 10
50.63874707959982
 20
157.4960277163909
 30
0.0
 11
55.63874707959963
 21
157.4960277163909
 31
0.0
  0
LINE
  5
28A
330
A0
100
AcDbEntity
  8
1
  6
Continuous
 62
     6
100
AcDbLine
 10
50.63874707959982
 20
157.4960277163909
 30
0.0
 11
50.63874707959963
 21
192.4960277163909
 31
0.0
  0
LINE
  5
28B
330
A0
100
AcDbEntity
  8
1
  6
Continuous
 62
     2
100
AcDbLine
 10
55.63874707959963
 20
157.4960277163909
 30
0.0
 11
55.63874707959963
 21
212.4960277163909
 31
0.0
  0
LINE
  5
28C
330
A0
100
AcDbEntity
  8
1
  6
Continuous
 62
     2
100
AcDbLine
 10
55.63874707959963
 20
7.49602771639087
 30
0.0
 11
55.63874707959963
 21
57.49602771639098
 31
0.0
  0
LINE
  5
28D
330
A0
100
AcDbEntity
  8
1
  6
Continuous
 62
     2
100
AcDbLine
 10
-92.86125292039935
 20
212.4960277163909
 30
0.0
 11
-241.3612529203984
 21
212.4960277163909
 31
0.0
  0
LINE
  5
28E
330
A0
100
AcDbEntity
  8
1
  6
Continuous
 62
     2
100
AcDbLine
 10
-92.86125292039935
 20
212.4960277163909
 30
0.0
 11
-92.86125292039935
 21
203.2873358716896
 31
0.0
  0
LINE
  5
28F
330
A0
100
AcDbEntity
  8
1
  6
Continuous
 62
     2
100
AcDbLine
 10
-241.3612529203984
 20
2.49602771639076
 30
0.0
 11
-236.3612529203975
 21
2.49602771639076
 31
0.0
  0
LINE
  5
290
330
A0
100
AcDbEntity
  8
1
  6
Continuous
 62
     2
100
AcDbLine
 10
-241.3612529203984
 20
212.4960277163909
 30
0.0
 11
-241.3612529203984
 21
157.4960277163909
 31
0.0
  0
LINE
  5
291
330
A0
100
AcDbEntity
  8
1
  6
Continuous
 62
     6
100
AcDbLine
 10
-236.3612529203984
 20
192.4960277163909
 30
0.0
 11
-236.3612529203984
 21
157.4960277163909
 31
0.0
  0
LINE
  5
292
330
A0
100
AcDbEntity
  8
1
  6
Continuous
 62
     2
100
AcDbLine
 10
-241.3612529203984
 20
157.4960277163909
 30
0.0
 11
-236.3612529203984
 21
157.4960277163909
 31
0.0
  0
LINE
  5
293
330
A0
100
AcDbEntity
  8
1
  6
Continuous
 62
     2
100
AcDbLine
 10
-241.3612529203984
 20
157.4960277163909
 30
0.0
 11
-241.3612529203984
 21
107.4960277163908
 31
0.0
  0
LINE
  5
294
330
A0
100
AcDbEntity
  8
1
  6
Continuous
 62
     6
100
AcDbLine
 10
-236.3612529203984
 20
157.4960277163909
 30
0.0
 11
-236.3612529203979
 21
107.4960277163908
 31
0.0
  0
LINE
  5
295
330
A0
100
AcDbEntity
  8
1
  6
Continuous
 62
     2
100
AcDbLine
 10
-241.3612529203984
 20
107.4960277163908
 30
0.0
 11
-236.3612529203979
 21
107.4960277163908
 31
0.0
  0
LINE
  5
296
330
A0
100
AcDbEntity
  8
1
  6
Continuous
 62
     2
100
AcDbLine
 10
-241.3612529203984
 20
107.4960277163908
 30
0.0
 11
-241.3612529203984
 21
57.49602771639098
 31
0.0
  0
LINE
  5
297
330
A0
100
AcDbEntity
  8
1
  6
Continuous
 62
     6
100
AcDbLine
 10
-236.3612529203979
 20
107.4960277163908
 30
0.0
 11
-236.3612529203977
 21
57.49602771639098
 31
0.0
  0
LINE
  5
298
330
A0
100
AcDbEntity
  8
1
  6
Continuous
 62
     2
100
AcDbLine
 10
-241.3612529203984
 20
57.49602771639098
 30
0.0
 11
-236.3612529203977
 21
57.49602771639098
 31
0.0
  0
LINE
  5
299
330
A0
100
AcDbEntity
  8
1
  6
Continuous
 62
     2
100
AcDbLine
 10
-241.3612529203984
 20
57.49602771639098
 30
0.0
 11
-241.3612529203984
 21
7.49602771639087
 31
0.0
  0
LINE
  5
29A
330
A0
100
AcDbEntity
  8
1
  6
Continuous
 62
     6
100
AcDbLine
 10
-236.3612529203977
 20
57.49602771639098
 30
0.0
 11
-236.3612529203975
 21
7.49602771639087
 31
0.0
  0
LINE
  5
29B
330
A0
100
AcDbEntity
  8
1
  6
Continuous
 62
     2
100
AcDbLine
 10
-192.8612529203994
 20
2.49602771639076
 30
0.0
 11
-192.8612529203994
 21
7.49602771639087
 31
0.0
  0
LINE
  5
29C
330
A0
100
AcDbEntity
  8
1
  6
Continuous
 62
     2
100
AcDbLine
 10
-192.8612529203994
 20
2.49602771639076
 30
0.0
 11
-142.8612529203996
 21
2.49602771639076
 31
0.0
  0
LINE
  5
29D
330
A0
100
AcDbEntity
  8
1
  6
Continuous
 62
     2
100
AcDbLine
 10
-142.8612529203996
 20
2.49602771639076
 30
0.0
 11
-142.8612529203996
 21
7.49602771639087
 31
0.0
  0
LINE
  5
29E
330
A0
100
AcDbEntity
  8
1
  6
Continuous
 62
     2
100
AcDbLine
 10
-142.8612529203996
 20
2.49602771639076
 30
0.0
 11
-92.86125292039935
 21
2.49602771639076
 31
0.0
  0
LINE
  5
29F
330
A0
100
AcDbEntity
  8
1
  6
Continuous
 62
     2
100
AcDbLine
 10
-92.86125292039935
 20
2.49602771639076
 30
0.0
 11
-92.86125292039935
 21
7.49602771639087
 31
0.0
  0
LINE
  5
2A0
330
A0
100
AcDbEntity
  8
1
  6
Continuous
 62
     2
100
AcDbLine
 10
-92.86125292039935
 20
2.49602771639076
 30
0.0
 11
-42.86125292039938
 21
2.49602771639076
 31
0.0
  0
LINE
  5
2A1
330
A0
100
AcDbEntity
  8
1
  6
Continuous
 62
     2
100
AcDbLine
 10
-42.86125292039938
 20
2.49602771639076
 30
0.0
 11
-42.86125292039938
 21
7.49602771639087
 31
0.0
  0
LINE
  5
2A2
330
A0
100
AcDbEntity
  8
1
  6
Continuous
 62
     2
100
AcDbLine
 10
7.13874707960062
 20
2.49602771639076
 30
0.0
 11
7.13874707960062
 21
7.49602771639087
 31
0.0
  0
LINE
  5
2A3
330
A0
100
AcDbEntity
  8
1
  6
Continuous
 62
     2
100
AcDbLine
 10
7.13874707960062
 20
2.49602771639076
 30
0.0
 11
-42.86125292039938
 21
2.49602771639076
 31
0.0
  0
LINE
  5
2A4
330
A0
100
AcDbEntity
  8
1
  6
Continuous
 62
     2
100
AcDbLine
 10
-236.3612529203975
 20
7.49602771639087
 30
0.0
 11
-236.3612529203975
 21
2.49602771639076
 31
0.0
  0
LINE
  5
2A5
330
A0
100
AcDbEntity
  8
1
  6
Continuous
 62
     2
100
AcDbLine
 10
-236.3612529203975
 20
2.49602771639076
 30
0.0
 11
-192.8612529203994
 21
2.49602771639076
 31
0.0
  0
LINE
  5
2A6
330
A0
100
AcDbEntity
  8
1
  6
Continuous
 62
     2
100
AcDbLine
 10
-236.3612529203975
 20
7.49602771639087
 30
0.0
 11
-241.3612529203984
 21
7.49602771639087
 31
0.0
  0
LINE
  5
2A7
330
A0
100
AcDbEntity
  8
1
  6
Continuous
 62
     2
100
AcDbLine
 10
-241.3612529203984
 20
7.49602771639087
 30
0.0
 11
-241.3612529203984
 21
2.49602771639076
 31
0.0
  0
LINE
  5
2A8
330
A0
100
AcDbEntity
  8
1
  6
Continuous
 62
     6
100
AcDbLine
 10
50.63874707960063
 20
7.49602771639087
 30
0.0
 11
50.63874707960193
 21
15.99602771639087
 31
0.0
  0
LINE
  5
2A9
330
A0
100
AcDbEntity
  8
1
  6
Continuous
 62
     6
100
AcDbLine
 10
-42.50605744714946
 20
7.49602771639076
 30
0.0
 11
7.13874707960062
 21
7.49602771639087
 31
0.0
  0
LINE
  5
2AA
330
A0
100
AcDbEntity
  8
1
  6
Continuous
 62
     6
100
AcDbLine
 10
-195.1612529203996
 20
7.49602771639076
 30
0.0
 11
-192.8612529203994
 21
7.49602771639087
 31
0.0
  0
LINE
  5
2AB
330
A0
100
AcDbEntity
  8
1
  6
Continuous
 62
     6
100
AcDbLine
 10
-92.86125292039935
 20
7.49602771639087
 30
0.0
 11
-142.8612529203996
 21
7.49602771639087
 31
0.0
  0
LINE
  5
2AC
330
A0
100
AcDbEntity
  8
1
  6
Continuous
 62
     7
100
AcDbLine
 10
-78.90605744714938
 20
24.49602771639087
 30
0.0
 11
-78.90605744714938
 21
11.74602771639076
 31
0.0
  0
LINE
  5
2AD
330
A0
100
AcDbEntity
  8
1
  6
Continuous
 62
     7
100
AcDbLine
 10
-42.50605744714946
 20
24.49602771639087
 30
0.0
 11
-42.50605744714946
 21
11.74602771639087
 31
0.0
  0
LINE
  5
2AE
330
A0
100
AcDbEntity
  8
1
  6
Continuous
 62
     6
100
AcDbLine
 10
-195.1612529203996
 20
7.49602771639076
 30
0.0
 11
-201.3612529203976
 21
7.49602771639087
 31
0.0
  0
LINE
  5
2AF
330
A0
100
AcDbEntity
  8
1
  6
Continuous
 62
     6
100
AcDbLine
 10
-42.50605744714946
 20
7.49602771639076
 30
0.0
 11
-42.86125292039938
 21
7.49602771639087
 31
0.0
  0
LINE
  5
2B0
330
A0
100
AcDbEntity
  8
1
  6
Continuous
 62
     6
100
AcDbLine
 10
50.63874707960233
 20
24.49602771639087
 30
0.0
 11
50.63874707960193
 21
15.99602771639087
 31
0.0
  0
LINE
  5
2B1
330
A0
100
AcDbEntity
  8
1
  6
Continuous
 62
     6
100
AcDbLine
 10
-201.3612529203976
 20
7.49602771639087
 30
0.0
 11
-236.3612529203975
 21
7.49602771639087
 31
0.0
  0
LINE
  5
2B2
330
A0
100
AcDbEntity
  8
1
  6
Continuous
 62
     2
100
AcDbLine
 10
-74.66940256058678
 20
29.87102771639079
 30
0.0
 11
-69.66940256058678
 21
31.12102771639079
 31
0.0
  0
LINE
  5
2B3
330
A0
100
AcDbEntity
  8
1
  6
Continuous
 62
     2
100
AcDbLine
 10
-74.66940256058678
 20
27.37102771639079
 30
0.0
 11
-74.66940256058678
 21
29.87102771639079
 31
0.0
  0
LINE
  5
2B4
330
A0
100
AcDbEntity
  8
1
  6
Continuous
 62
     2
100
AcDbLine
 10
-69.66940256058678
 20
26.12102771639079
 30
0.0
 11
-74.66940256058678
 21
27.37102771639079
 31
0.0
  0
LINE
  5
2B5
330
A0
100
AcDbEntity
  8
1
  6
Continuous
 62
     2
100
AcDbLine
 10
-69.66940256058678
 20
31.12102771639079
 30
0.0
 11
-69.66940256058678
 21
26.12102771639079
 31
0.0
  0
LINE
  5
2B6
330
A0
100
AcDbEntity
  8
1
  6
Continuous
 62
     7
100
AcDbLine
 10
-78.90605744714938
 20
11.74602771639076
 30
0.0
 11
-60.70605744714936
 21
11.74602771639087
 31
0.0
  0
LINE
  5
2B7
330
A0
100
AcDbEntity
  8
1
  6
Continuous
 62
     7
100
AcDbLine
 10
-78.90605744714938
 20
11.74602771639076
 30
0.0
 11
-78.90605744714938
 21
7.49602771639076
 31
0.0
  0
LINE
  5
2B8
330
A0
100
AcDbEntity
  8
1
  6
Continuous
 62
     7
100
AcDbLine
 10
-42.50605744714946
 20
11.74602771639087
 30
0.0
 11
-42.50605744714946
 21
7.49602771639076
 31
0.0
  0
LINE
  5
2B9
330
A0
100
AcDbEntity
  8
1
  6
Continuous
 62
     7
100
AcDbLine
 10
-60.70605744714936
 20
11.74602771639087
 30
0.0
 11
-60.70605744714936
 21
7.49602771639087
 31
0.0
  0
LINE
  5
2BA
330
A0
100
AcDbEntity
  8
1
  6
Continuous
 62
     6
100
AcDbLine
 10
-60.70605744714936
 20
7.49602771639087
 30
0.0
 11
-78.90605744714938
 21
7.49602771639076
 31
0.0
  0
LINE
  5
2BB
330
A0
100
AcDbEntity
  8
1
  6
Continuous
 62
     7
100
AcDbLine
 10
-60.70605744714936
 20
11.74602771639087
 30
0.0
 11
-42.50605744714946
 21
11.74602771639087
 31
0.0
  0
LINE
  5
2BC
330
A0
100
AcDbEntity
  8
1
  6
Continuous
 62
     6
100
AcDbLine
 10
-78.90605744714938
 20
32.99602771639087
 30
0.0
 11
50.63874707960233
 21
32.99602771639087
 31
0.0
  0
ARC
  5
2BD
102
{ACAD_REACTORS
330
325
330
326
102
}
330
A0
100
AcDbEntity
  8
0
  6
Continuous
 62
     2
100
AcDbCircle
 10
-63.51440944818938
 20
16.31643247831246
 30
0.0
 40
0.7717997786796948
100
AcDbArc
 50
321.8795802028426
 51
38.12041979715317
  0
ARC
  5
2BE
102
{ACAD_REACTORS
330
325
330
326
102
}
330
A0
100
AcDbEntity
  8
0
  6
Continuous
 62
     2
100
AcDbCircle
 10
-63.31466941184297
 20
16.15970130019247
 30
0.0
 40
0.5179085730137343
100
AcDbArc
 50
218.120419797193
 51
321.8795802028017
  0
ARC
  5
2BF
102
{ACAD_REACTORS
330
325
330
326
102
}
330
A0
100
AcDbEntity
  8
0
  6
Continuous
 62
     2
100
AcDbCircle
 10
-63.11492937549687
 20
16.31643247831246
 30
0.0
 40
0.7717997786794654
100
AcDbArc
 50
141.8795802028361
 51
218.1204197971682
  0
ARC
  5
2C0
102
{ACAD_REACTORS
330
325
330
326
102
}
330
A0
100
AcDbEntity
  8
0
  6
Continuous
 62
     2
100
AcDbCircle
 10
-63.31466941184297
 20
16.47316365643297
 30
0.0
 40
0.5179085730133076
100
AcDbArc
 50
38.12041979714686
 51
141.8795802028585
  0
ARC
  5
2C1
102
{ACAD_REACTORS
330
31D
330
31E
102
}
330
A0
100
AcDbEntity
  8
0
  6
Continuous
 62
     2
100
AcDbCircle
 10
-66.37668354740686
 20
14.90596611290428
 30
0.0
 40
2.227384008973474
100
AcDbArc
 50
58.06909105004068
 51
71.55192388186722
  0
ARC
  5
2C2
102
{ACAD_REACTORS
330
31D
330
31E
102
}
330
A0
100
AcDbEntity
  8
0
  6
Continuous
 62
     2
100
AcDbCircle
 10
-66.11495584644808
 20
16.52150390765146
 30
0.0
 40
0.5115800601948779
100
AcDbArc
 50
113.3722778881992
 51
151.4785267423044
  0
ARC
  5
2C3
102
{ACAD_REACTORS
330
31D
330
31E
102
}
330
A0
100
AcDbEntity
  8
0
  6
Continuous
 62
     2
100
AcDbCircle
 10
-65.73759858836777
 20
16.31643247831246
 30
0.0
 40
0.9410597353332545
100
AcDbArc
 50
151.4785267422669
 51
208.5214732577054
  0
ARC
  5
2C4
102
{ACAD_REACTORS
330
31D
330
31E
102
}
330
A0
100
AcDbEntity
  8
0
  6
Continuous
 62
     2
100
AcDbCircle
 10
-66.53455642249978
 20
19.62911342356887
 30
0.0
 40
4.852596863498145
100
AcDbArc
 50
275.1581447696249
 51
285.9799912583529
  0
ARC
  5
2C5
102
{ACAD_REACTORS
330
31D
330
31E
102
}
330
A0
100
AcDbEntity
  8
0
  6
Continuous
 62
     2
100
AcDbCircle
 10
-66.24570032776387
 20
16.42922284034728
 30
0.0
 40
1.639695123939386
100
AcDbArc
 50
195.0618917770894
 51
275.1581447696395
  0
ARC
  5
2C6
102
{ACAD_REACTORS
330
31D
330
31E
102
}
330
A0
100
AcDbEntity
  8
0
  6
Continuous
 62
     2
100
AcDbCircle
 10
-66.66482817122667
 20
16.31643247831246
 30
0.0
 40
1.205656168390946
100
AcDbArc
 50
164.9381082228761
 51
195.0618917770945
  0
ARC
  5
2C7
102
{ACAD_REACTORS
330
31D
330
31E
102
}
330
A0
100
AcDbEntity
  8
0
  6
Continuous
 62
     2
100
AcDbCircle
 10
-66.24570032776387
 20
16.20364211627756
 30
0.0
 40
1.639695123940514
100
AcDbArc
 50
84.84185523036238
 51
164.9381082228862
  0
ARC
  5
2C8
102
{ACAD_REACTORS
330
321
330
322
102
}
330
A0
100
AcDbEntity
  8
0
  6
Continuous
 62
     2
100
AcDbCircle
 10
-71.07571458192578
 20
17.35025927266676
 30
0.0
 40
0.3157169230765328
100
AcDbArc
 50
115.3740086783519
 51
180.0
  0
ARC
  5
2C9
102
{ACAD_REACTORS
330
321
330
322
102
}
330
A0
100
AcDbEntity
  8
0
  6
Continuous
 62
     2
100
AcDbCircle
 10
-71.07571458192578
 20
19.56854247260299
 30
0.0
 40
0.315716923076792
100
AcDbArc
 50
180.0
 51
244.6259913216482
  0
ARC
  5
2CA
102
{ACAD_REACTORS
330
321
330
322
102
}
330
A0
100
AcDbEntity
  8
0
  6
Continuous
 62
     2
100
AcDbCircle
 10
-71.07009844661576
 20
18.47124281354067
 30
0.0
 40
2.018561131933266
100
AcDbArc
 50
269.8110329575858
 51
90.18896704241416
  0
ARC
  5
2CB
102
{ACAD_REACTORS
330
321
330
322
102
}
330
A0
100
AcDbEntity
  8
0
  6
Continuous
 62
     2
100
AcDbCircle
 10
-71.07571458192578
 20
16.76840786597168
 30
0.0
 40
0.315716923076792
100
AcDbArc
 50
180.0
 51
269.8110329574542
  0
ARC
  5
2CC
102
{ACAD_REACTORS
330
31F
330
320
102
}
330
A0
100
AcDbEntity
  8
0
  6
Continuous
 62
     2
100
AcDbCircle
 10
-50.01225436719517
 20
16.52150390765146
 30
0.0
 40
0.51158006019442
100
AcDbArc
 50
109.3371432194859
 51
151.4785267424221
  0
ARC
  5
2CD
102
{ACAD_REACTORS
330
31F
330
320
102
}
330
A0
100
AcDbEntity
  8
0
  6
Continuous
 62
     2
100
AcDbCircle
 10
-50.01225436719517
 20
16.11136104897398
 30
0.0
 40
0.5115800601960312
100
AcDbArc
 50
208.5214732576869
 51
246.6277221118451
  0
ARC
  5
2CE
102
{ACAD_REACTORS
330
31F
330
320
102
}
330
A0
100
AcDbEntity
  8
0
  6
Continuous
 62
     2
100
AcDbCircle
 10
-50.56212669197257
 20
16.31643247831246
 30
0.0
 40
1.205656168392997
100
AcDbArc
 50
164.9381082229024
 51
195.0618917770958
  0
ARC
  5
2CF
102
{ACAD_REACTORS
330
31F
330
320
102
}
330
A0
100
AcDbEntity
  8
0
  6
Continuous
 62
     2
100
AcDbCircle
 10
-50.14299884851096
 20
16.20364211627756
 30
0.0
 40
1.639695123940221
100
AcDbArc
 50
90.0
 51
164.9381082228947
  0
ARC
  5
2D0
102
{ACAD_REACTORS
330
323
330
324
102
}
330
A0
100
AcDbEntity
  8
0
  6
Continuous
 62
     2
100
AcDbCircle
 10
-59.56999394121468
 20
19.67562295448678
 30
0.0
 40
1.52690476190589
100
AcDbArc
 50
90.0
 51
270.0
  0
ARC
  5
2D1
102
{ACAD_REACTORS
330
327
330
328
102
}
330
A0
100
AcDbEntity
  8
0
  6
Continuous
 62
     2
100
AcDbCircle
 10
-66.31268468644046
 20
20.18655804628148
 30
0.0
 40
0.3528638246711182
100
AcDbArc
 50
270.0
 51
90.0
  0
ARC
  5
2D2
102
{ACAD_REACTORS
330
321
330
322
102
}
330
A0
100
AcDbEntity
  8
0
  6
Continuous
 62
     2
100
AcDbCircle
 10
-73.65126326845748
 20
20.17425523775788
 30
0.0
 40
0.3157169230761916
100
AcDbArc
 50
90.0
 51
180.0
  0
ARC
  5
2D3
102
{ACAD_REACTORS
330
321
330
322
102
}
330
A0
100
AcDbEntity
  8
0
  6
Continuous
 62
     2
100
AcDbCircle
 10
-71.65284555987287
 20
18.45940087263517
 30
0.0
 40
0.9118975235576178
100
AcDbArc
 50
115.1944106485281
 51
244.8055893514878
  0
ARC
  5
2D4
102
{ACAD_REACTORS
330
321
330
322
102
}
330
A0
100
AcDbEntity
  8
0
  6
Continuous
 62
     2
100
AcDbCircle
 10
-72.17543000744786
 20
17.34857112657238
 30
0.0
 40
0.315716923076593
100
AcDbArc
 50
0.0
 51
64.80558935146027
  0
ARC
  5
2D5
102
{ACAD_REACTORS
330
321
330
322
102
}
330
A0
100
AcDbEntity
  8
0
  6
Continuous
 62
     2
100
AcDbCircle
 10
-74.24515794520397
 20
15.21377233179047
 30
0.0
 40
0.4242446153828041
100
AcDbArc
 50
180.0
 51
270.0
  0
ARC
  5
2D6
102
{ACAD_REACTORS
330
323
330
324
102
}
330
A0
100
AcDbEntity
  8
0
  6
Continuous
 62
     2
100
AcDbCircle
 10
-59.35372193104948
 20
19.83235413260726
 30
0.0
 40
0.5179085730135266
100
AcDbArc
 50
38.12041979714334
 51
141.8795802028489
  0
ARC
  5
2D7
102
{ACAD_REACTORS
330
323
330
324
102
}
330
A0
100
AcDbEntity
  8
0
  6
Continuous
 62
     2
100
AcDbCircle
 10
-59.15398189470318
 20
19.67562295448678
 30
0.0
 40
0.7717997786796724
100
AcDbArc
 50
141.8795802028404
 51
218.120419797156
  0
ARC
  5
2D8
102
{ACAD_REACTORS
330
325
330
326
102
}
330
A0
100
AcDbEntity
  8
0
  6
Continuous
 62
     2
100
AcDbCircle
 10
-63.31466941184297
 20
16.85500748861577
 30
0.0
 40
2.065479772208504
100
AcDbArc
 50
242.4518518243401
 51
297.548148175687
  0
ARC
  5
2D9
102
{ACAD_REACTORS
330
325
330
326
102
}
330
A0
100
AcDbEntity
  8
0
  6
Continuous
 62
     2
100
AcDbCircle
 10
-63.31466941184297
 20
15.77785746800967
 30
0.0
 40
2.065479772208563
100
AcDbArc
 50
62.45185182430652
 51
117.5481481756664
  0
ARC
  5
2DA
102
{ACAD_REACTORS
330
325
330
326
102
}
330
A0
100
AcDbEntity
  8
0
  6
Continuous
 62
     2
100
AcDbCircle
 10
-63.59560930367627
 20
16.31643247831246
 30
0.0
 40
1.45803408365149
100
AcDbArc
 50
117.5481481756624
 51
242.4518518243374
  0
ARC
  5
2DB
102
{ACAD_REACTORS
330
325
330
326
102
}
330
A0
100
AcDbEntity
  8
0
  6
Continuous
 62
     2
100
AcDbCircle
 10
-63.03372952000967
 20
16.31643247831246
 30
0.0
 40
1.458034083651992
100
AcDbArc
 50
297.5481481757009
 51
62.4518518242992
  0
ARC
  5
2DC
102
{ACAD_REACTORS
330
323
330
324
102
}
330
A0
100
AcDbEntity
  8
0
  6
Continuous
 62
     2
100
AcDbCircle
 10
-59.35372193104948
 20
19.51889177636636
 30
0.0
 40
0.5179085730134372
100
AcDbArc
 50
218.1204197971511
 51
321.8795802028566
  0
ARC
  5
2DD
102
{ACAD_REACTORS
330
323
330
324
102
}
330
A0
100
AcDbEntity
  8
0
  6
Continuous
 62
     2
100
AcDbCircle
 10
-59.55346196739566
 20
19.67562295448678
 30
0.0
 40
0.7717997786796351
100
AcDbArc
 50
321.879580202844
 51
38.12041979715956
  0
ARC
  5
2DE
102
{ACAD_REACTORS
330
321
330
322
102
}
330
A0
100
AcDbEntity
  8
0
  6
Continuous
 62
     2
100
AcDbCircle
 10
-68.77184585448717
 20
15.21377233179047
 30
0.0
 40
0.4242446153832891
100
AcDbArc
 50
270.0
 51
0.0
  0
ARC
  5
2DF
102
{ACAD_REACTORS
330
321
330
322
102
}
330
A0
100
AcDbEntity
  8
0
  6
Continuous
 62
     2
100
AcDbCircle
 10
-68.77184585448717
 20
20.77828310099068
 30
0.0
 40
0.4242446153838841
100
AcDbArc
 50
0.0
 51
90.0
  0
ARC
  5
2E0
102
{ACAD_REACTORS
330
321
330
322
102
}
330
A0
100
AcDbEntity
  8
0
  6
Continuous
 62
     2
100
AcDbCircle
 10
-74.24515794520397
 20
20.77828310099068
 30
0.0
 40
0.4242446153837989
100
AcDbArc
 50
90.0
 51
180.0
  0
ARC
  5
2E1
102
{ACAD_REACTORS
330
321
330
322
102
}
330
A0
100
AcDbEntity
  8
0
  6
Continuous
 62
     2
100
AcDbCircle
 10
-72.17543000744786
 20
15.81780019504078
 30
0.0
 40
0.3157169230767103
100
AcDbArc
 50
270.0
 51
0.0
  0
ARC
  5
2E2
102
{ACAD_REACTORS
330
321
330
322
102
}
330
A0
100
AcDbEntity
  8
0
  6
Continuous
 62
     2
100
AcDbCircle
 10
-72.17543000744786
 20
19.57023061869737
 30
0.0
 40
0.3157169230761203
100
AcDbArc
 50
295.1944106485397
 51
0.0
  0
ARC
  5
2E3
102
{ACAD_REACTORS
330
321
330
322
102
}
330
A0
100
AcDbEntity
  8
0
  6
Continuous
 62
     2
100
AcDbCircle
 10
-72.17543000744786
 20
20.17425523775788
 30
0.0
 40
0.315716923076593
100
AcDbArc
 50
0.0
 51
90.0
  0
ARC
  5
2E4
102
{ACAD_REACTORS
330
321
330
322
102
}
330
A0
100
AcDbEntity
  8
0
  6
Continuous
 62
     2
100
AcDbCircle
 10
-73.65126326845748
 20
15.81780019504078
 30
0.0
 40
0.3157169230756836
100
AcDbArc
 50
180.0
 51
270.0
  0
ARC
  5
2E5
102
{ACAD_REACTORS
330
327
330
328
102
}
330
A0
100
AcDbEntity
  8
0
  6
Continuous
 62
     2
100
AcDbCircle
 10
-65.87121216020208
 20
20.14716207505899
 30
0.0
 40
1.055365641333712
100
AcDbArc
 50
270.0
 51
90.0
  0
ARC
  5
2E6
102
{ACAD_REACTORS
330
31F
330
320
102
}
330
A0
100
AcDbEntity
  8
0
  6
Continuous
 62
     2
100
AcDbCircle
 10
-50.14299884851096
 20
16.42922284034728
 30
0.0
 40
1.639695123940442
100
AcDbArc
 50
195.0618917771013
 51
275.1581447696765
  0
ARC
  5
2E7
102
{ACAD_REACTORS
330
31F
330
320
102
}
330
A0
100
AcDbEntity
  8
0
  6
Continuous
 62
     2
100
AcDbCircle
 10
-50.43185494324678
 20
19.62911342356887
 30
0.0
 40
4.852596863498826
100
AcDbArc
 50
275.1581447696364
 51
285.9799912583387
  0
ARC
  5
2E8
102
{ACAD_REACTORS
330
31F
330
320
102
}
330
A0
100
AcDbEntity
  8
0
  6
Continuous
 62
     2
100
AcDbCircle
 10
-50.27398206815397
 20
17.72689884372056
 30
0.0
 40
2.227384008972744
100
AcDbArc
 50
288.4480761181335
 51
301.9309089499396
  0
ARC
  5
2E9
102
{ACAD_REACTORS
330
31F
330
320
102
}
330
A0
100
AcDbEntity
  8
0
  6
Continuous
 62
     2
100
AcDbCircle
 10
-49.85581433449207
 20
16.47335306768397
 30
0.0
 40
0.9059297849852768
100
AcDbArc
 50
246.6277221118181
 51
288.4480761180818
  0
ARC
  5
2EA
102
{ACAD_REACTORS
330
31F
330
320
102
}
330
A0
100
AcDbEntity
  8
0
  6
Continuous
 62
     2
100
AcDbCircle
 10
-49.63489710911378
 20
16.31643247831246
 30
0.0
 40
0.9410597353349021
100
AcDbArc
 50
151.4785267423623
 51
208.5214732576693
  0
ARC
  5
2EB
102
{ACAD_REACTORS
330
31F
330
320
102
}
330
A0
100
AcDbEntity
  8
0
  6
Continuous
 62
     2
100
AcDbCircle
 10
-49.86558436909147
 20
16.10354892726858
 30
0.0
 40
0.9545230068260899
100
AcDbArc
 50
90.0
 51
109.3371432194321
  0
ARC
  5
2EC
102
{ACAD_REACTORS
330
321
330
322
102
}
330
A0
100
AcDbEntity
  8
0
  6
Continuous
 62
     2
100
AcDbCircle
 10
-71.07571458192578
 20
20.17407776110977
 30
0.0
 40
0.3157169230760711
100
AcDbArc
 50
90.18896704254594
 51
180.0
  0
ARC
  5
2ED
102
{ACAD_REACTORS
330
321
330
322
102
}
330
A0
100
AcDbEntity
  8
0
  6
Continuous
 62
     2
100
AcDbCircle
 10
-71.60175728001366
 20
18.45940087263517
 30
0.0
 40
0.911848150144459
100
AcDbArc
 50
295.3740086781764
 51
64.62599132180755
  0
ARC
  5
2EE
102
{ACAD_REACTORS
330
31D
330
31E
102
}
330
A0
100
AcDbEntity
  8
0
  6
Continuous
 62
     2
100
AcDbCircle
 10
-66.37668354740686
 20
17.72689884372116
 30
0.0
 40
2.227384008972737
100
AcDbArc
 50
288.4480761181328
 51
301.9309089499593
  0
ARC
  5
2EF
102
{ACAD_REACTORS
330
31D
330
31E
102
}
330
A0
100
AcDbEntity
  8
0
  6
Continuous
 62
     2
100
AcDbCircle
 10
-65.95851581374606
 20
16.47335306768397
 30
0.0
 40
0.905929784984916
100
AcDbArc
 50
246.6277221118709
 51
288.4480761181586
  0
ARC
  5
2F0
102
{ACAD_REACTORS
330
31D
330
31E
102
}
330
A0
100
AcDbEntity
  8
0
  6
Continuous
 62
     2
100
AcDbCircle
 10
-66.11495584644808
 20
16.11136104897398
 30
0.0
 40
0.5115800601948034
100
AcDbArc
 50
208.5214732576956
 51
246.6277221118275
  0
ARC
  5
2F1
102
{ACAD_REACTORS
330
31D
330
31E
102
}
330
A0
100
AcDbEntity
  8
0
  6
Continuous
 62
     2
100
AcDbCircle
 10
-65.95851581374606
 20
16.15951188894087
 30
0.0
 40
0.9059297849853228
100
AcDbArc
 50
71.55192388185348
 51
113.372277888129
  0
ARC
  5
2F2
102
{ACAD_REACTORS
330
31D
330
31E
102
}
330
A0
100
AcDbEntity
  8
0
  6
Continuous
 62
     2
100
AcDbCircle
 10
-66.53455642249978
 20
13.00375153305657
 30
0.0
 40
4.852596863498073
100
AcDbArc
 50
74.02000874164739
 51
84.84185523037506
  0
CIRCLE
  5
2F3
102
{ACAD_REACTORS
330
321
330
322
102
}
330
A0
100
AcDbEntity
  8
0
  6
Continuous
 62
     2
100
AcDbCircle
 10
-71.62557229468646
 20
18.45940087263517
 30
0.0
 40
0.4709789327785074
  0
CIRCLE
  5
2F4
330
A0
100
AcDbEntity
  8
1
  6
Continuous
 62
     2
100
AcDbCircle
 10
-66.16940256058678
 20
28.62102771639079
 30
0.0
 40
1.249999999999915
  0
CIRCLE
  5
2F5
330
A0
100
AcDbEntity
  8
1
  6
Continuous
 62
     2
100
AcDbCircle
 10
-66.16940256058678
 20
28.62102771639079
 30
0.0
 40
2.499999999999993
  0
TEXT
  5
2F6
330
A0
100
AcDbEntity
  8
1
 62
     7
100
AcDbText
 10
-23.53250972513558
 20
25.79602771639077
 30
0.0
 40
2.5
  1
/
 41
0.9
  7
CONVERTER_11
100
AcDbText
  0
TEXT
  5
2F8
330
A0
100
AcDbEntity
  8
1
 62
     7
100
AcDbText
 10
-21.37614522809358
 20
25.79602771639077
 30
0.0
 40
2.5
  1
00
 41
0.81
  7
CONVERTER_12
100
AcDbText
  0
TEXT
  5
2F9
330
A0
100
AcDbEntity
  8
1
 62
     3
100
AcDbText
 10
16.22033879792352
 20
25.79602771639077
 30
0.0
 40
2.5
  1
21.09.2019
 41
0.81
  7
CONVERTER_12
100
AcDbText
  0
MTEXT
  5
2FA
330
A0
100
AcDbEntity
  8
1
 62
     2
100
AcDbMText
 10
16.22033879792352
 20
31.99602771639079
 30
0.0
 40
1.8
 41
0.0
 71
     1
 72
     1
  1
date
  7
CONVERTER_11
 73
     1
 44
1.32052821128451
  0
MTEXT
  5
2FB
330
A0
100
AcDbEntity
  8
1
 62
     2
100
AcDbMText
 10
-13.60605744714937
 20
23.49602771639079
 30
0.0
 40
1.8
 41
0.0
 71
     1
 72
     1
  1
document-type
  7
CONVERTER_11
 73
     1
 44
1.20048019207683
  0
TEXT
  5
2FC
330
A0
100
AcDbEntity
  8
1
 62
     3
100
AcDbText
 10
-13.60605744714937
 20
17.29602771639077
 30
0.0
 40
2.5
  1
TECDOC 2D_Productdrawing
 41
0.81
  7
CONVERTER_12
100
AcDbText
  0
MTEXT
  5
2FE
330
A0
100
AcDbEntity
  8
1
 62
     2
100
AcDbMText
 10
-41.40605744714938
 20
31.99602771639087
 30
0.0
 40
1.8
 41
0.0
 71
     1
 72
     1
  1
document-No. / RI
  7
CONVERTER_13
 73
     1
 44
1.32052821128451
  0
TEXT
  5
2FF
330
A0
100
AcDbEntity
  8
1
 62
     7
100
AcDbText
 10
-41.40605744714938
 20
25.79602771639077
 30
0.0
 40
2.5
  1
01243985
 41
0.81
  7
CONVERTER_12
100
AcDbText
  0
MTEXT
  5
301
330
A0
100
AcDbEntity
  8
1
 62
     3
100
AcDbMText
 10
46.17954293876294
 20
25.79602771639097
 30
0.0
 40
2.5
 41
0.0
 71
     8
 72
     1
  1
1:1
  7
CONVERTER_14
 73
     1
 44
1.32052821128451
  0
MTEXT
  5
302
330
A0
100
AcDbEntity
  8
1
 62
     2
100
AcDbMText
 10
42.82033879792334
 20
31.99602771639087
 30
0.0
 40
1.8
 41
0.0
 71
     1
 72
     1
  1
scale
  7
CONVERTER_11
 73
     1
 44
1.20048019207683
  0
MTEXT
  5
303
330
A0
100
AcDbEntity
  8
1
 62
     2
100
AcDbMText
 10
-41.40605744714938
 20
23.49602771639087
 30
0.0
 40
1.8
 41
0.0
 71
     1
 72
     1
  1
ident.-No.
  7
CONVERTER_11
 73
     1
 44
1.20048019207683
  0
TEXT
  5
304
330
A0
100
AcDbEntity
  8
1
 62
     7
100
AcDbText
 10
-41.00605744714966
 20
17.29602771639077
 30
0.0
 40
2.5
  1
3213108
 41
0.81
  7
CONVERTER_12
100
AcDbText
  0
MTEXT
  5
305
330
A0
100
AcDbEntity
  8
1
 62
     2
100
AcDbMText
 10
-113.3440721721969
 20
20.24602771639079
 30
0.0
 40
2.0
 41
0.0
 71
     5
 72
     1
  1
General Information\P- Simplified representation\P- Document excluded from change process\P- Linear dimensions [mm]
  7
CONVERTER_11
 73
     1
 44
1.20048019207683
  0
MTEXT
  5
306
330
A0
100
AcDbEntity
  8
1
 62
     7
100
AcDbMText
 10
53.13874707959963
 20
82.49602771639277
 30
0.0
 40
3.5
 41
0.0
 71
     5
 72
     1
  1
C
  7
CONVERTER_11
 73
     1
 44
1.20048019207683
  0
MTEXT
  5
307
330
A0
100
AcDbEntity
  8
1
 62
     7
100
AcDbMText
 10
53.13874707959963
 20
184.9960277163909
 30
0.0
 40
3.5
 41
0.0
 71
     5
 72
     1
  1
A
  7
CONVERTER_11
 73
     1
 44
1.20048019207683
  0
MTEXT
  5
308
330
A0
100
AcDbEntity
  8
1
 62
     7
100
AcDbMText
 10
53.13874707959963
 20
132.4960277163928
 30
0.0
 40
3.5
 41
0.0
 71
     5
 72
     1
  1
B
  7
CONVERTER_11
 73
     1
 44
1.20048019207683
  0
MTEXT
  5
309
330
A0
100
AcDbEntity
  8
1
 62
     7
100
AcDbMText
 10
53.13874707959963
 20
29.99602771639087
 30
0.0
 40
3.5
 41
0.0
 71
     5
 72
     1
  1
D
  7
CONVERTER_11
 73
     1
 44
1.20048019207683
  0
MTEXT
  5
30A
330
A0
100
AcDbEntity
  8
1
 62
     7
100
AcDbMText
 10
-217.111252920399
 20
4.99602771639076
 30
0.0
 40
3.5
 41
0.0
 71
     5
 72
     1
  1
1
  7
CONVERTER_11
 73
     1
 44
1.20048019207683
  0
MTEXT
  5
30B
330
A0
100
AcDbEntity
  8
1
 62
     7
100
AcDbMText
 10
-167.8612529203994
 20
4.99602771639076
 30
0.0
 40
3.5
 41
0.0
 71
     5
 72
     1
  1
2
  7
CONVERTER_11
 73
     1
 44
1.20048019207683
  0
MTEXT
  5
30C
330
A0
100
AcDbEntity
  8
1
 62
     7
100
AcDbMText
 10
-117.8612529203994
 20
4.99602771639076
 30
0.0
 40
3.5
 41
0.0
 71
     5
 72
     1
  1
3
  7
CONVERTER_11
 73
     1
 44
1.20048019207683
  0
MTEXT
  5
30D
330
A0
100
AcDbEntity
  8
1
 62
     7
100
AcDbMText
 10
-67.86125292039947
 20
4.99602771639076
 30
0.0
 40
3.5
 41
0.0
 71
     5
 72
     1
  1
4
  7
CONVERTER_11
 73
     1
 44
1.20048019207683
  0
MTEXT
  5
30E
330
A0
100
AcDbEntity
  8
1
 62
     7
100
AcDbMText
 10
-17.86125292039938
 20
4.99602771639076
 30
0.0
 40
3.5
 41
0.0
 71
     5
 72
     1
  1
5
  7
CONVERTER_11
 73
     1
 44
1.20048019207683
  0
MTEXT
  5
30F
330
A0
100
AcDbEntity
  8
1
 62
     7
100
AcDbMText
 10
31.38874707959982
 20
4.99602771639076
 30
0.0
 40
3.5
 41
0.0
 71
     5
 72
     1
  1
6
  7
CONVERTER_11
 73
     1
 44
1.20048019207683
  0
MTEXT
  5
310
330
A0
100
AcDbEntity
  8
1
 62
     7
100
AcDbMText
 10
-238.8612529203984
 20
184.9960277163909
 30
0.0
 40
3.5
 41
0.0
 71
     5
 72
     1
  1
A
  7
CONVERTER_11
 73
     1
 44
1.20048019207683
  0
MTEXT
  5
311
330
A0
100
AcDbEntity
  8
1
 62
     7
100
AcDbMText
 10
-238.8612529203984
 20
132.4960277163909
 30
0.0
 40
3.5
 41
0.0
 71
     5
 72
     1
  1
B
  7
CONVERTER_11
 73
     1
 44
1.20048019207683
  0
MTEXT
  5
312
330
A0
100
AcDbEntity
  8
1
 62
     7
100
AcDbMText
 10
-238.8612529203984
 20
82.49602771639087
 30
0.0
 40
3.5
 41
0.0
 71
     5
 72
     1
  1
C
  7
CONVERTER_11
 73
     1
 44
1.20048019207683
  0
MTEXT
  5
313
330
A0
100
AcDbEntity
  8
1
 62
     7
100
AcDbMText
 10
-238.8612529203984
 20
29.99602771639087
 30
0.0
 40
3.5
 41
0.0
 71
     5
 72
     1
  1
D
  7
CONVERTER_11
 73
     1
 44
1.20048019207683
  0
MTEXT
  5
314
330
A0
100
AcDbEntity
  8
1
 62
     3
100
AcDbMText
 10
-52.70605744714948
 20
28.62102771639087
 30
0.0
 40
2.5
 41
0.0
 71
     5
 72
     1
  1
DIN A4
  7
CONVERTER_11
 73
     1
 44
1.20048019207683
  0
MTEXT
  5
315
330
A0
100
AcDbEntity
  8
1
 62
     2
100
AcDbMText
 10
-41.50605744714946
 20
14.99602771639087
 30
0.0
 40
1.8
 41
0.0
 71
     1
 72
     1
  1
description
  7
CONVERTER_11
 73
     1
 44
1.20048019207683
  0
MTEXT
  5
316
330
A0
100
AcDbEntity
  8
1
 62
     7
100
AcDbMText
 10
4.06634481622612
 20
10.7460277163911
 30
0.0
 40
3.0
 41
0.0
 71
     5
 72
     1
  1
D-RSC 6-F
  7
CONVERTER_12
 73
     1
 44
1.20048019207683
  0
TEXT
  5
317
330
A0
100
AcDbEntity
  8
1
 62
     2
100
AcDbText
 10
-54.47074863733587
 20
8.74602771639076
 30
0.0
 40
1.8
  1
1
 41
0.9
  7
CONVERTER_11
100
AcDbText
  0
TEXT
  5
318
330
A0
100
AcDbEntity
  8
1
 62
     2
100
AcDbText
 10
-69.25979247680738
 20
8.69677906258886
 30
0.0
 40
1.8
  1
1
 41
0.9
  7
CONVERTER_11
100
AcDbText
  0
TEXT
  5
319
330
A0
100
AcDbEntity
  8
1
 62
     2
100
AcDbText
 10
-77.90605744714938
 20
8.7370105013992
 30
0.0
 40
1.8
  1
page
 41
0.9
  7
CONVERTER_11
100
AcDbText
  0
TEXT
  5
31A
330
A0
100
AcDbEntity
  8
1
 62
     2
100
AcDbText
 10
-59.70605744714956
 20
8.73701050139925
 30
0.0
 40
1.8
  1
of
 41
0.9
  7
CONVERTER_11
100
AcDbText
  0
MTEXT
  5
31B
330
A0
100
AcDbEntity
  8
1
 62
     3
100
AcDbMText
 10
-53.50307529553948
 20
194.2873358716897
 30
0.0
 40
1.8
 41
0.0
 71
     7
 72
     1
  3
Transfer or duplication of this document as well as the utilisation or\Pcommunication of its content are not permitted unless express consent\Pis granted. Violations give rise to claims for damages. All rights reserved\Pin case of patent, utility mo
  1
del or design patent registrations.
  7
CONVERTER_11
 73
     1
 44
0.99639855942377
  0
MTEXT
  5
31C
330
A0
100
AcDbEntity
  8
1
 62
     3
100
AcDbMText
 10
-236.3561851343276
 20
194.2873358716897
 30
0.0
 40
1.8
 41
0.0
 71
     7
 72
     1
  3
Weitergabe sowie Vervielfältigung dieses Dokuments, Verwertung und \PMitteilung seines Inhalts sind verboten, soweit nicht ausdrücklich gestattet. \PZuwiderhandlungen verpflichten zu Schadenersatz. Alle Rechte für den Fall\Pder Patent-, Gebrauchsmus
  1
ter- oder Designeintragung vorbehalten.
  7
CONVERTER_11
 73
     1
 44
0.99639855942377
  0
HATCH
  5
31D
330
A0
100
AcDbEntity
  8
1
  6
Continuous
 62
     2
100
AcDbHatch
 10
0.0
 20
0.0
 30
0.0
210
0.0
220
0.0
230
1.0
  2
_USER
 70
     0
 71
     1
 91
        1
 92
        1
 93
       14
 72
     2
 10
-66.66482817122667
 20
16.31643247831246
 40
1.205656168390946
 50
164.9381082228761
 51
195.0618917770945
 73
     1
 72
     2
 10
-66.24570032776387
 20
16.42922284034728
 40
1.639695123939386
 50
195.0618917770894
 51
275.1581447696395
 73
     1
 72
     2
 10
-66.53455642249978
 20
19.62911342356887
 40
4.852596863498145
 50
275.1581447696249
 51
285.9799912583529
 73
     1
 72
     1
 10
-65.19862850538198
 20
14.96403111776806
 11
-65.19862850538198
 21
15.83654812457127
 72
     2
 10
-66.37668354740686
 20
17.72689884372116
 40
2.227384008972737
 50
58.06909105004065
 51
71.55192388186722
 73
     0
 72
     2
 10
-65.95851581374606
 20
16.47335306768397
 40
0.905929784984916
 50
71.55192388184147
 51
113.3722778881291
 73
     0
 72
     2
 10
-66.11495584644808
 20
16.11136104897398
 40
0.5115800601948034
 50
113.3722778881725
 51
151.4785267423044
 73
     0
 72
     2
 10
-65.73759858836777
 20
16.31643247831246
 40
0.9410597353332545
 50
151.4785267422946
 51
208.5214732577331
 73
     0
 72
     2
 10
-66.11495584644808
 20
16.52150390765146
 40
0.5115800601948779
 50
208.5214732576956
 51
246.6277221118009
 73
     0
 72
     2
 10
-65.95851581374606
 20
16.15951188894087
 40
0.9059297849853228
 50
246.6277221118709
 51
288.4480761181465
 73
     0
 72
     2
 10
-66.37668354740686
 20
14.90596611290428
 40
2.227384008973474
 50
288.4480761181328
 51
301.9309089499593
 73
     0
 72
     1
 10
-65.19862850538198
 20
16.79631683205417
 11
-65.19862850538198
 21
17.66883383885747
 72
     2
 10
-66.53455642249978
 20
13.00375153305657
 40
4.852596863498073
 50
74.02000874164739
 51
84.84185523037506
 73
     1
 72
     2
 10
-66.24570032776387
 20
16.20364211627756
 40
1.639695123940514
 50
84.84185523036238
 51
164.9381082228862
 73
     1
 97
       14
330
2F2
330
20B
330
2C1
330
2F1
330
2C2
330
2C3
330
2F0
330
2EF
330
2EE
330
20C
330
2C4
330
2C5
330
2C6
330
2C7
 75
     1
 76
     0
 52
45.0
 41
0.1
 77
     0
 78
     1
 53
45.0
 43
0.0
 44
0.0
 45
-0.0707106781186548
 46
0.0707106781186548
 79
     0
 98
        1
 10
0.0
 20
0.0
  0
HATCH
  5
31E
330
A0
100
AcDbEntity
  8
1
  6
Continuous
 62
     2
100
AcDbHatch
 10
0.0
 20
0.0
 30
0.0
210
0.0
220
0.0
230
1.0
  2
_USER
 70
     0
 71
     1
 91
        1
 92
        1
 93
       14
 72
     2
 10
-66.66482817122667
 20
16.31643247831246
 40
1.205656168390946
 50
164.9381082228761
 51
195.0618917770945
 73
     1
 72
     2
 10
-66.24570032776387
 20
16.42922284034728
 40
1.639695123939386
 50
195.0618917770894
 51
275.1581447696395
 73
     1
 72
     2
 10
-66.53455642249978
 20
19.62911342356887
 40
4.852596863498145
 50
275.1581447696249
 51
285.9799912583529
 73
     1
 72
     1
 10
-65.19862850538198
 20
14.96403111776806
 11
-65.19862850538198
 21
15.83654812457127
 72
     2
 10
-66.37668354740686
 20
17.72689884372116
 40
2.227384008972737
 50
58.06909105004065
 51
71.55192388186722
 73
     0
 72
     2
 10
-65.95851581374606
 20
16.47335306768397
 40
0.905929784984916
 50
71.55192388184147
 51
113.3722778881291
 73
     0
 72
     2
 10
-66.11495584644808
 20
16.11136104897398
 40
0.5115800601948034
 50
113.3722778881725
 51
151.4785267423044
 73
     0
 72
     2
 10
-65.73759858836777
 20
16.31643247831246
 40
0.9410597353332545
 50
151.4785267422946
 51
208.5214732577331
 73
     0
 72
     2
 10
-66.11495584644808
 20
16.52150390765146
 40
0.5115800601948779
 50
208.5214732576956
 51
246.6277221118009
 73
     0
 72
     2
 10
-65.95851581374606
 20
16.15951188894087
 40
0.9059297849853228
 50
246.6277221118709
 51
288.4480761181465
 73
     0
 72
     2
 10
-66.37668354740686
 20
14.90596611290428
 40
2.227384008973474
 50
288.4480761181328
 51
301.9309089499593
 73
     0
 72
     1
 10
-65.19862850538198
 20
16.79631683205417
 11
-65.19862850538198
 21
17.66883383885747
 72
     2
 10
-66.53455642249978
 20
13.00375153305657
 40
4.852596863498073
 50
74.02000874164739
 51
84.84185523037506
 73
     1
 72
     2
 10
-66.24570032776387
 20
16.20364211627756
 40
1.639695123940514
 50
84.84185523036238
 51
164.9381082228862
 73
     1
 97
       14
330
2F2
330
20B
330
2C1
330
2F1
330
2C2
330
2C3
330
2F0
330
2EF
330
2EE
330
20C
330
2C4
330
2C5
330
2C6
330
2C7
 75
     1
 76
     0
 52
45.0
 41
0.1
 77
     0
 78
     1
 53
45.0
 43
0.0
 44
0.0
 45
-0.0707106781186548
 46
0.0707106781186548
 79
     0
 98
        1
 10
0.0
 20
0.0
  0
HATCH
  5
31F
330
A0
100
AcDbEntity
  8
1
  6
Continuous
 62
     2
100
AcDbHatch
 10
0.0
 20
0.0
 30
0.0
210
0.0
220
0.0
230
1.0
  2
_USER
 70
     0
 71
     1
 91
        1
 92
        1
 93
       18
 72
     2
 10
-50.14299884851096
 20
16.20364211627756
 40
1.639695123940221
 50
90.0
 51
164.9381082228947
 73
     1
 72
     2
 10
-50.56212669197257
 20
16.31643247831246
 40
1.205656168392997
 50
164.9381082229024
 51
195.0618917770958
 73
     1
 72
     2
 10
-50.14299884851096
 20
16.42922284034728
 40
1.639695123940442
 50
195.0618917771013
 51
275.1581447696765
 73
     1
 72
     2
 10
-50.43185494324678
 20
19.62911342356887
 40
4.852596863498826
 50
275.1581447696364
 51
285.9799912583387
 73
     1
 72
     1
 10
-49.09592702613006
 20
14.96403111776746
 11
-49.09592702613006
 21
15.83654812457078
 72
     2
 10
-50.27398206815397
 20
17.72689884372056
 40
2.227384008972744
 50
58.0690910500604
 51
71.55192388186651
 73
     0
 72
     2
 10
-49.85581433449207
 20
16.47335306768397
 40
0.9059297849852768
 50
71.55192388191821
 51
113.3722778881818
 73
     0
 72
     2
 10
-50.01225436719517
 20
16.11136104897398
 40
0.5115800601960312
 50
113.3722778881549
 51
151.4785267423131
 73
     0
 72
     2
 10
-49.63489710911378
 20
16.31643247831246
 40
0.9410597353349021
 50
151.4785267423307
 51
208.5214732576377
 73
     0
 72
     2
 10
-50.01225436719517
 20
16.52150390765146
 40
0.51158006019442
 50
208.5214732575778
 51
250.6628567805141
 73
     0
 72
     2
 10
-49.86558436909147
 20
16.10354892726858
 40
0.9545230068260899
 50
250.6628567805679
 51
270.0
 73
     0
 72
     1
 10
-49.86558436909147
 20
17.05807193409467
 11
-48.76194506952336
 21
17.05807193409467
 72
     1
 10
-48.76194506952336
 20
17.05807193409467
 11
-48.76194506952336
 21
14.78952771640718
 72
     1
 10
-48.76194506952336
 20
14.78952771640718
 11
-47.56915236735566
 21
14.78952771640718
 72
     1
 10
-47.56915236735566
 20
14.78952771640718
 11
-47.56915236735566
 21
17.05807193409467
 72
     1
 10
-47.56915236735566
 20
17.05807193409467
 11
-46.75805332988227
 21
17.05807193409467
 72
     1
 10
-46.75805332988227
 20
17.05807193409467
 11
-46.75805332988227
 21
17.84333724021826
 72
     1
 10
-46.75805332988227
 20
17.84333724021826
 11
-50.14299884851096
 21
17.84333724021778
 97
       18
330
271
330
270
330
26F
330
26E
330
273
330
20D
330
2EB
330
2CC
330
2EA
330
2CD
330
2E9
330
2E8
330
20E
330
2E7
330
2E6
330
2CE
330
2CF
330
272
 75
     1
 76
     0
 52
45.0
 41
0.1
 77
     0
 78
     1
 53
45.0
 43
0.0
 44
0.0
 45
-0.0707106781186548
 46
0.0707106781186548
 79
     0
 98
        1
 10
0.0
 20
0.0
  0
HATCH
  5
320
330
A0
100
AcDbEntity
  8
1
  6
Continuous
 62
     2
100
AcDbHatch
 10
0.0
 20
0.0
 30
0.0
210
0.0
220
0.0
230
1.0
  2
_USER
 70
     0
 71
     1
 91
        1
 92
        1
 93
       18
 72
     2
 10
-50.14299884851096
 20
16.20364211627756
 40
1.639695123940221
 50
90.0
 51
164.9381082228947
 73
     1
 72
     2
 10
-50.56212669197257
 20
16.31643247831246
 40
1.205656168392997
 50
164.9381082229024
 51
195.0618917770958
 73
     1
 72
     2
 10
-50.14299884851096
 20
16.42922284034728
 40
1.639695123940442
 50
195.0618917771013
 51
275.1581447696765
 73
     1
 72
     2
 10
-50.43185494324678
 20
19.62911342356887
 40
4.852596863498826
 50
275.1581447696364
 51
285.9799912583387
 73
     1
 72
     1
 10
-49.09592702613006
 20
14.96403111776746
 11
-49.09592702613006
 21
15.83654812457078
 72
     2
 10
-50.27398206815397
 20
17.72689884372056
 40
2.227384008972744
 50
58.0690910500604
 51
71.55192388186651
 73
     0
 72
     2
 10
-49.85581433449207
 20
16.47335306768397
 40
0.9059297849852768
 50
71.55192388191821
 51
113.3722778881818
 73
     0
 72
     2
 10
-50.01225436719517
 20
16.11136104897398
 40
0.5115800601960312
 50
113.3722778881549
 51
151.4785267423131
 73
     0
 72
     2
 10
-49.63489710911378
 20
16.31643247831246
 40
0.9410597353349021
 50
151.4785267423307
 51
208.5214732576377
 73
     0
 72
     2
 10
-50.01225436719517
 20
16.52150390765146
 40
0.51158006019442
 50
208.5214732575778
 51
250.6628567805141
 73
     0
 72
     2
 10
-49.86558436909147
 20
16.10354892726858
 40
0.9545230068260899
 50
250.6628567805679
 51
270.0
 73
     0
 72
     1
 10
-49.86558436909147
 20
17.05807193409467
 11
-48.76194506952336
 21
17.05807193409467
 72
     1
 10
-48.76194506952336
 20
17.05807193409467
 11
-48.76194506952336
 21
14.78952771640718
 72
     1
 10
-48.76194506952336
 20
14.78952771640718
 11
-47.56915236735566
 21
14.78952771640718
 72
     1
 10
-47.56915236735566
 20
14.78952771640718
 11
-47.56915236735566
 21
17.05807193409467
 72
     1
 10
-47.56915236735566
 20
17.05807193409467
 11
-46.75805332988227
 21
17.05807193409467
 72
     1
 10
-46.75805332988227
 20
17.05807193409467
 11
-46.75805332988227
 21
17.84333724021826
 72
     1
 10
-46.75805332988227
 20
17.84333724021826
 11
-50.14299884851096
 21
17.84333724021778
 97
       18
330
271
330
270
330
26F
330
26E
330
273
330
20D
330
2EB
330
2CC
330
2EA
330
2CD
330
2E9
330
2E8
330
20E
330
2E7
330
2E6
330
2CE
330
2CF
330
272
 75
     1
 76
     0
 52
45.0
 41
0.1
 77
     0
 78
     1
 53
45.0
 43
0.0
 44
0.0
 45
-0.0707106781186548
 46
0.0707106781186548
 79
     0
 98
        1
 10
0.0
 20
0.0
  0
HATCH
  5
321
330
A0
100
AcDbEntity
  8
1
  6
Continuous
 62
     2
100
AcDbHatch
 10
0.0
 20
0.0
 30
0.0
210
0.0
220
0.0
230
1.0
  2
_USER
 70
     0
 71
     1
 91
        4
 92
        1
 93
        8
 72
     2
 10
-74.24515794520397
 20
20.77828310099068
 40
0.4242446153837989
 50
90.0
 51
180.0
 73
     1
 72
     1
 10
-74.66940256058678
 20
20.77828310099068
 11
-74.66940256058678
 21
15.21377233179047
 72
     2
 10
-74.24515794520397
 20
15.21377233179047
 40
0.4242446153828041
 50
180.0
 51
270.0
 73
     1
 72
     1
 10
-74.24515794520397
 20
14.78952771640718
 11
-68.77184585448717
 21
14.78952771640718
 72
     2
 10
-68.77184585448717
 20
15.21377233179047
 40
0.4242446153832891
 50
270.0
 51
360.0
 73
     1
 72
     1
 10
-68.34760123910328
 20
15.21377233179047
 11
-68.34760123910328
 21
20.77828310099068
 72
     2
 10
-68.77184585448717
 20
20.77828310099068
 40
0.4242446153838841
 50
0.0
 51
90.0
 73
     1
 72
     1
 10
-68.77184585448717
 20
21.20252771637448
 11
-74.24515794520397
 21
21.20252771637448
 97
        8
330
2DF
330
23C
330
2DE
330
23D
330
2D5
330
23A
330
2E0
330
23B
 92
       16
 93
        1
 72
     2
 10
-71.62557229468646
 20
18.45940087263517
 40
0.4709789327785074
 50
0.0
 51
360.0
 73
     1
 97
        1
330
2F3
 92
       16
 93
        8
 72
     2
 10
-71.60175728001366
 20
18.45940087263517
 40
0.911848150144459
 50
295.3740086781764
 51
424.6259913218075
 73
     1
 72
     2
 10
-71.07571458192578
 20
19.56854247260299
 40
0.315716923076792
 50
115.3740086783518
 51
180.0
 73
     0
 72
     1
 10
-71.39143150500257
 20
19.56854247260299
 11
-71.39143150500257
 21
20.17407776110977
 72
     2
 10
-71.07571458192578
 20
20.17407776110977
 40
0.3157169230760711
 50
180.0
 51
269.8110329574541
 73
     0
 72
     2
 10
-71.07009844661576
 20
18.47124281354067
 40
2.018561131933266
 50
269.8110329575858
 51
450.1889670424142
 73
     0
 72
     2
 10
-71.07571458192578
 20
16.76840786597168
 40
0.315716923076792
 50
90.18896704254585
 51
180.0
 73
     0
 72
     1
 10
-71.39143150500257
 20
16.76840786597168
 11
-71.39143150500257
 21
17.35025927266676
 72
     2
 10
-71.07571458192578
 20
17.35025927266676
 40
0.3157169230765328
 50
180.0
 51
244.6259913216482
 73
     0
 97
        8
330
2ED
330
2C9
330
275
330
2EC
330
2CA
330
2CB
330
274
330
2C8
 92
       16
 93
       12
 72
     1
 10
-73.65126326845748
 20
15.50208327196407
 11
-72.17543000744786
 21
15.50208327196407
 72
     2
 10
-72.17543000744786
 20
15.81780019504078
 40
0.3157169230767103
 50
270.0
 51
360.0
 73
     1
 72
     1
 10
-71.85971308437126
 20
15.81780019504078
 11
-71.85971308437126
 21
17.34857112657238
 72
     2
 10
-72.17543000744786
 20
17.34857112657238
 40
0.315716923076593
 50
0.0
 51
64.80558935146027
 73
     1
 72
     2
 10
-71.65284555987287
 20
18.45940087263517
 40
0.9118975235576178
 50
115.1944106485122
 51
244.8055893514719
 73
     0
 72
     2
 10
-72.17543000744786
 20
19.57023061869737
 40
0.3157169230761203
 50
295.1944106485397
 51
360.0
 73
     1
 72
     1
 10
-71.85971308437126
 20
19.57023061869737
 11
-71.85971308437126
 21
20.17425523775788
 72
     2
 10
-72.17543000744786
 20
20.17425523775788
 40
0.315716923076593
 50
0.0
 51
90.0
 73
     1
 72
     1
 10
-72.17543000744786
 20
20.48997216083407
 11
-73.65126326845748
 21
20.48997216083407
 72
     2
 10
-73.65126326845748
 20
20.17425523775788
 40
0.3157169230761916
 50
90.0
 51
180.0
 73
     1
 72
     1
 10
-73.96698019153317
 20
20.17425523775788
 11
-73.96698019153317
 21
15.81780019504078
 72
     2
 10
-73.65126326845748
 20
15.81780019504078
 40
0.3157169230756836
 50
180.0
 51
270.0
 73
     1
 97
       12
330
241
330
2D2
330
240
330
2E3
330
23F
330
2E2
330
2D3
330
2D4
330
23E
330
2E1
330
239
330
2E4
 75
     1
 76
     0
 52
45.0
 41
0.1
 77
     0
 78
     1
 53
45.0
 43
0.0
 44
0.0
 45
-0.0707106781186548
 46
0.0707106781186548
 79
     0
 98
        1
 10
0.0
 20
0.0
  0
HATCH
  5
322
330
A0
100
AcDbEntity
  8
1
  6
Continuous
 62
     2
100
AcDbHatch
 10
0.0
 20
0.0
 30
0.0
210
0.0
220
0.0
230
1.0
  2
_USER
 70
     0
 71
     1
 91
        4
 92
        1
 93
        8
 72
     2
 10
-74.24515794520397
 20
20.77828310099068
 40
0.4242446153837989
 50
90.0
 51
180.0
 73
     1
 72
     1
 10
-74.66940256058678
 20
20.77828310099068
 11
-74.66940256058678
 21
15.21377233179047
 72
     2
 10
-74.24515794520397
 20
15.21377233179047
 40
0.4242446153828041
 50
180.0
 51
270.0
 73
     1
 72
     1
 10
-74.24515794520397
 20
14.78952771640718
 11
-68.77184585448717
 21
14.78952771640718
 72
     2
 10
-68.77184585448717
 20
15.21377233179047
 40
0.4242446153832891
 50
270.0
 51
360.0
 73
     1
 72
     1
 10
-68.34760123910328
 20
15.21377233179047
 11
-68.34760123910328
 21
20.77828310099068
 72
     2
 10
-68.77184585448717
 20
20.77828310099068
 40
0.4242446153838841
 50
0.0
 51
90.0
 73
     1
 72
     1
 10
-68.77184585448717
 20
21.20252771637448
 11
-74.24515794520397
 21
21.20252771637448
 97
        8
330
2DF
330
23C
330
2DE
330
23D
330
2D5
330
23A
330
2E0
330
23B
 92
       16
 93
        1
 72
     2
 10
-71.62557229468646
 20
18.45940087263517
 40
0.4709789327785074
 50
0.0
 51
360.0
 73
     1
 97
        1
330
2F3
 92
       16
 93
        8
 72
     2
 10
-71.60175728001366
 20
18.45940087263517
 40
0.911848150144459
 50
295.3740086781764
 51
424.6259913218075
 73
     1
 72
     2
 10
-71.07571458192578
 20
19.56854247260299
 40
0.315716923076792
 50
115.3740086783518
 51
180.0
 73
     0
 72
     1
 10
-71.39143150500257
 20
19.56854247260299
 11
-71.39143150500257
 21
20.17407776110977
 72
     2
 10
-71.07571458192578
 20
20.17407776110977
 40
0.3157169230760711
 50
180.0
 51
269.8110329574541
 73
     0
 72
     2
 10
-71.07009844661576
 20
18.47124281354067
 40
2.018561131933266
 50
269.8110329575858
 51
450.1889670424142
 73
     0
 72
     2
 10
-71.07571458192578
 20
16.76840786597168
 40
0.315716923076792
 50
90.18896704254585
 51
180.0
 73
     0
 72
     1
 10
-71.39143150500257
 20
16.76840786597168
 11
-71.39143150500257
 21
17.35025927266676
 72
     2
 10
-71.07571458192578
 20
17.35025927266676
 40
0.3157169230765328
 50
180.0
 51
244.6259913216482
 73
     0
 97
        8
330
2ED
330
2C9
330
275
330
2EC
330
2CA
330
2CB
330
274
330
2C8
 92
       16
 93
       12
 72
     1
 10
-73.65126326845748
 20
15.50208327196407
 11
-72.17543000744786
 21
15.50208327196407
 72
     2
 10
-72.17543000744786
 20
15.81780019504078
 40
0.3157169230767103
 50
270.0
 51
360.0
 73
     1
 72
     1
 10
-71.85971308437126
 20
15.81780019504078
 11
-71.85971308437126
 21
17.34857112657238
 72
     2
 10
-72.17543000744786
 20
17.34857112657238
 40
0.315716923076593
 50
0.0
 51
64.80558935146027
 73
     1
 72
     2
 10
-71.65284555987287
 20
18.45940087263517
 40
0.9118975235576178
 50
115.1944106485122
 51
244.8055893514719
 73
     0
 72
     2
 10
-72.17543000744786
 20
19.57023061869737
 40
0.3157169230761203
 50
295.1944106485397
 51
360.0
 73
     1
 72
     1
 10
-71.85971308437126
 20
19.57023061869737
 11
-71.85971308437126
 21
20.17425523775788
 72
     2
 10
-72.17543000744786
 20
20.17425523775788
 40
0.315716923076593
 50
0.0
 51
90.0
 73
     1
 72
     1
 10
-72.17543000744786
 20
20.48997216083407
 11
-73.65126326845748
 21
20.48997216083407
 72
     2
 10
-73.65126326845748
 20
20.17425523775788
 40
0.3157169230761916
 50
90.0
 51
180.0
 73
     1
 72
     1
 10
-73.96698019153317
 20
20.17425523775788
 11
-73.96698019153317
 21
15.81780019504078
 72
     2
 10
-73.65126326845748
 20
15.81780019504078
 40
0.3157169230756836
 50
180.0
 51
270.0
 73
     1
 97
       12
330
241
330
2D2
330
240
330
2E3
330
23F
330
2E2
330
2D3
330
2D4
330
23E
330
2E1
330
239
330
2E4
 75
     1
 76
     0
 52
45.0
 41
0.1
 77
     0
 78
     1
 53
45.0
 43
0.0
 44
0.0
 45
-0.0707106781186548
 46
0.0707106781186548
 79
     0
 98
        1
 10
0.0
 20
0.0
  0
HATCH
  5
323
330
A0
100
AcDbEntity
  8
1
  6
Continuous
 62
     2
100
AcDbHatch
 10
0.0
 20
0.0
 30
0.0
210
0.0
220
0.0
230
1.0
  2
_USER
 70
     0
 71
     1
 91
        2
 92
        1
 93
       12
 72
     2
 10
-59.56999394121468
 20
19.67562295448678
 40
1.52690476190589
 50
90.0
 51
270.0
 73
     1
 72
     1
 10
-59.56999394121468
 20
18.14871819258147
 11
-56.41967421743368
 21
18.14871819258147
 72
     1
 10
-56.41967421743368
 20
18.14871819258147
 11
-56.41967421743368
 21
18.84673179802397
 72
     1
 10
-56.41967421743368
 20
18.84673179802397
 11
-57.75560204386136
 21
18.84673179802397
 72
     1
 10
-57.75560204386136
 20
18.84673179802397
 11
-57.75560204386136
 21
19.32661615176568
 72
     1
 10
-57.75560204386136
 20
19.32661615176568
 11
-56.41967421743368
 21
19.32661615176568
 72
     1
 10
-56.41967421743368
 20
19.32661615176568
 11
-56.41967421743368
 21
20.02462975720798
 72
     1
 10
-56.41967421743368
 20
20.02462975720798
 11
-57.75560204386136
 21
20.02462975720798
 72
     1
 10
-57.75560204386136
 20
20.02462975720798
 11
-57.75560204386136
 21
20.50451411094969
 72
     1
 10
-57.75560204386136
 20
20.50451411094969
 11
-56.41967421743368
 21
20.50451411094969
 72
     1
 10
-56.41967421743368
 20
20.50451411094969
 11
-56.41967421743368
 21
21.20252771639267
 72
     1
 10
-56.41967421743368
 20
21.20252771639267
 11
-59.56999394121468
 21
21.20252771639267
 97
       12
330
230
330
22A
330
251
330
250
330
24F
330
24E
330
22B
330
22C
330
22D
330
22E
330
2D0
330
22F
 92
       16
 93
        4
 72
     2
 10
-59.15398189470318
 20
19.67562295448678
 40
0.7717997786796724
 50
141.8795802028404
 51
218.120419797156
 73
     1
 72
     2
 10
-59.35372193104948
 20
19.51889177636636
 40
0.5179085730134372
 50
218.1204197971511
 51
321.8795802028566
 73
     1
 72
     2
 10
-59.55346196739566
 20
19.67562295448678
 40
0.7717997786796351
 50
321.879580202844
 51
398.1204197971596
 73
     1
 72
     2
 10
-59.35372193104948
 20
19.83235413260726
 40
0.5179085730135266
 50
38.12041979714334
 51
141.8795802028489
 73
     1
 97
        4
330
2DD
330
2DC
330
2D7
330
2D6
 75
     1
 76
     0
 52
45.0
 41
0.1
 77
     0
 78
     1
 53
45.0
 43
0.0
 44
0.0
 45
-0.0707106781186548
 46
0.0707106781186548
 79
     0
 98
        1
 10
0.0
 20
0.0
  0
HATCH
  5
324
330
A0
100
AcDbEntity
  8
1
  6
Continuous
 62
     2
100
AcDbHatch
 10
0.0
 20
0.0
 30
0.0
210
0.0
220
0.0
230
1.0
  2
_USER
 70
     0
 71
     1
 91
        2
 92
        1
 93
       12
 72
     2
 10
-59.56999394121468
 20
19.67562295448678
 40
1.52690476190589
 50
90.0
 51
270.0
 73
     1
 72
     1
 10
-59.56999394121468
 20
18.14871819258147
 11
-56.41967421743368
 21
18.14871819258147
 72
     1
 10
-56.41967421743368
 20
18.14871819258147
 11
-56.41967421743368
 21
18.84673179802397
 72
     1
 10
-56.41967421743368
 20
18.84673179802397
 11
-57.75560204386136
 21
18.84673179802397
 72
     1
 10
-57.75560204386136
 20
18.84673179802397
 11
-57.75560204386136
 21
19.32661615176568
 72
     1
 10
-57.75560204386136
 20
19.32661615176568
 11
-56.41967421743368
 21
19.32661615176568
 72
     1
 10
-56.41967421743368
 20
19.32661615176568
 11
-56.41967421743368
 21
20.02462975720798
 72
     1
 10
-56.41967421743368
 20
20.02462975720798
 11
-57.75560204386136
 21
20.02462975720798
 72
     1
 10
-57.75560204386136
 20
20.02462975720798
 11
-57.75560204386136
 21
20.50451411094969
 72
     1
 10
-57.75560204386136
 20
20.50451411094969
 11
-56.41967421743368
 21
20.50451411094969
 72
     1
 10
-56.41967421743368
 20
20.50451411094969
 11
-56.41967421743368
 21
21.20252771639267
 72
     1
 10
-56.41967421743368
 20
21.20252771639267
 11
-59.56999394121468
 21
21.20252771639267
 97
       12
330
230
330
22A
330
251
330
250
330
24F
330
24E
330
22B
330
22C
330
22D
330
22E
330
2D0
330
22F
 92
       16
 93
        4
 72
     2
 10
-59.15398189470318
 20
19.67562295448678
 40
0.7717997786796724
 50
141.8795802028404
 51
218.120419797156
 73
     1
 72
     2
 10
-59.35372193104948
 20
19.51889177636636
 40
0.5179085730134372
 50
218.1204197971511
 51
321.8795802028566
 73
     1
 72
     2
 10
-59.55346196739566
 20
19.67562295448678
 40
0.7717997786796351
 50
321.879580202844
 51
398.1204197971596
 73
     1
 72
     2
 10
-59.35372193104948
 20
19.83235413260726
 40
0.5179085730135266
 50
38.12041979714334
 51
141.8795802028489
 73
     1
 97
        4
330
2DD
330
2DC
330
2D7
330
2D6
 75
     1
 76
     0
 52
45.0
 41
0.1
 77
     0
 78
     1
 53
45.0
 43
0.0
 44
0.0
 45
-0.0707106781186548
 46
0.0707106781186548
 79
     0
 98
        1
 10
0.0
 20
0.0
  0
HATCH
  5
325
330
A0
100
AcDbEntity
  8
1
  6
Continuous
 62
     2
100
AcDbHatch
 10
0.0
 20
0.0
 30
0.0
210
0.0
220
0.0
230
1.0
  2
_USER
 70
     0
 71
     1
 91
        2
 92
        1
 93
        4
 72
     2
 10
-63.59560930367627
 20
16.31643247831246
 40
1.45803408365149
 50
117.5481481756624
 51
242.4518518243374
 73
     1
 72
     2
 10
-63.31466941184297
 20
16.85500748861577
 40
2.065479772208504
 50
242.4518518243401
 51
297.548148175687
 73
     1
 72
     2
 10
-63.03372952000967
 20
16.31643247831246
 40
1.458034083651992
 50
297.5481481757009
 51
422.4518518242992
 73
     1
 72
     2
 10
-63.31466941184297
 20
15.77785746800967
 40
2.065479772208563
 50
62.45185182430652
 51
117.5481481756664
 73
     1
 97
        4
330
2DB
330
2D8
330
2DA
330
2D9
 92
       16
 93
        4
 72
     2
 10
-63.31466941184297
 20
16.47316365643297
 40
0.5179085730133076
 50
38.12041979714686
 51
141.8795802028585
 73
     1
 72
     2
 10
-63.11492937549687
 20
16.31643247831246
 40
0.7717997786794654
 50
141.8795802028361
 51
218.1204197971682
 73
     1
 72
     2
 10
-63.31466941184297
 20
16.15970130019247
 40
0.5179085730137343
 50
218.120419797193
 51
321.8795802028017
 73
     1
 72
     2
 10
-63.51440944818938
 20
16.31643247831246
 40
0.7717997786796948
 50
321.8795802028426
 51
398.1204197971532
 73
     1
 97
        4
330
2BE
330
2BF
330
2C0
330
2BD
 75
     1
 76
     0
 52
45.0
 41
0.1
 77
     0
 78
     1
 53
45.0
 43
0.0
 44
0.0
 45
-0.0707106781186548
 46
0.0707106781186548
 79
     0
 98
        1
 10
0.0
 20
0.0
  0
HATCH
  5
326
330
A0
100
AcDbEntity
  8
1
  6
Continuous
 62
     2
100
AcDbHatch
 10
0.0
 20
0.0
 30
0.0
210
0.0
220
0.0
230
1.0
  2
_USER
 70
     0
 71
     1
 91
        2
 92
        1
 93
        4
 72
     2
 10
-63.59560930367627
 20
16.31643247831246
 40
1.45803408365149
 50
117.5481481756624
 51
242.4518518243374
 73
     1
 72
     2
 10
-63.31466941184297
 20
16.85500748861577
 40
2.065479772208504
 50
242.4518518243401
 51
297.548148175687
 73
     1
 72
     2
 10
-63.03372952000967
 20
16.31643247831246
 40
1.458034083651992
 50
297.5481481757009
 51
422.4518518242992
 73
     1
 72
     2
 10
-63.31466941184297
 20
15.77785746800967
 40
2.065479772208563
 50
62.45185182430652
 51
117.5481481756664
 73
     1
 97
        4
330
2DB
330
2D8
330
2DA
330
2D9
 92
       16
 93
        4
 72
     2
 10
-63.31466941184297
 20
16.47316365643297
 40
0.5179085730133076
 50
38.12041979714686
 51
141.8795802028585
 73
     1
 72
     2
 10
-63.11492937549687
 20
16.31643247831246
 40
0.7717997786794654
 50
141.8795802028361
 51
218.1204197971682
 73
     1
 72
     2
 10
-63.31466941184297
 20
16.15970130019247
 40
0.5179085730137343
 50
218.120419797193
 51
321.8795802028017
 73
     1
 72
     2
 10
-63.51440944818938
 20
16.31643247831246
 40
0.7717997786796948
 50
321.8795802028426
 51
398.1204197971532
 73
     1
 97
        4
330
2BE
330
2BF
330
2C0
330
2BD
 75
     1
 76
     0
 52
45.0
 41
0.1
 77
     0
 78
     1
 53
45.0
 43
0.0
 44
0.0
 45
-0.0707106781186548
 46
0.0707106781186548
 79
     0
 98
        1
 10
0.0
 20
0.0
  0
HATCH
  5
327
330
A0
100
AcDbEntity
  8
1
  6
Continuous
 62
     2
100
AcDbHatch
 10
0.0
 20
0.0
 30
0.0
210
0.0
220
0.0
230
1.0
  2
_USER
 70
     0
 71
     1
 91
        2
 92
        1
 93
        6
 72
     1
 10
-67.87048415823648
 20
21.20252771639267
 11
-67.87048415823648
 21
18.14871819258147
 72
     1
 10
-67.87048415823648
 20
18.14871819258147
 11
-66.62997974798236
 21
18.14871819258147
 72
     1
 10
-66.62997974798236
 20
18.14871819258147
 11
-66.62997974798236
 21
19.09179643372528
 72
     1
 10
-66.62997974798236
 20
19.09179643372528
 11
-65.87121216020208
 21
19.09179643372528
 72
     2
 10
-65.87121216020208
 20
20.14716207505899
 40
1.055365641333712
 50
270.0
 51
450.0
 73
     1
 72
     1
 10
-65.87121216020208
 20
21.20252771639267
 11
-67.87048415823648
 21
21.20252771639267
 97
        6
330
2E5
330
242
330
238
330
237
330
244
330
243
 92
       16
 93
        4
 72
     1
 10
-66.31268468644046
 20
20.53942187095257
 11
-66.62997974798236
 21
20.53942187095257
 72
     1
 10
-66.62997974798236
 20
20.53942187095257
 11
-66.62997974798236
 21
19.83369422161036
 72
     1
 10
-66.62997974798236
 20
19.83369422161036
 11
-66.31268468644046
 21
19.83369422161036
 72
     2
 10
-66.31268468644046
 20
20.18655804628148
 40
0.3528638246711182
 50
270.0
 51
450.0
 73
     1
 97
        4
330
245
330
236
330
246
330
2D1
 75
     1
 76
     0
 52
45.0
 41
0.1
 77
     0
 78
     1
 53
45.0
 43
0.0
 44
0.0
 45
-0.0707106781186548
 46
0.0707106781186548
 79
     0
 98
        1
 10
0.0
 20
0.0
  0
HATCH
  5
328
330
A0
100
AcDbEntity
  8
1
  6
Continuous
 62
     2
100
AcDbHatch
 10
0.0
 20
0.0
 30
0.0
210
0.0
220
0.0
230
1.0
  2
_USER
 70
     0
 71
     1
 91
        2
 92
        1
 93
        6
 72
     1
 10
-67.87048415823648
 20
21.20252771639267
 11
-67.87048415823648
 21
18.14871819258147
 72
     1
 10
-67.87048415823648
 20
18.14871819258147
 11
-66.62997974798236
 21
18.14871819258147
 72
     1
 10
-66.62997974798236
 20
18.14871819258147
 11
-66.62997974798236
 21
19.09179643372528
 72
     1
 10
-66.62997974798236
 20
19.09179643372528
 11
-65.87121216020208
 21
19.09179643372528
 72
     2
 10
-65.87121216020208
 20
20.14716207505899
 40
1.055365641333712
 50
270.0
 51
450.0
 73
     1
 72
     1
 10
-65.87121216020208
 20
21.20252771639267
 11
-67.87048415823648
 21
21.20252771639267
 97
        6
330
2E5
330
242
330
238
330
237
330
244
330
243
 92
       16
 93
        4
 72
     1
 10
-66.31268468644046
 20
20.53942187095257
 11
-66.62997974798236
 21
20.53942187095257
 72
     1
 10
-66.62997974798236
 20
20.53942187095257
 11
-66.62997974798236
 21
19.83369422161036
 72
     1
 10
-66.62997974798236
 20
19.83369422161036
 11
-66.31268468644046
 21
19.83369422161036
 72
     2
 10
-66.31268468644046
 20
20.18655804628148
 40
0.3528638246711182
 50
270.0
 51
450.0
 73
     1
 97
        4
330
245
330
236
330
246
330
2D1
 75
     1
 76
     0
 52
45.0
 41
0.1
 77
     0
 78
     1
 53
45.0
 43
0.0
 44
0.0
 45
-0.0707106781186548
 46
0.0707106781186548
 79
     0
 98
        1
 10
0.0
 20
0.0
  0
HATCH
  5
329
330
A0
100
AcDbEntity
  8
1
  6
Continuous
 62
     2
100
AcDbHatch
 10
0.0
 20
0.0
 30
0.0
210
0.0
220
0.0
230
1.0
  2
_USER
 70
     0
 71
     1
 91
        1
 92
        1
 93
       12
 72
     1
 10
-48.25620096380328
 20
21.20252771639267
 11
-46.85347674605606
 21
21.20252771639267
 72
     1
 10
-46.85347674605606
 20
21.20252771639267
 11
-48.15600637682258
 21
19.72957718635647
 72
     1
 10
-48.15600637682258
 20
19.72957718635647
 11
-46.75805332988227
 21
18.14871819258147
 72
     1
 10
-46.75805332988227
 20
18.14871819258147
 11
-48.16077754763057
 21
18.14871819258147
 72
     1
 10
-48.16077754763057
 20
18.14871819258147
 11
-48.85736848569607
 21
18.93644997787519
 72
     1
 10
-48.85736848569607
 20
18.93644997787519
 11
-49.55395942376177
 21
18.14871819258147
 72
     1
 10
-49.55395942376177
 20
18.14871819258147
 11
-50.95668364150998
 21
18.14871819258147
 72
     1
 10
-50.95668364150998
 20
18.14871819258147
 11
-49.55873059456968
 21
19.72957718635647
 72
     1
 10
-49.55873059456968
 20
19.72957718635647
 11
-50.86126022533716
 21
21.20252771639267
 72
     1
 10
-50.86126022533716
 20
21.20252771639267
 11
-49.45853600758787
 21
21.20252771639267
 72
     1
 10
-49.45853600758787
 20
21.20252771639267
 11
-48.85736848569607
 21
20.52270439483718
 72
     1
 10
-48.85736848569607
 20
20.52270439483718
 11
-48.25620096380328
 21
21.20252771639267
 97
       12
330
211
330
26A
330
269
330
268
330
267
330
212
330
213
330
20F
330
210
330
26D
330
26C
330
26B
 75
     1
 76
     0
 52
45.0
 41
0.1
 77
     0
 78
     1
 53
45.0
 43
0.0
 44
0.0
 45
-0.0707106781186548
 46
0.0707106781186548
 79
     0
 98
        1
 10
0.0
 20
0.0
  0
HATCH
  5
32A
330
A0
100
AcDbEntity
  8
1
  6
Continuous
 62
     2
100
AcDbHatch
 10
0.0
 20
0.0
 30
0.0
210
0.0
220
0.0
230
1.0
  2
_USER
 70
     0
 71
     1
 91
        1
 92
        1
 93
       12
 72
     1
 10
-48.25620096380328
 20
21.20252771639267
 11
-46.85347674605606
 21
21.20252771639267
 72
     1
 10
-46.85347674605606
 20
21.20252771639267
 11
-48.15600637682258
 21
19.72957718635647
 72
     1
 10
-48.15600637682258
 20
19.72957718635647
 11
-46.75805332988227
 21
18.14871819258147
 72
     1
 10
-46.75805332988227
 20
18.14871819258147
 11
-48.16077754763057
 21
18.14871819258147
 72
     1
 10
-48.16077754763057
 20
18.14871819258147
 11
-48.85736848569607
 21
18.93644997787519
 72
     1
 10
-48.85736848569607
 20
18.93644997787519
 11
-49.55395942376177
 21
18.14871819258147
 72
     1
 10
-49.55395942376177
 20
18.14871819258147
 11
-50.95668364150998
 21
18.14871819258147
 72
     1
 10
-50.95668364150998
 20
18.14871819258147
 11
-49.55873059456968
 21
19.72957718635647
 72
     1
 10
-49.55873059456968
 20
19.72957718635647
 11
-50.86126022533716
 21
21.20252771639267
 72
     1
 10
-50.86126022533716
 20
21.20252771639267
 11
-49.45853600758787
 21
21.20252771639267
 72
     1
 10
-49.45853600758787
 20
21.20252771639267
 11
-48.85736848569607
 21
20.52270439483718
 72
     1
 10
-48.85736848569607
 20
20.52270439483718
 11
-48.25620096380328
 21
21.20252771639267
 97
       12
330
211
330
26A
330
269
330
268
330
267
330
212
330
213
330
20F
330
210
330
26D
330
26C
330
26B
 75
     1
 76
     0
 52
45.0
 41
0.1
 77
     0
 78
     1
 53
45.0
 43
0.0
 44
0.0
 45
-0.0707106781186548
 46
0.0707106781186548
 79
     0
 98
        1
 10
0.0
 20
0.0
  0
HATCH
  5
32B
330
A0
100
AcDbEntity
  8
1
  6
Continuous
 62
     2
100
AcDbHatch
 10
0.0
 20
0.0
 30
0.0
210
0.0
220
0.0
230
1.0
  2
_USER
 70
     0
 71
     1
 91
        1
 92
        1
 93
        4
 72
     1
 10
-51.07596291172686
 20
21.20252771639267
 11
-51.07596291172686
 21
18.14871819258147
 72
     1
 10
-51.07596291172686
 20
18.14871819258147
 11
-52.31646732197976
 21
18.14871819258147
 72
     1
 10
-52.31646732197976
 20
18.14871819258147
 11
-52.31646732197976
 21
21.20252771639267
 72
     1
 10
-52.31646732197976
 20
21.20252771639267
 11
-51.07596291172686
 21
21.20252771639267
 97
        4
330
265
330
214
330
264
330
266
 75
     1
 76
     0
 52
45.0
 41
0.1
 77
     0
 78
     1
 53
45.0
 43
0.0
 44
0.0
 45
-0.0707106781186548
 46
0.0707106781186548
 79
     0
 98
        1
 10
0.0
 20
0.0
  0
HATCH
  5
32C
330
A0
100
AcDbEntity
  8
1
  6
Continuous
 62
     2
100
AcDbHatch
 10
0.0
 20
0.0
 30
0.0
210
0.0
220
0.0
230
1.0
  2
_USER
 70
     0
 71
     1
 91
        1
 92
        1
 93
        4
 72
     1
 10
-51.07596291172686
 20
21.20252771639267
 11
-51.07596291172686
 21
18.14871819258147
 72
     1
 10
-51.07596291172686
 20
18.14871819258147
 11
-52.31646732197976
 21
18.14871819258147
 72
     1
 10
-52.31646732197976
 20
18.14871819258147
 11
-52.31646732197976
 21
21.20252771639267
 72
     1
 10
-52.31646732197976
 20
21.20252771639267
 11
-51.07596291172686
 21
21.20252771639267
 97
        4
330
265
330
214
330
264
330
266
 75
     1
 76
     0
 52
45.0
 41
0.1
 77
     0
 78
     1
 53
45.0
 43
0.0
 44
0.0
 45
-0.0707106781186548
 46
0.0707106781186548
 79
     0
 98
        1
 10
0.0
 20
0.0
  0
HATCH
  5
32D
330
A0
100
AcDbEntity
  8
1
  6
Continuous
 62
     2
100
AcDbHatch
 10
0.0
 20
0.0
 30
0.0
210
0.0
220
0.0
230
1.0
  2
_USER
 70
     0
 71
     1
 91
        2
 92
        1
 93
        8
 72
     1
 10
-51.46640691525886
 20
14.78952771640718
 11
-52.70691132551278
 21
14.78952771640718
 72
     1
 10
-52.70691132551278
 20
14.78952771640718
 11
-52.91839137898856
 21
15.33048826062506
 72
     1
 10
-52.91839137898856
 20
15.33048826062506
 11
-54.05083295566237
 21
15.33048826062506
 72
     1
 10
-54.05083295566237
 20
15.33048826062506
 11
-54.26231300913818
 21
14.78952771640718
 72
     1
 10
-54.26231300913818
 20
14.78952771640718
 11
-55.50281741939116
 21
14.78952771640718
 72
     1
 10
-55.50281741939116
 20
14.78952771640718
 11
-54.10486437245186
 21
17.84333724021826
 72
     1
 10
-54.10486437245186
 20
17.84333724021826
 11
-52.86435996219916
 21
17.84333724021826
 72
     1
 10
-52.86435996219916
 20
17.84333724021826
 11
-51.46640691525886
 21
14.78952771640718
 97
        8
330
260
330
21A
330
25F
330
262
330
217
330
261
330
218
330
219
 92
       16
 93
        3
 72
     1
 10
-53.78477740451737
 20
16.01105152593166
 11
-53.18444693013487
 21
16.01105152593166
 72
     1
 10
-53.18444693013487
 20
16.01105152593166
 11
-53.48461216732497
 21
16.77886649191837
 72
     1
 10
-53.48461216732497
 20
16.77886649191837
 11
-53.78477740451737
 21
16.01105152593166
 97
        3
330
216
330
215
330
263
 75
     1
 76
     0
 52
45.0
 41
0.1
 77
     0
 78
     1
 53
45.0
 43
0.0
 44
0.0
 45
-0.0707106781186548
 46
0.0707106781186548
 79
     0
 98
        1
 10
0.0
 20
0.0
  0
HATCH
  5
32E
330
A0
100
AcDbEntity
  8
1
  6
Continuous
 62
     2
100
AcDbHatch
 10
0.0
 20
0.0
 30
0.0
210
0.0
220
0.0
230
1.0
  2
_USER
 70
     0
 71
     1
 91
        2
 92
        1
 93
        8
 72
     1
 10
-51.46640691525886
 20
14.78952771640718
 11
-52.70691132551278
 21
14.78952771640718
 72
     1
 10
-52.70691132551278
 20
14.78952771640718
 11
-52.91839137898856
 21
15.33048826062506
 72
     1
 10
-52.91839137898856
 20
15.33048826062506
 11
-54.05083295566237
 21
15.33048826062506
 72
     1
 10
-54.05083295566237
 20
15.33048826062506
 11
-54.26231300913818
 21
14.78952771640718
 72
     1
 10
-54.26231300913818
 20
14.78952771640718
 11
-55.50281741939116
 21
14.78952771640718
 72
     1
 10
-55.50281741939116
 20
14.78952771640718
 11
-54.10486437245186
 21
17.84333724021826
 72
     1
 10
-54.10486437245186
 20
17.84333724021826
 11
-52.86435996219916
 21
17.84333724021826
 72
     1
 10
-52.86435996219916
 20
17.84333724021826
 11
-51.46640691525886
 21
14.78952771640718
 97
        8
330
260
330
21A
330
25F
330
262
330
217
330
261
330
218
330
219
 92
       16
 93
        3
 72
     1
 10
-53.78477740451737
 20
16.01105152593166
 11
-53.18444693013487
 21
16.01105152593166
 72
     1
 10
-53.18444693013487
 20
16.01105152593166
 11
-53.48461216732497
 21
16.77886649191837
 72
     1
 10
-53.48461216732497
 20
16.77886649191837
 11
-53.78477740451737
 21
16.01105152593166
 97
        3
330
216
330
215
330
263
 75
     1
 76
     0
 52
45.0
 41
0.1
 77
     0
 78
     1
 53
45.0
 43
0.0
 44
0.0
 45
-0.0707106781186548
 46
0.0707106781186548
 79
     0
 98
        1
 10
0.0
 20
0.0
  0
HATCH
  5
32F
330
A0
100
AcDbEntity
  8
1
  6
Continuous
 62
     2
100
AcDbHatch
 10
0.0
 20
0.0
 30
0.0
210
0.0
220
0.0
230
1.0
  2
_USER
 70
     0
 71
     1
 91
        1
 92
        1
 93
        8
 72
     1
 10
-57.66032955857338
 20
17.84333724021826
 11
-57.66032955857338
 21
17.05807193409467
 72
     1
 10
-57.66032955857338
 20
17.05807193409467
 11
-56.84923052109878
 21
17.05807193409467
 72
     1
 10
-56.84923052109878
 20
17.05807193409467
 11
-56.84923052109878
 21
14.78952771640718
 72
     1
 10
-56.84923052109878
 20
14.78952771640718
 11
-55.65643781893226
 21
14.78952771640718
 72
     1
 10
-55.65643781893226
 20
14.78952771640718
 11
-55.65643781893226
 21
17.05807193409467
 72
     1
 10
-55.65643781893226
 20
17.05807193409467
 11
-54.84533878145976
 21
17.05807193409467
 72
     1
 10
-54.84533878145976
 20
17.05807193409467
 11
-54.84533878145976
 21
17.84333724021826
 72
     1
 10
-54.84533878145976
 20
17.84333724021826
 11
-57.66032955857338
 21
17.84333724021826
 97
        8
330
25C
330
25B
330
25A
330
21B
330
21C
330
25E
330
21D
330
25D
 75
     1
 76
     0
 52
45.0
 41
0.1
 77
     0
 78
     1
 53
45.0
 43
0.0
 44
0.0
 45
-0.0707106781186548
 46
0.0707106781186548
 79
     0
 98
        1
 10
0.0
 20
0.0
  0
HATCH
  5
330
330
A0
100
AcDbEntity
  8
1
  6
Continuous
 62
     2
100
AcDbHatch
 10
0.0
 20
0.0
 30
0.0
210
0.0
220
0.0
230
1.0
  2
_USER
 70
     0
 71
     1
 91
        1
 92
        1
 93
        8
 72
     1
 10
-57.66032955857338
 20
17.84333724021826
 11
-57.66032955857338
 21
17.05807193409467
 72
     1
 10
-57.66032955857338
 20
17.05807193409467
 11
-56.84923052109878
 21
17.05807193409467
 72
     1
 10
-56.84923052109878
 20
17.05807193409467
 11
-56.84923052109878
 21
14.78952771640718
 72
     1
 10
-56.84923052109878
 20
14.78952771640718
 11
-55.65643781893226
 21
14.78952771640718
 72
     1
 10
-55.65643781893226
 20
14.78952771640718
 11
-55.65643781893226
 21
17.05807193409467
 72
     1
 10
-55.65643781893226
 20
17.05807193409467
 11
-54.84533878145976
 21
17.05807193409467
 72
     1
 10
-54.84533878145976
 20
17.05807193409467
 11
-54.84533878145976
 21
17.84333724021826
 72
     1
 10
-54.84533878145976
 20
17.84333724021826
 11
-57.66032955857338
 21
17.84333724021826
 97
        8
330
25C
330
25B
330
25A
330
21B
330
21C
330
25E
330
21D
330
25D
 75
     1
 76
     0
 52
45.0
 41
0.1
 77
     0
 78
     1
 53
45.0
 43
0.0
 44
0.0
 45
-0.0707106781186548
 46
0.0707106781186548
 79
     0
 98
        1
 10
0.0
 20
0.0
  0
HATCH
  5
331
330
A0
100
AcDbEntity
  8
1
  6
Continuous
 62
     2
100
AcDbHatch
 10
0.0
 20
0.0
 30
0.0
210
0.0
220
0.0
230
1.0
  2
_USER
 70
     0
 71
     1
 91
        1
 92
        1
 93
       10
 72
     1
 10
-54.98832297483426
 20
21.20252771639267
 11
-56.18111567700078
 21
21.20252771639267
 72
     1
 10
-56.18111567700078
 20
21.20252771639267
 11
-56.18111567700078
 21
18.14871819258147
 72
     1
 10
-56.18111567700078
 20
18.14871819258147
 11
-54.98832297483426
 21
18.14871819258147
 72
     1
 10
-54.98832297483426
 20
18.14871819258147
 11
-54.98832297483426
 21
19.45749370278617
 72
     1
 10
-54.98832297483426
 20
19.45749370278617
 11
-53.74781856458026
 21
18.14871819258147
 72
     1
 10
-53.74781856458026
 20
18.14871819258147
 11
-52.55502586241366
 21
18.14871819258147
 72
     1
 10
-52.55502586241366
 20
18.14871819258147
 11
-52.55502586241366
 21
21.20252771639267
 72
     1
 10
-52.55502586241366
 20
21.20252771639267
 11
-53.74781856458026
 21
21.20252771639267
 72
     1
 10
-53.74781856458026
 20
21.20252771639267
 11
-53.74781856458026
 21
19.89375220618749
 72
     1
 10
-53.74781856458026
 20
19.89375220618749
 11
-54.98832297483426
 21
21.20252771639267
 97
       10
330
256
330
220
330
221
330
222
330
223
330
259
330
21E
330
258
330
257
330
21F
 75
     1
 76
     0
 52
45.0
 41
0.1
 77
     0
 78
     1
 53
45.0
 43
0.0
 44
0.0
 45
-0.0707106781186548
 46
0.0707106781186548
 79
     0
 98
        1
 10
0.0
 20
0.0
  0
HATCH
  5
332
330
A0
100
AcDbEntity
  8
1
  6
Continuous
 62
     2
100
AcDbHatch
 10
0.0
 20
0.0
 30
0.0
210
0.0
220
0.0
230
1.0
  2
_USER
 70
     0
 71
     1
 91
        1
 92
        1
 93
       10
 72
     1
 10
-54.98832297483426
 20
21.20252771639267
 11
-56.18111567700078
 21
21.20252771639267
 72
     1
 10
-56.18111567700078
 20
21.20252771639267
 11
-56.18111567700078
 21
18.14871819258147
 72
     1
 10
-56.18111567700078
 20
18.14871819258147
 11
-54.98832297483426
 21
18.14871819258147
 72
     1
 10
-54.98832297483426
 20
18.14871819258147
 11
-54.98832297483426
 21
19.45749370278617
 72
     1
 10
-54.98832297483426
 20
19.45749370278617
 11
-53.74781856458026
 21
18.14871819258147
 72
     1
 10
-53.74781856458026
 20
18.14871819258147
 11
-52.55502586241366
 21
18.14871819258147
 72
     1
 10
-52.55502586241366
 20
18.14871819258147
 11
-52.55502586241366
 21
21.20252771639267
 72
     1
 10
-52.55502586241366
 20
21.20252771639267
 11
-53.74781856458026
 21
21.20252771639267
 72
     1
 10
-53.74781856458026
 20
21.20252771639267
 11
-53.74781856458026
 21
19.89375220618749
 72
     1
 10
-53.74781856458026
 20
19.89375220618749
 11
-54.98832297483426
 21
21.20252771639267
 97
       10
330
256
330
220
330
221
330
222
330
223
330
259
330
21E
330
258
330
257
330
21F
 75
     1
 76
     0
 52
45.0
 41
0.1
 77
     0
 78
     1
 53
45.0
 43
0.0
 44
0.0
 45
-0.0707106781186548
 46
0.0707106781186548
 79
     0
 98
        1
 10
0.0
 20
0.0
  0
HATCH
  5
333
330
A0
100
AcDbEntity
  8
1
  6
Continuous
 62
     2
100
AcDbHatch
 10
0.0
 20
0.0
 30
0.0
210
0.0
220
0.0
230
1.0
  2
_USER
 70
     0
 71
     1
 91
        1
 92
        1
 93
       10
 72
     1
 10
-60.23676179525288
 20
17.84333724021826
 11
-61.42955449742047
 21
17.84333724021826
 72
     1
 10
-61.42955449742047
 20
17.84333724021826
 11
-61.42955449742047
 21
14.78952771640718
 72
     1
 10
-61.42955449742047
 20
14.78952771640718
 11
-60.23676179525288
 21
14.78952771640718
 72
     1
 10
-60.23676179525288
 20
14.78952771640718
 11
-60.23676179525288
 21
16.09830322661176
 72
     1
 10
-60.23676179525288
 20
16.09830322661176
 11
-58.99625738499998
 21
14.78952771640718
 72
     1
 10
-58.99625738499998
 20
14.78952771640718
 11
-57.80346468283358
 21
14.78952771640718
 72
     1
 10
-57.80346468283358
 20
14.78952771640718
 11
-57.80346468283358
 21
17.84333724021826
 72
     1
 10
-57.80346468283358
 20
17.84333724021826
 11
-58.99625738499998
 21
17.84333724021826
 72
     1
 10
-58.99625738499998
 20
17.84333724021826
 11
-58.99625738499998
 21
16.53456173001317
 72
     1
 10
-58.99625738499998
 20
16.53456173001317
 11
-60.23676179525288
 21
17.84333724021826
 97
       10
330
225
330
226
330
227
330
253
330
228
330
229
330
252
330
255
330
254
330
224
 75
     1
 76
     0
 52
45.0
 41
0.1
 77
     0
 78
     1
 53
45.0
 43
0.0
 44
0.0
 45
-0.0707106781186548
 46
0.0707106781186548
 79
     0
 98
        1
 10
0.0
 20
0.0
  0
HATCH
  5
334
330
A0
100
AcDbEntity
  8
1
  6
Continuous
 62
     2
100
AcDbHatch
 10
0.0
 20
0.0
 30
0.0
210
0.0
220
0.0
230
1.0
  2
_USER
 70
     0
 71
     1
 91
        1
 92
        1
 93
       10
 72
     1
 10
-60.23676179525288
 20
17.84333724021826
 11
-61.42955449742047
 21
17.84333724021826
 72
     1
 10
-61.42955449742047
 20
17.84333724021826
 11
-61.42955449742047
 21
14.78952771640718
 72
     1
 10
-61.42955449742047
 20
14.78952771640718
 11
-60.23676179525288
 21
14.78952771640718
 72
     1
 10
-60.23676179525288
 20
14.78952771640718
 11
-60.23676179525288
 21
16.09830322661176
 72
     1
 10
-60.23676179525288
 20
16.09830322661176
 11
-58.99625738499998
 21
14.78952771640718
 72
     1
 10
-58.99625738499998
 20
14.78952771640718
 11
-57.80346468283358
 21
14.78952771640718
 72
     1
 10
-57.80346468283358
 20
14.78952771640718
 11
-57.80346468283358
 21
17.84333724021826
 72
     1
 10
-57.80346468283358
 20
17.84333724021826
 11
-58.99625738499998
 21
17.84333724021826
 72
     1
 10
-58.99625738499998
 20
17.84333724021826
 11
-58.99625738499998
 21
16.53456173001317
 72
     1
 10
-58.99625738499998
 20
16.53456173001317
 11
-60.23676179525288
 21
17.84333724021826
 97
       10
330
225
330
226
330
227
330
253
330
228
330
229
330
252
330
255
330
254
330
224
 75
     1
 76
     0
 52
45.0
 41
0.1
 77
     0
 78
     1
 53
45.0
 43
0.0
 44
0.0
 45
-0.0707106781186548
 46
0.0707106781186548
 79
     0
 98
        1
 10
0.0
 20
0.0
  0
HATCH
  5
335
330
A0
100
AcDbEntity
  8
1
  6
Continuous
 62
     2
100
AcDbHatch
 10
0.0
 20
0.0
 30
0.0
210
0.0
220
0.0
230
1.0
  2
_USER
 70
     0
 71
     1
 91
        1
 92
        1
 93
       12
 72
     1
 10
-61.23855673418828
 20
21.20252771639267
 11
-61.23855673418828
 21
18.14871819258147
 72
     1
 10
-61.23855673418828
 20
18.14871819258147
 11
-62.43134943635468
 21
18.14871819258147
 72
     1
 10
-62.43134943635468
 20
18.14871819258147
 11
-62.43134943635468
 21
19.28299030142529
 72
     1
 10
-62.43134943635468
 20
19.28299030142529
 11
-63.48100701426216
 21
19.28299030142529
 72
     1
 10
-63.48100701426216
 20
19.28299030142529
 11
-63.48100701426216
 21
18.14871819258147
 72
     1
 10
-63.48100701426216
 20
18.14871819258147
 11
-64.67379971642876
 21
18.14871819258147
 72
     1
 10
-64.67379971642876
 20
18.14871819258147
 11
-64.67379971642876
 21
21.20252771639267
 72
     1
 10
-64.67379971642876
 20
21.20252771639267
 11
-63.48100701426216
 21
21.20252771639267
 72
     1
 10
-63.48100701426216
 20
21.20252771639267
 11
-63.48100701426216
 21
20.13369438305807
 72
     1
 10
-63.48100701426216
 20
20.13369438305807
 11
-62.43134943635468
 21
20.13369438305807
 72
     1
 10
-62.43134943635468
 20
20.13369438305807
 11
-62.43134943635468
 21
21.20252771639267
 72
     1
 10
-62.43134943635468
 20
21.20252771639267
 11
-61.23855673418828
 21
21.20252771639267
 97
       12
330
24D
330
24C
330
24B
330
233
330
234
330
24A
330
235
330
249
330
248
330
247
330
231
330
232
 75
     1
 76
     0
 52
45.0
 41
0.1
 77
     0
 78
     1
 53
45.0
 43
0.0
 44
0.0
 45
-0.0707106781186548
 46
0.0707106781186548
 79
     0
 98
        1
 10
0.0
 20
0.0
  0
HATCH
  5
336
330
A0
100
AcDbEntity
  8
1
  6
Continuous
 62
     2
100
AcDbHatch
 10
0.0
 20
0.0
 30
0.0
210
0.0
220
0.0
230
1.0
  2
_USER
 70
     0
 71
     1
 91
        1
 92
        1
 93
       12
 72
     1
 10
-61.23855673418828
 20
21.20252771639267
 11
-61.23855673418828
 21
18.14871819258147
 72
     1
 10
-61.23855673418828
 20
18.14871819258147
 11
-62.43134943635468
 21
18.14871819258147
 72
     1
 10
-62.43134943635468
 20
18.14871819258147
 11
-62.43134943635468
 21
19.28299030142529
 72
     1
 10
-62.43134943635468
 20
19.28299030142529
 11
-63.48100701426216
 21
19.28299030142529
 72
     1
 10
-63.48100701426216
 20
19.28299030142529
 11
-63.48100701426216
 21
18.14871819258147
 72
     1
 10
-63.48100701426216
 20
18.14871819258147
 11
-64.67379971642876
 21
18.14871819258147
 72
     1
 10
-64.67379971642876
 20
18.14871819258147
 11
-64.67379971642876
 21
21.20252771639267
 72
     1
 10
-64.67379971642876
 20
21.20252771639267
 11
-63.48100701426216
 21
21.20252771639267
 72
     1
 10
-63.48100701426216
 20
21.20252771639267
 11
-63.48100701426216
 21
20.13369438305807
 72
     1
 10
-63.48100701426216
 20
20.13369438305807
 11
-62.43134943635468
 21
20.13369438305807
 72
     1
 10
-62.43134943635468
 20
20.13369438305807
 11
-62.43134943635468
 21
21.20252771639267
 72
     1
 10
-62.43134943635468
 20
21.20252771639267
 11
-61.23855673418828
 21
21.20252771639267
 97
       12
330
24D
330
24C
330
24B
330
233
330
234
330
24A
330
235
330
249
330
248
330
247
330
231
330
232
 75
     1
 76
     0
 52
45.0
 41
0.1
 77
     0
 78
     1
 53
45.0
 43
0.0
 44
0.0
 45
-0.0707106781186548
 46
0.0707106781186548
 79
     0
 98
        1
 10
0.0
 20
0.0
  0
ENDBLK
  5
A2
330
A0
100
AcDbEntity
  8
0
100
AcDbBlockEnd
  0
BLOCK
  5
A4
330
A3
100
AcDbEntity
  8
0
100
AcDbBlockBegin
  2
_punkt
 70
     0
 10
50.63874707960063
 20
7.49602771639087
 30
0.0
  3
_punkt
  1

  0
LINE
  5
337
330
A3
100
AcDbEntity
  8
1
  6
Continuous
 62
     2
100
AcDbLine
 10
50.63874707960063
 20
7.49602771639087
 30
0.0
 11
50.63874707960063
 21
2.49602771639076
 31
0.0
  0
LINE
  5
338
330
A3
100
AcDbEntity
  8
1
  6
Continuous
 62
     2
100
AcDbLine
 10
50.63874707960063
 20
7.49602771639087
 30
0.0
 11
55.63874707959963
 21
7.49602771639087
 31
0.0
  0
ENDBLK
  5
A5
330
A3
100
AcDbEntity
  8
0
100
AcDbBlockEnd
  0
BLOCK
  5
A9
330
A6
100
AcDbEntity
  8
0
100
AcDbBlockBegin
  2
A4I_CS
 70
     0
 10
50.63874707960063
 20
2.49602771639076
 30
0.0
  3
A4I_CS
  1

  0
INSERT
  5
A7
330
A6
100
AcDbEntity
  8
1
100
AcDbBlockReference
  2
_rahmen
 10
50.63874707960063
 20
2.49602771639076
 30
0.0
  0
INSERT
  5
A8
330
A6
100
AcDbEntity
  8
1
100
AcDbBlockReference
  2
_punkt
 10
50.63874707960063
 20
7.49602771639087
 30
0.0
  0
ENDBLK
  5
AA
330
A6
100
AcDbEntity
  8
0
100
AcDbBlockEnd
  0
BLOCK
  5
B3
330
AB
100
AcDbEntity
  8
0
100
AcDbBlockBegin
  2
1
 70
     0
 10
0.0
 20
0.0
 30
0.0
  3
1
  1

  0
INSERT
  5
AC
330
AB
100
AcDbEntity
  8
0
100
AcDbBlockReference
  2
AllgSicht1
 10
-22.00000000005045
 20
81.00000000003001
 30
0.0
  0
INSERT
  5
AD
330
AB
100
AcDbEntity
  8
0
100
AcDbBlockReference
  2
Drfsicht1
 10
-132.2625060000001
 20
84.3000004999998
 30
0.0
  0
INSERT
  5
AE
330
AB
100
AcDbEntity
  8
0
100
AcDbBlockReference
  2
Rckans1
 10
1.26250600817733
 20
157.00000000002
 30
0.0
  0
INSERT
  5
AF
330
AB
100
AcDbEntity
  8
0
100
AcDbBlockReference
  2
SA_Links1
 10
-66.99556366860241
 20
157.0000000000201
 30
0.0
  0
INSERT
  5
B0
330
AB
100
AcDbEntity
  8
0
100
AcDbBlockReference
  2
SA_Rechts1
 10
-214.5475176063753
 20
157.000000000015
 30
0.0
  0
INSERT
  5
B1
330
AB
100
AcDbEntity
  8
0
100
AcDbBlockReference
  2
Vordans1
 10
-132.2625060000001
 20
157.000000000015
 30
0.0
  0
INSERT
  5
B2
330
AB
100
AcDbEntity
  8
0
100
AcDbBlockReference
  2
A4I_CS
 10
50.63874707960063
 20
2.49602771639076
 30
0.0
  0
ENDBLK
  5
B4
330
AB
100
AcDbEntity
  8
0
100
AcDbBlockEnd
  0
BLOCK
  5
14B
330
143
100
AcDbEntity
  8
0
100
AcDbBlockBegin
  2
*D17
 70
     1
 10
0.0
 20
0.0
 30
0.0
  3
*D17
  1

  0
LINE
  5
144
330
143
100
AcDbEntity
  8
1
  6
Continuous
 62
     2
100
AcDbLine
 10
-190.518047907671
 20
71.45000040463736
 30
0.0
 11
-190.518047907671
 21
97.15000040463705
 31
0.0
  0
LINE
  5
145
330
143
100
AcDbEntity
  8
1
  6
Continuous
 62
     2
100
AcDbLine
 10
-134.9625122116398
 20
71.45000040463736
 30
0.0
 11
-192.018047907671
 21
71.45000040463736
 31
0.0
  0
LINE
  5
146
330
143
100
AcDbEntity
  8
1
  6
Continuous
 62
     2
100
AcDbLine
 10
-134.9625118626651
 20
97.15000040463705
 30
0.0
 11
-192.018047907671
 21
97.15000040463705
 31
0.0
  0
SOLID
  5
147
330
143
100
AcDbEntity
  8
1
 62
     2
100
AcDbTrace
 10
-190.9788316492269
 20
74.95000040463736
 30
0.0
 11
-190.0572641661151
 21
74.95000040463736
 31
0.0
 12
-190.518047907671
 22
71.45000040463736
 32
0.0
 13
-190.518047907671
 23
71.45000040463736
 33
0.0
  0
SOLID
  5
148
330
143
100
AcDbEntity
  8
1
 62
     2
100
AcDbTrace
 10
-190.0572641661151
 20
93.65000040463705
 30
0.0
 11
-190.9788316492269
 21
93.65000040463705
 31
0.0
 12
-190.518047907671
 22
97.15000040463705
 32
0.0
 13
-190.518047907671
 23
97.15000040463705
 33
0.0
  0
MTEXT
  5
14A
330
143
100
AcDbEntity
  8
1
 62
     3
100
AcDbMText
 10
-192.368047907671
 20
79.27183658195946
 30
0.0
 40
3.5
 41
0.0
 71
     7
 72
     1
  1
25,7
  7
CONVERTER_11
 11
0.0
 21
1.0
 31
0.0
 73
     1
 44
0.60024009603842
  0
ENDBLK
  5
14C
330
143
100
AcDbEntity
  8
0
100
AcDbBlockEnd
  0
BLOCK
  5
158
330
14F
100
AcDbEntity
  8
0
100
AcDbBlockBegin
  2
*D18
 70
     1
 10
0.0
 20
0.0
 30
0.0
  3
*D18
  1

  0
LINE
  5
150
330
14F
100
AcDbEntity
  8
1
  6
Continuous
 62
     2
100
AcDbLine
 10
-180.5180479076711
 20
92.40000040463721
 30
0.0
 11
-180.5180479076711
 21
85.40000040463721
 31
0.0
  0
LINE
  5
151
330
14F
100
AcDbEntity
  8
1
  6
Continuous
 62
     2
100
AcDbLine
 10
-180.5180479076711
 20
85.40000040463721
 30
0.0
 11
-180.5180479076711
 21
83.20000040463721
 31
0.0
  0
LINE
  5
152
330
14F
100
AcDbEntity
  8
1
  6
Continuous
 62
     2
100
AcDbLine
 10
-180.5180479076711
 20
83.20000040463721
 30
0.0
 11
-180.5180479076711
 21
76.20000040463721
 31
0.0
  0
LINE
  5
153
330
14F
100
AcDbEntity
  8
1
  6
Continuous
 62
     2
100
AcDbLine
 10
-169.8174456090558
 20
85.40000040463721
 30
0.0
 11
-182.0180479076711
 21
85.40000040463721
 31
0.0
  0
LINE
  5
154
330
14F
100
AcDbEntity
  8
1
  6
Continuous
 62
     2
100
AcDbLine
 10
-169.8174456090558
 20
83.20000040463721
 30
0.0
 11
-182.0180479076711
 21
83.20000040463721
 31
0.0
  0
SOLID
  5
155
330
14F
100
AcDbEntity
  8
1
 62
     2
100
AcDbTrace
 10
-180.9788316492269
 20
88.90000040463721
 30
0.0
 11
-180.0572641661152
 21
88.90000040463721
 31
0.0
 12
-180.5180479076711
 22
85.40000040463721
 32
0.0
 13
-180.5180479076711
 23
85.40000040463721
 33
0.0
  0
SOLID
  5
156
330
14F
100
AcDbEntity
  8
1
 62
     2
100
AcDbTrace
 10
-180.0572641661152
 20
79.70000040463721
 30
0.0
 11
-180.9788316492269
 21
79.70000040463721
 31
0.0
 12
-180.5180479076711
 22
83.20000040463721
 32
0.0
 13
-180.5180479076711
 23
83.20000040463721
 33
0.0
  0
MTEXT
  5
157
330
14F
100
AcDbEntity
  8
1
 62
     3
100
AcDbMText
 10
-182.3680479076711
 20
81.60873433567974
 30
0.0
 40
3.5
 41
0.0
 71
     7
 72
     1
  1
2,2
  7
CONVERTER_11
 11
0.0
 21
1.0
 31
0.0
 73
     1
 44
0.60024009603842
  0
ENDBLK
  5
159
330
14F
100
AcDbEntity
  8
0
100
AcDbBlockEnd
  0
BLOCK
  5
1E6
330
1DF
100
AcDbEntity
  8
0
100
AcDbBlockBegin
  2
*D19
 70
     1
 10
0.0
 20
0.0
 30
0.0
  3
*D19
  1

  0
LINE
  5
1E0
330
1DF
100
AcDbEntity
  8
1
  6
Continuous
 62
     2
100
AcDbLine
 10
-183.502115044844
 20
137.1499997311377
 30
0.0
 11
-183.502115044844
 21
176.8499997302072
 31
0.0
  0
LINE
  5
1E1
330
1DF
100
AcDbEntity
  8
1
  6
Continuous
 62
     2
100
AcDbLine
 10
-170.7328396707849
 20
137.1499997311377
 30
0.0
 11
-185.002115044844
 21
137.1499997311377
 31
0.0
  0
LINE
  5
1E2
330
1DF
100
AcDbEntity
  8
1
  6
Continuous
 62
     2
100
AcDbLine
 10
-162.1158771582125
 20
176.8499997302072
 30
0.0
 11
-185.002115044844
 21
176.8499997302072
 31
0.0
  0
SOLID
  5
1E3
330
1DF
100
AcDbEntity
  8
1
 62
     2
100
AcDbTrace
 10
-183.9628987863998
 20
140.6499997311377
 30
0.0
 11
-183.0413313032881
 21
140.6499997311377
 31
0.0
 12
-183.502115044844
 22
137.1499997311377
 32
0.0
 13
-183.502115044844
 23
137.1499997311377
 33
0.0
  0
SOLID
  5
1E4
330
1DF
100
AcDbEntity
  8
1
 62
     2
100
AcDbTrace
 10
-183.0413313032881
 20
173.3499997302072
 30
0.0
 11
-183.9628987863998
 21
173.3499997302072
 31
0.0
 12
-183.502115044844
 22
176.8499997302072
 32
0.0
 13
-183.502115044844
 23
176.8499997302072
 33
0.0
  0
MTEXT
  5
1E5
330
1DF
100
AcDbEntity
  8
1
 62
     3
100
AcDbMText
 10
-185.352115044844
 20
152.22628812957
 30
0.0
 40
3.5
 41
0.0
 71
     7
 72
     1
  1
39,7
  7
CONVERTER_11
 11
0.0
 21
1.0
 31
0.0
 73
     1
 44
0.60024009603842
  0
ENDBLK
  5
1E7
330
1DF
100
AcDbEntity
  8
0
100
AcDbBlockEnd
  0
BLOCK
  5
1F1
330
1EA
100
AcDbEntity
  8
0
100
AcDbBlockBegin
  2
*D20
 70
     1
 10
0.0
 20
0.0
 30
0.0
  3
*D20
  1

  0
LINE
  5
1EB
330
1EA
100
AcDbEntity
  8
1
  6
Continuous
 62
     2
100
AcDbLine
 10
-132.2625120371524
 20
125.026816517881
 30
0.0
 11
-91.84999916394392
 21
125.026816517881
 31
0.0
  0
LINE
  5
1EC
330
1EA
100
AcDbEntity
  8
1
  6
Continuous
 62
     2
100
AcDbLine
 10
-132.2625120371524
 20
140.294453717468
 30
0.0
 11
-132.2625120371524
 21
123.526816517881
 31
0.0
  0
LINE
  5
1ED
330
1EA
100
AcDbEntity
  8
1
  6
Continuous
 62
     2
100
AcDbLine
 10
-91.84999916394392
 20
140.5139626393052
 30
0.0
 11
-91.84999916394392
 21
123.526816517881
 31
0.0
  0
SOLID
  5
1EE
330
1EA
100
AcDbEntity
  8
1
 62
     2
100
AcDbTrace
 10
-128.7625120371524
 20
125.4876002594369
 30
0.0
 11
-128.7625120371524
 21
124.5660327763251
 31
0.0
 12
-132.2625120371524
 22
125.026816517881
 32
0.0
 13
-132.2625120371524
 23
125.026816517881
 33
0.0
  0
SOLID
  5
1EF
330
1EA
100
AcDbEntity
  8
1
 62
     2
100
AcDbTrace
 10
-95.34999916394392
 20
124.5660327763251
 30
0.0
 11
-95.34999916394392
 21
125.4876002594369
 31
0.0
 12
-91.84999916394392
 22
125.026816517881
 32
0.0
 13
-91.84999916394392
 23
125.026816517881
 33
0.0
  0
MTEXT
  5
1F0
330
1EA
100
AcDbEntity
  8
1
 62
     3
100
AcDbMText
 10
-119.327005238972
 20
126.876816517881
 30
0.0
 40
3.5
 41
0.0
 71
     7
 72
     1
  1
40,41
  7
CONVERTER_11
 11
0.9999999999970619
 21
2.424068405545306E-6
 31
0.0
 73
     1
 44
0.60024009603842
  0
ENDBLK
  5
1F2
330
1EA
100
AcDbEntity
  8
0
100
AcDbBlockEnd
  0
BLOCK
  5
1FC
330
1F5
100
AcDbEntity
  8
0
100
AcDbBlockBegin
  2
*D21
 70
     1
 10
0.0
 20
0.0
 30
0.0
  3
*D21
  1

  0
LINE
  5
1F6
330
1F5
100
AcDbEntity
  8
1
  6
Continuous
 62
     2
100
AcDbLine
 10
-91.84999916394392
 20
116.2338073177406
 30
0.0
 11
-172.675011852761
 21
116.2338073177406
 31
0.0
  0
LINE
  5
1F7
330
1F5
100
AcDbEntity
  8
1
  6
Continuous
 62
     2
100
AcDbLine
 10
-91.84999916394392
 20
140.5139626393051
 30
0.0
 11
-91.84999916394392
 21
114.2338073177406
 31
0.0
  0
LINE
  5
1F8
330
1F5
100
AcDbEntity
  8
1
  6
Continuous
 62
     2
100
AcDbLine
 10
-172.675011852761
 20
140.5139406273696
 30
0.0
 11
-172.675011852761
 21
114.2338073177406
 31
0.0
  0
SOLID
  5
1F9
330
1F5
100
AcDbEntity
  8
1
 62
     2
100
AcDbTrace
 10
-95.34999916394392
 20
115.7730235761847
 30
0.0
 11
-95.34999916394392
 21
116.6945910592965
 31
0.0
 12
-91.84999916394392
 22
116.2338073177406
 32
0.0
 13
-91.84999916394392
 23
116.2338073177406
 33
0.0
  0
SOLID
  5
1FA
330
1F5
100
AcDbEntity
  8
1
 62
     2
100
AcDbTrace
 10
-169.175011852761
 20
116.6945910592965
 30
0.0
 11
-169.175011852761
 21
115.7730235761847
 31
0.0
 12
-172.675011852761
 22
116.2338073177406
 32
0.0
 13
-172.675011852761
 23
116.2338073177406
 33
0.0
  0
MTEXT
  5
1FB
330
1F5
100
AcDbEntity
  8
1
 62
     3
100
AcDbMText
 10
-136.7704558495624
 20
118.5838073177406
 30
0.0
 40
3.5
 41
0.0
 71
     7
 72
     1
  1
80,8
  7
CONVERTER_11
 11
0.9999999999970619
 21
2.424068405545306E-6
 31
0.0
 73
     1
 44
0.60024009603842
  0
ENDBLK
  5
1FD
330
1F5
100
AcDbEntity
  8
0
100
AcDbBlockEnd
  0
ENDSEC
  0
SECTION
  2
ENTITIES
  0
INSERT
  5
B5
330
1F
100
AcDbEntity
  8
1
100
AcDbBlockReference
  2
1
 10
0.0
 20
0.0
 30
0.0
  0
ENDSEC
  0
SECTION
  2
OBJECTS
  0
DICTIONARY
  5
C
330
0
100
AcDbDictionary
281
     1
  3
ACAD_DETAILVIEWSTYLE
350
37E
  3
ACAD_GROUP
350
D
  3
ACAD_LAYOUT
350
1A
  3
ACAD_MATERIAL
350
43
  3
ACAD_MLEADERSTYLE
350
6B
  3
ACAD_MLINESTYLE
350
17
  3
ACAD_PLOTSETTINGS
350
19
  3
ACAD_PLOTSTYLENAME
350
E
  3
ACAD_SCALELIST
350
47
  3
ACAD_SECTIONVIEWSTYLE
350
37F
  3
ACAD_TABLESTYLE
350
69
  3
ACAD_VISUALSTYLE
350
2A
  3
ACDB_RECOMPOSE_DATA
350
37B
  3
AcDbVariableDictionary
350
33B
  0
DICTIONARY
  5
339
330
8
100
AcDbDictionary
280
     1
281
     1
  3
ACAD_XREC_ROUNDTRIP
360
33A
  0
DICTIONARY
  5
37E
102
{ACAD_REACTORS
330
C
102
}
330
C
100
AcDbDictionary
281
     1
  0
DICTIONARY
  5
D
102
{ACAD_REACTORS
330
C
102
}
330
C
100
AcDbDictionary
281
     1
  0
DICTIONARY
  5
1A
102
{ACAD_REACTORS
330
C
102
}
330
C
100
AcDbDictionary
281
     1
  3
Layout1
350
1E
  3
Layout2
350
26
  3
Model
350
22
  0
DICTIONARY
  5
43
102
{ACAD_REACTORS
330
C
102
}
330
C
100
AcDbDictionary
281
     1
  3
ByBlock
350
45
  3
ByLayer
350
44
  3
Global
350
46
  0
DICTIONARY
  5
6B
102
{ACAD_REACTORS
330
C
102
}
330
C
100
AcDbDictionary
281
     1
  3
Standard
350
6C
  0
DICTIONARY
  5
17
102
{ACAD_REACTORS
330
C
102
}
330
C
100
AcDbDictionary
281
     1
  3
Standard
350
18
  0
DICTIONARY
  5
19
102
{ACAD_REACTORS
330
C
102
}
330
C
100
AcDbDictionary
281
     1
  0
ACDBDICTIONARYWDFLT
  5
E
102
{ACAD_REACTORS
330
C
102
}
330
C
100
AcDbDictionary
281
     1
  3
Normal
350
F
100
AcDbDictionaryWithDefault
340
F
  0
DICTIONARY
  5
47
102
{ACAD_REACTORS
330
C
102
}
330
C
100
AcDbDictionary
281
     1
  3
A0
350
48
  3
A1
350
49
  3
A2
350
4A
  3
A3
350
4B
  3
A4
350
4C
  3
A5
350
4D
  3
A6
350
4E
  3
A7
350
4F
  3
A8
350
50
  3
A9
350
51
  3
B0
350
52
  3
B1
350
53
  3
B2
350
54
  3
B3
350
55
  3
B4
350
56
  3
B5
350
57
  3
B6
350
58
  3
B7
350
59
  3
B8
350
5A
  3
B9
350
5B
  3
C0
350
5C
  3
C1
350
5D
  3
C2
350
5E
  3
C3
350
5F
  3
C4
350
60
  3
C5
350
61
  3
C6
350
62
  3
C7
350
63
  3
C8
350
64
  3
C9
350
65
  3
D0
350
66
  3
D1
350
67
  3
D2
350
68
  0
DICTIONARY
  5
37F
102
{ACAD_REACTORS
330
C
102
}
330
C
100
AcDbDictionary
281
     1
  0
DICTIONARY
  5
69
102
{ACAD_REACTORS
330
C
102
}
330
C
100
AcDbDictionary
281
     1
  3
Standard
350
6A
  0
DICTIONARY
  5
2A
102
{ACAD_REACTORS
330
C
102
}
330
C
100
AcDbDictionary
281
     1
  3
2dWireframe
350
2F
  3
Basic
350
32
  3
Brighten
350
36
  3
ColorChange
350
3A
  3
Conceptual
350
34
  3
Dim
350
35
  3
EdgeColorOff
350
3D
  3
Facepattern
350
39
  3
Flat
350
2B
  3
FlatWithEdges
350
2C
  3
Gouraud
350
2D
  3
GouraudWithEdges
350
2E
  3
Hidden
350
31
  3
JitterOff
350
3B
  3
Linepattern
350
38
  3
OverhangOff
350
3C
  3
Realistic
350
33
  3
Shaded
350
42
  3
Shaded with edges
350
41
  3
Shades of Gray
350
3E
  3
Sketchy
350
3F
  3
Thicken
350
37
  3
Wireframe
350
30
  3
X-Ray
350
40
  0
XRECORD
  5
37B
102
{ACAD_REACTORS
330
C
102
}
330
C
100
AcDbXrecord
280
     1
 90
        1
330
6A
  0
DICTIONARY
  5
33B
102
{ACAD_REACTORS
330
C
102
}
330
C
100
AcDbDictionary
281
     1
  3
CANNOSCALE
350
33C
  3
CMLEADERSTYLE
350
37D
  3
CTABLESTYLE
350
37C
  3
MSLTSCALE
350
33D
  3
XCLIPFRAME
350
33E
  0
XRECORD
  5
33A
102
{ACAD_REACTORS
330
339
102
}
330
339
100
AcDbXrecord
280
     1
102
VTR_0.000_0.000_1.000_1.000_VISUALSTYLE
340
2F
102
VTR_0.000_0.000_1.000_1.000_GRIDDISPLAY
 70
     3
102
VTR_0.000_0.000_1.000_1.000_GRIDMAJOR
 70
     5
102
VTR_0.000_0.000_1.000_1.000_DEFAULTLIGHTING
280
     1
102
VTR_0.000_0.000_1.000_1.000_DEFAULTLIGHTINGTYPE
 70
     1
102
VTR_0.000_0.000_1.000_1.000_BRIGHTNESS
141
0.0
102
VTR_0.000_0.000_1.000_1.000_CONTRAST
142
0.0
  0
LAYOUT
  5
1E
102
{ACAD_REACTORS
330
1A
102
}
330
1A
100
AcDbPlotSettings
  1

  2
none_device
  4

  6

 40
0.0
 41
0.0
 42
0.0
 43
0.0
 44
0.0
 45
0.0
 46
0.0
 47
0.0
 48
0.0
 49
0.0
140
0.0
141
0.0
142
1.0
143
1.0
 70
   688
 72
     0
 73
     0
 74
     5
  7

 75
    16
 76
     0
 77
     2
 78
   300
147
1.0
148
0.0
149
0.0
100
AcDbLayout
  1
Layout1
 70
     1
 71
     1
 10
0.0
 20
0.0
 11
12.0
 21
9.0
 12
0.0
 22
0.0
 32
0.0
 14
1.00000000000000E+20
 24
1.00000000000000E+20
 34
1.00000000000000E+20
 15
-1.00000000000000E+20
 25
-1.00000000000000E+20
 35
-1.00000000000000E+20
146
0.0
 13
0.0
 23
0.0
 33
0.0
 16
1.0
 26
0.0
 36
0.0
 17
0.0
 27
1.0
 37
0.0
 76
     0
330
1B
  0
LAYOUT
  5
26
102
{ACAD_REACTORS
330
1A
102
}
330
1A
100
AcDbPlotSettings
  1

  2
none_device
  4

  6

 40
0.0
 41
0.0
 42
0.0
 43
0.0
 44
0.0
 45
0.0
 46
0.0
 47
0.0
 48
0.0
 49
0.0
140
0.0
141
0.0
142
1.0
143
1.0
 70
   688
 72
     0
 73
     0
 74
     5
  7

 75
    16
 76
     0
 77
     2
 78
   300
147
1.0
148
0.0
149
0.0
100
AcDbLayout
  1
Layout2
 70
     1
 71
     2
 10
0.0
 20
0.0
 11
0.0
 21
0.0
 12
0.0
 22
0.0
 32
0.0
 14
0.0
 24
0.0
 34
0.0
 15
0.0
 25
0.0
 35
0.0
146
0.0
 13
0.0
 23
0.0
 33
0.0
 16
1.0
 26
0.0
 36
0.0
 17
0.0
 27
1.0
 37
0.0
 76
     0
330
23
  0
LAYOUT
  5
22
102
{ACAD_REACTORS
330
1A
102
}
330
1A
100
AcDbPlotSettings
  1

  2
none_device
  4
Letter_(8.50_x_11.00_Inches)
  6

 40
6.35
 41
6.35
 42
6.35000508
 43
6.35000508
 44
215.9
 45
279.4
 46
0.0
 47
0.0
 48
0.0
 49
0.0
140
0.0
141
0.0
142
1.0
143
1.0
 70
  1712
 72
     0
 73
     0
 74
     0
  7

 75
     0
 76
     0
 77
     2
 78
   300
147
1.0
148
0.0
149
0.0
100
AcDbLayout
  1
Model
 70
     1
 71
     0
 10
0.0
 20
0.0
 11
12.0
 21
9.0
 12
0.0
 22
0.0
 32
0.0
 14
-241.3612529203984
 24
2.49602771639076
 34
0.0
 15
55.63874707959963
 25
212.4960277163909
 35
0.0
146
0.0
 13
0.0
 23
0.0
 33
0.0
 16
1.0
 26
0.0
 36
0.0
 17
0.0
 27
1.0
 37
0.0
 76
     0
330
1F
331
29
  0
MATERIAL
  5
45
102
{ACAD_REACTORS
330
43
102
}
102
{ACAD_XDICTIONARY
360
371
102
}
330
43
100
AcDbMaterial
  1
ByBlock
  0
MATERIAL
  5
44
102
{ACAD_REACTORS
330
43
102
}
102
{ACAD_XDICTIONARY
360
36F
102
}
330
43
100
AcDbMaterial
  1
ByLayer
  0
MATERIAL
  5
46
102
{ACAD_REACTORS
330
43
102
}
102
{ACAD_XDICTIONARY
360
373
102
}
330
43
100
AcDbMaterial
  1
Global
  0
MLEADERSTYLE
  5
6C
102
{ACAD_REACTORS
330
6B
102
}
102
{ACAD_XDICTIONARY
360
379
102
}
330
6B
100
AcDbMLeaderStyle
170
     2
171
     1
172
     0
 90
        2
 40
0.0
 41
0.0
173
     1
 91
-1056964608
340
14
 92
       -2
290
     1
 42
0.09
291
     1
 43
0.36
  3
Standard
341
0
 44
0.18
300

342
11
174
     1
178
     6
175
     1
176
     0
 93
-1056964608
 45
0.18
292
     0
297
     0
 46
0.18
343
0
 94
-1056964608
 47
1.0
 49
1.0
140
1.0
293
     1
141
0.0
294
     1
177
     0
142
1.0
295
     0
296
     0
143
0.125
1001
ACAD_MLEADERVER
1070
     2
  0
MLINESTYLE
  5
18
102
{ACAD_REACTORS
330
17
102
}
330
17
100
AcDbMlineStyle
  2
Standard
 70
     0
  3

 62
   256
 51
90.0
 52
90.0
 71
     2
 49
0.5
 62
   256
  6
BYLAYER
 49
-0.5
 62
   256
  6
BYLAYER
  0
ACDBPLACEHOLDER
  5
F
102
{ACAD_REACTORS
330
E
102
}
330
E
  0
SCALE
  5
48
102
{ACAD_REACTORS
330
47
102
}
330
47
100
AcDbScale
 70
     0
300
1:1
140
1.0
141
1.0
290
     1
  0
SCALE
  5
49
102
{ACAD_REACTORS
330
47
102
}
330
47
100
AcDbScale
 70
     0
300
1:2
140
1.0
141
2.0
290
     0
  0
SCALE
  5
4A
102
{ACAD_REACTORS
330
47
102
}
330
47
100
AcDbScale
 70
     0
300
1:4
140
1.0
141
4.0
290
     0
  0
SCALE
  5
4B
102
{ACAD_REACTORS
330
47
102
}
330
47
100
AcDbScale
 70
     0
300
1:5
140
1.0
141
5.0
290
     0
  0
SCALE
  5
4C
102
{ACAD_REACTORS
330
47
102
}
330
47
100
AcDbScale
 70
     0
300
1:8
140
1.0
141
8.0
290
     0
  0
SCALE
  5
4D
102
{ACAD_REACTORS
330
47
102
}
330
47
100
AcDbScale
 70
     0
300
1:10
140
1.0
141
10.0
290
     0
  0
SCALE
  5
4E
102
{ACAD_REACTORS
330
47
102
}
330
47
100
AcDbScale
 70
     0
300
1:16
140
1.0
141
16.0
290
     0
  0
SCALE
  5
4F
102
{ACAD_REACTORS
330
47
102
}
330
47
100
AcDbScale
 70
     0
300
1:20
140
1.0
141
20.0
290
     0
  0
SCALE
  5
50
102
{ACAD_REACTORS
330
47
102
}
330
47
100
AcDbScale
 70
     0
300
1:30
140
1.0
141
30.0
290
     0
  0
SCALE
  5
51
102
{ACAD_REACTORS
330
47
102
}
330
47
100
AcDbScale
 70
     0
300
1:40
140
1.0
141
40.0
290
     0
  0
SCALE
  5
52
102
{ACAD_REACTORS
330
47
102
}
330
47
100
AcDbScale
 70
     0
300
1:50
140
1.0
141
50.0
290
     0
  0
SCALE
  5
53
102
{ACAD_REACTORS
330
47
102
}
330
47
100
AcDbScale
 70
     0
300
1:100
140
1.0
141
100.0
290
     0
  0
SCALE
  5
54
102
{ACAD_REACTORS
330
47
102
}
330
47
100
AcDbScale
 70
     0
300
2:1
140
2.0
141
1.0
290
     0
  0
SCALE
  5
55
102
{ACAD_REACTORS
330
47
102
}
330
47
100
AcDbScale
 70
     0
300
4:1
140
4.0
141
1.0
290
     0
  0
SCALE
  5
56
102
{ACAD_REACTORS
330
47
102
}
330
47
100
AcDbScale
 70
     0
300
8:1
140
8.0
141
1.0
290
     0
  0
SCALE
  5
57
102
{ACAD_REACTORS
330
47
102
}
330
47
100
AcDbScale
 70
     0
300
10:1
140
10.0
141
1.0
290
     0
  0
SCALE
  5
58
102
{ACAD_REACTORS
330
47
102
}
330
47
100
AcDbScale
 70
     0
300
100:1
140
100.0
141
1.0
290
     0
  0
SCALE
  5
59
102
{ACAD_REACTORS
330
47
102
}
330
47
100
AcDbScale
 70
     0
300
1/128" = 1'-0"
140
0.0078125
141
12.0
290
     0
  0
SCALE
  5
5A
102
{ACAD_REACTORS
330
47
102
}
330
47
100
AcDbScale
 70
     0
300
1/64" = 1'-0"
140
0.015625
141
12.0
290
     0
  0
SCALE
  5
5B
102
{ACAD_REACTORS
330
47
102
}
330
47
100
AcDbScale
 70
     0
300
1/32" = 1'-0"
140
0.03125
141
12.0
290
     0
  0
SCALE
  5
5C
102
{ACAD_REACTORS
330
47
102
}
330
47
100
AcDbScale
 70
     0
300
1/16" = 1'-0"
140
0.0625
141
12.0
290
     0
  0
SCALE
  5
5D
102
{ACAD_REACTORS
330
47
102
}
330
47
100
AcDbScale
 70
     0
300
3/32" = 1'-0"
140
0.09375
141
12.0
290
     0
  0
SCALE
  5
5E
102
{ACAD_REACTORS
330
47
102
}
330
47
100
AcDbScale
 70
     0
300
1/8" = 1'-0"
140
0.125
141
12.0
290
     0
  0
SCALE
  5
5F
102
{ACAD_REACTORS
330
47
102
}
330
47
100
AcDbScale
 70
     0
300
3/16" = 1'-0"
140
0.1875
141
12.0
290
     0
  0
SCALE
  5
60
102
{ACAD_REACTORS
330
47
102
}
330
47
100
AcDbScale
 70
     0
300
1/4" = 1'-0"
140
0.25
141
12.0
290
     0
  0
SCALE
  5
61
102
{ACAD_REACTORS
330
47
102
}
330
47
100
AcDbScale
 70
     0
300
3/8" = 1'-0"
140
0.375
141
12.0
290
     0
  0
SCALE
  5
62
102
{ACAD_REACTORS
330
47
102
}
330
47
100
AcDbScale
 70
     0
300
1/2" = 1'-0"
140
0.5
141
12.0
290
     0
  0
SCALE
  5
63
102
{ACAD_REACTORS
330
47
102
}
330
47
100
AcDbScale
 70
     0
300
3/4" = 1'-0"
140
0.75
141
12.0
290
     0
  0
SCALE
  5
64
102
{ACAD_REACTORS
330
47
102
}
330
47
100
AcDbScale
 70
     0
300
1" = 1'-0"
140
1.0
141
12.0
290
     0
  0
SCALE
  5
65
102
{ACAD_REACTORS
330
47
102
}
330
47
100
AcDbScale
 70
     0
300
1-1/2" = 1'-0"
140
1.5
141
12.0
290
     0
  0
SCALE
  5
66
102
{ACAD_REACTORS
330
47
102
}
330
47
100
AcDbScale
 70
     0
300
3" = 1'-0"
140
3.0
141
12.0
290
     0
  0
SCALE
  5
67
102
{ACAD_REACTORS
330
47
102
}
330
47
100
AcDbScale
 70
     0
300
6" = 1'-0"
140
6.0
141
12.0
290
     0
  0
SCALE
  5
68
102
{ACAD_REACTORS
330
47
102
}
330
47
100
AcDbScale
 70
     0
300
1'-0" = 1'-0"
140
12.0
141
12.0
290
     0
  0
TABLESTYLE
  5
6A
102
{ACAD_REACTORS
330
69
102
}
102
{ACAD_XDICTIONARY
360
375
102
}
330
69
100
AcDbTableStyle
  3
Standard
 70
     0
 71
     0
 40
0.06
 41
0.06
280
     0
281
     0
  7
Standard
140
0.18
170
     2
 62
     0
 63
   257
283
     0
274
    -2
284
     1
 64
     0
275
    -2
285
     1
 65
     0
276
    -2
286
     1
 66
     0
277
    -2
287
     1
 67
     0
278
    -2
288
     1
 68
     0
279
    -2
289
     1
 69
     0
  7
Standard
140
0.25
170
     5
 62
     0
 63
   257
283
     0
274
    -2
284
     1
 64
     0
275
    -2
285
     1
 65
     0
276
    -2
286
     1
 66
     0
277
    -2
287
     1
 67
     0
278
    -2
288
     1
 68
     0
279
    -2
289
     1
 69
     0
  7
Standard
140
0.18
170
     5
 62
     0
 63
   257
283
     0
274
    -2
284
     1
 64
     0
275
    -2
285
     1
 65
     0
276
    -2
286
     1
 66
     0
277
    -2
287
     1
 67
     0
278
    -2
288
     1
 68
     0
279
    -2
289
     1
 69
     0
  0
VISUALSTYLE
  5
2F
102
{ACAD_REACTORS
330
2A
102
}
102
{ACAD_XDICTIONARY
360
347
102
}
330
2A
100
AcDbVisualStyle
  2
2dWireframe
 70
     4
 71
     0
 72
     2
 73
     0
 90
        0
 40
0.6
 41
30.0
 62
     5
 63
     7
421
 16777215
 74
     1
 91
        4
 64
     7
 65
   257
 75
     1
175
     1
 42
1.0
 92
        0
 66
   257
 43
1.0
 76
     1
 77
     6
 78
     2
 67
     7
 79
     5
170
     0
171
     0
290
     0
174
     0
 93
        1
 44
0.0
173
     0
291
     0
 45
0.0
1001
ACAD
1000
AcDbSavedByObjectVersion
1070
     0
  0
VISUALSTYLE
  5
32
102
{ACAD_REACTORS
330
2A
102
}
102
{ACAD_XDICTIONARY
360
34D
102
}
330
2A
100
AcDbVisualStyle
  2
Basic
 70
     7
 71
     1
 72
     0
 73
     1
 90
        0
 40
0.6
 41
30.0
 62
     5
 63
     7
421
 16777215
 74
     0
 91
        4
 64
     7
 65
   257
 75
     1
175
     1
 42
1.0
 92
        8
 66
     7
 43
1.0
 76
     1
 77
     6
 78
     2
 67
     7
 79
     5
170
     0
171
     0
290
     0
174
     0
 93
        1
 44
0.0
173
     0
291
     1
 45
0.0
1001
ACAD
1000
AcDbSavedByObjectVersion
1070
     0
  0
VISUALSTYLE
  5
36
102
{ACAD_REACTORS
330
2A
102
}
102
{ACAD_XDICTIONARY
360
355
102
}
330
2A
100
AcDbVisualStyle
  2
Brighten
 70
    12
 71
     2
 72
     2
 73
     0
 90
        0
 40
0.6
 41
30.0
 62
     5
 63
     7
421
 16777215
 74
     1
 91
        4
 64
     7
 65
   257
 75
     1
175
     1
 42
1.0
 92
        8
 66
     7
 43
1.0
 76
     1
 77
     6
 78
     2
 67
     7
 79
     5
170
     0
171
     0
290
     0
174
     0
 93
        1
 44
50.0
173
     0
291
     1
 45
0.0
1001
ACAD
1000
AcDbSavedByObjectVersion
1070
     0
  0
VISUALSTYLE
  5
3A
102
{ACAD_REACTORS
330
2A
102
}
102
{ACAD_XDICTIONARY
360
35D
102
}
330
2A
100
AcDbVisualStyle
  2
ColorChange
 70
    16
 71
     2
 72
     2
 73
     3
 90
        0
 40
0.6
 41
30.0
 62
     5
 63
     8
421
  8421504
 74
     1
 91
        4
 64
     7
 65
   257
 75
     1
175
     1
 42
1.0
 92
        8
 66
     8
424
  8421504
 43
1.0
 76
     1
 77
     6
 78
     2
 67
     7
 79
     5
170
     0
171
     0
290
     0
174
     0
 93
        1
 44
0.0
173
     0
291
     1
 45
0.0
1001
ACAD
1000
AcDbSavedByObjectVersion
1070
     0
  0
VISUALSTYLE
  5
34
102
{ACAD_REACTORS
330
2A
102
}
102
{ACAD_XDICTIONARY
360
351
102
}
330
2A
100
AcDbVisualStyle
  2
Conceptual
 70
     9
 71
     3
 72
     2
 73
     0
 90
        0
 40
0.6
 41
30.0
 62
     5
 63
     7
421
 16777215
 74
     2
 91
        2
 64
     7
 65
   257
 75
     1
175
     1
 42
179.0
 92
        8
 66
     7
 43
1.0
 76
     1
 77
     6
 78
     2
 67
     7
 79
     3
170
     0
171
     0
290
     0
174
     0
 93
        1
 44
0.0
173
     0
291
     0
 45
0.0
1001
ACAD
1000
AcDbSavedByObjectVersion
1070
     0
  0
VISUALSTYLE
  5
35
102
{ACAD_REACTORS
330
2A
102
}
102
{ACAD_XDICTIONARY
360
353
102
}
330
2A
100
AcDbVisualStyle
  2
Dim
 70
    11
 71
     2
 72
     2
 73
     0
 90
        0
 40
0.6
 41
30.0
 62
     5
 63
     7
421
 16777215
 74
     1
 91
        4
 64
     7
 65
   257
 75
     1
175
     1
 42
1.0
 92
        8
 66
     7
 43
1.0
 76
     1
 77
     6
 78
     2
 67
     7
 79
     5
170
     0
171
     0
290
     0
174
     0
 93
        1
 44
-50.0
173
     0
291
     1
 45
0.0
1001
ACAD
1000
AcDbSavedByObjectVersion
1070
     0
  0
VISUALSTYLE
  5
3D
102
{ACAD_REACTORS
330
2A
102
}
102
{ACAD_XDICTIONARY
360
363
102
}
330
2A
100
AcDbVisualStyle
  2
EdgeColorOff
 70
    22
 71
     2
 72
     2
 73
     0
 90
        0
 40
0.6
 41
30.0
 62
     5
 63
     7
421
 16777215
 74
     1
 91
        4
 64
     7
 65
   257
 75
     1
175
     1
 42
1.0
 92
        8
 66
     7
 43
1.0
 76
     1
 77
     6
 78
     2
 67
     7
 79
     5
170
     0
171
     0
290
     0
174
     0
 93
        1
 44
0.0
173
     0
291
     1
 45
0.0
1001
ACAD
1000
AcDbSavedByObjectVersion
1070
     0
  0
VISUALSTYLE
  5
39
102
{ACAD_REACTORS
330
2A
102
}
102
{ACAD_XDICTIONARY
360
35B
102
}
330
2A
100
AcDbVisualStyle
  2
Facepattern
 70
    15
 71
     2
 72
     2
 73
     0
 90
        0
 40
0.6
 41
30.0
 62
     5
 63
     7
421
 16777215
 74
     1
 91
        4
 64
     7
 65
   257
 75
     1
175
     1
 42
1.0
 92
        8
 66
     7
 43
1.0
 76
     1
 77
     6
 78
     2
 67
     7
 79
     5
170
     0
171
     0
290
     0
174
     0
 93
        1
 44
0.0
173
     0
291
     1
 45
0.0
1001
ACAD
1000
AcDbSavedByObjectVersion
1070
     0
  0
VISUALSTYLE
  5
2B
102
{ACAD_REACTORS
330
2A
102
}
102
{ACAD_XDICTIONARY
360
33F
102
}
330
2A
100
AcDbVisualStyle
  2
Flat
 70
     0
 71
     2
 72
     1
 73
     1
 90
        2
 40
0.6
 41
30.0
 62
     5
 63
     7
421
 16777215
 74
     0
 91
        0
 64
     7
 65
   257
 75
     1
175
     1
 42
1.0
 92
        8
 66
     7
 43
1.0
 76
     1
 77
     6
 78
     2
 67
     7
 79
     5
170
     0
171
     0
290
     0
174
     0
 93
       13
 44
0.0
173
     0
291
     1
 45
0.0
1001
ACAD
1000
AcDbSavedByObjectVersion
1070
     0
  0
VISUALSTYLE
  5
2C
102
{ACAD_REACTORS
330
2A
102
}
102
{ACAD_XDICTIONARY
360
341
102
}
330
2A
100
AcDbVisualStyle
  2
FlatWithEdges
 70
     1
 71
     2
 72
     1
 73
     1
 90
        2
 40
0.6
 41
30.0
 62
     5
 63
     7
421
 16777215
 74
     1
 91
        0
 64
     7
 65
   257
 75
     1
175
     1
 42
1.0
 92
        0
 66
   257
 43
1.0
 76
     1
 77
     6
 78
     2
 67
     7
 79
     5
170
     0
171
     0
290
     0
174
     0
 93
       13
 44
0.0
173
     0
291
     1
 45
0.0
1001
ACAD
1000
AcDbSavedByObjectVersion
1070
     0
  0
VISUALSTYLE
  5
2D
102
{ACAD_REACTORS
330
2A
102
}
102
{ACAD_XDICTIONARY
360
343
102
}
330
2A
100
AcDbVisualStyle
  2
Gouraud
 70
     2
 71
     2
 72
     2
 73
     1
 90
        2
 40
0.6
 41
30.0
 62
     5
 63
     7
421
 16777215
 74
     0
 91
        0
 64
     7
 65
   257
 75
     1
175
     1
 42
1.0
 92
        0
 66
     7
 43
1.0
 76
     1
 77
     6
 78
     2
 67
     7
 79
     5
170
     0
171
     0
290
     0
174
     0
 93
       13
 44
0.0
173
     0
291
     1
 45
0.0
1001
ACAD
1000
AcDbSavedByObjectVersion
1070
     0
  0
VISUALSTYLE
  5
2E
102
{ACAD_REACTORS
330
2A
102
}
102
{ACAD_XDICTIONARY
360
345
102
}
330
2A
100
AcDbVisualStyle
  2
GouraudWithEdges
 70
     3
 71
     2
 72
     2
 73
     1
 90
        2
 40
0.6
 41
30.0
 62
     5
 63
     7
421
 16777215
 74
     1
 91
        0
 64
     7
 65
   257
 75
     1
175
     1
 42
1.0
 92
        0
 66
   257
 43
1.0
 76
     1
 77
     6
 78
     2
 67
     7
 79
     5
170
     0
171
     0
290
     0
174
     0
 93
       13
 44
0.0
173
     0
291
     1
 45
0.0
1001
ACAD
1000
AcDbSavedByObjectVersion
1070
     0
  0
VISUALSTYLE
  5
31
102
{ACAD_REACTORS
330
2A
102
}
102
{ACAD_XDICTIONARY
360
34B
102
}
330
2A
100
AcDbVisualStyle
  2
Hidden
 70
     6
 71
     1
 72
     2
 73
     2
 90
        0
 40
0.6
 41
30.0
 62
     5
 63
     7
421
 16777215
 74
     2
 91
        2
 64
     7
 65
   257
 75
     2
175
     1
 42
40.0
 92
        0
 66
   257
 43
1.0
 76
     1
 77
     6
 78
     2
 67
     7
 79
     3
170
     0
171
     0
290
     0
174
     0
 93
        1
 44
0.0
173
     0
291
     0
 45
0.0
1001
ACAD
1000
AcDbSavedByObjectVersion
1070
     0
  0
VISUALSTYLE
  5
3B
102
{ACAD_REACTORS
330
2A
102
}
102
{ACAD_XDICTIONARY
360
35F
102
}
330
2A
100
AcDbVisualStyle
  2
JitterOff
 70
    20
 71
     2
 72
     2
 73
     0
 90
        0
 40
0.6
 41
30.0
 62
     5
 63
     7
421
 16777215
 74
     1
 91
        4
 64
     7
 65
   257
 75
     1
175
     1
 42
1.0
 92
       10
 66
     7
 43
1.0
 76
     1
 77
     6
 78
     2
 67
     7
 79
     5
170
     0
171
     0
290
     0
174
     0
 93
        1
 44
0.0
173
     0
291
     1
 45
0.0
1001
ACAD
1000
AcDbSavedByObjectVersion
1070
     0
  0
VISUALSTYLE
  5
38
102
{ACAD_REACTORS
330
2A
102
}
102
{ACAD_XDICTIONARY
360
359
102
}
330
2A
100
AcDbVisualStyle
  2
Linepattern
 70
    14
 71
     2
 72
     2
 73
     0
 90
        0
 40
0.6
 41
30.0
 62
     5
 63
     7
421
 16777215
 74
     1
 91
        4
 64
     7
 65
   257
 75
     7
175
     7
 42
1.0
 92
        8
 66
     7
 43
1.0
 76
     1
 77
     6
 78
     2
 67
     7
 79
     5
170
     0
171
     0
290
     0
174
     0
 93
        1
 44
0.0
173
     0
291
     1
 45
0.0
1001
ACAD
1000
AcDbSavedByObjectVersion
1070
     0
  0
VISUALSTYLE
  5
3C
102
{ACAD_REACTORS
330
2A
102
}
102
{ACAD_XDICTIONARY
360
361
102
}
330
2A
100
AcDbVisualStyle
  2
OverhangOff
 70
    21
 71
     2
 72
     2
 73
     0
 90
        0
 40
0.6
 41
30.0
 62
     5
 63
     7
421
 16777215
 74
     1
 91
        4
 64
     7
 65
   257
 75
     1
175
     1
 42
1.0
 92
        9
 66
     7
 43
1.0
 76
     1
 77
     6
 78
     2
 67
     7
 79
     5
170
     0
171
     0
290
     0
174
     0
 93
        1
 44
0.0
173
     0
291
     1
 45
0.0
1001
ACAD
1000
AcDbSavedByObjectVersion
1070
     0
  0
VISUALSTYLE
  5
33
102
{ACAD_REACTORS
330
2A
102
}
102
{ACAD_XDICTIONARY
360
34F
102
}
330
2A
100
AcDbVisualStyle
  2
Realistic
 70
     8
 71
     2
 72
     3
 73
     0
 90
        2
 40
0.6
 41
30.0
 62
     5
 63
     7
421
 16777215
 74
     0
 91
        0
 64
     7
 65
   257
 75
     1
175
     1
 42
1.0
 92
        8
 66
   257
 43
1.0
 76
     1
 77
     6
 78
     2
 67
     7
 79
     3
170
     0
171
     0
290
     0
174
     0
 93
       13
 44
0.0
173
     0
291
     0
 45
0.0
1001
ACAD
1000
AcDbSavedByObjectVersion
1070
     0
  0
VISUALSTYLE
  5
42
102
{ACAD_REACTORS
330
2A
102
}
102
{ACAD_XDICTIONARY
360
36D
102
}
330
2A
100
AcDbVisualStyle
  2
Shaded
 70
    27
 71
     2
 72
     2
 73
     1
 90
        2
 40
0.6
 41
30.0
 62
     5
 63
     7
421
 16777215
 74
     0
 91
        4
 64
     7
 65
   257
 75
     1
175
     1
 42
1.0
 92
        8
 66
   257
 43
1.0
 76
     1
 77
     6
 78
     2
 67
     8
425
  7895160
 79
     3
170
     0
171
     0
290
     0
174
     0
 93
        5
 44
0.0
173
     0
291
     0
 45
0.0
1001
ACAD
1000
AcDbSavedByObjectVersion
1070
     0
  0
VISUALSTYLE
  5
41
102
{ACAD_REACTORS
330
2A
102
}
102
{ACAD_XDICTIONARY
360
36B
102
}
330
2A
100
AcDbVisualStyle
  2
Shaded with edges
 70
    26
 71
     2
 72
     2
 73
     1
 90
        2
 40
0.6
 41
30.0
 62
     5
 63
     7
421
 16777215
 74
     1
 91
       10
 64
     7
 65
   257
 75
     2
175
     1
 42
1.0
 92
        8
 66
   257
 43
1.0
 76
     1
 77
     6
 78
     2
 67
     7
 79
     3
170
     0
171
     0
290
     0
174
     0
 93
        5
 44
0.0
173
     0
291
     0
 45
0.0
1001
ACAD
1000
AcDbSavedByObjectVersion
1070
     0
  0
VISUALSTYLE
  5
3E
102
{ACAD_REACTORS
330
2A
102
}
102
{ACAD_XDICTIONARY
360
365
102
}
330
2A
100
AcDbVisualStyle
  2
Shades of Gray
 70
    23
 71
     2
 72
     2
 73
     3
 90
        0
 40
0.6
 41
30.0
 62
     5
 63
     7
421
 16777215
 74
     2
 91
        2
 64
     7
 65
     7
 75
     1
175
     1
 42
40.0
 92
        8
 66
     7
 43
1.0
 76
     1
 77
     6
 78
     2
 67
     7
 79
     3
170
     0
171
     0
290
     0
174
     0
 93
        1
 44
0.0
173
     0
291
     0
 45
0.0
1001
ACAD
1000
AcDbSavedByObjectVersion
1070
     0
  0
VISUALSTYLE
  5
3F
102
{ACAD_REACTORS
330
2A
102
}
102
{ACAD_XDICTIONARY
360
367
102
}
330
2A
100
AcDbVisualStyle
  2
Sketchy
 70
    24
 71
     1
 72
     2
 73
     2
 90
        0
 40
0.6
 41
30.0
 62
     5
 63
     7
421
 16777215
 74
     2
 91
        2
 64
     7
 65
     7
 75
     1
175
     1
 42
40.0
 92
       11
 66
     7
 43
1.0
 76
     1
 77
     6
 78
     2
 67
     7
 79
     6
170
     0
171
     0
290
     0
174
     0
 93
        1
 44
0.0
173
     0
291
     0
 45
0.0
1001
ACAD
1000
AcDbSavedByObjectVersion
1070
     0
  0
VISUALSTYLE
  5
37
102
{ACAD_REACTORS
330
2A
102
}
102
{ACAD_XDICTIONARY
360
357
102
}
330
2A
100
AcDbVisualStyle
  2
Thicken
 70
    13
 71
     2
 72
     2
 73
     0
 90
        0
 40
0.6
 41
30.0
 62
     5
 63
     7
421
 16777215
 74
     1
 91
        4
 64
     7
 65
   257
 75
     1
175
     1
 42
1.0
 92
       12
 66
     7
 43
1.0
 76
     1
 77
     6
 78
     2
 67
     7
 79
     5
170
     0
171
     0
290
     0
174
     0
 93
        1
 44
0.0
173
     0
291
     1
 45
0.0
1001
ACAD
1000
AcDbSavedByObjectVersion
1070
     0
  0
VISUALSTYLE
  5
30
102
{ACAD_REACTORS
330
2A
102
}
102
{ACAD_XDICTIONARY
360
349
102
}
330
2A
100
AcDbVisualStyle
  2
Wireframe
 70
     5
 71
     0
 72
     2
 73
     0
 90
        0
 40
0.6
 41
30.0
 62
     5
 63
     7
421
 16777215
 74
     1
 91
        4
 64
     7
 65
   257
 75
     1
175
     1
 42
1.0
 92
        0
 66
   257
 43
1.0
 76
     1
 77
     6
 78
     2
 67
     7
 79
     3
170
     0
171
     0
290
     0
174
     0
 93
        1
 44
0.0
173
     0
291
     0
 45
0.0
1001
ACAD
1000
AcDbSavedByObjectVersion
1070
     0
  0
VISUALSTYLE
  5
40
102
{ACAD_REACTORS
330
2A
102
}
102
{ACAD_XDICTIONARY
360
369
102
}
330
2A
100
AcDbVisualStyle
  2
X-Ray
 70
    25
 71
     2
 72
     2
 73
     1
 90
        1
 40
0.5
 41
30.0
 62
     5
 63
     7
421
 16777215
 74
     1
 91
        0
 64
     7
 65
   257
 75
     1
175
     1
 42
1.0
 92
        8
 66
     7
 43
1.0
 76
     1
 77
     6
 78
     2
 67
     7
 79
     3
170
     0
171
     0
290
     0
174
     0
 93
       13
 44
0.0
173
     0
291
     0
 45
0.0
1001
ACAD
1000
AcDbSavedByObjectVersion
1070
     0
  0
DICTIONARYVAR
  5
33C
102
{ACAD_REACTORS
330
33B
102
}
330
33B
100
DictionaryVariables
280
     0
  1
1:1
  0
DICTIONARYVAR
  5
37D
102
{ACAD_REACTORS
330
33B
102
}
330
33B
100
DictionaryVariables
280
     0
  1
Standard
  0
DICTIONARYVAR
  5
37C
102
{ACAD_REACTORS
330
33B
102
}
330
33B
100
DictionaryVariables
280
     0
  1
Standard
  0
DICTIONARYVAR
  5
33D
102
{ACAD_REACTORS
330
33B
102
}
330
33B
100
DictionaryVariables
280
     0
  1
1
  0
DICTIONARYVAR
  5
33E
102
{ACAD_REACTORS
330
33B
102
}
330
33B
100
DictionaryVariables
280
     0
  1
2
  0
DICTIONARY
  5
371
330
45
100
AcDbDictionary
280
     1
281
     1
  3
ACAD_XREC_ROUNDTRIP
360
372
  0
DICTIONARY
  5
36F
330
44
100
AcDbDictionary
280
     1
281
     1
  3
ACAD_XREC_ROUNDTRIP
360
370
  0
DICTIONARY
  5
373
330
46
100
AcDbDictionary
280
     1
281
     1
  3
ACAD_XREC_ROUNDTRIP
360
374
  0
DICTIONARY
  5
379
330
6C
100
AcDbDictionary
280
     1
281
     1
  3
ACAD_XREC_ROUNDTRIP
360
37A
  0
DICTIONARY
  5
375
330
6A
100
AcDbDictionary
280
     1
281
     1
  3
ACAD_ROUNDTRIP_2008_TABLESTYLE_CELLSTYLEMAP
360
377
  3
ACAD_XREC_ROUNDTRIP
360
376
  0
DICTIONARY
  5
347
330
2F
100
AcDbDictionary
280
     1
281
     1
  3
ACAD_XREC_ROUNDTRIP
360
348
  0
DICTIONARY
  5
34D
330
32
100
AcDbDictionary
280
     1
281
     1
  3
ACAD_XREC_ROUNDTRIP
360
34E
  0
DICTIONARY
  5
355
330
36
100
AcDbDictionary
280
     1
281
     1
  3
ACAD_XREC_ROUNDTRIP
360
356
  0
DICTIONARY
  5
35D
330
3A
100
AcDbDictionary
280
     1
281
     1
  3
ACAD_XREC_ROUNDTRIP
360
35E
  0
DICTIONARY
  5
351
330
34
100
AcDbDictionary
280
     1
281
     1
  3
ACAD_XREC_ROUNDTRIP
360
352
  0
DICTIONARY
  5
353
330
35
100
AcDbDictionary
280
     1
281
     1
  3
ACAD_XREC_ROUNDTRIP
360
354
  0
DICTIONARY
  5
363
330
3D
100
AcDbDictionary
280
     1
281
     1
  3
ACAD_XREC_ROUNDTRIP
360
364
  0
DICTIONARY
  5
35B
330
39
100
AcDbDictionary
280
     1
281
     1
  3
ACAD_XREC_ROUNDTRIP
360
35C
  0
DICTIONARY
  5
33F
330
2B
100
AcDbDictionary
280
     1
281
     1
  3
ACAD_XREC_ROUNDTRIP
360
340
  0
DICTIONARY
  5
341
330
2C
100
AcDbDictionary
280
     1
281
     1
  3
ACAD_XREC_ROUNDTRIP
360
342
  0
DICTIONARY
  5
343
330
2D
100
AcDbDictionary
280
     1
281
     1
  3
ACAD_XREC_ROUNDTRIP
360
344
  0
DICTIONARY
  5
345
330
2E
100
AcDbDictionary
280
     1
281
     1
  3
ACAD_XREC_ROUNDTRIP
360
346
  0
DICTIONARY
  5
34B
330
31
100
AcDbDictionary
280
     1
281
     1
  3
ACAD_XREC_ROUNDTRIP
360
34C
  0
DICTIONARY
  5
35F
330
3B
100
AcDbDictionary
280
     1
281
     1
  3
ACAD_XREC_ROUNDTRIP
360
360
  0
DICTIONARY
  5
359
330
38
100
AcDbDictionary
280
     1
281
     1
  3
ACAD_XREC_ROUNDTRIP
360
35A
  0
DICTIONARY
  5
361
330
3C
100
AcDbDictionary
280
     1
281
     1
  3
ACAD_XREC_ROUNDTRIP
360
362
  0
DICTIONARY
  5
34F
330
33
100
AcDbDictionary
280
     1
281
     1
  3
ACAD_XREC_ROUNDTRIP
360
350
  0
DICTIONARY
  5
36D
330
42
100
AcDbDictionary
280
     1
281
     1
  3
ACAD_XREC_ROUNDTRIP
360
36E
  0
DICTIONARY
  5
36B
330
41
100
AcDbDictionary
280
     1
281
     1
  3
ACAD_XREC_ROUNDTRIP
360
36C
  0
DICTIONARY
  5
365
330
3E
100
AcDbDictionary
280
     1
281
     1
  3
ACAD_XREC_ROUNDTRIP
360
366
  0
DICTIONARY
  5
367
330
3F
100
AcDbDictionary
280
     1
281
     1
  3
ACAD_XREC_ROUNDTRIP
360
368
  0
DICTIONARY
  5
357
330
37
100
AcDbDictionary
280
     1
281
     1
  3
ACAD_XREC_ROUNDTRIP
360
358
  0
DICTIONARY
  5
349
330
30
100
AcDbDictionary
280
     1
281
     1
  3
ACAD_XREC_ROUNDTRIP
360
34A
  0
DICTIONARY
  5
369
330
40
100
AcDbDictionary
280
     1
281
     1
  3
ACAD_XREC_ROUNDTRIP
360
36A
  0
XRECORD
  5
372
102
{ACAD_REACTORS
330
371
102
}
330
371
100
AcDbXrecord
280
     1
102
MATERIAL
148
0.0
149
0.0
149
0.0
 93
        0
 94
      127
282
     0
 72
     1
 77
     1
171
     1
175
     1
179
     1
273
     0
  0
XRECORD
  5
370
102
{ACAD_REACTORS
330
36F
102
}
330
36F
100
AcDbXrecord
280
     1
102
MATERIAL
148
0.0
149
0.0
149
0.0
 93
        0
 94
      127
282
     0
 72
     1
 77
     1
171
     1
175
     1
179
     1
273
     0
  0
XRECORD
  5
374
102
{ACAD_REACTORS
330
373
102
}
330
373
100
AcDbXrecord
280
     1
102
MATERIAL
148
0.0
149
0.0
149
0.0
 93
        0
 94
      127
282
     0
 72
     1
 77
     1
171
     1
175
     1
179
     1
273
     0
  0
XRECORD
  5
37A
102
{ACAD_REACTORS
330
379
102
}
330
379
100
AcDbXrecord
280
     1
102
ACAD_ROUNDTRIP_2010_MLEADER_STYLE
  0
CELLSTYLEMAP
  5
377
102
{ACAD_REACTORS
330
375
102
}
330
375
100
AcDbCellStyleMap
 90
        3
300
CELLSTYLE
  1
TABLEFORMAT_BEGIN
 90
        5
170
     1
 91
        0
 92
    32768
 62
   257
 93
        1
300
CONTENTFORMAT
  1
CONTENTFORMAT_BEGIN
 90
        0
 91
        0
 92
        4
 93
        0
300

 40
0.0
140
1.0
 94
        5
 62
     0
340
11
144
0.25
309
CONTENTFORMAT_END
171
     1
301
MARGIN
  1
CELLMARGIN_BEGIN
 40
0.06
 40
0.06
 40
0.06
 40
0.06
 40
0.06
 40
0.06
309
CELLMARGIN_END
 94
        6
 95
        1
302
GRIDFORMAT
  1
GRIDFORMAT_BEGIN
 90
        0
 91
        1
 62
     0
 92
       -2
340
14
 93
        0
 40
0.045
309
GRIDFORMAT_END
 95
        2
302
GRIDFORMAT
  1
GRIDFORMAT_BEGIN
 90
        0
 91
        1
 62
     0
 92
       -2
340
14
 93
        0
 40
0.045
309
GRIDFORMAT_END
 95
        4
302
GRIDFORMAT
  1
GRIDFORMAT_BEGIN
 90
        0
 91
        1
 62
     0
 92
       -2
340
14
 93
        0
 40
0.045
309
GRIDFORMAT_END
 95
        8
302
GRIDFORMAT
  1
GRIDFORMAT_BEGIN
 90
        0
 91
        1
 62
     0
 92
       -2
340
14
 93
        0
 40
0.045
309
GRIDFORMAT_END
 95
       16
302
GRIDFORMAT
  1
GRIDFORMAT_BEGIN
 90
        0
 91
        1
 62
     0
 92
       -2
340
14
 93
        0
 40
0.045
309
GRIDFORMAT_END
 95
       32
302
GRIDFORMAT
  1
GRIDFORMAT_BEGIN
 90
        0
 91
        1
 62
     0
 92
       -2
340
14
 93
        0
 40
0.045
309
GRIDFORMAT_END
309
TABLEFORMAT_END
  1
CELLSTYLE_BEGIN
 90
        1
 91
        1
300
_TITLE
309
CELLSTYLE_END
300
CELLSTYLE
  1
TABLEFORMAT_BEGIN
 90
        5
170
     1
 91
        0
 92
        0
 62
   257
 93
        1
300
CONTENTFORMAT
  1
CONTENTFORMAT_BEGIN
 90
        0
 91
        0
 92
        4
 93
        0
300

 40
0.0
140
1.0
 94
        5
 62
     0
340
11
144
0.18
309
CONTENTFORMAT_END
171
     1
301
MARGIN
  1
CELLMARGIN_BEGIN
 40
0.06
 40
0.06
 40
0.06
 40
0.06
 40
0.06
 40
0.06
309
CELLMARGIN_END
 94
        6
 95
        1
302
GRIDFORMAT
  1
GRIDFORMAT_BEGIN
 90
        0
 91
        1
 62
     0
 92
       -2
340
14
 93
        0
 40
0.045
309
GRIDFORMAT_END
 95
        2
302
GRIDFORMAT
  1
GRIDFORMAT_BEGIN
 90
        0
 91
        1
 62
     0
 92
       -2
340
14
 93
        0
 40
0.045
309
GRIDFORMAT_END
 95
        4
302
GRIDFORMAT
  1
GRIDFORMAT_BEGIN
 90
        0
 91
        1
 62
     0
 92
       -2
340
14
 93
        0
 40
0.045
309
GRIDFORMAT_END
 95
        8
302
GRIDFORMAT
  1
GRIDFORMAT_BEGIN
 90
        0
 91
        1
 62
     0
 92
       -2
340
14
 93
        0
 40
0.045
309
GRIDFORMAT_END
 95
       16
302
GRIDFORMAT
  1
GRIDFORMAT_BEGIN
 90
        0
 91
        1
 62
     0
 92
       -2
340
14
 93
        0
 40
0.045
309
GRIDFORMAT_END
 95
       32
302
GRIDFORMAT
  1
GRIDFORMAT_BEGIN
 90
        0
 91
        1
 62
     0
 92
       -2
340
14
 93
        0
 40
0.045
309
GRIDFORMAT_END
309
TABLEFORMAT_END
  1
CELLSTYLE_BEGIN
 90
        2
 91
        1
300
_HEADER
309
CELLSTYLE_END
300
CELLSTYLE
  1
TABLEFORMAT_BEGIN
 90
        5
170
     1
 91
        0
 92
        0
 62
   257
 93
        1
300
CONTENTFORMAT
  1
CONTENTFORMAT_BEGIN
 90
        0
 91
        0
 92
        4
 93
        0
300

 40
0.0
140
1.0
 94
        2
 62
     0
340
11
144
0.18
309
CONTENTFORMAT_END
171
     1
301
MARGIN
  1
CELLMARGIN_BEGIN
 40
0.06
 40
0.06
 40
0.06
 40
0.06
 40
0.06
 40
0.06
309
CELLMARGIN_END
 94
        6
 95
        1
302
GRIDFORMAT
  1
GRIDFORMAT_BEGIN
 90
        0
 91
        1
 62
     0
 92
       -2
340
14
 93
        0
 40
0.045
309
GRIDFORMAT_END
 95
        2
302
GRIDFORMAT
  1
GRIDFORMAT_BEGIN
 90
        0
 91
        1
 62
     0
 92
       -2
340
14
 93
        0
 40
0.045
309
GRIDFORMAT_END
 95
        4
302
GRIDFORMAT
  1
GRIDFORMAT_BEGIN
 90
        0
 91
        1
 62
     0
 92
       -2
340
14
 93
        0
 40
0.045
309
GRIDFORMAT_END
 95
        8
302
GRIDFORMAT
  1
GRIDFORMAT_BEGIN
 90
        0
 91
        1
 62
     0
 92
       -2
340
14
 93
        0
 40
0.045
309
GRIDFORMAT_END
 95
       16
302
GRIDFORMAT
  1
GRIDFORMAT_BEGIN
 90
        0
 91
        1
 62
     0
 92
       -2
340
14
 93
        0
 40
0.045
309
GRIDFORMAT_END
 95
       32
302
GRIDFORMAT
  1
GRIDFORMAT_BEGIN
 90
        0
 91
        1
 62
     0
 92
       -2
340
14
 93
        0
 40
0.045
309
GRIDFORMAT_END
309
TABLEFORMAT_END
  1
CELLSTYLE_BEGIN
 90
        3
 91
        2
300
_DATA
309
CELLSTYLE_END
  0
XRECORD
  5
376
102
{ACAD_REACTORS
330
375
102
}
330
375
100
AcDbXrecord
280
     1
102
ACAD_ROUNDTRIP_PRE2007_TABLESTYLE
 90
        4
 91
        0
  1

 92
        4
 93
        0
  2

 94
        4
 95
        0
  3

  0
XRECORD
  5
348
102
{ACAD_REACTORS
330
347
102
}
330
347
100
AcDbXrecord
280
     1
102
RTVSPropertyOp0
 70
     1
102
RTVSPropertyOp1
 70
     1
102
RTVSPropertyOp2
 70
     1
102
RTVSPropertyOp3
 70
     1
102
RTVSPropertyOp4
 70
     1
102
RTVSPropertyOp5
 70
     1
102
RTVSPropertyOp6
 70
     1
102
RTVSPropertyOp7
 70
     1
102
RTVSPropertyOp8
 70
     1
102
RTVSPropertyOp9
 70
     1
102
RTVSPropertyOp10
 70
     1
102
RTVSPropertyOp11
 70
     1
102
RTVSPropertyOp12
 70
     1
102
RTVSPropertyOp13
 70
     1
102
RTVSPropertyOp14
 70
     1
102
RTVSPropertyOp15
 70
     1
102
RTVSPropertyOp16
 70
     1
102
RTVSPropertyOp17
 70
     1
102
RTVSPropertyOp18
 70
     1
102
RTVSPropertyOp19
 70
     1
102
RTVSPropertyOp20
 70
     1
102
RTVSPropertyOp21
 70
     1
102
RTVSPropertyOp22
 70
     1
102
RTVSPropertyOp23
 70
     1
102
RTVSPropertyOp24
 70
     1
102
RTVSPropertyOp25
 70
     1
102
RTVSPropertyOp26
 70
     1
102
RTVSPropertyOp27
 70
     1
102
RTVSPropertyOp28
 70
     1
102
RTVSPropertyOp29
 70
     1
102
RTVSPropertyOp30
 70
     1
102
RTVSPropertyOp31
 70
     1
102
RTVSPropertyOp32
 70
     1
102
RTVSPropertyOp33
 70
     1
102
RTVSPropertyOp34
 70
     1
102
RTVSPropertyOp35
 70
     1
102
RTVSPropertyOp36
 70
     1
102
RTVSPropertyOp37
 70
     1
102
RTVSPropertyOp38
 70
     1
102
RTVSPropertyOp39
 70
     1
102
RTVSPropertyOp40
 70
     1
102
RTVSPropertyOp41
 70
     1
102
RTVSPropertyOp42
 70
     1
102
RTVSPropertyOp43
 70
     1
102
RTVSPropertyOp44
 70
     1
102
RTVSPropertyOp45
 70
     1
102
RTVSPropertyOp46
 70
     1
102
RTVSPropertyOp47
 70
     1
102
RTVSPropertyOp48
 70
     1
102
RTVSPropertyOp49
 70
     1
102
RTVSPropertyOp50
 70
     1
102
RTVSPropertyOp51
 70
     0
102
RTVSPropertyOp52
 70
     0
102
RTVSPropertyOp53
 70
     1
102
RTVSPropertyOp54
 70
     1
102
RTVSPropertyOp55
 70
     1
102
RTVSPropertyOp56
 70
     1
102
RTVSPropertyOp57
 70
     1
102
RTVSPost2010Prop28
280
     1
102
RTVSPost2010PropOp28
 70
     1
102
RTVSPost2010Prop29
280
     1
102
RTVSPost2010PropOp29
 70
     1
102
RTVSPost2010Prop30
280
     0
102
RTVSPost2010PropOp30
 70
     1
102
RTVSPost2010Prop31
280
     0
102
RTVSPost2010PropOp31
 70
     1
102
RTVSPost2010Prop32
280
     0
102
RTVSPost2010PropOp32
 70
     1
102
RTVSPost2010Prop33
280
     0
102
RTVSPost2010PropOp33
 70
     1
102
RTVSPost2010Prop34
280
     0
102
RTVSPost2010PropOp34
 70
     1
102
RTVSPost2010Prop35
280
     0
102
RTVSPost2010PropOp35
 70
     1
102
RTVSPost2010Prop36
280
     0
102
RTVSPost2010PropOp36
 70
     1
102
RTVSPost2010Prop37
 90
       50
102
RTVSPost2010PropOp37
 70
     1
102
RTVSPost2010Prop38
140
0.0
102
RTVSPost2010PropOp38
 70
     1
102
RTVSPost2010Prop39
140
1.0
102
RTVSPost2010PropOp39
 70
     1
102
RTVSPost2010Prop40
 90
        0
102
RTVSPost2010PropOp40
 70
     1
102
RTVSPost2010Prop41ColorIndex
 90
       18
102
RTVSPost2010Prop41ColorRGB
 90
        0
102
RTVSPost2010PropOp41
 70
     1
102
RTVSPost2010Prop42
 90
       50
102
RTVSPost2010PropOp42
 70
     1
102
RTVSPost2010Prop43
 90
        3
102
RTVSPost2010PropOp43
 70
     1
102
RTVSPost2010Prop44ColorIndex
 90
        5
102
RTVSPost2010Prop44ColorRGB
 90
      255
102
RTVSPost2010PropOp44
 70
     1
102
RTVSPost2010Prop45
280
     0
102
RTVSPost2010PropOp45
 70
     1
102
RTVSPost2010Prop46
 90
       50
102
RTVSPost2010PropOp46
 70
     1
102
RTVSPost2010Prop47
 90
       50
102
RTVSPost2010PropOp47
 70
     1
102
RTVSPost2010Prop48
 90
       50
102
RTVSPost2010PropOp48
 70
     1
102
RTVSPost2010Prop49
280
     0
102
RTVSPost2010PropOp49
 70
     1
102
RTVSPost2010Prop50
 90
       50
102
RTVSPost2010PropOp50
 70
     1
102
RTVSPost2010Prop51ColorIndex
 90
      256
102
RTVSPost2010Prop51ColorRGB
 90
-16777216
102
RTVSPost2010PropOp51
 70
     0
102
RTVSPost2010Prop52
140
1.0
102
RTVSPost2010PropOp52
 70
     0
102
RTVSPost2010Prop53
 90
        2
102
RTVSPost2010PropOp53
 70
     1
102
RTVSPost2010Prop54
  1
strokes_ogs.tif
102
RTVSPost2010PropOp54
 70
     1
102
RTVSPost2010Prop55
280
     0
102
RTVSPost2010PropOp55
 70
     1
102
RTVSPost2010Prop56
140
1.0
102
RTVSPost2010PropOp56
 70
     1
102
RTVSPost2010Prop57
140
1.0
102
RTVSPost2010PropOp57
 70
     1
  0
XRECORD
  5
34E
102
{ACAD_REACTORS
330
34D
102
}
330
34D
100
AcDbXrecord
280
     1
102
RTVSPropertyOp0
 70
     1
102
RTVSPropertyOp1
 70
     1
102
RTVSPropertyOp2
 70
     1
102
RTVSPropertyOp3
 70
     1
102
RTVSPropertyOp4
 70
     1
102
RTVSPropertyOp5
 70
     1
102
RTVSPropertyOp6
 70
     1
102
RTVSPropertyOp7
 70
     1
102
RTVSPropertyOp8
 70
     1
102
RTVSPropertyOp9
 70
     1
102
RTVSPropertyOp10
 70
     1
102
RTVSPropertyOp11
 70
     1
102
RTVSPropertyOp12
 70
     1
102
RTVSPropertyOp13
 70
     1
102
RTVSPropertyOp14
 70
     1
102
RTVSPropertyOp15
 70
     1
102
RTVSPropertyOp16
 70
     1
102
RTVSPropertyOp17
 70
     1
102
RTVSPropertyOp18
 70
     1
102
RTVSPropertyOp19
 70
     1
102
RTVSPropertyOp20
 70
     1
102
RTVSPropertyOp21
 70
     1
102
RTVSPropertyOp22
 70
     1
102
RTVSPropertyOp23
 70
     1
102
RTVSPropertyOp24
 70
     1
102
RTVSPropertyOp25
 70
     1
102
RTVSPropertyOp26
 70
     1
102
RTVSPropertyOp27
 70
     1
102
RTVSPropertyOp28
 70
     1
102
RTVSPropertyOp29
 70
     1
102
RTVSPropertyOp30
 70
     1
102
RTVSPropertyOp31
 70
     1
102
RTVSPropertyOp32
 70
     1
102
RTVSPropertyOp33
 70
     1
102
RTVSPropertyOp34
 70
     1
102
RTVSPropertyOp35
 70
     1
102
RTVSPropertyOp36
 70
     1
102
RTVSPropertyOp37
 70
     1
102
RTVSPropertyOp38
 70
     1
102
RTVSPropertyOp39
 70
     1
102
RTVSPropertyOp40
 70
     1
102
RTVSPropertyOp41
 70
     1
102
RTVSPropertyOp42
 70
     1
102
RTVSPropertyOp43
 70
     1
102
RTVSPropertyOp44
 70
     1
102
RTVSPropertyOp45
 70
     1
102
RTVSPropertyOp46
 70
     1
102
RTVSPropertyOp47
 70
     1
102
RTVSPropertyOp48
 70
     1
102
RTVSPropertyOp49
 70
     1
102
RTVSPropertyOp50
 70
     1
102
RTVSPropertyOp51
 70
     0
102
RTVSPropertyOp52
 70
     0
102
RTVSPropertyOp53
 70
     1
102
RTVSPropertyOp54
 70
     1
102
RTVSPropertyOp55
 70
     1
102
RTVSPropertyOp56
 70
     1
102
RTVSPropertyOp57
 70
     1
102
RTVSPost2010Prop28
280
     0
102
RTVSPost2010PropOp28
 70
     1
102
RTVSPost2010Prop29
280
     1
102
RTVSPost2010PropOp29
 70
     1
102
RTVSPost2010Prop30
280
     1
102
RTVSPost2010PropOp30
 70
     1
102
RTVSPost2010Prop31
280
     0
102
RTVSPost2010PropOp31
 70
     1
102
RTVSPost2010Prop32
280
     0
102
RTVSPost2010PropOp32
 70
     1
102
RTVSPost2010Prop33
280
     0
102
RTVSPost2010PropOp33
 70
     1
102
RTVSPost2010Prop34
280
     0
102
RTVSPost2010PropOp34
 70
     1
102
RTVSPost2010Prop35
280
     0
102
RTVSPost2010PropOp35
 70
     1
102
RTVSPost2010Prop36
280
     0
102
RTVSPost2010PropOp36
 70
     1
102
RTVSPost2010Prop37
 90
       50
102
RTVSPost2010PropOp37
 70
     1
102
RTVSPost2010Prop38
140
0.0
102
RTVSPost2010PropOp38
 70
     1
102
RTVSPost2010Prop39
140
1.0
102
RTVSPost2010PropOp39
 70
     1
102
RTVSPost2010Prop40
 90
        0
102
RTVSPost2010PropOp40
 70
     1
102
RTVSPost2010Prop41ColorIndex
 90
       18
102
RTVSPost2010Prop41ColorRGB
 90
        0
102
RTVSPost2010PropOp41
 70
     1
102
RTVSPost2010Prop42
 90
       50
102
RTVSPost2010PropOp42
 70
     1
102
RTVSPost2010Prop43
 90
        3
102
RTVSPost2010PropOp43
 70
     1
102
RTVSPost2010Prop44ColorIndex
 90
        5
102
RTVSPost2010Prop44ColorRGB
 90
      255
102
RTVSPost2010PropOp44
 70
     1
102
RTVSPost2010Prop45
280
     0
102
RTVSPost2010PropOp45
 70
     1
102
RTVSPost2010Prop46
 90
       50
102
RTVSPost2010PropOp46
 70
     1
102
RTVSPost2010Prop47
 90
       50
102
RTVSPost2010PropOp47
 70
     1
102
RTVSPost2010Prop48
 90
       50
102
RTVSPost2010PropOp48
 70
     1
102
RTVSPost2010Prop49
280
     0
102
RTVSPost2010PropOp49
 70
     1
102
RTVSPost2010Prop50
 90
       50
102
RTVSPost2010PropOp50
 70
     1
102
RTVSPost2010Prop51ColorIndex
 90
      256
102
RTVSPost2010Prop51ColorRGB
 90
-16777216
102
RTVSPost2010PropOp51
 70
     0
102
RTVSPost2010Prop52
140
1.0
102
RTVSPost2010PropOp52
 70
     0
102
RTVSPost2010Prop53
 90
        2
102
RTVSPost2010PropOp53
 70
     1
102
RTVSPost2010Prop54
  1
strokes_ogs.tif
102
RTVSPost2010PropOp54
 70
     1
102
RTVSPost2010Prop55
280
     0
102
RTVSPost2010PropOp55
 70
     1
102
RTVSPost2010Prop56
140
1.0
102
RTVSPost2010PropOp56
 70
     1
102
RTVSPost2010Prop57
140
1.0
102
RTVSPost2010PropOp57
 70
     1
  0
XRECORD
  5
356
102
{ACAD_REACTORS
330
355
102
}
330
355
100
AcDbXrecord
280
     1
102
RTVSPropertyOp0
 70
     1
102
RTVSPropertyOp1
 70
     1
102
RTVSPropertyOp2
 70
     1
102
RTVSPropertyOp3
 70
     1
102
RTVSPropertyOp4
 70
     1
102
RTVSPropertyOp5
 70
     1
102
RTVSPropertyOp6
 70
     1
102
RTVSPropertyOp7
 70
     1
102
RTVSPropertyOp8
 70
     1
102
RTVSPropertyOp9
 70
     1
102
RTVSPropertyOp10
 70
     1
102
RTVSPropertyOp11
 70
     1
102
RTVSPropertyOp12
 70
     1
102
RTVSPropertyOp13
 70
     1
102
RTVSPropertyOp14
 70
     1
102
RTVSPropertyOp15
 70
     1
102
RTVSPropertyOp16
 70
     1
102
RTVSPropertyOp17
 70
     1
102
RTVSPropertyOp18
 70
     1
102
RTVSPropertyOp19
 70
     1
102
RTVSPropertyOp20
 70
     1
102
RTVSPropertyOp21
 70
     1
102
RTVSPropertyOp22
 70
     1
102
RTVSPropertyOp23
 70
     1
102
RTVSPropertyOp24
 70
     1
102
RTVSPropertyOp25
 70
     1
102
RTVSPropertyOp26
 70
     1
102
RTVSPropertyOp27
 70
     1
102
RTVSPropertyOp28
 70
     1
102
RTVSPropertyOp29
 70
     1
102
RTVSPropertyOp30
 70
     1
102
RTVSPropertyOp31
 70
     1
102
RTVSPropertyOp32
 70
     1
102
RTVSPropertyOp33
 70
     1
102
RTVSPropertyOp34
 70
     1
102
RTVSPropertyOp35
 70
     1
102
RTVSPropertyOp36
 70
     1
102
RTVSPropertyOp37
 70
     1
102
RTVSPropertyOp38
 70
     1
102
RTVSPropertyOp39
 70
     1
102
RTVSPropertyOp40
 70
     1
102
RTVSPropertyOp41
 70
     1
102
RTVSPropertyOp42
 70
     1
102
RTVSPropertyOp43
 70
     1
102
RTVSPropertyOp44
 70
     1
102
RTVSPropertyOp45
 70
     1
102
RTVSPropertyOp46
 70
     1
102
RTVSPropertyOp47
 70
     1
102
RTVSPropertyOp48
 70
     1
102
RTVSPropertyOp49
 70
     1
102
RTVSPropertyOp50
 70
     1
102
RTVSPropertyOp51
 70
     0
102
RTVSPropertyOp52
 70
     0
102
RTVSPropertyOp53
 70
     1
102
RTVSPropertyOp54
 70
     1
102
RTVSPropertyOp55
 70
     1
102
RTVSPropertyOp56
 70
     1
102
RTVSPropertyOp57
 70
     1
102
RTVSPost2010Prop28
280
     0
102
RTVSPost2010PropOp28
 70
     1
102
RTVSPost2010Prop29
280
     1
102
RTVSPost2010PropOp29
 70
     1
102
RTVSPost2010Prop30
280
     1
102
RTVSPost2010PropOp30
 70
     1
102
RTVSPost2010Prop31
280
     0
102
RTVSPost2010PropOp31
 70
     1
102
RTVSPost2010Prop32
280
     0
102
RTVSPost2010PropOp32
 70
     1
102
RTVSPost2010Prop33
280
     0
102
RTVSPost2010PropOp33
 70
     1
102
RTVSPost2010Prop34
280
     0
102
RTVSPost2010PropOp34
 70
     1
102
RTVSPost2010Prop35
280
     0
102
RTVSPost2010PropOp35
 70
     1
102
RTVSPost2010Prop36
280
     0
102
RTVSPost2010PropOp36
 70
     1
102
RTVSPost2010Prop37
 90
       50
102
RTVSPost2010PropOp37
 70
     1
102
RTVSPost2010Prop38
140
0.0
102
RTVSPost2010PropOp38
 70
     1
102
RTVSPost2010Prop39
140
1.0
102
RTVSPost2010PropOp39
 70
     1
102
RTVSPost2010Prop40
 90
        0
102
RTVSPost2010PropOp40
 70
     1
102
RTVSPost2010Prop41ColorIndex
 90
       18
102
RTVSPost2010Prop41ColorRGB
 90
        0
102
RTVSPost2010PropOp41
 70
     1
102
RTVSPost2010Prop42
 90
       50
102
RTVSPost2010PropOp42
 70
     1
102
RTVSPost2010Prop43
 90
        3
102
RTVSPost2010PropOp43
 70
     1
102
RTVSPost2010Prop44ColorIndex
 90
        5
102
RTVSPost2010Prop44ColorRGB
 90
      255
102
RTVSPost2010PropOp44
 70
     1
102
RTVSPost2010Prop45
280
     0
102
RTVSPost2010PropOp45
 70
     1
102
RTVSPost2010Prop46
 90
       50
102
RTVSPost2010PropOp46
 70
     1
102
RTVSPost2010Prop47
 90
       50
102
RTVSPost2010PropOp47
 70
     1
102
RTVSPost2010Prop48
 90
       50
102
RTVSPost2010PropOp48
 70
     1
102
RTVSPost2010Prop49
280
     0
102
RTVSPost2010PropOp49
 70
     1
102
RTVSPost2010Prop50
 90
       50
102
RTVSPost2010PropOp50
 70
     1
102
RTVSPost2010Prop51ColorIndex
 90
      256
102
RTVSPost2010Prop51ColorRGB
 90
-16777216
102
RTVSPost2010PropOp51
 70
     0
102
RTVSPost2010Prop52
140
1.0
102
RTVSPost2010PropOp52
 70
     0
102
RTVSPost2010Prop53
 90
        2
102
RTVSPost2010PropOp53
 70
     1
102
RTVSPost2010Prop54
  1
strokes_ogs.tif
102
RTVSPost2010PropOp54
 70
     1
102
RTVSPost2010Prop55
280
     0
102
RTVSPost2010PropOp55
 70
     1
102
RTVSPost2010Prop56
140
1.0
102
RTVSPost2010PropOp56
 70
     1
102
RTVSPost2010Prop57
140
1.0
102
RTVSPost2010PropOp57
 70
     1
  0
XRECORD
  5
35E
102
{ACAD_REACTORS
330
35D
102
}
330
35D
100
AcDbXrecord
280
     1
102
RTVSPropertyOp0
 70
     1
102
RTVSPropertyOp1
 70
     1
102
RTVSPropertyOp2
 70
     1
102
RTVSPropertyOp3
 70
     1
102
RTVSPropertyOp4
 70
     1
102
RTVSPropertyOp5
 70
     1
102
RTVSPropertyOp6
 70
     1
102
RTVSPropertyOp7
 70
     1
102
RTVSPropertyOp8
 70
     1
102
RTVSPropertyOp9
 70
     1
102
RTVSPropertyOp10
 70
     1
102
RTVSPropertyOp11
 70
     1
102
RTVSPropertyOp12
 70
     1
102
RTVSPropertyOp13
 70
     1
102
RTVSPropertyOp14
 70
     1
102
RTVSPropertyOp15
 70
     1
102
RTVSPropertyOp16
 70
     1
102
RTVSPropertyOp17
 70
     1
102
RTVSPropertyOp18
 70
     1
102
RTVSPropertyOp19
 70
     1
102
RTVSPropertyOp20
 70
     1
102
RTVSPropertyOp21
 70
     1
102
RTVSPropertyOp22
 70
     1
102
RTVSPropertyOp23
 70
     1
102
RTVSPropertyOp24
 70
     1
102
RTVSPropertyOp25
 70
     1
102
RTVSPropertyOp26
 70
     1
102
RTVSPropertyOp27
 70
     1
102
RTVSPropertyOp28
 70
     1
102
RTVSPropertyOp29
 70
     1
102
RTVSPropertyOp30
 70
     1
102
RTVSPropertyOp31
 70
     1
102
RTVSPropertyOp32
 70
     1
102
RTVSPropertyOp33
 70
     1
102
RTVSPropertyOp34
 70
     1
102
RTVSPropertyOp35
 70
     1
102
RTVSPropertyOp36
 70
     1
102
RTVSPropertyOp37
 70
     1
102
RTVSPropertyOp38
 70
     1
102
RTVSPropertyOp39
 70
     1
102
RTVSPropertyOp40
 70
     1
102
RTVSPropertyOp41
 70
     1
102
RTVSPropertyOp42
 70
     1
102
RTVSPropertyOp43
 70
     1
102
RTVSPropertyOp44
 70
     1
102
RTVSPropertyOp45
 70
     1
102
RTVSPropertyOp46
 70
     1
102
RTVSPropertyOp47
 70
     1
102
RTVSPropertyOp48
 70
     1
102
RTVSPropertyOp49
 70
     1
102
RTVSPropertyOp50
 70
     1
102
RTVSPropertyOp51
 70
     0
102
RTVSPropertyOp52
 70
     0
102
RTVSPropertyOp53
 70
     1
102
RTVSPropertyOp54
 70
     1
102
RTVSPropertyOp55
 70
     1
102
RTVSPropertyOp56
 70
     1
102
RTVSPropertyOp57
 70
     1
102
RTVSPost2010Prop28
280
     0
102
RTVSPost2010PropOp28
 70
     1
102
RTVSPost2010Prop29
280
     1
102
RTVSPost2010PropOp29
 70
     1
102
RTVSPost2010Prop30
280
     1
102
RTVSPost2010PropOp30
 70
     1
102
RTVSPost2010Prop31
280
     0
102
RTVSPost2010PropOp31
 70
     1
102
RTVSPost2010Prop32
280
     0
102
RTVSPost2010PropOp32
 70
     1
102
RTVSPost2010Prop33
280
     0
102
RTVSPost2010PropOp33
 70
     1
102
RTVSPost2010Prop34
280
     0
102
RTVSPost2010PropOp34
 70
     1
102
RTVSPost2010Prop35
280
     0
102
RTVSPost2010PropOp35
 70
     1
102
RTVSPost2010Prop36
280
     0
102
RTVSPost2010PropOp36
 70
     1
102
RTVSPost2010Prop37
 90
       50
102
RTVSPost2010PropOp37
 70
     1
102
RTVSPost2010Prop38
140
0.0
102
RTVSPost2010PropOp38
 70
     1
102
RTVSPost2010Prop39
140
1.0
102
RTVSPost2010PropOp39
 70
     1
102
RTVSPost2010Prop40
 90
        0
102
RTVSPost2010PropOp40
 70
     1
102
RTVSPost2010Prop41ColorIndex
 90
       18
102
RTVSPost2010Prop41ColorRGB
 90
        0
102
RTVSPost2010PropOp41
 70
     1
102
RTVSPost2010Prop42
 90
       50
102
RTVSPost2010PropOp42
 70
     1
102
RTVSPost2010Prop43
 90
        3
102
RTVSPost2010PropOp43
 70
     1
102
RTVSPost2010Prop44ColorIndex
 90
        5
102
RTVSPost2010Prop44ColorRGB
 90
      255
102
RTVSPost2010PropOp44
 70
     1
102
RTVSPost2010Prop45
280
     0
102
RTVSPost2010PropOp45
 70
     1
102
RTVSPost2010Prop46
 90
       50
102
RTVSPost2010PropOp46
 70
     1
102
RTVSPost2010Prop47
 90
       50
102
RTVSPost2010PropOp47
 70
     1
102
RTVSPost2010Prop48
 90
       50
102
RTVSPost2010PropOp48
 70
     1
102
RTVSPost2010Prop49
280
     0
102
RTVSPost2010PropOp49
 70
     1
102
RTVSPost2010Prop50
 90
       50
102
RTVSPost2010PropOp50
 70
     1
102
RTVSPost2010Prop51ColorIndex
 90
      256
102
RTVSPost2010Prop51ColorRGB
 90
-16777216
102
RTVSPost2010PropOp51
 70
     0
102
RTVSPost2010Prop52
140
1.0
102
RTVSPost2010PropOp52
 70
     0
102
RTVSPost2010Prop53
 90
        2
102
RTVSPost2010PropOp53
 70
     1
102
RTVSPost2010Prop54
  1
strokes_ogs.tif
102
RTVSPost2010PropOp54
 70
     1
102
RTVSPost2010Prop55
280
     0
102
RTVSPost2010PropOp55
 70
     1
102
RTVSPost2010Prop56
140
1.0
102
RTVSPost2010PropOp56
 70
     1
102
RTVSPost2010Prop57
140
1.0
102
RTVSPost2010PropOp57
 70
     1
  0
XRECORD
  5
352
102
{ACAD_REACTORS
330
351
102
}
330
351
100
AcDbXrecord
280
     1
102
RTVSPropertyOp0
 70
     1
102
RTVSPropertyOp1
 70
     1
102
RTVSPropertyOp2
 70
     1
102
RTVSPropertyOp3
 70
     1
102
RTVSPropertyOp4
 70
     1
102
RTVSPropertyOp5
 70
     1
102
RTVSPropertyOp6
 70
     1
102
RTVSPropertyOp7
 70
     1
102
RTVSPropertyOp8
 70
     1
102
RTVSPropertyOp9
 70
     1
102
RTVSPropertyOp10
 70
     1
102
RTVSPropertyOp11
 70
     1
102
RTVSPropertyOp12
 70
     1
102
RTVSPropertyOp13
 70
     1
102
RTVSPropertyOp14
 70
     1
102
RTVSPropertyOp15
 70
     1
102
RTVSPropertyOp16
 70
     1
102
RTVSPropertyOp17
 70
     1
102
RTVSPropertyOp18
 70
     1
102
RTVSPropertyOp19
 70
     1
102
RTVSPropertyOp20
 70
     1
102
RTVSPropertyOp21
 70
     1
102
RTVSPropertyOp22
 70
     1
102
RTVSPropertyOp23
 70
     1
102
RTVSPropertyOp24
 70
     1
102
RTVSPropertyOp25
 70
     1
102
RTVSPropertyOp26
 70
     1
102
RTVSPropertyOp27
 70
     1
102
RTVSPropertyOp28
 70
     1
102
RTVSPropertyOp29
 70
     1
102
RTVSPropertyOp30
 70
     1
102
RTVSPropertyOp31
 70
     1
102
RTVSPropertyOp32
 70
     1
102
RTVSPropertyOp33
 70
     1
102
RTVSPropertyOp34
 70
     1
102
RTVSPropertyOp35
 70
     1
102
RTVSPropertyOp36
 70
     1
102
RTVSPropertyOp37
 70
     1
102
RTVSPropertyOp38
 70
     1
102
RTVSPropertyOp39
 70
     1
102
RTVSPropertyOp40
 70
     1
102
RTVSPropertyOp41
 70
     1
102
RTVSPropertyOp42
 70
     1
102
RTVSPropertyOp43
 70
     1
102
RTVSPropertyOp44
 70
     1
102
RTVSPropertyOp45
 70
     1
102
RTVSPropertyOp46
 70
     1
102
RTVSPropertyOp47
 70
     1
102
RTVSPropertyOp48
 70
     1
102
RTVSPropertyOp49
 70
     1
102
RTVSPropertyOp50
 70
     1
102
RTVSPropertyOp51
 70
     0
102
RTVSPropertyOp52
 70
     0
102
RTVSPropertyOp53
 70
     1
102
RTVSPropertyOp54
 70
     1
102
RTVSPropertyOp55
 70
     1
102
RTVSPropertyOp56
 70
     1
102
RTVSPropertyOp57
 70
     1
102
RTVSPost2010Prop28
280
     0
102
RTVSPost2010PropOp28
 70
     1
102
RTVSPost2010Prop29
280
     1
102
RTVSPost2010PropOp29
 70
     1
102
RTVSPost2010Prop30
280
     1
102
RTVSPost2010PropOp30
 70
     1
102
RTVSPost2010Prop31
280
     0
102
RTVSPost2010PropOp31
 70
     1
102
RTVSPost2010Prop32
280
     0
102
RTVSPost2010PropOp32
 70
     1
102
RTVSPost2010Prop33
280
     0
102
RTVSPost2010PropOp33
 70
     1
102
RTVSPost2010Prop34
280
     0
102
RTVSPost2010PropOp34
 70
     1
102
RTVSPost2010Prop35
280
     0
102
RTVSPost2010PropOp35
 70
     1
102
RTVSPost2010Prop36
280
     0
102
RTVSPost2010PropOp36
 70
     1
102
RTVSPost2010Prop37
 90
       50
102
RTVSPost2010PropOp37
 70
     1
102
RTVSPost2010Prop38
140
0.0
102
RTVSPost2010PropOp38
 70
     1
102
RTVSPost2010Prop39
140
1.0
102
RTVSPost2010PropOp39
 70
     1
102
RTVSPost2010Prop40
 90
        0
102
RTVSPost2010PropOp40
 70
     1
102
RTVSPost2010Prop41ColorIndex
 90
       18
102
RTVSPost2010Prop41ColorRGB
 90
        0
102
RTVSPost2010PropOp41
 70
     1
102
RTVSPost2010Prop42
 90
       50
102
RTVSPost2010PropOp42
 70
     1
102
RTVSPost2010Prop43
 90
        3
102
RTVSPost2010PropOp43
 70
     1
102
RTVSPost2010Prop44ColorIndex
 90
        5
102
RTVSPost2010Prop44ColorRGB
 90
      255
102
RTVSPost2010PropOp44
 70
     1
102
RTVSPost2010Prop45
280
     0
102
RTVSPost2010PropOp45
 70
     1
102
RTVSPost2010Prop46
 90
       50
102
RTVSPost2010PropOp46
 70
     1
102
RTVSPost2010Prop47
 90
       50
102
RTVSPost2010PropOp47
 70
     1
102
RTVSPost2010Prop48
 90
       50
102
RTVSPost2010PropOp48
 70
     1
102
RTVSPost2010Prop49
280
     0
102
RTVSPost2010PropOp49
 70
     1
102
RTVSPost2010Prop50
 90
       50
102
RTVSPost2010PropOp50
 70
     1
102
RTVSPost2010Prop51ColorIndex
 90
      256
102
RTVSPost2010Prop51ColorRGB
 90
-16777216
102
RTVSPost2010PropOp51
 70
     0
102
RTVSPost2010Prop52
140
1.0
102
RTVSPost2010PropOp52
 70
     0
102
RTVSPost2010Prop53
 90
        2
102
RTVSPost2010PropOp53
 70
     1
102
RTVSPost2010Prop54
  1
strokes_ogs.tif
102
RTVSPost2010PropOp54
 70
     1
102
RTVSPost2010Prop55
280
     0
102
RTVSPost2010PropOp55
 70
     1
102
RTVSPost2010Prop56
140
1.0
102
RTVSPost2010PropOp56
 70
     1
102
RTVSPost2010Prop57
140
1.0
102
RTVSPost2010PropOp57
 70
     1
  0
XRECORD
  5
354
102
{ACAD_REACTORS
330
353
102
}
330
353
100
AcDbXrecord
280
     1
102
RTVSPropertyOp0
 70
     1
102
RTVSPropertyOp1
 70
     1
102
RTVSPropertyOp2
 70
     1
102
RTVSPropertyOp3
 70
     1
102
RTVSPropertyOp4
 70
     1
102
RTVSPropertyOp5
 70
     1
102
RTVSPropertyOp6
 70
     1
102
RTVSPropertyOp7
 70
     1
102
RTVSPropertyOp8
 70
     1
102
RTVSPropertyOp9
 70
     1
102
RTVSPropertyOp10
 70
     1
102
RTVSPropertyOp11
 70
     1
102
RTVSPropertyOp12
 70
     1
102
RTVSPropertyOp13
 70
     1
102
RTVSPropertyOp14
 70
     1
102
RTVSPropertyOp15
 70
     1
102
RTVSPropertyOp16
 70
     1
102
RTVSPropertyOp17
 70
     1
102
RTVSPropertyOp18
 70
     1
102
RTVSPropertyOp19
 70
     1
102
RTVSPropertyOp20
 70
     1
102
RTVSPropertyOp21
 70
     1
102
RTVSPropertyOp22
 70
     1
102
RTVSPropertyOp23
 70
     1
102
RTVSPropertyOp24
 70
     1
102
RTVSPropertyOp25
 70
     1
102
RTVSPropertyOp26
 70
     1
102
RTVSPropertyOp27
 70
     1
102
RTVSPropertyOp28
 70
     1
102
RTVSPropertyOp29
 70
     1
102
RTVSPropertyOp30
 70
     1
102
RTVSPropertyOp31
 70
     1
102
RTVSPropertyOp32
 70
     1
102
RTVSPropertyOp33
 70
     1
102
RTVSPropertyOp34
 70
     1
102
RTVSPropertyOp35
 70
     1
102
RTVSPropertyOp36
 70
     1
102
RTVSPropertyOp37
 70
     1
102
RTVSPropertyOp38
 70
     1
102
RTVSPropertyOp39
 70
     1
102
RTVSPropertyOp40
 70
     1
102
RTVSPropertyOp41
 70
     1
102
RTVSPropertyOp42
 70
     1
102
RTVSPropertyOp43
 70
     1
102
RTVSPropertyOp44
 70
     1
102
RTVSPropertyOp45
 70
     1
102
RTVSPropertyOp46
 70
     1
102
RTVSPropertyOp47
 70
     1
102
RTVSPropertyOp48
 70
     1
102
RTVSPropertyOp49
 70
     1
102
RTVSPropertyOp50
 70
     1
102
RTVSPropertyOp51
 70
     0
102
RTVSPropertyOp52
 70
     0
102
RTVSPropertyOp53
 70
     1
102
RTVSPropertyOp54
 70
     1
102
RTVSPropertyOp55
 70
     1
102
RTVSPropertyOp56
 70
     1
102
RTVSPropertyOp57
 70
     1
102
RTVSPost2010Prop28
280
     0
102
RTVSPost2010PropOp28
 70
     1
102
RTVSPost2010Prop29
280
     1
102
RTVSPost2010PropOp29
 70
     1
102
RTVSPost2010Prop30
280
     1
102
RTVSPost2010PropOp30
 70
     1
102
RTVSPost2010Prop31
280
     0
102
RTVSPost2010PropOp31
 70
     1
102
RTVSPost2010Prop32
280
     0
102
RTVSPost2010PropOp32
 70
     1
102
RTVSPost2010Prop33
280
     0
102
RTVSPost2010PropOp33
 70
     1
102
RTVSPost2010Prop34
280
     0
102
RTVSPost2010PropOp34
 70
     1
102
RTVSPost2010Prop35
280
     0
102
RTVSPost2010PropOp35
 70
     1
102
RTVSPost2010Prop36
280
     0
102
RTVSPost2010PropOp36
 70
     1
102
RTVSPost2010Prop37
 90
       50
102
RTVSPost2010PropOp37
 70
     1
102
RTVSPost2010Prop38
140
0.0
102
RTVSPost2010PropOp38
 70
     1
102
RTVSPost2010Prop39
140
1.0
102
RTVSPost2010PropOp39
 70
     1
102
RTVSPost2010Prop40
 90
        0
102
RTVSPost2010PropOp40
 70
     1
102
RTVSPost2010Prop41ColorIndex
 90
       18
102
RTVSPost2010Prop41ColorRGB
 90
        0
102
RTVSPost2010PropOp41
 70
     1
102
RTVSPost2010Prop42
 90
       50
102
RTVSPost2010PropOp42
 70
     1
102
RTVSPost2010Prop43
 90
        3
102
RTVSPost2010PropOp43
 70
     1
102
RTVSPost2010Prop44ColorIndex
 90
        5
102
RTVSPost2010Prop44ColorRGB
 90
      255
102
RTVSPost2010PropOp44
 70
     1
102
RTVSPost2010Prop45
280
     0
102
RTVSPost2010PropOp45
 70
     1
102
RTVSPost2010Prop46
 90
       50
102
RTVSPost2010PropOp46
 70
     1
102
RTVSPost2010Prop47
 90
       50
102
RTVSPost2010PropOp47
 70
     1
102
RTVSPost2010Prop48
 90
       50
102
RTVSPost2010PropOp48
 70
     1
102
RTVSPost2010Prop49
280
     0
102
RTVSPost2010PropOp49
 70
     1
102
RTVSPost2010Prop50
 90
       50
102
RTVSPost2010PropOp50
 70
     1
102
RTVSPost2010Prop51ColorIndex
 90
      256
102
RTVSPost2010Prop51ColorRGB
 90
-16777216
102
RTVSPost2010PropOp51
 70
     0
102
RTVSPost2010Prop52
140
1.0
102
RTVSPost2010PropOp52
 70
     0
102
RTVSPost2010Prop53
 90
        2
102
RTVSPost2010PropOp53
 70
     1
102
RTVSPost2010Prop54
  1
strokes_ogs.tif
102
RTVSPost2010PropOp54
 70
     1
102
RTVSPost2010Prop55
280
     0
102
RTVSPost2010PropOp55
 70
     1
102
RTVSPost2010Prop56
140
1.0
102
RTVSPost2010PropOp56
 70
     1
102
RTVSPost2010Prop57
140
1.0
102
RTVSPost2010PropOp57
 70
     1
  0
XRECORD
  5
364
102
{ACAD_REACTORS
330
363
102
}
330
363
100
AcDbXrecord
280
     1
102
RTVSPropertyOp0
 70
     0
102
RTVSPropertyOp1
 70
     0
102
RTVSPropertyOp2
 70
     0
102
RTVSPropertyOp3
 70
     0
102
RTVSPropertyOp4
 70
     0
102
RTVSPropertyOp5
 70
     0
102
RTVSPropertyOp6
 70
     0
102
RTVSPropertyOp7
 70
     0
102
RTVSPropertyOp8
 70
     0
102
RTVSPropertyOp9
 70
     0
102
RTVSPropertyOp10
 70
     0
102
RTVSPropertyOp11
 70
     0
102
RTVSPropertyOp12
 70
     0
102
RTVSPropertyOp13
 70
     0
102
RTVSPropertyOp14
 70
     2
102
RTVSPropertyOp15
 70
     0
102
RTVSPropertyOp16
 70
     0
102
RTVSPropertyOp17
 70
     0
102
RTVSPropertyOp18
 70
     0
102
RTVSPropertyOp19
 70
     0
102
RTVSPropertyOp20
 70
     0
102
RTVSPropertyOp21
 70
     0
102
RTVSPropertyOp22
 70
     0
102
RTVSPropertyOp23
 70
     0
102
RTVSPropertyOp24
 70
     0
102
RTVSPropertyOp25
 70
     0
102
RTVSPropertyOp26
 70
     0
102
RTVSPropertyOp27
 70
     0
102
RTVSPropertyOp28
 70
     0
102
RTVSPropertyOp29
 70
     0
102
RTVSPropertyOp30
 70
     0
102
RTVSPropertyOp31
 70
     0
102
RTVSPropertyOp32
 70
     0
102
RTVSPropertyOp33
 70
     0
102
RTVSPropertyOp34
 70
     0
102
RTVSPropertyOp35
 70
     0
102
RTVSPropertyOp36
 70
     0
102
RTVSPropertyOp37
 70
     0
102
RTVSPropertyOp38
 70
     0
102
RTVSPropertyOp39
 70
     0
102
RTVSPropertyOp40
 70
     0
102
RTVSPropertyOp41
 70
     0
102
RTVSPropertyOp42
 70
     0
102
RTVSPropertyOp43
 70
     0
102
RTVSPropertyOp44
 70
     0
102
RTVSPropertyOp45
 70
     0
102
RTVSPropertyOp46
 70
     0
102
RTVSPropertyOp47
 70
     0
102
RTVSPropertyOp48
 70
     0
102
RTVSPropertyOp49
 70
     0
102
RTVSPropertyOp50
 70
     0
102
RTVSPropertyOp51
 70
     0
102
RTVSPropertyOp52
 70
     0
102
RTVSPropertyOp53
 70
     0
102
RTVSPropertyOp54
 70
     0
102
RTVSPropertyOp55
 70
     0
102
RTVSPropertyOp56
 70
     0
102
RTVSPropertyOp57
 70
     0
102
RTVSPost2010Prop28
280
     0
102
RTVSPost2010PropOp28
 70
     0
102
RTVSPost2010Prop29
280
     1
102
RTVSPost2010PropOp29
 70
     0
102
RTVSPost2010Prop30
280
     1
102
RTVSPost2010PropOp30
 70
     0
102
RTVSPost2010Prop31
280
     0
102
RTVSPost2010PropOp31
 70
     0
102
RTVSPost2010Prop32
280
     0
102
RTVSPost2010PropOp32
 70
     0
102
RTVSPost2010Prop33
280
     0
102
RTVSPost2010PropOp33
 70
     0
102
RTVSPost2010Prop34
280
     0
102
RTVSPost2010PropOp34
 70
     0
102
RTVSPost2010Prop35
280
     0
102
RTVSPost2010PropOp35
 70
     0
102
RTVSPost2010Prop36
280
     0
102
RTVSPost2010PropOp36
 70
     0
102
RTVSPost2010Prop37
 90
       50
102
RTVSPost2010PropOp37
 70
     0
102
RTVSPost2010Prop38
140
0.0
102
RTVSPost2010PropOp38
 70
     0
102
RTVSPost2010Prop39
140
1.0
102
RTVSPost2010PropOp39
 70
     0
102
RTVSPost2010Prop40
 90
        0
102
RTVSPost2010PropOp40
 70
     0
102
RTVSPost2010Prop41ColorIndex
 90
       18
102
RTVSPost2010Prop41ColorRGB
 90
        0
102
RTVSPost2010PropOp41
 70
     0
102
RTVSPost2010Prop42
 90
       50
102
RTVSPost2010PropOp42
 70
     0
102
RTVSPost2010Prop43
 90
        3
102
RTVSPost2010PropOp43
 70
     0
102
RTVSPost2010Prop44ColorIndex
 90
        5
102
RTVSPost2010Prop44ColorRGB
 90
      255
102
RTVSPost2010PropOp44
 70
     0
102
RTVSPost2010Prop45
280
     0
102
RTVSPost2010PropOp45
 70
     0
102
RTVSPost2010Prop46
 90
       50
102
RTVSPost2010PropOp46
 70
     0
102
RTVSPost2010Prop47
 90
       50
102
RTVSPost2010PropOp47
 70
     0
102
RTVSPost2010Prop48
 90
       50
102
RTVSPost2010PropOp48
 70
     0
102
RTVSPost2010Prop49
280
     0
102
RTVSPost2010PropOp49
 70
     0
102
RTVSPost2010Prop50
 90
       50
102
RTVSPost2010PropOp50
 70
     0
102
RTVSPost2010Prop51ColorIndex
 90
      256
102
RTVSPost2010Prop51ColorRGB
 90
-16777216
102
RTVSPost2010PropOp51
 70
     0
102
RTVSPost2010Prop52
140
1.0
102
RTVSPost2010PropOp52
 70
     0
102
RTVSPost2010Prop53
 90
        2
102
RTVSPost2010PropOp53
 70
     0
102
RTVSPost2010Prop54
  1
strokes_ogs.tif
102
RTVSPost2010PropOp54
 70
     0
102
RTVSPost2010Prop55
280
     0
102
RTVSPost2010PropOp55
 70
     0
102
RTVSPost2010Prop56
140
1.0
102
RTVSPost2010PropOp56
 70
     0
102
RTVSPost2010Prop57
140
1.0
102
RTVSPost2010PropOp57
 70
     0
  0
XRECORD
  5
35C
102
{ACAD_REACTORS
330
35B
102
}
330
35B
100
AcDbXrecord
280
     1
102
RTVSPropertyOp0
 70
     1
102
RTVSPropertyOp1
 70
     1
102
RTVSPropertyOp2
 70
     1
102
RTVSPropertyOp3
 70
     1
102
RTVSPropertyOp4
 70
     1
102
RTVSPropertyOp5
 70
     1
102
RTVSPropertyOp6
 70
     1
102
RTVSPropertyOp7
 70
     1
102
RTVSPropertyOp8
 70
     1
102
RTVSPropertyOp9
 70
     1
102
RTVSPropertyOp10
 70
     1
102
RTVSPropertyOp11
 70
     1
102
RTVSPropertyOp12
 70
     1
102
RTVSPropertyOp13
 70
     1
102
RTVSPropertyOp14
 70
     1
102
RTVSPropertyOp15
 70
     1
102
RTVSPropertyOp16
 70
     1
102
RTVSPropertyOp17
 70
     1
102
RTVSPropertyOp18
 70
     1
102
RTVSPropertyOp19
 70
     1
102
RTVSPropertyOp20
 70
     1
102
RTVSPropertyOp21
 70
     1
102
RTVSPropertyOp22
 70
     1
102
RTVSPropertyOp23
 70
     1
102
RTVSPropertyOp24
 70
     1
102
RTVSPropertyOp25
 70
     1
102
RTVSPropertyOp26
 70
     1
102
RTVSPropertyOp27
 70
     1
102
RTVSPropertyOp28
 70
     1
102
RTVSPropertyOp29
 70
     1
102
RTVSPropertyOp30
 70
     1
102
RTVSPropertyOp31
 70
     1
102
RTVSPropertyOp32
 70
     1
102
RTVSPropertyOp33
 70
     1
102
RTVSPropertyOp34
 70
     1
102
RTVSPropertyOp35
 70
     1
102
RTVSPropertyOp36
 70
     1
102
RTVSPropertyOp37
 70
     1
102
RTVSPropertyOp38
 70
     1
102
RTVSPropertyOp39
 70
     1
102
RTVSPropertyOp40
 70
     1
102
RTVSPropertyOp41
 70
     1
102
RTVSPropertyOp42
 70
     1
102
RTVSPropertyOp43
 70
     1
102
RTVSPropertyOp44
 70
     1
102
RTVSPropertyOp45
 70
     1
102
RTVSPropertyOp46
 70
     1
102
RTVSPropertyOp47
 70
     1
102
RTVSPropertyOp48
 70
     1
102
RTVSPropertyOp49
 70
     1
102
RTVSPropertyOp50
 70
     1
102
RTVSPropertyOp51
 70
     0
102
RTVSPropertyOp52
 70
     0
102
RTVSPropertyOp53
 70
     1
102
RTVSPropertyOp54
 70
     1
102
RTVSPropertyOp55
 70
     1
102
RTVSPropertyOp56
 70
     1
102
RTVSPropertyOp57
 70
     1
102
RTVSPost2010Prop28
280
     0
102
RTVSPost2010PropOp28
 70
     1
102
RTVSPost2010Prop29
280
     1
102
RTVSPost2010PropOp29
 70
     1
102
RTVSPost2010Prop30
280
     1
102
RTVSPost2010PropOp30
 70
     1
102
RTVSPost2010Prop31
280
     0
102
RTVSPost2010PropOp31
 70
     1
102
RTVSPost2010Prop32
280
     0
102
RTVSPost2010PropOp32
 70
     1
102
RTVSPost2010Prop33
280
     0
102
RTVSPost2010PropOp33
 70
     1
102
RTVSPost2010Prop34
280
     0
102
RTVSPost2010PropOp34
 70
     1
102
RTVSPost2010Prop35
280
     0
102
RTVSPost2010PropOp35
 70
     1
102
RTVSPost2010Prop36
280
     0
102
RTVSPost2010PropOp36
 70
     1
102
RTVSPost2010Prop37
 90
       50
102
RTVSPost2010PropOp37
 70
     1
102
RTVSPost2010Prop38
140
0.0
102
RTVSPost2010PropOp38
 70
     1
102
RTVSPost2010Prop39
140
1.0
102
RTVSPost2010PropOp39
 70
     1
102
RTVSPost2010Prop40
 90
        0
102
RTVSPost2010PropOp40
 70
     1
102
RTVSPost2010Prop41ColorIndex
 90
       18
102
RTVSPost2010Prop41ColorRGB
 90
        0
102
RTVSPost2010PropOp41
 70
     1
102
RTVSPost2010Prop42
 90
       50
102
RTVSPost2010PropOp42
 70
     1
102
RTVSPost2010Prop43
 90
        3
102
RTVSPost2010PropOp43
 70
     1
102
RTVSPost2010Prop44ColorIndex
 90
        5
102
RTVSPost2010Prop44ColorRGB
 90
      255
102
RTVSPost2010PropOp44
 70
     1
102
RTVSPost2010Prop45
280
     0
102
RTVSPost2010PropOp45
 70
     1
102
RTVSPost2010Prop46
 90
       50
102
RTVSPost2010PropOp46
 70
     1
102
RTVSPost2010Prop47
 90
       50
102
RTVSPost2010PropOp47
 70
     1
102
RTVSPost2010Prop48
 90
       50
102
RTVSPost2010PropOp48
 70
     1
102
RTVSPost2010Prop49
280
     0
102
RTVSPost2010PropOp49
 70
     1
102
RTVSPost2010Prop50
 90
       50
102
RTVSPost2010PropOp50
 70
     1
102
RTVSPost2010Prop51ColorIndex
 90
      256
102
RTVSPost2010Prop51ColorRGB
 90
-16777216
102
RTVSPost2010PropOp51
 70
     0
102
RTVSPost2010Prop52
140
1.0
102
RTVSPost2010PropOp52
 70
     0
102
RTVSPost2010Prop53
 90
        2
102
RTVSPost2010PropOp53
 70
     1
102
RTVSPost2010Prop54
  1
strokes_ogs.tif
102
RTVSPost2010PropOp54
 70
     1
102
RTVSPost2010Prop55
280
     0
102
RTVSPost2010PropOp55
 70
     1
102
RTVSPost2010Prop56
140
1.0
102
RTVSPost2010PropOp56
 70
     1
102
RTVSPost2010Prop57
140
1.0
102
RTVSPost2010PropOp57
 70
     1
  0
XRECORD
  5
340
102
{ACAD_REACTORS
330
33F
102
}
330
33F
100
AcDbXrecord
280
     1
102
RTVSPropertyOp0
 70
     1
102
RTVSPropertyOp1
 70
     1
102
RTVSPropertyOp2
 70
     1
102
RTVSPropertyOp3
 70
     1
102
RTVSPropertyOp4
 70
     1
102
RTVSPropertyOp5
 70
     1
102
RTVSPropertyOp6
 70
     1
102
RTVSPropertyOp7
 70
     1
102
RTVSPropertyOp8
 70
     1
102
RTVSPropertyOp9
 70
     1
102
RTVSPropertyOp10
 70
     1
102
RTVSPropertyOp11
 70
     1
102
RTVSPropertyOp12
 70
     1
102
RTVSPropertyOp13
 70
     1
102
RTVSPropertyOp14
 70
     1
102
RTVSPropertyOp15
 70
     1
102
RTVSPropertyOp16
 70
     1
102
RTVSPropertyOp17
 70
     1
102
RTVSPropertyOp18
 70
     1
102
RTVSPropertyOp19
 70
     1
102
RTVSPropertyOp20
 70
     1
102
RTVSPropertyOp21
 70
     1
102
RTVSPropertyOp22
 70
     1
102
RTVSPropertyOp23
 70
     1
102
RTVSPropertyOp24
 70
     1
102
RTVSPropertyOp25
 70
     1
102
RTVSPropertyOp26
 70
     1
102
RTVSPropertyOp27
 70
     1
102
RTVSPropertyOp28
 70
     1
102
RTVSPropertyOp29
 70
     1
102
RTVSPropertyOp30
 70
     1
102
RTVSPropertyOp31
 70
     1
102
RTVSPropertyOp32
 70
     1
102
RTVSPropertyOp33
 70
     1
102
RTVSPropertyOp34
 70
     1
102
RTVSPropertyOp35
 70
     1
102
RTVSPropertyOp36
 70
     1
102
RTVSPropertyOp37
 70
     1
102
RTVSPropertyOp38
 70
     1
102
RTVSPropertyOp39
 70
     1
102
RTVSPropertyOp40
 70
     1
102
RTVSPropertyOp41
 70
     1
102
RTVSPropertyOp42
 70
     1
102
RTVSPropertyOp43
 70
     1
102
RTVSPropertyOp44
 70
     1
102
RTVSPropertyOp45
 70
     1
102
RTVSPropertyOp46
 70
     1
102
RTVSPropertyOp47
 70
     1
102
RTVSPropertyOp48
 70
     1
102
RTVSPropertyOp49
 70
     1
102
RTVSPropertyOp50
 70
     1
102
RTVSPropertyOp51
 70
     0
102
RTVSPropertyOp52
 70
     0
102
RTVSPropertyOp53
 70
     1
102
RTVSPropertyOp54
 70
     1
102
RTVSPropertyOp55
 70
     1
102
RTVSPropertyOp56
 70
     1
102
RTVSPropertyOp57
 70
     1
102
RTVSPost2010Prop28
280
     0
102
RTVSPost2010PropOp28
 70
     1
102
RTVSPost2010Prop29
280
     1
102
RTVSPost2010PropOp29
 70
     1
102
RTVSPost2010Prop30
280
     1
102
RTVSPost2010PropOp30
 70
     1
102
RTVSPost2010Prop31
280
     0
102
RTVSPost2010PropOp31
 70
     1
102
RTVSPost2010Prop32
280
     0
102
RTVSPost2010PropOp32
 70
     1
102
RTVSPost2010Prop33
280
     0
102
RTVSPost2010PropOp33
 70
     1
102
RTVSPost2010Prop34
280
     0
102
RTVSPost2010PropOp34
 70
     1
102
RTVSPost2010Prop35
280
     0
102
RTVSPost2010PropOp35
 70
     1
102
RTVSPost2010Prop36
280
     0
102
RTVSPost2010PropOp36
 70
     1
102
RTVSPost2010Prop37
 90
       50
102
RTVSPost2010PropOp37
 70
     1
102
RTVSPost2010Prop38
140
0.0
102
RTVSPost2010PropOp38
 70
     1
102
RTVSPost2010Prop39
140
1.0
102
RTVSPost2010PropOp39
 70
     1
102
RTVSPost2010Prop40
 90
        0
102
RTVSPost2010PropOp40
 70
     1
102
RTVSPost2010Prop41ColorIndex
 90
       18
102
RTVSPost2010Prop41ColorRGB
 90
        0
102
RTVSPost2010PropOp41
 70
     1
102
RTVSPost2010Prop42
 90
       50
102
RTVSPost2010PropOp42
 70
     1
102
RTVSPost2010Prop43
 90
        3
102
RTVSPost2010PropOp43
 70
     1
102
RTVSPost2010Prop44ColorIndex
 90
        5
102
RTVSPost2010Prop44ColorRGB
 90
      255
102
RTVSPost2010PropOp44
 70
     1
102
RTVSPost2010Prop45
280
     0
102
RTVSPost2010PropOp45
 70
     1
102
RTVSPost2010Prop46
 90
       50
102
RTVSPost2010PropOp46
 70
     1
102
RTVSPost2010Prop47
 90
       50
102
RTVSPost2010PropOp47
 70
     1
102
RTVSPost2010Prop48
 90
       50
102
RTVSPost2010PropOp48
 70
     1
102
RTVSPost2010Prop49
280
     0
102
RTVSPost2010PropOp49
 70
     1
102
RTVSPost2010Prop50
 90
       50
102
RTVSPost2010PropOp50
 70
     1
102
RTVSPost2010Prop51ColorIndex
 90
      256
102
RTVSPost2010Prop51ColorRGB
 90
-16777216
102
RTVSPost2010PropOp51
 70
     0
102
RTVSPost2010Prop52
140
1.0
102
RTVSPost2010PropOp52
 70
     0
102
RTVSPost2010Prop53
 90
        2
102
RTVSPost2010PropOp53
 70
     1
102
RTVSPost2010Prop54
  1
strokes_ogs.tif
102
RTVSPost2010PropOp54
 70
     1
102
RTVSPost2010Prop55
280
     0
102
RTVSPost2010PropOp55
 70
     1
102
RTVSPost2010Prop56
140
1.0
102
RTVSPost2010PropOp56
 70
     1
102
RTVSPost2010Prop57
140
1.0
102
RTVSPost2010PropOp57
 70
     1
  0
XRECORD
  5
342
102
{ACAD_REACTORS
330
341
102
}
330
341
100
AcDbXrecord
280
     1
102
RTVSPropertyOp0
 70
     1
102
RTVSPropertyOp1
 70
     1
102
RTVSPropertyOp2
 70
     1
102
RTVSPropertyOp3
 70
     1
102
RTVSPropertyOp4
 70
     1
102
RTVSPropertyOp5
 70
     1
102
RTVSPropertyOp6
 70
     1
102
RTVSPropertyOp7
 70
     1
102
RTVSPropertyOp8
 70
     1
102
RTVSPropertyOp9
 70
     1
102
RTVSPropertyOp10
 70
     1
102
RTVSPropertyOp11
 70
     1
102
RTVSPropertyOp12
 70
     1
102
RTVSPropertyOp13
 70
     1
102
RTVSPropertyOp14
 70
     1
102
RTVSPropertyOp15
 70
     1
102
RTVSPropertyOp16
 70
     1
102
RTVSPropertyOp17
 70
     1
102
RTVSPropertyOp18
 70
     1
102
RTVSPropertyOp19
 70
     1
102
RTVSPropertyOp20
 70
     1
102
RTVSPropertyOp21
 70
     1
102
RTVSPropertyOp22
 70
     1
102
RTVSPropertyOp23
 70
     1
102
RTVSPropertyOp24
 70
     1
102
RTVSPropertyOp25
 70
     1
102
RTVSPropertyOp26
 70
     1
102
RTVSPropertyOp27
 70
     1
102
RTVSPropertyOp28
 70
     1
102
RTVSPropertyOp29
 70
     1
102
RTVSPropertyOp30
 70
     1
102
RTVSPropertyOp31
 70
     1
102
RTVSPropertyOp32
 70
     1
102
RTVSPropertyOp33
 70
     1
102
RTVSPropertyOp34
 70
     1
102
RTVSPropertyOp35
 70
     1
102
RTVSPropertyOp36
 70
     1
102
RTVSPropertyOp37
 70
     1
102
RTVSPropertyOp38
 70
     1
102
RTVSPropertyOp39
 70
     1
102
RTVSPropertyOp40
 70
     1
102
RTVSPropertyOp41
 70
     1
102
RTVSPropertyOp42
 70
     1
102
RTVSPropertyOp43
 70
     1
102
RTVSPropertyOp44
 70
     1
102
RTVSPropertyOp45
 70
     1
102
RTVSPropertyOp46
 70
     1
102
RTVSPropertyOp47
 70
     1
102
RTVSPropertyOp48
 70
     1
102
RTVSPropertyOp49
 70
     1
102
RTVSPropertyOp50
 70
     1
102
RTVSPropertyOp51
 70
     0
102
RTVSPropertyOp52
 70
     0
102
RTVSPropertyOp53
 70
     1
102
RTVSPropertyOp54
 70
     1
102
RTVSPropertyOp55
 70
     1
102
RTVSPropertyOp56
 70
     1
102
RTVSPropertyOp57
 70
     1
102
RTVSPost2010Prop28
280
     0
102
RTVSPost2010PropOp28
 70
     1
102
RTVSPost2010Prop29
280
     1
102
RTVSPost2010PropOp29
 70
     1
102
RTVSPost2010Prop30
280
     1
102
RTVSPost2010PropOp30
 70
     1
102
RTVSPost2010Prop31
280
     0
102
RTVSPost2010PropOp31
 70
     1
102
RTVSPost2010Prop32
280
     0
102
RTVSPost2010PropOp32
 70
     1
102
RTVSPost2010Prop33
280
     0
102
RTVSPost2010PropOp33
 70
     1
102
RTVSPost2010Prop34
280
     0
102
RTVSPost2010PropOp34
 70
     1
102
RTVSPost2010Prop35
280
     0
102
RTVSPost2010PropOp35
 70
     1
102
RTVSPost2010Prop36
280
     0
102
RTVSPost2010PropOp36
 70
     1
102
RTVSPost2010Prop37
 90
       50
102
RTVSPost2010PropOp37
 70
     1
102
RTVSPost2010Prop38
140
0.0
102
RTVSPost2010PropOp38
 70
     1
102
RTVSPost2010Prop39
140
1.0
102
RTVSPost2010PropOp39
 70
     1
102
RTVSPost2010Prop40
 90
        0
102
RTVSPost2010PropOp40
 70
     1
102
RTVSPost2010Prop41ColorIndex
 90
       18
102
RTVSPost2010Prop41ColorRGB
 90
        0
102
RTVSPost2010PropOp41
 70
     1
102
RTVSPost2010Prop42
 90
       50
102
RTVSPost2010PropOp42
 70
     1
102
RTVSPost2010Prop43
 90
        3
102
RTVSPost2010PropOp43
 70
     1
102
RTVSPost2010Prop44ColorIndex
 90
        5
102
RTVSPost2010Prop44ColorRGB
 90
      255
102
RTVSPost2010PropOp44
 70
     1
102
RTVSPost2010Prop45
280
     0
102
RTVSPost2010PropOp45
 70
     1
102
RTVSPost2010Prop46
 90
       50
102
RTVSPost2010PropOp46
 70
     1
102
RTVSPost2010Prop47
 90
       50
102
RTVSPost2010PropOp47
 70
     1
102
RTVSPost2010Prop48
 90
       50
102
RTVSPost2010PropOp48
 70
     1
102
RTVSPost2010Prop49
280
     0
102
RTVSPost2010PropOp49
 70
     1
102
RTVSPost2010Prop50
 90
       50
102
RTVSPost2010PropOp50
 70
     1
102
RTVSPost2010Prop51ColorIndex
 90
      256
102
RTVSPost2010Prop51ColorRGB
 90
-16777216
102
RTVSPost2010PropOp51
 70
     0
102
RTVSPost2010Prop52
140
1.0
102
RTVSPost2010PropOp52
 70
     0
102
RTVSPost2010Prop53
 90
        2
102
RTVSPost2010PropOp53
 70
     1
102
RTVSPost2010Prop54
  1
strokes_ogs.tif
102
RTVSPost2010PropOp54
 70
     1
102
RTVSPost2010Prop55
280
     0
102
RTVSPost2010PropOp55
 70
     1
102
RTVSPost2010Prop56
140
1.0
102
RTVSPost2010PropOp56
 70
     1
102
RTVSPost2010Prop57
140
1.0
102
RTVSPost2010PropOp57
 70
     1
  0
XRECORD
  5
344
102
{ACAD_REACTORS
330
343
102
}
330
343
100
AcDbXrecord
280
     1
102
RTVSPropertyOp0
 70
     1
102
RTVSPropertyOp1
 70
     1
102
RTVSPropertyOp2
 70
     1
102
RTVSPropertyOp3
 70
     1
102
RTVSPropertyOp4
 70
     1
102
RTVSPropertyOp5
 70
     1
102
RTVSPropertyOp6
 70
     1
102
RTVSPropertyOp7
 70
     1
102
RTVSPropertyOp8
 70
     1
102
RTVSPropertyOp9
 70
     1
102
RTVSPropertyOp10
 70
     1
102
RTVSPropertyOp11
 70
     1
102
RTVSPropertyOp12
 70
     1
102
RTVSPropertyOp13
 70
     1
102
RTVSPropertyOp14
 70
     1
102
RTVSPropertyOp15
 70
     1
102
RTVSPropertyOp16
 70
     1
102
RTVSPropertyOp17
 70
     1
102
RTVSPropertyOp18
 70
     1
102
RTVSPropertyOp19
 70
     1
102
RTVSPropertyOp20
 70
     1
102
RTVSPropertyOp21
 70
     1
102
RTVSPropertyOp22
 70
     1
102
RTVSPropertyOp23
 70
     1
102
RTVSPropertyOp24
 70
     1
102
RTVSPropertyOp25
 70
     1
102
RTVSPropertyOp26
 70
     1
102
RTVSPropertyOp27
 70
     1
102
RTVSPropertyOp28
 70
     1
102
RTVSPropertyOp29
 70
     1
102
RTVSPropertyOp30
 70
     1
102
RTVSPropertyOp31
 70
     1
102
RTVSPropertyOp32
 70
     1
102
RTVSPropertyOp33
 70
     1
102
RTVSPropertyOp34
 70
     1
102
RTVSPropertyOp35
 70
     1
102
RTVSPropertyOp36
 70
     1
102
RTVSPropertyOp37
 70
     1
102
RTVSPropertyOp38
 70
     1
102
RTVSPropertyOp39
 70
     1
102
RTVSPropertyOp40
 70
     1
102
RTVSPropertyOp41
 70
     1
102
RTVSPropertyOp42
 70
     1
102
RTVSPropertyOp43
 70
     1
102
RTVSPropertyOp44
 70
     1
102
RTVSPropertyOp45
 70
     1
102
RTVSPropertyOp46
 70
     1
102
RTVSPropertyOp47
 70
     1
102
RTVSPropertyOp48
 70
     1
102
RTVSPropertyOp49
 70
     1
102
RTVSPropertyOp50
 70
     1
102
RTVSPropertyOp51
 70
     0
102
RTVSPropertyOp52
 70
     0
102
RTVSPropertyOp53
 70
     1
102
RTVSPropertyOp54
 70
     1
102
RTVSPropertyOp55
 70
     1
102
RTVSPropertyOp56
 70
     1
102
RTVSPropertyOp57
 70
     1
102
RTVSPost2010Prop28
280
     0
102
RTVSPost2010PropOp28
 70
     1
102
RTVSPost2010Prop29
280
     1
102
RTVSPost2010PropOp29
 70
     1
102
RTVSPost2010Prop30
280
     1
102
RTVSPost2010PropOp30
 70
     1
102
RTVSPost2010Prop31
280
     0
102
RTVSPost2010PropOp31
 70
     1
102
RTVSPost2010Prop32
280
     0
102
RTVSPost2010PropOp32
 70
     1
102
RTVSPost2010Prop33
280
     0
102
RTVSPost2010PropOp33
 70
     1
102
RTVSPost2010Prop34
280
     0
102
RTVSPost2010PropOp34
 70
     1
102
RTVSPost2010Prop35
280
     0
102
RTVSPost2010PropOp35
 70
     1
102
RTVSPost2010Prop36
280
     0
102
RTVSPost2010PropOp36
 70
     1
102
RTVSPost2010Prop37
 90
       50
102
RTVSPost2010PropOp37
 70
     1
102
RTVSPost2010Prop38
140
0.0
102
RTVSPost2010PropOp38
 70
     1
102
RTVSPost2010Prop39
140
1.0
102
RTVSPost2010PropOp39
 70
     1
102
RTVSPost2010Prop40
 90
        0
102
RTVSPost2010PropOp40
 70
     1
102
RTVSPost2010Prop41ColorIndex
 90
       18
102
RTVSPost2010Prop41ColorRGB
 90
        0
102
RTVSPost2010PropOp41
 70
     1
102
RTVSPost2010Prop42
 90
       50
102
RTVSPost2010PropOp42
 70
     1
102
RTVSPost2010Prop43
 90
        3
102
RTVSPost2010PropOp43
 70
     1
102
RTVSPost2010Prop44ColorIndex
 90
        5
102
RTVSPost2010Prop44ColorRGB
 90
      255
102
RTVSPost2010PropOp44
 70
     1
102
RTVSPost2010Prop45
280
     0
102
RTVSPost2010PropOp45
 70
     1
102
RTVSPost2010Prop46
 90
       50
102
RTVSPost2010PropOp46
 70
     1
102
RTVSPost2010Prop47
 90
       50
102
RTVSPost2010PropOp47
 70
     1
102
RTVSPost2010Prop48
 90
       50
102
RTVSPost2010PropOp48
 70
     1
102
RTVSPost2010Prop49
280
     0
102
RTVSPost2010PropOp49
 70
     1
102
RTVSPost2010Prop50
 90
       50
102
RTVSPost2010PropOp50
 70
     1
102
RTVSPost2010Prop51ColorIndex
 90
      256
102
RTVSPost2010Prop51ColorRGB
 90
-16777216
102
RTVSPost2010PropOp51
 70
     0
102
RTVSPost2010Prop52
140
1.0
102
RTVSPost2010PropOp52
 70
     0
102
RTVSPost2010Prop53
 90
        2
102
RTVSPost2010PropOp53
 70
     1
102
RTVSPost2010Prop54
  1
strokes_ogs.tif
102
RTVSPost2010PropOp54
 70
     1
102
RTVSPost2010Prop55
280
     0
102
RTVSPost2010PropOp55
 70
     1
102
RTVSPost2010Prop56
140
1.0
102
RTVSPost2010PropOp56
 70
     1
102
RTVSPost2010Prop57
140
1.0
102
RTVSPost2010PropOp57
 70
     1
  0
XRECORD
  5
346
102
{ACAD_REACTORS
330
345
102
}
330
345
100
AcDbXrecord
280
     1
102
RTVSPropertyOp0
 70
     1
102
RTVSPropertyOp1
 70
     1
102
RTVSPropertyOp2
 70
     1
102
RTVSPropertyOp3
 70
     1
102
RTVSPropertyOp4
 70
     1
102
RTVSPropertyOp5
 70
     1
102
RTVSPropertyOp6
 70
     1
102
RTVSPropertyOp7
 70
     1
102
RTVSPropertyOp8
 70
     1
102
RTVSPropertyOp9
 70
     1
102
RTVSPropertyOp10
 70
     1
102
RTVSPropertyOp11
 70
     1
102
RTVSPropertyOp12
 70
     1
102
RTVSPropertyOp13
 70
     1
102
RTVSPropertyOp14
 70
     1
102
RTVSPropertyOp15
 70
     1
102
RTVSPropertyOp16
 70
     1
102
RTVSPropertyOp17
 70
     1
102
RTVSPropertyOp18
 70
     1
102
RTVSPropertyOp19
 70
     1
102
RTVSPropertyOp20
 70
     1
102
RTVSPropertyOp21
 70
     1
102
RTVSPropertyOp22
 70
     1
102
RTVSPropertyOp23
 70
     1
102
RTVSPropertyOp24
 70
     1
102
RTVSPropertyOp25
 70
     1
102
RTVSPropertyOp26
 70
     1
102
RTVSPropertyOp27
 70
     1
102
RTVSPropertyOp28
 70
     1
102
RTVSPropertyOp29
 70
     1
102
RTVSPropertyOp30
 70
     1
102
RTVSPropertyOp31
 70
     1
102
RTVSPropertyOp32
 70
     1
102
RTVSPropertyOp33
 70
     1
102
RTVSPropertyOp34
 70
     1
102
RTVSPropertyOp35
 70
     1
102
RTVSPropertyOp36
 70
     1
102
RTVSPropertyOp37
 70
     1
102
RTVSPropertyOp38
 70
     1
102
RTVSPropertyOp39
 70
     1
102
RTVSPropertyOp40
 70
     1
102
RTVSPropertyOp41
 70
     1
102
RTVSPropertyOp42
 70
     1
102
RTVSPropertyOp43
 70
     1
102
RTVSPropertyOp44
 70
     1
102
RTVSPropertyOp45
 70
     1
102
RTVSPropertyOp46
 70
     1
102
RTVSPropertyOp47
 70
     1
102
RTVSPropertyOp48
 70
     1
102
RTVSPropertyOp49
 70
     1
102
RTVSPropertyOp50
 70
     1
102
RTVSPropertyOp51
 70
     0
102
RTVSPropertyOp52
 70
     0
102
RTVSPropertyOp53
 70
     1
102
RTVSPropertyOp54
 70
     1
102
RTVSPropertyOp55
 70
     1
102
RTVSPropertyOp56
 70
     1
102
RTVSPropertyOp57
 70
     1
102
RTVSPost2010Prop28
280
     0
102
RTVSPost2010PropOp28
 70
     1
102
RTVSPost2010Prop29
280
     1
102
RTVSPost2010PropOp29
 70
     1
102
RTVSPost2010Prop30
280
     1
102
RTVSPost2010PropOp30
 70
     1
102
RTVSPost2010Prop31
280
     0
102
RTVSPost2010PropOp31
 70
     1
102
RTVSPost2010Prop32
280
     0
102
RTVSPost2010PropOp32
 70
     1
102
RTVSPost2010Prop33
280
     0
102
RTVSPost2010PropOp33
 70
     1
102
RTVSPost2010Prop34
280
     0
102
RTVSPost2010PropOp34
 70
     1
102
RTVSPost2010Prop35
280
     0
102
RTVSPost2010PropOp35
 70
     1
102
RTVSPost2010Prop36
280
     0
102
RTVSPost2010PropOp36
 70
     1
102
RTVSPost2010Prop37
 90
       50
102
RTVSPost2010PropOp37
 70
     1
102
RTVSPost2010Prop38
140
0.0
102
RTVSPost2010PropOp38
 70
     1
102
RTVSPost2010Prop39
140
1.0
102
RTVSPost2010PropOp39
 70
     1
102
RTVSPost2010Prop40
 90
        0
102
RTVSPost2010PropOp40
 70
     1
102
RTVSPost2010Prop41ColorIndex
 90
       18
102
RTVSPost2010Prop41ColorRGB
 90
        0
102
RTVSPost2010PropOp41
 70
     1
102
RTVSPost2010Prop42
 90
       50
102
RTVSPost2010PropOp42
 70
     1
102
RTVSPost2010Prop43
 90
        3
102
RTVSPost2010PropOp43
 70
     1
102
RTVSPost2010Prop44ColorIndex
 90
        5
102
RTVSPost2010Prop44ColorRGB
 90
      255
102
RTVSPost2010PropOp44
 70
     1
102
RTVSPost2010Prop45
280
     0
102
RTVSPost2010PropOp45
 70
     1
102
RTVSPost2010Prop46
 90
       50
102
RTVSPost2010PropOp46
 70
     1
102
RTVSPost2010Prop47
 90
       50
102
RTVSPost2010PropOp47
 70
     1
102
RTVSPost2010Prop48
 90
       50
102
RTVSPost2010PropOp48
 70
     1
102
RTVSPost2010Prop49
280
     0
102
RTVSPost2010PropOp49
 70
     1
102
RTVSPost2010Prop50
 90
       50
102
RTVSPost2010PropOp50
 70
     1
102
RTVSPost2010Prop51ColorIndex
 90
      256
102
RTVSPost2010Prop51ColorRGB
 90
-16777216
102
RTVSPost2010PropOp51
 70
     0
102
RTVSPost2010Prop52
140
1.0
102
RTVSPost2010PropOp52
 70
     0
102
RTVSPost2010Prop53
 90
        2
102
RTVSPost2010PropOp53
 70
     1
102
RTVSPost2010Prop54
  1
strokes_ogs.tif
102
RTVSPost2010PropOp54
 70
     1
102
RTVSPost2010Prop55
280
     0
102
RTVSPost2010PropOp55
 70
     1
102
RTVSPost2010Prop56
140
1.0
102
RTVSPost2010PropOp56
 70
     1
102
RTVSPost2010Prop57
140
1.0
102
RTVSPost2010PropOp57
 70
     1
  0
XRECORD
  5
34C
102
{ACAD_REACTORS
330
34B
102
}
330
34B
100
AcDbXrecord
280
     1
102
RTVSPropertyOp0
 70
     1
102
RTVSPropertyOp1
 70
     1
102
RTVSPropertyOp2
 70
     1
102
RTVSPropertyOp3
 70
     1
102
RTVSPropertyOp4
 70
     1
102
RTVSPropertyOp5
 70
     1
102
RTVSPropertyOp6
 70
     1
102
RTVSPropertyOp7
 70
     1
102
RTVSPropertyOp8
 70
     1
102
RTVSPropertyOp9
 70
     1
102
RTVSPropertyOp10
 70
     1
102
RTVSPropertyOp11
 70
     1
102
RTVSPropertyOp12
 70
     1
102
RTVSPropertyOp13
 70
     1
102
RTVSPropertyOp14
 70
     1
102
RTVSPropertyOp15
 70
     1
102
RTVSPropertyOp16
 70
     1
102
RTVSPropertyOp17
 70
     1
102
RTVSPropertyOp18
 70
     1
102
RTVSPropertyOp19
 70
     1
102
RTVSPropertyOp20
 70
     1
102
RTVSPropertyOp21
 70
     1
102
RTVSPropertyOp22
 70
     1
102
RTVSPropertyOp23
 70
     1
102
RTVSPropertyOp24
 70
     1
102
RTVSPropertyOp25
 70
     1
102
RTVSPropertyOp26
 70
     1
102
RTVSPropertyOp27
 70
     1
102
RTVSPropertyOp28
 70
     1
102
RTVSPropertyOp29
 70
     1
102
RTVSPropertyOp30
 70
     1
102
RTVSPropertyOp31
 70
     1
102
RTVSPropertyOp32
 70
     1
102
RTVSPropertyOp33
 70
     1
102
RTVSPropertyOp34
 70
     1
102
RTVSPropertyOp35
 70
     1
102
RTVSPropertyOp36
 70
     1
102
RTVSPropertyOp37
 70
     1
102
RTVSPropertyOp38
 70
     1
102
RTVSPropertyOp39
 70
     1
102
RTVSPropertyOp40
 70
     1
102
RTVSPropertyOp41
 70
     1
102
RTVSPropertyOp42
 70
     1
102
RTVSPropertyOp43
 70
     1
102
RTVSPropertyOp44
 70
     1
102
RTVSPropertyOp45
 70
     1
102
RTVSPropertyOp46
 70
     1
102
RTVSPropertyOp47
 70
     1
102
RTVSPropertyOp48
 70
     1
102
RTVSPropertyOp49
 70
     1
102
RTVSPropertyOp50
 70
     1
102
RTVSPropertyOp51
 70
     0
102
RTVSPropertyOp52
 70
     0
102
RTVSPropertyOp53
 70
     1
102
RTVSPropertyOp54
 70
     1
102
RTVSPropertyOp55
 70
     1
102
RTVSPropertyOp56
 70
     1
102
RTVSPropertyOp57
 70
     1
102
RTVSPost2010Prop28
280
     0
102
RTVSPost2010PropOp28
 70
     1
102
RTVSPost2010Prop29
280
     1
102
RTVSPost2010PropOp29
 70
     1
102
RTVSPost2010Prop30
280
     1
102
RTVSPost2010PropOp30
 70
     1
102
RTVSPost2010Prop31
280
     0
102
RTVSPost2010PropOp31
 70
     1
102
RTVSPost2010Prop32
280
     0
102
RTVSPost2010PropOp32
 70
     1
102
RTVSPost2010Prop33
280
     0
102
RTVSPost2010PropOp33
 70
     1
102
RTVSPost2010Prop34
280
     0
102
RTVSPost2010PropOp34
 70
     1
102
RTVSPost2010Prop35
280
     0
102
RTVSPost2010PropOp35
 70
     1
102
RTVSPost2010Prop36
280
     0
102
RTVSPost2010PropOp36
 70
     1
102
RTVSPost2010Prop37
 90
       50
102
RTVSPost2010PropOp37
 70
     1
102
RTVSPost2010Prop38
140
0.0
102
RTVSPost2010PropOp38
 70
     1
102
RTVSPost2010Prop39
140
1.0
102
RTVSPost2010PropOp39
 70
     1
102
RTVSPost2010Prop40
 90
        0
102
RTVSPost2010PropOp40
 70
     1
102
RTVSPost2010Prop41ColorIndex
 90
       18
102
RTVSPost2010Prop41ColorRGB
 90
        0
102
RTVSPost2010PropOp41
 70
     1
102
RTVSPost2010Prop42
 90
       50
102
RTVSPost2010PropOp42
 70
     1
102
RTVSPost2010Prop43
 90
        3
102
RTVSPost2010PropOp43
 70
     1
102
RTVSPost2010Prop44ColorIndex
 90
        5
102
RTVSPost2010Prop44ColorRGB
 90
      255
102
RTVSPost2010PropOp44
 70
     1
102
RTVSPost2010Prop45
280
     0
102
RTVSPost2010PropOp45
 70
     1
102
RTVSPost2010Prop46
 90
       50
102
RTVSPost2010PropOp46
 70
     1
102
RTVSPost2010Prop47
 90
       50
102
RTVSPost2010PropOp47
 70
     1
102
RTVSPost2010Prop48
 90
       50
102
RTVSPost2010PropOp48
 70
     1
102
RTVSPost2010Prop49
280
     0
102
RTVSPost2010PropOp49
 70
     1
102
RTVSPost2010Prop50
 90
       50
102
RTVSPost2010PropOp50
 70
     1
102
RTVSPost2010Prop51ColorIndex
 90
      256
102
RTVSPost2010Prop51ColorRGB
 90
-16777216
102
RTVSPost2010PropOp51
 70
     0
102
RTVSPost2010Prop52
140
1.0
102
RTVSPost2010PropOp52
 70
     0
102
RTVSPost2010Prop53
 90
        2
102
RTVSPost2010PropOp53
 70
     1
102
RTVSPost2010Prop54
  1
strokes_ogs.tif
102
RTVSPost2010PropOp54
 70
     1
102
RTVSPost2010Prop55
280
     0
102
RTVSPost2010PropOp55
 70
     1
102
RTVSPost2010Prop56
140
1.0
102
RTVSPost2010PropOp56
 70
     1
102
RTVSPost2010Prop57
140
1.0
102
RTVSPost2010PropOp57
 70
     1
  0
XRECORD
  5
360
102
{ACAD_REACTORS
330
35F
102
}
330
35F
100
AcDbXrecord
280
     1
102
RTVSPropertyOp0
 70
     0
102
RTVSPropertyOp1
 70
     0
102
RTVSPropertyOp2
 70
     0
102
RTVSPropertyOp3
 70
     0
102
RTVSPropertyOp4
 70
     0
102
RTVSPropertyOp5
 70
     0
102
RTVSPropertyOp6
 70
     0
102
RTVSPropertyOp7
 70
     0
102
RTVSPropertyOp8
 70
     0
102
RTVSPropertyOp9
 70
     0
102
RTVSPropertyOp10
 70
     0
102
RTVSPropertyOp11
 70
     0
102
RTVSPropertyOp12
 70
     0
102
RTVSPropertyOp13
 70
     0
102
RTVSPropertyOp14
 70
     2
102
RTVSPropertyOp15
 70
     0
102
RTVSPropertyOp16
 70
     0
102
RTVSPropertyOp17
 70
     0
102
RTVSPropertyOp18
 70
     0
102
RTVSPropertyOp19
 70
     0
102
RTVSPropertyOp20
 70
     0
102
RTVSPropertyOp21
 70
     0
102
RTVSPropertyOp22
 70
     0
102
RTVSPropertyOp23
 70
     0
102
RTVSPropertyOp24
 70
     0
102
RTVSPropertyOp25
 70
     0
102
RTVSPropertyOp26
 70
     0
102
RTVSPropertyOp27
 70
     0
102
RTVSPropertyOp28
 70
     0
102
RTVSPropertyOp29
 70
     0
102
RTVSPropertyOp30
 70
     0
102
RTVSPropertyOp31
 70
     0
102
RTVSPropertyOp32
 70
     0
102
RTVSPropertyOp33
 70
     0
102
RTVSPropertyOp34
 70
     0
102
RTVSPropertyOp35
 70
     0
102
RTVSPropertyOp36
 70
     0
102
RTVSPropertyOp37
 70
     0
102
RTVSPropertyOp38
 70
     0
102
RTVSPropertyOp39
 70
     0
102
RTVSPropertyOp40
 70
     0
102
RTVSPropertyOp41
 70
     0
102
RTVSPropertyOp42
 70
     0
102
RTVSPropertyOp43
 70
     0
102
RTVSPropertyOp44
 70
     0
102
RTVSPropertyOp45
 70
     0
102
RTVSPropertyOp46
 70
     0
102
RTVSPropertyOp47
 70
     0
102
RTVSPropertyOp48
 70
     0
102
RTVSPropertyOp49
 70
     0
102
RTVSPropertyOp50
 70
     0
102
RTVSPropertyOp51
 70
     0
102
RTVSPropertyOp52
 70
     0
102
RTVSPropertyOp53
 70
     0
102
RTVSPropertyOp54
 70
     0
102
RTVSPropertyOp55
 70
     0
102
RTVSPropertyOp56
 70
     0
102
RTVSPropertyOp57
 70
     0
102
RTVSPost2010Prop28
280
     0
102
RTVSPost2010PropOp28
 70
     0
102
RTVSPost2010Prop29
280
     1
102
RTVSPost2010PropOp29
 70
     0
102
RTVSPost2010Prop30
280
     1
102
RTVSPost2010PropOp30
 70
     0
102
RTVSPost2010Prop31
280
     0
102
RTVSPost2010PropOp31
 70
     0
102
RTVSPost2010Prop32
280
     0
102
RTVSPost2010PropOp32
 70
     0
102
RTVSPost2010Prop33
280
     0
102
RTVSPost2010PropOp33
 70
     0
102
RTVSPost2010Prop34
280
     0
102
RTVSPost2010PropOp34
 70
     0
102
RTVSPost2010Prop35
280
     0
102
RTVSPost2010PropOp35
 70
     0
102
RTVSPost2010Prop36
280
     0
102
RTVSPost2010PropOp36
 70
     0
102
RTVSPost2010Prop37
 90
       50
102
RTVSPost2010PropOp37
 70
     0
102
RTVSPost2010Prop38
140
0.0
102
RTVSPost2010PropOp38
 70
     0
102
RTVSPost2010Prop39
140
1.0
102
RTVSPost2010PropOp39
 70
     0
102
RTVSPost2010Prop40
 90
        0
102
RTVSPost2010PropOp40
 70
     0
102
RTVSPost2010Prop41ColorIndex
 90
       18
102
RTVSPost2010Prop41ColorRGB
 90
        0
102
RTVSPost2010PropOp41
 70
     0
102
RTVSPost2010Prop42
 90
       50
102
RTVSPost2010PropOp42
 70
     0
102
RTVSPost2010Prop43
 90
        3
102
RTVSPost2010PropOp43
 70
     0
102
RTVSPost2010Prop44ColorIndex
 90
        5
102
RTVSPost2010Prop44ColorRGB
 90
      255
102
RTVSPost2010PropOp44
 70
     0
102
RTVSPost2010Prop45
280
     0
102
RTVSPost2010PropOp45
 70
     0
102
RTVSPost2010Prop46
 90
       50
102
RTVSPost2010PropOp46
 70
     0
102
RTVSPost2010Prop47
 90
       50
102
RTVSPost2010PropOp47
 70
     0
102
RTVSPost2010Prop48
 90
       50
102
RTVSPost2010PropOp48
 70
     0
102
RTVSPost2010Prop49
280
     0
102
RTVSPost2010PropOp49
 70
     0
102
RTVSPost2010Prop50
 90
       50
102
RTVSPost2010PropOp50
 70
     0
102
RTVSPost2010Prop51ColorIndex
 90
      256
102
RTVSPost2010Prop51ColorRGB
 90
-16777216
102
RTVSPost2010PropOp51
 70
     0
102
RTVSPost2010Prop52
140
1.0
102
RTVSPost2010PropOp52
 70
     0
102
RTVSPost2010Prop53
 90
        2
102
RTVSPost2010PropOp53
 70
     0
102
RTVSPost2010Prop54
  1
strokes_ogs.tif
102
RTVSPost2010PropOp54
 70
     0
102
RTVSPost2010Prop55
280
     0
102
RTVSPost2010PropOp55
 70
     0
102
RTVSPost2010Prop56
140
1.0
102
RTVSPost2010PropOp56
 70
     0
102
RTVSPost2010Prop57
140
1.0
102
RTVSPost2010PropOp57
 70
     0
  0
XRECORD
  5
35A
102
{ACAD_REACTORS
330
359
102
}
330
359
100
AcDbXrecord
280
     1
102
RTVSPropertyOp0
 70
     1
102
RTVSPropertyOp1
 70
     1
102
RTVSPropertyOp2
 70
     1
102
RTVSPropertyOp3
 70
     1
102
RTVSPropertyOp4
 70
     1
102
RTVSPropertyOp5
 70
     1
102
RTVSPropertyOp6
 70
     1
102
RTVSPropertyOp7
 70
     1
102
RTVSPropertyOp8
 70
     1
102
RTVSPropertyOp9
 70
     1
102
RTVSPropertyOp10
 70
     1
102
RTVSPropertyOp11
 70
     1
102
RTVSPropertyOp12
 70
     1
102
RTVSPropertyOp13
 70
     1
102
RTVSPropertyOp14
 70
     1
102
RTVSPropertyOp15
 70
     1
102
RTVSPropertyOp16
 70
     1
102
RTVSPropertyOp17
 70
     1
102
RTVSPropertyOp18
 70
     1
102
RTVSPropertyOp19
 70
     1
102
RTVSPropertyOp20
 70
     1
102
RTVSPropertyOp21
 70
     1
102
RTVSPropertyOp22
 70
     1
102
RTVSPropertyOp23
 70
     1
102
RTVSPropertyOp24
 70
     1
102
RTVSPropertyOp25
 70
     1
102
RTVSPropertyOp26
 70
     1
102
RTVSPropertyOp27
 70
     1
102
RTVSPropertyOp28
 70
     1
102
RTVSPropertyOp29
 70
     1
102
RTVSPropertyOp30
 70
     1
102
RTVSPropertyOp31
 70
     1
102
RTVSPropertyOp32
 70
     1
102
RTVSPropertyOp33
 70
     1
102
RTVSPropertyOp34
 70
     1
102
RTVSPropertyOp35
 70
     1
102
RTVSPropertyOp36
 70
     1
102
RTVSPropertyOp37
 70
     1
102
RTVSPropertyOp38
 70
     1
102
RTVSPropertyOp39
 70
     1
102
RTVSPropertyOp40
 70
     1
102
RTVSPropertyOp41
 70
     1
102
RTVSPropertyOp42
 70
     1
102
RTVSPropertyOp43
 70
     1
102
RTVSPropertyOp44
 70
     1
102
RTVSPropertyOp45
 70
     1
102
RTVSPropertyOp46
 70
     1
102
RTVSPropertyOp47
 70
     1
102
RTVSPropertyOp48
 70
     1
102
RTVSPropertyOp49
 70
     1
102
RTVSPropertyOp50
 70
     1
102
RTVSPropertyOp51
 70
     0
102
RTVSPropertyOp52
 70
     0
102
RTVSPropertyOp53
 70
     1
102
RTVSPropertyOp54
 70
     1
102
RTVSPropertyOp55
 70
     1
102
RTVSPropertyOp56
 70
     1
102
RTVSPropertyOp57
 70
     1
102
RTVSPost2010Prop28
280
     0
102
RTVSPost2010PropOp28
 70
     1
102
RTVSPost2010Prop29
280
     1
102
RTVSPost2010PropOp29
 70
     1
102
RTVSPost2010Prop30
280
     1
102
RTVSPost2010PropOp30
 70
     1
102
RTVSPost2010Prop31
280
     0
102
RTVSPost2010PropOp31
 70
     1
102
RTVSPost2010Prop32
280
     0
102
RTVSPost2010PropOp32
 70
     1
102
RTVSPost2010Prop33
280
     0
102
RTVSPost2010PropOp33
 70
     1
102
RTVSPost2010Prop34
280
     0
102
RTVSPost2010PropOp34
 70
     1
102
RTVSPost2010Prop35
280
     0
102
RTVSPost2010PropOp35
 70
     1
102
RTVSPost2010Prop36
280
     0
102
RTVSPost2010PropOp36
 70
     1
102
RTVSPost2010Prop37
 90
       50
102
RTVSPost2010PropOp37
 70
     1
102
RTVSPost2010Prop38
140
0.0
102
RTVSPost2010PropOp38
 70
     1
102
RTVSPost2010Prop39
140
1.0
102
RTVSPost2010PropOp39
 70
     1
102
RTVSPost2010Prop40
 90
        0
102
RTVSPost2010PropOp40
 70
     1
102
RTVSPost2010Prop41ColorIndex
 90
       18
102
RTVSPost2010Prop41ColorRGB
 90
        0
102
RTVSPost2010PropOp41
 70
     1
102
RTVSPost2010Prop42
 90
       50
102
RTVSPost2010PropOp42
 70
     1
102
RTVSPost2010Prop43
 90
        3
102
RTVSPost2010PropOp43
 70
     1
102
RTVSPost2010Prop44ColorIndex
 90
        5
102
RTVSPost2010Prop44ColorRGB
 90
      255
102
RTVSPost2010PropOp44
 70
     1
102
RTVSPost2010Prop45
280
     0
102
RTVSPost2010PropOp45
 70
     1
102
RTVSPost2010Prop46
 90
       50
102
RTVSPost2010PropOp46
 70
     1
102
RTVSPost2010Prop47
 90
       50
102
RTVSPost2010PropOp47
 70
     1
102
RTVSPost2010Prop48
 90
       50
102
RTVSPost2010PropOp48
 70
     1
102
RTVSPost2010Prop49
280
     0
102
RTVSPost2010PropOp49
 70
     1
102
RTVSPost2010Prop50
 90
       50
102
RTVSPost2010PropOp50
 70
     1
102
RTVSPost2010Prop51ColorIndex
 90
      256
102
RTVSPost2010Prop51ColorRGB
 90
-16777216
102
RTVSPost2010PropOp51
 70
     0
102
RTVSPost2010Prop52
140
1.0
102
RTVSPost2010PropOp52
 70
     0
102
RTVSPost2010Prop53
 90
        2
102
RTVSPost2010PropOp53
 70
     1
102
RTVSPost2010Prop54
  1
strokes_ogs.tif
102
RTVSPost2010PropOp54
 70
     1
102
RTVSPost2010Prop55
280
     0
102
RTVSPost2010PropOp55
 70
     1
102
RTVSPost2010Prop56
140
1.0
102
RTVSPost2010PropOp56
 70
     1
102
RTVSPost2010Prop57
140
1.0
102
RTVSPost2010PropOp57
 70
     1
  0
XRECORD
  5
362
102
{ACAD_REACTORS
330
361
102
}
330
361
100
AcDbXrecord
280
     1
102
RTVSPropertyOp0
 70
     0
102
RTVSPropertyOp1
 70
     0
102
RTVSPropertyOp2
 70
     0
102
RTVSPropertyOp3
 70
     0
102
RTVSPropertyOp4
 70
     0
102
RTVSPropertyOp5
 70
     0
102
RTVSPropertyOp6
 70
     0
102
RTVSPropertyOp7
 70
     0
102
RTVSPropertyOp8
 70
     0
102
RTVSPropertyOp9
 70
     0
102
RTVSPropertyOp10
 70
     0
102
RTVSPropertyOp11
 70
     0
102
RTVSPropertyOp12
 70
     0
102
RTVSPropertyOp13
 70
     0
102
RTVSPropertyOp14
 70
     2
102
RTVSPropertyOp15
 70
     0
102
RTVSPropertyOp16
 70
     0
102
RTVSPropertyOp17
 70
     0
102
RTVSPropertyOp18
 70
     0
102
RTVSPropertyOp19
 70
     0
102
RTVSPropertyOp20
 70
     0
102
RTVSPropertyOp21
 70
     0
102
RTVSPropertyOp22
 70
     0
102
RTVSPropertyOp23
 70
     0
102
RTVSPropertyOp24
 70
     0
102
RTVSPropertyOp25
 70
     0
102
RTVSPropertyOp26
 70
     0
102
RTVSPropertyOp27
 70
     0
102
RTVSPropertyOp28
 70
     0
102
RTVSPropertyOp29
 70
     0
102
RTVSPropertyOp30
 70
     0
102
RTVSPropertyOp31
 70
     0
102
RTVSPropertyOp32
 70
     0
102
RTVSPropertyOp33
 70
     0
102
RTVSPropertyOp34
 70
     0
102
RTVSPropertyOp35
 70
     0
102
RTVSPropertyOp36
 70
     0
102
RTVSPropertyOp37
 70
     0
102
RTVSPropertyOp38
 70
     0
102
RTVSPropertyOp39
 70
     0
102
RTVSPropertyOp40
 70
     0
102
RTVSPropertyOp41
 70
     0
102
RTVSPropertyOp42
 70
     0
102
RTVSPropertyOp43
 70
     0
102
RTVSPropertyOp44
 70
     0
102
RTVSPropertyOp45
 70
     0
102
RTVSPropertyOp46
 70
     0
102
RTVSPropertyOp47
 70
     0
102
RTVSPropertyOp48
 70
     0
102
RTVSPropertyOp49
 70
     0
102
RTVSPropertyOp50
 70
     0
102
RTVSPropertyOp51
 70
     0
102
RTVSPropertyOp52
 70
     0
102
RTVSPropertyOp53
 70
     0
102
RTVSPropertyOp54
 70
     0
102
RTVSPropertyOp55
 70
     0
102
RTVSPropertyOp56
 70
     0
102
RTVSPropertyOp57
 70
     0
102
RTVSPost2010Prop28
280
     0
102
RTVSPost2010PropOp28
 70
     0
102
RTVSPost2010Prop29
280
     1
102
RTVSPost2010PropOp29
 70
     0
102
RTVSPost2010Prop30
280
     1
102
RTVSPost2010PropOp30
 70
     0
102
RTVSPost2010Prop31
280
     0
102
RTVSPost2010PropOp31
 70
     0
102
RTVSPost2010Prop32
280
     0
102
RTVSPost2010PropOp32
 70
     0
102
RTVSPost2010Prop33
280
     0
102
RTVSPost2010PropOp33
 70
     0
102
RTVSPost2010Prop34
280
     0
102
RTVSPost2010PropOp34
 70
     0
102
RTVSPost2010Prop35
280
     0
102
RTVSPost2010PropOp35
 70
     0
102
RTVSPost2010Prop36
280
     0
102
RTVSPost2010PropOp36
 70
     0
102
RTVSPost2010Prop37
 90
       50
102
RTVSPost2010PropOp37
 70
     0
102
RTVSPost2010Prop38
140
0.0
102
RTVSPost2010PropOp38
 70
     0
102
RTVSPost2010Prop39
140
1.0
102
RTVSPost2010PropOp39
 70
     0
102
RTVSPost2010Prop40
 90
        0
102
RTVSPost2010PropOp40
 70
     0
102
RTVSPost2010Prop41ColorIndex
 90
       18
102
RTVSPost2010Prop41ColorRGB
 90
        0
102
RTVSPost2010PropOp41
 70
     0
102
RTVSPost2010Prop42
 90
       50
102
RTVSPost2010PropOp42
 70
     0
102
RTVSPost2010Prop43
 90
        3
102
RTVSPost2010PropOp43
 70
     0
102
RTVSPost2010Prop44ColorIndex
 90
        5
102
RTVSPost2010Prop44ColorRGB
 90
      255
102
RTVSPost2010PropOp44
 70
     0
102
RTVSPost2010Prop45
280
     0
102
RTVSPost2010PropOp45
 70
     0
102
RTVSPost2010Prop46
 90
       50
102
RTVSPost2010PropOp46
 70
     0
102
RTVSPost2010Prop47
 90
       50
102
RTVSPost2010PropOp47
 70
     0
102
RTVSPost2010Prop48
 90
       50
102
RTVSPost2010PropOp48
 70
     0
102
RTVSPost2010Prop49
280
     0
102
RTVSPost2010PropOp49
 70
     0
102
RTVSPost2010Prop50
 90
       50
102
RTVSPost2010PropOp50
 70
     0
102
RTVSPost2010Prop51ColorIndex
 90
      256
102
RTVSPost2010Prop51ColorRGB
 90
-16777216
102
RTVSPost2010PropOp51
 70
     0
102
RTVSPost2010Prop52
140
1.0
102
RTVSPost2010PropOp52
 70
     0
102
RTVSPost2010Prop53
 90
        2
102
RTVSPost2010PropOp53
 70
     0
102
RTVSPost2010Prop54
  1
strokes_ogs.tif
102
RTVSPost2010PropOp54
 70
     0
102
RTVSPost2010Prop55
280
     0
102
RTVSPost2010PropOp55
 70
     0
102
RTVSPost2010Prop56
140
1.0
102
RTVSPost2010PropOp56
 70
     0
102
RTVSPost2010Prop57
140
1.0
102
RTVSPost2010PropOp57
 70
     0
  0
XRECORD
  5
350
102
{ACAD_REACTORS
330
34F
102
}
330
34F
100
AcDbXrecord
280
     1
102
RTVSPropertyOp0
 70
     1
102
RTVSPropertyOp1
 70
     1
102
RTVSPropertyOp2
 70
     1
102
RTVSPropertyOp3
 70
     1
102
RTVSPropertyOp4
 70
     1
102
RTVSPropertyOp5
 70
     1
102
RTVSPropertyOp6
 70
     1
102
RTVSPropertyOp7
 70
     1
102
RTVSPropertyOp8
 70
     1
102
RTVSPropertyOp9
 70
     1
102
RTVSPropertyOp10
 70
     1
102
RTVSPropertyOp11
 70
     1
102
RTVSPropertyOp12
 70
     1
102
RTVSPropertyOp13
 70
     1
102
RTVSPropertyOp14
 70
     1
102
RTVSPropertyOp15
 70
     1
102
RTVSPropertyOp16
 70
     1
102
RTVSPropertyOp17
 70
     1
102
RTVSPropertyOp18
 70
     1
102
RTVSPropertyOp19
 70
     1
102
RTVSPropertyOp20
 70
     1
102
RTVSPropertyOp21
 70
     1
102
RTVSPropertyOp22
 70
     1
102
RTVSPropertyOp23
 70
     1
102
RTVSPropertyOp24
 70
     1
102
RTVSPropertyOp25
 70
     1
102
RTVSPropertyOp26
 70
     1
102
RTVSPropertyOp27
 70
     1
102
RTVSPropertyOp28
 70
     1
102
RTVSPropertyOp29
 70
     1
102
RTVSPropertyOp30
 70
     1
102
RTVSPropertyOp31
 70
     1
102
RTVSPropertyOp32
 70
     1
102
RTVSPropertyOp33
 70
     1
102
RTVSPropertyOp34
 70
     1
102
RTVSPropertyOp35
 70
     1
102
RTVSPropertyOp36
 70
     1
102
RTVSPropertyOp37
 70
     1
102
RTVSPropertyOp38
 70
     1
102
RTVSPropertyOp39
 70
     1
102
RTVSPropertyOp40
 70
     1
102
RTVSPropertyOp41
 70
     1
102
RTVSPropertyOp42
 70
     1
102
RTVSPropertyOp43
 70
     1
102
RTVSPropertyOp44
 70
     1
102
RTVSPropertyOp45
 70
     1
102
RTVSPropertyOp46
 70
     1
102
RTVSPropertyOp47
 70
     1
102
RTVSPropertyOp48
 70
     1
102
RTVSPropertyOp49
 70
     1
102
RTVSPropertyOp50
 70
     1
102
RTVSPropertyOp51
 70
     0
102
RTVSPropertyOp52
 70
     0
102
RTVSPropertyOp53
 70
     1
102
RTVSPropertyOp54
 70
     1
102
RTVSPropertyOp55
 70
     1
102
RTVSPropertyOp56
 70
     1
102
RTVSPropertyOp57
 70
     1
102
RTVSPost2010Prop28
280
     0
102
RTVSPost2010PropOp28
 70
     1
102
RTVSPost2010Prop29
280
     1
102
RTVSPost2010PropOp29
 70
     1
102
RTVSPost2010Prop30
280
     1
102
RTVSPost2010PropOp30
 70
     1
102
RTVSPost2010Prop31
280
     0
102
RTVSPost2010PropOp31
 70
     1
102
RTVSPost2010Prop32
280
     0
102
RTVSPost2010PropOp32
 70
     1
102
RTVSPost2010Prop33
280
     0
102
RTVSPost2010PropOp33
 70
     1
102
RTVSPost2010Prop34
280
     0
102
RTVSPost2010PropOp34
 70
     1
102
RTVSPost2010Prop35
280
     0
102
RTVSPost2010PropOp35
 70
     1
102
RTVSPost2010Prop36
280
     0
102
RTVSPost2010PropOp36
 70
     1
102
RTVSPost2010Prop37
 90
       50
102
RTVSPost2010PropOp37
 70
     1
102
RTVSPost2010Prop38
140
0.0
102
RTVSPost2010PropOp38
 70
     1
102
RTVSPost2010Prop39
140
1.0
102
RTVSPost2010PropOp39
 70
     1
102
RTVSPost2010Prop40
 90
        0
102
RTVSPost2010PropOp40
 70
     1
102
RTVSPost2010Prop41ColorIndex
 90
       18
102
RTVSPost2010Prop41ColorRGB
 90
        0
102
RTVSPost2010PropOp41
 70
     1
102
RTVSPost2010Prop42
 90
       50
102
RTVSPost2010PropOp42
 70
     1
102
RTVSPost2010Prop43
 90
        3
102
RTVSPost2010PropOp43
 70
     1
102
RTVSPost2010Prop44ColorIndex
 90
        5
102
RTVSPost2010Prop44ColorRGB
 90
      255
102
RTVSPost2010PropOp44
 70
     1
102
RTVSPost2010Prop45
280
     0
102
RTVSPost2010PropOp45
 70
     1
102
RTVSPost2010Prop46
 90
       50
102
RTVSPost2010PropOp46
 70
     1
102
RTVSPost2010Prop47
 90
       50
102
RTVSPost2010PropOp47
 70
     1
102
RTVSPost2010Prop48
 90
       50
102
RTVSPost2010PropOp48
 70
     1
102
RTVSPost2010Prop49
280
     0
102
RTVSPost2010PropOp49
 70
     1
102
RTVSPost2010Prop50
 90
       50
102
RTVSPost2010PropOp50
 70
     1
102
RTVSPost2010Prop51ColorIndex
 90
      256
102
RTVSPost2010Prop51ColorRGB
 90
-16777216
102
RTVSPost2010PropOp51
 70
     0
102
RTVSPost2010Prop52
140
1.0
102
RTVSPost2010PropOp52
 70
     0
102
RTVSPost2010Prop53
 90
        2
102
RTVSPost2010PropOp53
 70
     1
102
RTVSPost2010Prop54
  1
strokes_ogs.tif
102
RTVSPost2010PropOp54
 70
     1
102
RTVSPost2010Prop55
280
     0
102
RTVSPost2010PropOp55
 70
     1
102
RTVSPost2010Prop56
140
1.0
102
RTVSPost2010PropOp56
 70
     1
102
RTVSPost2010Prop57
140
1.0
102
RTVSPost2010PropOp57
 70
     1
  0
XRECORD
  5
36E
102
{ACAD_REACTORS
330
36D
102
}
330
36D
100
AcDbXrecord
280
     1
102
RTVSPropertyOp0
 70
     1
102
RTVSPropertyOp1
 70
     1
102
RTVSPropertyOp2
 70
     1
102
RTVSPropertyOp3
 70
     1
102
RTVSPropertyOp4
 70
     1
102
RTVSPropertyOp5
 70
     1
102
RTVSPropertyOp6
 70
     1
102
RTVSPropertyOp7
 70
     1
102
RTVSPropertyOp8
 70
     1
102
RTVSPropertyOp9
 70
     1
102
RTVSPropertyOp10
 70
     1
102
RTVSPropertyOp11
 70
     1
102
RTVSPropertyOp12
 70
     1
102
RTVSPropertyOp13
 70
     1
102
RTVSPropertyOp14
 70
     1
102
RTVSPropertyOp15
 70
     1
102
RTVSPropertyOp16
 70
     1
102
RTVSPropertyOp17
 70
     1
102
RTVSPropertyOp18
 70
     1
102
RTVSPropertyOp19
 70
     1
102
RTVSPropertyOp20
 70
     1
102
RTVSPropertyOp21
 70
     1
102
RTVSPropertyOp22
 70
     1
102
RTVSPropertyOp23
 70
     1
102
RTVSPropertyOp24
 70
     1
102
RTVSPropertyOp25
 70
     1
102
RTVSPropertyOp26
 70
     1
102
RTVSPropertyOp27
 70
     1
102
RTVSPropertyOp28
 70
     1
102
RTVSPropertyOp29
 70
     1
102
RTVSPropertyOp30
 70
     1
102
RTVSPropertyOp31
 70
     1
102
RTVSPropertyOp32
 70
     1
102
RTVSPropertyOp33
 70
     1
102
RTVSPropertyOp34
 70
     1
102
RTVSPropertyOp35
 70
     1
102
RTVSPropertyOp36
 70
     1
102
RTVSPropertyOp37
 70
     1
102
RTVSPropertyOp38
 70
     1
102
RTVSPropertyOp39
 70
     1
102
RTVSPropertyOp40
 70
     1
102
RTVSPropertyOp41
 70
     1
102
RTVSPropertyOp42
 70
     1
102
RTVSPropertyOp43
 70
     1
102
RTVSPropertyOp44
 70
     1
102
RTVSPropertyOp45
 70
     1
102
RTVSPropertyOp46
 70
     1
102
RTVSPropertyOp47
 70
     1
102
RTVSPropertyOp48
 70
     1
102
RTVSPropertyOp49
 70
     1
102
RTVSPropertyOp50
 70
     1
102
RTVSPropertyOp51
 70
     0
102
RTVSPropertyOp52
 70
     0
102
RTVSPropertyOp53
 70
     1
102
RTVSPropertyOp54
 70
     1
102
RTVSPropertyOp55
 70
     1
102
RTVSPropertyOp56
 70
     1
102
RTVSPropertyOp57
 70
     1
102
RTVSPost2010Prop28
280
     0
102
RTVSPost2010PropOp28
 70
     1
102
RTVSPost2010Prop29
280
     1
102
RTVSPost2010PropOp29
 70
     1
102
RTVSPost2010Prop30
280
     1
102
RTVSPost2010PropOp30
 70
     1
102
RTVSPost2010Prop31
280
     0
102
RTVSPost2010PropOp31
 70
     1
102
RTVSPost2010Prop32
280
     0
102
RTVSPost2010PropOp32
 70
     1
102
RTVSPost2010Prop33
280
     0
102
RTVSPost2010PropOp33
 70
     1
102
RTVSPost2010Prop34
280
     0
102
RTVSPost2010PropOp34
 70
     1
102
RTVSPost2010Prop35
280
     0
102
RTVSPost2010PropOp35
 70
     1
102
RTVSPost2010Prop36
280
     0
102
RTVSPost2010PropOp36
 70
     1
102
RTVSPost2010Prop37
 90
       50
102
RTVSPost2010PropOp37
 70
     1
102
RTVSPost2010Prop38
140
0.0
102
RTVSPost2010PropOp38
 70
     1
102
RTVSPost2010Prop39
140
1.0
102
RTVSPost2010PropOp39
 70
     1
102
RTVSPost2010Prop40
 90
        0
102
RTVSPost2010PropOp40
 70
     1
102
RTVSPost2010Prop41ColorIndex
 90
       18
102
RTVSPost2010Prop41ColorRGB
 90
        0
102
RTVSPost2010PropOp41
 70
     1
102
RTVSPost2010Prop42
 90
       50
102
RTVSPost2010PropOp42
 70
     1
102
RTVSPost2010Prop43
 90
        3
102
RTVSPost2010PropOp43
 70
     1
102
RTVSPost2010Prop44ColorIndex
 90
        5
102
RTVSPost2010Prop44ColorRGB
 90
      255
102
RTVSPost2010PropOp44
 70
     1
102
RTVSPost2010Prop45
280
     0
102
RTVSPost2010PropOp45
 70
     1
102
RTVSPost2010Prop46
 90
       50
102
RTVSPost2010PropOp46
 70
     1
102
RTVSPost2010Prop47
 90
       50
102
RTVSPost2010PropOp47
 70
     1
102
RTVSPost2010Prop48
 90
       50
102
RTVSPost2010PropOp48
 70
     1
102
RTVSPost2010Prop49
280
     0
102
RTVSPost2010PropOp49
 70
     1
102
RTVSPost2010Prop50
 90
       50
102
RTVSPost2010PropOp50
 70
     1
102
RTVSPost2010Prop51ColorIndex
 90
      256
102
RTVSPost2010Prop51ColorRGB
 90
-16777216
102
RTVSPost2010PropOp51
 70
     0
102
RTVSPost2010Prop52
140
1.0
102
RTVSPost2010PropOp52
 70
     0
102
RTVSPost2010Prop53
 90
        2
102
RTVSPost2010PropOp53
 70
     1
102
RTVSPost2010Prop54
  1
strokes_ogs.tif
102
RTVSPost2010PropOp54
 70
     1
102
RTVSPost2010Prop55
280
     0
102
RTVSPost2010PropOp55
 70
     1
102
RTVSPost2010Prop56
140
1.0
102
RTVSPost2010PropOp56
 70
     1
102
RTVSPost2010Prop57
140
1.0
102
RTVSPost2010PropOp57
 70
     1
  0
XRECORD
  5
36C
102
{ACAD_REACTORS
330
36B
102
}
330
36B
100
AcDbXrecord
280
     1
102
RTVSPropertyOp0
 70
     1
102
RTVSPropertyOp1
 70
     1
102
RTVSPropertyOp2
 70
     1
102
RTVSPropertyOp3
 70
     1
102
RTVSPropertyOp4
 70
     1
102
RTVSPropertyOp5
 70
     1
102
RTVSPropertyOp6
 70
     1
102
RTVSPropertyOp7
 70
     1
102
RTVSPropertyOp8
 70
     1
102
RTVSPropertyOp9
 70
     1
102
RTVSPropertyOp10
 70
     1
102
RTVSPropertyOp11
 70
     1
102
RTVSPropertyOp12
 70
     1
102
RTVSPropertyOp13
 70
     1
102
RTVSPropertyOp14
 70
     1
102
RTVSPropertyOp15
 70
     1
102
RTVSPropertyOp16
 70
     1
102
RTVSPropertyOp17
 70
     1
102
RTVSPropertyOp18
 70
     1
102
RTVSPropertyOp19
 70
     1
102
RTVSPropertyOp20
 70
     1
102
RTVSPropertyOp21
 70
     1
102
RTVSPropertyOp22
 70
     1
102
RTVSPropertyOp23
 70
     1
102
RTVSPropertyOp24
 70
     1
102
RTVSPropertyOp25
 70
     1
102
RTVSPropertyOp26
 70
     1
102
RTVSPropertyOp27
 70
     1
102
RTVSPropertyOp28
 70
     1
102
RTVSPropertyOp29
 70
     1
102
RTVSPropertyOp30
 70
     1
102
RTVSPropertyOp31
 70
     1
102
RTVSPropertyOp32
 70
     1
102
RTVSPropertyOp33
 70
     1
102
RTVSPropertyOp34
 70
     1
102
RTVSPropertyOp35
 70
     1
102
RTVSPropertyOp36
 70
     1
102
RTVSPropertyOp37
 70
     1
102
RTVSPropertyOp38
 70
     1
102
RTVSPropertyOp39
 70
     1
102
RTVSPropertyOp40
 70
     1
102
RTVSPropertyOp41
 70
     1
102
RTVSPropertyOp42
 70
     1
102
RTVSPropertyOp43
 70
     1
102
RTVSPropertyOp44
 70
     1
102
RTVSPropertyOp45
 70
     1
102
RTVSPropertyOp46
 70
     1
102
RTVSPropertyOp47
 70
     1
102
RTVSPropertyOp48
 70
     1
102
RTVSPropertyOp49
 70
     1
102
RTVSPropertyOp50
 70
     1
102
RTVSPropertyOp51
 70
     0
102
RTVSPropertyOp52
 70
     0
102
RTVSPropertyOp53
 70
     1
102
RTVSPropertyOp54
 70
     1
102
RTVSPropertyOp55
 70
     1
102
RTVSPropertyOp56
 70
     1
102
RTVSPropertyOp57
 70
     1
102
RTVSPost2010Prop28
280
     0
102
RTVSPost2010PropOp28
 70
     1
102
RTVSPost2010Prop29
280
     1
102
RTVSPost2010PropOp29
 70
     1
102
RTVSPost2010Prop30
280
     1
102
RTVSPost2010PropOp30
 70
     1
102
RTVSPost2010Prop31
280
     0
102
RTVSPost2010PropOp31
 70
     1
102
RTVSPost2010Prop32
280
     0
102
RTVSPost2010PropOp32
 70
     1
102
RTVSPost2010Prop33
280
     0
102
RTVSPost2010PropOp33
 70
     1
102
RTVSPost2010Prop34
280
     0
102
RTVSPost2010PropOp34
 70
     1
102
RTVSPost2010Prop35
280
     0
102
RTVSPost2010PropOp35
 70
     1
102
RTVSPost2010Prop36
280
     0
102
RTVSPost2010PropOp36
 70
     1
102
RTVSPost2010Prop37
 90
       50
102
RTVSPost2010PropOp37
 70
     1
102
RTVSPost2010Prop38
140
0.0
102
RTVSPost2010PropOp38
 70
     1
102
RTVSPost2010Prop39
140
1.0
102
RTVSPost2010PropOp39
 70
     1
102
RTVSPost2010Prop40
 90
        0
102
RTVSPost2010PropOp40
 70
     1
102
RTVSPost2010Prop41ColorIndex
 90
       18
102
RTVSPost2010Prop41ColorRGB
 90
        0
102
RTVSPost2010PropOp41
 70
     1
102
RTVSPost2010Prop42
 90
       50
102
RTVSPost2010PropOp42
 70
     1
102
RTVSPost2010Prop43
 90
        3
102
RTVSPost2010PropOp43
 70
     1
102
RTVSPost2010Prop44ColorIndex
 90
        5
102
RTVSPost2010Prop44ColorRGB
 90
      255
102
RTVSPost2010PropOp44
 70
     1
102
RTVSPost2010Prop45
280
     0
102
RTVSPost2010PropOp45
 70
     1
102
RTVSPost2010Prop46
 90
       50
102
RTVSPost2010PropOp46
 70
     1
102
RTVSPost2010Prop47
 90
       50
102
RTVSPost2010PropOp47
 70
     1
102
RTVSPost2010Prop48
 90
       50
102
RTVSPost2010PropOp48
 70
     1
102
RTVSPost2010Prop49
280
     0
102
RTVSPost2010PropOp49
 70
     1
102
RTVSPost2010Prop50
 90
       50
102
RTVSPost2010PropOp50
 70
     1
102
RTVSPost2010Prop51ColorIndex
 90
      256
102
RTVSPost2010Prop51ColorRGB
 90
-16777216
102
RTVSPost2010PropOp51
 70
     0
102
RTVSPost2010Prop52
140
1.0
102
RTVSPost2010PropOp52
 70
     0
102
RTVSPost2010Prop53
 90
        2
102
RTVSPost2010PropOp53
 70
     1
102
RTVSPost2010Prop54
  1
strokes_ogs.tif
102
RTVSPost2010PropOp54
 70
     1
102
RTVSPost2010Prop55
280
     0
102
RTVSPost2010PropOp55
 70
     1
102
RTVSPost2010Prop56
140
1.0
102
RTVSPost2010PropOp56
 70
     1
102
RTVSPost2010Prop57
140
1.0
102
RTVSPost2010PropOp57
 70
     1
  0
XRECORD
  5
366
102
{ACAD_REACTORS
330
365
102
}
330
365
100
AcDbXrecord
280
     1
102
RTVSPropertyOp0
 70
     1
102
RTVSPropertyOp1
 70
     1
102
RTVSPropertyOp2
 70
     1
102
RTVSPropertyOp3
 70
     1
102
RTVSPropertyOp4
 70
     1
102
RTVSPropertyOp5
 70
     1
102
RTVSPropertyOp6
 70
     1
102
RTVSPropertyOp7
 70
     1
102
RTVSPropertyOp8
 70
     1
102
RTVSPropertyOp9
 70
     1
102
RTVSPropertyOp10
 70
     1
102
RTVSPropertyOp11
 70
     1
102
RTVSPropertyOp12
 70
     1
102
RTVSPropertyOp13
 70
     1
102
RTVSPropertyOp14
 70
     1
102
RTVSPropertyOp15
 70
     1
102
RTVSPropertyOp16
 70
     1
102
RTVSPropertyOp17
 70
     1
102
RTVSPropertyOp18
 70
     1
102
RTVSPropertyOp19
 70
     1
102
RTVSPropertyOp20
 70
     1
102
RTVSPropertyOp21
 70
     1
102
RTVSPropertyOp22
 70
     1
102
RTVSPropertyOp23
 70
     1
102
RTVSPropertyOp24
 70
     1
102
RTVSPropertyOp25
 70
     1
102
RTVSPropertyOp26
 70
     1
102
RTVSPropertyOp27
 70
     1
102
RTVSPropertyOp28
 70
     1
102
RTVSPropertyOp29
 70
     1
102
RTVSPropertyOp30
 70
     1
102
RTVSPropertyOp31
 70
     1
102
RTVSPropertyOp32
 70
     1
102
RTVSPropertyOp33
 70
     1
102
RTVSPropertyOp34
 70
     1
102
RTVSPropertyOp35
 70
     1
102
RTVSPropertyOp36
 70
     1
102
RTVSPropertyOp37
 70
     1
102
RTVSPropertyOp38
 70
     1
102
RTVSPropertyOp39
 70
     1
102
RTVSPropertyOp40
 70
     1
102
RTVSPropertyOp41
 70
     1
102
RTVSPropertyOp42
 70
     1
102
RTVSPropertyOp43
 70
     1
102
RTVSPropertyOp44
 70
     1
102
RTVSPropertyOp45
 70
     1
102
RTVSPropertyOp46
 70
     1
102
RTVSPropertyOp47
 70
     1
102
RTVSPropertyOp48
 70
     1
102
RTVSPropertyOp49
 70
     1
102
RTVSPropertyOp50
 70
     1
102
RTVSPropertyOp51
 70
     0
102
RTVSPropertyOp52
 70
     0
102
RTVSPropertyOp53
 70
     1
102
RTVSPropertyOp54
 70
     1
102
RTVSPropertyOp55
 70
     1
102
RTVSPropertyOp56
 70
     1
102
RTVSPropertyOp57
 70
     1
102
RTVSPost2010Prop28
280
     0
102
RTVSPost2010PropOp28
 70
     1
102
RTVSPost2010Prop29
280
     1
102
RTVSPost2010PropOp29
 70
     1
102
RTVSPost2010Prop30
280
     1
102
RTVSPost2010PropOp30
 70
     1
102
RTVSPost2010Prop31
280
     0
102
RTVSPost2010PropOp31
 70
     1
102
RTVSPost2010Prop32
280
     0
102
RTVSPost2010PropOp32
 70
     1
102
RTVSPost2010Prop33
280
     0
102
RTVSPost2010PropOp33
 70
     1
102
RTVSPost2010Prop34
280
     0
102
RTVSPost2010PropOp34
 70
     1
102
RTVSPost2010Prop35
280
     0
102
RTVSPost2010PropOp35
 70
     1
102
RTVSPost2010Prop36
280
     0
102
RTVSPost2010PropOp36
 70
     1
102
RTVSPost2010Prop37
 90
       50
102
RTVSPost2010PropOp37
 70
     1
102
RTVSPost2010Prop38
140
0.0
102
RTVSPost2010PropOp38
 70
     1
102
RTVSPost2010Prop39
140
1.0
102
RTVSPost2010PropOp39
 70
     1
102
RTVSPost2010Prop40
 90
        0
102
RTVSPost2010PropOp40
 70
     1
102
RTVSPost2010Prop41ColorIndex
 90
       18
102
RTVSPost2010Prop41ColorRGB
 90
        0
102
RTVSPost2010PropOp41
 70
     1
102
RTVSPost2010Prop42
 90
       50
102
RTVSPost2010PropOp42
 70
     1
102
RTVSPost2010Prop43
 90
        3
102
RTVSPost2010PropOp43
 70
     1
102
RTVSPost2010Prop44ColorIndex
 90
        5
102
RTVSPost2010Prop44ColorRGB
 90
      255
102
RTVSPost2010PropOp44
 70
     1
102
RTVSPost2010Prop45
280
     0
102
RTVSPost2010PropOp45
 70
     1
102
RTVSPost2010Prop46
 90
       50
102
RTVSPost2010PropOp46
 70
     1
102
RTVSPost2010Prop47
 90
       50
102
RTVSPost2010PropOp47
 70
     1
102
RTVSPost2010Prop48
 90
       50
102
RTVSPost2010PropOp48
 70
     1
102
RTVSPost2010Prop49
280
     0
102
RTVSPost2010PropOp49
 70
     1
102
RTVSPost2010Prop50
 90
       50
102
RTVSPost2010PropOp50
 70
     1
102
RTVSPost2010Prop51ColorIndex
 90
      256
102
RTVSPost2010Prop51ColorRGB
 90
-16777216
102
RTVSPost2010PropOp51
 70
     0
102
RTVSPost2010Prop52
140
1.0
102
RTVSPost2010PropOp52
 70
     0
102
RTVSPost2010Prop53
 90
        2
102
RTVSPost2010PropOp53
 70
     1
102
RTVSPost2010Prop54
  1
strokes_ogs.tif
102
RTVSPost2010PropOp54
 70
     1
102
RTVSPost2010Prop55
280
     0
102
RTVSPost2010PropOp55
 70
     1
102
RTVSPost2010Prop56
140
1.0
102
RTVSPost2010PropOp56
 70
     1
102
RTVSPost2010Prop57
140
1.0
102
RTVSPost2010PropOp57
 70
     1
  0
XRECORD
  5
368
102
{ACAD_REACTORS
330
367
102
}
330
367
100
AcDbXrecord
280
     1
102
RTVSPropertyOp0
 70
     1
102
RTVSPropertyOp1
 70
     1
102
RTVSPropertyOp2
 70
     1
102
RTVSPropertyOp3
 70
     1
102
RTVSPropertyOp4
 70
     1
102
RTVSPropertyOp5
 70
     1
102
RTVSPropertyOp6
 70
     1
102
RTVSPropertyOp7
 70
     1
102
RTVSPropertyOp8
 70
     1
102
RTVSPropertyOp9
 70
     1
102
RTVSPropertyOp10
 70
     1
102
RTVSPropertyOp11
 70
     1
102
RTVSPropertyOp12
 70
     1
102
RTVSPropertyOp13
 70
     1
102
RTVSPropertyOp14
 70
     1
102
RTVSPropertyOp15
 70
     1
102
RTVSPropertyOp16
 70
     1
102
RTVSPropertyOp17
 70
     1
102
RTVSPropertyOp18
 70
     1
102
RTVSPropertyOp19
 70
     1
102
RTVSPropertyOp20
 70
     1
102
RTVSPropertyOp21
 70
     1
102
RTVSPropertyOp22
 70
     1
102
RTVSPropertyOp23
 70
     1
102
RTVSPropertyOp24
 70
     1
102
RTVSPropertyOp25
 70
     1
102
RTVSPropertyOp26
 70
     1
102
RTVSPropertyOp27
 70
     1
102
RTVSPropertyOp28
 70
     1
102
RTVSPropertyOp29
 70
     1
102
RTVSPropertyOp30
 70
     1
102
RTVSPropertyOp31
 70
     1
102
RTVSPropertyOp32
 70
     1
102
RTVSPropertyOp33
 70
     1
102
RTVSPropertyOp34
 70
     1
102
RTVSPropertyOp35
 70
     1
102
RTVSPropertyOp36
 70
     1
102
RTVSPropertyOp37
 70
     1
102
RTVSPropertyOp38
 70
     1
102
RTVSPropertyOp39
 70
     1
102
RTVSPropertyOp40
 70
     1
102
RTVSPropertyOp41
 70
     1
102
RTVSPropertyOp42
 70
     1
102
RTVSPropertyOp43
 70
     1
102
RTVSPropertyOp44
 70
     1
102
RTVSPropertyOp45
 70
     1
102
RTVSPropertyOp46
 70
     1
102
RTVSPropertyOp47
 70
     1
102
RTVSPropertyOp48
 70
     1
102
RTVSPropertyOp49
 70
     1
102
RTVSPropertyOp50
 70
     1
102
RTVSPropertyOp51
 70
     0
102
RTVSPropertyOp52
 70
     0
102
RTVSPropertyOp53
 70
     1
102
RTVSPropertyOp54
 70
     1
102
RTVSPropertyOp55
 70
     1
102
RTVSPropertyOp56
 70
     1
102
RTVSPropertyOp57
 70
     1
102
RTVSPost2010Prop28
280
     0
102
RTVSPost2010PropOp28
 70
     1
102
RTVSPost2010Prop29
280
     1
102
RTVSPost2010PropOp29
 70
     1
102
RTVSPost2010Prop30
280
     1
102
RTVSPost2010PropOp30
 70
     1
102
RTVSPost2010Prop31
280
     0
102
RTVSPost2010PropOp31
 70
     1
102
RTVSPost2010Prop32
280
     0
102
RTVSPost2010PropOp32
 70
     1
102
RTVSPost2010Prop33
280
     0
102
RTVSPost2010PropOp33
 70
     1
102
RTVSPost2010Prop34
280
     0
102
RTVSPost2010PropOp34
 70
     1
102
RTVSPost2010Prop35
280
     0
102
RTVSPost2010PropOp35
 70
     1
102
RTVSPost2010Prop36
280
     0
102
RTVSPost2010PropOp36
 70
     1
102
RTVSPost2010Prop37
 90
       50
102
RTVSPost2010PropOp37
 70
     1
102
RTVSPost2010Prop38
140
0.0
102
RTVSPost2010PropOp38
 70
     1
102
RTVSPost2010Prop39
140
1.0
102
RTVSPost2010PropOp39
 70
     1
102
RTVSPost2010Prop40
 90
        0
102
RTVSPost2010PropOp40
 70
     1
102
RTVSPost2010Prop41ColorIndex
 90
       18
102
RTVSPost2010Prop41ColorRGB
 90
        0
102
RTVSPost2010PropOp41
 70
     1
102
RTVSPost2010Prop42
 90
       50
102
RTVSPost2010PropOp42
 70
     1
102
RTVSPost2010Prop43
 90
        3
102
RTVSPost2010PropOp43
 70
     1
102
RTVSPost2010Prop44ColorIndex
 90
        5
102
RTVSPost2010Prop44ColorRGB
 90
      255
102
RTVSPost2010PropOp44
 70
     1
102
RTVSPost2010Prop45
280
     0
102
RTVSPost2010PropOp45
 70
     1
102
RTVSPost2010Prop46
 90
       50
102
RTVSPost2010PropOp46
 70
     1
102
RTVSPost2010Prop47
 90
       50
102
RTVSPost2010PropOp47
 70
     1
102
RTVSPost2010Prop48
 90
       50
102
RTVSPost2010PropOp48
 70
     1
102
RTVSPost2010Prop49
280
     0
102
RTVSPost2010PropOp49
 70
     1
102
RTVSPost2010Prop50
 90
       50
102
RTVSPost2010PropOp50
 70
     1
102
RTVSPost2010Prop51ColorIndex
 90
      256
102
RTVSPost2010Prop51ColorRGB
 90
-16777216
102
RTVSPost2010PropOp51
 70
     0
102
RTVSPost2010Prop52
140
1.0
102
RTVSPost2010PropOp52
 70
     0
102
RTVSPost2010Prop53
 90
        2
102
RTVSPost2010PropOp53
 70
     1
102
RTVSPost2010Prop54
  1
strokes_ogs.tif
102
RTVSPost2010PropOp54
 70
     1
102
RTVSPost2010Prop55
280
     0
102
RTVSPost2010PropOp55
 70
     1
102
RTVSPost2010Prop56
140
1.0
102
RTVSPost2010PropOp56
 70
     1
102
RTVSPost2010Prop57
140
1.0
102
RTVSPost2010PropOp57
 70
     1
  0
XRECORD
  5
358
102
{ACAD_REACTORS
330
357
102
}
330
357
100
AcDbXrecord
280
     1
102
RTVSPropertyOp0
 70
     1
102
RTVSPropertyOp1
 70
     1
102
RTVSPropertyOp2
 70
     1
102
RTVSPropertyOp3
 70
     1
102
RTVSPropertyOp4
 70
     1
102
RTVSPropertyOp5
 70
     1
102
RTVSPropertyOp6
 70
     1
102
RTVSPropertyOp7
 70
     1
102
RTVSPropertyOp8
 70
     1
102
RTVSPropertyOp9
 70
     1
102
RTVSPropertyOp10
 70
     1
102
RTVSPropertyOp11
 70
     1
102
RTVSPropertyOp12
 70
     1
102
RTVSPropertyOp13
 70
     1
102
RTVSPropertyOp14
 70
     1
102
RTVSPropertyOp15
 70
     1
102
RTVSPropertyOp16
 70
     1
102
RTVSPropertyOp17
 70
     1
102
RTVSPropertyOp18
 70
     1
102
RTVSPropertyOp19
 70
     1
102
RTVSPropertyOp20
 70
     1
102
RTVSPropertyOp21
 70
     1
102
RTVSPropertyOp22
 70
     1
102
RTVSPropertyOp23
 70
     1
102
RTVSPropertyOp24
 70
     1
102
RTVSPropertyOp25
 70
     1
102
RTVSPropertyOp26
 70
     1
102
RTVSPropertyOp27
 70
     1
102
RTVSPropertyOp28
 70
     1
102
RTVSPropertyOp29
 70
     1
102
RTVSPropertyOp30
 70
     1
102
RTVSPropertyOp31
 70
     1
102
RTVSPropertyOp32
 70
     1
102
RTVSPropertyOp33
 70
     1
102
RTVSPropertyOp34
 70
     1
102
RTVSPropertyOp35
 70
     1
102
RTVSPropertyOp36
 70
     1
102
RTVSPropertyOp37
 70
     1
102
RTVSPropertyOp38
 70
     1
102
RTVSPropertyOp39
 70
     1
102
RTVSPropertyOp40
 70
     1
102
RTVSPropertyOp41
 70
     1
102
RTVSPropertyOp42
 70
     1
102
RTVSPropertyOp43
 70
     1
102
RTVSPropertyOp44
 70
     1
102
RTVSPropertyOp45
 70
     1
102
RTVSPropertyOp46
 70
     1
102
RTVSPropertyOp47
 70
     1
102
RTVSPropertyOp48
 70
     1
102
RTVSPropertyOp49
 70
     1
102
RTVSPropertyOp50
 70
     1
102
RTVSPropertyOp51
 70
     0
102
RTVSPropertyOp52
 70
     0
102
RTVSPropertyOp53
 70
     1
102
RTVSPropertyOp54
 70
     1
102
RTVSPropertyOp55
 70
     1
102
RTVSPropertyOp56
 70
     1
102
RTVSPropertyOp57
 70
     1
102
RTVSPost2010Prop28
280
     0
102
RTVSPost2010PropOp28
 70
     1
102
RTVSPost2010Prop29
280
     1
102
RTVSPost2010PropOp29
 70
     1
102
RTVSPost2010Prop30
280
     1
102
RTVSPost2010PropOp30
 70
     1
102
RTVSPost2010Prop31
280
     0
102
RTVSPost2010PropOp31
 70
     1
102
RTVSPost2010Prop32
280
     0
102
RTVSPost2010PropOp32
 70
     1
102
RTVSPost2010Prop33
280
     0
102
RTVSPost2010PropOp33
 70
     1
102
RTVSPost2010Prop34
280
     0
102
RTVSPost2010PropOp34
 70
     1
102
RTVSPost2010Prop35
280
     0
102
RTVSPost2010PropOp35
 70
     1
102
RTVSPost2010Prop36
280
     0
102
RTVSPost2010PropOp36
 70
     1
102
RTVSPost2010Prop37
 90
       50
102
RTVSPost2010PropOp37
 70
     1
102
RTVSPost2010Prop38
140
0.0
102
RTVSPost2010PropOp38
 70
     1
102
RTVSPost2010Prop39
140
1.0
102
RTVSPost2010PropOp39
 70
     1
102
RTVSPost2010Prop40
 90
        0
102
RTVSPost2010PropOp40
 70
     1
102
RTVSPost2010Prop41ColorIndex
 90
       18
102
RTVSPost2010Prop41ColorRGB
 90
        0
102
RTVSPost2010PropOp41
 70
     1
102
RTVSPost2010Prop42
 90
       50
102
RTVSPost2010PropOp42
 70
     1
102
RTVSPost2010Prop43
 90
        3
102
RTVSPost2010PropOp43
 70
     1
102
RTVSPost2010Prop44ColorIndex
 90
        5
102
RTVSPost2010Prop44ColorRGB
 90
      255
102
RTVSPost2010PropOp44
 70
     1
102
RTVSPost2010Prop45
280
     0
102
RTVSPost2010PropOp45
 70
     1
102
RTVSPost2010Prop46
 90
       50
102
RTVSPost2010PropOp46
 70
     1
102
RTVSPost2010Prop47
 90
       50
102
RTVSPost2010PropOp47
 70
     1
102
RTVSPost2010Prop48
 90
       50
102
RTVSPost2010PropOp48
 70
     1
102
RTVSPost2010Prop49
280
     0
102
RTVSPost2010PropOp49
 70
     1
102
RTVSPost2010Prop50
 90
       50
102
RTVSPost2010PropOp50
 70
     1
102
RTVSPost2010Prop51ColorIndex
 90
      256
102
RTVSPost2010Prop51ColorRGB
 90
-16777216
102
RTVSPost2010PropOp51
 70
     0
102
RTVSPost2010Prop52
140
1.0
102
RTVSPost2010PropOp52
 70
     0
102
RTVSPost2010Prop53
 90
        2
102
RTVSPost2010PropOp53
 70
     1
102
RTVSPost2010Prop54
  1
strokes_ogs.tif
102
RTVSPost2010PropOp54
 70
     1
102
RTVSPost2010Prop55
280
     0
102
RTVSPost2010PropOp55
 70
     1
102
RTVSPost2010Prop56
140
1.0
102
RTVSPost2010PropOp56
 70
     1
102
RTVSPost2010Prop57
140
1.0
102
RTVSPost2010PropOp57
 70
     1
  0
XRECORD
  5
34A
102
{ACAD_REACTORS
330
349
102
}
330
349
100
AcDbXrecord
280
     1
102
RTVSPropertyOp0
 70
     1
102
RTVSPropertyOp1
 70
     1
102
RTVSPropertyOp2
 70
     1
102
RTVSPropertyOp3
 70
     1
102
RTVSPropertyOp4
 70
     1
102
RTVSPropertyOp5
 70
     1
102
RTVSPropertyOp6
 70
     1
102
RTVSPropertyOp7
 70
     1
102
RTVSPropertyOp8
 70
     1
102
RTVSPropertyOp9
 70
     1
102
RTVSPropertyOp10
 70
     1
102
RTVSPropertyOp11
 70
     1
102
RTVSPropertyOp12
 70
     1
102
RTVSPropertyOp13
 70
     1
102
RTVSPropertyOp14
 70
     1
102
RTVSPropertyOp15
 70
     1
102
RTVSPropertyOp16
 70
     1
102
RTVSPropertyOp17
 70
     1
102
RTVSPropertyOp18
 70
     1
102
RTVSPropertyOp19
 70
     1
102
RTVSPropertyOp20
 70
     1
102
RTVSPropertyOp21
 70
     1
102
RTVSPropertyOp22
 70
     1
102
RTVSPropertyOp23
 70
     1
102
RTVSPropertyOp24
 70
     1
102
RTVSPropertyOp25
 70
     1
102
RTVSPropertyOp26
 70
     1
102
RTVSPropertyOp27
 70
     1
102
RTVSPropertyOp28
 70
     1
102
RTVSPropertyOp29
 70
     1
102
RTVSPropertyOp30
 70
     1
102
RTVSPropertyOp31
 70
     1
102
RTVSPropertyOp32
 70
     1
102
RTVSPropertyOp33
 70
     1
102
RTVSPropertyOp34
 70
     1
102
RTVSPropertyOp35
 70
     1
102
RTVSPropertyOp36
 70
     1
102
RTVSPropertyOp37
 70
     1
102
RTVSPropertyOp38
 70
     1
102
RTVSPropertyOp39
 70
     1
102
RTVSPropertyOp40
 70
     1
102
RTVSPropertyOp41
 70
     1
102
RTVSPropertyOp42
 70
     1
102
RTVSPropertyOp43
 70
     1
102
RTVSPropertyOp44
 70
     1
102
RTVSPropertyOp45
 70
     1
102
RTVSPropertyOp46
 70
     1
102
RTVSPropertyOp47
 70
     1
102
RTVSPropertyOp48
 70
     1
102
RTVSPropertyOp49
 70
     1
102
RTVSPropertyOp50
 70
     1
102
RTVSPropertyOp51
 70
     0
102
RTVSPropertyOp52
 70
     0
102
RTVSPropertyOp53
 70
     1
102
RTVSPropertyOp54
 70
     1
102
RTVSPropertyOp55
 70
     1
102
RTVSPropertyOp56
 70
     1
102
RTVSPropertyOp57
 70
     1
102
RTVSPost2010Prop28
280
     0
102
RTVSPost2010PropOp28
 70
     1
102
RTVSPost2010Prop29
280
     1
102
RTVSPost2010PropOp29
 70
     1
102
RTVSPost2010Prop30
280
     1
102
RTVSPost2010PropOp30
 70
     1
102
RTVSPost2010Prop31
280
     0
102
RTVSPost2010PropOp31
 70
     1
102
RTVSPost2010Prop32
280
     0
102
RTVSPost2010PropOp32
 70
     1
102
RTVSPost2010Prop33
280
     0
102
RTVSPost2010PropOp33
 70
     1
102
RTVSPost2010Prop34
280
     0
102
RTVSPost2010PropOp34
 70
     1
102
RTVSPost2010Prop35
280
     0
102
RTVSPost2010PropOp35
 70
     1
102
RTVSPost2010Prop36
280
     0
102
RTVSPost2010PropOp36
 70
     1
102
RTVSPost2010Prop37
 90
       50
102
RTVSPost2010PropOp37
 70
     1
102
RTVSPost2010Prop38
140
0.0
102
RTVSPost2010PropOp38
 70
     1
102
RTVSPost2010Prop39
140
1.0
102
RTVSPost2010PropOp39
 70
     1
102
RTVSPost2010Prop40
 90
        0
102
RTVSPost2010PropOp40
 70
     1
102
RTVSPost2010Prop41ColorIndex
 90
       18
102
RTVSPost2010Prop41ColorRGB
 90
        0
102
RTVSPost2010PropOp41
 70
     1
102
RTVSPost2010Prop42
 90
       50
102
RTVSPost2010PropOp42
 70
     1
102
RTVSPost2010Prop43
 90
        3
102
RTVSPost2010PropOp43
 70
     1
102
RTVSPost2010Prop44ColorIndex
 90
        5
102
RTVSPost2010Prop44ColorRGB
 90
      255
102
RTVSPost2010PropOp44
 70
     1
102
RTVSPost2010Prop45
280
     0
102
RTVSPost2010PropOp45
 70
     1
102
RTVSPost2010Prop46
 90
       50
102
RTVSPost2010PropOp46
 70
     1
102
RTVSPost2010Prop47
 90
       50
102
RTVSPost2010PropOp47
 70
     1
102
RTVSPost2010Prop48
 90
       50
102
RTVSPost2010PropOp48
 70
     1
102
RTVSPost2010Prop49
280
     0
102
RTVSPost2010PropOp49
 70
     1
102
RTVSPost2010Prop50
 90
       50
102
RTVSPost2010PropOp50
 70
     1
102
RTVSPost2010Prop51ColorIndex
 90
      256
102
RTVSPost2010Prop51ColorRGB
 90
-16777216
102
RTVSPost2010PropOp51
 70
     0
102
RTVSPost2010Prop52
140
1.0
102
RTVSPost2010PropOp52
 70
     0
102
RTVSPost2010Prop53
 90
        2
102
RTVSPost2010PropOp53
 70
     1
102
RTVSPost2010Prop54
  1
strokes_ogs.tif
102
RTVSPost2010PropOp54
 70
     1
102
RTVSPost2010Prop55
280
     0
102
RTVSPost2010PropOp55
 70
     1
102
RTVSPost2010Prop56
140
1.0
102
RTVSPost2010PropOp56
 70
     1
102
RTVSPost2010Prop57
140
1.0
102
RTVSPost2010PropOp57
 70
     1
  0
XRECORD
  5
36A
102
{ACAD_REACTORS
330
369
102
}
330
369
100
AcDbXrecord
280
     1
102
RTVSPropertyOp0
 70
     1
102
RTVSPropertyOp1
 70
     1
102
RTVSPropertyOp2
 70
     1
102
RTVSPropertyOp3
 70
     1
102
RTVSPropertyOp4
 70
     1
102
RTVSPropertyOp5
 70
     1
102
RTVSPropertyOp6
 70
     1
102
RTVSPropertyOp7
 70
     1
102
RTVSPropertyOp8
 70
     1
102
RTVSPropertyOp9
 70
     1
102
RTVSPropertyOp10
 70
     1
102
RTVSPropertyOp11
 70
     1
102
RTVSPropertyOp12
 70
     1
102
RTVSPropertyOp13
 70
     1
102
RTVSPropertyOp14
 70
     1
102
RTVSPropertyOp15
 70
     1
102
RTVSPropertyOp16
 70
     1
102
RTVSPropertyOp17
 70
     1
102
RTVSPropertyOp18
 70
     1
102
RTVSPropertyOp19
 70
     1
102
RTVSPropertyOp20
 70
     1
102
RTVSPropertyOp21
 70
     1
102
RTVSPropertyOp22
 70
     1
102
RTVSPropertyOp23
 70
     1
102
RTVSPropertyOp24
 70
     1
102
RTVSPropertyOp25
 70
     1
102
RTVSPropertyOp26
 70
     1
102
RTVSPropertyOp27
 70
     1
102
RTVSPropertyOp28
 70
     1
102
RTVSPropertyOp29
 70
     1
102
RTVSPropertyOp30
 70
     1
102
RTVSPropertyOp31
 70
     1
102
RTVSPropertyOp32
 70
     1
102
RTVSPropertyOp33
 70
     1
102
RTVSPropertyOp34
 70
     1
102
RTVSPropertyOp35
 70
     1
102
RTVSPropertyOp36
 70
     1
102
RTVSPropertyOp37
 70
     1
102
RTVSPropertyOp38
 70
     1
102
RTVSPropertyOp39
 70
     1
102
RTVSPropertyOp40
 70
     1
102
RTVSPropertyOp41
 70
     1
102
RTVSPropertyOp42
 70
     1
102
RTVSPropertyOp43
 70
     1
102
RTVSPropertyOp44
 70
     1
102
RTVSPropertyOp45
 70
     1
102
RTVSPropertyOp46
 70
     1
102
RTVSPropertyOp47
 70
     1
102
RTVSPropertyOp48
 70
     1
102
RTVSPropertyOp49
 70
     1
102
RTVSPropertyOp50
 70
     1
102
RTVSPropertyOp51
 70
     0
102
RTVSPropertyOp52
 70
     0
102
RTVSPropertyOp53
 70
     1
102
RTVSPropertyOp54
 70
     1
102
RTVSPropertyOp55
 70
     1
102
RTVSPropertyOp56
 70
     1
102
RTVSPropertyOp57
 70
     1
102
RTVSPost2010Prop28
280
     0
102
RTVSPost2010PropOp28
 70
     1
102
RTVSPost2010Prop29
280
     1
102
RTVSPost2010PropOp29
 70
     1
102
RTVSPost2010Prop30
280
     1
102
RTVSPost2010PropOp30
 70
     1
102
RTVSPost2010Prop31
280
     0
102
RTVSPost2010PropOp31
 70
     1
102
RTVSPost2010Prop32
280
     0
102
RTVSPost2010PropOp32
 70
     1
102
RTVSPost2010Prop33
280
     0
102
RTVSPost2010PropOp33
 70
     1
102
RTVSPost2010Prop34
280
     0
102
RTVSPost2010PropOp34
 70
     1
102
RTVSPost2010Prop35
280
     0
102
RTVSPost2010PropOp35
 70
     1
102
RTVSPost2010Prop36
280
     0
102
RTVSPost2010PropOp36
 70
     1
102
RTVSPost2010Prop37
 90
       50
102
RTVSPost2010PropOp37
 70
     1
102
RTVSPost2010Prop38
140
0.0
102
RTVSPost2010PropOp38
 70
     1
102
RTVSPost2010Prop39
140
1.0
102
RTVSPost2010PropOp39
 70
     1
102
RTVSPost2010Prop40
 90
        0
102
RTVSPost2010PropOp40
 70
     1
102
RTVSPost2010Prop41ColorIndex
 90
       18
102
RTVSPost2010Prop41ColorRGB
 90
        0
102
RTVSPost2010PropOp41
 70
     1
102
RTVSPost2010Prop42
 90
       50
102
RTVSPost2010PropOp42
 70
     1
102
RTVSPost2010Prop43
 90
        3
102
RTVSPost2010PropOp43
 70
     1
102
RTVSPost2010Prop44ColorIndex
 90
        5
102
RTVSPost2010Prop44ColorRGB
 90
      255
102
RTVSPost2010PropOp44
 70
     1
102
RTVSPost2010Prop45
280
     0
102
RTVSPost2010PropOp45
 70
     1
102
RTVSPost2010Prop46
 90
       50
102
RTVSPost2010PropOp46
 70
     1
102
RTVSPost2010Prop47
 90
       50
102
RTVSPost2010PropOp47
 70
     1
102
RTVSPost2010Prop48
 90
       50
102
RTVSPost2010PropOp48
 70
     1
102
RTVSPost2010Prop49
280
     0
102
RTVSPost2010PropOp49
 70
     1
102
RTVSPost2010Prop50
 90
       50
102
RTVSPost2010PropOp50
 70
     1
102
RTVSPost2010Prop51ColorIndex
 90
      256
102
RTVSPost2010Prop51ColorRGB
 90
-16777216
102
RTVSPost2010PropOp51
 70
     0
102
RTVSPost2010Prop52
140
1.0
102
RTVSPost2010PropOp52
 70
     0
102
RTVSPost2010Prop53
 90
        2
102
RTVSPost2010PropOp53
 70
     1
102
RTVSPost2010Prop54
  1
strokes_ogs.tif
102
RTVSPost2010PropOp54
 70
     1
102
RTVSPost2010Prop55
280
     0
102
RTVSPost2010PropOp55
 70
     1
102
RTVSPost2010Prop56
140
1.0
102
RTVSPost2010PropOp56
 70
     1
102
RTVSPost2010Prop57
140
1.0
102
RTVSPost2010PropOp57
 70
     1
  0
ENDSEC
  0
EOF
