  0
SECTION
  2
HEADER
  9
$ACADVER
  1
AC1018
  9
$ACADMAINTVER
 70
     0
  9
$DWGCODEPAGE
  3
ANSI_1252
  9
$INSBASE
 10
0.0
 20
0.0
 30
0.0
  9
$EXTMIN
 10
-241.4039288637821
 20
9.56401123545845
 30
0.0
  9
$EXTMAX
 10
55.59607113621598
 20
219.5640112354586
 30
0.0
  9
$LIMMIN
 10
0.0
 20
0.0
  9
$LIMMAX
 10
12.0
 20
9.0
  9
$ORTHOMODE
 70
     0
  9
$REGENMODE
 70
     1
  9
$FILLMODE
 70
     1
  9
$QTEXTMODE
 70
     0
  9
$MIRRTEXT
 70
     1
  9
$LTSCALE
 40
1.0
  9
$ATTMODE
 70
     1
  9
$TEXTSIZE
 40
0.2
  9
$TRACEWID
 40
0.05
  9
$TEXTSTYLE
  7
Standard
  9
$CLAYER
  8
0
  9
$CELTYPE
  6
ByLayer
  9
$CECOLOR
 62
   256
  9
$CELTSCALE
 40
1.0
  9
$DISPSILH
 70
     0
  9
$DIMSCALE
 40
1.0
  9
$DIMASZ
 40
0.18
  9
$DIMEXO
 40
0.0625
  9
$DIMDLI
 40
0.38
  9
$DIMRND
 40
0.0
  9
$DIMDLE
 40
0.0
  9
$DIMEXE
 40
0.18
  9
$DIMTP
 40
0.0
  9
$DIMTM
 40
0.0
  9
$DIMTXT
 40
0.18
  9
$DIMCEN
 40
0.09
  9
$DIMTSZ
 40
0.0
  9
$DIMTOL
 70
     0
  9
$DIMLIM
 70
     0
  9
$DIMTIH
 70
     1
  9
$DIMTOH
 70
     1
  9
$DIMSE1
 70
     0
  9
$DIMSE2
 70
     0
  9
$DIMTAD
 70
     0
  9
$DIMZIN
 70
     0
  9
$DIMBLK
  1

  9
$DIMASO
 70
     1
  9
$DIMSHO
 70
     1
  9
$DIMPOST
  1

  9
$DIMAPOST
  1

  9
$DIMALT
 70
     0
  9
$DIMALTD
 70
     2
  9
$DIMALTF
 40
25.4
  9
$DIMLFAC
 40
1.0
  9
$DIMTOFL
 70
     0
  9
$DIMTVP
 40
0.0
  9
$DIMTIX
 70
     0
  9
$DIMSOXD
 70
     0
  9
$DIMSAH
 70
     0
  9
$DIMBLK1
  1

  9
$DIMBLK2
  1

  9
$DIMSTYLE
  2
Standard
  9
$DIMCLRD
 70
     0
  9
$DIMCLRE
 70
     0
  9
$DIMCLRT
 70
     0
  9
$DIMTFAC
 40
1.0
  9
$DIMGAP
 40
0.09
  9
$DIMJUST
 70
     0
  9
$DIMSD1
 70
     0
  9
$DIMSD2
 70
     0
  9
$DIMTOLJ
 70
     1
  9
$DIMTZIN
 70
     0
  9
$DIMALTZ
 70
     0
  9
$DIMALTTZ
 70
     0
  9
$DIMUPT
 70
     0
  9
$DIMDEC
 70
     4
  9
$DIMTDEC
 70
     4
  9
$DIMALTU
 70
     2
  9
$DIMALTTD
 70
     2
  9
$DIMTXSTY
  7
Standard
  9
$DIMAUNIT
 70
     0
  9
$DIMADEC
 70
     0
  9
$DIMALTRND
 40
0.0
  9
$DIMAZIN
 70
     0
  9
$DIMDSEP
 70
    46
  9
$DIMATFIT
 70
     3
  9
$DIMFRAC
 70
     0
  9
$DIMLDRBLK
  1

  9
$DIMLUNIT
 70
     2
  9
$DIMLWD
 70
    -2
  9
$DIMLWE
 70
    -2
  9
$DIMTMOVE
 70
     0
  9
$LUNITS
 70
     2
  9
$LUPREC
 70
     4
  9
$SKETCHINC
 40
0.1
  9
$FILLETRAD
 40
0.5
  9
$AUNITS
 70
     0
  9
$AUPREC
 70
     0
  9
$MENU
  1
.
  9
$ELEVATION
 40
0.0
  9
$PELEVATION
 40
0.0
  9
$THICKNESS
 40
0.0
  9
$LIMCHECK
 70
     0
  9
$CHAMFERA
 40
0.5
  9
$CHAMFERB
 40
0.5
  9
$CHAMFERC
 40
1.0
  9
$CHAMFERD
 40
0.0
  9
$SKPOLY
 70
     0
  9
$TDCREATE
 40
2458065.315578333
  9
$TDUCREATE
 40
2458065.273911667
  9
$TDUPDATE
 40
2458065.315579062
  9
$TDUUPDATE
 40
2458065.273912396
  9
$TDINDWG
 40
0.0000000116
  9
$TDUSRTIMER
 40
0.0000000116
  9
$USRTIMER
 70
     1
  9
$ANGBASE
 50
0.0
  9
$ANGDIR
 70
     0
  9
$PDMODE
 70
     0
  9
$PDSIZE
 40
0.0
  9
$PLINEWID
 40
0.0
  9
$SPLFRAME
 70
     0
  9
$SPLINETYPE
 70
     6
  9
$SPLINESEGS
 70
     8
  9
$HANDSEED
  5
48E
  9
$SURFTAB1
 70
     6
  9
$SURFTAB2
 70
     6
  9
$SURFTYPE
 70
     6
  9
$SURFU
 70
     6
  9
$SURFV
 70
     6
  9
$UCSBASE
  2

  9
$UCSNAME
  2

  9
$UCSORG
 10
0.0
 20
0.0
 30
0.0
  9
$UCSXDIR
 10
1.0
 20
0.0
 30
0.0
  9
$UCSYDIR
 10
0.0
 20
1.0
 30
0.0
  9
$UCSORTHOREF
  2

  9
$UCSORTHOVIEW
 70
     0
  9
$UCSORGTOP
 10
0.0
 20
0.0
 30
0.0
  9
$UCSORGBOTTOM
 10
0.0
 20
0.0
 30
0.0
  9
$UCSORGLEFT
 10
0.0
 20
0.0
 30
0.0
  9
$UCSORGRIGHT
 10
0.0
 20
0.0
 30
0.0
  9
$UCSORGFRONT
 10
0.0
 20
0.0
 30
0.0
  9
$UCSORGBACK
 10
0.0
 20
0.0
 30
0.0
  9
$PUCSBASE
  2

  9
$PUCSNAME
  2

  9
$PUCSORG
 10
0.0
 20
0.0
 30
0.0
  9
$PUCSXDIR
 10
1.0
 20
0.0
 30
0.0
  9
$PUCSYDIR
 10
0.0
 20
1.0
 30
0.0
  9
$PUCSORTHOREF
  2

  9
$PUCSORTHOVIEW
 70
     0
  9
$PUCSORGTOP
 10
0.0
 20
0.0
 30
0.0
  9
$PUCSORGBOTTOM
 10
0.0
 20
0.0
 30
0.0
  9
$PUCSORGLEFT
 10
0.0
 20
0.0
 30
0.0
  9
$PUCSORGRIGHT
 10
0.0
 20
0.0
 30
0.0
  9
$PUCSORGFRONT
 10
0.0
 20
0.0
 30
0.0
  9
$PUCSORGBACK
 10
0.0
 20
0.0
 30
0.0
  9
$USERI1
 70
     0
  9
$USERI2
 70
     0
  9
$USERI3
 70
     0
  9
$USERI4
 70
     0
  9
$USERI5
 70
     0
  9
$USERR1
 40
18.1
  9
$USERR2
 40
0.0
  9
$USERR3
 40
0.0
  9
$USERR4
 40
0.0
  9
$USERR5
 40
0.0
  9
$WORLDVIEW
 70
     1
  9
$SHADEDGE
 70
     3
  9
$SHADEDIF
 70
    70
  9
$TILEMODE
 70
     1
  9
$MAXACTVP
 70
    64
  9
$PINSBASE
 10
0.0
 20
0.0
 30
0.0
  9
$PLIMCHECK
 70
     0
  9
$PEXTMIN
 10
1.00000000000000E+20
 20
1.00000000000000E+20
 30
1.00000000000000E+20
  9
$PEXTMAX
 10
-1.00000000000000E+20
 20
-1.00000000000000E+20
 30
-1.00000000000000E+20
  9
$PLIMMIN
 10
0.0
 20
0.0
  9
$PLIMMAX
 10
12.0
 20
9.0
  9
$UNITMODE
 70
     0
  9
$VISRETAIN
 70
     1
  9
$PLINEGEN
 70
     0
  9
$PSLTSCALE
 70
     1
  9
$TREEDEPTH
 70
  3020
  9
$CMLSTYLE
  2
Standard
  9
$CMLJUST
 70
     0
  9
$CMLSCALE
 40
1.0
  9
$PROXYGRAPHICS
 70
     1
  9
$MEASUREMENT
 70
     1
  9
$CELWEIGHT
370
    -1
  9
$ENDCAPS
280
     0
  9
$JOINSTYLE
280
     0
  9
$LWDISPLAY
290
     0
  9
$INSUNITS
 70
     4
  9
$HYPERLINKBASE
  1

  9
$STYLESHEET
  1

  9
$XEDIT
290
     1
  9
$CEPSNTYPE
380
     0
  9
$PSTYLEMODE
290
     1
  9
$FINGERPRINTGUID
  2
{46E2AB61-456E-47E7-8DC0-AE6095AA1B78}
  9
$VERSIONGUID
  2
{FAEB1C32-E019-11D5-929B-00C0DF256EC4}
  9
$EXTNAMES
290
     1
  9
$PSVPSCALE
 40
0.0
  9
$OLESTARTUP
290
     0
  9
$SORTENTS
280
   127
  9
$INDEXCTL
280
     0
  9
$HIDETEXT
280
     1
  9
$XCLIPFRAME
290
     0
  9
$HALOGAP
280
     0
  9
$OBSCOLOR
 70
   257
  9
$OBSLTYPE
280
     0
  9
$INTERSECTIONDISPLAY
280
     0
  9
$INTERSECTIONCOLOR
 70
   257
  9
$DIMASSOC
280
     2
  9
$PROJECTNAME
  1

  0
ENDSEC
  0
SECTION
  2
CLASSES
  0
CLASS
  1
ACDBDICTIONARYWDFLT
  2
AcDbDictionaryWithDefault
  3
ObjectDBX Classes
 90
        0
 91
        4
280
     0
281
     0
  0
CLASS
  1
VISUALSTYLE
  2
AcDbVisualStyle
  3
ObjectDBX Classes
 90
     4095
 91
        4
280
     0
281
     0
  0
CLASS
  1
MATERIAL
  2
AcDbMaterial
  3
ObjectDBX Classes
 90
     1153
 91
        4
280
     0
281
     0
  0
ENDSEC
  0
SECTION
  2
TABLES
  0
TABLE
  2
VPORT
  5
8
330
0
100
AcDbSymbolTable
 70
     1
  0
VPORT
  5
29
330
8
100
AcDbSymbolTableRecord
100
AcDbViewportTableRecord
  2
*Active
 70
     0
 10
0.0
 20
0.0
 11
1.0
 21
1.0
 12
-92.90392886378307
 22
114.5640112354585
 13
0.0
 23
0.0
 14
0.5
 24
0.5
 15
0.5
 25
0.5
 16
0.0
 26
0.0
 36
1.0
 17
0.0
 27
0.0
 37
0.0
 40
231.0000000000002
 41
1.60267857142857
 42
50.0
 43
0.0
 44
0.0
 50
0.0
 51
0.0
 71
     0
 72
   100
 73
     1
 74
     3
 75
     0
 76
     0
 77
     0
 78
     0
281
     0
 65
     1
110
0.0
120
0.0
130
0.0
111
1.0
121
0.0
131
0.0
112
0.0
122
1.0
132
0.0
 79
     0
146
0.0
  0
ENDTAB
  0
TABLE
  2
LTYPE
  5
5
330
0
100
AcDbSymbolTable
 70
     8
  0
LTYPE
  5
14
330
5
100
AcDbSymbolTableRecord
100
AcDbLinetypeTableRecord
  2
ByBlock
 70
     0
  3

 72
    65
 73
     0
 40
0.0
  0
LTYPE
  5
15
330
5
100
AcDbSymbolTableRecord
100
AcDbLinetypeTableRecord
  2
ByLayer
 70
     0
  3

 72
    65
 73
     0
 40
0.0
  0
LTYPE
  5
16
330
5
100
AcDbSymbolTableRecord
100
AcDbLinetypeTableRecord
  2
Continuous
 70
     0
  3
Solid line
 72
    65
 73
     0
 40
0.0
  0
LTYPE
  5
3F
330
5
100
AcDbSymbolTableRecord
100
AcDbLinetypeTableRecord
  2
DASHED
 70
     0
  3
Dashed
 72
    65
 73
     2
 40
15.0
 49
7.0
 74
     0
 49
-8.0
 74
     0
  0
LTYPE
  5
40
330
5
100
AcDbSymbolTableRecord
100
AcDbLinetypeTableRecord
  2
DOTTED
 70
     0
  3
Dotted
 72
    65
 73
     2
 40
1.0
 49
0.0
 74
     0
 49
-1.0
 74
     0
  0
LTYPE
  5
41
330
5
100
AcDbSymbolTableRecord
100
AcDbLinetypeTableRecord
  2
DOT_CENTER
 70
     0
  3
Dot_Center
 72
    65
 73
     4
 40
14.0
 49
12.0
 74
     0
 49
-1.0
 74
     0
 49
0.0
 74
     0
 49
-1.0
 74
     0
  0
LTYPE
  5
42
330
5
100
AcDbSymbolTableRecord
100
AcDbLinetypeTableRecord
  2
LONG_DASHED
 70
     0
  3
Long_Dashed
 72
    65
 73
     2
 40
15.0
 49
10.0
 74
     0
 49
-5.0
 74
     0
  0
LTYPE
  5
43
330
5
100
AcDbSymbolTableRecord
100
AcDbLinetypeTableRecord
  2
DASH_CENTER
 70
     0
  3
Dash_Center
 72
    65
 73
     4
 40
14.0
 49
11.0
 74
     0
 49
-1.0
 74
     0
 49
1.0
 74
     0
 49
-1.0
 74
     0
  0
LTYPE
  5
44
330
5
100
AcDbSymbolTableRecord
100
AcDbLinetypeTableRecord
  2
PHANTOM
 70
     0
  3
Phantom
 72
    65
 73
     6
 40
13.0
 49
10.0
 74
     0
 49
-1.0
 74
     0
 49
0.0
 74
     0
 49
-1.0
 74
     0
 49
0.0
 74
     0
 49
-1.0
 74
     0
  0
LTYPE
  5
45
330
5
100
AcDbSymbolTableRecord
100
AcDbLinetypeTableRecord
  2
CENTER_DASH_DASH
 70
     0
  3
Center_Dash_Dash
 72
    65
 73
     6
 40
14.0
 49
9.0
 74
     0
 49
-1.0
 74
     0
 49
1.0
 74
     0
 49
-1.0
 74
     0
 49
1.0
 74
     0
 49
-1.0
 74
     0
  0
ENDTAB
  0
TABLE
  2
LAYER
  5
2
330
0
100
AcDbSymbolTable
 70
     2
  0
LAYER
  5
10
330
2
100
AcDbSymbolTableRecord
100
AcDbLayerTableRecord
  2
0
 70
     0
 62
     7
  6
Continuous
370
    -3
390
F
  0
LAYER
  5
46
330
2
100
AcDbSymbolTableRecord
100
AcDbLayerTableRecord
  2
1
 70
     0
 62
     7
  6
Continuous
370
    -3
390
F
  0
ENDTAB
  0
TABLE
  2
STYLE
  5
3
330
0
100
AcDbSymbolTable
 70
     5
  0
STYLE
  5
11
330
3
100
AcDbSymbolTableRecord
100
AcDbTextStyleTableRecord
  2
Standard
 70
     0
 40
0.0
 41
1.0
 50
0.0
 71
     0
 42
0.2
  3
txt
  4

  0
STYLE
  5
14D
330
3
100
AcDbSymbolTableRecord
100
AcDbTextStyleTableRecord
  2
CONVERTER_11
 70
     0
 40
0.0
 41
0.9
 50
0.0
 71
     0
 42
0.2
  3
txt.shx
  4

  0
STYLE
  5
424
330
3
100
AcDbSymbolTableRecord
100
AcDbTextStyleTableRecord
  2
CONVERTER_12
 70
     0
 40
0.0
 41
0.81
 50
0.0
 71
     0
 42
0.2
  3
txt.shx
  4

  0
STYLE
  5
42A
330
3
100
AcDbSymbolTableRecord
100
AcDbTextStyleTableRecord
  2
CONVERTER_13
 70
     0
 40
0.0
 41
0.855
 50
0.0
 71
     0
 42
0.2
  3
txt.shx
  4

  0
STYLE
  5
42D
330
3
100
AcDbSymbolTableRecord
100
AcDbTextStyleTableRecord
  2
CONVERTER_14
 70
     0
 40
0.0
 41
0.72
 50
0.0
 71
     0
 42
0.2
  3
txt.shx
  4

  0
ENDTAB
  0
TABLE
  2
VIEW
  5
6
330
0
100
AcDbSymbolTable
 70
     0
  0
ENDTAB
  0
TABLE
  2
UCS
  5
7
330
0
100
AcDbSymbolTable
 70
     0
  0
ENDTAB
  0
TABLE
  2
APPID
  5
9
330
0
100
AcDbSymbolTable
 70
     1
  0
APPID
  5
12
330
9
100
AcDbSymbolTableRecord
100
AcDbRegAppTableRecord
  2
ACAD
 70
     0
  0
ENDTAB
  0
TABLE
  2
DIMSTYLE
  5
A
330
0
100
AcDbSymbolTable
 70
     5
100
AcDbDimStyleTable
  0
DIMSTYLE
105
27
330
A
100
AcDbSymbolTableRecord
100
AcDbDimStyleTableRecord
  2
Standard
 70
     0
178
     0
340
11
  0
DIMSTYLE
105
1CD
102
{ACAD_REACTORS
330
1CE
102
}
330
A
100
AcDbSymbolTableRecord
100
AcDbDimStyleTableRecord
  2
ME10_DIM_10
 70
     0
 41
1.75
 42
0.0
 44
0.75
 73
     0
 74
     0
 77
     1
 78
     8
140
1.75
147
0.75
172
     1
173
     1
174
     1
175
     1
176
     2
177
     2
178
     3
340
14D
  0
DIMSTYLE
105
315
102
{ACAD_REACTORS
330
316
102
}
330
A
100
AcDbSymbolTableRecord
100
AcDbDimStyleTableRecord
  2
ME10_DIM_11
 70
     0
 41
1.75
 42
0.0
 44
0.75
 73
     0
 74
     0
 77
     1
 78
     8
140
1.75
147
0.75
172
     1
173
     1
174
     1
175
     1
176
     2
177
     2
178
     3
340
14D
  0
DIMSTYLE
105
320
102
{ACAD_REACTORS
330
321
102
}
330
A
100
AcDbSymbolTableRecord
100
AcDbDimStyleTableRecord
  2
ME10_DIM_12
 70
     0
 41
1.75
 42
0.0
 44
0.75
 73
     0
 74
     0
 77
     1
 78
     8
140
1.75
147
0.75
172
     1
173
     1
174
     1
175
     1
176
     2
177
     2
178
     3
340
14D
  0
DIMSTYLE
105
32B
102
{ACAD_REACTORS
330
32C
102
}
330
A
100
AcDbSymbolTableRecord
100
AcDbDimStyleTableRecord
  2
ME10_DIM_13
 70
     0
 41
1.75
 42
0.0
 44
0.75
 73
     0
 74
     0
 77
     1
 78
     8
140
1.75
147
0.75
172
     1
173
     1
174
     1
175
     1
176
     2
177
     2
178
     3
340
14D
  0
ENDTAB
  0
TABLE
  2
BLOCK_RECORD
  5
1
330
0
100
AcDbSymbolTable
 70
    21
  0
BLOCK_RECORD
  5
1F
330
1
100
AcDbSymbolTableRecord
100
AcDbBlockTableRecord
  2
*Model_Space
340
22
  0
BLOCK_RECORD
  5
1B
330
1
100
AcDbSymbolTableRecord
100
AcDbBlockTableRecord
  2
*Paper_Space
340
1E
  0
BLOCK_RECORD
  5
23
330
1
100
AcDbSymbolTableRecord
100
AcDbBlockTableRecord
  2
*Paper_Space0
340
26
  0
BLOCK_RECORD
  5
47
330
1
100
AcDbSymbolTableRecord
100
AcDbBlockTableRecord
  2
PP_H_1_5_S_1_R-select__1
340
0
102
{BLKREFS
331
4B
102
}
  0
BLOCK_RECORD
  5
4A
330
1
100
AcDbSymbolTableRecord
100
AcDbBlockTableRecord
  2
AllgSicht1
340
0
102
{BLKREFS
331
7D
102
}
  0
BLOCK_RECORD
  5
4E
330
1
100
AcDbSymbolTableRecord
100
AcDbBlockTableRecord
  2
PP_H_1_5_S_1_R-select__2
340
0
102
{BLKREFS
331
52
102
}
  0
BLOCK_RECORD
  5
51
330
1
100
AcDbSymbolTableRecord
100
AcDbBlockTableRecord
  2
Drfsicht1
340
0
102
{BLKREFS
331
7E
102
}
  0
BLOCK_RECORD
  5
55
330
1
100
AcDbSymbolTableRecord
100
AcDbBlockTableRecord
  2
PP_H_1_5_S_1_R-select__3
340
0
102
{BLKREFS
331
59
102
}
  0
BLOCK_RECORD
  5
58
330
1
100
AcDbSymbolTableRecord
100
AcDbBlockTableRecord
  2
Rckans1
340
0
102
{BLKREFS
331
7F
102
}
  0
BLOCK_RECORD
  5
5C
330
1
100
AcDbSymbolTableRecord
100
AcDbBlockTableRecord
  2
PP_H_1_5_S_1_R-select__4
340
0
102
{BLKREFS
331
60
102
}
  0
BLOCK_RECORD
  5
5F
330
1
100
AcDbSymbolTableRecord
100
AcDbBlockTableRecord
  2
SA_Links1
340
0
102
{BLKREFS
331
80
102
}
  0
BLOCK_RECORD
  5
63
330
1
100
AcDbSymbolTableRecord
100
AcDbBlockTableRecord
  2
PP_H_1_5_S_1_R-select__5
340
0
102
{BLKREFS
331
67
102
}
  0
BLOCK_RECORD
  5
66
330
1
100
AcDbSymbolTableRecord
100
AcDbBlockTableRecord
  2
SA_Rechts1
340
0
102
{BLKREFS
331
81
102
}
  0
BLOCK_RECORD
  5
6A
330
1
100
AcDbSymbolTableRecord
100
AcDbBlockTableRecord
  2
PP_H_1_5_S_1_R-select__6
340
0
102
{BLKREFS
331
6E
102
}
  0
BLOCK_RECORD
  5
6D
330
1
100
AcDbSymbolTableRecord
100
AcDbBlockTableRecord
  2
Vordans1
340
0
102
{BLKREFS
331
82
102
}
  0
BLOCK_RECORD
  5
71
330
1
100
AcDbSymbolTableRecord
100
AcDbBlockTableRecord
  2
_rahmen
340
0
102
{BLKREFS
331
78
102
}
  0
BLOCK_RECORD
  5
74
330
1
100
AcDbSymbolTableRecord
100
AcDbBlockTableRecord
  2
_punkt
340
0
102
{BLKREFS
331
79
102
}
  0
BLOCK_RECORD
  5
77
330
1
100
AcDbSymbolTableRecord
100
AcDbBlockTableRecord
  2
A4I_CS
340
0
102
{BLKREFS
331
83
102
}
  0
BLOCK_RECORD
  5
7C
330
1
100
AcDbSymbolTableRecord
100
AcDbBlockTableRecord
  2
1
340
0
102
{BLKREFS
331
86
102
}
  0
BLOCK_RECORD
  5
1C2
330
1
100
AcDbSymbolTableRecord
100
AcDbBlockTableRecord
  2
*D17
340
0
  0
BLOCK_RECORD
  5
30C
330
1
100
AcDbSymbolTableRecord
100
AcDbBlockTableRecord
  2
*D18
340
0
  0
BLOCK_RECORD
  5
317
330
1
100
AcDbSymbolTableRecord
100
AcDbBlockTableRecord
  2
*D19
340
0
  0
BLOCK_RECORD
  5
322
330
1
100
AcDbSymbolTableRecord
100
AcDbBlockTableRecord
  2
*D20
340
0
  0
ENDTAB
  0
ENDSEC
  0
SECTION
  2
BLOCKS
  0
BLOCK
  5
20
330
1F
100
AcDbEntity
  8
0
100
AcDbBlockBegin
  2
*Model_Space
 70
     0
 10
0.0
 20
0.0
 30
0.0
  3
*Model_Space
  1

  0
ENDBLK
  5
21
330
1F
100
AcDbEntity
  8
0
100
AcDbBlockEnd
  0
BLOCK
  5
1C
330
1B
100
AcDbEntity
 67
     1
  8
0
100
AcDbBlockBegin
  2
*Paper_Space
 70
     0
 10
0.0
 20
0.0
 30
0.0
  3
*Paper_Space
  1

  0
ENDBLK
  5
1D
330
1B
100
AcDbEntity
 67
     1
  8
0
100
AcDbBlockEnd
  0
BLOCK
  5
24
330
23
100
AcDbEntity
  8
0
100
AcDbBlockBegin
  2
*Paper_Space0
 70
     0
 10
0.0
 20
0.0
 30
0.0
  3
*Paper_Space0
  1

  0
ENDBLK
  5
25
330
23
100
AcDbEntity
  8
0
100
AcDbBlockEnd
  0
BLOCK
  5
48
330
47
100
AcDbEntity
  8
0
100
AcDbBlockBegin
  2
PP_H_1_5_S_1_R-select__1
 70
     0
 10
-4.51970977597227
 20
28.11839105951279
 30
0.0
  3
PP_H_1_5_S_1_R-select__1
  1

  0
LINE
  5
87
330
47
100
AcDbEntity
  8
0
  6
Continuous
 62
     7
100
AcDbLine
 10
5.13647347712404
 20
38.18304990539957
 30
0.0
 11
5.13647347697611
 21
37.44692831322192
 31
0.0
  0
LINE
  5
88
330
47
100
AcDbEntity
  8
0
  6
Continuous
 62
     7
100
AcDbLine
 10
9.67999795607067
 20
38.25708801110943
 30
0.0
 11
9.67999795608333
 21
40.84073046585779
 31
0.0
  0
LINE
  5
89
330
47
100
AcDbEntity
  8
0
  6
Continuous
 62
     7
100
AcDbLine
 10
9.67999795608333
 20
40.84073046585779
 30
0.0
 11
9.37999795613855
 21
40.58092284470652
 31
0.0
  0
LINE
  5
8A
330
47
100
AcDbEntity
  8
0
  6
Continuous
 62
     7
100
AcDbLine
 10
9.37999795613855
 20
40.58092284470652
 30
0.0
 11
9.76970940367605
 21
41.7674609983882
 31
0.0
  0
LINE
  5
8B
330
47
100
AcDbEntity
  8
0
  6
Continuous
 62
     7
100
AcDbLine
 10
6.20788363970808
 20
37.87181943988145
 30
0.0
 11
6.20788363970541
 21
37.57348275822189
 31
0.0
  0
LINE
  5
8C
330
47
100
AcDbEntity
  8
0
  6
Continuous
 62
     2
100
AcDbLine
 10
6.20788363970808
 20
37.87181943988145
 30
0.0
 11
6.20956458869213
 21
37.87327518440409
 31
0.0
  0
LINE
  5
8D
330
47
100
AcDbEntity
  8
0
  6
Continuous
 62
     7
100
AcDbLine
 10
6.46793173390383
 20
37.79869101400347
 30
0.0
 11
6.20788363970541
 21
37.57348275822189
 31
0.0
  0
LINE
  5
8E
330
47
100
AcDbEntity
  8
0
  6
Continuous
 62
     7
100
AcDbLine
 10
9.76970940367606
 20
47.67964414938538
 30
0.0
 11
9.76970940367605
 21
41.7674609983882
 31
0.0
  0
LINE
  5
8F
330
47
100
AcDbEntity
  8
0
  6
Continuous
 62
     7
100
AcDbLine
 10
-0.31948656705626
 20
39.0219283130612
 30
0.0
 11
5.13647347697611
 21
37.44692831322192
 31
0.0
  0
LINE
  5
90
330
47
100
AcDbEntity
  8
0
  6
Continuous
 62
     7
100
AcDbLine
 10
-0.29448656604659
 20
39.00027767683277
 30
0.0
 11
5.16147347813372
 21
37.4252776771216
 31
0.0
  0
LINE
  5
91
330
47
100
AcDbEntity
  8
0
  6
Continuous
 62
     7
100
AcDbLine
 10
4.73017498909284
 20
56.83328168798052
 30
0.0
 11
4.73017498909309
 21
56.48687152659436
 31
0.0
  0
LINE
  5
92
330
47
100
AcDbEntity
  8
0
  6
Continuous
 62
     7
100
AcDbLine
 10
4.43234096673827
 20
56.57534985850958
 30
0.0
 11
4.43234096673827
 21
56.22893969712685
 31
0.0
  0
LINE
  5
93
330
47
100
AcDbEntity
  8
0
  6
Continuous
 62
     7
100
AcDbLine
 10
5.29517669957742
 20
56.6701797431607
 30
0.0
 11
4.99734267550915
 21
56.41224791220395
 31
0.0
  0
LINE
  5
94
330
47
100
AcDbEntity
  8
0
  6
Continuous
 62
     7
100
AcDbLine
 10
5.77511141346358
 20
56.53163452502805
 30
0.0
 11
5.94831649421959
 21
56.48163452503324
 31
0.0
  0
LINE
  5
95
330
47
100
AcDbEntity
  8
0
  6
Continuous
 62
     7
100
AcDbLine
 10
5.77511141346358
 20
56.53163452502805
 30
0.0
 11
5.29517669957742
 21
56.6701797431607
 31
0.0
  0
LINE
  5
96
330
47
100
AcDbEntity
  8
0
  6
Continuous
 62
     7
100
AcDbLine
 10
4.43234096673827
 20
56.22893969712685
 30
0.0
 11
4.73017498909309
 21
56.48687152659436
 31
0.0
  0
LINE
  5
97
330
47
100
AcDbEntity
  8
0
  6
Continuous
 62
     7
100
AcDbLine
 10
4.29301072376087
 20
55.80227854928762
 30
0.0
 11
4.07017669965133
 21
55.60929862357953
 31
0.0
  0
LINE
  5
98
330
47
100
AcDbEntity
  8
0
  6
Continuous
 62
     7
100
AcDbLine
 10
4.73017498909309
 20
56.48687152659436
 30
0.0
 11
4.99734267550915
 21
56.40974685876252
 31
0.0
  0
LINE
  5
99
330
47
100
AcDbEntity
  8
0
  6
Continuous
 62
     7
100
AcDbLine
 10
4.43234096673827
 20
56.57534985850958
 30
0.0
 11
4.73017498909284
 21
56.83328168798052
 31
0.0
  0
LINE
  5
9A
330
47
100
AcDbEntity
  8
0
  6
Continuous
 62
     7
100
AcDbLine
 10
4.73017498909284
 20
56.83328168798052
 30
0.0
 11
3.88684281702171
 21
57.07673071625364
 31
0.0
  0
LINE
  5
9B
330
47
100
AcDbEntity
  8
0
  6
Continuous
 62
     7
100
AcDbLine
 10
5.94831649421959
 20
56.56823706535334
 30
0.0
 11
5.77511141346358
 21
56.61823706534815
 31
0.0
  0
LINE
  5
9C
330
47
100
AcDbEntity
  8
0
  6
Continuous
 62
     7
100
AcDbLine
 10
5.77511141346358
 20
56.61823706534815
 30
0.0
 11
3.88684281702171
 21
57.16333325657375
 31
0.0
  0
LINE
  5
9D
330
47
100
AcDbEntity
  8
0
  6
Continuous
 62
     7
100
AcDbLine
 10
6.13850886918474
 20
56.51333325590939
 30
0.0
 11
5.94831649421959
 21
56.56823706535334
 31
0.0
  0
LINE
  5
9E
330
47
100
AcDbEntity
  8
0
  6
Continuous
 62
     7
100
AcDbLine
 10
4.99734267550915
 20
56.41224791220395
 30
0.0
 11
4.99734267550915
 21
56.06583775082122
 31
0.0
  0
LINE
  5
9F
330
47
100
AcDbEntity
  8
0
  6
Continuous
 62
     7
100
AcDbLine
 10
4.83850886932172
 20
55.38750023109036
 30
0.0
 11
5.31350886922619
 21
55.79886229779359
 31
0.0
  0
LINE
  5
A0
330
47
100
AcDbEntity
  8
0
  6
Continuous
 62
     7
100
AcDbLine
 10
5.27690632847483
 20
55.78056102835883
 30
0.0
 11
5.28181013943701
 21
55.77141039252803
 31
0.0
  0
LINE
  5
A1
330
47
100
AcDbEntity
  8
0
  6
Continuous
 62
     7
100
AcDbLine
 10
5.27690632847483
 20
55.86716356867893
 30
0.0
 11
5.27690632847483
 21
55.78056102835883
 31
0.0
  0
LINE
  5
A2
330
47
100
AcDbEntity
  8
0
  6
Continuous
 62
     7
100
AcDbLine
 10
5.27690632847483
 20
55.86716356867893
 30
0.0
 11
5.5269063264789
 21
56.08366991789562
 31
0.0
  0
LINE
  5
A3
330
47
100
AcDbEntity
  8
0
  6
Continuous
 62
     7
100
AcDbLine
 10
5.31350886922619
 20
55.79886229779359
 30
0.0
 11
5.27690632847483
 21
55.86716356867893
 31
0.0
  0
LINE
  5
A4
330
47
100
AcDbEntity
  8
0
  6
Continuous
 62
     7
100
AcDbLine
 10
5.5269063264789
 20
56.08366991789562
 30
0.0
 11
5.66350886824154
 21
56.10197118827021
 31
0.0
  0
LINE
  5
A5
330
47
100
AcDbEntity
  8
0
  6
Continuous
 62
     7
100
AcDbLine
 10
6.06350886923793
 20
56.44838135067059
 30
0.0
 11
5.94831649421959
 21
56.48163452503324
 31
0.0
  0
LINE
  5
A6
330
47
100
AcDbEntity
  8
0
  6
Continuous
 62
     7
100
AcDbLine
 10
5.66350886824154
 20
56.10197118827021
 30
0.0
 11
6.13850886918474
 21
56.51333325590939
 31
0.0
  0
LINE
  5
A7
330
47
100
AcDbEntity
  8
0
  6
Continuous
 62
     7
100
AcDbLine
 10
8.38608685363857
 20
53.5979283855078
 30
0.0
 11
7.4663467596576
 21
53.75050459728757
 31
0.0
  0
LINE
  5
A8
330
47
100
AcDbEntity
  8
0
  6
Continuous
 62
     7
100
AcDbLine
 10
7.4663467596576
 20
53.75050459728757
 30
0.0
 11
8.13389957633852
 21
48.12101729853254
 31
0.0
  0
LINE
  5
A9
330
47
100
AcDbEntity
  8
0
  6
Continuous
 62
     7
100
AcDbLine
 10
-4.51970977567269
 20
43.00546262759436
 30
0.0
 11
-3.85852655322951
 21
40.77968274920077
 31
0.0
  0
LINE
  5
AA
330
47
100
AcDbEntity
  8
0
  6
Continuous
 62
     7
100
AcDbLine
 10
-4.51970977567269
 20
43.00546262759436
 30
0.0
 11
-4.51970977567269
 21
44.4204287428631
 31
0.0
  0
LINE
  5
AB
330
47
100
AcDbEntity
  8
0
  6
Continuous
 62
     7
100
AcDbLine
 10
-4.51970977567269
 20
44.4204287428631
 30
0.0
 11
-3.97411377125528
 21
44.57792874289095
 31
0.0
  0
LINE
  5
AC
330
47
100
AcDbEntity
  8
0
  6
Continuous
 62
     7
100
AcDbLine
 10
-3.04746658915057
 20
44.07460342538906
 30
0.0
 11
-3.04746658914936
 21
49.55221410432972
 31
0.0
  0
LINE
  5
AD
330
47
100
AcDbEntity
  8
0
  6
Continuous
 62
     7
100
AcDbLine
 10
-3.97411377125586
 20
44.34210342533919
 30
0.0
 11
-3.97411377125528
 21
44.57792874289095
 31
0.0
  0
LINE
  5
AE
330
47
100
AcDbEntity
  8
0
  6
Continuous
 62
     7
100
AcDbLine
 10
-3.04746658914936
 20
49.55221410432972
 30
0.0
 11
-3.97411377125723
 21
49.81971410428088
 31
0.0
  0
LINE
  5
AF
330
47
100
AcDbEntity
  8
0
  6
Continuous
 62
     7
100
AcDbLine
 10
-3.97411377122457
 20
49.58388878670627
 30
0.0
 11
-3.97411377125723
 21
49.81971410428088
 31
0.0
  0
LINE
  5
B0
330
47
100
AcDbEntity
  8
0
  6
Continuous
 62
     7
100
AcDbLine
 10
-4.1500499969836
 20
51.78001797764019
 30
0.0
 11
-4.12131012035445
 21
52.00578900143319
 31
0.0
  0
LINE
  5
B1
330
47
100
AcDbEntity
  8
0
  6
Continuous
 62
     7
100
AcDbLine
 10
1.35491497662068
 20
52.84367581642036
 30
0.0
 11
1.2785077939138
 21
52.6090694014087
 31
0.0
  0
LINE
  5
B2
330
47
100
AcDbEntity
  8
0
  6
Continuous
 62
     7
100
AcDbLine
 10
-3.23030990277167
 20
51.40158199861074
 30
0.0
 11
-4.1500499969836
 21
51.78001797764019
 31
0.0
  0
LINE
  5
B3
330
47
100
AcDbEntity
  8
0
  6
Continuous
 62
     7
100
AcDbLine
 10
-4.12131012035445
 20
52.00578900143319
 30
0.0
 11
-4.51970977597227
 21
51.95168645502788
 31
0.0
  0
LINE
  5
B4
330
47
100
AcDbEntity
  8
0
  6
Continuous
 62
     7
100
AcDbLine
 10
-4.51970977597227
 20
51.95168645502788
 30
0.0
 11
-4.51970977597227
 21
50.05638878696277
 31
0.0
  0
LINE
  5
B5
330
47
100
AcDbEntity
  8
0
  6
Continuous
 62
     7
100
AcDbLine
 10
-3.97411377122457
 20
49.58388878670627
 30
0.0
 11
-4.51970977597227
 21
50.05638878696277
 31
0.0
  0
LINE
  5
B6
330
47
100
AcDbEntity
  8
0
  6
Continuous
 62
     7
100
AcDbLine
 10
-3.76988305538264
 20
49.76075777490186
 30
0.0
 11
-3.97411377122457
 21
49.58388878670627
 31
0.0
  0
LINE
  5
B7
330
47
100
AcDbEntity
  8
0
  6
Continuous
 62
     7
100
AcDbLine
 10
-3.03347077135984
 20
52.94788551313003
 30
0.0
 11
-4.12131012035445
 21
52.00578900143319
 31
0.0
  0
LINE
  5
B8
330
47
100
AcDbEntity
  8
0
  6
Continuous
 62
     7
100
AcDbLine
 10
-3.06221064797654
 20
52.7221144893478
 30
0.0
 11
-4.1500499969836
 21
51.78001797764019
 31
0.0
  0
LINE
  5
B9
330
47
100
AcDbEntity
  8
0
  6
Continuous
 62
     7
100
AcDbLine
 10
-3.04746658915021
 20
45.695428743253
 30
0.0
 11
-4.51970977567269
 21
44.4204287428631
 31
0.0
  0
LINE
  5
BA
330
47
100
AcDbEntity
  8
0
  6
Continuous
 62
     7
100
AcDbLine
 10
-3.85852655322951
 20
40.77968274920077
 30
0.0
 11
-0.31948656705627
 21
39.75804990510549
 31
0.0
  0
LINE
  5
BB
330
47
100
AcDbEntity
  8
0
  6
Continuous
 62
     7
100
AcDbLine
 10
3.88684281702171
 20
57.16333325657375
 30
0.0
 11
3.88684281702171
 21
57.07673071625364
 31
0.0
  0
LINE
  5
BC
330
47
100
AcDbEntity
  8
0
  6
Continuous
 62
     7
100
AcDbLine
 10
3.88684281702171
 20
57.16333325657375
 30
0.0
 11
2.58684281725636
 21
56.03750023172134
 31
0.0
  0
LINE
  5
BD
330
47
100
AcDbEntity
  8
0
  6
Continuous
 62
     7
100
AcDbLine
 10
2.66184281719938
 20
56.01584959664356
 30
0.0
 11
3.88684281702171
 21
57.07673071625364
 31
0.0
  0
LINE
  5
BE
330
47
100
AcDbEntity
  8
0
  6
Continuous
 62
     7
100
AcDbLine
 10
3.50517498916317
 20
55.77240056839811
 30
0.0
 11
3.72800901155819
 21
55.96538049262136
 31
0.0
  0
LINE
  5
BF
330
47
100
AcDbEntity
  8
0
  6
Continuous
 62
     7
100
AcDbLine
 10
3.72800901155819
 20
55.96538049262136
 30
0.0
 11
3.72800901155819
 21
55.70807392699206
 31
0.0
  0
LINE
  5
C0
330
47
100
AcDbEntity
  8
0
  6
Continuous
 62
     7
100
AcDbLine
 10
1.39091360322831
 20
56.15179515105128
 30
0.0
 11
1.49283953342857
 21
56.24006559593073
 31
0.0
  0
LINE
  5
C1
330
47
100
AcDbEntity
  8
0
  6
Continuous
 62
     7
100
AcDbLine
 10
1.39091360295011
 20
53.51352649163464
 30
0.0
 11
0.72585009275677
 21
53.7055137899526
 31
0.0
  0
LINE
  5
C2
330
47
100
AcDbEntity
  8
0
  6
Continuous
 62
     7
100
AcDbLine
 10
-3.93451389240751
 20
57.23947392569386
 30
0.0
 11
-3.51123705667885
 21
56.79832245434056
 31
0.0
  0
LINE
  5
C3
330
47
100
AcDbEntity
  8
0
  6
Continuous
 62
     7
100
AcDbLine
 10
-0.92155171906068
 20
53.24417187727697
 30
0.0
 11
-0.99795890155705
 21
53.52289199901379
 31
0.0
  0
LINE
  5
C4
330
47
100
AcDbEntity
  8
0
  6
Continuous
 62
     7
100
AcDbLine
 10
2.58684281725636
 20
56.03750023172134
 30
0.0
 11
4.83850886932172
 21
55.38750023109036
 31
0.0
  0
LINE
  5
C5
330
47
100
AcDbEntity
  8
0
  6
Continuous
 62
     7
100
AcDbLine
 10
1.39091360322831
 20
56.15179515105128
 30
0.0
 11
8.7828947499048
 21
54.01791399913577
 31
0.0
  0
LINE
  5
C6
330
47
100
AcDbEntity
  8
0
  6
Continuous
 62
     7
100
AcDbLine
 10
10.58810356494679
 20
55.06788131883641
 30
0.0
 11
10.53289474887816
 21
55.53345845524137
 31
0.0
  0
LINE
  5
C7
330
47
100
AcDbEntity
  8
0
  6
Continuous
 62
     7
100
AcDbLine
 10
8.41482673024801
 20
53.35556438637039
 30
0.0
 11
8.38608685363857
 21
53.5979283855078
 31
0.0
  0
LINE
  5
C8
330
47
100
AcDbEntity
  8
0
  6
Continuous
 62
     7
100
AcDbLine
 10
8.83810356597681
 20
53.55233686273375
 30
0.0
 11
8.41482673024801
 21
53.35556438637039
 31
0.0
  0
LINE
  5
C9
330
47
100
AcDbEntity
  8
0
  6
Continuous
 62
     7
100
AcDbLine
 10
8.13389957633852
 20
48.12101729853254
 30
0.0
 11
9.88389957535171
 21
49.6365617546726
 31
0.0
  0
LINE
  5
CA
330
47
100
AcDbEntity
  8
0
  6
Continuous
 62
     7
100
AcDbLine
 10
8.83810356597681
 20
53.55233686273375
 30
0.0
 11
8.7828947499048
 21
54.01791399913577
 31
0.0
  0
LINE
  5
CB
330
47
100
AcDbEntity
  8
0
  6
Continuous
 62
     7
100
AcDbLine
 10
9.88389957535171
 20
49.6365617546726
 30
0.0
 11
9.36540977360872
 21
54.00899743422829
 31
0.0
  0
LINE
  5
CC
330
47
100
AcDbEntity
  8
0
  6
Continuous
 62
     7
100
AcDbLine
 10
10.58810356494679
 20
55.06788131883641
 30
0.0
 11
8.83810356597681
 21
53.55233686273375
 31
0.0
  0
LINE
  5
CD
330
47
100
AcDbEntity
  8
0
  6
Continuous
 62
     7
100
AcDbLine
 10
10.53289474887816
 20
55.53345845524137
 30
0.0
 11
8.7828947499048
 21
54.01791399913577
 31
0.0
  0
LINE
  5
CE
330
47
100
AcDbEntity
  8
0
  6
Continuous
 62
     2
100
AcDbLine
 10
2.03828565899571
 20
56.34019261088777
 30
0.0
 11
2.03828565887993
 21
57.81243579684289
 31
0.0
  0
LINE
  5
CF
330
47
100
AcDbEntity
  8
0
  6
Continuous
 62
     2
100
AcDbLine
 10
1.51867041720007
 20
57.96243579667222
 30
0.0
 11
1.5186704165893
 21
56.24252077755178
 31
0.0
  0
LINE
  5
D0
330
47
100
AcDbEntity
  8
0
  6
Continuous
 62
     7
100
AcDbLine
 10
-3.93451389240751
 20
57.23947392569386
 30
0.0
 11
-3.87930507632765
 21
57.67317623734284
 31
0.0
  0
LINE
  5
D1
330
47
100
AcDbEntity
  8
0
  6
Continuous
 62
     7
100
AcDbLine
 10
-3.51123705667885
 20
56.79832245434056
 30
0.0
 11
-3.48249718006932
 21
57.02409347798502
 31
0.0
  0
LINE
  5
D2
330
47
100
AcDbEntity
  8
0
  6
Continuous
 62
     7
100
AcDbLine
 10
-3.32524950611633
 20
56.95939239795487
 30
0.0
 11
-3.51123705667885
 21
56.79832245434056
 31
0.0
  0
LINE
  5
D3
330
47
100
AcDbEntity
  8
0
  6
Continuous
 62
     7
100
AcDbLine
 10
-0.93203159769956
 20
56.94006559624563
 30
0.0
 11
-1.03395752751689
 21
56.85179515092244
 31
0.0
  0
LINE
  5
D4
330
47
100
AcDbEntity
  8
0
  6
Continuous
 62
     7
100
AcDbLine
 10
-0.93203159769956
 20
56.94006559624563
 30
0.0
 11
-0.93203159754803
 21
53.86864856237497
 31
0.0
  0
LINE
  5
D5
330
47
100
AcDbEntity
  8
0
  6
Continuous
 62
     7
100
AcDbLine
 10
1.39091360322831
 20
56.15179515105128
 30
0.0
 11
1.39091360290443
 21
53.0803781180696
 31
0.0
  0
LINE
  5
D6
330
47
100
AcDbEntity
  8
0
  6
Continuous
 62
     7
100
AcDbLine
 10
-1.03395752784075
 20
53.78037811741568
 30
0.0
 11
-1.03395752751689
 21
56.85179515092244
 31
0.0
  0
LINE
  5
D7
330
47
100
AcDbEntity
  8
0
  6
Continuous
 62
     7
100
AcDbLine
 10
-3.87930507632765
 20
57.67317623734284
 30
0.0
 11
-1.03395752751689
 21
56.85179515092244
 31
0.0
  0
LINE
  5
D8
330
47
100
AcDbEntity
  8
0
  6
Continuous
 62
     7
100
AcDbLine
 10
-3.48249718006932
 20
57.02409347798502
 30
0.0
 11
-2.56275708608838
 21
56.64565749905034
 31
0.0
  0
LINE
  5
D9
330
47
100
AcDbEntity
  8
0
  6
Continuous
 62
     7
100
AcDbLine
 10
-2.12930507657746
 20
59.18872069412119
 30
0.0
 11
-3.87930507632765
 21
57.67317623734284
 31
0.0
  0
LINE
  5
DA
330
47
100
AcDbEntity
  8
0
  6
Continuous
 62
     7
100
AcDbLine
 10
2.03828565887993
 20
57.81243579684289
 30
0.0
 11
1.51867041720007
 21
57.96243579667222
 31
0.0
  0
LINE
  5
DB
330
47
100
AcDbEntity
  8
0
  6
Continuous
 62
     7
100
AcDbLine
 10
-2.99184896664936
 20
53.27485272967287
 30
0.0
 11
-4.51970977597227
 21
51.95168645502788
 31
0.0
  0
LINE
  5
DC
330
47
100
AcDbEntity
  8
0
  6
Continuous
 62
     7
100
AcDbLine
 10
6.12633670586555
 20
29.35247725963811
 30
0.0
 11
4.70133670652413
 21
28.11839105951279
 31
0.0
  0
LINE
  5
DD
330
47
100
AcDbEntity
  8
0
  6
Continuous
 62
     7
100
AcDbLine
 10
4.70133670652413
 20
28.11839105951279
 30
0.0
 11
5.11817220799441
 21
29.24856751938486
 31
0.0
  0
LINE
  5
DE
330
47
100
AcDbEntity
  8
0
  6
Continuous
 62
     7
100
AcDbLine
 10
5.11817220799441
 20
29.24856751938486
 30
0.0
 11
5.11817220799562
 21
33.54066336130941
 31
0.0
  0
LINE
  5
DF
330
47
100
AcDbEntity
  8
0
  6
Continuous
 62
     7
100
AcDbLine
 10
10.8799979561737
 20
39.29631849621593
 30
0.0
 11
9.67999795607067
 21
38.25708801110943
 31
0.0
  0
LINE
  5
E0
330
47
100
AcDbEntity
  8
0
  6
Continuous
 62
     7
100
AcDbLine
 10
11.12999795505701
 20
38.47359436164344
 30
0.0
 11
11.12999795507656
 21
42.09646730076895
 31
0.0
  0
LINE
  5
E1
330
47
100
AcDbEntity
  8
0
  6
Continuous
 62
     7
100
AcDbLine
 10
10.8799979561737
 20
39.29631849621593
 30
0.0
 11
10.87999795618765
 21
41.87996095074728
 31
0.0
  0
LINE
  5
E2
330
47
100
AcDbEntity
  8
0
  6
Continuous
 62
     7
100
AcDbLine
 10
10.27378017359422
 20
40.07753627877534
 30
0.0
 11
9.67999795607772
 21
39.56330579409062
 31
0.0
  0
LINE
  5
E3
330
47
100
AcDbEntity
  8
0
  6
Continuous
 62
     7
100
AcDbLine
 10
9.76970940367605
 20
41.7674609983882
 30
0.0
 11
10.06970940362083
 21
42.02726861953947
 31
0.0
  0
LINE
  5
E4
330
47
100
AcDbEntity
  8
0
  6
Continuous
 62
     7
100
AcDbLine
 10
9.68326960992308
 20
40.85069153354269
 30
0.0
 11
10.06970940362083
 21
42.02726861953947
 31
0.0
  0
LINE
  5
E5
330
47
100
AcDbEntity
  8
0
  6
Continuous
 62
     7
100
AcDbLine
 10
11.51970940258887
 20
43.28300545444137
 30
0.0
 11
11.51970940258887
 21
49.19518860543856
 31
0.0
  0
LINE
  5
E6
330
47
100
AcDbEntity
  8
0
  6
Continuous
 62
     7
100
AcDbLine
 10
11.26970940369995
 20
43.06649910440436
 30
0.0
 11
11.26970940409243
 21
47.68044143891414
 31
0.0
  0
LINE
  5
E7
330
47
100
AcDbEntity
  8
0
  6
Continuous
 62
     7
100
AcDbLine
 10
11.12999795507656
 20
42.09646730076895
 30
0.0
 11
10.87999795618765
 21
41.87996095074728
 31
0.0
  0
LINE
  5
E8
330
47
100
AcDbEntity
  8
0
  6
Continuous
 62
     7
100
AcDbLine
 10
10.883269610152
 20
41.88992201881197
 30
0.0
 11
11.26970940369995
 21
43.06649910440436
 31
0.0
  0
LINE
  5
E9
330
47
100
AcDbEntity
  8
0
  6
Continuous
 62
     7
100
AcDbLine
 10
9.67999795608142
 20
40.24894644033586
 30
0.0
 11
10.27378017359422
 21
40.07753627877534
 31
0.0
  0
LINE
  5
EA
330
47
100
AcDbEntity
  8
0
  6
Continuous
 62
     7
100
AcDbLine
 10
11.51970940258887
 20
43.28300545444137
 30
0.0
 11
11.26970940369995
 21
43.06649910440436
 31
0.0
  0
LINE
  5
EB
330
47
100
AcDbEntity
  8
0
  6
Continuous
 62
     7
100
AcDbLine
 10
10.06970940362083
 20
42.02726861953947
 30
0.0
 11
10.06970940401331
 21
46.64121095404927
 31
0.0
  0
LINE
  5
EC
330
47
100
AcDbEntity
  8
0
  6
Continuous
 62
     7
100
AcDbLine
 10
10.544652050195
 20
49.52694914755222
 30
0.0
 11
9.88389957535171
 21
49.6365617546726
 31
0.0
  0
LINE
  5
ED
330
47
100
AcDbEntity
  8
0
  6
Continuous
 62
     7
100
AcDbLine
 10
11.51970940258887
 20
49.19518860543856
 30
0.0
 11
9.76970940367606
 21
47.67964414938538
 31
0.0
  0
LINE
  5
EE
330
47
100
AcDbEntity
  8
0
  6
Continuous
 62
     7
100
AcDbLine
 10
11.51970940258887
 20
49.19518860543856
 30
0.0
 11
10.77489979289864
 21
49.72634954194655
 31
0.0
  0
LINE
  5
EF
330
47
100
AcDbEntity
  8
0
  6
Continuous
 62
     7
100
AcDbLine
 10
10.77489979289864
 20
49.72634954194655
 30
0.0
 11
9.02489979394013
 21
48.21080508585379
 31
0.0
  0
LINE
  5
F0
330
47
100
AcDbEntity
  8
0
  6
Continuous
 62
     7
100
AcDbLine
 10
11.12999795507656
 20
42.09646730076895
 30
0.0
 11
11.51970940258887
 21
43.28300545444137
 31
0.0
  0
LINE
  5
F1
330
47
100
AcDbEntity
  8
0
  6
Continuous
 62
     7
100
AcDbLine
 10
10.27378017359422
 20
40.07753627877534
 30
0.0
 11
10.8799979561737
 21
39.29631849621593
 31
0.0
  0
LINE
  5
F2
330
47
100
AcDbEntity
  8
0
  6
Continuous
 62
     7
100
AcDbLine
 10
10.87999795618765
 20
41.87996095074728
 30
0.0
 11
9.67999795608333
 21
40.84073046585779
 31
0.0
  0
LINE
  5
F3
330
47
100
AcDbEntity
  8
0
  6
Continuous
 62
     7
100
AcDbLine
 10
10.883269610152
 20
41.88992201881197
 30
0.0
 11
9.68326960992308
 21
40.85069153354269
 31
0.0
  0
LINE
  5
F4
330
47
100
AcDbEntity
  8
0
  6
Continuous
 62
     7
100
AcDbLine
 10
11.12999795505701
 20
38.47359436164344
 30
0.0
 11
9.37999795612028
 21
36.95804990556957
 31
0.0
  0
LINE
  5
F5
330
47
100
AcDbEntity
  8
0
  6
Continuous
 62
     7
100
AcDbLine
 10
6.54317220731024
 20
30.48265371948803
 30
0.0
 11
5.11817220799441
 21
29.24856751938486
 31
0.0
  0
LINE
  5
F6
330
47
100
AcDbEntity
  8
0
  6
Continuous
 62
     7
100
AcDbLine
 10
11.26970940409243
 20
47.68044143891414
 30
0.0
 11
10.06970940401331
 21
46.64121095404927
 31
0.0
  0
LINE
  5
F7
330
47
100
AcDbEntity
  8
0
  6
Continuous
 62
     7
100
AcDbLine
 10
10.883269610152
 20
41.88992201881197
 30
0.0
 11
10.06970940362083
 21
45.73046969920014
 31
0.0
  0
LINE
  5
F8
330
47
100
AcDbEntity
  8
0
  6
Continuous
 62
     7
100
AcDbLine
 10
6.54317220731024
 20
30.48265371948803
 30
0.0
 11
6.12633670586555
 21
29.35247725963811
 31
0.0
  0
LINE
  5
F9
330
47
100
AcDbEntity
  8
0
  6
Continuous
 62
     7
100
AcDbLine
 10
6.54317220731146
 20
34.77474956141825
 30
0.0
 11
6.54317220731024
 21
30.48265371948803
 31
0.0
  0
LINE
  5
FA
330
47
100
AcDbEntity
  8
0
  6
Continuous
 62
     7
100
AcDbLine
 10
5.11817220799562
 20
33.54066336130941
 30
0.0
 11
5.1614734781306
 21
33.77373706739594
 31
0.0
  0
LINE
  5
FB
330
47
100
AcDbEntity
  8
0
  6
Continuous
 62
     7
100
AcDbLine
 10
6.58647347744378
 20
35.0078232674968
 30
0.0
 11
6.54317220731146
 21
34.77474956141825
 31
0.0
  0
LINE
  5
FC
330
47
100
AcDbEntity
  8
0
  6
Continuous
 62
     7
100
AcDbLine
 10
6.58647347744378
 20
37.76447096024033
 30
0.0
 11
6.58647347744378
 21
35.0078232674968
 31
0.0
  0
LINE
  5
FD
330
47
100
AcDbEntity
  8
0
  6
Continuous
 62
     7
100
AcDbLine
 10
5.1614734781306
 20
33.77373706739594
 30
0.0
 11
5.16147347813372
 21
37.4252776771216
 31
0.0
  0
LINE
  5
FE
330
47
100
AcDbEntity
  8
0
  6
Continuous
 62
     7
100
AcDbLine
 10
6.49552247703162
 20
37.79072625251942
 30
0.0
 11
6.16147347751726
 21
36.64047005477079
 31
0.0
  0
LINE
  5
FF
330
47
100
AcDbEntity
  8
0
  6
Continuous
 62
     7
100
AcDbLine
 10
5.86147347757248
 20
36.38066243313878
 30
0.0
 11
6.16147347751726
 21
36.64047005477079
 31
0.0
  0
LINE
  5
100
330
47
100
AcDbEntity
  8
0
  6
Continuous
 62
     7
100
AcDbLine
 10
5.86147347757248
 20
36.38066243313878
 30
0.0
 11
5.86147347757248
 21
37.97376043273326
 31
0.0
  0
LINE
  5
101
330
47
100
AcDbEntity
  8
0
  6
Continuous
 62
     7
100
AcDbLine
 10
9.37999795613855
 20
40.58092284470652
 30
0.0
 11
9.37999795612028
 21
36.95804990556957
 31
0.0
  0
LINE
  5
102
330
47
100
AcDbEntity
  8
0
  6
Continuous
 62
     7
100
AcDbLine
 10
9.05363967055049
 20
47.96844108671411
 30
0.0
 11
9.02489979394013
 21
48.21080508585379
 31
0.0
  0
LINE
  5
103
330
47
100
AcDbEntity
  8
0
  6
Continuous
 62
     7
100
AcDbLine
 10
9.02489979394013
 20
48.21080508585379
 30
0.0
 11
9.76970940367606
 21
47.67964414938538
 31
0.0
  0
LINE
  5
104
330
47
100
AcDbEntity
  8
0
  6
Continuous
 62
     7
100
AcDbLine
 10
5.13647347712404
 20
38.18304990539957
 30
0.0
 11
9.37999795612028
 21
36.95804990556957
 31
0.0
  0
LINE
  5
105
330
47
100
AcDbEntity
  8
0
  6
Continuous
 62
     7
100
AcDbLine
 10
6.20788363970541
 20
37.57348275822189
 30
0.0
 11
5.86147347757248
 21
36.38066243313878
 31
0.0
  0
LINE
  5
106
330
47
100
AcDbEntity
  8
0
  6
Continuous
 62
     7
100
AcDbLine
 10
5.1614734781306
 20
33.77373706739594
 30
0.0
 11
6.58647347744378
 21
35.0078232674968
 31
0.0
  0
LINE
  5
107
330
47
100
AcDbEntity
  8
0
  6
Continuous
 62
     7
100
AcDbLine
 10
5.11817220799562
 20
33.54066336130941
 30
0.0
 11
6.54317220731146
 21
34.77474956141825
 31
0.0
  0
LINE
  5
108
330
47
100
AcDbEntity
  8
0
  6
Continuous
 62
     7
100
AcDbLine
 10
0.17089777085861
 20
29.42621612871947
 30
0.0
 11
4.70133670652413
 21
28.11839105951279
 31
0.0
  0
LINE
  5
109
330
47
100
AcDbEntity
  8
0
  6
Continuous
 62
     7
100
AcDbLine
 10
-3.04746658915028
 20
45.38042874313608
 30
0.0
 11
-3.97411377125528
 21
44.57792874289095
 31
0.0
  0
LINE
  5
10A
330
47
100
AcDbEntity
  8
0
  6
Continuous
 62
     7
100
AcDbLine
 10
-3.97411377125586
 20
44.34210342533919
 30
0.0
 11
-3.04746658915057
 21
44.07460342538906
 31
0.0
  0
LINE
  5
10B
330
47
100
AcDbEntity
  8
0
  6
Continuous
 62
     7
100
AcDbLine
 10
-3.04746658915033
 20
45.14460342558478
 30
0.0
 11
-3.97411377125586
 21
44.34210342533919
 31
0.0
  0
LINE
  5
10C
330
47
100
AcDbEntity
  8
0
  6
Continuous
 62
     7
100
AcDbLine
 10
8.13389957633852
 20
48.12101729853254
 30
0.0
 11
9.05363967055049
 21
47.96844108671411
 31
0.0
  0
LINE
  5
10D
330
47
100
AcDbEntity
  8
0
  6
Continuous
 62
     7
100
AcDbLine
 10
-0.25118529585774
 20
35.09066336065348
 30
0.0
 11
-0.25118529585848
 21
30.84709912046105
 31
0.0
  0
LINE
  5
10E
330
47
100
AcDbEntity
  8
0
  6
Continuous
 62
     7
100
AcDbLine
 10
-0.29490307858384
 20
33.41453405997747
 30
0.0
 11
-0.294903078584
 21
32.54850865619386
 31
0.0
  0
LINE
  5
10F
330
47
100
AcDbEntity
  8
0
  6
Continuous
 62
     7
100
AcDbLine
 10
-0.29448656604686
 20
35.34873706704457
 30
0.0
 11
-0.25118529585774
 21
35.09066336065348
 31
0.0
  0
LINE
  5
110
330
47
100
AcDbEntity
  8
0
  6
Continuous
 62
     7
100
AcDbLine
 10
-0.29448656604659
 20
39.00027767683277
 30
0.0
 11
-0.29448656604686
 21
35.34873706704457
 31
0.0
  0
LINE
  5
111
330
47
100
AcDbEntity
  8
0
  6
Continuous
 62
     7
100
AcDbLine
 10
-0.25118529585804
 20
33.41065737971006
 30
0.0
 11
-0.29490307858384
 21
33.41453405997747
 31
0.0
  0
LINE
  5
112
330
47
100
AcDbEntity
  8
0
  6
Continuous
 62
     7
100
AcDbLine
 10
-0.29490307858384
 20
33.41453405997747
 30
0.0
 11
-0.25118529585803
 21
33.45239477041515
 31
0.0
  0
LINE
  5
113
330
47
100
AcDbEntity
  8
0
  6
Continuous
 62
     7
100
AcDbLine
 10
-0.294903078584
 20
32.54850865619386
 30
0.0
 11
-0.25118529585819
 21
32.53588841938129
 31
0.0
  0
LINE
  5
114
330
47
100
AcDbEntity
  8
0
  6
Continuous
 62
     7
100
AcDbLine
 10
-0.54490307858407
 20
32.33200230524767
 30
0.0
 11
-0.294903078584
 21
32.54850865619386
 31
0.0
  0
LINE
  5
115
330
47
100
AcDbEntity
  8
0
  6
Continuous
 62
     7
100
AcDbLine
 10
-0.2944865660497
 20
37.75803202724039
 30
0.0
 11
-0.54490307858316
 21
37.5411649658593
 31
0.0
  0
LINE
  5
116
330
47
100
AcDbEntity
  8
0
  6
Continuous
 62
     7
100
AcDbLine
 10
-2.62336404766277
 20
39.94680807590277
 30
0.0
 11
-2.62336404766599
 21
32.93200230524779
 31
0.0
  0
LINE
  5
117
330
47
100
AcDbEntity
  8
0
  6
Continuous
 62
     7
100
AcDbLine
 10
-0.54490307858316
 20
37.5411649658593
 30
0.0
 11
-0.97791578047753
 21
39.28219036956249
 31
0.0
  0
LINE
  5
118
330
47
100
AcDbEntity
  8
0
  6
Continuous
 62
     7
100
AcDbLine
 10
-0.54490307858316
 20
37.5411649658593
 30
0.0
 11
-0.54490307858407
 21
32.33200230524767
 31
0.0
  0
LINE
  5
119
330
47
100
AcDbEntity
  8
0
  6
Continuous
 62
     7
100
AcDbLine
 10
-0.97791578047744
 20
39.47180807590205
 30
0.0
 11
-0.97791578047753
 21
39.28219036956249
 31
0.0
  0
LINE
  5
11A
330
47
100
AcDbEntity
  8
0
  6
Continuous
 62
     7
100
AcDbLine
 10
-0.31948656705627
 20
39.75804990510549
 30
0.0
 11
-0.31948656705626
 21
39.0219283130612
 31
0.0
  0
LINE
  5
11B
330
47
100
AcDbEntity
  8
0
  6
Continuous
 62
     7
100
AcDbLine
 10
-0.97791578047753
 20
39.28219036956249
 30
0.0
 11
-0.40120203071392
 21
39.78163912756958
 31
0.0
  0
LINE
  5
11C
330
47
100
AcDbEntity
  8
0
  6
Continuous
 62
     7
100
AcDbLine
 10
-2.21086404870757
 20
40.30404355405733
 30
0.0
 11
-2.62336404766277
 21
39.94680807590277
 31
0.0
  0
LINE
  5
11D
330
47
100
AcDbEntity
  8
0
  6
Continuous
 62
     7
100
AcDbLine
 10
-0.97791578047744
 20
39.47180807590205
 30
0.0
 11
-2.62336404766277
 21
39.94680807590277
 31
0.0
  0
LINE
  5
11E
330
47
100
AcDbEntity
  8
0
  6
Continuous
 62
     7
100
AcDbLine
 10
0.72585009275677
 20
53.7055137899526
 30
0.0
 11
0.72585009295367
 21
52.31802054366361
 31
0.0
  0
LINE
  5
11F
330
47
100
AcDbEntity
  8
0
  6
Continuous
 62
     7
100
AcDbLine
 10
0.61035781166771
 20
52.8054945327327
 30
0.0
 11
0.61035781168603
 21
52.34713064851907
 31
0.0
  0
LINE
  5
120
330
47
100
AcDbEntity
  8
0
  6
Continuous
 62
     7
100
AcDbLine
 10
0.61035781166771
 20
52.8054945327327
 30
0.0
 11
0.2134030436944
 21
52.46172161961022
 31
0.0
  0
LINE
  5
121
330
47
100
AcDbEntity
  8
0
  6
Continuous
 62
     2
100
AcDbLine
 10
-0.25753029701739
 20
52.55734044893471
 30
0.0
 11
-0.22260529710859
 21
52.58758638609039
 31
0.0
  0
LINE
  5
122
330
47
100
AcDbEntity
  8
0
  6
Continuous
 62
     2
100
AcDbLine
 10
0.61448637187087
 20
52.30561091973647
 30
0.0
 11
0.64941137170109
 21
52.33585685682402
 31
0.0
  0
LINE
  5
123
330
47
100
AcDbEntity
  8
0
  6
Continuous
 62
     7
100
AcDbLine
 10
0.61448637187087
 20
52.30561091973647
 30
0.0
 11
-0.25753029701739
 21
52.55734044893471
 31
0.0
  0
LINE
  5
124
330
47
100
AcDbEntity
  8
0
  6
Continuous
 62
     7
100
AcDbLine
 10
-0.22260529710859
 20
52.58758638609039
 30
0.0
 11
0.64941137170109
 21
52.33585685682402
 31
0.0
  0
LINE
  5
125
330
47
100
AcDbEntity
  8
0
  6
Continuous
 62
     2
100
AcDbLine
 10
-1.03395752784075
 20
53.78037811741568
 30
0.0
 11
-0.93203159754803
 21
53.86864856237497
 31
0.0
  0
LINE
  5
126
330
47
100
AcDbEntity
  8
0
  6
Continuous
 62
     2
100
AcDbLine
 10
-0.92155171906068
 20
53.24417187727697
 30
0.0
 11
-0.86303394997744
 21
53.29484975188827
 31
0.0
  0
LINE
  5
127
330
47
100
AcDbEntity
  8
0
  6
Continuous
 62
     2
100
AcDbLine
 10
-0.99795890155705
 20
53.52289199901379
 30
0.0
 11
-0.9129352531048
 21
53.59652463851397
 31
0.0
  0
LINE
  5
128
330
47
100
AcDbEntity
  8
0
  6
Continuous
 62
     7
100
AcDbLine
 10
-2.56275708608838
 20
56.64565749905034
 30
0.0
 11
-3.23030990277167
 21
51.40158199861074
 31
0.0
  0
LINE
  5
129
330
47
100
AcDbEntity
  8
0
  6
Continuous
 62
     7
100
AcDbLine
 10
-2.62336404766599
 20
32.93200230524779
 30
0.0
 11
-0.54490307858407
 21
32.33200230524767
 31
0.0
  0
LINE
  5
12A
330
47
100
AcDbEntity
  8
0
  6
Continuous
 62
     7
100
AcDbLine
 10
-0.25118529585848
 20
30.84709912046105
 30
0.0
 11
0.17089777085861
 21
29.42621612871947
 31
0.0
  0
LINE
  5
12B
330
47
100
AcDbEntity
  8
0
  6
Continuous
 62
     7
100
AcDbLine
 10
10.53289474887816
 20
55.53345845524137
 30
0.0
 11
-2.12930507657746
 21
59.18872069412119
 31
0.0
  0
SPLINE
  5
12C
330
47
100
AcDbEntity
  8
0
  6
Continuous
 62
     7
100
AcDbSpline
210
0.0
220
0.0
230
1.0
 70
     8
 71
     3
 72
     9
 73
     5
 74
     3
 42
0.000000001
 43
0.0000000001
 44
0.00000001
 40
0.0
 40
0.0
 40
0.0
 40
0.0
 40
0.0009702566385247
 40
0.0019400302715551
 40
0.0019400302715551
 40
0.0019400302715551
 40
0.0019400302715551
 10
6.207883639708079
 20
37.87181943988145
 30
0.0
 10
6.207883779001936
 20
37.8721428588815
 30
0.0
 10
6.207884077520275
 20
37.87278953585382
 30
0.0
 10
6.207886010060132
 20
37.87343621000723
 30
0.0
 10
6.207886986086969
 20
37.87375946656181
 30
0.0
 11
6.207883639708079
 21
37.87181943988145
 31
0.0
 11
6.207884476303426
 21
37.87278969616788
 31
0.0
 11
6.207886986086969
 21
37.87375946656181
 31
0.0
  0
SPLINE
  5
12D
330
47
100
AcDbEntity
  8
0
  6
Continuous
 62
     7
100
AcDbSpline
210
0.0
220
0.0
230
1.0
 70
     8
 71
     3
 72
    13
 73
     9
 74
     7
 42
0.000000001
 43
0.0000000001
 44
0.00000001
 40
0.0
 40
0.0
 40
0.0
 40
0.0
 40
0.2139621073810798
 40
0.4197475920058844
 40
0.6063705028806852
 40
0.7659552458557987
 40
0.8965721819761535
 40
1.006661755023343
 40
1.006661755023343
 40
1.006661755023343
 40
1.006661755023343
 10
4.293010723760872
 20
55.80227854928762
 30
0.0
 10
4.364455898526991
 20
55.80188600012777
 30
0.0
 10
4.504615950055331
 20
55.80111590743354
 30
0.0
 10
4.704665685497067
 20
55.83542292040596
 30
0.0
 10
4.880854799138568
 20
55.89317199757861
 30
0.0
 10
5.01807493437075
 20
55.97307688150991
 30
0.0
 10
5.1175360128373
 20
56.07140973474743
 30
0.0
 10
5.13218148263597
 20
56.15196941255225
 30
0.0
 10
5.138879730824392
 20
56.18881420408182
 30
0.0
 11
4.293010723760872
 21
55.80227854928762
 31
0.0
 11
4.506909791161766
 21
55.80747164241688
 31
0.0
 11
4.70983011933339
 21
55.84169160849916
 31
0.0
 11
4.886325406648303
 21
55.90233420379241
 31
0.0
 11
5.022961756260862
 21
55.98478296343215
 31
0.0
 11
5.109337794014336
 21
56.08276237964033
 31
0.0
 11
5.138879730824392
 21
56.18881420408182
 31
0.0
  0
SPLINE
  5
12E
330
47
100
AcDbEntity
  8
0
  6
Continuous
 62
     7
100
AcDbSpline
210
0.0
220
0.0
230
1.0
 70
     8
 71
     3
 72
     9
 73
     5
 74
     3
 42
0.000000001
 43
0.0000000001
 44
0.00000001
 40
0.0
 40
0.0
 40
0.0
 40
0.0
 40
0.1226593517357283
 40
0.2722520501584673
 40
0.2722520501584673
 40
0.2722520501584673
 40
0.2722520501584673
 10
5.138879730824392
 20
56.18881420408182
 30
0.0
 10
5.130566183703503
 20
56.23013420889583
 30
0.0
 10
5.112113596129106
 20
56.32184719247154
 30
0.0
 10
5.038042231617118
 20
56.38019041724156
 30
0.0
 10
4.997342675509152
 20
56.41224791220395
 30
0.0
 11
5.138879730824392
 21
56.18881420408182
 31
0.0
 11
5.102649432820569
 21
56.30600073342385
 31
0.0
 11
4.997342675509152
 21
56.41224791220395
 31
0.0
  0
SPLINE
  5
12F
330
47
100
AcDbEntity
  8
0
  6
Continuous
 62
     7
100
AcDbSpline
210
0.0
220
0.0
230
1.0
 70
     8
 71
     3
 72
     9
 73
     5
 74
     3
 42
0.000000001
 43
0.0000000001
 44
0.00000001
 40
0.0
 40
0.0
 40
0.0
 40
0.0
 40
0.0380516044945688
 40
0.0782803839084673
 40
0.0782803839084673
 40
0.0782803839084673
 40
0.0782803839084673
 10
5.057292626457581
 20
56.01560912339046
 30
0.0
 10
5.048100070432
 20
56.02436833252104
 30
0.0
 10
5.02918898044615
 20
56.04238790597363
 30
0.0
 10
5.008153134761307
 20
56.05787753927784
 30
0.0
 10
4.997342675509152
 20
56.06583775082122
 30
0.0
 11
5.057292626457581
 21
56.01560912339046
 31
0.0
 11
5.029212899577273
 21
56.04128895156469
 31
0.0
 11
4.997342675509152
 21
56.06583775082122
 31
0.0
  0
SPLINE
  5
130
330
47
100
AcDbEntity
  8
0
  6
Continuous
 62
     7
100
AcDbSpline
210
0.0
220
0.0
230
1.0
 70
     8
 71
     3
 72
    11
 73
     7
 74
     5
 42
0.000000001
 43
0.0000000001
 44
0.00000001
 40
0.0
 40
0.0
 40
0.0
 40
0.0
 40
0.1367075109035372
 40
0.2956829849292124
 40
0.4874281810477435
 40
0.7115772836603408
 40
0.7115772836603408
 40
0.7115772836603408
 40
0.7115772836603408
 10
7.902498813565131
 20
55.55666676284879
 30
0.0
 10
7.894958164075746
 20
55.60246218808661
 30
0.0
 10
7.878648572288072
 20
55.70151254310625
 30
0.0
 10
7.764391957481358
 20
55.82653113011318
 30
0.0
 10
7.604236980777556
 20
55.93269995177258
 30
0.0
 10
7.472866614321282
 20
55.97903921928423
 30
0.0
 10
7.402063646125569
 20
56.00401408172218
 30
0.0
 11
7.902498813565131
 21
55.55666676284879
 31
0.0
 11
7.868547306151958
 21
55.68909123078528
 31
0.0
 11
7.768889307347251
 21
55.81295198623563
 31
0.0
 11
7.609968758746337
 21
55.92023889471129
 31
0.0
 11
7.402063646125569
 21
56.00401408172218
 31
0.0
  0
SPLINE
  5
131
330
47
100
AcDbEntity
  8
0
  6
Continuous
 62
     7
100
AcDbSpline
210
0.0
220
0.0
230
1.0
 70
     8
 71
     3
 72
    15
 73
    11
 74
     9
 42
0.000000001
 43
0.0000000001
 44
0.00000001
 40
0.0
 40
0.0
 40
0.0
 40
0.0
 40
0.2599069706008161
 40
0.5351253176474292
 40
0.8114656428552871
 40
1.074596917684366
 40
1.311926645436541
 40
1.514842122007618
 40
1.682021354353442
 40
1.82443901796109
 40
1.82443901796109
 40
1.82443901796109
 40
1.82443901796109
 10
7.402063646125569
 20
56.00401408172218
 30
0.0
 10
7.317936587315972
 20
56.02534211840459
 30
0.0
 10
7.144726460345961
 20
56.06925464143681
 30
0.0
 10
6.873478582603305
 20
56.0869773123806
 30
0.0
 10
6.601678993708548
 20
56.07276200228253
 30
0.0
 10
6.34672983127995
 20
56.02345684801099
 30
0.0
 10
6.124352594606016
 20
55.94344129573734
 30
0.0
 10
5.952180953250078
 20
55.83703812222436
 30
0.0
 10
5.828635173094945
 20
55.70800187094548
 30
0.0
 10
5.810733675532776
 20
55.60434839791341
 30
0.0
 10
5.802498813565137
 20
55.55666676284881
 30
0.0
 11
7.402063646125569
 21
56.00401408172218
 31
0.0
 11
7.14834594382673
 21
56.06039631336587
 31
0.0
 11
6.873942313447657
 21
56.08155726960063
 31
0.0
 11
6.598039308201608
 21
56.06601677140644
 31
0.0
 11
6.339928366791458
 21
56.01486200973986
 31
0.0
 11
6.117657435158412
 21
55.93166926728104
 31
0.0
 11
5.946767349743666
 21
55.82225597358777
 31
0.0
 11
5.839207923993599
 21
55.69427212053142
 31
0.0
 11
5.802498813565137
 21
55.55666676284881
 31
0.0
  0
SPLINE
  5
132
330
47
100
AcDbEntity
  8
0
  6
Continuous
 62
     7
100
AcDbSpline
210
0.0
220
0.0
230
1.0
 70
     8
 71
     3
 72
    17
 73
    13
 74
    11
 42
0.000000001
 43
0.0000000001
 44
0.00000001
 40
0.0
 40
0.0
 40
0.0
 40
0.0
 40
0.1701789767108428
 40
0.3791341961316569
 40
0.6388463247442222
 40
0.9409022076528568
 40
1.266385867528303
 40
1.59186952740375
 40
1.893925410312389
 40
2.153637538924958
 40
2.36259275834577
 40
2.532771735056595
 40
2.532771735056595
 40
2.532771735056595
 40
2.532771735056595
 10
5.802498813565137
 20
55.55666676284881
 30
0.0
 10
5.814551609301517
 20
55.49983372112376
 30
0.0
 10
5.84140351696203
 20
55.37321791623864
 30
0.0
 10
6.014047943249199
 20
55.2289939596681
 30
0.0
 10
6.244666199600541
 20
55.11809363874968
 30
0.0
 10
6.534751001739914
 20
55.0476702437084
 30
0.0
 10
6.852498813565125
 20
55.02336691523763
 30
0.0
 10
7.170246625390345
 20
55.0476702437084
 30
0.0
 10
7.460331427529715
 20
55.11809363874969
 30
0.0
 10
7.690949683881063
 20
55.22899395966809
 30
0.0
 10
7.86359411016822
 20
55.37321791623863
 30
0.0
 10
7.890446017828746
 20
55.49983372112378
 30
0.0
 10
7.902498813565131
 20
55.55666676284879
 30
0.0
 11
5.802498813565137
 21
55.55666676284881
 31
0.0
 11
5.853890266762736
 21
55.39443297000749
 31
0.0
 11
6.003030969471432
 21
55.24807950539524
 31
0.0
 11
6.235324790185111
 21
55.13193317906644
 31
0.0
 11
6.528030969471434
 21
55.05736209179384
 31
0.0
 11
6.852498813565127
 21
55.03166718096671
 31
0.0
 11
7.17696665765882
 21
55.05736209179384
 31
0.0
 11
7.46967283694515
 21
55.13193317906644
 31
0.0
 11
7.701966657658829
 21
55.24807950539524
 31
0.0
 11
7.851107360367523
 21
55.39443297000749
 31
0.0
 11
7.902498813565131
 21
55.55666676284879
 31
0.0
  0
SPLINE
  5
133
330
47
100
AcDbEntity
  8
0
  6
Continuous
 62
     7
100
AcDbSpline
210
0.0
220
0.0
230
1.0
 70
     8
 71
     3
 72
    11
 73
     7
 74
     5
 42
0.000000001
 43
0.0000000001
 44
0.00000001
 40
0.0
 40
0.0
 40
0.0
 40
0.0
 40
0.246270440116726
 40
0.501043330699229
 40
0.753241513931016
 40
0.9925134900795679
 40
0.9925134900795679
 40
0.9925134900795679
 40
0.9925134900795679
 10
-0.9215517190606803
 20
53.24417187727697
 30
0.0
 10
-0.8933638295931534
 20
53.16655080163971
 30
0.0
 10
-0.8360148542726807
 20
53.00862880028717
 30
0.0
 10
-0.6784113124023252
 20
52.80911179323354
 30
0.0
 10
-0.4862014632567002
 20
52.64572006625457
 30
0.0
 10
-0.3324056883465255
 20
52.58627919683165
 30
0.0
 10
-0.2575302970173894
 20
52.55734044893471
 30
0.0
 11
-0.9215517190606803
 21
53.24417187727697
 31
0.0
 11
-0.8255159866117538
 21
53.01739827160315
 31
0.0
 11
-0.6716839446626928
 21
52.8143097934902
 31
0.0
 11
-0.475707615125637
 21
52.65557352400002
 31
0.0
 11
-0.2575302970173894
 21
52.55734044893471
 31
0.0
  0
SPLINE
  5
134
330
47
100
AcDbEntity
  8
0
  6
Continuous
 62
     7
100
AcDbSpline
210
0.0
220
0.0
230
1.0
 70
     8
 71
     3
 72
     9
 73
     5
 74
     3
 42
0.000000001
 43
0.0000000001
 44
0.00000001
 40
0.0
 40
0.0
 40
0.0
 40
0.0
 40
0.1226593539591674
 40
0.2722520558121695
 40
0.2722520558121695
 40
0.2722520558121695
 40
0.2722520558121695
 10
3.586471951541917
 20
56.18881420408182
 30
0.0
 10
3.594785498993874
 20
56.14749419853322
 30
0.0
 10
3.613238087351808
 20
56.05578121308498
 30
0.0
 10
3.687309454121573
 20
55.99743798788783
 30
0.0
 10
3.728009011558193
 20
55.96538049262136
 30
0.0
 11
3.586471951541917
 21
56.18881420408182
 31
0.0
 11
3.622702250778592
 21
56.07162767279367
 31
0.0
 11
3.728009011558193
 21
55.96538049262136
 31
0.0
  0
SPLINE
  5
135
330
47
100
AcDbEntity
  8
0
  6
Continuous
 62
     7
100
AcDbSpline
210
0.0
220
0.0
230
1.0
 70
     8
 71
     3
 72
    13
 73
     9
 74
     7
 42
0.000000001
 43
0.0000000001
 44
0.00000001
 40
0.0
 40
0.0
 40
0.0
 40
0.0
 40
0.2139621088029446
 40
0.4197475951224099
 40
0.606370507699817
 40
0.7659552521435712
 40
0.8965721893416847
 40
1.006661763119259
 40
1.006661763119259
 40
1.006661763119259
 40
1.006661763119259
 10
4.432340966738266
 20
56.57534985850958
 30
0.0
 10
4.360895791498054
 20
56.57574240802543
 30
0.0
 10
4.220735738930411
 20
56.57651250141859
 30
0.0
 10
4.020686001751674
 20
56.54220548899768
 30
0.0
 10
3.844496886318705
 20
56.48445641202223
 30
0.0
 10
3.707276749565375
 20
56.40455152792955
 30
0.0
 10
3.607815669844999
 20
56.30621867425795
 30
0.0
 10
3.593170199825473
 20
56.22565899585337
 30
0.0
 10
3.586471951541917
 20
56.18881420408182
 30
0.0
 11
4.432340966738266
 21
56.57534985850958
 31
0.0
 11
4.218441897890843
 21
56.57015676637901
 31
0.0
 11
4.015521567901953
 21
56.53593680088187
 31
0.0
 11
3.839026278731814
 21
56.47529420574847
 31
0.0
 11
3.702389927536402
 21
56.39284544588922
 31
0.0
 11
3.616013888723877
 21
56.29486602917791
 31
0.0
 11
3.586471951541917
 21
56.18881420408182
 31
0.0
  0
SPLINE
  5
136
330
47
100
AcDbEntity
  8
0
  6
Continuous
 62
     7
100
AcDbSpline
210
0.0
220
0.0
230
1.0
 70
     8
 71
     3
 72
    11
 73
     7
 74
     5
 42
0.000000001
 43
0.0000000001
 44
0.00000001
 40
0.0
 40
0.0
 40
0.0
 40
0.0
 40
0.2313044584194731
 40
0.4519147266106679
 40
0.6482907727969429
 40
0.8117079213290681
 40
0.8117079213290681
 40
0.8117079213290681
 40
0.8117079213290681
 10
4.432340966738266
 20
56.22893969712685
 30
0.0
 10
4.355027756534795
 20
56.22920786192915
 30
0.0
 10
4.203975855848963
 20
56.22973177878038
 30
0.0
 10
3.991332485430919
 20
56.18812301790413
 30
0.0
 10
3.805627103959209
 20
56.1245656965846
 30
0.0
 10
3.711026434083673
 20
56.04964012989949
 30
0.0
 10
3.668059055908728
 20
56.01560912339046
 30
0.0
 11
4.432340966738266
 21
56.22893969712685
 31
0.0
 11
4.201140384080447
 21
56.22200845976846
 31
0.0
 11
3.984322728420512
 21
56.18127769185059
 31
0.0
 11
3.801194053359835
 21
56.11037323853997
 31
0.0
 11
3.668059055908728
 21
56.01560912339046
 31
0.0
  0
SPLINE
  5
137
330
47
100
AcDbEntity
  8
0
  6
Continuous
 62
     7
100
AcDbSpline
210
0.0
220
0.0
230
1.0
 70
     8
 71
     3
 72
    13
 73
     9
 74
     7
 42
0.000000001
 43
0.0000000001
 44
0.00000001
 40
0.0
 40
0.0
 40
0.0
 40
0.0
 40
0.380391035274192
 40
0.7341698219245367
 40
1.049754368174916
 40
1.3206719848983
 40
1.54891872987935
 40
1.749393878087595
 40
1.749393878087595
 40
1.749393878087595
 40
1.749393878087595
 10
1.492839533428573
 20
56.24006559593073
 30
0.0
 10
1.618846607080117
 20
56.25573725520348
 30
0.0
 10
1.862045268169202
 20
56.28598418570201
 30
0.0
 10
2.199253666812184
 20
56.38423447863333
 30
0.0
 10
2.486241423912779
 20
56.51546650779049
 30
0.0
 10
2.704855736684403
 20
56.67747506338235
 30
0.0
 10
2.857252302818318
 20
56.86555996271372
 30
0.0
 10
2.878397796166634
 20
57.009163556636
 30
0.0
 10
2.88828565844176
 20
57.07631420394463
 30
0.0
 11
1.492839533428573
 21
56.24006559593073
 31
0.0
 11
1.868883799895617
 21
56.29740704837354
 31
0.0
 11
2.208528840133517
 21
56.396405414067
 31
0.0
 11
2.493609509574473
 21
56.5317664783575
 31
0.0
 11
2.708879852971648
 21
56.69625062519695
 31
0.0
 11
2.84282618759237
 21
56.88106122989404
 31
0.0
 11
2.88828565844176
 21
57.07631420394463
 31
0.0
  0
SPLINE
  5
138
330
47
100
AcDbEntity
  8
0
  6
Continuous
 62
     7
100
AcDbSpline
210
0.0
220
0.0
230
1.0
 70
     8
 71
     3
 72
     9
 73
     5
 74
     3
 42
0.000000001
 43
0.0000000001
 44
0.00000001
 40
0.0
 40
0.0
 40
0.0
 40
0.0
 40
0.3817608068118451
 40
0.7084328557332287
 40
0.7084328557332287
 40
0.7084328557332287
 40
0.7084328557332287
 10
0.7258500927567724
 20
53.7055137899526
 30
0.0
 10
0.8359538971793223
 20
53.77438180386358
 30
0.0
 10
1.040273339831541
 20
53.90218003753831
 30
0.0
 10
1.2802539259793
 20
53.91184758067177
 30
0.0
 10
1.390913602992576
 20
53.9163054623258
 30
0.0
 11
0.7258500927567724
 21
53.7055137899526
 31
0.0
 11
1.066517236800557
 21
53.87781356336103
 31
0.0
 11
1.390913602992576
 21
53.9163054623258
 31
0.0
  0
SPLINE
  5
139
330
47
100
AcDbEntity
  8
0
  6
Continuous
 62
     7
100
AcDbSpline
210
0.0
220
0.0
230
1.0
 70
     8
 71
     3
 72
     9
 73
     5
 74
     3
 42
0.000000001
 43
0.0000000001
 44
0.00000001
 40
0.0
 40
0.0
 40
0.0
 40
0.0
 40
0.1593624000570098
 40
0.306760652140098
 40
0.306760652140098
 40
0.306760652140098
 40
0.306760652140098
 10
-0.932031597699563
 20
56.94006559624563
 30
0.0
 10
-0.9608859314213479
 20
56.98567047151526
 30
0.0
 10
-1.016428338865882
 20
57.07345643916294
 30
0.0
 10
-1.026493358527897
 20
57.17670388505299
 30
0.0
 10
-1.031329583410241
 20
57.22631420386237
 30
0.0
 11
-0.932031597699563
 21
56.94006559624563
 31
0.0
 11
-1.006321103645788
 21
57.08105298701966
 31
0.0
 11
-1.031329583410241
 21
57.22631420386237
 31
0.0
  0
SPLINE
  5
13A
330
47
100
AcDbEntity
  8
0
  6
Continuous
 62
     7
100
AcDbSpline
210
0.0
220
0.0
230
1.0
 70
     8
 71
     3
 72
     9
 73
     5
 74
     3
 42
0.000000001
 43
0.0000000001
 44
0.00000001
 40
0.0
 40
0.0
 40
0.0
 40
0.0
 40
0.1225740618110001
 40
0.240166886358812
 40
0.240166886358812
 40
0.240166886358812
 40
0.240166886358812
 10
1.390913602904426
 20
53.0803781180696
 30
0.0
 10
1.389518089260665
 20
53.03938243157351
 30
0.0
 10
1.386783753914941
 20
52.95905706782986
 30
0.0
 10
1.365390001391019
 20
52.8816007319132
 30
0.0
 10
1.354914976620677
 20
52.84367581642036
 30
0.0
 11
1.390913602904426
 21
53.0803781180696
 31
0.0
 11
1.381866685672485
 21
52.95813837776332
 31
0.0
 11
1.354914976620677
 21
52.84367581642036
 31
0.0
  0
SPLINE
  5
13B
330
47
100
AcDbEntity
  8
0
  6
Continuous
 62
     7
100
AcDbSpline
210
0.0
220
0.0
230
1.0
 70
     8
 71
     3
 72
     9
 73
     5
 74
     3
 42
0.000000001
 43
0.0000000001
 44
0.00000001
 40
0.0
 40
0.0
 40
0.0
 40
0.0
 40
0.1327870883637812
 40
0.260570725566297
 40
0.260570725566297
 40
0.260570725566297
 40
0.260570725566297
 10
-0.9979589015570483
 20
53.52289199901379
 30
0.0
 10
-1.008433434342227
 20
53.5660265936859
 30
0.0
 10
-1.028987797219389
 20
53.65067046393155
 30
0.0
 10
-1.032322300372607
 20
53.73769927153191
 30
0.0
 10
-1.033957527840748
 20
53.78037811741568
 30
0.0
 11
-0.9979589015570483
 21
53.52289199901379
 31
0.0
 11
-1.024910610621978
 21
53.65291513692313
 31
0.0
 11
-1.033957527840748
 21
53.78037811741568
 31
0.0
  0
SPLINE
  5
13C
330
47
100
AcDbEntity
  8
0
  6
Continuous
 62
     7
100
AcDbSpline
210
0.0
220
0.0
230
1.0
 70
     8
 71
     3
 72
    11
 73
     7
 74
     5
 42
0.000000001
 43
0.0000000001
 44
0.00000001
 40
0.0
 40
0.0
 40
0.0
 40
0.0
 40
0.2274945681428161
 40
0.4937067152019193
 40
0.8161625831898494
 40
1.193267415516345
 40
1.193267415516345
 40
1.193267415516345
 40
1.193267415516345
 10
2.88828565844176
 20
57.07631420394463
 30
0.0
 10
2.875338145289359
 20
57.15251113769461
 30
0.0
 10
2.847239551635877
 20
57.3178730505054
 30
0.0
 10
2.652204598216839
 20
57.52432171645822
 30
0.0
 10
2.380376038227114
 20
57.69817484690781
 30
0.0
 10
2.158103683048481
 20
57.77241561300926
 30
0.0
 10
2.038285658879929
 20
57.81243579684289
 30
0.0
 11
2.88828565844176
 21
57.07631420394463
 31
0.0
 11
2.83035912538819
 21
57.2963103335523
 31
0.0
 11
2.660528845035216
 21
57.50131420380615
 31
0.0
 11
2.390366866301771
 21
57.67735480752283
 31
0.0
 11
2.038285658879929
 21
57.81243579684289
 31
0.0
  0
SPLINE
  5
13D
330
47
100
AcDbEntity
  8
0
  6
Continuous
 62
     7
100
AcDbSpline
210
0.0
220
0.0
230
1.0
 70
     8
 71
     3
 72
    15
 73
    11
 74
     9
 42
0.000000001
 43
0.0000000001
 44
0.00000001
 40
0.0
 40
0.0
 40
0.0
 40
0.0
 40
0.2274945639049497
 40
0.493706715104906
 40
0.8161625878799253
 40
1.19326741531418
 40
1.611976059429385
 40
2.052920567441155
 40
2.493865075678811
 40
2.912573728859485
 40
2.912573728859485
 40
2.912573728859485
 40
2.912573728859485
 10
-1.031329583410241
 20
57.22631420386237
 30
0.0
 10
-1.018375935886167
 20
57.30248646118391
 30
0.0
 10
-0.9902640308322763
 20
57.46779482330435
 30
0.0
 10
-0.7953503695836056
 20
57.67473132280669
 30
0.0
 10
-0.5229154532049238
 20
57.84614554411615
 30
0.0
 10
-0.1704418513523433
 20
57.97622727856943
 30
0.0
 10
0.2347823279151068
 20
58.05813522422051
 30
0.0
 10
0.6684578928654881
 20
58.08488720384774
 30
0.0
 10
1.103387114904612
 20
58.06106582685908
 30
0.0
 10
1.382650465914448
 20
57.9947406176333
 30
0.0
 10
1.51867041720007
 20
57.96243579667222
 30
0.0
 11
-1.031329583410241
 21
57.22631420386237
 31
0.0
 11
-0.9734030502869049
 21
57.44631033360022
 31
0.0
 11
-0.8035727697341457
 21
57.65131420395733
 31
0.0
 11
-0.5334107907129142
 21
57.82735480774631
 31
0.0
 11
-0.1813295830304291
 21
57.96243579718879
 31
0.0
 11
0.2286781577495072
 21
58.04735093738584
 31
0.0
 11
0.6686704172476077
 21
58.07631420386238
 31
0.0
 11
1.108662676682214
 21
58.04735093719212
 31
0.0
 11
1.51867041720007
 21
57.96243579667222
 31
0.0
  0
SPLINE
  5
13E
330
47
100
AcDbEntity
  8
0
  6
Continuous
 62
     7
100
AcDbSpline
210
0.0
220
0.0
230
1.0
 70
    24
 71
     3
 72
    11
 73
     7
 74
     5
 42
0.000000001
 43
0.0000000001
 44
0.00000001
 40
0.0
 40
0.0
 40
0.0
 40
0.0
 40
0.0082679732304468
 40
0.0165359464608761
 40
0.0248039196913247
 40
0.033071892921772
 40
0.033071892921772
 40
0.033071892921772
 40
0.033071892921772
 10
5.161473478133722
 20
37.4252776771216
 30
0.0
 10
5.159390144703916
 20
37.42708189679662
 30
0.0
 10
5.155223477844309
 20
37.43069033614668
 30
0.0
 10
5.148973477554892
 20
37.43610299517171
 30
0.0
 10
5.1427234772655
 20
37.44151565419682
 30
0.0
 10
5.138556810405905
 20
37.44512409354688
 30
0.0
 10
5.136473476976107
 20
37.44692831322192
 30
0.0
 11
5.161473478133722
 21
37.4252776771216
 31
0.0
 11
5.155223477844301
 21
37.43069033614667
 31
0.0
 11
5.148973477554897
 21
37.43610299517174
 31
0.0
 11
5.142723477265499
 21
37.44151565419683
 31
0.0
 11
5.136473476976107
 21
37.44692831322192
 31
0.0
  0
SPLINE
  5
13F
330
47
100
AcDbEntity
  8
0
  6
Continuous
 62
     7
100
AcDbSpline
210
0.0
220
0.0
230
1.0
 70
     8
 71
     3
 72
    11
 73
     7
 74
     5
 42
0.000000001
 43
0.0000000001
 44
0.00000001
 40
0.0
 40
0.0
 40
0.0
 40
0.0
 40
0.0082679732304099
 40
0.0165359464608498
 40
0.0248039196878048
 40
0.0330718928938011
 40
0.0330718928938011
 40
0.0330718928938011
 40
0.0330718928938011
 10
-0.2944865660465936
 20
39.00027767683277
 30
0.0
 10
-0.2965698994765807
 20
39.00208189650755
 30
0.0
 10
-0.3007365663430781
 20
39.00569033584965
 30
0.0
 10
-0.3069865666347108
 20
39.01110299487035
 30
0.0
 10
-0.3132365668862098
 20
39.01651565392497
 30
0.0
 10
-0.3174032336777214
 20
39.02012409333943
 30
0.0
 10
-0.3194865670562592
 20
39.0219283130612
 30
0.0
 11
-0.2944865660465936
 21
39.00027767683277
 31
0.0
 11
-0.3007365663359929
 21
39.00569033585782
 31
0.0
 11
-0.3069865666253975
 21
39.0111029948829
 31
0.0
 11
-0.313236566896304
 21
39.016515653924
 31
0.0
 11
-0.3194865670562592
 21
39.0219283130612
 31
0.0
  0
SPLINE
  5
140
330
47
100
AcDbEntity
  8
0
  6
Continuous
 62
     7
100
AcDbSpline
210
0.0
220
0.0
230
1.0
 70
     8
 71
     3
 72
    11
 73
     7
 74
     5
 42
0.000000001
 43
0.0000000001
 44
0.00000001
 40
0.0
 40
0.0
 40
0.0
 40
0.0
 40
0.1327330935739976
 40
0.2602653866881171
 40
0.3756185913793528
 40
0.4734173175723508
 40
0.4734173175723508
 40
0.4734173175723508
 40
0.4734173175723508
 10
-0.7590860396972374
 20
39.88495134200691
 30
0.0
 10
-0.771204738499388
 20
39.84232680595046
 30
0.0
 10
-0.7949673104841636
 20
39.75874786984685
 30
0.0
 10
-0.847070111419433
 20
39.64464308142571
 30
0.0
 10
-0.9050934243737165
 20
39.54603380521905
 30
0.0
 10
-0.9550120346923111
 20
39.49515319704181
 30
0.0
 10
-0.9779157804774385
 20
39.47180807590205
 30
0.0
 11
-0.7590860396972374
 21
39.88495134200691
 31
0.0
 11
-0.7986514982839217
 21
39.75825229587385
 31
0.0
 11
-0.8508756758303058
 21
39.64190315993081
 31
0.0
 11
-0.912070915796503
 21
39.54412021115892
 31
0.0
 11
-0.9779157804774385
 21
39.47180807590205
 31
0.0
  0
SPLINE
  5
141
330
47
100
AcDbEntity
  8
0
  6
Continuous
 62
     7
100
AcDbSpline
210
0.0
220
0.0
230
1.0
 70
     8
 71
     3
 72
     9
 73
     5
 74
     3
 42
0.000000001
 43
0.0000000001
 44
0.00000001
 40
0.0
 40
0.0
 40
0.0
 40
0.0
 40
0.0604043205507868
 40
0.1179411410706492
 40
0.1179411410706492
 40
0.1179411410706492
 40
0.1179411410706492
 10
-2.107054975803173
 20
40.16551972246251
 30
0.0
 10
-2.092084066116905
 20
40.17902926353204
 30
0.0
 10
-2.062852956436187
 20
40.20540703797613
 30
0.0
 10
-2.037754291401698
 20
40.23573914389648
 30
0.0
 10
-2.025510077702379
 20
40.2505364715428
 30
0.0
 11
-2.107054975803173
 21
40.16551972246251
 31
0.0
 11
-2.063226211835115
 21
40.20708559125917
 31
0.0
 11
-2.025510077702379
 21
40.2505364715428
 31
0.0
  0
SPLINE
  5
142
330
47
100
AcDbEntity
  8
0
  6
Continuous
 62
     7
100
AcDbSpline
210
0.0
220
0.0
230
1.0
 70
     8
 71
     3
 72
    11
 73
     7
 74
     5
 42
0.000000001
 43
0.0000000001
 44
0.00000001
 40
0.0
 40
0.0
 40
0.0
 40
0.0
 40
0.1481683489656669
 40
0.2947750330007167
 40
0.4357907197524001
 40
0.5677771427994229
 40
0.5677771427994229
 40
0.5677771427994229
 40
0.5677771427994229
 10
-2.623364047662768
 20
39.94680807590277
 30
0.0
 10
-2.574611665228166
 20
39.95523113068247
 30
0.0
 10
-2.477620743903525
 20
39.97198847753296
 30
0.0
 10
-2.340238258976291
 20
40.02069475730362
 30
0.0
 10
-2.213962585646205
 20
40.08257417413353
 30
0.0
 10
-2.141896337258462
 20
40.13848762901798
 30
0.0
 10
-2.107054975803173
 20
40.16551972246251
 30
0.0
 11
-2.623364047662768
 21
39.94680807590277
 31
0.0
 11
-2.478133557841969
 21
39.97616730819232
 31
0.0
 11
-2.339545218220913
 21
40.0239877257132
 31
0.0
 11
-2.213937487579424
 21
40.08808236196783
 31
0.0
 11
-2.107054975803173
 21
40.16551972246251
 31
0.0
  0
SPLINE
  5
143
330
47
100
AcDbEntity
  8
0
  6
Continuous
 62
     7
100
AcDbSpline
210
0.0
220
0.0
230
1.0
 70
     8
 71
     3
 72
    11
 73
     7
 74
     5
 42
0.000000001
 43
0.0000000001
 44
0.00000001
 40
0.0
 40
0.0
 40
0.0
 40
0.0
 40
0.1529391839802391
 40
0.3041178170540417
 40
0.4512829796069177
 40
0.5926046336380991
 40
0.5926046336380991
 40
0.5926046336380991
 40
0.5926046336380991
 10
-0.7029986625924707
 20
52.91986279336963
 30
0.0
 10
-0.6694990443783884
 20
52.88129876673621
 30
0.0
 10
-0.6028854261137394
 20
52.80461465136348
 30
0.0
 10
-0.4845173290772173
 20
52.71074240878391
 30
0.0
 10
-0.3583431381729407
 20
52.63453229502707
 30
0.0
 10
-0.2672360996826297
 20
52.60302226503654
 30
0.0
 10
-0.2226052971085935
 20
52.58758638609039
 30
0.0
 11
-0.7029986625924707
 21
52.91986279336963
 31
0.0
 11
-0.5991730751958642
 21
52.80756568064728
 31
0.0
 11
-0.4815735838145159
 21
52.71256389553273
 31
0.0
 11
-0.3545016547047233
 21
52.63833243048718
 31
0.0
 11
-0.2226052971085935
 21
52.58758638609039
 31
0.0
  0
SPLINE
  5
144
330
47
100
AcDbEntity
  8
0
  6
Continuous
 62
     7
100
AcDbSpline
210
0.0
220
0.0
230
1.0
 70
     8
 71
     3
 72
    11
 73
     7
 74
     5
 42
0.000000001
 43
0.0000000001
 44
0.00000001
 40
0.0
 40
0.0
 40
0.0
 40
0.0
 40
0.1343205995639801
 40
0.2613954581842765
 40
0.3820783226058996
 40
0.4983565484029638
 40
0.4983565484029638
 40
0.4983565484029638
 40
0.4983565484029638
 10
0.6494113717010919
 20
52.33585685682402
 30
0.0
 10
0.6931386583446251
 20
52.32551427200649
 30
0.0
 10
0.7782344255085885
 20
52.30538703338963
 30
0.0
 10
0.9065728284385743
 20
52.30709623318641
 30
0.0
 10
1.026950397705343
 20
52.33215052297401
 30
0.0
 10
1.095947439618661
 20
52.37147913404135
 30
0.0
 10
1.129804698011242
 20
52.39077792552433
 30
0.0
 11
0.6494113717010919
 21
52.33585685682402
 31
0.0
 11
0.781307704148194
 21
52.31045250605921
 31
0.0
 11
0.9083796108857243
 21
52.31131895082905
 31
0.0
 11
1.025979089611788
 21
52.33842461398431
 31
0.0
 11
1.129804698011242
 21
52.39077792552433
 31
0.0
  0
SPLINE
  5
145
330
47
100
AcDbEntity
  8
0
  6
Continuous
 62
     7
100
AcDbSpline
210
0.0
220
0.0
230
1.0
 70
     8
 71
     3
 72
    11
 73
     7
 74
     5
 42
0.000000001
 43
0.0000000001
 44
0.00000001
 40
0.0
 40
0.0
 40
0.0
 40
0.0
 40
0.013261356386393
 40
0.0277564400547543
 40
0.0297443385465182
 40
0.0317606908227096
 40
0.0317606908227096
 40
0.0317606908227096
 40
0.0317606908227096
 10
1.129804698011242
 20
52.39077792552433
 30
0.0
 10
1.133448959595191
 20
52.39328043175565
 30
0.0
 10
1.141076503518308
 20
52.39851827262279
 30
0.0
 10
1.149020831324338
 20
52.40445537977506
 30
0.0
 10
1.153904213234372
 20
52.40822062596181
 30
0.0
 10
1.154956767953462
 20
52.40904141883099
 30
0.0
 10
1.155486780556302
 20
52.40945473718938
 30
0.0
 11
1.129804698011242
 21
52.39077792552433
 31
0.0
 11
1.140688591806329
 21
52.39835449645805
 31
0.0
 11
1.152321689215683
 21
52.40700195304154
 31
0.0
 11
1.153895606037938
 21
52.40821625393989
 31
0.0
 11
1.155486780556302
 21
52.40945473718938
 31
0.0
  0
SPLINE
  5
146
330
47
100
AcDbEntity
  8
0
  6
Continuous
 62
     7
100
AcDbSpline
210
0.0
220
0.0
230
1.0
 70
     8
 71
     3
 72
     9
 73
     5
 74
     3
 42
0.000000001
 43
0.0000000001
 44
0.00000001
 40
0.0
 40
0.0
 40
0.0
 40
0.0
 40
0.1276295520253457
 40
0.2594569731633893
 40
0.2594569731633893
 40
0.2594569731633893
 40
0.2594569731633893
 10
1.138209308510518
 20
52.3936880860129
 30
0.0
 10
1.168515792176073
 20
52.42422472918481
 30
0.0
 10
1.230125555703549
 20
52.48630240949759
 30
0.0
 10
1.262207365056121
 20
52.56770803496042
 30
0.0
 10
1.278507793913796
 20
52.6090694014087
 30
0.0
 11
1.138209308510518
 21
52.3936880860129
 31
0.0
 11
1.221983704415314
 21
52.48997491526893
 31
0.0
 11
1.278507793913796
 21
52.6090694014087
 31
0.0
  0
SPLINE
  5
147
330
47
100
AcDbEntity
  8
0
  6
Continuous
 62
     7
100
AcDbSpline
210
0.0
220
0.0
230
1.0
 70
     8
 71
     3
 72
    11
 73
     7
 74
     5
 42
0.000000001
 43
0.0000000001
 44
0.00000001
 40
0.0
 40
0.0
 40
0.0
 40
0.0
 40
0.1497129525778008
 40
0.2904290198672249
 40
0.4236305545101471
 40
0.5525148436883321
 40
0.5525148436883321
 40
0.5525148436883321
 40
0.5525148436883321
 10
0.6144863718708677
 20
52.30561091973647
 30
0.0
 10
0.663334863560284
 20
52.2943462792154
 30
0.0
 10
0.7580963365394924
 20
52.27249395251306
 30
0.0
 10
0.9005479786310981
 20
52.27965153914001
 30
0.0
 10
1.032127558750444
 20
52.31639491866183
 30
0.0
 10
1.103239193268882
 20
52.36820819326924
 30
0.0
 10
1.138209308510518
 20
52.3936880860129
 30
0.0
 11
0.6144863718708677
 21
52.30561091973647
 31
0.0
 11
0.7618022777225573
 21
52.27892773849415
 31
0.0
 11
0.902380656386427
 21
52.28515121721988
 31
0.0
 11
1.029792032907177
 21
52.3239969469944
 31
0.0
 11
1.138209308510518
 21
52.3936880860129
 31
0.0
  0
SPLINE
  5
148
330
47
100
AcDbEntity
  8
0
  6
Continuous
 62
     7
100
AcDbSpline
210
0.0
220
0.0
230
1.0
 70
     8
 71
     3
 72
    11
 73
     7
 74
     5
 42
0.000000001
 43
0.0000000001
 44
0.00000001
 40
0.0
 40
0.0
 40
0.0
 40
0.0
 40
0.0462220896608012
 40
0.1031139101008088
 40
0.1529306675793621
 40
0.2121532039073701
 40
0.2121532039073701
 40
0.2121532039073701
 40
0.2121532039073701
 10
-0.9320315975480327
 20
53.86864856237497
 30
0.0
 10
-0.9319101776426627
 20
53.85324077462403
 30
0.0
 10
-0.931639293671242
 20
53.81886852443096
 30
0.0
 10
-0.9294445308460872
 20
53.76792906802318
 30
0.0
 10
-0.92584535050588
 20
53.71272971144067
 30
0.0
 10
-0.9222911696102382
 20
53.67655481538426
 30
0.0
 10
-0.9203607787857635
 20
53.65690713659507
 30
0.0
 11
-0.9320315975480327
 21
53.86864856237497
 31
0.0
 11
-0.9314244098719859
 21
53.82243046081273
 31
0.0
 11
-0.9291203841714335
 21
53.76558531381645
 31
0.0
 11
-0.925801193162461
 21
53.71587925463952
 31
0.0
 11
-0.9203607787857635
 21
53.65690713659507
 31
0.0
  0
SPLINE
  5
149
330
47
100
AcDbEntity
  8
0
  6
Continuous
 62
     7
100
AcDbSpline
210
0.0
220
0.0
230
1.0
 70
     8
 71
     3
 72
     9
 73
     5
 74
     3
 42
0.000000001
 43
0.0000000001
 44
0.00000001
 40
0.0
 40
0.0
 40
0.0
 40
0.0
 40
0.1492278413815023
 40
0.3057942045097363
 40
0.3057942045097363
 40
0.3057942045097363
 40
0.3057942045097363
 10
-0.9129352531047985
 20
53.59652463851397
 30
0.0
 10
-0.9056664380802927
 20
53.54731199053721
 30
0.0
 10
-0.8907713324721499
 20
53.44646658574069
 30
0.0
 10
-0.8724264987628273
 20
53.34619084236955
 30
0.0
 10
-0.8630339499774422
 20
53.29484975188827
 30
0.0
 11
-0.9129352531047985
 21
53.59652463851397
 31
0.0
 11
-0.8903072635936633
 21
53.44902235796145
 31
0.0
 11
-0.8630339499774422
 21
53.29484975188827
 31
0.0
  0
SPLINE
  5
14A
330
47
100
AcDbEntity
  8
0
  6
Continuous
 62
     7
100
AcDbSpline
210
0.0
220
0.0
230
1.0
 70
     8
 71
     3
 72
    11
 73
     7
 74
     5
 42
0.000000001
 43
0.0000000001
 44
0.00000001
 40
0.0
 40
0.0
 40
0.0
 40
0.0
 40
0.0152265624981568
 40
0.0303279134237472
 40
0.0456504870684112
 40
0.0608401732075119
 40
0.0608401732075119
 40
0.0608401732075119
 40
0.0608401732075119
 10
-0.9203607787857635
 20
53.65690713659507
 30
0.0
 10
-0.919814779639044
 20
53.65186103533353
 30
0.0
 10
-0.9187272563572597
 20
53.64181032972211
 30
0.0
 10
-0.9169284083464201
 20
53.62669997326417
 30
0.0
 10
-0.9150198695927734
 20
53.61161543038262
 30
0.0
 10
-0.9136281097433084
 20
53.60154027530454
 30
0.0
 10
-0.9129352531047985
 20
53.59652463851397
 30
0.0
 11
-0.9203607787857635
 21
53.65690713659507
 31
0.0
 11
-0.9186956684268945
 21
53.64177189248965
 31
0.0
 11
-0.9169188710266027
 21
53.6267754331289
 31
0.0
 11
-0.9149852973440709
 21
53.61157534896206
 31
0.0
 11
-0.9129352531047985
 21
53.59652463851397
 31
0.0
  0
SPLINE
  5
14B
330
47
100
AcDbEntity
  8
0
  6
Continuous
 62
     7
100
AcDbSpline
210
0.0
220
0.0
230
1.0
 70
     8
 71
     3
 72
    13
 73
     9
 74
     7
 42
0.000000001
 43
0.0000000001
 44
0.00000001
 40
0.0
 40
0.0
 40
0.0
 40
0.0
 40
0.0552954640896552
 40
0.101573181042923
 40
0.1567239632471457
 40
0.2044960051765409
 40
0.3206925658042946
 40
0.4115374804728371
 40
0.4115374804728371
 40
0.4115374804728371
 40
0.4115374804728371
 10
-0.8630339499774422
 20
53.29484975188827
 30
0.0
 10
-0.8593816628621282
 20
53.27677909242305
 30
0.0
 10
-0.8526727008442331
 20
53.24358479274869
 30
0.0
 10
-0.8392928813397141
 20
53.19306361134786
 30
0.0
 10
-0.8243501622187799
 20
53.14559175773165
 30
0.0
 10
-0.7984577504539818
 20
53.07731032051709
 30
0.0
 10
-0.7616702682114764
 20
53.00014840780442
 30
0.0
 10
-0.720891451236545
 20
52.94434709075971
 30
0.0
 10
-0.7029986625924707
 20
52.91986279336963
 30
0.0
 11
-0.8630339499774422
 21
53.29484975188827
 31
0.0
 11
-0.8514954660765968
 21
53.24077155163968
 31
0.0
 11
-0.8397383261817524
 21
53.1960122310187
 31
0.0
 11
-0.8230788252348873
 21
53.14343780883649
 31
0.0
 11
-0.8061784741723201
 21
53.09875508090779
 31
0.0
 11
-0.7545807786567522
 21
52.99464303109844
 31
0.0
 11
-0.7029986625924707
 21
52.91986279336963
 31
0.0
  0
SPLINE
  5
14C
330
47
100
AcDbEntity
  8
0
  6
Continuous
 62
     7
100
AcDbSpline
210
0.0
220
0.0
230
1.0
 70
     8
 71
     3
 72
    13
 73
     9
 74
     7
 42
0.000000001
 43
0.0000000001
 44
0.00000001
 40
0.0
 40
0.0
 40
0.0
 40
0.0
 40
0.2127335154244499
 40
0.4207909987748999
 40
0.6730321419657661
 40
0.9946709585161699
 40
1.391218387611308
 40
1.857661081912874
 40
1.857661081912874
 40
1.857661081912874
 40
1.857661081912874
 10
-0.8880891351069096
 20
53.43569584075706
 30
0.0
 10
-0.8413901423859927
 20
53.49176832760875
 30
0.0
 10
-0.7490186270493072
 20
53.60268078006488
 30
0.0
 10
-0.5124825195489441
 20
53.64394166901647
 30
0.0
 10
-0.2585910430826553
 20
53.56942004546785
 30
0.0
 10
0.0194250611682214
 20
53.39947495772667
 30
0.0
 10
0.3190665409662193
 20
53.14001389123094
 30
0.0
 10
0.5081558183081588
 20
52.92286346622409
 30
0.0
 10
0.6103578116677113
 20
52.8054945327327
 30
0.0
 11
-0.8880891351069096
 21
53.43569584075706
 31
0.0
 11
-0.7338032728555897
 21
53.58215888989888
 31
0.0
 11
-0.5305267318567957
 21
53.62650487841659
 31
0.0
 11
-0.285360123372977
 21
53.56718431397059
 31
0.0
 11
-0.0068676820765071
 21
53.40626977510468
 31
0.0
 11
0.295222494236667
 21
53.14938188313985
 31
0.0
 11
0.6103578116677113
 21
52.8054945327327
 31
0.0
  0
ENDBLK
  5
49
330
47
100
AcDbEntity
  8
0
100
AcDbBlockEnd
  0
BLOCK
  5
4C
330
4A
100
AcDbEntity
  8
0
100
AcDbBlockBegin
  2
AllgSicht1
 70
     0
 10
3.50000000002018
 20
42.99999999967895
 30
0.0
  3
AllgSicht1
  1

  0
INSERT
  5
4B
330
4A
100
AcDbEntity
  8
0
100
AcDbBlockReference
  2
PP_H_1_5_S_1_R-select__1
 10
-4.51970977597227
 20
28.11839105951279
 30
0.0
  0
MTEXT
  5
14E
330
4A
100
AcDbEntity
  8
1
 62
     6
100
AcDbMText
 10
3.4999998133083
 20
25.61839105951279
 30
0.0
 40
2.5
 41
0.0
 71
     2
 72
     1
  1
 
  7
CONVERTER_11
 73
     1
 44
1.32052821128451
  0
ENDBLK
  5
4D
330
4A
100
AcDbEntity
  8
0
100
AcDbBlockEnd
  0
BLOCK
  5
4F
330
4E
100
AcDbEntity
  8
0
100
AcDbBlockBegin
  2
PP_H_1_5_S_1_R-select__2
 70
     0
 10
-68.87500038171558
 20
35.04998853793755
 30
0.0
  3
PP_H_1_5_S_1_R-select__2
  1

  0
LINE
  5
14F
330
4E
100
AcDbEntity
  8
0
  6
Continuous
 62
     7
100
AcDbLine
 10
-53.23503242050643
 20
38.54998853816069
 30
0.0
 11
-53.2350324201345
 21
35.04998853959948
 31
0.0
  0
LINE
  5
150
330
4E
100
AcDbEntity
  8
0
  6
Continuous
 62
     7
100
AcDbLine
 10
-53.45072612548965
 20
38.54998853816069
 30
0.0
 11
-53.45072612511774
 21
35.04998853957656
 31
0.0
  0
LINE
  5
151
330
4E
100
AcDbEntity
  8
0
  6
Continuous
 62
     7
100
AcDbLine
 10
-53.51447577512738
 20
38.54998853816069
 30
0.0
 11
-53.51447577475545
 21
35.04998853956978
 31
0.0
  0
LINE
  5
152
330
4E
100
AcDbEntity
  8
0
  6
Continuous
 62
     7
100
AcDbLine
 10
-62.45000038148663
 20
36.04998853725078
 30
0.0
 11
-62.5412075200868
 21
36.04998844265656
 31
0.0
  0
LINE
  5
153
330
4E
100
AcDbEntity
  8
0
  6
Continuous
 62
     7
100
AcDbLine
 10
-64.35000038612021
 20
36.24998853914434
 30
0.0
 11
-64.50746763829184
 21
36.24998853916213
 31
0.0
  0
LINE
  5
154
330
4E
100
AcDbEntity
  8
0
  6
Continuous
 62
     7
100
AcDbLine
 10
-64.50746763829184
 20
36.24998853916213
 30
0.0
 11
-64.60000038578366
 21
36.24998853917893
 31
0.0
  0
LINE
  5
155
330
4E
100
AcDbEntity
  8
0
  6
Continuous
 62
     7
100
AcDbLine
 10
-64.45000038112212
 20
36.04998853713731
 30
0.0
 11
-64.40000038581171
 21
36.04998853713961
 31
0.0
  0
LINE
  5
156
330
4E
100
AcDbEntity
  8
0
  6
Continuous
 62
     2
100
AcDbLine
 10
-64.65000038100892
 20
36.24998853712636
 30
0.0
 11
-64.60000038578366
 21
36.24998853917893
 31
0.0
  0
LINE
  5
157
330
4E
100
AcDbEntity
  8
0
  6
Continuous
 62
     7
100
AcDbLine
 10
-62.5412075200868
 20
36.04998844265656
 30
0.0
 11
-63.01077350439209
 21
36.04998853721881
 31
0.0
  0
LINE
  5
158
330
4E
100
AcDbEntity
  8
0
  6
Continuous
 62
     7
100
AcDbLine
 10
-63.8850652986398
 20
36.04998853716926
 30
0.0
 11
-63.01077350439209
 21
36.04998853721881
 31
0.0
  0
LINE
  5
159
330
4E
100
AcDbEntity
  8
0
  6
Continuous
 62
     7
100
AcDbLine
 10
-59.273796491914
 20
36.04565658648455
 30
0.0
 11
-59.27379649191171
 21
35.44998853836289
 31
0.0
  0
LINE
  5
15A
330
4E
100
AcDbEntity
  8
0
  6
Continuous
 62
     7
100
AcDbLine
 10
-59.92620427119469
 20
35.44998853835786
 30
0.0
 11
-59.92620427119697
 21
36.04565658305047
 31
0.0
  0
LINE
  5
15B
330
4E
100
AcDbEntity
  8
0
  6
Continuous
 62
     7
100
AcDbLine
 10
-59.92620427119469
 20
35.44998853835786
 30
0.0
 11
-59.27379649191171
 21
35.44998853836289
 31
0.0
  0
LINE
  5
15C
330
4E
100
AcDbEntity
  8
0
  6
Continuous
 62
     7
100
AcDbLine
 10
-59.27379649191171
 20
35.44998853836289
 30
0.0
 11
-58.30000038162362
 21
35.44998853837039
 31
0.0
  0
LINE
  5
15D
330
4E
100
AcDbEntity
  8
0
  6
Continuous
 62
     7
100
AcDbLine
 10
-60.90000038418222
 20
35.44998853835038
 30
0.0
 11
-59.92620427119469
 21
35.44998853835786
 31
0.0
  0
LINE
  5
15E
330
4E
100
AcDbEntity
  8
0
  6
Continuous
 62
     7
100
AcDbLine
 10
-56.59809728552838
 20
36.14998853713706
 30
0.0
 11
-56.59809728552743
 21
37.79229155802413
 31
0.0
  0
LINE
  5
15F
330
4E
100
AcDbEntity
  8
0
  6
Continuous
 62
     7
100
AcDbLine
 10
-56.25953040473392
 20
37.69117801397408
 30
0.0
 11
-56.25953040473392
 21
35.80879906290177
 31
0.0
  0
LINE
  5
160
330
4E
100
AcDbEntity
  8
0
  6
Continuous
 62
     7
100
AcDbLine
 10
-58.30000038161198
 20
36.39998853815916
 30
0.0
 11
-58.40000038263105
 21
36.49998853917843
 31
0.0
  0
LINE
  5
161
330
4E
100
AcDbEntity
  8
0
  6
Continuous
 62
     7
100
AcDbLine
 10
-56.59809728552838
 20
36.14998853713706
 30
0.0
 11
-57.58668485477577
 21
36.14998853713708
 31
0.0
  0
LINE
  5
162
330
4E
100
AcDbEntity
  8
0
  6
Continuous
 62
     7
100
AcDbLine
 10
-58.30000038162362
 20
35.44998853837039
 30
0.0
 11
-58.30000038161198
 21
36.39998853815916
 31
0.0
  0
LINE
  5
163
330
4E
100
AcDbEntity
  8
0
  6
Continuous
 62
     7
100
AcDbLine
 10
-58.40000038263105
 20
36.49998853917843
 30
0.0
 11
-58.40000038263017
 21
36.99998853518501
 31
0.0
  0
LINE
  5
164
330
4E
100
AcDbEntity
  8
0
  6
Continuous
 62
     7
100
AcDbLine
 10
-53.51447577475545
 20
35.04998853956978
 30
0.0
 11
-53.45072612511774
 21
35.04998853957656
 31
0.0
  0
LINE
  5
165
330
4E
100
AcDbEntity
  8
0
  6
Continuous
 62
     7
100
AcDbLine
 10
-53.45072612511774
 20
35.04998853957656
 30
0.0
 11
-53.2350324201345
 21
35.04998853959948
 31
0.0
  0
LINE
  5
166
330
4E
100
AcDbEntity
  8
0
  6
Continuous
 62
     7
100
AcDbLine
 10
-62.05000038398842
 20
35.04998853866279
 30
0.0
 11
-53.51447577475545
 21
35.04998853956978
 31
0.0
  0
LINE
  5
167
330
4E
100
AcDbEntity
  8
0
  6
Continuous
 62
     7
100
AcDbLine
 10
-68.13552473027474
 20
35.04998853801614
 30
0.0
 11
-64.85000038436239
 21
35.04998853836526
 31
0.0
  0
LINE
  5
168
330
4E
100
AcDbEntity
  8
0
  6
Continuous
 62
     7
100
AcDbLine
 10
-53.2350324201345
 20
35.04998853959948
 30
0.0
 11
-52.37500036283515
 21
35.04998853969087
 31
0.0
  0
LINE
  5
169
330
4E
100
AcDbEntity
  8
0
  6
Continuous
 62
     7
100
AcDbLine
 10
-68.87500038134368
 20
35.04998853793755
 30
0.0
 11
-68.41496808488583
 21
35.04998853798644
 31
0.0
  0
LINE
  5
16A
330
4E
100
AcDbEntity
  8
0
  6
Continuous
 62
     7
100
AcDbLine
 10
-52.37500036320708
 20
38.54998853816069
 30
0.0
 11
-52.37500036283515
 21
35.04998853969087
 31
0.0
  0
LINE
  5
16B
330
4E
100
AcDbEntity
  8
0
  6
Continuous
 62
     7
100
AcDbLine
 10
-64.86728218965509
 20
36.04998853711393
 30
0.0
 11
-64.45000038112212
 21
36.04998853713731
 31
0.0
  0
LINE
  5
16C
330
4E
100
AcDbEntity
  8
0
  6
Continuous
 62
     7
100
AcDbLine
 10
-62.94654132599416
 20
35.04998853856752
 30
0.0
 11
-63.95345944297334
 21
35.04998853846053
 31
0.0
  0
LINE
  5
16D
330
4E
100
AcDbEntity
  8
0
  6
Continuous
 62
     7
100
AcDbLine
 10
-64.50816996072992
 20
35.11983853823216
 30
0.0
 11
-63.95345944298083
 21
35.11983853829109
 31
0.0
  0
LINE
  5
16E
330
4E
100
AcDbEntity
  8
0
  6
Continuous
 62
     7
100
AcDbLine
 10
-64.72020533645504
 20
35.04998853837904
 30
0.0
 11
-63.95345944297334
 21
35.04998853846053
 31
0.0
  0
LINE
  5
16F
330
4E
100
AcDbEntity
  8
0
  6
Continuous
 62
     2
100
AcDbLine
 10
-63.95345944297334
 20
35.04998853846053
 30
0.0
 11
-63.95345944298083
 21
35.11983853829109
 31
0.0
  0
LINE
  5
170
330
4E
100
AcDbEntity
  8
0
  6
Continuous
 62
     2
100
AcDbLine
 10
-64.80843275121424
 20
35.04998853836968
 30
0.0
 11
-64.8084327512323
 21
35.2200358353055
 31
0.0
  0
LINE
  5
171
330
4E
100
AcDbEntity
  8
0
  6
Continuous
 62
     7
100
AcDbLine
 10
-64.65000038125788
 20
37.99220905040376
 30
0.0
 11
-64.65000038109775
 21
37.94998853873136
 31
0.0
  0
LINE
  5
172
330
4E
100
AcDbEntity
  8
0
  6
Continuous
 62
     7
100
AcDbLine
 10
-64.65000038109775
 20
37.94998853873136
 30
0.0
 11
-64.65000038100892
 21
36.24998853712636
 31
0.0
  0
LINE
  5
173
330
4E
100
AcDbEntity
  8
0
  6
Continuous
 62
     7
100
AcDbLine
 10
-64.3500003860417
 20
37.94998853870521
 30
0.0
 11
-64.35000038612021
 21
36.24998853914434
 31
0.0
  0
LINE
  5
174
330
4E
100
AcDbEntity
  8
0
  6
Continuous
 62
     7
100
AcDbLine
 10
-64.3500003860417
 20
37.94998853870521
 30
0.0
 11
-64.50746763832588
 21
37.94998853871907
 31
0.0
  0
LINE
  5
175
330
4E
100
AcDbEntity
  8
0
  6
Continuous
 62
     7
100
AcDbLine
 10
-60.90000038431808
 20
38.04998853811638
 30
0.0
 11
-60.90000038418222
 21
35.44998853835038
 31
0.0
  0
LINE
  5
176
330
4E
100
AcDbEntity
  8
0
  6
Continuous
 62
     7
100
AcDbLine
 10
-62.05000038398842
 20
35.04998853866279
 30
0.0
 11
-62.05000038401009
 21
35.25384039910082
 31
0.0
  0
LINE
  5
177
330
4E
100
AcDbEntity
  8
0
  6
Continuous
 62
     7
100
AcDbLine
 10
-64.40000038581171
 20
36.04998853713961
 30
0.0
 11
-63.8850652986398
 21
36.04998853716926
 31
0.0
  0
LINE
  5
178
330
4E
100
AcDbEntity
  8
0
  6
Continuous
 62
     7
100
AcDbLine
 10
-64.65000038109775
 20
37.94998853873136
 30
0.0
 11
-64.50746763832588
 21
37.94998853871907
 31
0.0
  0
LINE
  5
179
330
4E
100
AcDbEntity
  8
0
  6
Continuous
 62
     7
100
AcDbLine
 10
-64.50746763829184
 20
36.24998853916213
 30
0.0
 11
-64.50746763832588
 21
37.94998853871907
 31
0.0
  0
LINE
  5
17A
330
4E
100
AcDbEntity
  8
0
  6
Continuous
 62
     2
100
AcDbLine
 10
-62.94654132599416
 20
35.04998853856752
 30
0.0
 11
-62.94654132600158
 21
35.11983853824081
 31
0.0
  0
LINE
  5
17B
330
4E
100
AcDbEntity
  8
0
  6
Continuous
 62
     7
100
AcDbLine
 10
-62.94654132599416
 20
35.04998853856752
 30
0.0
 11
-62.17979543251286
 21
35.04998853864899
 31
0.0
  0
LINE
  5
17C
330
4E
100
AcDbEntity
  8
0
  6
Continuous
 62
     2
100
AcDbLine
 10
-62.17979543251286
 20
35.04998853864899
 30
0.0
 11
-62.1797954325253
 21
35.16702404714208
 31
0.0
  0
LINE
  5
17D
330
4E
100
AcDbEntity
  8
0
  6
Continuous
 62
     7
100
AcDbLine
 10
-62.0915680175106
 20
35.04998853865837
 30
0.0
 11
-62.17979543251286
 21
35.04998853864899
 31
0.0
  0
LINE
  5
17E
330
4E
100
AcDbEntity
  8
0
  6
Continuous
 62
     2
100
AcDbLine
 10
-62.0915680175106
 20
35.04998853865837
 30
0.0
 11
-62.09156801752867
 21
35.22003583017649
 31
0.0
  0
LINE
  5
17F
330
4E
100
AcDbEntity
  8
0
  6
Continuous
 62
     7
100
AcDbLine
 10
-63.95345944298083
 20
35.11983853829109
 30
0.0
 11
-62.94654132600158
 21
35.11983853824081
 31
0.0
  0
LINE
  5
180
330
4E
100
AcDbEntity
  8
0
  6
Continuous
 62
     7
100
AcDbLine
 10
-62.05000038398842
 20
35.04998853866279
 30
0.0
 11
-62.0915680175106
 21
35.04998853865837
 31
0.0
  0
LINE
  5
181
330
4E
100
AcDbEntity
  8
0
  6
Continuous
 62
     7
100
AcDbLine
 10
-62.94654132600158
 20
35.11983853824081
 30
0.0
 11
-62.3918308935115
 21
35.11983853829976
 31
0.0
  0
LINE
  5
182
330
4E
100
AcDbEntity
  8
0
  6
Continuous
 62
     2
100
AcDbLine
 10
-64.85773824019896
 20
35.26044720827883
 30
0.0
 11
-63.8850652986398
 21
36.04998853716926
 31
0.0
  0
LINE
  5
183
330
4E
100
AcDbEntity
  8
0
  6
Continuous
 62
     7
100
AcDbLine
 10
-68.41496808525773
 20
38.54998853816069
 30
0.0
 11
-68.41496808488583
 21
35.04998853798644
 31
0.0
  0
LINE
  5
184
330
4E
100
AcDbEntity
  8
0
  6
Continuous
 62
     7
100
AcDbLine
 10
-68.19927437992152
 20
35.04998853800936
 30
0.0
 11
-68.41496808488583
 21
35.04998853798644
 31
0.0
  0
LINE
  5
185
330
4E
100
AcDbEntity
  8
0
  6
Continuous
 62
     7
100
AcDbLine
 10
-68.87500038171558
 20
38.54998853816069
 30
0.0
 11
-68.87500038134368
 21
35.04998853793755
 31
0.0
  0
LINE
  5
186
330
4E
100
AcDbEntity
  8
0
  6
Continuous
 62
     7
100
AcDbLine
 10
-68.19927438029342
 20
38.54998853816069
 30
0.0
 11
-68.19927437992152
 21
35.04998853800936
 31
0.0
  0
LINE
  5
187
330
4E
100
AcDbEntity
  8
0
  6
Continuous
 62
     7
100
AcDbLine
 10
-68.19927437992152
 20
35.04998853800936
 30
0.0
 11
-68.13552473027474
 21
35.04998853801614
 31
0.0
  0
LINE
  5
188
330
4E
100
AcDbEntity
  8
0
  6
Continuous
 62
     7
100
AcDbLine
 10
-64.72020533645504
 20
35.04998853837904
 30
0.0
 11
-64.80843275121424
 21
35.04998853836968
 31
0.0
  0
LINE
  5
189
330
4E
100
AcDbEntity
  8
0
  6
Continuous
 62
     2
100
AcDbLine
 10
-64.72020533645504
 20
35.04998853837904
 30
0.0
 11
-64.72020533646747
 21
35.16702407656705
 31
0.0
  0
LINE
  5
18A
330
4E
100
AcDbEntity
  8
0
  6
Continuous
 62
     7
100
AcDbLine
 10
-64.80843275121424
 20
35.04998853836968
 30
0.0
 11
-64.85000038436239
 21
35.04998853836526
 31
0.0
  0
LINE
  5
18B
330
4E
100
AcDbEntity
  8
0
  6
Continuous
 62
     2
100
AcDbLine
 10
-65.24601572022128
 20
35.74256169078485
 30
0.0
 11
-64.86728218965509
 21
36.04998853711393
 31
0.0
  0
LINE
  5
18C
330
4E
100
AcDbEntity
  8
0
  6
Continuous
 62
     7
100
AcDbLine
 10
-68.13552473064664
 20
38.54998853816069
 30
0.0
 11
-68.13552473027474
 21
35.04998853801614
 31
0.0
  0
LINE
  5
18D
330
4E
100
AcDbEntity
  8
0
  6
Continuous
 62
     7
100
AcDbLine
 10
-64.85000038438405
 20
35.25384039927937
 30
0.0
 11
-64.85000038436239
 21
35.04998853836526
 31
0.0
  0
LINE
  5
18E
330
4E
100
AcDbEntity
  8
0
  6
Continuous
 62
     7
100
AcDbLine
 10
-59.92620427120207
 20
37.4543204934195
 30
0.0
 11
-59.92620427120265
 21
38.04998853812961
 31
0.0
  0
LINE
  5
18F
330
4E
100
AcDbEntity
  8
0
  6
Continuous
 62
     7
100
AcDbLine
 10
-53.45072612548965
 20
38.54998853816069
 30
0.0
 11
-53.51447577512738
 21
38.54998853816069
 31
0.0
  0
LINE
  5
190
330
4E
100
AcDbEntity
  8
0
  6
Continuous
 62
     7
100
AcDbLine
 10
-53.51447577512738
 20
38.54998853816069
 30
0.0
 11
-68.13552473064664
 21
38.54998853816069
 31
0.0
  0
LINE
  5
191
330
4E
100
AcDbEntity
  8
0
  6
Continuous
 62
     7
100
AcDbLine
 10
-53.23503242050643
 20
38.54998853816069
 30
0.0
 11
-53.45072612548965
 21
38.54998853816069
 31
0.0
  0
LINE
  5
192
330
4E
100
AcDbEntity
  8
0
  6
Continuous
 62
     7
100
AcDbLine
 10
-58.3000003816168
 20
37.09998853619818
 30
0.0
 11
-58.30000038164152
 21
38.04998853812742
 31
0.0
  0
LINE
  5
193
330
4E
100
AcDbEntity
  8
0
  6
Continuous
 62
     7
100
AcDbLine
 10
-58.40000038263017
 20
36.99998853518501
 30
0.0
 11
-58.3000003816168
 21
37.09998853619818
 31
0.0
  0
LINE
  5
194
330
4E
100
AcDbEntity
  8
0
  6
Continuous
 62
     7
100
AcDbLine
 10
-59.27379649192153
 20
38.04998853813071
 30
0.0
 11
-59.27379649191924
 21
37.4543204899902
 31
0.0
  0
LINE
  5
195
330
4E
100
AcDbEntity
  8
0
  6
Continuous
 62
     7
100
AcDbLine
 10
-68.19927438029342
 20
38.54998853816069
 30
0.0
 11
-68.41496808525773
 21
38.54998853816069
 31
0.0
  0
LINE
  5
196
330
4E
100
AcDbEntity
  8
0
  6
Continuous
 62
     7
100
AcDbLine
 10
-68.13552473064664
 20
38.54998853816069
 30
0.0
 11
-68.19927438029342
 21
38.54998853816069
 31
0.0
  0
LINE
  5
197
330
4E
100
AcDbEntity
  8
0
  6
Continuous
 62
     7
100
AcDbLine
 10
-68.41496808525773
 20
38.54998853816069
 30
0.0
 11
-68.87500038171558
 21
38.54998853816069
 31
0.0
  0
LINE
  5
198
330
4E
100
AcDbEntity
  8
0
  6
Continuous
 62
     7
100
AcDbLine
 10
-63.15000038447107
 20
38.04998853812677
 30
0.0
 11
-64.55000038484499
 21
38.04998853812553
 31
0.0
  0
LINE
  5
199
330
4E
100
AcDbEntity
  8
0
  6
Continuous
 62
     7
100
AcDbLine
 10
-63.15000038447107
 20
38.04998853812677
 30
0.0
 11
-62.51754485218226
 21
38.04998853812732
 31
0.0
  0
LINE
  5
19A
330
4E
100
AcDbEntity
  8
0
  6
Continuous
 62
     2
100
AcDbLine
 10
-63.15000038447107
 20
38.04998853812677
 30
0.0
 11
-63.15000038388558
 21
38.24998853811367
 31
0.0
  0
LINE
  5
19B
330
4E
100
AcDbEntity
  8
0
  6
Continuous
 62
     7
100
AcDbLine
 10
-63.15000038388558
 20
38.24998853811367
 30
0.0
 11
-63.75000038320326
 21
38.24998853811349
 31
0.0
  0
LINE
  5
19C
330
4E
100
AcDbEntity
  8
0
  6
Continuous
 62
     7
100
AcDbLine
 10
-58.51961561941138
 20
38.04998853813085
 30
0.0
 11
-58.71961561940543
 21
38.04998853812229
 31
0.0
  0
LINE
  5
19D
330
4E
100
AcDbEntity
  8
0
  6
Continuous
 62
     7
100
AcDbLine
 10
-58.71961561940543
 20
38.04998853812229
 30
0.0
 11
-59.27379649192153
 21
38.04998853813071
 31
0.0
  0
LINE
  5
19E
330
4E
100
AcDbEntity
  8
0
  6
Continuous
 62
     7
100
AcDbLine
 10
-58.30000038164152
 20
38.04998853812742
 30
0.0
 11
-58.51961561941138
 21
38.04998853813085
 31
0.0
  0
LINE
  5
19F
330
4E
100
AcDbEntity
  8
0
  6
Continuous
 62
     7
100
AcDbLine
 10
-52.37500036320708
 20
38.54998853816069
 30
0.0
 11
-53.23503242050643
 21
38.54998853816069
 31
0.0
  0
LINE
  5
1A0
330
4E
100
AcDbEntity
  8
0
  6
Continuous
 62
     7
100
AcDbLine
 10
-59.92620427120265
 20
38.04998853812961
 30
0.0
 11
-60.90000038431808
 21
38.04998853811638
 31
0.0
  0
LINE
  5
1A1
330
4E
100
AcDbEntity
  8
0
  6
Continuous
 62
     7
100
AcDbLine
 10
-59.27379649192153
 20
38.04998853813071
 30
0.0
 11
-59.92620427120265
 21
38.04998853812961
 31
0.0
  0
ARC
  5
1A2
330
4E
100
AcDbEntity
  8
0
  6
Continuous
 62
     7
100
AcDbCircle
 10
-62.45000038064572
 20
36.54998853632249
 30
0.0
 40
0.4999999990717043
100
AcDbArc
 50
269.9999999036385
 51
0.00000010938584
  0
ARC
  5
1A3
330
4E
100
AcDbEntity
  8
0
  6
Continuous
 62
     7
100
AcDbCircle
 10
-64.40000038497953
 20
36.24998853794372
 30
0.0
 40
0.2000000008041241
100
AcDbArc
 50
179.9999996461391
 51
269.9999997615998
  0
ARC
  5
1A4
330
4E
100
AcDbEntity
  8
0
  6
Continuous
 62
     7
100
AcDbCircle
 10
-64.45000038107118
 20
36.24998853707506
 30
0.0
 40
0.1999999999377451
100
AcDbArc
 50
179.9999999853033
 51
269.9999999854051
  0
ARC
  5
1A5
330
4E
100
AcDbEntity
  8
0
  6
Continuous
 62
     7
100
AcDbCircle
 10
-59.60000038526287
 20
36.74998853823617
 30
0.0
 40
0.7762038896412498
100
AcDbArc
 50
294.8507144079811
 51
65.14928559244503
  0
ARC
  5
1A6
330
4E
100
AcDbEntity
  8
0
  6
Continuous
 62
     7
100
AcDbCircle
 10
-64.50816995271153
 20
35.61983860127164
 30
0.0
 40
0.499999999849707
100
AcDbArc
 50
230.8163604500765
 51
233.09244994441
  0
ARC
  5
1A7
330
4E
100
AcDbEntity
  8
0
  6
Continuous
 62
     7
100
AcDbCircle
 10
-63.75000037547672
 20
36.54998853125599
 30
0.0
 40
1.699999999888999
100
AcDbArc
 50
229.6797845331093
 51
230.8163612515432
  0
ARC
  5
1A8
330
4E
100
AcDbEntity
  8
0
  6
Continuous
 62
     7
100
AcDbCircle
 10
-59.60000038526287
 20
36.74998853823617
 30
0.0
 40
0.7762038896412555
100
AcDbArc
 50
114.8507138052216
 51
245.1492861951928
  0
ARC
  5
1A9
330
4E
100
AcDbEntity
  8
0
  6
Continuous
 62
     7
100
AcDbCircle
 10
-56.72500045870086
 20
36.74998853843793
 30
0.0
 40
1.050000000000011
100
AcDbArc
 50
296.314932121424
 51
63.68506787857569
  0
ARC
  5
1AA
330
4E
100
AcDbEntity
  8
0
  6
Continuous
 62
     7
100
AcDbCircle
 10
-56.72500045870086
 20
36.74998853843793
 30
0.0
 40
1.049999999999998
100
AcDbArc
 50
83.0582522722945
 51
88.43973655669674
  0
ARC
  5
1AB
330
4E
100
AcDbEntity
  8
0
  6
Continuous
 62
     7
100
AcDbCircle
 10
-56.72500045870086
 20
36.74998853843793
 30
0.0
 40
1.049999999999998
100
AcDbArc
 50
63.68506787857569
 51
83.0582522722945
  0
ARC
  5
1AC
330
4E
100
AcDbEntity
  8
0
  6
Continuous
 62
     7
100
AcDbCircle
 10
-56.72500045870086
 20
36.74998853843793
 30
0.0
 40
1.050000000000002
100
AcDbArc
 50
214.8499046655439
 51
296.314932121424
  0
ARC
  5
1AD
330
4E
100
AcDbEntity
  8
0
  6
Continuous
 62
     7
100
AcDbCircle
 10
-56.72500045870086
 20
36.74998853843793
 30
0.0
 40
1.049999999999982
100
AcDbArc
 50
88.43973655669674
 51
214.8499046655439
  0
ARC
  5
1AE
330
4E
100
AcDbEntity
  8
0
  6
Continuous
 62
     7
100
AcDbCircle
 10
-62.51754485218147
 20
37.44998853812733
 30
0.0
 40
0.6000000000000008
100
AcDbArc
 50
57.79494820973547
 51
90.00000000007532
  0
ARC
  5
1AF
330
4E
100
AcDbEntity
  8
0
  6
Continuous
 62
     7
100
AcDbCircle
 10
-64.50816980505064
 20
35.61983857294889
 30
0.0
 40
0.5000000347167566
100
AcDbArc
 50
244.9081229874911
 51
269.9999821604705
  0
ARC
  5
1B0
330
4E
100
AcDbEntity
  8
0
  6
Continuous
 62
     7
100
AcDbCircle
 10
-63.15000038452521
 20
36.54998853834523
 30
0.0
 40
1.700000000000005
100
AcDbArc
 50
309.1836331091537
 51
310.3202150927411
  0
ARC
  5
1B1
330
4E
100
AcDbEntity
  8
0
  6
Continuous
 62
     7
100
AcDbCircle
 10
-62.39183089320399
 20
35.61983853846192
 30
0.0
 40
0.5000000000611728
100
AcDbArc
 50
306.9075610944168
 51
309.183633068051
  0
ARC
  5
1B2
330
4E
100
AcDbEntity
  8
0
  6
Continuous
 62
     7
100
AcDbCircle
 10
-62.39183096496522
 20
35.61983848561195
 30
0.0
 40
0.50000000089653
100
AcDbArc
 50
305.8199283317613
 51
306.9075713066379
  0
ARC
  5
1B3
330
4E
100
AcDbEntity
  8
0
  6
Continuous
 62
     7
100
AcDbCircle
 10
-62.39183088981434
 20
35.61983853829732
 30
0.0
 40
0.4999999999975628
100
AcDbArc
 50
269.9999995763367
 51
271.7628049548211
  0
ARC
  5
1B4
330
4E
100
AcDbEntity
  8
0
  6
Continuous
 62
     7
100
AcDbCircle
 10
-62.39183088571791
 20
35.61983854280884
 30
0.0
 40
0.5000000008965398
100
AcDbArc
 50
295.0918689293489
 51
305.8199171324536
  0
ARC
  5
1B5
330
4E
100
AcDbEntity
  8
0
  6
Continuous
 62
     7
100
AcDbCircle
 10
-62.39183089348651
 20
35.61983853824081
 30
0.0
 40
0.5000000000540425
100
AcDbArc
 50
271.7628053756209
 51
295.0918699575373
  0
ARC
  5
1B6
330
4E
100
AcDbEntity
  8
0
  6
Continuous
 62
     7
100
AcDbCircle
 10
-63.15000038448271
 20
36.54998853822944
 30
0.0
 40
1.699999999884224
100
AcDbArc
 50
310.3202150941742
 51
89.99999997987484
  0
ARC
  5
1B7
330
4E
100
AcDbEntity
  8
0
  6
Continuous
 62
     7
100
AcDbCircle
 10
-62.55000038192858
 20
37.47194298205467
 30
0.0
 40
0.6000000002519599
100
AcDbArc
 50
0.00000009970691
 51
54.0525192935483
  0
ARC
  5
1B8
330
4E
100
AcDbEntity
  8
0
  6
Continuous
 62
     7
100
AcDbCircle
 10
-63.75000041228699
 20
36.54998856249571
 30
0.0
 40
1.699999999889009
100
AcDbArc
 50
229.3368639693401
 51
229.6797861602946
  0
ARC
  5
1B9
330
4E
100
AcDbEntity
  8
0
  6
Continuous
 62
     7
100
AcDbCircle
 10
-63.75000038420096
 20
36.54998853856179
 30
0.0
 40
1.700000000035002
100
AcDbArc
 50
208.3565483390272
 51
229.3368627256727
  0
ARC
  5
1BA
330
4E
100
AcDbEntity
  8
0
  6
Continuous
 62
     7
100
AcDbCircle
 10
-64.50816996081305
 20
35.61983860761164
 30
0.0
 40
0.5000000000540306
100
AcDbArc
 50
233.092451123025
 51
244.9081408365484
  0
ARC
  5
1BB
330
4E
100
AcDbEntity
  8
0
  6
Continuous
 62
     7
100
AcDbCircle
 10
-63.75000038320039
 20
36.54998853892055
 30
0.0
 40
1.700000000072444
100
AcDbArc
 50
118.0724869973701
 51
121.9657186721021
  0
ARC
  5
1BC
330
4E
100
AcDbEntity
  8
0
  6
Continuous
 62
     7
100
AcDbCircle
 10
-63.75000038489155
 20
36.54998853820929
 30
0.0
 40
1.6999999999042
100
AcDbArc
 50
89.99999994309881
 51
118.0724869357969
  0
ARC
  5
1BD
330
4E
100
AcDbEntity
  8
0
  6
Continuous
 62
     7
100
AcDbCircle
 10
-63.75000038408638
 20
36.54998853838946
 30
0.0
 40
1.700000000053972
100
AcDbArc
 50
121.9657186372929
 51
208.3565483320816
  0
SPLINE
  5
1BE
330
4E
100
AcDbEntity
  8
0
  6
Continuous
 62
     2
100
AcDbSpline
210
0.0
220
0.0
230
1.0
 70
     8
 71
     3
 72
    15
 73
    11
 74
     9
 42
0.000000001
 43
0.0000000001
 44
0.00000001
 40
0.0
 40
0.0
 40
0.0
 40
0.0
 40
0.1026710009170607
 40
0.2312662104799959
 40
0.3003828551954993
 40
0.3473211317424967
 40
0.3982818550683462
 40
0.4638387585467824
 40
0.7438634707078051
 40
0.94641793224093
 40
0.94641793224093
 40
0.94641793224093
 40
0.94641793224093
 10
-62.09921109455854
 20
35.21440832844588
 30
0.0
 10
-62.11676144107325
 20
35.24378940634016
 30
0.0
 10
-62.15629356507648
 20
35.30997021806024
 30
0.0
 10
-62.20708903109595
 20
35.39625789012275
 30
0.0
 10
-62.24803687190604
 20
35.46678287303244
 30
0.0
 10
-62.27576934609331
 20
35.51505520712234
 30
0.0
 10
-62.30272153798927
 20
35.5624103141346
 30
0.0
 10
-62.36723200144331
 20
35.67775385096943
 30
0.0
 10
-62.45557071128783
 20
35.8381086044252
 30
0.0
 10
-62.515889664111
 20
35.98734780499532
 30
0.0
 10
-62.5412075200868
 20
36.04998844265656
 30
0.0
 11
-62.09921109455854
 21
35.21440832844588
 31
0.0
 11
-62.15177847461853
 21
35.30260131684982
 31
0.0
 11
-62.21700234588491
 21
35.41342809688355
 31
0.0
 11
-62.25169434667016
 21
35.47320748673181
 31
0.0
 11
-62.27507537392025
 21
35.5139079681402
 31
0.0
 11
-62.30026558168619
 21
35.55820750348737
 31
0.0
 11
-62.33232295948778
 21
35.61539170371438
 31
0.0
 11
-62.46217889106113
 21
35.86348700591598
 31
0.0
 11
-62.5412075200868
 21
36.04998844265656
 31
0.0
  0
SPLINE
  5
1BF
330
4E
100
AcDbEntity
  8
0
  6
Continuous
 62
     7
100
AcDbSpline
210
0.0
220
0.0
230
1.0
 70
    24
 71
     3
 72
    14
 73
    10
 74
     8
 42
0.000000001
 43
0.0000000001
 44
0.00000001
 40
0.0
 40
0.0
 40
0.0
 40
0.0
 40
0.0559777406883626
 40
0.1116016929518651
 40
0.1799394042899394
 40
0.3155569088101657
 40
0.511089798220894
 40
0.7069106383873773
 40
0.9219544458217399
 40
0.9219544458217399
 40
0.9219544458217399
 40
0.9219544458217399
 10
-61.950000381574
 20
36.54998853727706
 30
0.0
 10
-61.95000038157504
 20
36.56864778417318
 30
0.0
 10
-61.95000038157728
 20
36.60584834849046
 30
0.0
 10
-61.95000038158138
 20
36.66582814992045
 30
0.0
 10
-61.95000038158805
 20
36.75235453929439
 30
0.0
 10
-61.9500003816
 20
36.88551724105072
 30
0.0
 10
-61.95000038161934
 20
37.06117431908322
 30
0.0
 10
-61.95000038164549
 20
37.26330683142039
 30
0.0
 10
-61.95000038166561
 20
37.40026171395402
 30
0.0
 10
-61.95000038167662
 20
37.4719429830988
 30
0.0
 11
-61.950000381574
 21
36.54998853727706
 31
0.0
 11
-61.95000038157727
 21
36.60596627796541
 31
0.0
 11
-61.95000038158099
 21
36.66159023022891
 31
0.0
 11
-61.95000038158581
 21
36.72992794156698
 31
0.0
 11
-61.95000038159758
 21
36.8655454460872
 31
0.0
 11
-61.95000038161884
 21
37.06107833549793
 31
0.0
 11
-61.95000038164444
 21
37.25689917566442
 31
0.0
 11
-61.95000038167662
 21
37.4719429830988
 31
0.0
  0
SPLINE
  5
1C0
330
4E
100
AcDbEntity
  8
0
  6
Continuous
 62
     2
100
AcDbSpline
210
0.0
220
0.0
230
1.0
 70
     8
 71
     3
 72
    15
 73
    11
 74
     9
 42
0.000000001
 43
0.0000000001
 44
0.00000001
 40
0.0
 40
0.0
 40
0.0
 40
0.0
 40
0.1685738380288019
 40
0.2818352219442716
 40
0.445049169590938
 40
0.5641983496903283
 40
0.7235567191240866
 40
0.8474185702188343
 40
1.010989374562457
 40
1.126267039987137
 40
1.126267039987137
 40
1.126267039987137
 40
1.126267039987137
 10
-62.37644994139923
 20
35.12007516786746
 30
0.0
 10
-62.40688341247093
 20
35.16731147396905
 30
0.0
 10
-62.45776451206132
 20
35.24628491463884
 30
0.0
 10
-62.53841993669811
 20
35.37079320246455
 30
0.0
 10
-62.61038936628469
 20
35.48129966822237
 30
0.0
 10
-62.69128948650938
 20
35.60432122398619
 30
0.0
 10
-62.76557346226406
 20
35.71600858885823
 30
0.0
 10
-62.84974714286721
 20
35.83883913692843
 30
0.0
 10
-62.92670956229497
 20
35.9489708167809
 30
0.0
 10
-62.98618569824017
 20
36.02044194199107
 30
0.0
 10
-63.01077350439209
 20
36.04998853721881
 30
0.0
 11
-62.37644994139923
 21
35.12007516786746
 31
0.0
 11
-62.46782024397678
 21
35.26173887647423
 31
0.0
 11
-62.52939893491219
 21
35.35679783665285
 31
0.0
 11
-62.6185217554191
 21
35.49353084496375
 31
0.0
 11
-62.68400016901346
 21
35.59307532980121
 31
0.0
 11
-62.77246561893234
 21
35.72562326093013
 31
0.0
 11
-62.84241105421017
 21
35.82784553928671
 31
0.0
 11
-62.938067153208
 21
35.96053057593402
 31
0.0
 11
-63.01077350439209
 21
36.04998853721881
 31
0.0
  0
ENDBLK
  5
50
330
4E
100
AcDbEntity
  8
0
100
AcDbBlockEnd
  0
BLOCK
  5
53
330
51
100
AcDbEntity
  8
0
100
AcDbBlockBegin
  2
Drfsicht1
 70
     0
 10
-60.62500017879401
 20
36.79998857605374
 30
0.0
  3
Drfsicht1
  1

  0
INSERT
  5
52
330
51
100
AcDbEntity
  8
0
100
AcDbBlockReference
  2
PP_H_1_5_S_1_R-select__2
 10
-68.87500038171558
 20
35.04998853793755
 30
0.0
  0
MTEXT
  5
1C1
330
51
100
AcDbEntity
  8
1
 62
     6
100
AcDbMText
 10
-67.33750037227536
 20
29.04998853793755
 30
0.0
 40
2.5
 41
0.0
 71
     2
 72
     1
  1
 
  7
CONVERTER_11
 73
     1
 44
1.32052821128451
  0
DIMENSION
  5
1CE
330
51
100
AcDbEntity
  8
1
100
AcDbDimension
  2
*D17
 10
-79.62500038171555
 20
38.54998853816069
 30
0.0
 11
-81.33750038171556
 21
45.835144452078
 31
0.0
 70
    32
  1
<>
 71
     5
 42
-1.0
 53
90.0
  3
ME10_DIM_10
100
AcDbAlignedDimension
 13
-68.87500038134368
 23
35.04998853793755
 33
0.0
 14
-68.87500038171558
 24
38.54998853816069
 34
0.0
 50
90.0
100
AcDbRotatedDimension
  0
ENDBLK
  5
54
330
51
100
AcDbEntity
  8
0
100
AcDbBlockEnd
  0
BLOCK
  5
56
330
55
100
AcDbEntity
  8
0
100
AcDbBlockBegin
  2
PP_H_1_5_S_1_R-select__3
 70
     0
 10
-32.04519082841669
 20
54.34997706995397
 30
0.0
  3
PP_H_1_5_S_1_R-select__3
  1

  0
LINE
  5
1CF
330
55
100
AcDbEntity
  8
0
  6
Continuous
 62
     7
100
AcDbLine
 10
-17.24519080990756
 20
76.55002298275187
 30
0.0
 11
-17.24519080990617
 21
70.22502298274676
 31
0.0
  0
LINE
  5
1D0
330
55
100
AcDbEntity
  8
0
  6
Continuous
 62
     7
100
AcDbLine
 10
-16.70967480139972
 20
84.76251803985858
 30
0.0
 11
-16.74286075239166
 21
85.03279592127876
 31
0.0
  0
LINE
  5
1D1
330
55
100
AcDbEntity
  8
0
  6
Continuous
 62
     7
100
AcDbLine
 10
-30.48070707606459
 20
84.76251803993063
 30
0.0
 11
-30.96946506613413
 21
85.13082360286728
 31
0.0
  0
LINE
  5
1D2
330
55
100
AcDbEntity
  8
0
  6
Continuous
 62
     7
100
AcDbLine
 10
-30.96946506613413
 20
85.13082360286728
 30
0.0
 11
-30.90571541649641
 21
85.65002283424161
 31
0.0
  0
LINE
  5
1D3
330
55
100
AcDbEntity
  8
0
  6
Continuous
 62
     7
100
AcDbLine
 10
-29.38549674344912
 20
84.90239572398511
 30
0.0
 11
-30.44752112507278
 21
85.03279592135084
 31
0.0
  0
LINE
  5
1D4
330
55
100
AcDbEntity
  8
0
  6
Continuous
 62
     7
100
AcDbLine
 10
-30.44752112507278
 20
85.03279592135084
 30
0.0
 11
-30.48070707606459
 21
84.76251803993063
 31
0.0
  0
LINE
  5
1D5
330
55
100
AcDbEntity
  8
0
  6
Continuous
 62
     7
100
AcDbLine
 10
-30.90571541649641
 20
85.65002283424161
 30
0.0
 11
-16.28466646097714
 21
85.65002283424161
 31
0.0
  0
LINE
  5
1D6
330
55
100
AcDbEntity
  8
0
  6
Continuous
 62
     7
100
AcDbLine
 10
-16.17519080990564
 20
76.55002298275178
 30
0.0
 11
-17.24519080990756
 21
76.55002298275187
 31
0.0
  0
LINE
  5
1D7
330
55
100
AcDbEntity
  8
0
  6
Continuous
 62
     7
100
AcDbLine
 10
-17.03406153724179
 20
78.624541314747
 30
0.0
 11
-15.97203715535144
 21
78.75494151214562
 31
0.0
  0
LINE
  5
1D8
330
55
100
AcDbEntity
  8
0
  6
Continuous
 62
     7
100
AcDbLine
 10
-16.74286075239166
 20
85.03279592127876
 30
0.0
 11
-17.80488513401528
 21
84.90239572391255
 31
0.0
  0
LINE
  5
1D9
330
55
100
AcDbEntity
  8
0
  6
Continuous
 62
     7
100
AcDbLine
 10
-30.15632034021989
 20
78.6245413148192
 30
0.0
 11
-29.38549674344912
 21
84.90239572398511
 31
0.0
  0
LINE
  5
1DA
330
55
100
AcDbEntity
  8
0
  6
Continuous
 62
     7
100
AcDbLine
 10
-16.17519080990722
 20
70.22502298274634
 30
0.0
 11
-16.1751908099079
 21
70.49733060388701
 31
0.0
  0
LINE
  5
1DB
330
55
100
AcDbEntity
  8
0
  6
Continuous
 62
     7
100
AcDbLine
 10
-16.22091681133036
 20
85.13082360279543
 30
0.0
 11
-16.70967480139972
 21
84.76251803985858
 31
0.0
  0
LINE
  5
1DC
330
55
100
AcDbEntity
  8
0
  6
Continuous
 62
     7
100
AcDbLine
 10
-16.1751908099079
 20
70.49733060388701
 30
0.0
 11
-15.54519080990819
 21
70.13359993429893
 31
0.0
  0
LINE
  5
1DD
330
55
100
AcDbEntity
  8
0
  6
Continuous
 62
     7
100
AcDbLine
 10
-32.04519082841669
 20
71.83335637673167
 30
0.0
 11
-32.04519082841669
 21
78.6601574441849
 31
0.0
  0
LINE
  5
1DE
330
55
100
AcDbEntity
  8
0
  6
Continuous
 62
     7
100
AcDbLine
 10
-16.17519080994335
 20
76.27771536159582
 30
0.0
 11
-16.17519080990564
 21
76.55002298275178
 31
0.0
  0
LINE
  5
1DF
330
55
100
AcDbEntity
  8
0
  6
Continuous
 62
     7
100
AcDbLine
 10
-15.54519080956227
 20
76.64144603140491
 30
0.0
 11
-16.17519080994335
 21
76.27771536159582
 31
0.0
  0
LINE
  5
1E0
330
55
100
AcDbEntity
  8
0
  6
Continuous
 62
     7
100
AcDbLine
 10
-31.21834472211026
 20
78.75494151221733
 30
0.0
 11
-30.15632034021989
 21
78.6245413148192
 31
0.0
  0
LINE
  5
1E1
330
55
100
AcDbEntity
  8
0
  6
Continuous
 62
     7
100
AcDbLine
 10
-31.18515877111734
 20
79.02521939363993
 30
0.0
 11
-31.21834472211026
 21
78.75494151221733
 31
0.0
  0
LINE
  5
1E2
330
55
100
AcDbEntity
  8
0
  6
Continuous
 62
     7
100
AcDbLine
 10
-32.04519082841669
 20
78.6601574441849
 30
0.0
 11
-31.18515877111734
 21
79.02521939363993
 31
0.0
  0
LINE
  5
1E3
330
55
100
AcDbEntity
  8
0
  6
Continuous
 62
     7
100
AcDbLine
 10
-15.54519080990819
 20
70.13359993429893
 30
0.0
 11
-15.54519080990819
 21
68.49973779920973
 31
0.0
  0
LINE
  5
1E4
330
55
100
AcDbEntity
  8
0
  6
Continuous
 62
     7
100
AcDbLine
 10
-15.54519080990819
 20
68.49973779920973
 30
0.0
 11
-16.30865943278382
 21
66.15002298274192
 31
0.0
  0
LINE
  5
1E5
330
55
100
AcDbEntity
  8
0
  6
Continuous
 62
     7
100
AcDbLine
 10
-19.61252045161518
 20
65.77359700202271
 30
0.0
 11
-19.3951908103177
 21
66.15002298274106
 31
0.0
  0
LINE
  5
1E6
330
55
100
AcDbEntity
  8
0
  6
Continuous
 62
     7
100
AcDbLine
 10
-15.54519080956227
 20
78.82994726910863
 30
0.0
 11
-15.54519080956227
 21
76.64144603140491
 31
0.0
  0
LINE
  5
1E7
330
55
100
AcDbEntity
  8
0
  6
Continuous
 62
     7
100
AcDbLine
 10
-16.00522310636605
 20
79.0252193937439
 30
0.0
 11
-15.54519080956227
 21
78.82994726910863
 31
0.0
  0
LINE
  5
1E8
330
55
100
AcDbEntity
  8
0
  6
Continuous
 62
     7
100
AcDbLine
 10
-15.97203715535144
 20
78.75494151214562
 30
0.0
 11
-16.00522310636605
 21
79.0252193937439
 31
0.0
  0
LINE
  5
1E9
330
55
100
AcDbEntity
  8
0
  6
Continuous
 62
     7
100
AcDbLine
 10
-16.28466646097714
 20
85.65002283424161
 30
0.0
 11
-16.22091681133036
 21
85.13082360279543
 31
0.0
  0
LINE
  5
1EA
330
55
100
AcDbEntity
  8
0
  6
Continuous
 62
     7
100
AcDbLine
 10
-20.93257035432513
 20
54.34997706995489
 30
0.0
 11
-20.44519080997604
 21
55.84997706995497
 31
0.0
  0
LINE
  5
1EB
330
55
100
AcDbEntity
  8
0
  6
Continuous
 62
     7
100
AcDbLine
 10
-26.64519081004529
 20
55.79393760375447
 30
0.0
 11
-26.16387063211149
 21
54.34997706995397
 31
0.0
  0
LINE
  5
1EC
330
55
100
AcDbEntity
  8
0
  6
Continuous
 62
     7
100
AcDbLine
 10
-26.16387063211149
 20
54.34997706995397
 30
0.0
 11
-20.93257035432513
 21
54.34997706995489
 31
0.0
  0
LINE
  5
1ED
330
55
100
AcDbEntity
  8
0
  6
Continuous
 62
     7
100
AcDbLine
 10
-19.74519081030309
 20
58.05002298275613
 30
0.0
 11
-20.44519081009599
 21
58.19002298275265
 31
0.0
  0
LINE
  5
1EE
330
55
100
AcDbEntity
  8
0
  6
Continuous
 62
     7
100
AcDbLine
 10
-20.4451908100958
 20
57.05002298275693
 30
0.0
 11
-19.7451908103029
 21
57.05002298275704
 31
0.0
  0
LINE
  5
1EF
330
55
100
AcDbEntity
  8
0
  6
Continuous
 62
     7
100
AcDbLine
 10
-19.7451908103029
 20
57.05002298275704
 30
0.0
 11
-19.74519081030309
 21
58.05002298275613
 31
0.0
  0
LINE
  5
1F0
330
55
100
AcDbEntity
  8
0
  6
Continuous
 62
     7
100
AcDbLine
 10
-19.74519081030309
 20
58.05002298275613
 30
0.0
 11
-19.74519081030396
 21
63.06504591147069
 31
0.0
  0
LINE
  5
1F1
330
55
100
AcDbEntity
  8
0
  6
Continuous
 62
     7
100
AcDbLine
 10
-17.3451908103075
 20
65.15002298275891
 30
0.0
 11
-17.34519081030379
 21
57.05002298275747
 31
0.0
  0
LINE
  5
1F2
330
55
100
AcDbEntity
  8
0
  6
Continuous
 62
     7
100
AcDbLine
 10
-17.34519081030379
 20
57.05002298275747
 30
0.0
 11
-19.7451908103029
 21
57.05002298275704
 31
0.0
  0
LINE
  5
1F3
330
55
100
AcDbEntity
  8
0
  6
Continuous
 62
     7
100
AcDbLine
 10
-20.4451908099769
 20
60.75002298275234
 30
0.0
 11
-20.39519080997681
 21
61.03358707373374
 31
0.0
  0
LINE
  5
1F4
330
55
100
AcDbEntity
  8
0
  6
Continuous
 62
     7
100
AcDbLine
 10
-26.64519081004669
 20
60.75002298320703
 30
0.0
 11
-26.64519081004529
 21
55.79393760375447
 31
0.0
  0
LINE
  5
1F5
330
55
100
AcDbEntity
  8
0
  6
Continuous
 62
     7
100
AcDbLine
 10
-20.4451908100958
 20
57.05002298275693
 30
0.0
 11
-20.44519081009599
 21
58.19002298275265
 31
0.0
  0
LINE
  5
1F6
330
55
100
AcDbEntity
  8
0
  6
Continuous
 62
     7
100
AcDbLine
 10
-20.44519080997604
 20
55.84997706995497
 30
0.0
 11
-20.4451908100958
 21
57.05002298275693
 31
0.0
  0
LINE
  5
1F7
330
55
100
AcDbEntity
  8
0
  6
Continuous
 62
     7
100
AcDbLine
 10
-20.44519081009599
 20
58.19002298275265
 30
0.0
 11
-20.4451908099769
 21
60.75002298275234
 31
0.0
  0
LINE
  5
1F8
330
55
100
AcDbEntity
  8
0
  6
Continuous
 62
     7
100
AcDbLine
 10
-26.69519080998099
 20
61.03358707380878
 30
0.0
 11
-26.64519081004669
 21
60.75002298320703
 31
0.0
  0
LINE
  5
1F9
330
55
100
AcDbEntity
  8
0
  6
Continuous
 62
     7
100
AcDbLine
 10
-20.39519081009636
 20
63.34380520092978
 30
0.0
 11
-20.39519080991305
 21
65.24996498683493
 31
0.0
  0
LINE
  5
1FA
330
55
100
AcDbEntity
  8
0
  6
Continuous
 62
     7
100
AcDbLine
 10
-20.39519080997681
 20
61.03358707373374
 30
0.0
 11
-20.39519081009636
 21
63.34380520092978
 31
0.0
  0
LINE
  5
1FB
330
55
100
AcDbEntity
  8
0
  6
Continuous
 62
     7
100
AcDbLine
 10
-26.6951908100713
 20
63.34380519808801
 30
0.0
 11
-26.69519080998099
 21
61.03358707380878
 31
0.0
  0
LINE
  5
1FC
330
55
100
AcDbEntity
  8
0
  6
Continuous
 62
     7
100
AcDbLine
 10
-26.69519080991722
 20
65.24996498683493
 30
0.0
 11
-26.6951908100713
 21
63.34380519808801
 31
0.0
  0
LINE
  5
1FD
330
55
100
AcDbEntity
  8
0
  6
Continuous
 62
     7
100
AcDbLine
 10
-19.24519081030148
 20
64.93107131516061
 30
0.0
 11
-19.24519081030158
 21
65.15002298275891
 31
0.0
  0
LINE
  5
1FE
330
55
100
AcDbEntity
  8
0
  6
Continuous
 62
     7
100
AcDbLine
 10
-19.2451908103018
 20
65.65002298275891
 30
0.0
 11
-19.24519081030158
 21
65.15002298275891
 31
0.0
  0
LINE
  5
1FF
330
55
100
AcDbEntity
  8
0
  6
Continuous
 62
     7
100
AcDbLine
 10
-27.09519081085306
 20
65.18111505007184
 30
0.0
 11
-27.09519081084997
 21
64.83662552314038
 31
0.0
  0
LINE
  5
200
330
55
100
AcDbEntity
  8
0
  6
Continuous
 62
     7
100
AcDbLine
 10
-19.99519081015804
 20
64.836625523695
 30
0.0
 11
-19.99519081015524
 21
65.18111505057553
 31
0.0
  0
LINE
  5
201
330
55
100
AcDbEntity
  8
0
  6
Continuous
 62
     2
100
AcDbLine
 10
-19.2451908103018
 20
65.65002298275891
 30
0.0
 11
-17.84519081030751
 21
65.65002298275738
 31
0.0
  0
LINE
  5
202
330
55
100
AcDbEntity
  8
0
  6
Continuous
 62
     7
100
AcDbLine
 10
-17.84519081030751
 20
65.65002298275738
 30
0.0
 11
-17.84519081030182
 21
66.15002298274149
 31
0.0
  0
LINE
  5
203
330
55
100
AcDbEntity
  8
0
  6
Continuous
 62
     7
100
AcDbLine
 10
-19.24519081030202
 20
66.15002298274109
 30
0.0
 11
-19.2451908103018
 21
65.65002298275891
 31
0.0
  0
LINE
  5
204
330
55
100
AcDbEntity
  8
0
  6
Continuous
 62
     7
100
AcDbLine
 10
-17.84519081030182
 20
66.15002298274149
 30
0.0
 11
-19.24519081030202
 21
66.15002298274109
 31
0.0
  0
LINE
  5
205
330
55
100
AcDbEntity
  8
0
  6
Continuous
 62
     7
100
AcDbLine
 10
-19.3951908103177
 20
66.15002298274106
 30
0.0
 11
-20.39519080991305
 21
66.15002298274078
 31
0.0
  0
LINE
  5
206
330
55
100
AcDbEntity
  8
0
  6
Continuous
 62
     7
100
AcDbLine
 10
-19.24519081030202
 20
66.15002298274109
 30
0.0
 11
-19.3951908103177
 21
66.15002298274106
 31
0.0
  0
LINE
  5
207
330
55
100
AcDbEntity
  8
0
  6
Continuous
 62
     7
100
AcDbLine
 10
-16.30865943278382
 20
66.15002298274192
 30
0.0
 11
-17.84519081030182
 21
66.15002298274149
 31
0.0
  0
LINE
  5
208
330
55
100
AcDbEntity
  8
0
  6
Continuous
 62
     7
100
AcDbLine
 10
-20.39519080991305
 20
65.24996498683493
 30
0.0
 11
-26.69519080991722
 21
65.24996498683493
 31
0.0
  0
LINE
  5
209
330
55
100
AcDbEntity
  8
0
  6
Continuous
 62
     7
100
AcDbLine
 10
-17.3451908103075
 20
65.15002298275891
 30
0.0
 11
-19.24519081030158
 21
65.15002298275891
 31
0.0
  0
LINE
  5
20A
330
55
100
AcDbEntity
  8
0
  6
Continuous
 62
     7
100
AcDbLine
 10
-27.09519081084997
 20
64.83662552314038
 30
0.0
 11
-26.6951908100713
 21
63.34380519808801
 31
0.0
  0
LINE
  5
20B
330
55
100
AcDbEntity
  8
0
  6
Continuous
 62
     7
100
AcDbLine
 10
-20.39519081009636
 20
63.34380520092978
 30
0.0
 11
-19.99519081015804
 21
64.836625523695
 31
0.0
  0
LINE
  5
20C
330
55
100
AcDbEntity
  8
0
  6
Continuous
 62
     7
100
AcDbLine
 10
-19.74519081030396
 20
63.06504591147069
 30
0.0
 11
-19.24519081030148
 21
64.93107131516061
 31
0.0
  0
LINE
  5
20D
330
55
100
AcDbEntity
  8
0
  6
Continuous
 62
     7
100
AcDbLine
 10
-26.69519080991722
 20
66.1500229827468
 30
0.0
 11
-27.69519081085441
 21
66.1500229827468
 31
0.0
  0
LINE
  5
20E
330
55
100
AcDbEntity
  8
0
  6
Continuous
 62
     7
100
AcDbLine
 10
-27.69519081085441
 20
66.1500229827468
 30
0.0
 11
-31.5951908101391
 21
66.1500229827468
 31
0.0
  0
LINE
  5
20F
330
55
100
AcDbEntity
  8
0
  6
Continuous
 62
     7
100
AcDbLine
 10
-26.69519080991722
 20
65.24996498683493
 30
0.0
 11
-26.69519080991722
 21
66.1500229827468
 31
0.0
  0
LINE
  5
210
330
55
100
AcDbEntity
  8
0
  6
Continuous
 62
     7
100
AcDbLine
 10
-31.5951908101391
 20
66.1500229827468
 30
0.0
 11
-31.59519081016167
 21
70.3333563160412
 31
0.0
  0
LINE
  5
211
330
55
100
AcDbEntity
  8
0
  6
Continuous
 62
     7
100
AcDbLine
 10
-20.39519080991305
 20
65.24996498683493
 30
0.0
 11
-20.39519080991305
 21
66.15002298274078
 31
0.0
  0
LINE
  5
212
330
55
100
AcDbEntity
  8
0
  6
Continuous
 62
     7
100
AcDbLine
 10
-27.69519081085441
 20
66.1500229827468
 30
0.0
 11
-27.47786116921007
 21
65.77359700143586
 31
0.0
  0
LINE
  5
213
330
55
100
AcDbEntity
  8
0
  6
Continuous
 62
     7
100
AcDbLine
 10
-31.59519081016167
 20
70.3333563160412
 30
0.0
 11
-32.04519082841669
 21
71.83335637673167
 31
0.0
  0
LINE
  5
214
330
55
100
AcDbEntity
  8
0
  6
Continuous
 62
     7
100
AcDbLine
 10
-17.24519080990617
 20
70.22502298274676
 30
0.0
 11
-16.17519080990722
 21
70.22502298274634
 31
0.0
  0
LINE
  5
215
330
55
100
AcDbEntity
  8
0
  6
Continuous
 62
     7
100
AcDbLine
 10
-17.80488513401528
 20
84.90239572391255
 30
0.0
 11
-17.03406153724179
 21
78.624541314747
 31
0.0
  0
ARC
  5
216
330
55
100
AcDbEntity
  8
0
  6
Continuous
 62
     7
100
AcDbCircle
 10
-27.74519081085306
 20
65.18111505006601
 30
0.0
 40
0.6499999999999986
100
AcDbArc
 50
0.00000000051359
 51
65.71496026914288
  0
ARC
  5
217
330
55
100
AcDbEntity
  8
0
  6
Continuous
 62
     7
100
AcDbCircle
 10
-19.34519081015525
 20
65.18111505057027
 30
0.0
 40
0.649999999999991
100
AcDbArc
 50
114.2850397131544
 51
179.9999999995365
  0
ARC
  5
218
330
55
100
AcDbEntity
  8
0
  6
Continuous
 62
     7
100
AcDbCircle
 10
-17.3451908103075
 20
65.65002298275931
 30
0.0
 40
0.5000000000000107
100
AcDbArc
 50
180.0000000002215
 51
270.0
  0
ENDBLK
  5
57
330
55
100
AcDbEntity
  8
0
100
AcDbBlockEnd
  0
BLOCK
  5
5A
330
58
100
AcDbEntity
  8
0
100
AcDbBlockBegin
  2
Rckans1
 70
     0
 10
-23.79519101282978
 20
69.99999999963501
 30
0.0
  3
Rckans1
  1

  0
INSERT
  5
59
330
58
100
AcDbEntity
  8
0
100
AcDbBlockReference
  2
PP_H_1_5_S_1_R-select__3
 10
-32.04519082841669
 20
54.34997706995397
 30
0.0
  0
MTEXT
  5
219
330
58
100
AcDbEntity
  8
1
 62
     6
100
AcDbMText
 10
-23.79519081898948
 20
51.84997706995397
 30
0.0
 40
2.5
 41
0.0
 71
     2
 72
     1
  1
 
  7
CONVERTER_11
 73
     1
 44
1.32052821128451
  0
ENDBLK
  5
5B
330
58
100
AcDbEntity
  8
0
100
AcDbBlockEnd
  0
BLOCK
  5
5D
330
5C
100
AcDbEntity
  8
0
100
AcDbBlockBegin
  2
PP_H_1_5_S_1_R-select__4
 70
     0
 10
-41.78106261883197
 20
54.34997706995469
 30
0.0
  3
PP_H_1_5_S_1_R-select__4
  1

  0
LINE
  5
21A
330
5C
100
AcDbEntity
  8
0
  6
Continuous
 62
     2
100
AcDbLine
 10
-39.45606262095742
 20
65.65002298275695
 30
0.0
 11
-40.05606262095724
 21
65.6500229827572
 31
0.0
  0
LINE
  5
21B
330
5C
100
AcDbEntity
  8
0
  6
Continuous
 62
     7
100
AcDbLine
 10
-40.0560626209576
 20
66.15002298274084
 30
0.0
 11
-39.4560626209574
 21
66.15002298274084
 31
0.0
  0
LINE
  5
21C
330
5C
100
AcDbEntity
  8
0
  6
Continuous
 62
     7
100
AcDbLine
 10
-39.45606262095742
 20
65.65002298275695
 30
0.0
 11
-39.4560626209574
 21
66.15002298274084
 31
0.0
  0
LINE
  5
21D
330
5C
100
AcDbEntity
  8
0
  6
Continuous
 62
     7
100
AcDbLine
 10
-40.05606262095724
 20
65.6500229827572
 30
0.0
 11
-40.0560626209576
 21
66.15002298274084
 31
0.0
  0
LINE
  5
21E
330
5C
100
AcDbEntity
  8
0
  6
Continuous
 62
     7
100
AcDbLine
 10
-38.33106262115185
 20
55.84997706995478
 30
0.0
 11
-38.33106262120364
 21
54.34997706995469
 31
0.0
  0
LINE
  5
21F
330
5C
100
AcDbEntity
  8
0
  6
Continuous
 62
     7
100
AcDbLine
 10
-38.33106262115185
 20
60.75002298275217
 30
0.0
 11
-38.33106262115185
 21
55.84997706995478
 31
0.0
  0
LINE
  5
220
330
5C
100
AcDbEntity
  8
0
  6
Continuous
 62
     7
100
AcDbLine
 10
-40.5560626209574
 20
57.05002298275727
 30
0.0
 11
-38.95606262095716
 21
57.05002298275727
 31
0.0
  0
LINE
  5
221
330
5C
100
AcDbEntity
  8
0
  6
Continuous
 62
     7
100
AcDbLine
 10
-38.33106262115185
 20
60.75002298275217
 30
0.0
 11
-38.95606262095716
 21
60.75002298275217
 31
0.0
  0
LINE
  5
222
330
5C
100
AcDbEntity
  8
0
  6
Continuous
 62
     7
100
AcDbLine
 10
-40.5560626209574
 20
60.75002298275217
 30
0.0
 11
-41.18106262096703
 21
60.75002298275217
 31
0.0
  0
LINE
  5
223
330
5C
100
AcDbEntity
  8
0
  6
Continuous
 62
     7
100
AcDbLine
 10
-41.18106262096703
 20
55.84997706995478
 30
0.0
 11
-38.33106262115185
 21
55.84997706995478
 31
0.0
  0
LINE
  5
224
330
5C
100
AcDbEntity
  8
0
  6
Continuous
 62
     7
100
AcDbLine
 10
-38.33106262115219
 20
61.03358707373354
 30
0.0
 11
-38.95606262095716
 21
61.03358707373354
 31
0.0
  0
LINE
  5
225
330
5C
100
AcDbEntity
  8
0
  6
Continuous
 62
     7
100
AcDbLine
 10
-40.5560626209574
 20
61.03358707373354
 30
0.0
 11
-41.18106262096705
 21
61.03358707373354
 31
0.0
  0
LINE
  5
226
330
5C
100
AcDbEntity
  8
0
  6
Continuous
 62
     7
100
AcDbLine
 10
-40.5560626209574
 20
65.15002298275951
 30
0.0
 11
-38.95606262095716
 21
65.15002298275951
 31
0.0
  0
LINE
  5
227
330
5C
100
AcDbEntity
  8
0
  6
Continuous
 62
     7
100
AcDbLine
 10
-41.18106262096705
 20
61.03358707373354
 30
0.0
 11
-41.18106262096705
 21
65.2499649868347
 31
0.0
  0
LINE
  5
228
330
5C
100
AcDbEntity
  8
0
  6
Continuous
 62
     7
100
AcDbLine
 10
-38.95606262095716
 20
65.15002298275951
 30
0.0
 11
-38.95606262095716
 21
57.05002298275727
 31
0.0
  0
LINE
  5
229
330
5C
100
AcDbEntity
  8
0
  6
Continuous
 62
     7
100
AcDbLine
 10
-41.18106262096703
 20
54.34997706995469
 30
0.0
 11
-38.33106262120364
 21
54.34997706995469
 31
0.0
  0
LINE
  5
22A
330
5C
100
AcDbEntity
  8
0
  6
Continuous
 62
     7
100
AcDbLine
 10
-41.78106261883197
 20
76.64144603140471
 30
0.0
 11
-38.28106261860882
 21
76.64144603140474
 31
0.0
  0
LINE
  5
22B
330
5C
100
AcDbEntity
  8
0
  6
Continuous
 62
     7
100
AcDbLine
 10
-41.78106261883197
 20
76.27771536159563
 30
0.0
 11
-38.28106261867577
 21
76.27771536159563
 31
0.0
  0
LINE
  5
22C
330
5C
100
AcDbEntity
  8
0
  6
Continuous
 62
     7
100
AcDbLine
 10
-41.78106261883197
 20
76.64144603140471
 30
0.0
 11
-41.78106261883197
 21
76.27771536159563
 31
0.0
  0
LINE
  5
22D
330
5C
100
AcDbEntity
  8
0
  6
Continuous
 62
     7
100
AcDbLine
 10
-41.78106261883197
 20
70.13359993429873
 30
0.0
 11
-38.28106261860884
 21
70.13359993429873
 31
0.0
  0
LINE
  5
22E
330
5C
100
AcDbEntity
  8
0
  6
Continuous
 62
     7
100
AcDbLine
 10
-41.78106261883197
 20
79.02521939363973
 30
0.0
 11
-38.28106262027077
 21
79.02521939363973
 31
0.0
  0
LINE
  5
22F
330
5C
100
AcDbEntity
  8
0
  6
Continuous
 62
     7
100
AcDbLine
 10
-41.78106261883197
 20
78.82994726910843
 30
0.0
 11
-38.28106261860882
 21
78.82994726910843
 31
0.0
  0
LINE
  5
230
330
5C
100
AcDbEntity
  8
0
  6
Continuous
 62
     7
100
AcDbLine
 10
-41.78106261883197
 20
70.49733060388681
 30
0.0
 11
-38.28106261867577
 21
70.49733060388681
 31
0.0
  0
LINE
  5
231
330
5C
100
AcDbEntity
  8
0
  6
Continuous
 62
     7
100
AcDbLine
 10
-41.78106261883197
 20
68.49973779920953
 30
0.0
 11
-38.28106261860882
 21
68.49973779920953
 31
0.0
  0
LINE
  5
232
330
5C
100
AcDbEntity
  8
0
  6
Continuous
 62
     7
100
AcDbLine
 10
-41.78106261883197
 20
76.27771536159563
 30
0.0
 11
-41.78106261883197
 21
70.49733060388681
 31
0.0
  0
LINE
  5
233
330
5C
100
AcDbEntity
  8
0
  6
Continuous
 62
     7
100
AcDbLine
 10
-41.78106261883197
 20
85.65002283424138
 30
0.0
 11
-38.28106261868741
 21
85.65002283424141
 31
0.0
  0
LINE
  5
234
330
5C
100
AcDbEntity
  8
0
  6
Continuous
 62
     7
100
AcDbLine
 10
-41.78106261883197
 20
85.13082360279523
 30
0.0
 11
-41.78106261883197
 21
84.76251803993043
 31
0.0
  0
LINE
  5
235
330
5C
100
AcDbEntity
  8
0
  6
Continuous
 62
     7
100
AcDbLine
 10
-41.78106261883197
 20
85.65002283424138
 30
0.0
 11
-41.78106261883197
 21
85.13082360279523
 31
0.0
  0
LINE
  5
236
330
5C
100
AcDbEntity
  8
0
  6
Continuous
 62
     7
100
AcDbLine
 10
-41.78106261883197
 20
84.76251803993043
 30
0.0
 11
-38.2810626201959
 21
84.76251803993043
 31
0.0
  0
LINE
  5
237
330
5C
100
AcDbEntity
  8
0
  6
Continuous
 62
     7
100
AcDbLine
 10
-41.78106261883197
 20
85.13082360279523
 30
0.0
 11
-38.28106261868063
 21
85.1308236027952
 31
0.0
  0
LINE
  5
238
330
5C
100
AcDbEntity
  8
0
  6
Continuous
 62
     7
100
AcDbLine
 10
-41.78106261883197
 20
84.76251803993043
 30
0.0
 11
-41.78106261883197
 21
79.02521939363973
 31
0.0
  0
LINE
  5
239
330
5C
100
AcDbEntity
  8
0
  6
Continuous
 62
     7
100
AcDbLine
 10
-41.78106261883197
 20
70.49733060388681
 30
0.0
 11
-41.78106261883197
 21
70.13359993429873
 31
0.0
  0
LINE
  5
23A
330
5C
100
AcDbEntity
  8
0
  6
Continuous
 62
     7
100
AcDbLine
 10
-41.78106261883197
 20
66.15002298274055
 30
0.0
 11
-40.0560626209576
 21
66.15002298274084
 31
0.0
  0
LINE
  5
23B
330
5C
100
AcDbEntity
  8
0
  6
Continuous
 62
     7
100
AcDbLine
 10
-41.18106262096703
 20
60.75002298275217
 30
0.0
 11
-41.18106262096705
 21
61.03358707373354
 31
0.0
  0
LINE
  5
23C
330
5C
100
AcDbEntity
  8
0
  6
Continuous
 62
     7
100
AcDbLine
 10
-41.78106261883197
 20
65.2499649868347
 30
0.0
 11
-41.78106261883197
 21
66.15002298274055
 31
0.0
  0
LINE
  5
23D
330
5C
100
AcDbEntity
  8
0
  6
Continuous
 62
     7
100
AcDbLine
 10
-41.18106262096705
 20
65.2499649868347
 30
0.0
 11
-41.78106261883197
 21
65.2499649868347
 31
0.0
  0
LINE
  5
23E
330
5C
100
AcDbEntity
  8
0
  6
Continuous
 62
     7
100
AcDbLine
 10
-41.78106261883197
 20
78.82994726910843
 30
0.0
 11
-41.78106261883197
 21
76.64144603140471
 31
0.0
  0
LINE
  5
23F
330
5C
100
AcDbEntity
  8
0
  6
Continuous
 62
     7
100
AcDbLine
 10
-41.78106261883197
 20
79.02521939363973
 30
0.0
 11
-41.78106261883197
 21
78.82994726910843
 31
0.0
  0
LINE
  5
240
330
5C
100
AcDbEntity
  8
0
  6
Continuous
 62
     7
100
AcDbLine
 10
-41.78106261883197
 20
70.13359993429873
 30
0.0
 11
-41.78106261883197
 21
68.49973779920953
 31
0.0
  0
LINE
  5
241
330
5C
100
AcDbEntity
  8
0
  6
Continuous
 62
     7
100
AcDbLine
 10
-41.78106261883197
 20
68.49973779920953
 30
0.0
 11
-41.78106261883197
 21
66.15002298274055
 31
0.0
  0
LINE
  5
242
330
5C
100
AcDbEntity
  8
0
  6
Continuous
 62
     7
100
AcDbLine
 10
-41.18106262096703
 20
55.84997706995478
 30
0.0
 11
-41.18106262096703
 21
60.75002298275217
 31
0.0
  0
LINE
  5
243
330
5C
100
AcDbEntity
  8
0
  6
Continuous
 62
     7
100
AcDbLine
 10
-40.5560626209574
 20
65.15002298275951
 30
0.0
 11
-40.5560626209574
 21
57.05002298275727
 31
0.0
  0
LINE
  5
244
330
5C
100
AcDbEntity
  8
0
  6
Continuous
 62
     7
100
AcDbLine
 10
-41.18106262096703
 20
54.34997706995469
 30
0.0
 11
-41.18106262096703
 21
55.84997706995478
 31
0.0
  0
LINE
  5
245
330
5C
100
AcDbEntity
  8
0
  6
Continuous
 62
     7
100
AcDbLine
 10
-38.28106261868063
 20
85.1308236027952
 30
0.0
 11
-38.28106261868741
 21
85.65002283424141
 31
0.0
  0
LINE
  5
246
330
5C
100
AcDbEntity
  8
0
  6
Continuous
 62
     7
100
AcDbLine
 10
-38.28106261868063
 20
85.1308236027952
 30
0.0
 11
-38.28106262019238
 21
85.03279592135067
 31
0.0
  0
LINE
  5
247
330
5C
100
AcDbEntity
  8
0
  6
Continuous
 62
     7
100
AcDbLine
 10
-38.2810626201959
 20
84.76251803993043
 30
0.0
 11
-38.28106262027077
 21
79.02521939363973
 31
0.0
  0
LINE
  5
248
330
5C
100
AcDbEntity
  8
0
  6
Continuous
 62
     7
100
AcDbLine
 10
-38.28106261860884
 20
70.13359993429873
 30
0.0
 11
-38.28106261867577
 21
70.49733060388681
 31
0.0
  0
LINE
  5
249
330
5C
100
AcDbEntity
  8
0
  6
Continuous
 62
     7
100
AcDbLine
 10
-38.28106261860882
 20
68.49973779920953
 30
0.0
 11
-38.28106261860884
 21
70.13359993429873
 31
0.0
  0
LINE
  5
24A
330
5C
100
AcDbEntity
  8
0
  6
Continuous
 62
     7
100
AcDbLine
 10
-38.28106261878947
 20
76.55002298275167
 30
0.0
 11
-38.28106261860882
 21
76.64144603140474
 31
0.0
  0
LINE
  5
24B
330
5C
100
AcDbEntity
  8
0
  6
Continuous
 62
     7
100
AcDbLine
 10
-38.28106261860882
 20
68.49973779920953
 30
0.0
 11
-38.28106261912419
 21
66.15002298274055
 31
0.0
  0
LINE
  5
24C
330
5C
100
AcDbEntity
  8
0
  6
Continuous
 62
     7
100
AcDbLine
 10
-38.28106261912419
 20
66.15002298274055
 30
0.0
 11
-38.28106261882834
 21
65.30002298409443
 31
0.0
  0
LINE
  5
24D
330
5C
100
AcDbEntity
  8
0
  6
Continuous
 62
     7
100
AcDbLine
 10
-38.2810626201959
 20
84.76251803993043
 30
0.0
 11
-38.28106262019238
 21
85.03279592135067
 31
0.0
  0
LINE
  5
24E
330
5C
100
AcDbEntity
  8
0
  6
Continuous
 62
     7
100
AcDbLine
 10
-38.33106262115275
 20
65.2500229817694
 30
0.0
 11
-38.33106262115219
 21
61.03358707373354
 31
0.0
  0
LINE
  5
24F
330
5C
100
AcDbEntity
  8
0
  6
Continuous
 62
     7
100
AcDbLine
 10
-38.33106262115219
 20
61.03358707373354
 30
0.0
 11
-38.33106262115185
 21
60.75002298275217
 31
0.0
  0
LINE
  5
250
330
5C
100
AcDbEntity
  8
0
  6
Continuous
 62
     7
100
AcDbLine
 10
-38.28106262016143
 20
78.624541314819
 30
0.0
 11
-38.28106261860882
 21
76.64144603140474
 31
0.0
  0
LINE
  5
251
330
5C
100
AcDbEntity
  8
0
  6
Continuous
 62
     7
100
AcDbLine
 10
-38.28106261867577
 20
76.27771536159563
 30
0.0
 11
-38.28106261878947
 21
76.55002298275167
 31
0.0
  0
LINE
  5
252
330
5C
100
AcDbEntity
  8
0
  6
Continuous
 62
     7
100
AcDbLine
 10
-39.4560626209574
 20
66.15002298274084
 30
0.0
 11
-38.28106261912419
 21
66.15002298274055
 31
0.0
  0
LINE
  5
253
330
5C
100
AcDbEntity
  8
0
  6
Continuous
 62
     7
100
AcDbLine
 10
-38.28106262027429
 20
78.75494151221716
 30
0.0
 11
-38.28106261860882
 21
78.82994726910843
 31
0.0
  0
LINE
  5
254
330
5C
100
AcDbEntity
  8
0
  6
Continuous
 62
     7
100
AcDbLine
 10
-38.28106261860882
 20
78.82994726910843
 30
0.0
 11
-38.28106262027077
 21
79.02521939363973
 31
0.0
  0
LINE
  5
255
330
5C
100
AcDbEntity
  8
0
  6
Continuous
 62
     7
100
AcDbLine
 10
-38.28106262016143
 20
78.624541314819
 30
0.0
 11
-38.28106262027429
 21
78.75494151221716
 31
0.0
  0
LINE
  5
256
330
5C
100
AcDbEntity
  8
0
  6
Continuous
 62
     7
100
AcDbLine
 10
-38.28106261867577
 20
70.49733060388681
 30
0.0
 11
-38.28106261867577
 21
76.27771536159563
 31
0.0
  0
ARC
  5
257
330
5C
100
AcDbEntity
  8
0
  6
Continuous
 62
     7
100
AcDbCircle
 10
-40.55606262095726
 20
65.65002298275908
 30
0.0
 40
0.4999999999995737
100
AcDbArc
 50
269.9999999999845
 51
359.9999999997851
  0
ARC
  5
258
330
5C
100
AcDbEntity
  8
0
  6
Continuous
 62
     7
100
AcDbCircle
 10
-38.95606262095743
 20
65.65002298275823
 30
0.0
 40
0.4999999999999858
100
AcDbArc
 50
180.0000000001466
 51
270.0000000000309
  0
SPLINE
  5
259
330
5C
100
AcDbEntity
  8
0
  6
Continuous
 62
     7
100
AcDbSpline
210
0.0
220
0.0
230
1.0
 70
    24
 71
     3
 72
    11
 73
     7
 74
     5
 42
0.000000001
 43
0.0000000001
 44
0.00000001
 40
0.0
 40
0.0
 40
0.0
 40
0.0
 40
0.0176776703515822
 40
0.0353553407031393
 40
0.0530330110547215
 40
0.0707106814063038
 40
0.0707106814063038
 40
0.0707106814063038
 40
0.0707106814063038
 10
-38.33106262115275
 20
65.2500229817694
 30
0.0
 10
-38.32689595429238
 20
65.2541896486298
 30
0.0
 10
-38.31856262057164
 20
65.26252298235066
 30
0.0
 10
-38.30606261999051
 20
65.27502298293189
 30
0.0
 10
-38.29356261940941
 20
65.28752298351313
 30
0.0
 10
-38.28522928568869
 20
65.295856317234
 30
0.0
 10
-38.28106261882834
 20
65.30002298409443
 30
0.0
 11
-38.33106262115275
 21
65.2500229817694
 31
0.0
 11
-38.31856262057163
 21
65.26252298235065
 31
0.0
 11
-38.30606261999053
 21
65.27502298293189
 31
0.0
 11
-38.29356261940942
 21
65.28752298351314
 31
0.0
 11
-38.28106261882834
 21
65.30002298409443
 31
0.0
  0
ENDBLK
  5
5E
330
5C
100
AcDbEntity
  8
0
100
AcDbBlockEnd
  0
BLOCK
  5
61
330
5F
100
AcDbEntity
  8
0
100
AcDbBlockBegin
  2
SA_Links1
 70
     0
 10
-40.03106265672502
 20
69.99999999963481
 30
0.0
  3
SA_Links1
  1

  0
INSERT
  5
60
330
5F
100
AcDbEntity
  8
0
100
AcDbBlockReference
  2
PP_H_1_5_S_1_R-select__4
 10
-41.78106261883197
 20
54.34997706995469
 30
0.0
  0
MTEXT
  5
25A
330
5F
100
AcDbEntity
  8
1
 62
     6
100
AcDbMText
 10
-40.03088584212664
 20
51.84997706995469
 30
0.0
 40
2.5
 41
0.0
 71
     2
 72
     1
  1
 
  7
CONVERTER_11
 73
     1
 44
1.32052821128451
  0
ENDBLK
  5
62
330
5F
100
AcDbEntity
  8
0
100
AcDbBlockEnd
  0
BLOCK
  5
64
330
63
100
AcDbEntity
  8
0
100
AcDbBlockBegin
  2
PP_H_1_5_S_1_R-select__5
 70
     0
 10
-102.6637836678434
 20
54.34997706995399
 30
0.0
  3
PP_H_1_5_S_1_R-select__5
  1

  0
LINE
  5
25B
330
63
100
AcDbEntity
  8
0
  6
Continuous
 62
     7
100
AcDbLine
 10
-102.6137836650693
 20
60.75002298320052
 30
0.0
 11
-99.76378366591305
 21
60.75002298320706
 31
0.0
  0
LINE
  5
25C
330
63
100
AcDbEntity
  8
0
  6
Continuous
 62
     7
100
AcDbLine
 10
-100.6137836659225
 20
66.15002298274683
 30
0.0
 11
-100.6137836659225
 21
65.77359700143589
 31
0.0
  0
LINE
  5
25D
330
63
100
AcDbEntity
  8
0
  6
Continuous
 62
     7
100
AcDbLine
 10
-100.6137836659225
 20
64.83662552314041
 30
0.0
 11
-100.6137836659225
 21
63.34380519808804
 31
0.0
  0
LINE
  5
25E
330
63
100
AcDbEntity
  8
0
  6
Continuous
 62
     7
100
AcDbLine
 10
-100.6137836659225
 20
65.18111505007187
 30
0.0
 11
-100.6137836659225
 21
65.77359700143589
 31
0.0
  0
LINE
  5
25F
330
63
100
AcDbEntity
  8
0
  6
Continuous
 62
     7
100
AcDbLine
 10
-102.613783665064
 20
61.0335870738088
 30
0.0
 11
-99.76378366591305
 21
61.0335870738088
 31
0.0
  0
LINE
  5
260
330
63
100
AcDbEntity
  8
0
  6
Continuous
 62
     7
100
AcDbLine
 10
-101.2137836659225
 20
66.15002298274683
 30
0.0
 11
-101.2137836659225
 21
65.77359700143589
 31
0.0
  0
LINE
  5
261
330
63
100
AcDbEntity
  8
0
  6
Continuous
 62
     7
100
AcDbLine
 10
-101.2137836659225
 20
63.34380519753293
 30
0.0
 11
-100.6137836659225
 21
63.34380519808804
 31
0.0
  0
LINE
  5
262
330
63
100
AcDbEntity
  8
0
  6
Continuous
 62
     7
100
AcDbLine
 10
-101.2137836659225
 20
65.18111505007187
 30
0.0
 11
-101.2137836659225
 21
64.83662552314041
 31
0.0
  0
LINE
  5
263
330
63
100
AcDbEntity
  8
0
  6
Continuous
 62
     7
100
AcDbLine
 10
-100.6137836659225
 20
65.18111505007187
 30
0.0
 11
-100.6137836659225
 21
64.83662552314041
 31
0.0
  0
LINE
  5
264
330
63
100
AcDbEntity
  8
0
  6
Continuous
 62
     7
100
AcDbLine
 10
-100.6137836659225
 20
64.83662552314041
 30
0.0
 11
-101.2137836659225
 21
64.83662552314041
 31
0.0
  0
LINE
  5
265
330
63
100
AcDbEntity
  8
0
  6
Continuous
 62
     7
100
AcDbLine
 10
-101.2137836659225
 20
65.18111505007187
 30
0.0
 11
-101.2137836659225
 21
65.77359700143589
 31
0.0
  0
LINE
  5
266
330
63
100
AcDbEntity
  8
0
  6
Continuous
 62
     7
100
AcDbLine
 10
-101.2137836659225
 20
65.77359700143589
 30
0.0
 11
-100.6137836659225
 21
65.77359700143589
 31
0.0
  0
LINE
  5
267
330
63
100
AcDbEntity
  8
0
  6
Continuous
 62
     2
100
AcDbLine
 10
-101.2137836659225
 20
65.18111505007187
 30
0.0
 11
-100.6137836659225
 21
65.18111505007187
 31
0.0
  0
LINE
  5
268
330
63
100
AcDbEntity
  8
0
  6
Continuous
 62
     7
100
AcDbLine
 10
-101.2137836659225
 20
64.83662552314041
 30
0.0
 11
-101.2137836659225
 21
63.34380519753293
 31
0.0
  0
LINE
  5
269
330
63
100
AcDbEntity
  8
0
  6
Continuous
 62
     7
100
AcDbLine
 10
-99.76378366591305
 20
65.24996498683493
 30
0.0
 11
-99.76378366591305
 21
61.0335870738088
 31
0.0
  0
LINE
  5
26A
330
63
100
AcDbEntity
  8
0
  6
Continuous
 62
     7
100
AcDbLine
 10
-99.76378366591305
 20
55.79393760375451
 30
0.0
 11
-102.6137836650693
 21
55.79393760375451
 31
0.0
  0
LINE
  5
26B
330
63
100
AcDbEntity
  8
0
  6
Continuous
 62
     7
100
AcDbLine
 10
-99.76378366591302
 20
54.34997706995399
 30
0.0
 11
-102.6137836651204
 21
54.34997706995399
 31
0.0
  0
LINE
  5
26C
330
63
100
AcDbEntity
  8
0
  6
Continuous
 62
     7
100
AcDbLine
 10
-99.76378366591305
 20
55.79393760375451
 30
0.0
 11
-99.76378366591302
 21
54.34997706995399
 31
0.0
  0
LINE
  5
26D
330
63
100
AcDbEntity
  8
0
  6
Continuous
 62
     7
100
AcDbLine
 10
-99.76378366591305
 20
61.0335870738088
 30
0.0
 11
-99.76378366591305
 21
60.75002298320706
 31
0.0
  0
LINE
  5
26E
330
63
100
AcDbEntity
  8
0
  6
Continuous
 62
     7
100
AcDbLine
 10
-99.16378366804796
 20
65.24996498683493
 30
0.0
 11
-99.16378366804796
 21
66.15002298274683
 31
0.0
  0
LINE
  5
26F
330
63
100
AcDbEntity
  8
0
  6
Continuous
 62
     7
100
AcDbLine
 10
-99.16378366804796
 20
66.15002298274683
 30
0.0
 11
-99.16378366804796
 21
70.3333563160412
 31
0.0
  0
LINE
  5
270
330
63
100
AcDbEntity
  8
0
  6
Continuous
 62
     7
100
AcDbLine
 10
-99.16378366804796
 20
70.3333563160412
 30
0.0
 11
-99.16378366804796
 21
71.83335637673173
 31
0.0
  0
LINE
  5
271
330
63
100
AcDbEntity
  8
0
  6
Continuous
 62
     7
100
AcDbLine
 10
-99.76378366591305
 20
65.24996498683493
 30
0.0
 11
-99.16378366804796
 21
65.24996498683493
 31
0.0
  0
LINE
  5
272
330
63
100
AcDbEntity
  8
0
  6
Continuous
 62
     7
100
AcDbLine
 10
-99.16378366804796
 20
84.76251803993068
 30
0.0
 11
-99.16378366804796
 21
85.13082360286731
 31
0.0
  0
LINE
  5
273
330
63
100
AcDbEntity
  8
0
  6
Continuous
 62
     7
100
AcDbLine
 10
-99.16378366804796
 20
78.6601574441849
 30
0.0
 11
-99.16378366804796
 21
79.02521939363996
 31
0.0
  0
LINE
  5
274
330
63
100
AcDbEntity
  8
0
  6
Continuous
 62
     7
100
AcDbLine
 10
-99.16378366804796
 20
79.02521939363996
 30
0.0
 11
-99.16378366804796
 21
84.76251803993068
 31
0.0
  0
LINE
  5
275
330
63
100
AcDbEntity
  8
0
  6
Continuous
 62
     7
100
AcDbLine
 10
-99.16378366804796
 20
85.13082360286731
 30
0.0
 11
-99.16378366804796
 21
85.65002283424164
 31
0.0
  0
LINE
  5
276
330
63
100
AcDbEntity
  8
0
  6
Continuous
 62
     7
100
AcDbLine
 10
-99.76378366591305
 20
60.75002298320706
 30
0.0
 11
-99.76378366591305
 21
55.79393760375451
 31
0.0
  0
LINE
  5
277
330
63
100
AcDbEntity
  8
0
  6
Continuous
 62
     7
100
AcDbLine
 10
-99.16378366804796
 20
85.13082360286731
 30
0.0
 11
-102.6637836666321
 21
85.13082360286731
 31
0.0
  0
LINE
  5
278
330
63
100
AcDbEntity
  8
0
  6
Continuous
 62
     7
100
AcDbLine
 10
-99.16378366804796
 20
84.76251803993068
 30
0.0
 11
-102.663783666684
 21
84.76251803993065
 31
0.0
  0
LINE
  5
279
330
63
100
AcDbEntity
  8
0
  6
Continuous
 62
     7
100
AcDbLine
 10
-102.6637836665656
 20
70.333356316054
 30
0.0
 11
-102.6637836665656
 21
66.15002298274683
 31
0.0
  0
LINE
  5
27A
330
63
100
AcDbEntity
  8
0
  6
Continuous
 62
     7
100
AcDbLine
 10
-100.6137836659225
 20
66.15002298274683
 30
0.0
 11
-101.2137836659225
 21
66.15002298274683
 31
0.0
  0
LINE
  5
27B
330
63
100
AcDbEntity
  8
0
  6
Continuous
 62
     7
100
AcDbLine
 10
-99.16378366804796
 20
66.15002298274683
 30
0.0
 11
-100.6137836659225
 21
66.15002298274683
 31
0.0
  0
LINE
  5
27C
330
63
100
AcDbEntity
  8
0
  6
Continuous
 62
     7
100
AcDbLine
 10
-101.2137836659225
 20
66.15002298274683
 30
0.0
 11
-102.6637836665656
 21
66.15002298274683
 31
0.0
  0
LINE
  5
27D
330
63
100
AcDbEntity
  8
0
  6
Continuous
 62
     7
100
AcDbLine
 10
-99.6637836659178
 20
67.35002298282745
 30
0.0
 11
-102.0637836665656
 21
67.35002298257234
 31
0.0
  0
LINE
  5
27E
330
63
100
AcDbEntity
  8
0
  6
Continuous
 62
     7
100
AcDbLine
 10
-102.0637836665656
 20
67.35002298257234
 30
0.0
 11
-102.06378366664
 21
68.05002298261954
 31
0.0
  0
LINE
  5
27F
330
63
100
AcDbEntity
  8
0
  6
Continuous
 62
     7
100
AcDbLine
 10
-99.6637836659178
 20
67.35002298282745
 30
0.0
 11
-99.66378366591778
 21
68.05002298274707
 31
0.0
  0
LINE
  5
280
330
63
100
AcDbEntity
  8
0
  6
Continuous
 62
     2
100
AcDbLine
 10
-99.66378366591769
 20
69.2590071499726
 30
0.0
 11
-102.0637836670172
 21
69.25900714984945
 31
0.0
  0
LINE
  5
281
330
63
100
AcDbEntity
  8
0
  6
Continuous
 62
     7
100
AcDbLine
 10
-99.66378366591778
 20
69.85002298274702
 30
0.0
 11
-102.0637836667197
 21
69.85002298274702
 31
0.0
  0
LINE
  5
282
330
63
100
AcDbEntity
  8
0
  6
Continuous
 62
     7
100
AcDbLine
 10
-102.0637836667197
 20
69.85002298274702
 30
0.0
 11
-102.0637836665656
 21
70.333356316054
 31
0.0
  0
LINE
  5
283
330
63
100
AcDbEntity
  8
0
  6
Continuous
 62
     7
100
AcDbLine
 10
-102.0637836670172
 20
69.25900714984945
 30
0.0
 11
-102.0637836667197
 21
69.85002298274702
 31
0.0
  0
LINE
  5
284
330
63
100
AcDbEntity
  8
0
  6
Continuous
 62
     7
100
AcDbLine
 10
-102.0637836665652
 20
70.34594891755222
 30
0.0
 11
-102.0637836665178
 21
71.8333563767317
 31
0.0
  0
LINE
  5
285
330
63
100
AcDbEntity
  8
0
  6
Continuous
 62
     7
100
AcDbLine
 10
-99.16378366804796
 20
70.3333563160412
 30
0.0
 11
-99.6637836659178
 21
70.33335631605894
 31
0.0
  0
LINE
  5
286
330
63
100
AcDbEntity
  8
0
  6
Continuous
 62
     7
100
AcDbLine
 10
-99.6637836659178
 20
70.33335631605894
 30
0.0
 11
-102.0637836665656
 21
70.333356316054
 31
0.0
  0
LINE
  5
287
330
63
100
AcDbEntity
  8
0
  6
Continuous
 62
     7
100
AcDbLine
 10
-99.6637836659178
 20
70.34594891803752
 30
0.0
 11
-102.0637836665652
 21
70.34594891755222
 31
0.0
  0
LINE
  5
288
330
63
100
AcDbEntity
  8
0
  6
Continuous
 62
     7
100
AcDbLine
 10
-99.66378366591778
 20
68.05002298274707
 30
0.0
 11
-102.06378366664
 21
68.05002298261954
 31
0.0
  0
LINE
  5
289
330
63
100
AcDbEntity
  8
0
  6
Continuous
 62
     7
100
AcDbLine
 10
-99.16378366804796
 20
71.83335637673173
 30
0.0
 11
-99.6637836659178
 21
71.8333563767317
 31
0.0
  0
LINE
  5
28A
330
63
100
AcDbEntity
  8
0
  6
Continuous
 62
     7
100
AcDbLine
 10
-102.6637836665178
 20
71.8333563767317
 30
0.0
 11
-102.0637836665178
 21
71.8333563767317
 31
0.0
  0
LINE
  5
28B
330
63
100
AcDbEntity
  8
0
  6
Continuous
 62
     7
100
AcDbLine
 10
-99.6637836659178
 20
70.34594891803752
 30
0.0
 11
-99.6637836659178
 21
71.8333563767317
 31
0.0
  0
LINE
  5
28C
330
63
100
AcDbEntity
  8
0
  6
Continuous
 62
     7
100
AcDbLine
 10
-99.66378366591769
 20
69.2590071499726
 30
0.0
 11
-99.66378366591778
 21
69.85002298274702
 31
0.0
  0
LINE
  5
28D
330
63
100
AcDbEntity
  8
0
  6
Continuous
 62
     7
100
AcDbLine
 10
-99.66378366591778
 20
69.85002298274702
 30
0.0
 11
-99.6637836659178
 21
70.33335631605894
 31
0.0
  0
LINE
  5
28E
330
63
100
AcDbEntity
  8
0
  6
Continuous
 62
     7
100
AcDbLine
 10
-99.66378366591778
 20
68.05002298274707
 30
0.0
 11
-99.66378366591769
 21
69.2590071499726
 31
0.0
  0
LINE
  5
28F
330
63
100
AcDbEntity
  8
0
  6
Continuous
 62
     7
100
AcDbLine
 10
-102.0637836665656
 20
70.333356316054
 30
0.0
 11
-102.6637836665656
 21
70.333356316054
 31
0.0
  0
LINE
  5
290
330
63
100
AcDbEntity
  8
0
  6
Continuous
 62
     7
100
AcDbLine
 10
-102.6637836665656
 20
70.333356316054
 30
0.0
 11
-102.6637836665178
 21
71.8333563767317
 31
0.0
  0
LINE
  5
291
330
63
100
AcDbEntity
  8
0
  6
Continuous
 62
     7
100
AcDbLine
 10
-99.66378366591778
 20
75.23788423057437
 30
0.0
 11
-99.66378366591778
 21
76.0588452808727
 31
0.0
  0
LINE
  5
292
330
63
100
AcDbEntity
  8
0
  6
Continuous
 62
     7
100
AcDbLine
 10
-99.66378366591778
 20
76.0588452808727
 30
0.0
 11
-99.6637836659178
 21
77.1610780745718
 31
0.0
  0
LINE
  5
293
330
63
100
AcDbEntity
  8
0
  6
Continuous
 62
     7
100
AcDbLine
 10
-99.16378366804796
 20
71.83335637673173
 30
0.0
 11
-99.16378366804796
 21
78.6601574441849
 31
0.0
  0
LINE
  5
294
330
63
100
AcDbEntity
  8
0
  6
Continuous
 62
     7
100
AcDbLine
 10
-99.66378366591778
 20
75.23788423057437
 30
0.0
 11
-102.0637836666825
 21
75.2378842305196
 31
0.0
  0
LINE
  5
295
330
63
100
AcDbEntity
  8
0
  6
Continuous
 62
     7
100
AcDbLine
 10
-99.66378366591778
 20
76.0588452808727
 30
0.0
 11
-102.0637836666825
 21
76.0588452800965
 31
0.0
  0
LINE
  5
296
330
63
100
AcDbEntity
  8
0
  6
Continuous
 62
     7
100
AcDbLine
 10
-99.6637836659178
 20
77.1610780745718
 30
0.0
 11
-102.0637836665178
 21
77.1610780745718
 31
0.0
  0
LINE
  5
297
330
63
100
AcDbEntity
  8
0
  6
Continuous
 62
     7
100
AcDbLine
 10
-99.16378366804796
 20
78.6601574441849
 30
0.0
 11
-102.6637836665178
 21
78.6601574441849
 31
0.0
  0
LINE
  5
298
330
63
100
AcDbEntity
  8
0
  6
Continuous
 62
     7
100
AcDbLine
 10
-99.6637836659178
 20
71.8333563767317
 30
0.0
 11
-99.66378366591778
 21
75.23788423057437
 31
0.0
  0
LINE
  5
299
330
63
100
AcDbEntity
  8
0
  6
Continuous
 62
     7
100
AcDbLine
 10
-99.16378366804796
 20
79.02521939363996
 30
0.0
 11
-102.6637836666092
 21
79.02521939363993
 31
0.0
  0
LINE
  5
29A
330
63
100
AcDbEntity
  8
0
  6
Continuous
 62
     7
100
AcDbLine
 10
-102.6137836651204
 20
54.34997706995399
 30
0.0
 11
-102.6137836650693
 21
55.79393760375451
 31
0.0
  0
LINE
  5
29B
330
63
100
AcDbEntity
  8
0
  6
Continuous
 62
     7
100
AcDbLine
 10
-102.663783666684
 20
84.76251803993065
 30
0.0
 11
-102.6637836666321
 21
85.13082360286731
 31
0.0
  0
LINE
  5
29C
330
63
100
AcDbEntity
  8
0
  6
Continuous
 62
     7
100
AcDbLine
 10
-102.6637836666321
 20
85.13082360286731
 30
0.0
 11
-102.6637836678434
 21
85.65002283424164
 31
0.0
  0
LINE
  5
29D
330
63
100
AcDbEntity
  8
0
  6
Continuous
 62
     7
100
AcDbLine
 10
-102.6637836666092
 20
79.02521939363993
 30
0.0
 11
-102.6637836678434
 21
82.1034559319562
 31
0.0
  0
LINE
  5
29E
330
63
100
AcDbEntity
  8
0
  6
Continuous
 62
     7
100
AcDbLine
 10
-102.6637836678434
 20
82.1034559319562
 30
0.0
 11
-102.663783666684
 21
84.76251803993065
 31
0.0
  0
LINE
  5
29F
330
63
100
AcDbEntity
  8
0
  6
Continuous
 62
     7
100
AcDbLine
 10
-102.6637836665178
 20
71.8333563767317
 30
0.0
 11
-102.6637836667185
 21
78.62454131481923
 31
0.0
  0
LINE
  5
2A0
330
63
100
AcDbEntity
  8
0
  6
Continuous
 62
     7
100
AcDbLine
 10
-102.6137836650693
 20
55.79393760375451
 30
0.0
 11
-102.6137836650693
 21
60.75002298320052
 31
0.0
  0
LINE
  5
2A1
330
63
100
AcDbEntity
  8
0
  6
Continuous
 62
     7
100
AcDbLine
 10
-99.16378366804796
 20
85.65002283424164
 30
0.0
 11
-102.6637836678434
 21
85.65002283424164
 31
0.0
  0
LINE
  5
2A2
330
63
100
AcDbEntity
  8
0
  6
Continuous
 62
     7
100
AcDbLine
 10
-102.613783665064
 20
61.0335870738088
 30
0.0
 11
-102.6137836650577
 21
65.2500229817696
 31
0.0
  0
LINE
  5
2A3
330
63
100
AcDbEntity
  8
0
  6
Continuous
 62
     7
100
AcDbLine
 10
-102.6637836666092
 20
79.02521939363993
 30
0.0
 11
-102.6637836665178
 21
78.6601574441849
 31
0.0
  0
LINE
  5
2A4
330
63
100
AcDbEntity
  8
0
  6
Continuous
 62
     7
100
AcDbLine
 10
-102.6637836665178
 20
78.6601574441849
 30
0.0
 11
-102.6637836667185
 21
78.62454131481923
 31
0.0
  0
LINE
  5
2A5
330
63
100
AcDbEntity
  8
0
  6
Continuous
 62
     7
100
AcDbLine
 10
-102.6637836665656
 20
66.15002298274683
 30
0.0
 11
-102.6637836673822
 21
65.30002298409465
 31
0.0
  0
LINE
  5
2A6
330
63
100
AcDbEntity
  8
0
  6
Continuous
 62
     7
100
AcDbLine
 10
-102.6137836650693
 20
60.75002298320052
 30
0.0
 11
-102.613783665064
 21
61.0335870738088
 31
0.0
  0
LINE
  5
2A7
330
63
100
AcDbEntity
  8
0
  6
Continuous
 62
     7
100
AcDbLine
 10
-102.0637836666825
 20
75.2378842305196
 30
0.0
 11
-102.0637836666825
 21
76.0588452800965
 31
0.0
  0
LINE
  5
2A8
330
63
100
AcDbEntity
  8
0
  6
Continuous
 62
     7
100
AcDbLine
 10
-102.0637836666825
 20
76.0588452800965
 30
0.0
 11
-102.0637836665178
 21
77.1610780745718
 31
0.0
  0
LINE
  5
2A9
330
63
100
AcDbEntity
  8
0
  6
Continuous
 62
     7
100
AcDbLine
 10
-102.06378366664
 20
68.05002298261954
 30
0.0
 11
-102.0637836670172
 21
69.25900714984945
 31
0.0
  0
LINE
  5
2AA
330
63
100
AcDbEntity
  8
0
  6
Continuous
 62
     7
100
AcDbLine
 10
-102.0637836665178
 20
71.8333563767317
 30
0.0
 11
-102.0637836666825
 21
75.2378842305196
 31
0.0
  0
SPLINE
  5
2AB
330
63
100
AcDbEntity
  8
0
  6
Continuous
 62
     7
100
AcDbSpline
210
0.0
220
0.0
230
1.0
 70
    24
 71
     3
 72
    11
 73
     7
 74
     5
 42
0.000000001
 43
0.0000000001
 44
0.00000001
 40
0.0
 40
0.0
 40
0.0
 40
0.0
 40
0.0176776703516727
 40
0.0353553407032348
 40
0.0530330110547668
 40
0.0707106814063892
 40
0.0707106814063892
 40
0.0707106814063892
 40
0.0707106814063892
 10
-102.6137836650577
 20
65.2500229817696
 30
0.0
 10
-102.6179503319181
 20
65.25418964863005
 30
0.0
 10
-102.6262836656389
 20
65.26252298235083
 30
0.0
 10
-102.63878366622
 20
65.27502298293213
 30
0.0
 10
-102.6512836668011
 20
65.2875229835134
 30
0.0
 10
-102.6596170005218
 20
65.29585631723423
 30
0.0
 10
-102.6637836673822
 20
65.30002298409465
 30
0.0
 11
-102.6137836650577
 21
65.2500229817696
 31
0.0
 11
-102.6262836656389
 21
65.26252298235086
 31
0.0
 11
-102.63878366622
 21
65.27502298293211
 31
0.0
 11
-102.6512836668011
 21
65.28752298351338
 31
0.0
 11
-102.6637836673822
 21
65.30002298409465
 31
0.0
  0
ENDBLK
  5
65
330
63
100
AcDbEntity
  8
0
100
AcDbBlockEnd
  0
BLOCK
  5
68
330
66
100
AcDbEntity
  8
0
100
AcDbBlockBegin
  2
SA_Rechts1
 70
     0
 10
-100.9137836301549
 20
69.99999999963501
 30
0.0
  3
SA_Rechts1
  1

  0
INSERT
  5
67
330
66
100
AcDbEntity
  8
0
100
AcDbBlockReference
  2
PP_H_1_5_S_1_R-select__5
 10
-102.6637836678434
 20
54.34997706995399
 30
0.0
  0
MTEXT
  5
2AC
330
66
100
AcDbEntity
  8
1
 62
     6
100
AcDbMText
 10
-100.9139604444186
 20
51.84997706995399
 30
0.0
 40
2.5
 41
0.0
 71
     2
 72
     1
  1
 
  7
CONVERTER_11
 73
     1
 44
1.32052821128451
  0
ENDBLK
  5
69
330
66
100
AcDbEntity
  8
0
100
AcDbBlockEnd
  0
BLOCK
  5
6B
330
6A
100
AcDbEntity
  8
0
100
AcDbBlockBegin
  2
PP_H_1_5_S_1_R-select__6
 70
     0
 10
-68.8750003816896
 20
54.34997706995399
 30
0.0
  3
PP_H_1_5_S_1_R-select__6
  1

  0
LINE
  5
2AD
330
6A
100
AcDbEntity
  8
0
  6
Continuous
 62
     7
100
AcDbLine
 10
-53.93948411518726
 20
84.76251803993065
 30
0.0
 11
-53.97267006617909
 21
85.0327959213509
 31
0.0
  0
LINE
  5
2AE
330
6A
100
AcDbEntity
  8
0
  6
Continuous
 62
     7
100
AcDbLine
 10
-53.45072612511774
 20
85.13082360286731
 30
0.0
 11
-53.93948411518726
 21
84.76251803993065
 31
0.0
  0
LINE
  5
2AF
330
6A
100
AcDbEntity
  8
0
  6
Continuous
 62
     7
100
AcDbLine
 10
-55.03469444780276
 20
84.90239572398511
 30
0.0
 11
-54.26387085103201
 21
78.62454131481923
 31
0.0
  0
LINE
  5
2B0
330
6A
100
AcDbEntity
  8
0
  6
Continuous
 62
     7
100
AcDbLine
 10
-58.25632055920943
 20
54.34997706995399
 30
0.0
 11
-57.77500038127566
 21
55.79393760375451
 31
0.0
  0
LINE
  5
2B1
330
6A
100
AcDbEntity
  8
0
  6
Continuous
 62
     7
100
AcDbLine
 10
-54.26387085103201
 20
78.62454131481923
 30
0.0
 11
-53.2018464691416
 21
78.75494151221739
 31
0.0
  0
LINE
  5
2B2
330
6A
100
AcDbEntity
  8
0
  6
Continuous
 62
     7
100
AcDbLine
 10
-67.38612965401006
 20
78.62454131474703
 30
0.0
 11
-68.44815403590042
 21
78.75494151214565
 31
0.0
  0
LINE
  5
2B3
330
6A
100
AcDbEntity
  8
0
  6
Continuous
 62
     7
100
AcDbLine
 10
-68.8750003816896
 20
78.82994726910866
 30
0.0
 11
-68.8750003816896
 21
76.64144603140494
 31
0.0
  0
LINE
  5
2B4
330
6A
100
AcDbEntity
  8
0
  6
Continuous
 62
     7
100
AcDbLine
 10
-67.1750003813443
 20
76.5500229827519
 30
0.0
 11
-68.24500038134622
 21
76.55002298275181
 31
0.0
  0
LINE
  5
2B5
330
6A
100
AcDbEntity
  8
0
  6
Continuous
 62
     7
100
AcDbLine
 10
-68.2450003813085
 20
76.27771536159585
 30
0.0
 11
-68.24500038134622
 21
76.55002298275181
 31
0.0
  0
LINE
  5
2B6
330
6A
100
AcDbEntity
  8
0
  6
Continuous
 62
     7
100
AcDbLine
 10
-62.0915680175106
 20
81.8181361153209
 30
0.0
 11
-62.17979543251286
 21
81.52176690070368
 31
0.0
  0
LINE
  5
2B7
330
6A
100
AcDbEntity
  8
0
  6
Continuous
 62
     7
100
AcDbLine
 10
-63.75000038320326
 20
80.95002275509799
 30
0.0
 11
-63.95345944297334
 21
80.95002275458074
 31
0.0
  0
LINE
  5
2B8
330
6A
100
AcDbEntity
  8
0
  6
Continuous
 62
     7
100
AcDbLine
 10
-68.2450003813085
 20
76.27771536159585
 30
0.0
 11
-68.8750003816896
 21
76.64144603140494
 31
0.0
  0
LINE
  5
2B9
330
6A
100
AcDbEntity
  8
0
  6
Continuous
 62
     7
100
AcDbLine
 10
-68.87500038134368
 20
70.13359993429896
 30
0.0
 11
-68.24500038134397
 21
70.49733060388704
 31
0.0
  0
LINE
  5
2BA
330
6A
100
AcDbEntity
  8
0
  6
Continuous
 62
     7
100
AcDbLine
 10
-68.87500038134368
 20
68.49973779920975
 30
0.0
 11
-68.87500038134368
 21
70.13359993429896
 31
0.0
  0
LINE
  5
2BB
330
6A
100
AcDbEntity
  8
0
  6
Continuous
 62
     7
100
AcDbLine
 10
-68.87500038134368
 20
68.49973779920975
 30
0.0
 11
-68.11153175846803
 21
66.15002298274194
 31
0.0
  0
LINE
  5
2BC
330
6A
100
AcDbEntity
  8
0
  6
Continuous
 62
     7
100
AcDbLine
 10
-56.72500038076936
 20
66.15002298274683
 30
0.0
 11
-56.9423300224137
 21
65.77359700143589
 31
0.0
  0
LINE
  5
2BD
330
6A
100
AcDbEntity
  8
0
  6
Continuous
 62
     7
100
AcDbLine
 10
-57.3250003807707
 20
65.18111505007187
 30
0.0
 11
-57.32500038077379
 21
64.83662552314041
 31
0.0
  0
LINE
  5
2BE
330
6A
100
AcDbEntity
  8
0
  6
Continuous
 62
     7
100
AcDbLine
 10
-57.72500038133464
 20
66.15002298274683
 30
0.0
 11
-56.72500038076936
 21
66.15002298274683
 31
0.0
  0
LINE
  5
2BF
330
6A
100
AcDbEntity
  8
0
  6
Continuous
 62
     7
100
AcDbLine
 10
-56.72500038076936
 20
66.15002298274683
 30
0.0
 11
-52.82500038111276
 21
66.15002298274683
 31
0.0
  0
LINE
  5
2C0
330
6A
100
AcDbEntity
  8
0
  6
Continuous
 62
     7
100
AcDbLine
 10
-52.82500038109167
 20
70.333356316054
 30
0.0
 11
-52.82500038111276
 21
66.15002298274683
 31
0.0
  0
LINE
  5
2C1
330
6A
100
AcDbEntity
  8
0
  6
Continuous
 62
     7
100
AcDbLine
 10
-52.37500036283515
 20
78.6601574441849
 30
0.0
 11
-52.37500036283518
 21
71.8333563767317
 31
0.0
  0
LINE
  5
2C2
330
6A
100
AcDbEntity
  8
0
  6
Continuous
 62
     7
100
AcDbLine
 10
-52.82500038109167
 20
70.333356316054
 30
0.0
 11
-52.37500036283518
 21
71.8333563767317
 31
0.0
  0
LINE
  5
2C3
330
6A
100
AcDbEntity
  8
0
  6
Continuous
 62
     7
100
AcDbLine
 10
-57.32500038077379
 20
64.83662552314041
 30
0.0
 11
-57.72500038148871
 21
63.34380519753293
 31
0.0
  0
LINE
  5
2C4
330
6A
100
AcDbEntity
  8
0
  6
Continuous
 62
     7
100
AcDbLine
 10
-53.45072612511774
 20
85.13082360286731
 30
0.0
 11
-53.51447577475545
 21
85.65002283424164
 31
0.0
  0
LINE
  5
2C5
330
6A
100
AcDbEntity
  8
0
  6
Continuous
 62
     7
100
AcDbLine
 10
-67.71051638985213
 20
84.7625180398586
 30
0.0
 11
-67.6773304388602
 21
85.03279592127879
 31
0.0
  0
LINE
  5
2C6
330
6A
100
AcDbEntity
  8
0
  6
Continuous
 62
     7
100
AcDbLine
 10
-53.97267006617909
 20
85.0327959213509
 30
0.0
 11
-55.03469444780276
 21
84.90239572398511
 31
0.0
  0
LINE
  5
2C7
330
6A
100
AcDbEntity
  8
0
  6
Continuous
 62
     7
100
AcDbLine
 10
-68.19927437992152
 20
85.13082360279546
 30
0.0
 11
-67.71051638985213
 21
84.7625180398586
 31
0.0
  0
LINE
  5
2C8
330
6A
100
AcDbEntity
  8
0
  6
Continuous
 62
     7
100
AcDbLine
 10
-67.6773304388602
 20
85.03279592127879
 30
0.0
 11
-66.61530605723658
 21
84.90239572391258
 31
0.0
  0
LINE
  5
2C9
330
6A
100
AcDbEntity
  8
0
  6
Continuous
 62
     7
100
AcDbLine
 10
-68.13552473027474
 20
85.65002283424164
 30
0.0
 11
-64.85000038398842
 21
85.65002283424164
 31
0.0
  0
LINE
  5
2CA
330
6A
100
AcDbEntity
  8
0
  6
Continuous
 62
     7
100
AcDbLine
 10
-62.05000038398842
 20
85.65002283424164
 30
0.0
 11
-53.51447577475545
 21
85.65002283424164
 31
0.0
  0
LINE
  5
2CB
330
6A
100
AcDbEntity
  8
0
  6
Continuous
 62
     7
100
AcDbLine
 10
-68.19927437992152
 20
85.13082360279546
 30
0.0
 11
-68.13552473027474
 21
85.65002283424164
 31
0.0
  0
LINE
  5
2CC
330
6A
100
AcDbEntity
  8
0
  6
Continuous
 62
     7
100
AcDbLine
 10
-53.2018464691416
 20
78.75494151221739
 30
0.0
 11
-53.2350324201345
 21
79.02521939363993
 31
0.0
  0
LINE
  5
2CD
330
6A
100
AcDbEntity
  8
0
  6
Continuous
 62
     7
100
AcDbLine
 10
-53.2350324201345
 20
79.02521939363993
 30
0.0
 11
-52.37500036283515
 21
78.6601574441849
 31
0.0
  0
LINE
  5
2CE
330
6A
100
AcDbEntity
  8
0
  6
Continuous
 62
     7
100
AcDbLine
 10
-68.44815403590042
 20
78.75494151214565
 30
0.0
 11
-68.41496808488583
 21
79.0252193937439
 31
0.0
  0
LINE
  5
2CF
330
6A
100
AcDbEntity
  8
0
  6
Continuous
 62
     7
100
AcDbLine
 10
-68.41496808488583
 20
79.0252193937439
 30
0.0
 11
-68.8750003816896
 21
78.82994726910866
 31
0.0
  0
LINE
  5
2D0
330
6A
100
AcDbEntity
  8
0
  6
Continuous
 62
     7
100
AcDbLine
 10
-64.02500038134411
 20
65.2500229817696
 30
0.0
 11
-57.72500038133995
 21
65.2500229817696
 31
0.0
  0
LINE
  5
2D1
330
6A
100
AcDbEntity
  8
0
  6
Continuous
 62
     7
100
AcDbLine
 10
-57.72500038133995
 20
61.0335870738088
 30
0.0
 11
-57.72500038148871
 21
63.34380519753293
 31
0.0
  0
LINE
  5
2D2
330
6A
100
AcDbEntity
  8
0
  6
Continuous
 62
     7
100
AcDbLine
 10
-57.72500038148871
 20
63.34380519753293
 30
0.0
 11
-57.72500038133995
 21
65.2500229817696
 31
0.0
  0
LINE
  5
2D3
330
6A
100
AcDbEntity
  8
0
  6
Continuous
 62
     7
100
AcDbLine
 10
-63.4876208369958
 20
54.34997706995492
 30
0.0
 11
-58.25632055920943
 21
54.34997706995399
 31
0.0
  0
LINE
  5
2D4
330
6A
100
AcDbEntity
  8
0
  6
Continuous
 62
     7
100
AcDbLine
 10
-57.77500038127566
 20
55.79393760375451
 30
0.0
 11
-57.77500038127425
 21
60.75002298320052
 31
0.0
  0
LINE
  5
2D5
330
6A
100
AcDbEntity
  8
0
  6
Continuous
 62
     7
100
AcDbLine
 10
-62.05000038398842
 20
85.65002283424164
 30
0.0
 11
-63.15000038388558
 21
85.65002283424164
 31
0.0
  0
LINE
  5
2D6
330
6A
100
AcDbEntity
  8
0
  6
Continuous
 62
     7
100
AcDbLine
 10
-64.0250003813388
 20
65.30002298409465
 30
0.0
 11
-57.72500038133464
 21
65.30002298409465
 31
0.0
  0
LINE
  5
2D7
330
6A
100
AcDbEntity
  8
0
  6
Continuous
 62
     7
100
AcDbLine
 10
-57.72500038133464
 20
66.15002298274683
 30
0.0
 11
-57.72500038133464
 21
65.30002298409465
 31
0.0
  0
LINE
  5
2D8
330
6A
100
AcDbEntity
  8
0
  6
Continuous
 62
     7
100
AcDbLine
 10
-62.94654132599416
 20
80.950022754581
 30
0.0
 11
-63.15000038452574
 21
80.95002275449247
 31
0.0
  0
LINE
  5
2D9
330
6A
100
AcDbEntity
  8
0
  6
Continuous
 62
     7
100
AcDbLine
 10
-63.15000038452574
 20
80.95002275449247
 30
0.0
 11
-63.75000038320326
 21
80.95002275509799
 31
0.0
  0
LINE
  5
2DA
330
6A
100
AcDbEntity
  8
0
  6
Continuous
 62
     2
100
AcDbLine
 10
-63.15000038452574
 20
80.95002275449247
 30
0.0
 11
-63.15000038388558
 21
85.65002283424164
 31
0.0
  0
LINE
  5
2DB
330
6A
100
AcDbEntity
  8
0
  6
Continuous
 62
     2
100
AcDbLine
 10
-63.75000038320326
 20
85.65002283424164
 30
0.0
 11
-63.75000038320326
 21
80.95002275509799
 31
0.0
  0
LINE
  5
2DC
330
6A
100
AcDbEntity
  8
0
  6
Continuous
 62
     7
100
AcDbLine
 10
-64.0250003813388
 20
66.15002298274078
 30
0.0
 11
-64.0250003813388
 21
65.30002298409465
 31
0.0
  0
LINE
  5
2DD
330
6A
100
AcDbEntity
  8
0
  6
Continuous
 62
     7
100
AcDbLine
 10
-63.15000038388558
 20
85.65002283424164
 30
0.0
 11
-63.75000038320326
 21
85.65002283424164
 31
0.0
  0
LINE
  5
2DE
330
6A
100
AcDbEntity
  8
0
  6
Continuous
 62
     7
100
AcDbLine
 10
-64.85000038398842
 20
85.65002283424164
 30
0.0
 11
-63.75000038320326
 21
85.65002283424164
 31
0.0
  0
LINE
  5
2DF
330
6A
100
AcDbEntity
  8
0
  6
Continuous
 62
     7
100
AcDbLine
 10
-62.05000038398842
 20
85.65002283424164
 30
0.0
 11
-62.05000038436239
 21
82.10345593256255
 31
0.0
  0
LINE
  5
2E0
330
6A
100
AcDbEntity
  8
0
  6
Continuous
 62
     7
100
AcDbLine
 10
-64.85000038436239
 20
82.1034559319562
 30
0.0
 11
-64.85000038398842
 21
85.65002283424164
 31
0.0
  0
LINE
  5
2E1
330
6A
100
AcDbEntity
  8
0
  6
Continuous
 62
     7
100
AcDbLine
 10
-57.77500038127425
 20
60.75002298320052
 30
0.0
 11
-57.72500038133995
 21
61.0335870738088
 31
0.0
  0
LINE
  5
2E2
330
6A
100
AcDbEntity
  8
0
  6
Continuous
 62
     7
100
AcDbLine
 10
-63.97500038146403
 20
58.19002298272736
 30
0.0
 11
-63.97500038146423
 21
57.05002298275694
 31
0.0
  0
LINE
  5
2E3
330
6A
100
AcDbEntity
  8
0
  6
Continuous
 62
     7
100
AcDbLine
 10
-63.97500038146423
 20
57.05002298275694
 30
0.0
 11
-63.97500038134488
 21
55.849977069955
 31
0.0
  0
LINE
  5
2E4
330
6A
100
AcDbEntity
  8
0
  6
Continuous
 62
     7
100
AcDbLine
 10
-64.67500038132084
 20
57.05002298275706
 30
0.0
 11
-63.97500038146423
 21
57.05002298275694
 31
0.0
  0
LINE
  5
2E5
330
6A
100
AcDbEntity
  8
0
  6
Continuous
 62
     7
100
AcDbLine
 10
-64.02500038146367
 20
63.34380520069186
 30
0.0
 11
-64.02500038134411
 21
61.03358707373377
 31
0.0
  0
LINE
  5
2E6
330
6A
100
AcDbEntity
  8
0
  6
Continuous
 62
     7
100
AcDbLine
 10
-64.02500038134411
 20
61.03358707373377
 30
0.0
 11
-63.97500038134403
 21
60.7500229827524
 31
0.0
  0
LINE
  5
2E7
330
6A
100
AcDbEntity
  8
0
  6
Continuous
 62
     7
100
AcDbLine
 10
-67.07500038131624
 20
65.15002298275718
 30
0.0
 11
-67.07500038131995
 21
57.05002298275748
 31
0.0
  0
LINE
  5
2E8
330
6A
100
AcDbEntity
  8
0
  6
Continuous
 62
     7
100
AcDbLine
 10
-64.67500038132067
 20
58.05002298275616
 30
0.0
 11
-64.67500038132084
 21
57.05002298275706
 31
0.0
  0
LINE
  5
2E9
330
6A
100
AcDbEntity
  8
0
  6
Continuous
 62
     7
100
AcDbLine
 10
-64.67500038131978
 20
63.06504591147069
 30
0.0
 11
-64.67500038132067
 21
58.05002298275616
 31
0.0
  0
LINE
  5
2EA
330
6A
100
AcDbEntity
  8
0
  6
Continuous
 62
     7
100
AcDbLine
 10
-67.07500038131995
 20
57.05002298275748
 30
0.0
 11
-64.67500038132084
 21
57.05002298275706
 31
0.0
  0
LINE
  5
2EB
330
6A
100
AcDbEntity
  8
0
  6
Continuous
 62
     7
100
AcDbLine
 10
-64.02500038134411
 20
65.2500229817696
 30
0.0
 11
-64.02500038146367
 21
63.34380520069186
 31
0.0
  0
LINE
  5
2EC
330
6A
100
AcDbEntity
  8
0
  6
Continuous
 62
     7
100
AcDbLine
 10
-65.17500038132215
 20
65.15002298275718
 30
0.0
 11
-65.17500038132226
 21
64.93107131516061
 31
0.0
  0
LINE
  5
2ED
330
6A
100
AcDbEntity
  8
0
  6
Continuous
 62
     7
100
AcDbLine
 10
-65.17500038132215
 20
65.15002298275718
 30
0.0
 11
-67.07500038131624
 21
65.15002298275718
 31
0.0
  0
LINE
  5
2EE
330
6A
100
AcDbEntity
  8
0
  6
Continuous
 62
     7
100
AcDbLine
 10
-65.17500038132195
 20
65.65002298275718
 30
0.0
 11
-65.17500038132215
 21
65.15002298275718
 31
0.0
  0
LINE
  5
2EF
330
6A
100
AcDbEntity
  8
0
  6
Continuous
 62
     7
100
AcDbLine
 10
-64.42500038146575
 20
64.83662552369503
 30
0.0
 11
-64.42500038146854
 21
65.18111505057556
 31
0.0
  0
LINE
  5
2F0
330
6A
100
AcDbEntity
  8
0
  6
Continuous
 62
     2
100
AcDbLine
 10
-65.17500038132195
 20
65.65002298275718
 30
0.0
 11
-66.57500038131624
 21
65.65002298275718
 31
0.0
  0
LINE
  5
2F1
330
6A
100
AcDbEntity
  8
0
  6
Continuous
 62
     7
100
AcDbLine
 10
-66.57500038132194
 20
66.15002298274152
 30
0.0
 11
-66.57500038131624
 21
65.65002298275718
 31
0.0
  0
LINE
  5
2F2
330
6A
100
AcDbEntity
  8
0
  6
Continuous
 62
     7
100
AcDbLine
 10
-65.17500038132195
 20
65.65002298275718
 30
0.0
 11
-65.17500038132175
 21
66.15002298274112
 31
0.0
  0
LINE
  5
2F3
330
6A
100
AcDbEntity
  8
0
  6
Continuous
 62
     7
100
AcDbLine
 10
-65.17500038132175
 20
66.15002298274112
 30
0.0
 11
-65.02500038130609
 21
66.15002298274106
 31
0.0
  0
LINE
  5
2F4
330
6A
100
AcDbEntity
  8
0
  6
Continuous
 62
     7
100
AcDbLine
 10
-66.57500038132194
 20
66.15002298274152
 30
0.0
 11
-65.17500038132175
 21
66.15002298274112
 31
0.0
  0
LINE
  5
2F5
330
6A
100
AcDbEntity
  8
0
  6
Continuous
 62
     7
100
AcDbLine
 10
-65.02500038130609
 20
66.15002298274106
 30
0.0
 11
-64.0250003813388
 21
66.15002298274078
 31
0.0
  0
LINE
  5
2F6
330
6A
100
AcDbEntity
  8
0
  6
Continuous
 62
     7
100
AcDbLine
 10
-64.72020533645504
 20
81.52176690070323
 30
0.0
 11
-64.80843275121424
 21
81.818136114504
 31
0.0
  0
LINE
  5
2F7
330
6A
100
AcDbEntity
  8
0
  6
Continuous
 62
     7
100
AcDbLine
 10
-67.17500038134568
 20
70.2250229827468
 30
0.0
 11
-67.1750003813443
 21
76.5500229827519
 31
0.0
  0
LINE
  5
2F8
330
6A
100
AcDbEntity
  8
0
  6
Continuous
 62
     7
100
AcDbLine
 10
-68.24500038134465
 20
70.22502298274637
 30
0.0
 11
-67.17500038134568
 21
70.2250229827468
 31
0.0
  0
LINE
  5
2F9
330
6A
100
AcDbEntity
  8
0
  6
Continuous
 62
     7
100
AcDbLine
 10
-68.24500038134465
 20
70.22502298274637
 30
0.0
 11
-68.24500038134397
 21
70.49733060388704
 31
0.0
  0
LINE
  5
2FA
330
6A
100
AcDbEntity
  8
0
  6
Continuous
 62
     7
100
AcDbLine
 10
-68.11153175846803
 20
66.15002298274194
 30
0.0
 11
-66.57500038132194
 21
66.15002298274152
 31
0.0
  0
LINE
  5
2FB
330
6A
100
AcDbEntity
  8
0
  6
Continuous
 62
     7
100
AcDbLine
 10
-64.8076707400086
 20
65.77359700202274
 30
0.0
 11
-65.02500038130609
 21
66.15002298274106
 31
0.0
  0
LINE
  5
2FC
330
6A
100
AcDbEntity
  8
0
  6
Continuous
 62
     7
100
AcDbLine
 10
-64.02500038146367
 20
63.34380520069186
 30
0.0
 11
-64.42500038146575
 21
64.83662552369503
 31
0.0
  0
LINE
  5
2FD
330
6A
100
AcDbEntity
  8
0
  6
Continuous
 62
     7
100
AcDbLine
 10
-64.67500038131978
 20
63.06504591147069
 30
0.0
 11
-65.17500038132226
 21
64.93107131516061
 31
0.0
  0
LINE
  5
2FE
330
6A
100
AcDbEntity
  8
0
  6
Continuous
 62
     7
100
AcDbLine
 10
-63.97500038146403
 20
58.19002298272736
 30
0.0
 11
-64.67500038132067
 21
58.05002298275616
 31
0.0
  0
LINE
  5
2FF
330
6A
100
AcDbEntity
  8
0
  6
Continuous
 62
     7
100
AcDbLine
 10
-63.97500038134403
 20
60.7500229827524
 30
0.0
 11
-63.97500038146403
 21
58.19002298272736
 31
0.0
  0
LINE
  5
300
330
6A
100
AcDbEntity
  8
0
  6
Continuous
 62
     7
100
AcDbLine
 10
-63.97500038134488
 20
55.849977069955
 30
0.0
 11
-63.4876208369958
 21
54.34997706995492
 31
0.0
  0
LINE
  5
301
330
6A
100
AcDbEntity
  8
0
  6
Continuous
 62
     7
100
AcDbLine
 10
-66.61530605723658
 20
84.90239572391258
 30
0.0
 11
-67.38612965401006
 21
78.62454131474703
 31
0.0
  0
ARC
  5
302
330
6A
100
AcDbEntity
  8
0
  6
Continuous
 62
     7
100
AcDbCircle
 10
-62.94654132599436
 20
81.75002275458098
 30
0.0
 40
0.799999999999983
100
AcDbArc
 50
270.0000000000143
 51
343.422033450565
  0
ARC
  5
303
330
6A
100
AcDbEntity
  8
0
  6
Continuous
 62
     7
100
AcDbCircle
 10
-63.9534594429736
 20
81.75002275458075
 30
0.0
 40
0.8000000000000019
100
AcDbArc
 50
196.5779665494519
 51
270.0000000000188
  0
ARC
  5
304
330
6A
100
AcDbEntity
  8
0
  6
Continuous
 62
     7
100
AcDbCircle
 10
-56.6750003807707
 20
65.18111505006604
 30
0.0
 40
0.6499999999999991
100
AcDbArc
 50
114.285039730858
 51
179.9999999994864
  0
ARC
  5
305
330
6A
100
AcDbEntity
  8
0
  6
Continuous
 62
     7
100
AcDbCircle
 10
-63.05000038436239
 20
82.1034559326678
 30
0.0
 40
0.9999999999999952
100
AcDbArc
 50
343.4220334505484
 51
359.9999999939699
  0
ARC
  5
306
330
6A
100
AcDbEntity
  8
0
  6
Continuous
 62
     7
100
AcDbCircle
 10
-63.85000038436239
 20
82.1034559318507
 30
0.0
 40
1.0
100
AcDbArc
 50
179.9999999939552
 51
196.5779665494396
  0
ARC
  5
307
330
6A
100
AcDbEntity
  8
0
  6
Continuous
 62
     7
100
AcDbCircle
 10
-65.07500038146854
 20
65.1811150505703
 30
0.0
 40
0.6500000000000057
100
AcDbArc
 50
0.00000000046348
 51
65.714960286845
  0
ARC
  5
308
330
6A
100
AcDbEntity
  8
0
  6
Continuous
 62
     7
100
AcDbCircle
 10
-67.07500038131624
 20
65.65002298275846
 30
0.0
 40
0.500000000001279
100
AcDbArc
 50
270.0
 51
359.9999999998535
  0
SPLINE
  5
309
330
6A
100
AcDbEntity
  8
0
  6
Continuous
 62
     7
100
AcDbSpline
210
0.0
220
0.0
230
1.0
 70
    24
 71
     3
 72
    11
 73
     7
 74
     5
 42
0.000000001
 43
0.0000000001
 44
0.00000001
 40
0.0
 40
0.0
 40
0.0
 40
0.0
 40
0.0125000005812694
 40
0.0250000011625389
 40
0.0375000017438083
 40
0.0500000023250493
 40
0.0500000023250493
 40
0.0500000023250493
 40
0.0500000023250493
 10
-57.72500038133995
 20
65.2500229817696
 30
0.0
 10
-57.72500038133951
 20
65.25418964863003
 30
0.0
 10
-57.72500038133863
 20
65.26252298235087
 30
0.0
 10
-57.72500038133735
 20
65.27502298293214
 30
0.0
 10
-57.725000381336
 20
65.28752298351338
 30
0.0
 10
-57.7250003813351
 20
65.29585631723425
 30
0.0
 10
-57.72500038133464
 20
65.30002298409465
 30
0.0
 11
-57.72500038133995
 21
65.2500229817696
 31
0.0
 11
-57.72500038133863
 21
65.26252298235086
 31
0.0
 11
-57.7250003813373
 21
65.27502298293211
 31
0.0
 11
-57.72500038133596
 21
65.28752298351338
 31
0.0
 11
-57.72500038133464
 21
65.30002298409465
 31
0.0
  0
SPLINE
  5
30A
330
6A
100
AcDbEntity
  8
0
  6
Continuous
 62
     7
100
AcDbSpline
210
0.0
220
0.0
230
1.0
 70
    24
 71
     3
 72
    11
 73
     7
 74
     5
 42
0.000000001
 43
0.0000000001
 44
0.00000001
 40
0.0
 40
0.0
 40
0.0
 40
0.0
 40
0.012500000581241
 40
0.0250000011625247
 40
0.0375000017437657
 40
0.0500000023250493
 40
0.0500000023250493
 40
0.0500000023250493
 40
0.0500000023250493
 10
-64.02500038134411
 20
65.2500229817696
 30
0.0
 10
-64.02500038134367
 20
65.25418964863002
 30
0.0
 10
-64.02500038134276
 20
65.26252298235086
 30
0.0
 10
-64.0250003813415
 20
65.27502298293211
 30
0.0
 10
-64.02500038134015
 20
65.28752298351338
 30
0.0
 10
-64.02500038133925
 20
65.29585631723423
 30
0.0
 10
-64.0250003813388
 20
65.30002298409465
 30
0.0
 11
-64.02500038134411
 21
65.2500229817696
 31
0.0
 11
-64.02500038134279
 21
65.26252298235086
 31
0.0
 11
-64.02500038134147
 21
65.27502298293211
 31
0.0
 11
-64.02500038134013
 21
65.28752298351337
 31
0.0
 11
-64.0250003813388
 21
65.30002298409465
 31
0.0
  0
ENDBLK
  5
6C
330
6A
100
AcDbEntity
  8
0
100
AcDbBlockEnd
  0
BLOCK
  5
6F
330
6D
100
AcDbEntity
  8
0
100
AcDbBlockBegin
  2
Vordans1
 70
     0
 10
-60.62500017879401
 20
69.99999999963501
 30
0.0
  3
Vordans1
  1

  0
INSERT
  5
6E
330
6D
100
AcDbEntity
  8
0
100
AcDbBlockReference
  2
PP_H_1_5_S_1_R-select__6
 10
-68.8750003816896
 20
54.34997706995399
 30
0.0
  0
MTEXT
  5
30B
330
6D
100
AcDbEntity
  8
1
 62
     6
100
AcDbMText
 10
-70.63888229952607
 20
43.42497701608353
 30
0.0
 40
2.5
 41
0.0
 71
     2
 72
     1
  1
 
  7
CONVERTER_11
 73
     1
 44
1.32052821128451
  0
DIMENSION
  5
316
330
6D
100
AcDbEntity
  8
1
100
AcDbDimension
  2
*D18
 10
-78.88552473027482
 20
85.65002283424181
 30
0.0
 11
-80.59802473027483
 21
75.46568781319627
 31
0.0
 70
    32
  1
<>
 71
     5
 42
-1.0
 53
90.0
  3
ME10_DIM_11
100
AcDbAlignedDimension
 13
-68.11153175846803
 23
66.15002298274194
 33
0.0
 14
-68.13552473027474
 24
85.65002283424164
 34
0.0
 50
90.0
100
AcDbRotatedDimension
  0
DIMENSION
  5
321
330
6D
100
AcDbEntity
  8
1
100
AcDbDimension
  2
*D19
 10
-86.22776423621701
 20
85.65002283424167
 30
0.0
 11
-87.94026423621702
 21
70.03421513609504
 31
0.0
 70
    32
  1
<>
 71
     5
 42
-1.0
 53
90.0
  3
ME10_DIM_12
100
AcDbAlignedDimension
 13
-63.4876208369958
 23
54.34997706995492
 33
0.0
 14
-68.13552473027474
 24
85.65002283424164
 34
0.0
 50
90.0
100
AcDbRotatedDimension
  0
DIMENSION
  5
32C
330
6D
100
AcDbEntity
  8
1
100
AcDbDimension
  2
*D20
 10
-68.87500038134365
 20
46.67497701608354
 30
0.0
 11
-60.62500017879387
 21
48.38747701608354
 31
0.0
 70
    32
  1
<>
 71
     5
 42
-1.0
 53
0.00013888888889
  3
ME10_DIM_13
100
AcDbAlignedDimension
 13
-52.37500036283518
 23
71.8333563767317
 33
0.0
 14
-68.87500038134368
 24
68.49973779920975
 34
0.0
100
AcDbRotatedDimension
  0
ENDBLK
  5
70
330
6D
100
AcDbEntity
  8
0
100
AcDbBlockEnd
  0
BLOCK
  5
72
330
71
100
AcDbEntity
  8
0
100
AcDbBlockBegin
  2
_rahmen
 70
     0
 10
50.59607113621699
 20
9.56401123545845
 30
0.0
  3
_rahmen
  1

  0
LINE
  5
32D
330
71
100
AcDbEntity
  8
1
  6
DOT_CENTER
 62
     2
100
AcDbLine
 10
-74.96207850397042
 20
35.68901123545848
 30
0.0
 11
-69.46207850397042
 21
35.68901123545848
 31
0.0
  0
LINE
  5
32E
330
71
100
AcDbEntity
  8
1
  6
PHANTOM
 62
     2
100
AcDbLine
 10
-66.21207850397042
 20
38.43901123545848
 30
0.0
 11
-66.21207850397042
 21
32.93901123545848
 31
0.0
  0
LINE
  5
32F
330
71
100
AcDbEntity
  8
1
  6
PHANTOM
 62
     2
100
AcDbLine
 10
-63.46207850397042
 20
35.68901123545848
 30
0.0
 11
-68.96207850397042
 21
35.68901123545848
 31
0.0
  0
LINE
  5
330
330
71
100
AcDbEntity
  8
1
  6
Continuous
 62
     7
100
AcDbLine
 10
-14.64873339053301
 20
23.06401123545848
 30
0.0
 11
-14.64873339053301
 21
31.56401123545857
 31
0.0
  0
LINE
  5
331
330
71
100
AcDbEntity
  8
1
  6
Continuous
 62
     6
100
AcDbLine
 10
-42.5487333905331
 20
31.56401123545857
 30
0.0
 11
50.59607113621868
 21
31.56401123545857
 31
0.0
  0
LINE
  5
332
330
71
100
AcDbEntity
  8
1
  6
Continuous
 62
     7
100
AcDbLine
 10
-78.94873339053302
 20
31.56401123545857
 30
0.0
 11
-78.94873339053302
 21
40.06401123545857
 31
0.0
  0
LINE
  5
333
330
71
100
AcDbEntity
  8
1
  6
Continuous
 62
     7
100
AcDbLine
 10
-42.5487333905331
 20
31.56401123545857
 30
0.0
 11
-42.5487333905331
 21
40.06401123545857
 31
0.0
  0
LINE
  5
334
330
71
100
AcDbEntity
  8
1
  6
Continuous
 62
     7
100
AcDbLine
 10
15.17766285453988
 20
40.06401123545857
 30
0.0
 11
15.17766285453988
 21
31.56401123545857
 31
0.0
  0
LINE
  5
335
330
71
100
AcDbEntity
  8
1
  6
Continuous
 62
     7
100
AcDbLine
 10
41.67766285453948
 20
40.06401123545857
 30
0.0
 11
41.67766285453948
 21
31.56401123545857
 31
0.0
  0
LINE
  5
336
330
71
100
AcDbEntity
  8
1
  6
Continuous
 62
     6
100
AcDbLine
 10
-147.948733390533
 20
14.56401123545857
 30
0.0
 11
-192.903928863783
 21
14.56401123545857
 31
0.0
  0
LINE
  5
337
330
71
100
AcDbEntity
  8
1
  6
Continuous
 62
     7
100
AcDbLine
 10
50.59607113621829
 20
23.06401123545857
 30
0.0
 11
-42.5487333905331
 21
23.06401123545857
 31
0.0
  0
LINE
  5
338
102
{ACAD_REACTORS
330
44A
330
44B
102
}
330
71
100
AcDbEntity
  8
0
  6
Continuous
 62
     2
100
AcDbLine
 10
-65.24130444876562
 20
23.86430035112187
 30
0.0
 11
-65.24130444876562
 21
24.73681735792516
 31
0.0
  0
LINE
  5
339
102
{ACAD_REACTORS
330
44A
330
44B
102
}
330
71
100
AcDbEntity
  8
0
  6
Continuous
 62
     2
100
AcDbLine
 10
-65.24130444876562
 20
22.90453164363896
 30
0.0
 11
-65.24130444876562
 21
22.03201463683575
 31
0.0
  0
LINE
  5
33A
102
{ACAD_REACTORS
330
44C
330
44D
102
}
330
71
100
AcDbEntity
  8
0
  6
Continuous
 62
     2
100
AcDbLine
 10
-49.90826031247511
 20
24.12605545316237
 30
0.0
 11
-48.80462101290701
 21
24.12605545316237
 31
0.0
  0
LINE
  5
33B
102
{ACAD_REACTORS
330
44C
330
44D
102
}
330
71
100
AcDbEntity
  8
0
  6
Continuous
 62
     2
100
AcDbLine
 10
-49.1386029695137
 20
22.90453164363848
 30
0.0
 11
-49.1386029695137
 21
22.03201463683516
 31
0.0
  0
LINE
  5
33C
102
{ACAD_REACTORS
330
456
330
457
102
}
330
71
100
AcDbEntity
  8
0
  6
Continuous
 62
     2
100
AcDbLine
 10
-50.99935958489363
 20
25.21670171164917
 30
0.0
 11
-49.60140653795332
 21
26.79756070542416
 31
0.0
  0
LINE
  5
33D
102
{ACAD_REACTORS
330
456
330
457
102
}
330
71
100
AcDbEntity
  8
0
  6
Continuous
 62
     2
100
AcDbLine
 10
-50.9039361687208
 20
28.27051123546036
 30
0.0
 11
-49.60140653795332
 21
26.79756070542416
 31
0.0
  0
LINE
  5
33E
102
{ACAD_REACTORS
330
456
330
457
102
}
330
71
100
AcDbEntity
  8
0
  6
Continuous
 62
     2
100
AcDbLine
 10
-48.29887690718692
 20
28.27051123546036
 30
0.0
 11
-46.8961526894397
 21
28.27051123546036
 31
0.0
  0
LINE
  5
33F
102
{ACAD_REACTORS
330
456
330
457
102
}
330
71
100
AcDbEntity
  8
0
  6
Continuous
 62
     2
100
AcDbLine
 10
-49.59663536714541
 20
25.21670171164917
 30
0.0
 11
-48.90004442907971
 21
26.00443349694288
 31
0.0
  0
LINE
  5
340
102
{ACAD_REACTORS
330
456
330
457
102
}
330
71
100
AcDbEntity
  8
0
  6
Continuous
 62
     2
100
AcDbLine
 10
-49.59663536714541
 20
25.21670171164917
 30
0.0
 11
-50.99935958489363
 21
25.21670171164917
 31
0.0
  0
LINE
  5
341
102
{ACAD_REACTORS
330
458
330
459
102
}
330
71
100
AcDbEntity
  8
0
  6
Continuous
 62
     2
100
AcDbLine
 10
-51.1186388551105
 20
25.21670171164917
 30
0.0
 11
-52.3591432653634
 21
25.21670171164917
 31
0.0
  0
LINE
  5
342
102
{ACAD_REACTORS
330
45A
330
45B
102
}
330
71
100
AcDbEntity
  8
0
  6
Continuous
 62
     2
100
AcDbLine
 10
-53.22712287351851
 20
23.07903504499936
 30
0.0
 11
-53.52728811070861
 21
23.84685001098606
 31
0.0
  0
LINE
  5
343
102
{ACAD_REACTORS
330
45A
330
45B
102
}
330
71
100
AcDbEntity
  8
0
  6
Continuous
 62
     2
100
AcDbLine
 10
-53.82745334790101
 20
23.07903504499936
 30
0.0
 11
-53.22712287351851
 21
23.07903504499936
 31
0.0
  0
LINE
  5
344
102
{ACAD_REACTORS
330
45A
330
45B
102
}
330
71
100
AcDbEntity
  8
0
  6
Continuous
 62
     2
100
AcDbLine
 10
-55.54549336277481
 20
21.85751123547487
 30
0.0
 11
-54.30498895252183
 21
21.85751123547487
 31
0.0
  0
LINE
  5
345
102
{ACAD_REACTORS
330
45A
330
45B
102
}
330
71
100
AcDbEntity
  8
0
  6
Continuous
 62
     2
100
AcDbLine
 10
-54.1475403158355
 20
24.91132075928596
 30
0.0
 11
-52.9070359055828
 21
24.91132075928596
 31
0.0
  0
LINE
  5
346
102
{ACAD_REACTORS
330
45A
330
45B
102
}
330
71
100
AcDbEntity
  8
0
  6
Continuous
 62
     2
100
AcDbLine
 10
-52.9070359055828
 20
24.91132075928596
 30
0.0
 11
-51.5090828586425
 21
21.85751123547487
 31
0.0
  0
LINE
  5
347
102
{ACAD_REACTORS
330
45A
330
45B
102
}
330
71
100
AcDbEntity
  8
0
  6
Continuous
 62
     2
100
AcDbLine
 10
-52.74958726889642
 20
21.85751123547487
 30
0.0
 11
-52.9610673223722
 21
22.39847177969276
 31
0.0
  0
LINE
  5
348
102
{ACAD_REACTORS
330
45C
330
45D
102
}
330
71
100
AcDbEntity
  8
0
  6
Continuous
 62
     2
100
AcDbLine
 10
-56.89190646448242
 20
21.85751123547487
 30
0.0
 11
-55.6991137623159
 21
21.85751123547487
 31
0.0
  0
LINE
  5
349
102
{ACAD_REACTORS
330
45C
330
45D
102
}
330
71
100
AcDbEntity
  8
0
  6
Continuous
 62
     2
100
AcDbLine
 10
-56.89190646448242
 20
24.12605545316237
 30
0.0
 11
-56.89190646448242
 21
21.85751123547487
 31
0.0
  0
LINE
  5
34A
102
{ACAD_REACTORS
330
45C
330
45D
102
}
330
71
100
AcDbEntity
  8
0
  6
Continuous
 62
     2
100
AcDbLine
 10
-57.70300550195702
 20
24.91132075928596
 30
0.0
 11
-57.70300550195702
 21
24.12605545316237
 31
0.0
  0
LINE
  5
34B
102
{ACAD_REACTORS
330
45E
330
45F
102
}
330
71
100
AcDbEntity
  8
0
  6
Continuous
 62
     2
100
AcDbLine
 10
-56.22379162038442
 20
25.21670171164917
 30
0.0
 11
-55.0309989182179
 21
25.21670171164917
 31
0.0
  0
LINE
  5
34C
102
{ACAD_REACTORS
330
45E
330
45F
102
}
330
71
100
AcDbEntity
  8
0
  6
Continuous
 62
     2
100
AcDbLine
 10
-53.7904945079639
 20
26.96173572525518
 30
0.0
 11
-55.0309989182179
 21
28.27051123546036
 31
0.0
  0
LINE
  5
34D
102
{ACAD_REACTORS
330
45E
330
45F
102
}
330
71
100
AcDbEntity
  8
0
  6
Continuous
 62
     2
100
AcDbLine
 10
-52.5977018057973
 20
28.27051123546036
 30
0.0
 11
-53.7904945079639
 21
28.27051123546036
 31
0.0
  0
LINE
  5
34E
102
{ACAD_REACTORS
330
45E
330
45F
102
}
330
71
100
AcDbEntity
  8
0
  6
Continuous
 62
     2
100
AcDbLine
 10
-52.5977018057973
 20
25.21670171164917
 30
0.0
 11
-52.5977018057973
 21
28.27051123546036
 31
0.0
  0
LINE
  5
34F
102
{ACAD_REACTORS
330
45E
330
45F
102
}
330
71
100
AcDbEntity
  8
0
  6
Continuous
 62
     2
100
AcDbLine
 10
-53.7904945079639
 20
25.21670171164917
 30
0.0
 11
-52.5977018057973
 21
25.21670171164917
 31
0.0
  0
LINE
  5
350
102
{ACAD_REACTORS
330
45E
330
45F
102
}
330
71
100
AcDbEntity
  8
0
  6
Continuous
 62
     2
100
AcDbLine
 10
-55.0309989182179
 20
26.52547722185386
 30
0.0
 11
-53.7904945079639
 21
25.21670171164917
 31
0.0
  0
LINE
  5
351
102
{ACAD_REACTORS
330
460
330
461
102
}
330
71
100
AcDbEntity
  8
0
  6
Continuous
 62
     2
100
AcDbLine
 10
-59.03893332838362
 20
23.60254524908086
 30
0.0
 11
-60.27943773863652
 21
24.91132075928596
 31
0.0
  0
LINE
  5
352
102
{ACAD_REACTORS
330
460
330
461
102
}
330
71
100
AcDbEntity
  8
0
  6
Continuous
 62
     2
100
AcDbLine
 10
-59.03893332838362
 20
24.91132075928596
 30
0.0
 11
-59.03893332838362
 21
23.60254524908086
 31
0.0
  0
LINE
  5
353
102
{ACAD_REACTORS
330
460
330
461
102
}
330
71
100
AcDbEntity
  8
0
  6
Continuous
 62
     2
100
AcDbLine
 10
-57.84614062621722
 20
24.91132075928596
 30
0.0
 11
-59.03893332838362
 21
24.91132075928596
 31
0.0
  0
LINE
  5
354
102
{ACAD_REACTORS
330
460
330
461
102
}
330
71
100
AcDbEntity
  8
0
  6
Continuous
 62
     2
100
AcDbLine
 10
-57.84614062621722
 20
21.85751123547487
 30
0.0
 11
-57.84614062621722
 21
24.91132075928596
 31
0.0
  0
LINE
  5
355
102
{ACAD_REACTORS
330
460
330
461
102
}
330
71
100
AcDbEntity
  8
0
  6
Continuous
 62
     2
100
AcDbLine
 10
-60.27943773863652
 20
23.16628674567946
 30
0.0
 11
-59.03893332838362
 21
21.85751123547487
 31
0.0
  0
LINE
  5
356
102
{ACAD_REACTORS
330
460
330
461
102
}
330
71
100
AcDbEntity
  8
0
  6
Continuous
 62
     2
100
AcDbLine
 10
-60.27943773863652
 20
21.85751123547487
 30
0.0
 11
-60.27943773863652
 21
23.16628674567946
 31
0.0
  0
LINE
  5
357
102
{ACAD_REACTORS
330
450
330
451
102
}
330
71
100
AcDbEntity
  8
0
  6
Continuous
 62
     2
100
AcDbLine
 10
-57.798277987245
 20
27.57249763001738
 30
0.0
 11
-56.46235016081732
 21
27.57249763001738
 31
0.0
  0
LINE
  5
358
102
{ACAD_REACTORS
330
450
330
451
102
}
330
71
100
AcDbEntity
  8
0
  6
Continuous
 62
     2
100
AcDbLine
 10
-57.798277987245
 20
25.91471531709166
 30
0.0
 11
-57.798277987245
 21
26.39459967083337
 31
0.0
  0
LINE
  5
359
102
{ACAD_REACTORS
330
450
330
451
102
}
330
71
100
AcDbEntity
  8
0
  6
Continuous
 62
     2
100
AcDbLine
 10
-56.46235016081732
 20
25.91471531709166
 30
0.0
 11
-57.798277987245
 21
25.91471531709166
 31
0.0
  0
LINE
  5
35A
102
{ACAD_REACTORS
330
450
330
451
102
}
330
71
100
AcDbEntity
  8
0
  6
Continuous
 62
     2
100
AcDbLine
 10
-56.46235016081732
 20
25.21670171164917
 30
0.0
 11
-56.46235016081732
 21
25.91471531709166
 31
0.0
  0
LINE
  5
35B
102
{ACAD_REACTORS
330
450
330
451
102
}
330
71
100
AcDbEntity
  8
0
  6
Continuous
 62
     2
100
AcDbLine
 10
-59.61266988459832
 20
25.21670171164917
 30
0.0
 11
-56.46235016081732
 21
25.21670171164917
 31
0.0
  0
LINE
  5
35C
102
{ACAD_REACTORS
330
450
330
451
102
}
330
71
100
AcDbEntity
  8
0
  6
Continuous
 62
     2
100
AcDbLine
 10
-59.61266988459832
 20
28.27051123546036
 30
0.0
 11
-56.46235016081732
 21
28.27051123546036
 31
0.0
  0
LINE
  5
35D
102
{ACAD_REACTORS
330
450
330
451
102
}
330
71
100
AcDbEntity
  8
0
  6
Continuous
 62
     2
100
AcDbLine
 10
-56.46235016081732
 20
27.57249763001738
 30
0.0
 11
-56.46235016081732
 21
28.27051123546036
 31
0.0
  0
LINE
  5
35E
102
{ACAD_REACTORS
330
462
330
463
102
}
330
71
100
AcDbEntity
  8
0
  6
Continuous
 62
     2
100
AcDbLine
 10
-62.47402537973832
 20
27.20167790212577
 30
0.0
 11
-62.47402537973832
 21
28.27051123546036
 31
0.0
  0
LINE
  5
35F
102
{ACAD_REACTORS
330
462
330
463
102
}
330
71
100
AcDbEntity
  8
0
  6
Continuous
 62
     2
100
AcDbLine
 10
-62.47402537973832
 20
28.27051123546036
 30
0.0
 11
-61.28123267757192
 21
28.27051123546036
 31
0.0
  0
LINE
  5
360
102
{ACAD_REACTORS
330
462
330
463
102
}
330
71
100
AcDbEntity
  8
0
  6
Continuous
 62
     2
100
AcDbLine
 10
-62.47402537973832
 20
26.35097382049298
 30
0.0
 11
-63.5236829576458
 21
26.35097382049298
 31
0.0
  0
LINE
  5
361
102
{ACAD_REACTORS
330
462
330
463
102
}
330
71
100
AcDbEntity
  8
0
  6
Continuous
 62
     2
100
AcDbLine
 10
-63.5236829576458
 20
26.35097382049298
 30
0.0
 11
-63.5236829576458
 21
25.21670171164917
 31
0.0
  0
LINE
  5
362
102
{ACAD_REACTORS
330
462
330
463
102
}
330
71
100
AcDbEntity
  8
0
  6
Continuous
 62
     2
100
AcDbLine
 10
-64.7164756598124
 20
28.27051123546036
 30
0.0
 11
-64.7164756598124
 21
25.21670171164917
 31
0.0
  0
LINE
  5
363
102
{ACAD_REACTORS
330
454
330
455
102
}
330
71
100
AcDbEntity
  8
0
  6
Continuous
 62
     2
100
AcDbLine
 10
-66.672655691366
 20
26.90167774067805
 30
0.0
 11
-66.672655691366
 21
27.60740539002026
 31
0.0
  0
LINE
  5
364
102
{ACAD_REACTORS
330
454
330
455
102
}
330
71
100
AcDbEntity
  8
0
  6
Continuous
 62
     2
100
AcDbLine
 10
-67.91316010162012
 20
25.21670171164917
 30
0.0
 11
-66.672655691366
 21
25.21670171164917
 31
0.0
  0
LINE
  5
365
102
{ACAD_REACTORS
330
454
330
455
102
}
330
71
100
AcDbEntity
  8
0
  6
Continuous
 62
     2
100
AcDbLine
 10
-66.672655691366
 20
25.21670171164917
 30
0.0
 11
-66.672655691366
 21
26.15977995279297
 31
0.0
  0
LINE
  5
366
102
{ACAD_REACTORS
330
44E
330
44F
102
}
330
71
100
AcDbEntity
  8
0
  6
Continuous
 62
     2
100
AcDbLine
 10
-72.2181059508315
 20
22.57006679103176
 30
0.0
 11
-73.69393921184113
 21
22.57006679103176
 31
0.0
  0
LINE
  5
367
102
{ACAD_REACTORS
330
44E
330
44F
102
}
330
71
100
AcDbEntity
  8
0
  6
Continuous
 62
     2
100
AcDbLine
 10
-74.71207850397042
 20
27.84626662005837
 30
0.0
 11
-74.71207850397042
 21
22.28175585085816
 31
0.0
  0
LINE
  5
368
102
{ACAD_REACTORS
330
44E
330
44F
102
}
330
71
100
AcDbEntity
  8
0
  6
Continuous
 62
     2
100
AcDbLine
 10
-74.28783388858761
 20
28.27051123544217
 30
0.0
 11
-68.81452179787081
 21
28.27051123544217
 31
0.0
  0
LINE
  5
369
102
{ACAD_REACTORS
330
44E
330
44F
102
}
330
71
100
AcDbEntity
  8
0
  6
Continuous
 62
     2
100
AcDbLine
 10
-68.39027718248693
 20
27.84626662005837
 30
0.0
 11
-68.39027718248693
 21
22.28175585085816
 31
0.0
  0
LINE
  5
36A
102
{ACAD_REACTORS
330
44E
330
44F
102
}
330
71
100
AcDbEntity
  8
0
  6
Continuous
 62
     2
100
AcDbLine
 10
-68.81452179787081
 20
21.85751123547487
 30
0.0
 11
-74.28783388858761
 21
21.85751123547487
 31
0.0
  0
LINE
  5
36B
102
{ACAD_REACTORS
330
44E
330
44F
102
}
330
71
100
AcDbEntity
  8
0
  6
Continuous
 62
     2
100
AcDbLine
 10
-71.90238902775491
 20
22.88578371410847
 30
0.0
 11
-71.90238902775491
 21
24.41655464564008
 31
0.0
  0
LINE
  5
36C
102
{ACAD_REACTORS
330
44E
330
44F
102
}
330
71
100
AcDbEntity
  8
0
  6
Continuous
 62
     2
100
AcDbLine
 10
-71.90238902775491
 20
26.63821413776506
 30
0.0
 11
-71.90238902775491
 21
27.24223875682557
 31
0.0
  0
LINE
  5
36D
102
{ACAD_REACTORS
330
44E
330
44F
102
}
330
71
100
AcDbEntity
  8
0
  6
Continuous
 62
     2
100
AcDbLine
 10
-73.69393921184113
 20
27.55795567990177
 30
0.0
 11
-72.2181059508315
 21
27.55795567990177
 31
0.0
  0
LINE
  5
36E
102
{ACAD_REACTORS
330
44E
330
44F
102
}
330
71
100
AcDbEntity
  8
0
  6
Continuous
 62
     2
100
AcDbLine
 10
-74.00965613491681
 20
27.24223875682557
 30
0.0
 11
-74.00965613491681
 21
22.88578371410847
 31
0.0
  0
LINE
  5
36F
102
{ACAD_REACTORS
330
454
330
455
102
}
330
71
100
AcDbEntity
  8
0
  6
Continuous
 62
     2
100
AcDbLine
 10
-66.672655691366
 20
26.15977995279297
 30
0.0
 11
-65.91388810358572
 21
26.15977995279297
 31
0.0
  0
LINE
  5
370
102
{ACAD_REACTORS
330
454
330
455
102
}
330
71
100
AcDbEntity
  8
0
  6
Continuous
 62
     2
100
AcDbLine
 10
-67.91316010162012
 20
28.27051123546036
 30
0.0
 11
-65.91388810358572
 21
28.27051123546036
 31
0.0
  0
LINE
  5
371
102
{ACAD_REACTORS
330
454
330
455
102
}
330
71
100
AcDbEntity
  8
0
  6
Continuous
 62
     2
100
AcDbLine
 10
-67.91316010162012
 20
28.27051123546036
 30
0.0
 11
-67.91316010162012
 21
25.21670171164917
 31
0.0
  0
LINE
  5
372
102
{ACAD_REACTORS
330
454
330
455
102
}
330
71
100
AcDbEntity
  8
0
  6
Continuous
 62
     2
100
AcDbLine
 10
-66.672655691366
 20
26.90167774067805
 30
0.0
 11
-66.3553606298241
 21
26.90167774067805
 31
0.0
  0
LINE
  5
373
102
{ACAD_REACTORS
330
454
330
455
102
}
330
71
100
AcDbEntity
  8
0
  6
Continuous
 62
     2
100
AcDbLine
 10
-66.672655691366
 20
27.60740539002026
 30
0.0
 11
-66.3553606298241
 21
27.60740539002026
 31
0.0
  0
LINE
  5
374
102
{ACAD_REACTORS
330
462
330
463
102
}
330
71
100
AcDbEntity
  8
0
  6
Continuous
 62
     2
100
AcDbLine
 10
-63.5236829576458
 20
27.20167790212577
 30
0.0
 11
-62.47402537973832
 21
27.20167790212577
 31
0.0
  0
LINE
  5
375
102
{ACAD_REACTORS
330
462
330
463
102
}
330
71
100
AcDbEntity
  8
0
  6
Continuous
 62
     2
100
AcDbLine
 10
-63.5236829576458
 20
28.27051123546036
 30
0.0
 11
-63.5236829576458
 21
27.20167790212577
 31
0.0
  0
LINE
  5
376
102
{ACAD_REACTORS
330
462
330
463
102
}
330
71
100
AcDbEntity
  8
0
  6
Continuous
 62
     2
100
AcDbLine
 10
-64.7164756598124
 20
28.27051123546036
 30
0.0
 11
-63.5236829576458
 21
28.27051123546036
 31
0.0
  0
LINE
  5
377
102
{ACAD_REACTORS
330
462
330
463
102
}
330
71
100
AcDbEntity
  8
0
  6
Continuous
 62
     2
100
AcDbLine
 10
-63.5236829576458
 20
25.21670171164917
 30
0.0
 11
-64.7164756598124
 21
25.21670171164917
 31
0.0
  0
LINE
  5
378
102
{ACAD_REACTORS
330
462
330
463
102
}
330
71
100
AcDbEntity
  8
0
  6
Continuous
 62
     2
100
AcDbLine
 10
-62.47402537973832
 20
25.21670171164917
 30
0.0
 11
-62.47402537973832
 21
26.35097382049298
 31
0.0
  0
LINE
  5
379
102
{ACAD_REACTORS
330
462
330
463
102
}
330
71
100
AcDbEntity
  8
0
  6
Continuous
 62
     2
100
AcDbLine
 10
-61.28123267757192
 20
25.21670171164917
 30
0.0
 11
-62.47402537973832
 21
25.21670171164917
 31
0.0
  0
LINE
  5
37A
102
{ACAD_REACTORS
330
462
330
463
102
}
330
71
100
AcDbEntity
  8
0
  6
Continuous
 62
     2
100
AcDbLine
 10
-61.28123267757192
 20
28.27051123546036
 30
0.0
 11
-61.28123267757192
 21
25.21670171164917
 31
0.0
  0
LINE
  5
37B
102
{ACAD_REACTORS
330
450
330
451
102
}
330
71
100
AcDbEntity
  8
0
  6
Continuous
 62
     2
100
AcDbLine
 10
-57.798277987245
 20
26.39459967083337
 30
0.0
 11
-56.46235016081732
 21
26.39459967083337
 31
0.0
  0
LINE
  5
37C
102
{ACAD_REACTORS
330
450
330
451
102
}
330
71
100
AcDbEntity
  8
0
  6
Continuous
 62
     2
100
AcDbLine
 10
-56.46235016081732
 20
26.39459967083337
 30
0.0
 11
-56.46235016081732
 21
27.09261327627567
 31
0.0
  0
LINE
  5
37D
102
{ACAD_REACTORS
330
450
330
451
102
}
330
71
100
AcDbEntity
  8
0
  6
Continuous
 62
     2
100
AcDbLine
 10
-56.46235016081732
 20
27.09261327627567
 30
0.0
 11
-57.798277987245
 21
27.09261327627567
 31
0.0
  0
LINE
  5
37E
102
{ACAD_REACTORS
330
450
330
451
102
}
330
71
100
AcDbEntity
  8
0
  6
Continuous
 62
     2
100
AcDbLine
 10
-57.798277987245
 20
27.09261327627567
 30
0.0
 11
-57.798277987245
 21
27.57249763001738
 31
0.0
  0
LINE
  5
37F
102
{ACAD_REACTORS
330
460
330
461
102
}
330
71
100
AcDbEntity
  8
0
  6
Continuous
 62
     2
100
AcDbLine
 10
-61.47223044080411
 20
21.85751123547487
 30
0.0
 11
-60.27943773863652
 21
21.85751123547487
 31
0.0
  0
LINE
  5
380
102
{ACAD_REACTORS
330
460
330
461
102
}
330
71
100
AcDbEntity
  8
0
  6
Continuous
 62
     2
100
AcDbLine
 10
-59.03893332838362
 20
21.85751123547487
 30
0.0
 11
-57.84614062621722
 21
21.85751123547487
 31
0.0
  0
LINE
  5
381
102
{ACAD_REACTORS
330
460
330
461
102
}
330
71
100
AcDbEntity
  8
0
  6
Continuous
 62
     2
100
AcDbLine
 10
-60.27943773863652
 20
24.91132075928596
 30
0.0
 11
-61.47223044080411
 21
24.91132075928596
 31
0.0
  0
LINE
  5
382
102
{ACAD_REACTORS
330
460
330
461
102
}
330
71
100
AcDbEntity
  8
0
  6
Continuous
 62
     2
100
AcDbLine
 10
-61.47223044080411
 20
24.91132075928596
 30
0.0
 11
-61.47223044080411
 21
21.85751123547487
 31
0.0
  0
LINE
  5
383
102
{ACAD_REACTORS
330
45E
330
45F
102
}
330
71
100
AcDbEntity
  8
0
  6
Continuous
 62
     2
100
AcDbLine
 10
-53.7904945079639
 20
28.27051123546036
 30
0.0
 11
-53.7904945079639
 21
26.96173572525518
 31
0.0
  0
LINE
  5
384
102
{ACAD_REACTORS
330
45E
330
45F
102
}
330
71
100
AcDbEntity
  8
0
  6
Continuous
 62
     2
100
AcDbLine
 10
-55.0309989182179
 20
28.27051123546036
 30
0.0
 11
-56.22379162038442
 21
28.27051123546036
 31
0.0
  0
LINE
  5
385
102
{ACAD_REACTORS
330
45E
330
45F
102
}
330
71
100
AcDbEntity
  8
0
  6
Continuous
 62
     2
100
AcDbLine
 10
-56.22379162038442
 20
28.27051123546036
 30
0.0
 11
-56.22379162038442
 21
25.21670171164917
 31
0.0
  0
LINE
  5
386
102
{ACAD_REACTORS
330
45E
330
45F
102
}
330
71
100
AcDbEntity
  8
0
  6
Continuous
 62
     2
100
AcDbLine
 10
-55.0309989182179
 20
25.21670171164917
 30
0.0
 11
-55.0309989182179
 21
26.52547722185386
 31
0.0
  0
LINE
  5
387
102
{ACAD_REACTORS
330
45C
330
45D
102
}
330
71
100
AcDbEntity
  8
0
  6
Continuous
 62
     2
100
AcDbLine
 10
-55.6991137623159
 20
21.85751123547487
 30
0.0
 11
-55.6991137623159
 21
24.12605545316237
 31
0.0
  0
LINE
  5
388
102
{ACAD_REACTORS
330
45C
330
45D
102
}
330
71
100
AcDbEntity
  8
0
  6
Continuous
 62
     2
100
AcDbLine
 10
-55.6991137623159
 20
24.12605545316237
 30
0.0
 11
-54.8880147248434
 21
24.12605545316237
 31
0.0
  0
LINE
  5
389
102
{ACAD_REACTORS
330
45C
330
45D
102
}
330
71
100
AcDbEntity
  8
0
  6
Continuous
 62
     2
100
AcDbLine
 10
-54.8880147248434
 20
24.12605545316237
 30
0.0
 11
-54.8880147248434
 21
24.91132075928596
 31
0.0
  0
LINE
  5
38A
102
{ACAD_REACTORS
330
45C
330
45D
102
}
330
71
100
AcDbEntity
  8
0
  6
Continuous
 62
     2
100
AcDbLine
 10
-54.8880147248434
 20
24.91132075928596
 30
0.0
 11
-57.70300550195702
 21
24.91132075928596
 31
0.0
  0
LINE
  5
38B
102
{ACAD_REACTORS
330
45C
330
45D
102
}
330
71
100
AcDbEntity
  8
0
  6
Continuous
 62
     2
100
AcDbLine
 10
-57.70300550195702
 20
24.12605545316237
 30
0.0
 11
-56.89190646448242
 21
24.12605545316237
 31
0.0
  0
LINE
  5
38C
102
{ACAD_REACTORS
330
45A
330
45B
102
}
330
71
100
AcDbEntity
  8
0
  6
Continuous
 62
     2
100
AcDbLine
 10
-54.09350889904601
 20
22.39847177969276
 30
0.0
 11
-52.9610673223722
 21
22.39847177969276
 31
0.0
  0
LINE
  5
38D
102
{ACAD_REACTORS
330
45A
330
45B
102
}
330
71
100
AcDbEntity
  8
0
  6
Continuous
 62
     2
100
AcDbLine
 10
-51.5090828586425
 20
21.85751123547487
 30
0.0
 11
-52.74958726889642
 21
21.85751123547487
 31
0.0
  0
LINE
  5
38E
102
{ACAD_REACTORS
330
45A
330
45B
102
}
330
71
100
AcDbEntity
  8
0
  6
Continuous
 62
     2
100
AcDbLine
 10
-54.1475403158355
 20
24.91132075928596
 30
0.0
 11
-55.54549336277481
 21
21.85751123547487
 31
0.0
  0
LINE
  5
38F
102
{ACAD_REACTORS
330
45A
330
45B
102
}
330
71
100
AcDbEntity
  8
0
  6
Continuous
 62
     2
100
AcDbLine
 10
-54.30498895252183
 20
21.85751123547487
 30
0.0
 11
-54.09350889904601
 21
22.39847177969276
 31
0.0
  0
LINE
  5
390
102
{ACAD_REACTORS
330
45A
330
45B
102
}
330
71
100
AcDbEntity
  8
0
  6
Continuous
 62
     2
100
AcDbLine
 10
-53.82745334790101
 20
23.07903504499936
 30
0.0
 11
-53.52728811070861
 21
23.84685001098606
 31
0.0
  0
LINE
  5
391
102
{ACAD_REACTORS
330
458
330
459
102
}
330
71
100
AcDbEntity
  8
0
  6
Continuous
 62
     2
100
AcDbLine
 10
-52.3591432653634
 20
25.21670171164917
 30
0.0
 11
-52.3591432653634
 21
28.27051123546036
 31
0.0
  0
LINE
  5
392
102
{ACAD_REACTORS
330
458
330
459
102
}
330
71
100
AcDbEntity
  8
0
  6
Continuous
 62
     2
100
AcDbLine
 10
-51.1186388551105
 20
28.27051123546036
 30
0.0
 11
-51.1186388551105
 21
25.21670171164917
 31
0.0
  0
LINE
  5
393
102
{ACAD_REACTORS
330
458
330
459
102
}
330
71
100
AcDbEntity
  8
0
  6
Continuous
 62
     2
100
AcDbLine
 10
-52.3591432653634
 20
28.27051123546036
 30
0.0
 11
-51.1186388551105
 21
28.27051123546036
 31
0.0
  0
LINE
  5
394
102
{ACAD_REACTORS
330
456
330
457
102
}
330
71
100
AcDbEntity
  8
0
  6
Continuous
 62
     2
100
AcDbLine
 10
-48.90004442907971
 20
26.00443349694288
 30
0.0
 11
-48.20345349101422
 21
25.21670171164917
 31
0.0
  0
LINE
  5
395
102
{ACAD_REACTORS
330
456
330
457
102
}
330
71
100
AcDbEntity
  8
0
  6
Continuous
 62
     2
100
AcDbLine
 10
-48.20345349101422
 20
25.21670171164917
 30
0.0
 11
-46.80072927326592
 21
25.21670171164917
 31
0.0
  0
LINE
  5
396
102
{ACAD_REACTORS
330
456
330
457
102
}
330
71
100
AcDbEntity
  8
0
  6
Continuous
 62
     2
100
AcDbLine
 10
-48.19868232020622
 20
26.79756070542416
 30
0.0
 11
-46.80072927326592
 21
25.21670171164917
 31
0.0
  0
LINE
  5
397
102
{ACAD_REACTORS
330
456
330
457
102
}
330
71
100
AcDbEntity
  8
0
  6
Continuous
 62
     2
100
AcDbLine
 10
-48.19868232020622
 20
26.79756070542416
 30
0.0
 11
-46.8961526894397
 21
28.27051123546036
 31
0.0
  0
LINE
  5
398
102
{ACAD_REACTORS
330
456
330
457
102
}
330
71
100
AcDbEntity
  8
0
  6
Continuous
 62
     2
100
AcDbLine
 10
-48.90004442907971
 20
27.59068791390487
 30
0.0
 11
-48.29887690718692
 21
28.27051123546036
 31
0.0
  0
LINE
  5
399
102
{ACAD_REACTORS
330
456
330
457
102
}
330
71
100
AcDbEntity
  8
0
  6
Continuous
 62
     2
100
AcDbLine
 10
-49.50121195097151
 20
28.27051123546036
 30
0.0
 11
-48.90004442907971
 21
27.59068791390487
 31
0.0
  0
LINE
  5
39A
102
{ACAD_REACTORS
330
456
330
457
102
}
330
71
100
AcDbEntity
  8
0
  6
Continuous
 62
     2
100
AcDbLine
 10
-49.50121195097151
 20
28.27051123546036
 30
0.0
 11
-50.9039361687208
 21
28.27051123546036
 31
0.0
  0
LINE
  5
39B
102
{ACAD_REACTORS
330
44C
330
44D
102
}
330
71
100
AcDbEntity
  8
0
  6
Continuous
 62
     2
100
AcDbLine
 10
-48.80462101290701
 20
21.85751123547487
 30
0.0
 11
-47.6118283107393
 21
21.85751123547487
 31
0.0
  0
LINE
  5
39C
102
{ACAD_REACTORS
330
44C
330
44D
102
}
330
71
100
AcDbEntity
  8
0
  6
Continuous
 62
     2
100
AcDbLine
 10
-47.6118283107393
 20
21.85751123547487
 30
0.0
 11
-47.6118283107393
 21
24.12605545316237
 31
0.0
  0
LINE
  5
39D
102
{ACAD_REACTORS
330
44C
330
44D
102
}
330
71
100
AcDbEntity
  8
0
  6
Continuous
 62
     2
100
AcDbLine
 10
-47.6118283107393
 20
24.12605545316237
 30
0.0
 11
-46.80072927326592
 21
24.12605545316237
 31
0.0
  0
LINE
  5
39E
102
{ACAD_REACTORS
330
44C
330
44D
102
}
330
71
100
AcDbEntity
  8
0
  6
Continuous
 62
     2
100
AcDbLine
 10
-46.80072927326592
 20
24.12605545316237
 30
0.0
 11
-46.80072927326592
 21
24.91132075928596
 31
0.0
  0
LINE
  5
39F
102
{ACAD_REACTORS
330
44C
330
44D
102
}
330
71
100
AcDbEntity
  8
0
  6
Continuous
 62
     2
100
AcDbLine
 10
-50.1856747918946
 20
24.91132075928547
 30
0.0
 11
-46.80072927326592
 21
24.91132075928596
 31
0.0
  0
LINE
  5
3A0
102
{ACAD_REACTORS
330
44C
330
44D
102
}
330
71
100
AcDbEntity
  8
0
  6
Continuous
 62
     2
100
AcDbLine
 10
-48.80462101290701
 20
24.12605545316237
 30
0.0
 11
-48.80462101290701
 21
21.85751123547487
 31
0.0
  0
LINE
  5
3A1
102
{ACAD_REACTORS
330
44E
330
44F
102
}
330
71
100
AcDbEntity
  8
0
  6
Continuous
 62
     2
100
AcDbLine
 10
-71.43410744838621
 20
23.83639138503938
 30
0.0
 11
-71.43410744838621
 21
24.41824279173446
 31
0.0
  0
LINE
  5
3A2
102
{ACAD_REACTORS
330
44E
330
44F
102
}
330
71
100
AcDbEntity
  8
0
  6
Continuous
 62
     2
100
AcDbLine
 10
-71.43410744838621
 20
26.63652599167068
 30
0.0
 11
-71.43410744838621
 21
27.24206128017747
 31
0.0
  0
LINE
  5
3A3
330
71
100
AcDbEntity
  8
1
  6
Continuous
 62
     6
100
AcDbLine
 10
-92.903928863783
 20
14.56401123545857
 30
0.0
 11
-78.94873339053302
 21
14.56401123545845
 31
0.0
  0
LINE
  5
3A4
330
71
100
AcDbEntity
  8
1
  6
Continuous
 62
     6
100
AcDbLine
 10
-142.9039288637832
 20
14.56401123545857
 30
0.0
 11
-147.948733390533
 21
14.56401123545857
 31
0.0
  0
LINE
  5
3A5
330
71
100
AcDbEntity
  8
1
  6
Continuous
 62
     6
100
AcDbLine
 10
7.09607113621698
 20
14.56401123545857
 30
0.0
 11
50.59607113621699
 21
14.56401123545857
 31
0.0
  0
LINE
  5
3A6
330
71
100
AcDbEntity
  8
1
  6
Continuous
 62
     6
100
AcDbLine
 10
-42.90392886378302
 20
14.56401123545857
 30
0.0
 11
-60.74873339053301
 21
14.56401123545857
 31
0.0
  0
LINE
  5
3A7
330
71
100
AcDbEntity
  8
1
  6
Continuous
 62
     2
100
AcDbLine
 10
50.59607113621699
 20
14.56401123545857
 30
0.0
 11
55.59607113621598
 21
14.56401123545857
 31
0.0
  0
LINE
  5
3A8
330
71
100
AcDbEntity
  8
1
  6
Continuous
 62
     2
100
AcDbLine
 10
50.59607113621699
 20
14.56401123545857
 30
0.0
 11
50.59607113621699
 21
9.56401123545845
 31
0.0
  0
LINE
  5
3A9
330
71
100
AcDbEntity
  8
1
  6
Continuous
 62
     6
100
AcDbLine
 10
-78.94873339053302
 20
31.56401123545857
 30
0.0
 11
-42.5487333905331
 21
31.56401123545857
 31
0.0
  0
LINE
  5
3AA
330
71
100
AcDbEntity
  8
1
  6
Continuous
 62
     2
100
AcDbLine
 10
55.59607113621598
 20
9.56401123545845
 30
0.0
 11
55.59607113621598
 21
14.56401123545857
 31
0.0
  0
LINE
  5
3AB
330
71
100
AcDbEntity
  8
1
  6
Continuous
 62
     2
100
AcDbLine
 10
55.59607113621598
 20
9.56401123545845
 30
0.0
 11
50.59607113621699
 21
9.56401123545845
 31
0.0
  0
LINE
  5
3AC
330
71
100
AcDbEntity
  8
1
  6
Continuous
 62
     2
100
AcDbLine
 10
50.59607113621699
 20
9.56401123545845
 30
0.0
 11
7.09607113621698
 21
9.56401123545845
 31
0.0
  0
LINE
  5
3AD
330
71
100
AcDbEntity
  8
1
  6
Continuous
 62
     6
100
AcDbLine
 10
50.59607113621868
 20
31.56401123545857
 30
0.0
 11
50.59607113621789
 21
64.56401123545868
 31
0.0
  0
LINE
  5
3AE
330
71
100
AcDbEntity
  8
1
  6
Continuous
 62
     2
100
AcDbLine
 10
55.59607113621598
 20
219.5640112354586
 30
0.0
 11
-92.903928863783
 21
219.5640112354586
 31
0.0
  0
LINE
  5
3AF
330
71
100
AcDbEntity
  8
1
  6
Continuous
 62
     6
100
AcDbLine
 10
50.59607113621598
 20
199.5640112354586
 30
0.0
 11
-236.4039288637821
 21
199.5640112354586
 31
0.0
  0
LINE
  5
3B0
330
71
100
AcDbEntity
  8
1
  6
Continuous
 62
     2
100
AcDbLine
 10
50.59607113621789
 20
64.56401123545868
 30
0.0
 11
55.59607113621598
 21
64.56401123545868
 31
0.0
  0
LINE
  5
3B1
330
71
100
AcDbEntity
  8
1
  6
Continuous
 62
     6
100
AcDbLine
 10
50.59607113621789
 20
64.56401123545868
 30
0.0
 11
50.59607113621739
 21
114.5640112354585
 31
0.0
  0
LINE
  5
3B2
330
71
100
AcDbEntity
  8
1
  6
Continuous
 62
     2
100
AcDbLine
 10
55.59607113621598
 20
64.56401123545868
 30
0.0
 11
55.59607113621598
 21
114.5640112354585
 31
0.0
  0
LINE
  5
3B3
330
71
100
AcDbEntity
  8
1
  6
Continuous
 62
     2
100
AcDbLine
 10
50.59607113621739
 20
114.5640112354585
 30
0.0
 11
55.59607113621598
 21
114.5640112354585
 31
0.0
  0
LINE
  5
3B4
330
71
100
AcDbEntity
  8
1
  6
Continuous
 62
     6
100
AcDbLine
 10
50.59607113621739
 20
114.5640112354585
 30
0.0
 11
50.59607113621618
 21
164.5640112354586
 31
0.0
  0
LINE
  5
3B5
330
71
100
AcDbEntity
  8
1
  6
Continuous
 62
     2
100
AcDbLine
 10
55.59607113621598
 20
114.5640112354585
 30
0.0
 11
55.59607113621598
 21
164.5640112354586
 31
0.0
  0
LINE
  5
3B6
330
71
100
AcDbEntity
  8
1
  6
Continuous
 62
     2
100
AcDbLine
 10
50.59607113621618
 20
164.5640112354586
 30
0.0
 11
55.59607113621598
 21
164.5640112354586
 31
0.0
  0
LINE
  5
3B7
330
71
100
AcDbEntity
  8
1
  6
Continuous
 62
     6
100
AcDbLine
 10
50.59607113621618
 20
164.5640112354586
 30
0.0
 11
50.59607113621598
 21
199.5640112354586
 31
0.0
  0
LINE
  5
3B8
330
71
100
AcDbEntity
  8
1
  6
Continuous
 62
     2
100
AcDbLine
 10
55.59607113621598
 20
164.5640112354586
 30
0.0
 11
55.59607113621598
 21
219.5640112354586
 31
0.0
  0
LINE
  5
3B9
330
71
100
AcDbEntity
  8
1
  6
Continuous
 62
     2
100
AcDbLine
 10
55.59607113621598
 20
14.56401123545857
 30
0.0
 11
55.59607113621598
 21
64.56401123545868
 31
0.0
  0
LINE
  5
3BA
330
71
100
AcDbEntity
  8
1
  6
Continuous
 62
     2
100
AcDbLine
 10
-92.903928863783
 20
219.5640112354586
 30
0.0
 11
-241.4039288637821
 21
219.5640112354586
 31
0.0
  0
LINE
  5
3BB
330
71
100
AcDbEntity
  8
1
  6
Continuous
 62
     2
100
AcDbLine
 10
-92.903928863783
 20
219.5640112354586
 30
0.0
 11
-92.903928863783
 21
210.3553193907572
 31
0.0
  0
LINE
  5
3BC
330
71
100
AcDbEntity
  8
1
  6
Continuous
 62
     2
100
AcDbLine
 10
-241.4039288637821
 20
9.56401123545845
 30
0.0
 11
-236.4039288637811
 21
9.56401123545845
 31
0.0
  0
LINE
  5
3BD
330
71
100
AcDbEntity
  8
1
  6
Continuous
 62
     2
100
AcDbLine
 10
-241.4039288637821
 20
219.5640112354586
 30
0.0
 11
-241.4039288637821
 21
164.5640112354586
 31
0.0
  0
LINE
  5
3BE
330
71
100
AcDbEntity
  8
1
  6
Continuous
 62
     6
100
AcDbLine
 10
-236.4039288637821
 20
199.5640112354586
 30
0.0
 11
-236.403928863782
 21
164.5640112354586
 31
0.0
  0
LINE
  5
3BF
330
71
100
AcDbEntity
  8
1
  6
Continuous
 62
     2
100
AcDbLine
 10
-241.4039288637821
 20
164.5640112354586
 30
0.0
 11
-236.403928863782
 21
164.5640112354586
 31
0.0
  0
LINE
  5
3C0
330
71
100
AcDbEntity
  8
1
  6
Continuous
 62
     2
100
AcDbLine
 10
-241.4039288637821
 20
164.5640112354586
 30
0.0
 11
-241.4039288637821
 21
114.5640112354585
 31
0.0
  0
LINE
  5
3C1
330
71
100
AcDbEntity
  8
1
  6
Continuous
 62
     6
100
AcDbLine
 10
-236.403928863782
 20
164.5640112354586
 30
0.0
 11
-236.4039288637815
 21
114.5640112354585
 31
0.0
  0
LINE
  5
3C2
330
71
100
AcDbEntity
  8
1
  6
Continuous
 62
     2
100
AcDbLine
 10
-241.4039288637821
 20
114.5640112354585
 30
0.0
 11
-236.4039288637815
 21
114.5640112354585
 31
0.0
  0
LINE
  5
3C3
330
71
100
AcDbEntity
  8
1
  6
Continuous
 62
     2
100
AcDbLine
 10
-241.4039288637821
 20
114.5640112354585
 30
0.0
 11
-241.4039288637821
 21
64.56401123545868
 31
0.0
  0
LINE
  5
3C4
330
71
100
AcDbEntity
  8
1
  6
Continuous
 62
     6
100
AcDbLine
 10
-236.4039288637815
 20
114.5640112354585
 30
0.0
 11
-236.4039288637813
 21
64.56401123545868
 31
0.0
  0
LINE
  5
3C5
330
71
100
AcDbEntity
  8
1
  6
Continuous
 62
     2
100
AcDbLine
 10
-241.4039288637821
 20
64.56401123545868
 30
0.0
 11
-236.4039288637813
 21
64.56401123545868
 31
0.0
  0
LINE
  5
3C6
330
71
100
AcDbEntity
  8
1
  6
Continuous
 62
     2
100
AcDbLine
 10
-241.4039288637821
 20
64.56401123545868
 30
0.0
 11
-241.4039288637821
 21
14.56401123545857
 31
0.0
  0
LINE
  5
3C7
330
71
100
AcDbEntity
  8
1
  6
Continuous
 62
     6
100
AcDbLine
 10
-236.4039288637813
 20
64.56401123545868
 30
0.0
 11
-236.4039288637811
 21
14.56401123545857
 31
0.0
  0
LINE
  5
3C8
330
71
100
AcDbEntity
  8
1
  6
Continuous
 62
     2
100
AcDbLine
 10
-192.903928863783
 20
9.56401123545845
 30
0.0
 11
-192.903928863783
 21
14.56401123545857
 31
0.0
  0
LINE
  5
3C9
330
71
100
AcDbEntity
  8
1
  6
Continuous
 62
     2
100
AcDbLine
 10
-192.903928863783
 20
9.56401123545845
 30
0.0
 11
-142.9039288637832
 21
9.56401123545845
 31
0.0
  0
LINE
  5
3CA
330
71
100
AcDbEntity
  8
1
  6
Continuous
 62
     2
100
AcDbLine
 10
-142.9039288637832
 20
9.56401123545845
 30
0.0
 11
-142.9039288637832
 21
14.56401123545857
 31
0.0
  0
LINE
  5
3CB
330
71
100
AcDbEntity
  8
1
  6
Continuous
 62
     2
100
AcDbLine
 10
-142.9039288637832
 20
9.56401123545845
 30
0.0
 11
-92.903928863783
 21
9.56401123545845
 31
0.0
  0
LINE
  5
3CC
330
71
100
AcDbEntity
  8
1
  6
Continuous
 62
     2
100
AcDbLine
 10
-92.903928863783
 20
9.56401123545845
 30
0.0
 11
-92.903928863783
 21
14.56401123545857
 31
0.0
  0
LINE
  5
3CD
330
71
100
AcDbEntity
  8
1
  6
Continuous
 62
     2
100
AcDbLine
 10
-92.903928863783
 20
9.56401123545845
 30
0.0
 11
-42.90392886378302
 21
9.56401123545845
 31
0.0
  0
LINE
  5
3CE
330
71
100
AcDbEntity
  8
1
  6
Continuous
 62
     2
100
AcDbLine
 10
-42.90392886378302
 20
9.56401123545845
 30
0.0
 11
-42.90392886378302
 21
14.56401123545857
 31
0.0
  0
LINE
  5
3CF
330
71
100
AcDbEntity
  8
1
  6
Continuous
 62
     2
100
AcDbLine
 10
7.09607113621698
 20
9.56401123545845
 30
0.0
 11
7.09607113621698
 21
14.56401123545857
 31
0.0
  0
LINE
  5
3D0
330
71
100
AcDbEntity
  8
1
  6
Continuous
 62
     2
100
AcDbLine
 10
7.09607113621698
 20
9.56401123545845
 30
0.0
 11
-42.90392886378302
 21
9.56401123545845
 31
0.0
  0
LINE
  5
3D1
330
71
100
AcDbEntity
  8
1
  6
Continuous
 62
     2
100
AcDbLine
 10
-236.4039288637811
 20
14.56401123545857
 30
0.0
 11
-236.4039288637811
 21
9.56401123545845
 31
0.0
  0
LINE
  5
3D2
330
71
100
AcDbEntity
  8
1
  6
Continuous
 62
     2
100
AcDbLine
 10
-236.4039288637811
 20
9.56401123545845
 30
0.0
 11
-192.903928863783
 21
9.56401123545845
 31
0.0
  0
LINE
  5
3D3
330
71
100
AcDbEntity
  8
1
  6
Continuous
 62
     2
100
AcDbLine
 10
-236.4039288637811
 20
14.56401123545857
 30
0.0
 11
-241.4039288637821
 21
14.56401123545857
 31
0.0
  0
LINE
  5
3D4
330
71
100
AcDbEntity
  8
1
  6
Continuous
 62
     2
100
AcDbLine
 10
-241.4039288637821
 20
14.56401123545857
 30
0.0
 11
-241.4039288637821
 21
9.56401123545845
 31
0.0
  0
LINE
  5
3D5
330
71
100
AcDbEntity
  8
1
  6
Continuous
 62
     6
100
AcDbLine
 10
50.59607113621699
 20
14.56401123545857
 30
0.0
 11
50.59607113621829
 21
23.06401123545857
 31
0.0
  0
LINE
  5
3D6
330
71
100
AcDbEntity
  8
1
  6
Continuous
 62
     6
100
AcDbLine
 10
-42.5487333905331
 20
14.56401123545845
 30
0.0
 11
7.09607113621698
 21
14.56401123545857
 31
0.0
  0
LINE
  5
3D7
330
71
100
AcDbEntity
  8
1
  6
Continuous
 62
     6
100
AcDbLine
 10
-195.2039288637832
 20
14.56401123545845
 30
0.0
 11
-192.903928863783
 21
14.56401123545857
 31
0.0
  0
LINE
  5
3D8
330
71
100
AcDbEntity
  8
1
  6
Continuous
 62
     6
100
AcDbLine
 10
-92.903928863783
 20
14.56401123545857
 30
0.0
 11
-142.9039288637832
 21
14.56401123545857
 31
0.0
  0
LINE
  5
3D9
330
71
100
AcDbEntity
  8
1
  6
Continuous
 62
     7
100
AcDbLine
 10
-78.94873339053302
 20
31.56401123545857
 30
0.0
 11
-78.94873339053302
 21
18.81401123545845
 31
0.0
  0
LINE
  5
3DA
330
71
100
AcDbEntity
  8
1
  6
Continuous
 62
     7
100
AcDbLine
 10
-42.5487333905331
 20
31.56401123545857
 30
0.0
 11
-42.5487333905331
 21
18.81401123545857
 31
0.0
  0
LINE
  5
3DB
330
71
100
AcDbEntity
  8
1
  6
Continuous
 62
     6
100
AcDbLine
 10
-195.2039288637832
 20
14.56401123545845
 30
0.0
 11
-201.4039288637812
 21
14.56401123545857
 31
0.0
  0
LINE
  5
3DC
330
71
100
AcDbEntity
  8
1
  6
Continuous
 62
     6
100
AcDbLine
 10
-42.5487333905331
 20
14.56401123545845
 30
0.0
 11
-42.90392886378302
 21
14.56401123545857
 31
0.0
  0
LINE
  5
3DD
330
71
100
AcDbEntity
  8
1
  6
Continuous
 62
     6
100
AcDbLine
 10
50.59607113621868
 20
31.56401123545857
 30
0.0
 11
50.59607113621829
 21
23.06401123545857
 31
0.0
  0
LINE
  5
3DE
330
71
100
AcDbEntity
  8
1
  6
Continuous
 62
     6
100
AcDbLine
 10
-201.4039288637812
 20
14.56401123545857
 30
0.0
 11
-236.4039288637811
 21
14.56401123545857
 31
0.0
  0
LINE
  5
3DF
330
71
100
AcDbEntity
  8
1
  6
Continuous
 62
     2
100
AcDbLine
 10
-74.71207850397042
 20
36.93901123545848
 30
0.0
 11
-69.71207850397042
 21
38.18901123545848
 31
0.0
  0
LINE
  5
3E0
330
71
100
AcDbEntity
  8
1
  6
Continuous
 62
     2
100
AcDbLine
 10
-74.71207850397042
 20
34.43901123545848
 30
0.0
 11
-74.71207850397042
 21
36.93901123545848
 31
0.0
  0
LINE
  5
3E1
330
71
100
AcDbEntity
  8
1
  6
Continuous
 62
     2
100
AcDbLine
 10
-69.71207850397042
 20
33.18901123545848
 30
0.0
 11
-74.71207850397042
 21
34.43901123545848
 31
0.0
  0
LINE
  5
3E2
330
71
100
AcDbEntity
  8
1
  6
Continuous
 62
     2
100
AcDbLine
 10
-69.71207850397042
 20
38.18901123545848
 30
0.0
 11
-69.71207850397042
 21
33.18901123545848
 31
0.0
  0
LINE
  5
3E3
330
71
100
AcDbEntity
  8
1
  6
Continuous
 62
     7
100
AcDbLine
 10
-78.94873339053302
 20
18.81401123545845
 30
0.0
 11
-60.74873339053301
 21
18.81401123545857
 31
0.0
  0
LINE
  5
3E4
330
71
100
AcDbEntity
  8
1
  6
Continuous
 62
     7
100
AcDbLine
 10
-78.94873339053302
 20
18.81401123545845
 30
0.0
 11
-78.94873339053302
 21
14.56401123545845
 31
0.0
  0
LINE
  5
3E5
330
71
100
AcDbEntity
  8
1
  6
Continuous
 62
     7
100
AcDbLine
 10
-42.5487333905331
 20
18.81401123545857
 30
0.0
 11
-42.5487333905331
 21
14.56401123545845
 31
0.0
  0
LINE
  5
3E6
330
71
100
AcDbEntity
  8
1
  6
Continuous
 62
     7
100
AcDbLine
 10
-60.74873339053301
 20
18.81401123545857
 30
0.0
 11
-60.74873339053301
 21
14.56401123545857
 31
0.0
  0
LINE
  5
3E7
330
71
100
AcDbEntity
  8
1
  6
Continuous
 62
     6
100
AcDbLine
 10
-60.74873339053301
 20
14.56401123545857
 30
0.0
 11
-78.94873339053302
 21
14.56401123545845
 31
0.0
  0
LINE
  5
3E8
330
71
100
AcDbEntity
  8
1
  6
Continuous
 62
     7
100
AcDbLine
 10
-60.74873339053301
 20
18.81401123545857
 30
0.0
 11
-42.5487333905331
 21
18.81401123545857
 31
0.0
  0
LINE
  5
3E9
330
71
100
AcDbEntity
  8
1
  6
Continuous
 62
     6
100
AcDbLine
 10
-78.94873339053302
 20
40.06401123545857
 30
0.0
 11
50.59607113621868
 21
40.06401123545857
 31
0.0
  0
ARC
  5
3EA
102
{ACAD_REACTORS
330
452
330
453
102
}
330
71
100
AcDbEntity
  8
0
  6
Continuous
 62
     2
100
AcDbCircle
 10
-63.55708539157303
 20
23.38441599738016
 30
0.0
 40
0.7717997786796947
100
AcDbArc
 50
321.8795802028417
 51
38.12041979715308
  0
ARC
  5
3EB
102
{ACAD_REACTORS
330
452
330
453
102
}
330
71
100
AcDbEntity
  8
0
  6
Continuous
 62
     2
100
AcDbCircle
 10
-63.35734535522661
 20
23.22768481926016
 30
0.0
 40
0.5179085730137387
100
AcDbArc
 50
218.1204197971924
 51
321.8795802028009
  0
ARC
  5
3EC
102
{ACAD_REACTORS
330
452
330
453
102
}
330
71
100
AcDbEntity
  8
0
  6
Continuous
 62
     2
100
AcDbCircle
 10
-63.15760531888051
 20
23.38441599738016
 30
0.0
 40
0.7717997786794666
100
AcDbArc
 50
141.8795802028368
 51
218.1204197971684
  0
ARC
  5
3ED
102
{ACAD_REACTORS
330
452
330
453
102
}
330
71
100
AcDbEntity
  8
0
  6
Continuous
 62
     2
100
AcDbCircle
 10
-63.35734535522661
 20
23.54114717550067
 30
0.0
 40
0.5179085730132921
100
AcDbArc
 50
38.12041979714721
 51
141.8795802028596
  0
ARC
  5
3EE
102
{ACAD_REACTORS
330
44A
330
44B
102
}
330
71
100
AcDbEntity
  8
0
  6
Continuous
 62
     2
100
AcDbCircle
 10
-66.4193594907905
 20
21.97394963197198
 30
0.0
 40
2.227384008973474
100
AcDbArc
 50
58.06909105004068
 51
71.55192388186722
  0
ARC
  5
3EF
102
{ACAD_REACTORS
330
44A
330
44B
102
}
330
71
100
AcDbEntity
  8
0
  6
Continuous
 62
     2
100
AcDbCircle
 10
-66.15763178983173
 20
23.58948742671916
 30
0.0
 40
0.5115800601948779
100
AcDbArc
 50
113.3722778881992
 51
151.4785267423044
  0
ARC
  5
3F0
102
{ACAD_REACTORS
330
44A
330
44B
102
}
330
71
100
AcDbEntity
  8
0
  6
Continuous
 62
     2
100
AcDbCircle
 10
-65.78027453175142
 20
23.38441599738016
 30
0.0
 40
0.9410597353332545
100
AcDbArc
 50
151.4785267422669
 51
208.5214732577057
  0
ARC
  5
3F1
102
{ACAD_REACTORS
330
44A
330
44B
102
}
330
71
100
AcDbEntity
  8
0
  6
Continuous
 62
     2
100
AcDbCircle
 10
-66.57723236588342
 20
26.69709694263656
 30
0.0
 40
4.852596863498134
100
AcDbArc
 50
275.1581447696249
 51
285.9799912583529
  0
ARC
  5
3F2
102
{ACAD_REACTORS
330
44A
330
44B
102
}
330
71
100
AcDbEntity
  8
0
  6
Continuous
 62
     2
100
AcDbCircle
 10
-66.28837627114751
 20
23.49720635941497
 30
0.0
 40
1.639695123939387
100
AcDbArc
 50
195.0618917770896
 51
275.1581447696395
  0
ARC
  5
3F3
102
{ACAD_REACTORS
330
44A
330
44B
102
}
330
71
100
AcDbEntity
  8
0
  6
Continuous
 62
     2
100
AcDbCircle
 10
-66.70750411461032
 20
23.38441599738016
 30
0.0
 40
1.205656168390944
100
AcDbArc
 50
164.9381082228765
 51
195.061891777095
  0
ARC
  5
3F4
102
{ACAD_REACTORS
330
44A
330
44B
102
}
330
71
100
AcDbEntity
  8
0
  6
Continuous
 62
     2
100
AcDbCircle
 10
-66.28837627114751
 20
23.27162563534526
 30
0.0
 40
1.639695123940507
100
AcDbArc
 50
84.84185523036236
 51
164.9381082228864
  0
ARC
  5
3F5
102
{ACAD_REACTORS
330
44E
330
44F
102
}
330
71
100
AcDbEntity
  8
0
  6
Continuous
 62
     2
100
AcDbCircle
 10
-71.11839052530942
 20
24.41824279173446
 30
0.0
 40
0.3157169230765328
100
AcDbArc
 50
115.3740086783519
 51
180.0
  0
ARC
  5
3F6
102
{ACAD_REACTORS
330
44E
330
44F
102
}
330
71
100
AcDbEntity
  8
0
  6
Continuous
 62
     2
100
AcDbCircle
 10
-71.11839052530942
 20
26.63652599167068
 30
0.0
 40
0.315716923076792
100
AcDbArc
 50
180.0
 51
244.6259913216484
  0
ARC
  5
3F7
102
{ACAD_REACTORS
330
44E
330
44F
102
}
330
71
100
AcDbEntity
  8
0
  6
Continuous
 62
     2
100
AcDbCircle
 10
-71.1127743899994
 20
25.53922633260837
 30
0.0
 40
2.018561131933266
100
AcDbArc
 50
269.8110329575858
 51
90.18896704241416
  0
ARC
  5
3F8
102
{ACAD_REACTORS
330
44E
330
44F
102
}
330
71
100
AcDbEntity
  8
0
  6
Continuous
 62
     2
100
AcDbCircle
 10
-71.11839052530942
 20
23.83639138503938
 30
0.0
 40
0.315716923076792
100
AcDbArc
 50
180.0
 51
269.8110329574542
  0
ARC
  5
3F9
102
{ACAD_REACTORS
330
44C
330
44D
102
}
330
71
100
AcDbEntity
  8
0
  6
Continuous
 62
     2
100
AcDbCircle
 10
-50.05493031057881
 20
23.58948742671916
 30
0.0
 40
0.511580060194421
100
AcDbArc
 50
109.337143219485
 51
151.4785267424228
  0
ARC
  5
3FA
102
{ACAD_REACTORS
330
44C
330
44D
102
}
330
71
100
AcDbEntity
  8
0
  6
Continuous
 62
     2
100
AcDbCircle
 10
-50.05493031057881
 20
23.17934456804167
 30
0.0
 40
0.5115800601960215
100
AcDbArc
 50
208.5214732576866
 51
246.627722111844
  0
ARC
  5
3FB
102
{ACAD_REACTORS
330
44C
330
44D
102
}
330
71
100
AcDbEntity
  8
0
  6
Continuous
 62
     2
100
AcDbCircle
 10
-50.60480263535621
 20
23.38441599738016
 30
0.0
 40
1.205656168393002
100
AcDbArc
 50
164.9381082229028
 51
195.0618917770958
  0
ARC
  5
3FC
102
{ACAD_REACTORS
330
44C
330
44D
102
}
330
71
100
AcDbEntity
  8
0
  6
Continuous
 62
     2
100
AcDbCircle
 10
-50.1856747918946
 20
23.27162563534526
 30
0.0
 40
1.639695123940211
100
AcDbArc
 50
90.0
 51
164.938108222895
  0
ARC
  5
3FD
102
{ACAD_REACTORS
330
450
330
451
102
}
330
71
100
AcDbEntity
  8
0
  6
Continuous
 62
     2
100
AcDbCircle
 10
-59.61266988459832
 20
26.74360647355448
 30
0.0
 40
1.526904761905882
100
AcDbArc
 50
90.0
 51
270.0
  0
ARC
  5
3FE
102
{ACAD_REACTORS
330
454
330
455
102
}
330
71
100
AcDbEntity
  8
0
  6
Continuous
 62
     2
100
AcDbCircle
 10
-66.3553606298241
 20
27.25454156534917
 30
0.0
 40
0.3528638246711218
100
AcDbArc
 50
270.0
 51
90.0
  0
ARC
  5
3FF
102
{ACAD_REACTORS
330
44E
330
44F
102
}
330
71
100
AcDbEntity
  8
0
  6
Continuous
 62
     2
100
AcDbCircle
 10
-73.69393921184113
 20
27.24223875682557
 30
0.0
 40
0.3157169230761987
100
AcDbArc
 50
90.0
 51
180.0
  0
ARC
  5
400
102
{ACAD_REACTORS
330
44E
330
44F
102
}
330
71
100
AcDbEntity
  8
0
  6
Continuous
 62
     2
100
AcDbCircle
 10
-71.69552150325651
 20
25.52738439170287
 30
0.0
 40
0.9118975235576114
100
AcDbArc
 50
115.1944106485283
 51
244.8055893514878
  0
ARC
  5
401
102
{ACAD_REACTORS
330
44E
330
44F
102
}
330
71
100
AcDbEntity
  8
0
  6
Continuous
 62
     2
100
AcDbCircle
 10
-72.2181059508315
 20
24.41655464564008
 30
0.0
 40
0.315716923076593
100
AcDbArc
 50
0.0
 51
64.80558935146027
  0
ARC
  5
402
102
{ACAD_REACTORS
330
44E
330
44F
102
}
330
71
100
AcDbEntity
  8
0
  6
Continuous
 62
     2
100
AcDbCircle
 10
-74.28783388858761
 20
22.28175585085816
 30
0.0
 40
0.4242446153828041
100
AcDbArc
 50
180.0
 51
270.0
  0
ARC
  5
403
102
{ACAD_REACTORS
330
450
330
451
102
}
330
71
100
AcDbEntity
  8
0
  6
Continuous
 62
     2
100
AcDbCircle
 10
-59.39639787443312
 20
26.90033765167496
 30
0.0
 40
0.5179085730135321
100
AcDbArc
 50
38.12041979714286
 51
141.8795802028489
  0
ARC
  5
404
102
{ACAD_REACTORS
330
450
330
451
102
}
330
71
100
AcDbEntity
  8
0
  6
Continuous
 62
     2
100
AcDbCircle
 10
-59.19665783808682
 20
26.74360647355448
 30
0.0
 40
0.7717997786796724
100
AcDbArc
 50
141.8795802028404
 51
218.120419797156
  0
ARC
  5
405
102
{ACAD_REACTORS
330
452
330
453
102
}
330
71
100
AcDbEntity
  8
0
  6
Continuous
 62
     2
100
AcDbCircle
 10
-63.35734535522661
 20
23.92299100768346
 30
0.0
 40
2.065479772208505
100
AcDbArc
 50
242.4518518243401
 51
297.5481481756871
  0
ARC
  5
406
102
{ACAD_REACTORS
330
452
330
453
102
}
330
71
100
AcDbEntity
  8
0
  6
Continuous
 62
     2
100
AcDbCircle
 10
-63.35734535522661
 20
22.84584098707737
 30
0.0
 40
2.065479772208564
100
AcDbArc
 50
62.45185182430632
 51
117.5481481756664
  0
ARC
  5
407
102
{ACAD_REACTORS
330
452
330
453
102
}
330
71
100
AcDbEntity
  8
0
  6
Continuous
 62
     2
100
AcDbCircle
 10
-63.63828524705991
 20
23.38441599738016
 30
0.0
 40
1.45803408365149
100
AcDbArc
 50
117.5481481756624
 51
242.4518518243375
  0
ARC
  5
408
102
{ACAD_REACTORS
330
452
330
453
102
}
330
71
100
AcDbEntity
  8
0
  6
Continuous
 62
     2
100
AcDbCircle
 10
-63.07640546339331
 20
23.38441599738016
 30
0.0
 40
1.458034083651999
100
AcDbArc
 50
297.5481481757009
 51
62.4518518242992
  0
ARC
  5
409
102
{ACAD_REACTORS
330
450
330
451
102
}
330
71
100
AcDbEntity
  8
0
  6
Continuous
 62
     2
100
AcDbCircle
 10
-59.39639787443312
 20
26.58687529543406
 30
0.0
 40
0.5179085730134372
100
AcDbArc
 50
218.1204197971511
 51
321.8795802028571
  0
ARC
  5
40A
102
{ACAD_REACTORS
330
450
330
451
102
}
330
71
100
AcDbEntity
  8
0
  6
Continuous
 62
     2
100
AcDbCircle
 10
-59.59613791077931
 20
26.74360647355448
 30
0.0
 40
0.7717997786796463
100
AcDbArc
 50
321.8795802028446
 51
38.12041979715892
  0
ARC
  5
40B
102
{ACAD_REACTORS
330
44E
330
44F
102
}
330
71
100
AcDbEntity
  8
0
  6
Continuous
 62
     2
100
AcDbCircle
 10
-68.81452179787081
 20
22.28175585085816
 30
0.0
 40
0.4242446153832908
100
AcDbArc
 50
270.0
 51
0.0
  0
ARC
  5
40C
102
{ACAD_REACTORS
330
44E
330
44F
102
}
330
71
100
AcDbEntity
  8
0
  6
Continuous
 62
     2
100
AcDbCircle
 10
-68.81452179787081
 20
27.84626662005837
 30
0.0
 40
0.4242446153838841
100
AcDbArc
 50
0.0
 51
90.0
  0
ARC
  5
40D
102
{ACAD_REACTORS
330
44E
330
44F
102
}
330
71
100
AcDbEntity
  8
0
  6
Continuous
 62
     2
100
AcDbCircle
 10
-74.28783388858761
 20
27.84626662005837
 30
0.0
 40
0.4242446153838024
100
AcDbArc
 50
90.0
 51
180.0
  0
ARC
  5
40E
102
{ACAD_REACTORS
330
44E
330
44F
102
}
330
71
100
AcDbEntity
  8
0
  6
Continuous
 62
     2
100
AcDbCircle
 10
-72.2181059508315
 20
22.88578371410847
 30
0.0
 40
0.3157169230767103
100
AcDbArc
 50
270.0
 51
0.0
  0
ARC
  5
40F
102
{ACAD_REACTORS
330
44E
330
44F
102
}
330
71
100
AcDbEntity
  8
0
  6
Continuous
 62
     2
100
AcDbCircle
 10
-72.2181059508315
 20
26.63821413776506
 30
0.0
 40
0.3157169230761203
100
AcDbArc
 50
295.1944106485397
 51
0.0
  0
ARC
  5
410
102
{ACAD_REACTORS
330
44E
330
44F
102
}
330
71
100
AcDbEntity
  8
0
  6
Continuous
 62
     2
100
AcDbCircle
 10
-72.2181059508315
 20
27.24223875682557
 30
0.0
 40
0.315716923076593
100
AcDbArc
 50
0.0
 51
90.0
  0
ARC
  5
411
102
{ACAD_REACTORS
330
44E
330
44F
102
}
330
71
100
AcDbEntity
  8
0
  6
Continuous
 62
     2
100
AcDbCircle
 10
-73.69393921184113
 20
22.88578371410847
 30
0.0
 40
0.3157169230756836
100
AcDbArc
 50
180.0
 51
270.0
  0
ARC
  5
412
102
{ACAD_REACTORS
330
454
330
455
102
}
330
71
100
AcDbEntity
  8
0
  6
Continuous
 62
     2
100
AcDbCircle
 10
-65.91388810358572
 20
27.21514559412668
 30
0.0
 40
1.055365641333712
100
AcDbArc
 50
270.0
 51
90.0
  0
ARC
  5
413
102
{ACAD_REACTORS
330
44C
330
44D
102
}
330
71
100
AcDbEntity
  8
0
  6
Continuous
 62
     2
100
AcDbCircle
 10
-50.1856747918946
 20
23.49720635941497
 30
0.0
 40
1.639695123940446
100
AcDbArc
 50
195.061891777101
 51
275.1581447696762
  0
ARC
  5
414
102
{ACAD_REACTORS
330
44C
330
44D
102
}
330
71
100
AcDbEntity
  8
0
  6
Continuous
 62
     2
100
AcDbCircle
 10
-50.47453088663042
 20
26.69709694263656
 30
0.0
 40
4.852596863498825
100
AcDbArc
 50
275.1581447696364
 51
285.9799912583387
  0
ARC
  5
415
102
{ACAD_REACTORS
330
44C
330
44D
102
}
330
71
100
AcDbEntity
  8
0
  6
Continuous
 62
     2
100
AcDbCircle
 10
-50.31665801153761
 20
24.79488236278826
 30
0.0
 40
2.227384008972746
100
AcDbArc
 50
288.4480761181335
 51
301.9309089499397
  0
ARC
  5
416
102
{ACAD_REACTORS
330
44C
330
44D
102
}
330
71
100
AcDbEntity
  8
0
  6
Continuous
 62
     2
100
AcDbCircle
 10
-49.89849027787571
 20
23.54133658675167
 30
0.0
 40
0.9059297849852797
100
AcDbArc
 50
246.6277221118177
 51
288.4480761180818
  0
ARC
  5
417
102
{ACAD_REACTORS
330
44C
330
44D
102
}
330
71
100
AcDbEntity
  8
0
  6
Continuous
 62
     2
100
AcDbCircle
 10
-49.67757305249742
 20
23.38441599738016
 30
0.0
 40
0.9410597353348907
100
AcDbArc
 50
151.4785267423626
 51
208.5214732576695
  0
ARC
  5
418
102
{ACAD_REACTORS
330
44C
330
44D
102
}
330
71
100
AcDbEntity
  8
0
  6
Continuous
 62
     2
100
AcDbCircle
 10
-49.90826031247511
 20
23.17153244633627
 30
0.0
 40
0.9545230068261006
100
AcDbArc
 50
90.0
 51
109.3371432194318
  0
ARC
  5
419
102
{ACAD_REACTORS
330
44E
330
44F
102
}
330
71
100
AcDbEntity
  8
0
  6
Continuous
 62
     2
100
AcDbCircle
 10
-71.11839052530942
 20
27.24206128017747
 30
0.0
 40
0.315716923076064
100
AcDbArc
 50
90.18896704254594
 51
180.0
  0
ARC
  5
41A
102
{ACAD_REACTORS
330
44E
330
44F
102
}
330
71
100
AcDbEntity
  8
0
  6
Continuous
 62
     2
100
AcDbCircle
 10
-71.6444332233973
 20
25.52738439170287
 30
0.0
 40
0.911848150144459
100
AcDbArc
 50
295.3740086781764
 51
64.62599132180728
  0
ARC
  5
41B
102
{ACAD_REACTORS
330
44A
330
44B
102
}
330
71
100
AcDbEntity
  8
0
  6
Continuous
 62
     2
100
AcDbCircle
 10
-66.4193594907905
 20
24.79488236278885
 30
0.0
 40
2.22738400897273
100
AcDbArc
 50
288.4480761181328
 51
301.9309089499593
  0
ARC
  5
41C
102
{ACAD_REACTORS
330
44A
330
44B
102
}
330
71
100
AcDbEntity
  8
0
  6
Continuous
 62
     2
100
AcDbCircle
 10
-66.0011917571297
 20
23.54133658675167
 30
0.0
 40
0.905929784984916
100
AcDbArc
 50
246.6277221118709
 51
288.4480761181586
  0
ARC
  5
41D
102
{ACAD_REACTORS
330
44A
330
44B
102
}
330
71
100
AcDbEntity
  8
0
  6
Continuous
 62
     2
100
AcDbCircle
 10
-66.15763178983173
 20
23.17934456804167
 30
0.0
 40
0.5115800601948034
100
AcDbArc
 50
208.5214732576956
 51
246.6277221118272
  0
ARC
  5
41E
102
{ACAD_REACTORS
330
44A
330
44B
102
}
330
71
100
AcDbEntity
  8
0
  6
Continuous
 62
     2
100
AcDbCircle
 10
-66.0011917571297
 20
23.22749540800857
 30
0.0
 40
0.9059297849853228
100
AcDbArc
 50
71.55192388185348
 51
113.372277888129
  0
ARC
  5
41F
102
{ACAD_REACTORS
330
44A
330
44B
102
}
330
71
100
AcDbEntity
  8
0
  6
Continuous
 62
     2
100
AcDbCircle
 10
-66.57723236588342
 20
20.07173505212427
 30
0.0
 40
4.852596863498062
100
AcDbArc
 50
74.02000874164736
 51
84.84185523037506
  0
CIRCLE
  5
420
102
{ACAD_REACTORS
330
44E
330
44F
102
}
330
71
100
AcDbEntity
  8
0
  6
Continuous
 62
     2
100
AcDbCircle
 10
-71.6682482380701
 20
25.52738439170287
 30
0.0
 40
0.4709789327785074
  0
CIRCLE
  5
421
330
71
100
AcDbEntity
  8
1
  6
Continuous
 62
     2
100
AcDbCircle
 10
-66.21207850397042
 20
35.68901123545848
 30
0.0
 40
1.249999999999915
  0
CIRCLE
  5
422
330
71
100
AcDbEntity
  8
1
  6
Continuous
 62
     2
100
AcDbCircle
 10
-66.21207850397042
 20
35.68901123545848
 30
0.0
 40
2.5
  0
TEXT
  5
423
330
71
100
AcDbEntity
  8
1
 62
     7
100
AcDbText
 10
-23.57518566851923
 20
32.86401123545846
 30
0.0
 40
2.5
  1
/
 41
0.9
  7
CONVERTER_11
100
AcDbText
  0
TEXT
  5
425
330
71
100
AcDbEntity
  8
1
 62
     7
100
AcDbText
 10
-21.41882117147722
 20
32.86401123545846
 30
0.0
 40
2.5
  1
01
 41
0.81
  7
CONVERTER_12
100
AcDbText
  0
TEXT
  5
426
330
71
100
AcDbEntity
  8
1
 62
     3
100
AcDbText
 10
16.17766285453988
 20
32.86401123545846
 30
0.0
 40
2.5
  1
07.11.2017
 41
0.81
  7
CONVERTER_12
100
AcDbText
  0
MTEXT
  5
427
330
71
100
AcDbEntity
  8
1
 62
     2
100
AcDbMText
 10
16.17766285453988
 20
39.06401123545848
 30
0.0
 40
1.8
 41
0.0
 71
     1
 72
     1
  1
date
  7
CONVERTER_11
 73
     1
 44
1.32052821128451
  0
MTEXT
  5
428
330
71
100
AcDbEntity
  8
1
 62
     2
100
AcDbMText
 10
-13.64873339053301
 20
30.56401123545848
 30
0.0
 40
1.8
 41
0.0
 71
     1
 72
     1
  1
document-type
  7
CONVERTER_11
 73
     1
 44
1.20048019207683
  0
TEXT
  5
429
330
71
100
AcDbEntity
  8
1
 62
     3
100
AcDbText
 10
-13.64873339053301
 20
24.36401123545846
 30
0.0
 40
2.5
  1
TECDOC 2D_Productdrawing
 41
0.81
  7
CONVERTER_12
100
AcDbText
  0
MTEXT
  5
42B
330
71
100
AcDbEntity
  8
1
 62
     2
100
AcDbMText
 10
-41.44873339053302
 20
39.06401123545857
 30
0.0
 40
1.8
 41
0.0
 71
     1
 72
     1
  1
document-No. / RI
  7
CONVERTER_13
 73
     1
 44
1.32052821128451
  0
TEXT
  5
42C
330
71
100
AcDbEntity
  8
1
 62
     7
100
AcDbText
 10
-41.44873339053302
 20
32.86401123545846
 30
0.0
 40
2.5
  1
00578148
 41
0.81
  7
CONVERTER_12
100
AcDbText
  0
MTEXT
  5
42E
330
71
100
AcDbEntity
  8
1
 62
     3
100
AcDbMText
 10
46.13686699537929
 20
32.86401123545866
 30
0.0
 40
2.5
 41
0.0
 71
     8
 72
     1
  1
2:1
  7
CONVERTER_14
 73
     1
 44
1.32052821128451
  0
MTEXT
  5
42F
330
71
100
AcDbEntity
  8
1
 62
     2
100
AcDbMText
 10
42.7776628545397
 20
39.06401123545857
 30
0.0
 40
1.8
 41
0.0
 71
     1
 72
     1
  1
scale
  7
CONVERTER_11
 73
     1
 44
1.20048019207683
  0
MTEXT
  5
430
330
71
100
AcDbEntity
  8
1
 62
     2
100
AcDbMText
 10
-41.44873339053302
 20
30.56401123545857
 30
0.0
 40
1.8
 41
0.0
 71
     1
 72
     1
  1
ident.-No.
  7
CONVERTER_11
 73
     1
 44
1.20048019207683
  0
TEXT
  5
431
330
71
100
AcDbEntity
  8
1
 62
     7
100
AcDbText
 10
-41.0487333905333
 20
24.36401123545846
 30
0.0
 40
2.5
  1
3212714
 41
0.81
  7
CONVERTER_12
100
AcDbText
  0
MTEXT
  5
432
330
71
100
AcDbEntity
  8
1
 62
     2
100
AcDbMText
 10
-113.3867481155805
 20
27.31401123545848
 30
0.0
 40
2.0
 41
0.0
 71
     5
 72
     1
  1
General Information\P- Simplified representation\P- Document excluded from change process\P- Linear dimensions [mm]
  7
CONVERTER_11
 73
     1
 44
1.20048019207683
  0
MTEXT
  5
433
330
71
100
AcDbEntity
  8
1
 62
     7
100
AcDbMText
 10
53.09607113621598
 20
89.56401123546047
 30
0.0
 40
3.5
 41
0.0
 71
     5
 72
     1
  1
C
  7
CONVERTER_11
 73
     1
 44
1.20048019207683
  0
MTEXT
  5
434
330
71
100
AcDbEntity
  8
1
 62
     7
100
AcDbMText
 10
53.09607113621598
 20
192.0640112354586
 30
0.0
 40
3.5
 41
0.0
 71
     5
 72
     1
  1
A
  7
CONVERTER_11
 73
     1
 44
1.20048019207683
  0
MTEXT
  5
435
330
71
100
AcDbEntity
  8
1
 62
     7
100
AcDbMText
 10
53.09607113621598
 20
139.5640112354605
 30
0.0
 40
3.5
 41
0.0
 71
     5
 72
     1
  1
B
  7
CONVERTER_11
 73
     1
 44
1.20048019207683
  0
MTEXT
  5
436
330
71
100
AcDbEntity
  8
1
 62
     7
100
AcDbMText
 10
53.09607113621598
 20
37.06401123545857
 30
0.0
 40
3.5
 41
0.0
 71
     5
 72
     1
  1
D
  7
CONVERTER_11
 73
     1
 44
1.20048019207683
  0
MTEXT
  5
437
330
71
100
AcDbEntity
  8
1
 62
     7
100
AcDbMText
 10
-217.1539288637826
 20
12.06401123545845
 30
0.0
 40
3.5
 41
0.0
 71
     5
 72
     1
  1
1
  7
CONVERTER_11
 73
     1
 44
1.20048019207683
  0
MTEXT
  5
438
330
71
100
AcDbEntity
  8
1
 62
     7
100
AcDbMText
 10
-167.903928863783
 20
12.06401123545845
 30
0.0
 40
3.5
 41
0.0
 71
     5
 72
     1
  1
2
  7
CONVERTER_11
 73
     1
 44
1.20048019207683
  0
MTEXT
  5
439
330
71
100
AcDbEntity
  8
1
 62
     7
100
AcDbMText
 10
-117.903928863783
 20
12.06401123545845
 30
0.0
 40
3.5
 41
0.0
 71
     5
 72
     1
  1
3
  7
CONVERTER_11
 73
     1
 44
1.20048019207683
  0
MTEXT
  5
43A
330
71
100
AcDbEntity
  8
1
 62
     7
100
AcDbMText
 10
-67.90392886378311
 20
12.06401123545845
 30
0.0
 40
3.5
 41
0.0
 71
     5
 72
     1
  1
4
  7
CONVERTER_11
 73
     1
 44
1.20048019207683
  0
MTEXT
  5
43B
330
71
100
AcDbEntity
  8
1
 62
     7
100
AcDbMText
 10
-17.90392886378302
 20
12.06401123545845
 30
0.0
 40
3.5
 41
0.0
 71
     5
 72
     1
  1
5
  7
CONVERTER_11
 73
     1
 44
1.20048019207683
  0
MTEXT
  5
43C
330
71
100
AcDbEntity
  8
1
 62
     7
100
AcDbMText
 10
31.34607113621618
 20
12.06401123545845
 30
0.0
 40
3.5
 41
0.0
 71
     5
 72
     1
  1
6
  7
CONVERTER_11
 73
     1
 44
1.20048019207683
  0
MTEXT
  5
43D
330
71
100
AcDbEntity
  8
1
 62
     7
100
AcDbMText
 10
-238.9039288637821
 20
192.0640112354586
 30
0.0
 40
3.5
 41
0.0
 71
     5
 72
     1
  1
A
  7
CONVERTER_11
 73
     1
 44
1.20048019207683
  0
MTEXT
  5
43E
330
71
100
AcDbEntity
  8
1
 62
     7
100
AcDbMText
 10
-238.9039288637821
 20
139.5640112354586
 30
0.0
 40
3.5
 41
0.0
 71
     5
 72
     1
  1
B
  7
CONVERTER_11
 73
     1
 44
1.20048019207683
  0
MTEXT
  5
43F
330
71
100
AcDbEntity
  8
1
 62
     7
100
AcDbMText
 10
-238.9039288637821
 20
89.56401123545857
 30
0.0
 40
3.5
 41
0.0
 71
     5
 72
     1
  1
C
  7
CONVERTER_11
 73
     1
 44
1.20048019207683
  0
MTEXT
  5
440
330
71
100
AcDbEntity
  8
1
 62
     7
100
AcDbMText
 10
-238.9039288637821
 20
37.06401123545857
 30
0.0
 40
3.5
 41
0.0
 71
     5
 72
     1
  1
D
  7
CONVERTER_11
 73
     1
 44
1.20048019207683
  0
MTEXT
  5
441
330
71
100
AcDbEntity
  8
1
 62
     3
100
AcDbMText
 10
-52.74873339053312
 20
35.68901123545857
 30
0.0
 40
2.5
 41
0.0
 71
     5
 72
     1
  1
DIN A4
  7
CONVERTER_11
 73
     1
 44
1.20048019207683
  0
MTEXT
  5
442
330
71
100
AcDbEntity
  8
1
 62
     2
100
AcDbMText
 10
-41.5487333905331
 20
22.06401123545857
 30
0.0
 40
1.8
 41
0.0
 71
     1
 72
     1
  1
description
  7
CONVERTER_11
 73
     1
 44
1.20048019207683
  0
MTEXT
  5
443
330
71
100
AcDbEntity
  8
1
 62
     7
100
AcDbMText
 10
4.02366887284248
 20
17.81401123545879
 30
0.0
 40
3.0
 41
0.0
 71
     5
 72
     1
  1
PP-H 1,5/S/1-R
  7
CONVERTER_12
 73
     1
 44
1.20048019207683
  0
TEXT
  5
444
330
71
100
AcDbEntity
  8
1
 62
     2
100
AcDbText
 10
-54.51342458071952
 20
15.81401123545845
 30
0.0
 40
1.8
  1
1
 41
0.9
  7
CONVERTER_11
100
AcDbText
  0
TEXT
  5
445
330
71
100
AcDbEntity
  8
1
 62
     2
100
AcDbText
 10
-69.30246842019102
 20
15.76476258165656
 30
0.0
 40
1.8
  1
1
 41
0.9
  7
CONVERTER_11
100
AcDbText
  0
TEXT
  5
446
330
71
100
AcDbEntity
  8
1
 62
     2
100
AcDbText
 10
-77.94873339053302
 20
15.80499402046689
 30
0.0
 40
1.8
  1
page
 41
0.9
  7
CONVERTER_11
100
AcDbText
  0
TEXT
  5
447
330
71
100
AcDbEntity
  8
1
 62
     2
100
AcDbText
 10
-59.7487333905332
 20
15.80499402046695
 30
0.0
 40
1.8
  1
of
 41
0.9
  7
CONVERTER_11
100
AcDbText
  0
MTEXT
  5
448
330
71
100
AcDbEntity
  8
1
 62
     3
100
AcDbMText
 10
-53.54575123892312
 20
201.3553193907574
 30
0.0
 40
1.8
 41
0.0
 71
     7
 72
     1
  3
Transfer or duplication of this document as well as the utilisation or\Pcommunication of its content are not permitted unless express consent\Pis granted. Violations give rise to claims for damages. All rights reserved\Pin case of patent, utility mo
  1
del or design patent registrations.
  7
CONVERTER_11
 73
     1
 44
0.99639855942377
  0
MTEXT
  5
449
330
71
100
AcDbEntity
  8
1
 62
     3
100
AcDbMText
 10
-236.3988610777112
 20
201.3553193907574
 30
0.0
 40
1.8
 41
0.0
 71
     7
 72
     1
  3
Weitergabe sowie Vervielf\U+00e4ltigung dieses Dokuments, Verwertung und \PMitteilung seines Inhalts sind verboten, soweit nicht ausdr\U+00fccklich gestattet. \PZuwiderhandlungen verpflichten zu Schadenersatz. Alle Rechte f\U+00fcr den Fall\Pder Pat
  1
ent-, Gebrauchsmuster- oder Designeintragung vorbehalten.
  7
CONVERTER_11
 73
     1
 44
0.99639855942377
  0
HATCH
  5
44A
330
71
100
AcDbEntity
  8
1
  6
Continuous
 62
     2
100
AcDbHatch
 10
0.0
 20
0.0
 30
0.0
210
0.0
220
0.0
230
1.0
  2
_USER
 70
     0
 71
     1
 91
        1
 92
        1
 93
       14
 72
     2
 10
-66.70750411461032
 20
23.38441599738016
 40
1.205656168390944
 50
164.9381082228765
 51
195.061891777095
 73
     1
 72
     2
 10
-66.28837627114751
 20
23.49720635941497
 40
1.639695123939387
 50
195.0618917770896
 51
275.1581447696395
 73
     1
 72
     2
 10
-66.57723236588342
 20
26.69709694263656
 40
4.852596863498134
 50
275.1581447696249
 51
285.9799912583529
 73
     1
 72
     1
 10
-65.24130444876562
 20
22.03201463683575
 11
-65.24130444876562
 21
22.90453164363896
 72
     2
 10
-66.4193594907905
 20
24.79488236278885
 40
2.22738400897273
 50
58.06909105004065
 51
71.55192388186718
 73
     0
 72
     2
 10
-66.0011917571297
 20
23.54133658675167
 40
0.905929784984916
 50
71.55192388184147
 51
113.3722778881291
 73
     0
 72
     2
 10
-66.15763178983173
 20
23.17934456804167
 40
0.5115800601948034
 50
113.3722778881728
 51
151.4785267423044
 73
     0
 72
     2
 10
-65.78027453175142
 20
23.38441599738016
 40
0.9410597353332545
 50
151.4785267422943
 51
208.5214732577331
 73
     0
 72
     2
 10
-66.15763178983173
 20
23.58948742671916
 40
0.5115800601948779
 50
208.5214732576956
 51
246.6277221118009
 73
     0
 72
     2
 10
-66.0011917571297
 20
23.22749540800857
 40
0.9059297849853228
 50
246.6277221118709
 51
288.4480761181465
 73
     0
 72
     2
 10
-66.4193594907905
 20
21.97394963197198
 40
2.227384008973474
 50
288.4480761181328
 51
301.9309089499593
 73
     0
 72
     1
 10
-65.24130444876562
 20
23.86430035112187
 11
-65.24130444876562
 21
24.73681735792516
 72
     2
 10
-66.57723236588342
 20
20.07173505212427
 40
4.852596863498062
 50
74.02000874164736
 51
84.84185523037506
 73
     1
 72
     2
 10
-66.28837627114751
 20
23.27162563534526
 40
1.639695123940507
 50
84.84185523036236
 51
164.9381082228864
 73
     1
 97
       14
330
41F
330
338
330
3EE
330
41E
330
3EF
330
3F0
330
41D
330
41C
330
41B
330
339
330
3F1
330
3F2
330
3F3
330
3F4
 75
     1
 76
     0
 52
45.0
 41
0.1
 77
     0
 78
     1
 53
45.0
 43
0.0
 44
0.0
 45
-0.0707106781186548
 46
0.0707106781186548
 79
     0
 98
        1
 10
0.0
 20
0.0
  0
HATCH
  5
44B
330
71
100
AcDbEntity
  8
1
  6
Continuous
 62
     2
100
AcDbHatch
 10
0.0
 20
0.0
 30
0.0
210
0.0
220
0.0
230
1.0
  2
_USER
 70
     0
 71
     1
 91
        1
 92
        1
 93
       14
 72
     2
 10
-66.70750411461032
 20
23.38441599738016
 40
1.205656168390944
 50
164.9381082228765
 51
195.061891777095
 73
     1
 72
     2
 10
-66.28837627114751
 20
23.49720635941497
 40
1.639695123939387
 50
195.0618917770896
 51
275.1581447696395
 73
     1
 72
     2
 10
-66.57723236588342
 20
26.69709694263656
 40
4.852596863498134
 50
275.1581447696249
 51
285.9799912583529
 73
     1
 72
     1
 10
-65.24130444876562
 20
22.03201463683575
 11
-65.24130444876562
 21
22.90453164363896
 72
     2
 10
-66.4193594907905
 20
24.79488236278885
 40
2.22738400897273
 50
58.06909105004065
 51
71.55192388186718
 73
     0
 72
     2
 10
-66.0011917571297
 20
23.54133658675167
 40
0.905929784984916
 50
71.55192388184147
 51
113.3722778881291
 73
     0
 72
     2
 10
-66.15763178983173
 20
23.17934456804167
 40
0.5115800601948034
 50
113.3722778881728
 51
151.4785267423044
 73
     0
 72
     2
 10
-65.78027453175142
 20
23.38441599738016
 40
0.9410597353332545
 50
151.4785267422943
 51
208.5214732577331
 73
     0
 72
     2
 10
-66.15763178983173
 20
23.58948742671916
 40
0.5115800601948779
 50
208.5214732576956
 51
246.6277221118009
 73
     0
 72
     2
 10
-66.0011917571297
 20
23.22749540800857
 40
0.9059297849853228
 50
246.6277221118709
 51
288.4480761181465
 73
     0
 72
     2
 10
-66.4193594907905
 20
21.97394963197198
 40
2.227384008973474
 50
288.4480761181328
 51
301.9309089499593
 73
     0
 72
     1
 10
-65.24130444876562
 20
23.86430035112187
 11
-65.24130444876562
 21
24.73681735792516
 72
     2
 10
-66.57723236588342
 20
20.07173505212427
 40
4.852596863498062
 50
74.02000874164736
 51
84.84185523037506
 73
     1
 72
     2
 10
-66.28837627114751
 20
23.27162563534526
 40
1.639695123940507
 50
84.84185523036236
 51
164.9381082228864
 73
     1
 97
       14
330
41F
330
338
330
3EE
330
41E
330
3EF
330
3F0
330
41D
330
41C
330
41B
330
339
330
3F1
330
3F2
330
3F3
330
3F4
 75
     1
 76
     0
 52
45.0
 41
0.1
 77
     0
 78
     1
 53
45.0
 43
0.0
 44
0.0
 45
-0.0707106781186548
 46
0.0707106781186548
 79
     0
 98
        1
 10
0.0
 20
0.0
  0
HATCH
  5
44C
330
71
100
AcDbEntity
  8
1
  6
Continuous
 62
     2
100
AcDbHatch
 10
0.0
 20
0.0
 30
0.0
210
0.0
220
0.0
230
1.0
  2
_USER
 70
     0
 71
     1
 91
        1
 92
        1
 93
       18
 72
     2
 10
-50.1856747918946
 20
23.27162563534526
 40
1.639695123940211
 50
90.0
 51
164.938108222895
 73
     1
 72
     2
 10
-50.60480263535621
 20
23.38441599738016
 40
1.205656168393002
 50
164.9381082229028
 51
195.0618917770958
 73
     1
 72
     2
 10
-50.1856747918946
 20
23.49720635941497
 40
1.639695123940446
 50
195.061891777101
 51
275.1581447696762
 73
     1
 72
     2
 10
-50.47453088663042
 20
26.69709694263656
 40
4.852596863498825
 50
275.1581447696364
 51
285.9799912583387
 73
     1
 72
     1
 10
-49.1386029695137
 20
22.03201463683516
 11
-49.1386029695137
 21
22.90453164363848
 72
     2
 10
-50.31665801153761
 20
24.79488236278826
 40
2.227384008972746
 50
58.06909105006029
 51
71.55192388186651
 73
     0
 72
     2
 10
-49.89849027787571
 20
23.54133658675167
 40
0.9059297849852797
 50
71.55192388191821
 51
113.3722778881823
 73
     0
 72
     2
 10
-50.05493031057881
 20
23.17934456804167
 40
0.5115800601960215
 50
113.372277888156
 51
151.4785267423134
 73
     0
 72
     2
 10
-49.67757305249742
 20
23.38441599738016
 40
0.9410597353348907
 50
151.4785267423305
 51
208.5214732576374
 73
     0
 72
     2
 10
-50.05493031057881
 20
23.58948742671916
 40
0.511580060194421
 50
208.5214732575772
 51
250.662856780515
 73
     0
 72
     2
 10
-49.90826031247511
 20
23.17153244633627
 40
0.9545230068261006
 50
250.6628567805682
 51
270.0
 73
     0
 72
     1
 10
-49.90826031247511
 20
24.12605545316237
 11
-48.80462101290701
 21
24.12605545316237
 72
     1
 10
-48.80462101290701
 20
24.12605545316237
 11
-48.80462101290701
 21
21.85751123547487
 72
     1
 10
-48.80462101290701
 20
21.85751123547487
 11
-47.6118283107393
 21
21.85751123547487
 72
     1
 10
-47.6118283107393
 20
21.85751123547487
 11
-47.6118283107393
 21
24.12605545316237
 72
     1
 10
-47.6118283107393
 20
24.12605545316237
 11
-46.80072927326592
 21
24.12605545316237
 72
     1
 10
-46.80072927326592
 20
24.12605545316237
 11
-46.80072927326592
 21
24.91132075928596
 72
     1
 10
-46.80072927326592
 20
24.91132075928596
 11
-50.1856747918946
 21
24.91132075928547
 97
       18
330
39E
330
39D
330
39C
330
39B
330
3A0
330
33A
330
418
330
3F9
330
417
330
3FA
330
416
330
415
330
33B
330
414
330
413
330
3FB
330
3FC
330
39F
 75
     1
 76
     0
 52
45.0
 41
0.1
 77
     0
 78
     1
 53
45.0
 43
0.0
 44
0.0
 45
-0.0707106781186548
 46
0.0707106781186548
 79
     0
 98
        1
 10
0.0
 20
0.0
  0
HATCH
  5
44D
330
71
100
AcDbEntity
  8
1
  6
Continuous
 62
     2
100
AcDbHatch
 10
0.0
 20
0.0
 30
0.0
210
0.0
220
0.0
230
1.0
  2
_USER
 70
     0
 71
     1
 91
        1
 92
        1
 93
       18
 72
     2
 10
-50.1856747918946
 20
23.27162563534526
 40
1.639695123940211
 50
90.0
 51
164.938108222895
 73
     1
 72
     2
 10
-50.60480263535621
 20
23.38441599738016
 40
1.205656168393002
 50
164.9381082229028
 51
195.0618917770958
 73
     1
 72
     2
 10
-50.1856747918946
 20
23.49720635941497
 40
1.639695123940446
 50
195.061891777101
 51
275.1581447696762
 73
     1
 72
     2
 10
-50.47453088663042
 20
26.69709694263656
 40
4.852596863498825
 50
275.1581447696364
 51
285.9799912583387
 73
     1
 72
     1
 10
-49.1386029695137
 20
22.03201463683516
 11
-49.1386029695137
 21
22.90453164363848
 72
     2
 10
-50.31665801153761
 20
24.79488236278826
 40
2.227384008972746
 50
58.06909105006029
 51
71.55192388186651
 73
     0
 72
     2
 10
-49.89849027787571
 20
23.54133658675167
 40
0.9059297849852797
 50
71.55192388191821
 51
113.3722778881823
 73
     0
 72
     2
 10
-50.05493031057881
 20
23.17934456804167
 40
0.5115800601960215
 50
113.372277888156
 51
151.4785267423134
 73
     0
 72
     2
 10
-49.67757305249742
 20
23.38441599738016
 40
0.9410597353348907
 50
151.4785267423305
 51
208.5214732576374
 73
     0
 72
     2
 10
-50.05493031057881
 20
23.58948742671916
 40
0.511580060194421
 50
208.5214732575772
 51
250.662856780515
 73
     0
 72
     2
 10
-49.90826031247511
 20
23.17153244633627
 40
0.9545230068261006
 50
250.6628567805682
 51
270.0
 73
     0
 72
     1
 10
-49.90826031247511
 20
24.12605545316237
 11
-48.80462101290701
 21
24.12605545316237
 72
     1
 10
-48.80462101290701
 20
24.12605545316237
 11
-48.80462101290701
 21
21.85751123547487
 72
     1
 10
-48.80462101290701
 20
21.85751123547487
 11
-47.6118283107393
 21
21.85751123547487
 72
     1
 10
-47.6118283107393
 20
21.85751123547487
 11
-47.6118283107393
 21
24.12605545316237
 72
     1
 10
-47.6118283107393
 20
24.12605545316237
 11
-46.80072927326592
 21
24.12605545316237
 72
     1
 10
-46.80072927326592
 20
24.12605545316237
 11
-46.80072927326592
 21
24.91132075928596
 72
     1
 10
-46.80072927326592
 20
24.91132075928596
 11
-50.1856747918946
 21
24.91132075928547
 97
       18
330
39E
330
39D
330
39C
330
39B
330
3A0
330
33A
330
418
330
3F9
330
417
330
3FA
330
416
330
415
330
33B
330
414
330
413
330
3FB
330
3FC
330
39F
 75
     1
 76
     0
 52
45.0
 41
0.1
 77
     0
 78
     1
 53
45.0
 43
0.0
 44
0.0
 45
-0.0707106781186548
 46
0.0707106781186548
 79
     0
 98
        1
 10
0.0
 20
0.0
  0
HATCH
  5
44E
330
71
100
AcDbEntity
  8
1
  6
Continuous
 62
     2
100
AcDbHatch
 10
0.0
 20
0.0
 30
0.0
210
0.0
220
0.0
230
1.0
  2
_USER
 70
     0
 71
     1
 91
        4
 92
        1
 93
        8
 72
     2
 10
-74.28783388858761
 20
27.84626662005837
 40
0.4242446153838024
 50
90.0
 51
180.0
 73
     1
 72
     1
 10
-74.71207850397042
 20
27.84626662005837
 11
-74.71207850397042
 21
22.28175585085816
 72
     2
 10
-74.28783388858761
 20
22.28175585085816
 40
0.4242446153828041
 50
180.0
 51
270.0
 73
     1
 72
     1
 10
-74.28783388858761
 20
21.85751123547487
 11
-68.81452179787081
 21
21.85751123547487
 72
     2
 10
-68.81452179787081
 20
22.28175585085816
 40
0.4242446153832908
 50
270.0
 51
360.0
 73
     1
 72
     1
 10
-68.39027718248693
 20
22.28175585085816
 11
-68.39027718248693
 21
27.84626662005837
 72
     2
 10
-68.81452179787081
 20
27.84626662005837
 40
0.4242446153838841
 50
0.0
 51
90.0
 73
     1
 72
     1
 10
-68.81452179787081
 20
28.27051123544217
 11
-74.28783388858761
 21
28.27051123544217
 97
        8
330
40C
330
369
330
40B
330
36A
330
402
330
367
330
40D
330
368
 92
       16
 93
        1
 72
     2
 10
-71.6682482380701
 20
25.52738439170287
 40
0.4709789327785074
 50
0.0
 51
360.0
 73
     1
 97
        1
330
420
 92
       16
 93
        8
 72
     2
 10
-71.6444332233973
 20
25.52738439170287
 40
0.911848150144459
 50
295.3740086781764
 51
424.6259913218072
 73
     1
 72
     2
 10
-71.11839052530942
 20
26.63652599167068
 40
0.315716923076792
 50
115.3740086783516
 51
180.0
 73
     0
 72
     1
 10
-71.43410744838621
 20
26.63652599167068
 11
-71.43410744838621
 21
27.24206128017747
 72
     2
 10
-71.11839052530942
 20
27.24206128017747
 40
0.315716923076064
 50
180.0
 51
269.8110329574541
 73
     0
 72
     2
 10
-71.1127743899994
 20
25.53922633260837
 40
2.018561131933266
 50
269.8110329575858
 51
450.1889670424142
 73
     0
 72
     2
 10
-71.11839052530942
 20
23.83639138503938
 40
0.315716923076792
 50
90.18896704254585
 51
180.0
 73
     0
 72
     1
 10
-71.43410744838621
 20
23.83639138503938
 11
-71.43410744838621
 21
24.41824279173446
 72
     2
 10
-71.11839052530942
 20
24.41824279173446
 40
0.3157169230765328
 50
180.0
 51
244.6259913216482
 73
     0
 97
        8
330
41A
330
3F6
330
3A2
330
419
330
3F7
330
3F8
330
3A1
330
3F5
 92
       16
 93
       12
 72
     1
 10
-73.69393921184113
 20
22.57006679103176
 11
-72.2181059508315
 21
22.57006679103176
 72
     2
 10
-72.2181059508315
 20
22.88578371410847
 40
0.3157169230767103
 50
270.0
 51
360.0
 73
     1
 72
     1
 10
-71.90238902775491
 20
22.88578371410847
 11
-71.90238902775491
 21
24.41655464564008
 72
     2
 10
-72.2181059508315
 20
24.41655464564008
 40
0.315716923076593
 50
0.0
 51
64.80558935146027
 73
     1
 72
     2
 10
-71.69552150325651
 20
25.52738439170287
 40
0.9118975235576114
 50
115.1944106485122
 51
244.8055893514717
 73
     0
 72
     2
 10
-72.2181059508315
 20
26.63821413776506
 40
0.3157169230761203
 50
295.1944106485397
 51
360.0
 73
     1
 72
     1
 10
-71.90238902775491
 20
26.63821413776506
 11
-71.90238902775491
 21
27.24223875682557
 72
     2
 10
-72.2181059508315
 20
27.24223875682557
 40
0.315716923076593
 50
0.0
 51
90.0
 73
     1
 72
     1
 10
-72.2181059508315
 20
27.55795567990177
 11
-73.69393921184113
 21
27.55795567990177
 72
     2
 10
-73.69393921184113
 20
27.24223875682557
 40
0.3157169230761987
 50
90.0
 51
180.0
 73
     1
 72
     1
 10
-74.00965613491681
 20
27.24223875682557
 11
-74.00965613491681
 21
22.88578371410847
 72
     2
 10
-73.69393921184113
 20
22.88578371410847
 40
0.3157169230756836
 50
180.0
 51
270.0
 73
     1
 97
       12
330
36E
330
3FF
330
36D
330
410
330
36C
330
40F
330
400
330
401
330
36B
330
40E
330
366
330
411
 75
     1
 76
     0
 52
45.0
 41
0.1
 77
     0
 78
     1
 53
45.0
 43
0.0
 44
0.0
 45
-0.0707106781186548
 46
0.0707106781186548
 79
     0
 98
        1
 10
0.0
 20
0.0
  0
HATCH
  5
44F
330
71
100
AcDbEntity
  8
1
  6
Continuous
 62
     2
100
AcDbHatch
 10
0.0
 20
0.0
 30
0.0
210
0.0
220
0.0
230
1.0
  2
_USER
 70
     0
 71
     1
 91
        4
 92
        1
 93
        8
 72
     2
 10
-74.28783388858761
 20
27.84626662005837
 40
0.4242446153838024
 50
90.0
 51
180.0
 73
     1
 72
     1
 10
-74.71207850397042
 20
27.84626662005837
 11
-74.71207850397042
 21
22.28175585085816
 72
     2
 10
-74.28783388858761
 20
22.28175585085816
 40
0.4242446153828041
 50
180.0
 51
270.0
 73
     1
 72
     1
 10
-74.28783388858761
 20
21.85751123547487
 11
-68.81452179787081
 21
21.85751123547487
 72
     2
 10
-68.81452179787081
 20
22.28175585085816
 40
0.4242446153832908
 50
270.0
 51
360.0
 73
     1
 72
     1
 10
-68.39027718248693
 20
22.28175585085816
 11
-68.39027718248693
 21
27.84626662005837
 72
     2
 10
-68.81452179787081
 20
27.84626662005837
 40
0.4242446153838841
 50
0.0
 51
90.0
 73
     1
 72
     1
 10
-68.81452179787081
 20
28.27051123544217
 11
-74.28783388858761
 21
28.27051123544217
 97
        8
330
40C
330
369
330
40B
330
36A
330
402
330
367
330
40D
330
368
 92
       16
 93
        1
 72
     2
 10
-71.6682482380701
 20
25.52738439170287
 40
0.4709789327785074
 50
0.0
 51
360.0
 73
     1
 97
        1
330
420
 92
       16
 93
        8
 72
     2
 10
-71.6444332233973
 20
25.52738439170287
 40
0.911848150144459
 50
295.3740086781764
 51
424.6259913218072
 73
     1
 72
     2
 10
-71.11839052530942
 20
26.63652599167068
 40
0.315716923076792
 50
115.3740086783516
 51
180.0
 73
     0
 72
     1
 10
-71.43410744838621
 20
26.63652599167068
 11
-71.43410744838621
 21
27.24206128017747
 72
     2
 10
-71.11839052530942
 20
27.24206128017747
 40
0.315716923076064
 50
180.0
 51
269.8110329574541
 73
     0
 72
     2
 10
-71.1127743899994
 20
25.53922633260837
 40
2.018561131933266
 50
269.8110329575858
 51
450.1889670424142
 73
     0
 72
     2
 10
-71.11839052530942
 20
23.83639138503938
 40
0.315716923076792
 50
90.18896704254585
 51
180.0
 73
     0
 72
     1
 10
-71.43410744838621
 20
23.83639138503938
 11
-71.43410744838621
 21
24.41824279173446
 72
     2
 10
-71.11839052530942
 20
24.41824279173446
 40
0.3157169230765328
 50
180.0
 51
244.6259913216482
 73
     0
 97
        8
330
41A
330
3F6
330
3A2
330
419
330
3F7
330
3F8
330
3A1
330
3F5
 92
       16
 93
       12
 72
     1
 10
-73.69393921184113
 20
22.57006679103176
 11
-72.2181059508315
 21
22.57006679103176
 72
     2
 10
-72.2181059508315
 20
22.88578371410847
 40
0.3157169230767103
 50
270.0
 51
360.0
 73
     1
 72
     1
 10
-71.90238902775491
 20
22.88578371410847
 11
-71.90238902775491
 21
24.41655464564008
 72
     2
 10
-72.2181059508315
 20
24.41655464564008
 40
0.315716923076593
 50
0.0
 51
64.80558935146027
 73
     1
 72
     2
 10
-71.69552150325651
 20
25.52738439170287
 40
0.9118975235576114
 50
115.1944106485122
 51
244.8055893514717
 73
     0
 72
     2
 10
-72.2181059508315
 20
26.63821413776506
 40
0.3157169230761203
 50
295.1944106485397
 51
360.0
 73
     1
 72
     1
 10
-71.90238902775491
 20
26.63821413776506
 11
-71.90238902775491
 21
27.24223875682557
 72
     2
 10
-72.2181059508315
 20
27.24223875682557
 40
0.315716923076593
 50
0.0
 51
90.0
 73
     1
 72
     1
 10
-72.2181059508315
 20
27.55795567990177
 11
-73.69393921184113
 21
27.55795567990177
 72
     2
 10
-73.69393921184113
 20
27.24223875682557
 40
0.3157169230761987
 50
90.0
 51
180.0
 73
     1
 72
     1
 10
-74.00965613491681
 20
27.24223875682557
 11
-74.00965613491681
 21
22.88578371410847
 72
     2
 10
-73.69393921184113
 20
22.88578371410847
 40
0.3157169230756836
 50
180.0
 51
270.0
 73
     1
 97
       12
330
36E
330
3FF
330
36D
330
410
330
36C
330
40F
330
400
330
401
330
36B
330
40E
330
366
330
411
 75
     1
 76
     0
 52
45.0
 41
0.1
 77
     0
 78
     1
 53
45.0
 43
0.0
 44
0.0
 45
-0.0707106781186548
 46
0.0707106781186548
 79
     0
 98
        1
 10
0.0
 20
0.0
  0
HATCH
  5
450
330
71
100
AcDbEntity
  8
1
  6
Continuous
 62
     2
100
AcDbHatch
 10
0.0
 20
0.0
 30
0.0
210
0.0
220
0.0
230
1.0
  2
_USER
 70
     0
 71
     1
 91
        2
 92
        1
 93
       12
 72
     2
 10
-59.61266988459832
 20
26.74360647355448
 40
1.526904761905882
 50
90.0
 51
270.0
 73
     1
 72
     1
 10
-59.61266988459832
 20
25.21670171164917
 11
-56.46235016081732
 21
25.21670171164917
 72
     1
 10
-56.46235016081732
 20
25.21670171164917
 11
-56.46235016081732
 21
25.91471531709166
 72
     1
 10
-56.46235016081732
 20
25.91471531709166
 11
-57.798277987245
 21
25.91471531709166
 72
     1
 10
-57.798277987245
 20
25.91471531709166
 11
-57.798277987245
 21
26.39459967083337
 72
     1
 10
-57.798277987245
 20
26.39459967083337
 11
-56.46235016081732
 21
26.39459967083337
 72
     1
 10
-56.46235016081732
 20
26.39459967083337
 11
-56.46235016081732
 21
27.09261327627567
 72
     1
 10
-56.46235016081732
 20
27.09261327627567
 11
-57.798277987245
 21
27.09261327627567
 72
     1
 10
-57.798277987245
 20
27.09261327627567
 11
-57.798277987245
 21
27.57249763001738
 72
     1
 10
-57.798277987245
 20
27.57249763001738
 11
-56.46235016081732
 21
27.57249763001738
 72
     1
 10
-56.46235016081732
 20
27.57249763001738
 11
-56.46235016081732
 21
28.27051123546036
 72
     1
 10
-56.46235016081732
 20
28.27051123546036
 11
-59.61266988459832
 21
28.27051123546036
 97
       12
330
35D
330
357
330
37E
330
37D
330
37C
330
37B
330
358
330
359
330
35A
330
35B
330
3FD
330
35C
 92
       16
 93
        4
 72
     2
 10
-59.19665783808682
 20
26.74360647355448
 40
0.7717997786796724
 50
141.8795802028404
 51
218.120419797156
 73
     1
 72
     2
 10
-59.39639787443312
 20
26.58687529543406
 40
0.5179085730134372
 50
218.1204197971511
 51
321.8795802028571
 73
     1
 72
     2
 10
-59.59613791077931
 20
26.74360647355448
 40
0.7717997786796463
 50
321.8795802028446
 51
398.1204197971589
 73
     1
 72
     2
 10
-59.39639787443312
 20
26.90033765167496
 40
0.5179085730135321
 50
38.12041979714286
 51
141.8795802028489
 73
     1
 97
        4
330
40A
330
409
330
404
330
403
 75
     1
 76
     0
 52
45.0
 41
0.1
 77
     0
 78
     1
 53
45.0
 43
0.0
 44
0.0
 45
-0.0707106781186548
 46
0.0707106781186548
 79
     0
 98
        1
 10
0.0
 20
0.0
  0
HATCH
  5
451
330
71
100
AcDbEntity
  8
1
  6
Continuous
 62
     2
100
AcDbHatch
 10
0.0
 20
0.0
 30
0.0
210
0.0
220
0.0
230
1.0
  2
_USER
 70
     0
 71
     1
 91
        2
 92
        1
 93
       12
 72
     2
 10
-59.61266988459832
 20
26.74360647355448
 40
1.526904761905882
 50
90.0
 51
270.0
 73
     1
 72
     1
 10
-59.61266988459832
 20
25.21670171164917
 11
-56.46235016081732
 21
25.21670171164917
 72
     1
 10
-56.46235016081732
 20
25.21670171164917
 11
-56.46235016081732
 21
25.91471531709166
 72
     1
 10
-56.46235016081732
 20
25.91471531709166
 11
-57.798277987245
 21
25.91471531709166
 72
     1
 10
-57.798277987245
 20
25.91471531709166
 11
-57.798277987245
 21
26.39459967083337
 72
     1
 10
-57.798277987245
 20
26.39459967083337
 11
-56.46235016081732
 21
26.39459967083337
 72
     1
 10
-56.46235016081732
 20
26.39459967083337
 11
-56.46235016081732
 21
27.09261327627567
 72
     1
 10
-56.46235016081732
 20
27.09261327627567
 11
-57.798277987245
 21
27.09261327627567
 72
     1
 10
-57.798277987245
 20
27.09261327627567
 11
-57.798277987245
 21
27.57249763001738
 72
     1
 10
-57.798277987245
 20
27.57249763001738
 11
-56.46235016081732
 21
27.57249763001738
 72
     1
 10
-56.46235016081732
 20
27.57249763001738
 11
-56.46235016081732
 21
28.27051123546036
 72
     1
 10
-56.46235016081732
 20
28.27051123546036
 11
-59.61266988459832
 21
28.27051123546036
 97
       12
330
35D
330
357
330
37E
330
37D
330
37C
330
37B
330
358
330
359
330
35A
330
35B
330
3FD
330
35C
 92
       16
 93
        4
 72
     2
 10
-59.19665783808682
 20
26.74360647355448
 40
0.7717997786796724
 50
141.8795802028404
 51
218.120419797156
 73
     1
 72
     2
 10
-59.39639787443312
 20
26.58687529543406
 40
0.5179085730134372
 50
218.1204197971511
 51
321.8795802028571
 73
     1
 72
     2
 10
-59.59613791077931
 20
26.74360647355448
 40
0.7717997786796463
 50
321.8795802028446
 51
398.1204197971589
 73
     1
 72
     2
 10
-59.39639787443312
 20
26.90033765167496
 40
0.5179085730135321
 50
38.12041979714286
 51
141.8795802028489
 73
     1
 97
        4
330
40A
330
409
330
404
330
403
 75
     1
 76
     0
 52
45.0
 41
0.1
 77
     0
 78
     1
 53
45.0
 43
0.0
 44
0.0
 45
-0.0707106781186548
 46
0.0707106781186548
 79
     0
 98
        1
 10
0.0
 20
0.0
  0
HATCH
  5
452
330
71
100
AcDbEntity
  8
1
  6
Continuous
 62
     2
100
AcDbHatch
 10
0.0
 20
0.0
 30
0.0
210
0.0
220
0.0
230
1.0
  2
_USER
 70
     0
 71
     1
 91
        2
 92
        1
 93
        4
 72
     2
 10
-63.63828524705991
 20
23.38441599738016
 40
1.45803408365149
 50
117.5481481756624
 51
242.4518518243375
 73
     1
 72
     2
 10
-63.35734535522661
 20
23.92299100768346
 40
2.065479772208505
 50
242.4518518243401
 51
297.5481481756871
 73
     1
 72
     2
 10
-63.07640546339331
 20
23.38441599738016
 40
1.458034083651999
 50
297.5481481757009
 51
422.4518518242992
 73
     1
 72
     2
 10
-63.35734535522661
 20
22.84584098707737
 40
2.065479772208564
 50
62.45185182430632
 51
117.5481481756664
 73
     1
 97
        4
330
408
330
405
330
407
330
406
 92
       16
 93
        4
 72
     2
 10
-63.35734535522661
 20
23.54114717550067
 40
0.5179085730132921
 50
38.12041979714721
 51
141.8795802028596
 73
     1
 72
     2
 10
-63.15760531888051
 20
23.38441599738016
 40
0.7717997786794666
 50
141.8795802028368
 51
218.1204197971684
 73
     1
 72
     2
 10
-63.35734535522661
 20
23.22768481926016
 40
0.5179085730137387
 50
218.1204197971924
 51
321.8795802028009
 73
     1
 72
     2
 10
-63.55708539157303
 20
23.38441599738016
 40
0.7717997786796947
 50
321.8795802028417
 51
398.120419797153
 73
     1
 97
        4
330
3EB
330
3EC
330
3ED
330
3EA
 75
     1
 76
     0
 52
45.0
 41
0.1
 77
     0
 78
     1
 53
45.0
 43
0.0
 44
0.0
 45
-0.0707106781186548
 46
0.0707106781186548
 79
     0
 98
        1
 10
0.0
 20
0.0
  0
HATCH
  5
453
330
71
100
AcDbEntity
  8
1
  6
Continuous
 62
     2
100
AcDbHatch
 10
0.0
 20
0.0
 30
0.0
210
0.0
220
0.0
230
1.0
  2
_USER
 70
     0
 71
     1
 91
        2
 92
        1
 93
        4
 72
     2
 10
-63.63828524705991
 20
23.38441599738016
 40
1.45803408365149
 50
117.5481481756624
 51
242.4518518243375
 73
     1
 72
     2
 10
-63.35734535522661
 20
23.92299100768346
 40
2.065479772208505
 50
242.4518518243401
 51
297.5481481756871
 73
     1
 72
     2
 10
-63.07640546339331
 20
23.38441599738016
 40
1.458034083651999
 50
297.5481481757009
 51
422.4518518242992
 73
     1
 72
     2
 10
-63.35734535522661
 20
22.84584098707737
 40
2.065479772208564
 50
62.45185182430632
 51
117.5481481756664
 73
     1
 97
        4
330
408
330
405
330
407
330
406
 92
       16
 93
        4
 72
     2
 10
-63.35734535522661
 20
23.54114717550067
 40
0.5179085730132921
 50
38.12041979714721
 51
141.8795802028596
 73
     1
 72
     2
 10
-63.15760531888051
 20
23.38441599738016
 40
0.7717997786794666
 50
141.8795802028368
 51
218.1204197971684
 73
     1
 72
     2
 10
-63.35734535522661
 20
23.22768481926016
 40
0.5179085730137387
 50
218.1204197971924
 51
321.8795802028009
 73
     1
 72
     2
 10
-63.55708539157303
 20
23.38441599738016
 40
0.7717997786796947
 50
321.8795802028417
 51
398.120419797153
 73
     1
 97
        4
330
3EB
330
3EC
330
3ED
330
3EA
 75
     1
 76
     0
 52
45.0
 41
0.1
 77
     0
 78
     1
 53
45.0
 43
0.0
 44
0.0
 45
-0.0707106781186548
 46
0.0707106781186548
 79
     0
 98
        1
 10
0.0
 20
0.0
  0
HATCH
  5
454
330
71
100
AcDbEntity
  8
1
  6
Continuous
 62
     2
100
AcDbHatch
 10
0.0
 20
0.0
 30
0.0
210
0.0
220
0.0
230
1.0
  2
_USER
 70
     0
 71
     1
 91
        2
 92
        1
 93
        6
 72
     1
 10
-67.91316010162012
 20
28.27051123546036
 11
-67.91316010162012
 21
25.21670171164917
 72
     1
 10
-67.91316010162012
 20
25.21670171164917
 11
-66.672655691366
 21
25.21670171164917
 72
     1
 10
-66.672655691366
 20
25.21670171164917
 11
-66.672655691366
 21
26.15977995279297
 72
     1
 10
-66.672655691366
 20
26.15977995279297
 11
-65.91388810358572
 21
26.15977995279297
 72
     2
 10
-65.91388810358572
 20
27.21514559412668
 40
1.055365641333712
 50
270.0
 51
450.0
 73
     1
 72
     1
 10
-65.91388810358572
 20
28.27051123546036
 11
-67.91316010162012
 21
28.27051123546036
 97
        6
330
412
330
36F
330
365
330
364
330
371
330
370
 92
       16
 93
        4
 72
     1
 10
-66.3553606298241
 20
27.60740539002026
 11
-66.672655691366
 21
27.60740539002026
 72
     1
 10
-66.672655691366
 20
27.60740539002026
 11
-66.672655691366
 21
26.90167774067805
 72
     1
 10
-66.672655691366
 20
26.90167774067805
 11
-66.3553606298241
 21
26.90167774067805
 72
     2
 10
-66.3553606298241
 20
27.25454156534917
 40
0.3528638246711218
 50
270.0
 51
450.0
 73
     1
 97
        4
330
372
330
363
330
373
330
3FE
 75
     1
 76
     0
 52
45.0
 41
0.1
 77
     0
 78
     1
 53
45.0
 43
0.0
 44
0.0
 45
-0.0707106781186548
 46
0.0707106781186548
 79
     0
 98
        1
 10
0.0
 20
0.0
  0
HATCH
  5
455
330
71
100
AcDbEntity
  8
1
  6
Continuous
 62
     2
100
AcDbHatch
 10
0.0
 20
0.0
 30
0.0
210
0.0
220
0.0
230
1.0
  2
_USER
 70
     0
 71
     1
 91
        2
 92
        1
 93
        6
 72
     1
 10
-67.91316010162012
 20
28.27051123546036
 11
-67.91316010162012
 21
25.21670171164917
 72
     1
 10
-67.91316010162012
 20
25.21670171164917
 11
-66.672655691366
 21
25.21670171164917
 72
     1
 10
-66.672655691366
 20
25.21670171164917
 11
-66.672655691366
 21
26.15977995279297
 72
     1
 10
-66.672655691366
 20
26.15977995279297
 11
-65.91388810358572
 21
26.15977995279297
 72
     2
 10
-65.91388810358572
 20
27.21514559412668
 40
1.055365641333712
 50
270.0
 51
450.0
 73
     1
 72
     1
 10
-65.91388810358572
 20
28.27051123546036
 11
-67.91316010162012
 21
28.27051123546036
 97
        6
330
412
330
36F
330
365
330
364
330
371
330
370
 92
       16
 93
        4
 72
     1
 10
-66.3553606298241
 20
27.60740539002026
 11
-66.672655691366
 21
27.60740539002026
 72
     1
 10
-66.672655691366
 20
27.60740539002026
 11
-66.672655691366
 21
26.90167774067805
 72
     1
 10
-66.672655691366
 20
26.90167774067805
 11
-66.3553606298241
 21
26.90167774067805
 72
     2
 10
-66.3553606298241
 20
27.25454156534917
 40
0.3528638246711218
 50
270.0
 51
450.0
 73
     1
 97
        4
330
372
330
363
330
373
330
3FE
 75
     1
 76
     0
 52
45.0
 41
0.1
 77
     0
 78
     1
 53
45.0
 43
0.0
 44
0.0
 45
-0.0707106781186548
 46
0.0707106781186548
 79
     0
 98
        1
 10
0.0
 20
0.0
  0
HATCH
  5
456
330
71
100
AcDbEntity
  8
1
  6
Continuous
 62
     2
100
AcDbHatch
 10
0.0
 20
0.0
 30
0.0
210
0.0
220
0.0
230
1.0
  2
_USER
 70
     0
 71
     1
 91
        1
 92
        1
 93
       12
 72
     1
 10
-48.29887690718692
 20
28.27051123546036
 11
-46.8961526894397
 21
28.27051123546036
 72
     1
 10
-46.8961526894397
 20
28.27051123546036
 11
-48.19868232020622
 21
26.79756070542416
 72
     1
 10
-48.19868232020622
 20
26.79756070542416
 11
-46.80072927326592
 21
25.21670171164917
 72
     1
 10
-46.80072927326592
 20
25.21670171164917
 11
-48.20345349101422
 21
25.21670171164917
 72
     1
 10
-48.20345349101422
 20
25.21670171164917
 11
-48.90004442907971
 21
26.00443349694288
 72
     1
 10
-48.90004442907971
 20
26.00443349694288
 11
-49.59663536714541
 21
25.21670171164917
 72
     1
 10
-49.59663536714541
 20
25.21670171164917
 11
-50.99935958489363
 21
25.21670171164917
 72
     1
 10
-50.99935958489363
 20
25.21670171164917
 11
-49.60140653795332
 21
26.79756070542416
 72
     1
 10
-49.60140653795332
 20
26.79756070542416
 11
-50.9039361687208
 21
28.27051123546036
 72
     1
 10
-50.9039361687208
 20
28.27051123546036
 11
-49.50121195097151
 21
28.27051123546036
 72
     1
 10
-49.50121195097151
 20
28.27051123546036
 11
-48.90004442907971
 21
27.59068791390487
 72
     1
 10
-48.90004442907971
 20
27.59068791390487
 11
-48.29887690718692
 21
28.27051123546036
 97
       12
330
33E
330
397
330
396
330
395
330
394
330
33F
330
340
330
33C
330
33D
330
39A
330
399
330
398
 75
     1
 76
     0
 52
45.0
 41
0.1
 77
     0
 78
     1
 53
45.0
 43
0.0
 44
0.0
 45
-0.0707106781186548
 46
0.0707106781186548
 79
     0
 98
        1
 10
0.0
 20
0.0
  0
HATCH
  5
457
330
71
100
AcDbEntity
  8
1
  6
Continuous
 62
     2
100
AcDbHatch
 10
0.0
 20
0.0
 30
0.0
210
0.0
220
0.0
230
1.0
  2
_USER
 70
     0
 71
     1
 91
        1
 92
        1
 93
       12
 72
     1
 10
-48.29887690718692
 20
28.27051123546036
 11
-46.8961526894397
 21
28.27051123546036
 72
     1
 10
-46.8961526894397
 20
28.27051123546036
 11
-48.19868232020622
 21
26.79756070542416
 72
     1
 10
-48.19868232020622
 20
26.79756070542416
 11
-46.80072927326592
 21
25.21670171164917
 72
     1
 10
-46.80072927326592
 20
25.21670171164917
 11
-48.20345349101422
 21
25.21670171164917
 72
     1
 10
-48.20345349101422
 20
25.21670171164917
 11
-48.90004442907971
 21
26.00443349694288
 72
     1
 10
-48.90004442907971
 20
26.00443349694288
 11
-49.59663536714541
 21
25.21670171164917
 72
     1
 10
-49.59663536714541
 20
25.21670171164917
 11
-50.99935958489363
 21
25.21670171164917
 72
     1
 10
-50.99935958489363
 20
25.21670171164917
 11
-49.60140653795332
 21
26.79756070542416
 72
     1
 10
-49.60140653795332
 20
26.79756070542416
 11
-50.9039361687208
 21
28.27051123546036
 72
     1
 10
-50.9039361687208
 20
28.27051123546036
 11
-49.50121195097151
 21
28.27051123546036
 72
     1
 10
-49.50121195097151
 20
28.27051123546036
 11
-48.90004442907971
 21
27.59068791390487
 72
     1
 10
-48.90004442907971
 20
27.59068791390487
 11
-48.29887690718692
 21
28.27051123546036
 97
       12
330
33E
330
397
330
396
330
395
330
394
330
33F
330
340
330
33C
330
33D
330
39A
330
399
330
398
 75
     1
 76
     0
 52
45.0
 41
0.1
 77
     0
 78
     1
 53
45.0
 43
0.0
 44
0.0
 45
-0.0707106781186548
 46
0.0707106781186548
 79
     0
 98
        1
 10
0.0
 20
0.0
  0
HATCH
  5
458
330
71
100
AcDbEntity
  8
1
  6
Continuous
 62
     2
100
AcDbHatch
 10
0.0
 20
0.0
 30
0.0
210
0.0
220
0.0
230
1.0
  2
_USER
 70
     0
 71
     1
 91
        1
 92
        1
 93
        4
 72
     1
 10
-51.1186388551105
 20
28.27051123546036
 11
-51.1186388551105
 21
25.21670171164917
 72
     1
 10
-51.1186388551105
 20
25.21670171164917
 11
-52.3591432653634
 21
25.21670171164917
 72
     1
 10
-52.3591432653634
 20
25.21670171164917
 11
-52.3591432653634
 21
28.27051123546036
 72
     1
 10
-52.3591432653634
 20
28.27051123546036
 11
-51.1186388551105
 21
28.27051123546036
 97
        4
330
392
330
341
330
391
330
393
 75
     1
 76
     0
 52
45.0
 41
0.1
 77
     0
 78
     1
 53
45.0
 43
0.0
 44
0.0
 45
-0.0707106781186548
 46
0.0707106781186548
 79
     0
 98
        1
 10
0.0
 20
0.0
  0
HATCH
  5
459
330
71
100
AcDbEntity
  8
1
  6
Continuous
 62
     2
100
AcDbHatch
 10
0.0
 20
0.0
 30
0.0
210
0.0
220
0.0
230
1.0
  2
_USER
 70
     0
 71
     1
 91
        1
 92
        1
 93
        4
 72
     1
 10
-51.1186388551105
 20
28.27051123546036
 11
-51.1186388551105
 21
25.21670171164917
 72
     1
 10
-51.1186388551105
 20
25.21670171164917
 11
-52.3591432653634
 21
25.21670171164917
 72
     1
 10
-52.3591432653634
 20
25.21670171164917
 11
-52.3591432653634
 21
28.27051123546036
 72
     1
 10
-52.3591432653634
 20
28.27051123546036
 11
-51.1186388551105
 21
28.27051123546036
 97
        4
330
392
330
341
330
391
330
393
 75
     1
 76
     0
 52
45.0
 41
0.1
 77
     0
 78
     1
 53
45.0
 43
0.0
 44
0.0
 45
-0.0707106781186548
 46
0.0707106781186548
 79
     0
 98
        1
 10
0.0
 20
0.0
  0
HATCH
  5
45A
330
71
100
AcDbEntity
  8
1
  6
Continuous
 62
     2
100
AcDbHatch
 10
0.0
 20
0.0
 30
0.0
210
0.0
220
0.0
230
1.0
  2
_USER
 70
     0
 71
     1
 91
        2
 92
        1
 93
        8
 72
     1
 10
-51.5090828586425
 20
21.85751123547487
 11
-52.74958726889642
 21
21.85751123547487
 72
     1
 10
-52.74958726889642
 20
21.85751123547487
 11
-52.9610673223722
 21
22.39847177969276
 72
     1
 10
-52.9610673223722
 20
22.39847177969276
 11
-54.09350889904601
 21
22.39847177969276
 72
     1
 10
-54.09350889904601
 20
22.39847177969276
 11
-54.30498895252183
 21
21.85751123547487
 72
     1
 10
-54.30498895252183
 20
21.85751123547487
 11
-55.54549336277481
 21
21.85751123547487
 72
     1
 10
-55.54549336277481
 20
21.85751123547487
 11
-54.1475403158355
 21
24.91132075928596
 72
     1
 10
-54.1475403158355
 20
24.91132075928596
 11
-52.9070359055828
 21
24.91132075928596
 72
     1
 10
-52.9070359055828
 20
24.91132075928596
 11
-51.5090828586425
 21
21.85751123547487
 97
        8
330
38D
330
347
330
38C
330
38F
330
344
330
38E
330
345
330
346
 92
       16
 93
        3
 72
     1
 10
-53.82745334790101
 20
23.07903504499936
 11
-53.22712287351851
 21
23.07903504499936
 72
     1
 10
-53.22712287351851
 20
23.07903504499936
 11
-53.52728811070861
 21
23.84685001098606
 72
     1
 10
-53.52728811070861
 20
23.84685001098606
 11
-53.82745334790101
 21
23.07903504499936
 97
        3
330
343
330
342
330
390
 75
     1
 76
     0
 52
45.0
 41
0.1
 77
     0
 78
     1
 53
45.0
 43
0.0
 44
0.0
 45
-0.0707106781186548
 46
0.0707106781186548
 79
     0
 98
        1
 10
0.0
 20
0.0
  0
HATCH
  5
45B
330
71
100
AcDbEntity
  8
1
  6
Continuous
 62
     2
100
AcDbHatch
 10
0.0
 20
0.0
 30
0.0
210
0.0
220
0.0
230
1.0
  2
_USER
 70
     0
 71
     1
 91
        2
 92
        1
 93
        8
 72
     1
 10
-51.5090828586425
 20
21.85751123547487
 11
-52.74958726889642
 21
21.85751123547487
 72
     1
 10
-52.74958726889642
 20
21.85751123547487
 11
-52.9610673223722
 21
22.39847177969276
 72
     1
 10
-52.9610673223722
 20
22.39847177969276
 11
-54.09350889904601
 21
22.39847177969276
 72
     1
 10
-54.09350889904601
 20
22.39847177969276
 11
-54.30498895252183
 21
21.85751123547487
 72
     1
 10
-54.30498895252183
 20
21.85751123547487
 11
-55.54549336277481
 21
21.85751123547487
 72
     1
 10
-55.54549336277481
 20
21.85751123547487
 11
-54.1475403158355
 21
24.91132075928596
 72
     1
 10
-54.1475403158355
 20
24.91132075928596
 11
-52.9070359055828
 21
24.91132075928596
 72
     1
 10
-52.9070359055828
 20
24.91132075928596
 11
-51.5090828586425
 21
21.85751123547487
 97
        8
330
38D
330
347
330
38C
330
38F
330
344
330
38E
330
345
330
346
 92
       16
 93
        3
 72
     1
 10
-53.82745334790101
 20
23.07903504499936
 11
-53.22712287351851
 21
23.07903504499936
 72
     1
 10
-53.22712287351851
 20
23.07903504499936
 11
-53.52728811070861
 21
23.84685001098606
 72
     1
 10
-53.52728811070861
 20
23.84685001098606
 11
-53.82745334790101
 21
23.07903504499936
 97
        3
330
343
330
342
330
390
 75
     1
 76
     0
 52
45.0
 41
0.1
 77
     0
 78
     1
 53
45.0
 43
0.0
 44
0.0
 45
-0.0707106781186548
 46
0.0707106781186548
 79
     0
 98
        1
 10
0.0
 20
0.0
  0
HATCH
  5
45C
330
71
100
AcDbEntity
  8
1
  6
Continuous
 62
     2
100
AcDbHatch
 10
0.0
 20
0.0
 30
0.0
210
0.0
220
0.0
230
1.0
  2
_USER
 70
     0
 71
     1
 91
        1
 92
        1
 93
        8
 72
     1
 10
-57.70300550195702
 20
24.91132075928596
 11
-57.70300550195702
 21
24.12605545316237
 72
     1
 10
-57.70300550195702
 20
24.12605545316237
 11
-56.89190646448242
 21
24.12605545316237
 72
     1
 10
-56.89190646448242
 20
24.12605545316237
 11
-56.89190646448242
 21
21.85751123547487
 72
     1
 10
-56.89190646448242
 20
21.85751123547487
 11
-55.6991137623159
 21
21.85751123547487
 72
     1
 10
-55.6991137623159
 20
21.85751123547487
 11
-55.6991137623159
 21
24.12605545316237
 72
     1
 10
-55.6991137623159
 20
24.12605545316237
 11
-54.8880147248434
 21
24.12605545316237
 72
     1
 10
-54.8880147248434
 20
24.12605545316237
 11
-54.8880147248434
 21
24.91132075928596
 72
     1
 10
-54.8880147248434
 20
24.91132075928596
 11
-57.70300550195702
 21
24.91132075928596
 97
        8
330
389
330
388
330
387
330
348
330
349
330
38B
330
34A
330
38A
 75
     1
 76
     0
 52
45.0
 41
0.1
 77
     0
 78
     1
 53
45.0
 43
0.0
 44
0.0
 45
-0.0707106781186548
 46
0.0707106781186548
 79
     0
 98
        1
 10
0.0
 20
0.0
  0
HATCH
  5
45D
330
71
100
AcDbEntity
  8
1
  6
Continuous
 62
     2
100
AcDbHatch
 10
0.0
 20
0.0
 30
0.0
210
0.0
220
0.0
230
1.0
  2
_USER
 70
     0
 71
     1
 91
        1
 92
        1
 93
        8
 72
     1
 10
-57.70300550195702
 20
24.91132075928596
 11
-57.70300550195702
 21
24.12605545316237
 72
     1
 10
-57.70300550195702
 20
24.12605545316237
 11
-56.89190646448242
 21
24.12605545316237
 72
     1
 10
-56.89190646448242
 20
24.12605545316237
 11
-56.89190646448242
 21
21.85751123547487
 72
     1
 10
-56.89190646448242
 20
21.85751123547487
 11
-55.6991137623159
 21
21.85751123547487
 72
     1
 10
-55.6991137623159
 20
21.85751123547487
 11
-55.6991137623159
 21
24.12605545316237
 72
     1
 10
-55.6991137623159
 20
24.12605545316237
 11
-54.8880147248434
 21
24.12605545316237
 72
     1
 10
-54.8880147248434
 20
24.12605545316237
 11
-54.8880147248434
 21
24.91132075928596
 72
     1
 10
-54.8880147248434
 20
24.91132075928596
 11
-57.70300550195702
 21
24.91132075928596
 97
        8
330
389
330
388
330
387
330
348
330
349
330
38B
330
34A
330
38A
 75
     1
 76
     0
 52
45.0
 41
0.1
 77
     0
 78
     1
 53
45.0
 43
0.0
 44
0.0
 45
-0.0707106781186548
 46
0.0707106781186548
 79
     0
 98
        1
 10
0.0
 20
0.0
  0
HATCH
  5
45E
330
71
100
AcDbEntity
  8
1
  6
Continuous
 62
     2
100
AcDbHatch
 10
0.0
 20
0.0
 30
0.0
210
0.0
220
0.0
230
1.0
  2
_USER
 70
     0
 71
     1
 91
        1
 92
        1
 93
       10
 72
     1
 10
-55.0309989182179
 20
28.27051123546036
 11
-56.22379162038442
 21
28.27051123546036
 72
     1
 10
-56.22379162038442
 20
28.27051123546036
 11
-56.22379162038442
 21
25.21670171164917
 72
     1
 10
-56.22379162038442
 20
25.21670171164917
 11
-55.0309989182179
 21
25.21670171164917
 72
     1
 10
-55.0309989182179
 20
25.21670171164917
 11
-55.0309989182179
 21
26.52547722185386
 72
     1
 10
-55.0309989182179
 20
26.52547722185386
 11
-53.7904945079639
 21
25.21670171164917
 72
     1
 10
-53.7904945079639
 20
25.21670171164917
 11
-52.5977018057973
 21
25.21670171164917
 72
     1
 10
-52.5977018057973
 20
25.21670171164917
 11
-52.5977018057973
 21
28.27051123546036
 72
     1
 10
-52.5977018057973
 20
28.27051123546036
 11
-53.7904945079639
 21
28.27051123546036
 72
     1
 10
-53.7904945079639
 20
28.27051123546036
 11
-53.7904945079639
 21
26.96173572525518
 72
     1
 10
-53.7904945079639
 20
26.96173572525518
 11
-55.0309989182179
 21
28.27051123546036
 97
       10
330
383
330
34D
330
34E
330
34F
330
350
330
386
330
34B
330
385
330
384
330
34C
 75
     1
 76
     0
 52
45.0
 41
0.1
 77
     0
 78
     1
 53
45.0
 43
0.0
 44
0.0
 45
-0.0707106781186548
 46
0.0707106781186548
 79
     0
 98
        1
 10
0.0
 20
0.0
  0
HATCH
  5
45F
330
71
100
AcDbEntity
  8
1
  6
Continuous
 62
     2
100
AcDbHatch
 10
0.0
 20
0.0
 30
0.0
210
0.0
220
0.0
230
1.0
  2
_USER
 70
     0
 71
     1
 91
        1
 92
        1
 93
       10
 72
     1
 10
-55.0309989182179
 20
28.27051123546036
 11
-56.22379162038442
 21
28.27051123546036
 72
     1
 10
-56.22379162038442
 20
28.27051123546036
 11
-56.22379162038442
 21
25.21670171164917
 72
     1
 10
-56.22379162038442
 20
25.21670171164917
 11
-55.0309989182179
 21
25.21670171164917
 72
     1
 10
-55.0309989182179
 20
25.21670171164917
 11
-55.0309989182179
 21
26.52547722185386
 72
     1
 10
-55.0309989182179
 20
26.52547722185386
 11
-53.7904945079639
 21
25.21670171164917
 72
     1
 10
-53.7904945079639
 20
25.21670171164917
 11
-52.5977018057973
 21
25.21670171164917
 72
     1
 10
-52.5977018057973
 20
25.21670171164917
 11
-52.5977018057973
 21
28.27051123546036
 72
     1
 10
-52.5977018057973
 20
28.27051123546036
 11
-53.7904945079639
 21
28.27051123546036
 72
     1
 10
-53.7904945079639
 20
28.27051123546036
 11
-53.7904945079639
 21
26.96173572525518
 72
     1
 10
-53.7904945079639
 20
26.96173572525518
 11
-55.0309989182179
 21
28.27051123546036
 97
       10
330
383
330
34D
330
34E
330
34F
330
350
330
386
330
34B
330
385
330
384
330
34C
 75
     1
 76
     0
 52
45.0
 41
0.1
 77
     0
 78
     1
 53
45.0
 43
0.0
 44
0.0
 45
-0.0707106781186548
 46
0.0707106781186548
 79
     0
 98
        1
 10
0.0
 20
0.0
  0
HATCH
  5
460
330
71
100
AcDbEntity
  8
1
  6
Continuous
 62
     2
100
AcDbHatch
 10
0.0
 20
0.0
 30
0.0
210
0.0
220
0.0
230
1.0
  2
_USER
 70
     0
 71
     1
 91
        1
 92
        1
 93
       10
 72
     1
 10
-60.27943773863652
 20
24.91132075928596
 11
-61.47223044080411
 21
24.91132075928596
 72
     1
 10
-61.47223044080411
 20
24.91132075928596
 11
-61.47223044080411
 21
21.85751123547487
 72
     1
 10
-61.47223044080411
 20
21.85751123547487
 11
-60.27943773863652
 21
21.85751123547487
 72
     1
 10
-60.27943773863652
 20
21.85751123547487
 11
-60.27943773863652
 21
23.16628674567946
 72
     1
 10
-60.27943773863652
 20
23.16628674567946
 11
-59.03893332838362
 21
21.85751123547487
 72
     1
 10
-59.03893332838362
 20
21.85751123547487
 11
-57.84614062621722
 21
21.85751123547487
 72
     1
 10
-57.84614062621722
 20
21.85751123547487
 11
-57.84614062621722
 21
24.91132075928596
 72
     1
 10
-57.84614062621722
 20
24.91132075928596
 11
-59.03893332838362
 21
24.91132075928596
 72
     1
 10
-59.03893332838362
 20
24.91132075928596
 11
-59.03893332838362
 21
23.60254524908086
 72
     1
 10
-59.03893332838362
 20
23.60254524908086
 11
-60.27943773863652
 21
24.91132075928596
 97
       10
330
352
330
353
330
354
330
380
330
355
330
356
330
37F
330
382
330
381
330
351
 75
     1
 76
     0
 52
45.0
 41
0.1
 77
     0
 78
     1
 53
45.0
 43
0.0
 44
0.0
 45
-0.0707106781186548
 46
0.0707106781186548
 79
     0
 98
        1
 10
0.0
 20
0.0
  0
HATCH
  5
461
330
71
100
AcDbEntity
  8
1
  6
Continuous
 62
     2
100
AcDbHatch
 10
0.0
 20
0.0
 30
0.0
210
0.0
220
0.0
230
1.0
  2
_USER
 70
     0
 71
     1
 91
        1
 92
        1
 93
       10
 72
     1
 10
-60.27943773863652
 20
24.91132075928596
 11
-61.47223044080411
 21
24.91132075928596
 72
     1
 10
-61.47223044080411
 20
24.91132075928596
 11
-61.47223044080411
 21
21.85751123547487
 72
     1
 10
-61.47223044080411
 20
21.85751123547487
 11
-60.27943773863652
 21
21.85751123547487
 72
     1
 10
-60.27943773863652
 20
21.85751123547487
 11
-60.27943773863652
 21
23.16628674567946
 72
     1
 10
-60.27943773863652
 20
23.16628674567946
 11
-59.03893332838362
 21
21.85751123547487
 72
     1
 10
-59.03893332838362
 20
21.85751123547487
 11
-57.84614062621722
 21
21.85751123547487
 72
     1
 10
-57.84614062621722
 20
21.85751123547487
 11
-57.84614062621722
 21
24.91132075928596
 72
     1
 10
-57.84614062621722
 20
24.91132075928596
 11
-59.03893332838362
 21
24.91132075928596
 72
     1
 10
-59.03893332838362
 20
24.91132075928596
 11
-59.03893332838362
 21
23.60254524908086
 72
     1
 10
-59.03893332838362
 20
23.60254524908086
 11
-60.27943773863652
 21
24.91132075928596
 97
       10
330
352
330
353
330
354
330
380
330
355
330
356
330
37F
330
382
330
381
330
351
 75
     1
 76
     0
 52
45.0
 41
0.1
 77
     0
 78
     1
 53
45.0
 43
0.0
 44
0.0
 45
-0.0707106781186548
 46
0.0707106781186548
 79
     0
 98
        1
 10
0.0
 20
0.0
  0
HATCH
  5
462
330
71
100
AcDbEntity
  8
1
  6
Continuous
 62
     2
100
AcDbHatch
 10
0.0
 20
0.0
 30
0.0
210
0.0
220
0.0
230
1.0
  2
_USER
 70
     0
 71
     1
 91
        1
 92
        1
 93
       12
 72
     1
 10
-61.28123267757192
 20
28.27051123546036
 11
-61.28123267757192
 21
25.21670171164917
 72
     1
 10
-61.28123267757192
 20
25.21670171164917
 11
-62.47402537973832
 21
25.21670171164917
 72
     1
 10
-62.47402537973832
 20
25.21670171164917
 11
-62.47402537973832
 21
26.35097382049298
 72
     1
 10
-62.47402537973832
 20
26.35097382049298
 11
-63.5236829576458
 21
26.35097382049298
 72
     1
 10
-63.5236829576458
 20
26.35097382049298
 11
-63.5236829576458
 21
25.21670171164917
 72
     1
 10
-63.5236829576458
 20
25.21670171164917
 11
-64.7164756598124
 21
25.21670171164917
 72
     1
 10
-64.7164756598124
 20
25.21670171164917
 11
-64.7164756598124
 21
28.27051123546036
 72
     1
 10
-64.7164756598124
 20
28.27051123546036
 11
-63.5236829576458
 21
28.27051123546036
 72
     1
 10
-63.5236829576458
 20
28.27051123546036
 11
-63.5236829576458
 21
27.20167790212577
 72
     1
 10
-63.5236829576458
 20
27.20167790212577
 11
-62.47402537973832
 21
27.20167790212577
 72
     1
 10
-62.47402537973832
 20
27.20167790212577
 11
-62.47402537973832
 21
28.27051123546036
 72
     1
 10
-62.47402537973832
 20
28.27051123546036
 11
-61.28123267757192
 21
28.27051123546036
 97
       12
330
37A
330
379
330
378
330
360
330
361
330
377
330
362
330
376
330
375
330
374
330
35E
330
35F
 75
     1
 76
     0
 52
45.0
 41
0.1
 77
     0
 78
     1
 53
45.0
 43
0.0
 44
0.0
 45
-0.0707106781186548
 46
0.0707106781186548
 79
     0
 98
        1
 10
0.0
 20
0.0
  0
HATCH
  5
463
330
71
100
AcDbEntity
  8
1
  6
Continuous
 62
     2
100
AcDbHatch
 10
0.0
 20
0.0
 30
0.0
210
0.0
220
0.0
230
1.0
  2
_USER
 70
     0
 71
     1
 91
        1
 92
        1
 93
       12
 72
     1
 10
-61.28123267757192
 20
28.27051123546036
 11
-61.28123267757192
 21
25.21670171164917
 72
     1
 10
-61.28123267757192
 20
25.21670171164917
 11
-62.47402537973832
 21
25.21670171164917
 72
     1
 10
-62.47402537973832
 20
25.21670171164917
 11
-62.47402537973832
 21
26.35097382049298
 72
     1
 10
-62.47402537973832
 20
26.35097382049298
 11
-63.5236829576458
 21
26.35097382049298
 72
     1
 10
-63.5236829576458
 20
26.35097382049298
 11
-63.5236829576458
 21
25.21670171164917
 72
     1
 10
-63.5236829576458
 20
25.21670171164917
 11
-64.7164756598124
 21
25.21670171164917
 72
     1
 10
-64.7164756598124
 20
25.21670171164917
 11
-64.7164756598124
 21
28.27051123546036
 72
     1
 10
-64.7164756598124
 20
28.27051123546036
 11
-63.5236829576458
 21
28.27051123546036
 72
     1
 10
-63.5236829576458
 20
28.27051123546036
 11
-63.5236829576458
 21
27.20167790212577
 72
     1
 10
-63.5236829576458
 20
27.20167790212577
 11
-62.47402537973832
 21
27.20167790212577
 72
     1
 10
-62.47402537973832
 20
27.20167790212577
 11
-62.47402537973832
 21
28.27051123546036
 72
     1
 10
-62.47402537973832
 20
28.27051123546036
 11
-61.28123267757192
 21
28.27051123546036
 97
       12
330
37A
330
379
330
378
330
360
330
361
330
377
330
362
330
376
330
375
330
374
330
35E
330
35F
 75
     1
 76
     0
 52
45.0
 41
0.1
 77
     0
 78
     1
 53
45.0
 43
0.0
 44
0.0
 45
-0.0707106781186548
 46
0.0707106781186548
 79
     0
 98
        1
 10
0.0
 20
0.0
  0
ENDBLK
  5
73
330
71
100
AcDbEntity
  8
0
100
AcDbBlockEnd
  0
BLOCK
  5
75
330
74
100
AcDbEntity
  8
0
100
AcDbBlockBegin
  2
_punkt
 70
     0
 10
50.59607113621699
 20
14.56401123545857
 30
0.0
  3
_punkt
  1

  0
LINE
  5
464
330
74
100
AcDbEntity
  8
1
  6
Continuous
 62
     2
100
AcDbLine
 10
50.59607113621699
 20
14.56401123545857
 30
0.0
 11
50.59607113621699
 21
9.56401123545845
 31
0.0
  0
LINE
  5
465
330
74
100
AcDbEntity
  8
1
  6
Continuous
 62
     2
100
AcDbLine
 10
50.59607113621699
 20
14.56401123545857
 30
0.0
 11
55.59607113621598
 21
14.56401123545857
 31
0.0
  0
ENDBLK
  5
76
330
74
100
AcDbEntity
  8
0
100
AcDbBlockEnd
  0
BLOCK
  5
7A
330
77
100
AcDbEntity
  8
0
100
AcDbBlockBegin
  2
A4I_CS
 70
     0
 10
50.59607113621699
 20
9.56401123545845
 30
0.0
  3
A4I_CS
  1

  0
INSERT
  5
78
330
77
100
AcDbEntity
  8
1
100
AcDbBlockReference
  2
_rahmen
 10
50.59607113621699
 20
9.56401123545845
 30
0.0
  0
INSERT
  5
79
330
77
100
AcDbEntity
  8
1
100
AcDbBlockReference
  2
_punkt
 10
50.59607113621699
 20
14.56401123545857
 30
0.0
  0
ENDBLK
  5
7B
330
77
100
AcDbEntity
  8
0
100
AcDbBlockEnd
  0
BLOCK
  5
84
330
7C
100
AcDbEntity
  8
0
100
AcDbBlockBegin
  2
1
 70
     0
 10
0.0
 20
0.0
 30
0.0
  3
1
  1

  0
INSERT
  5
7D
330
7C
100
AcDbEntity
  8
0
100
AcDbBlockReference
  2
AllgSicht1
 10
7.00000000004036
 20
85.9999999993579
 30
0.0
 41
2.0
 42
2.0
 43
2.0
  0
INSERT
  5
7E
330
7C
100
AcDbEntity
  8
0
100
AcDbBlockReference
  2
Drfsicht1
 10
-121.250000357588
 20
73.59997715210748
 30
0.0
 41
2.0
 42
2.0
 43
2.0
  0
INSERT
  5
7F
330
7C
100
AcDbEntity
  8
0
100
AcDbBlockReference
  2
Rckans1
 10
-47.59038202565956
 20
139.99999999927
 30
0.0
 41
2.0
 42
2.0
 43
2.0
  0
INSERT
  5
80
330
7C
100
AcDbEntity
  8
0
100
AcDbBlockReference
  2
SA_Links1
 10
-80.06212531345004
 20
139.9999999992696
 30
0.0
 41
2.0
 42
2.0
 43
2.0
  0
INSERT
  5
81
330
7C
100
AcDbEntity
  8
0
100
AcDbBlockReference
  2
SA_Rechts1
 10
-201.8275672603098
 20
139.99999999927
 30
0.0
 41
2.0
 42
2.0
 43
2.0
  0
INSERT
  5
82
330
7C
100
AcDbEntity
  8
0
100
AcDbBlockReference
  2
Vordans1
 10
-121.250000357588
 20
139.99999999927
 30
0.0
 41
2.0
 42
2.0
 43
2.0
  0
INSERT
  5
83
330
7C
100
AcDbEntity
  8
0
100
AcDbBlockReference
  2
A4I_CS
 10
50.59607113621699
 20
9.56401123545845
 30
0.0
  0
ENDBLK
  5
85
330
7C
100
AcDbEntity
  8
0
100
AcDbBlockEnd
  0
BLOCK
  5
1CB
330
1C2
100
AcDbEntity
  8
0
100
AcDbBlockBegin
  2
*D17
 70
     1
 10
0.0
 20
0.0
 30
0.0
  3
*D17
  1

  0
LINE
  5
1C3
330
1C2
100
AcDbEntity
  8
1
  6
Continuous
 62
     2
100
AcDbLine
 10
-79.62500038171555
 20
47.453894452078
 30
0.0
 11
-79.62500038171555
 21
38.54998853816069
 31
0.0
  0
LINE
  5
1C4
330
1C2
100
AcDbEntity
  8
1
  6
Continuous
 62
     2
100
AcDbLine
 10
-79.62500038171555
 20
38.54998853816069
 30
0.0
 11
-79.62500038171555
 21
35.04998853793755
 31
0.0
  0
LINE
  5
1C5
330
1C2
100
AcDbEntity
  8
1
  6
Continuous
 62
     2
100
AcDbLine
 10
-79.62500038171555
 20
35.04998853793755
 30
0.0
 11
-79.62500038171555
 21
31.54998853793755
 31
0.0
  0
LINE
  5
1C6
330
1C2
100
AcDbEntity
  8
1
  6
Continuous
 62
     2
100
AcDbLine
 10
-68.87500038171555
 20
38.54998853816069
 30
0.0
 11
-80.37500038171555
 21
38.54998853816069
 31
0.0
  0
LINE
  5
1C7
330
1C2
100
AcDbEntity
  8
1
  6
Continuous
 62
     2
100
AcDbLine
 10
-68.87500038134365
 20
35.04998853793755
 30
0.0
 11
-80.37500038171555
 21
35.04998853793755
 31
0.0
  0
SOLID
  5
1C8
330
1C2
100
AcDbEntity
  8
1
 62
     2
100
AcDbTrace
 10
-79.85539225249349
 20
40.29998853816069
 30
0.0
 11
-79.39460851093762
 21
40.29998853816069
 31
0.0
 12
-79.62500038171555
 22
38.54998853816069
 32
0.0
 13
-79.62500038171555
 23
38.54998853816069
 33
0.0
  0
SOLID
  5
1C9
330
1C2
100
AcDbEntity
  8
1
 62
     2
100
AcDbTrace
 10
-79.39460851093762
 20
33.29998853793755
 30
0.0
 11
-79.85539225249349
 21
33.29998853793755
 31
0.0
 12
-79.62500038171555
 22
35.04998853793755
 32
0.0
 13
-79.62500038171555
 23
35.04998853793755
 33
0.0
  0
MTEXT
  5
1CA
330
1C2
100
AcDbEntity
  8
1
 62
     3
100
AcDbMText
 10
-80.55000038171556
 20
44.216394452078
 30
0.0
 40
1.75
 41
0.0
 71
     7
 72
     1
  1
3,5
  7
CONVERTER_11
 11
0.0
 21
1.0
 31
0.0
 73
     1
 44
0.60024009603842
  0
ENDBLK
  5
1CC
330
1C2
100
AcDbEntity
  8
0
100
AcDbBlockEnd
  0
BLOCK
  5
313
330
30C
100
AcDbEntity
  8
0
100
AcDbBlockBegin
  2
*D18
 70
     1
 10
0.0
 20
0.0
 30
0.0
  3
*D18
  1

  0
LINE
  5
30D
330
30C
100
AcDbEntity
  8
1
  6
Continuous
 62
     2
100
AcDbLine
 10
-78.88552473027482
 20
85.65002283424181
 30
0.0
 11
-78.88552473027482
 21
66.1500229827422
 31
0.0
  0
LINE
  5
30E
330
30C
100
AcDbEntity
  8
1
  6
Continuous
 62
     2
100
AcDbLine
 10
-68.13552473027482
 20
85.65002283424181
 30
0.0
 11
-79.63552473027482
 21
85.65002283424181
 31
0.0
  0
LINE
  5
30F
330
30C
100
AcDbEntity
  8
1
  6
Continuous
 62
     2
100
AcDbLine
 10
-68.11153175846812
 20
66.1500229827422
 30
0.0
 11
-79.63552473027482
 21
66.1500229827422
 31
0.0
  0
SOLID
  5
310
330
30C
100
AcDbEntity
  8
1
 62
     2
100
AcDbTrace
 10
-78.65513285949689
 20
83.90002283424181
 30
0.0
 11
-79.11591660105276
 21
83.90002283424181
 31
0.0
 12
-78.88552473027482
 22
85.65002283424181
 32
0.0
 13
-78.88552473027482
 23
85.65002283424181
 33
0.0
  0
SOLID
  5
311
330
30C
100
AcDbEntity
  8
1
 62
     2
100
AcDbTrace
 10
-79.11591660105276
 20
67.9000229827422
 30
0.0
 11
-78.65513285949689
 21
67.9000229827422
 31
0.0
 12
-78.88552473027482
 22
66.1500229827422
 32
0.0
 13
-78.88552473027482
 23
66.1500229827422
 33
0.0
  0
MTEXT
  5
312
330
30C
100
AcDbEntity
  8
1
 62
     3
100
AcDbMText
 10
-79.81052473027484
 20
73.32193781319627
 30
0.0
 40
1.75
 41
0.0
 71
     7
 72
     1
  1
19,5
  7
CONVERTER_11
 11
0.0
 21
1.0
 31
0.0
 73
     1
 44
0.60024009603842
  0
ENDBLK
  5
314
330
30C
100
AcDbEntity
  8
0
100
AcDbBlockEnd
  0
BLOCK
  5
31E
330
317
100
AcDbEntity
  8
0
100
AcDbBlockBegin
  2
*D19
 70
     1
 10
0.0
 20
0.0
 30
0.0
  3
*D19
  1

  0
LINE
  5
318
330
317
100
AcDbEntity
  8
1
  6
Continuous
 62
     2
100
AcDbLine
 10
-86.22776423621701
 20
85.65002283424167
 30
0.0
 11
-86.22776423621701
 21
54.3499770699549
 31
0.0
  0
LINE
  5
319
330
317
100
AcDbEntity
  8
1
  6
Continuous
 62
     2
100
AcDbLine
 10
-68.13552473027474
 20
85.65002283424167
 30
0.0
 11
-86.97776423621701
 21
85.65002283424167
 31
0.0
  0
LINE
  5
31A
330
317
100
AcDbEntity
  8
1
  6
Continuous
 62
     2
100
AcDbLine
 10
-63.48762083699566
 20
54.3499770699549
 30
0.0
 11
-86.97776423621701
 21
54.3499770699549
 31
0.0
  0
SOLID
  5
31B
330
317
100
AcDbEntity
  8
1
 62
     2
100
AcDbTrace
 10
-85.99737236543908
 20
83.90002283424167
 30
0.0
 11
-86.45815610699495
 21
83.90002283424167
 31
0.0
 12
-86.22776423621701
 22
85.65002283424167
 32
0.0
 13
-86.22776423621701
 23
85.65002283424167
 33
0.0
  0
SOLID
  5
31C
330
317
100
AcDbEntity
  8
1
 62
     2
100
AcDbTrace
 10
-86.45815610699495
 20
56.0999770699549
 30
0.0
 11
-85.99737236543908
 21
56.0999770699549
 31
0.0
 12
-86.22776423621701
 22
54.3499770699549
 32
0.0
 13
-86.22776423621701
 23
54.3499770699549
 33
0.0
  0
MTEXT
  5
31D
330
317
100
AcDbEntity
  8
1
 62
     3
100
AcDbMText
 10
-87.15276423621702
 20
67.89046513609505
 30
0.0
 40
1.75
 41
0.0
 71
     7
 72
     1
  1
31,3
  7
CONVERTER_11
 11
0.0
 21
1.0
 31
0.0
 73
     1
 44
0.60024009603842
  0
ENDBLK
  5
31F
330
317
100
AcDbEntity
  8
0
100
AcDbBlockEnd
  0
BLOCK
  5
329
330
322
100
AcDbEntity
  8
0
100
AcDbBlockBegin
  2
*D20
 70
     1
 10
0.0
 20
0.0
 30
0.0
  3
*D20
  1

  0
LINE
  5
323
330
322
100
AcDbEntity
  8
1
  6
Continuous
 62
     2
100
AcDbLine
 10
-68.87500038134365
 20
46.67497701608354
 30
0.0
 11
-52.37500036283518
 21
46.67497701608354
 31
0.0
  0
LINE
  5
324
330
322
100
AcDbEntity
  8
1
  6
Continuous
 62
     2
100
AcDbLine
 10
-68.87500038134365
 20
68.49973779920953
 30
0.0
 11
-68.87500038134365
 21
45.92497701608354
 31
0.0
  0
LINE
  5
325
330
322
100
AcDbEntity
  8
1
  6
Continuous
 62
     2
100
AcDbLine
 10
-52.37500036283518
 20
71.8333563767317
 30
0.0
 11
-52.37500036283518
 21
45.92497701608354
 31
0.0
  0
SOLID
  5
326
330
322
100
AcDbEntity
  8
1
 62
     2
100
AcDbTrace
 10
-67.12500038134365
 20
46.90536888686148
 30
0.0
 11
-67.12500038134365
 21
46.4445851453056
 31
0.0
 12
-68.87500038134365
 22
46.67497701608354
 32
0.0
 13
-68.87500038134365
 23
46.67497701608354
 33
0.0
  0
SOLID
  5
327
330
322
100
AcDbEntity
  8
1
 62
     2
100
AcDbTrace
 10
-54.12500036283518
 20
46.4445851453056
 30
0.0
 11
-54.12500036283518
 21
46.90536888686148
 31
0.0
 12
-52.37500036283518
 22
46.67497701608354
 32
0.0
 13
-52.37500036283518
 23
46.67497701608354
 33
0.0
  0
MTEXT
  5
328
330
322
100
AcDbEntity
  8
1
 62
     3
100
AcDbMText
 10
-62.76875017879387
 20
47.59997701608354
 30
0.0
 40
1.75
 41
0.0
 71
     7
 72
     1
  1
16,5
  7
CONVERTER_11
 11
0.9999999999970619
 21
2.424068405545306E-6
 31
0.0
 73
     1
 44
0.60024009603842
  0
ENDBLK
  5
32A
330
322
100
AcDbEntity
  8
0
100
AcDbBlockEnd
  0
ENDSEC
  0
SECTION
  2
ENTITIES
  0
INSERT
  5
86
330
1F
100
AcDbEntity
  8
1
100
AcDbBlockReference
  2
1
 10
0.0
 20
0.0
 30
0.0
  0
ENDSEC
  0
SECTION
  2
OBJECTS
  0
DICTIONARY
  5
C
330
0
100
AcDbDictionary
281
     1
  3
ACAD_GROUP
350
D
  3
ACAD_LAYOUT
350
1A
  3
ACAD_MATERIAL
350
3B
  3
ACAD_MLEADERSTYLE
350
48D
  3
ACAD_MLINESTYLE
350
17
  3
ACAD_PLOTSETTINGS
350
19
  3
ACAD_PLOTSTYLENAME
350
E
  3
ACAD_TABLESTYLE
350
48C
  3
ACAD_VISUALSTYLE
350
2A
  0
DICTIONARY
  5
D
102
{ACAD_REACTORS
330
C
102
}
330
C
100
AcDbDictionary
281
     1
  0
DICTIONARY
  5
1A
102
{ACAD_REACTORS
330
C
102
}
330
C
100
AcDbDictionary
281
     1
  3
Layout1
350
1E
  3
Layout2
350
26
  3
Model
350
22
  0
DICTIONARY
  5
3B
102
{ACAD_REACTORS
330
C
102
}
330
C
100
AcDbDictionary
281
     1
  3
ByBlock
350
3D
  3
ByLayer
350
3C
  3
Global
350
3E
  0
DICTIONARY
  5
48D
102
{ACAD_REACTORS
330
C
102
}
330
C
100
AcDbDictionary
281
     1
  0
DICTIONARY
  5
17
102
{ACAD_REACTORS
330
C
102
}
330
C
100
AcDbDictionary
281
     1
  3
Standard
350
18
  0
DICTIONARY
  5
19
102
{ACAD_REACTORS
330
C
102
}
330
C
100
AcDbDictionary
281
     1
  0
ACDBDICTIONARYWDFLT
  5
E
102
{ACAD_REACTORS
330
C
102
}
330
C
100
AcDbDictionary
281
     1
  3
Normal
350
F
100
AcDbDictionaryWithDefault
340
F
  0
DICTIONARY
  5
48C
102
{ACAD_REACTORS
330
C
102
}
330
C
100
AcDbDictionary
281
     1
  0
DICTIONARY
  5
2A
102
{ACAD_REACTORS
330
C
102
}
330
C
100
AcDbDictionary
281
     1
  3
2dWireframe
350
2F
  3
3D Hidden
350
31
  3
3dWireframe
350
30
  3
Basic
350
32
  3
Brighten
350
36
  3
ColorChange
350
3A
  3
Conceptual
350
34
  3
Dim
350
35
  3
Facepattern
350
39
  3
Flat
350
2B
  3
FlatWithEdges
350
2C
  3
Gouraud
350
2D
  3
GouraudWithEdges
350
2E
  3
Linepattern
350
38
  3
Realistic
350
33
  3
Thicken
350
37
  0
LAYOUT
  5
1E
102
{ACAD_REACTORS
330
1A
102
}
330
1A
100
AcDbPlotSettings
  1

  2
none_device
  4

  6

 40
0.0
 41
0.0
 42
0.0
 43
0.0
 44
0.0
 45
0.0
 46
0.0
 47
0.0
 48
0.0
 49
0.0
140
0.0
141
0.0
142
1.0
143
1.0
 70
   688
 72
     0
 73
     0
 74
     5
  7

 75
    16
 76
     0
 77
     2
 78
   300
147
1.0
148
0.0
149
0.0
100
AcDbLayout
  1
Layout1
 70
     1
 71
     1
 10
0.0
 20
0.0
 11
12.0
 21
9.0
 12
0.0
 22
0.0
 32
0.0
 14
1.00000000000000E+20
 24
1.00000000000000E+20
 34
1.00000000000000E+20
 15
-1.00000000000000E+20
 25
-1.00000000000000E+20
 35
-1.00000000000000E+20
146
0.0
 13
0.0
 23
0.0
 33
0.0
 16
1.0
 26
0.0
 36
0.0
 17
0.0
 27
1.0
 37
0.0
 76
     0
330
1B
  0
LAYOUT
  5
26
102
{ACAD_REACTORS
330
1A
102
}
330
1A
100
AcDbPlotSettings
  1

  2
none_device
  4

  6

 40
0.0
 41
0.0
 42
0.0
 43
0.0
 44
0.0
 45
0.0
 46
0.0
 47
0.0
 48
0.0
 49
0.0
140
0.0
141
0.0
142
1.0
143
1.0
 70
   688
 72
     0
 73
     0
 74
     5
  7

 75
    16
 76
     0
 77
     2
 78
   300
147
1.0
148
0.0
149
0.0
100
AcDbLayout
  1
Layout2
 70
     1
 71
     2
 10
0.0
 20
0.0
 11
0.0
 21
0.0
 12
0.0
 22
0.0
 32
0.0
 14
0.0
 24
0.0
 34
0.0
 15
0.0
 25
0.0
 35
0.0
146
0.0
 13
0.0
 23
0.0
 33
0.0
 16
1.0
 26
0.0
 36
0.0
 17
0.0
 27
1.0
 37
0.0
 76
     0
330
23
  0
LAYOUT
  5
22
102
{ACAD_REACTORS
330
1A
102
}
330
1A
100
AcDbPlotSettings
  1

  2
none_device
  4

  6

 40
0.0
 41
0.0
 42
0.0
 43
0.0
 44
0.0
 45
0.0
 46
0.0
 47
0.0
 48
0.0
 49
0.0
140
0.0
141
0.0
142
1.0
143
1.0
 70
  1712
 72
     0
 73
     0
 74
     0
  7

 75
     0
 76
     0
 77
     2
 78
   300
147
1.0
148
0.0
149
0.0
100
AcDbLayout
  1
Model
 70
     1
 71
     0
 10
0.0
 20
0.0
 11
12.0
 21
9.0
 12
0.0
 22
0.0
 32
0.0
 14
-241.4039288637821
 24
9.56401123545845
 34
0.0
 15
55.59607113621598
 25
219.5640112354586
 35
0.0
146
0.0
 13
0.0
 23
0.0
 33
0.0
 16
1.0
 26
0.0
 36
0.0
 17
0.0
 27
1.0
 37
0.0
 76
     0
330
1F
331
29
  0
MATERIAL
  5
3D
102
{ACAD_REACTORS
330
3B
102
}
102
{ACAD_XDICTIONARY
360
488
102
}
330
3B
100
AcDbMaterial
  1
ByBlock
  0
MATERIAL
  5
3C
102
{ACAD_REACTORS
330
3B
102
}
102
{ACAD_XDICTIONARY
360
486
102
}
330
3B
100
AcDbMaterial
  1
ByLayer
  0
MATERIAL
  5
3E
102
{ACAD_REACTORS
330
3B
102
}
102
{ACAD_XDICTIONARY
360
48A
102
}
330
3B
100
AcDbMaterial
  1
Global
  0
MLINESTYLE
  5
18
102
{ACAD_REACTORS
330
17
102
}
330
17
100
AcDbMlineStyle
  2
Standard
 70
     0
  3

 62
   256
 51
90.0
 52
90.0
 71
     2
 49
0.5
 62
   256
  6
BYLAYER
 49
-0.5
 62
   256
  6
BYLAYER
  0
ACDBPLACEHOLDER
  5
F
102
{ACAD_REACTORS
330
E
102
}
330
E
  0
VISUALSTYLE
  5
2F
102
{ACAD_REACTORS
330
2A
102
}
102
{ACAD_XDICTIONARY
360
46E
102
}
330
2A
100
AcDbVisualStyle
  2
2dWireframe
 70
     4
 71
     0
 72
     2
 73
     0
 90
        0
 40
-0.6
 41
-30.0
 62
     5
 63
     7
421
 16777215
 74
     1
 91
        4
 64
     7
 65
   257
 75
     1
175
     1
 42
1.0
 92
        0
 66
   257
 43
1.0
 76
     1
 77
     6
 78
     2
 67
     7
 79
     5
170
     0
171
     0
290
     0
174
     0
 93
        1
 44
0.0
173
     0
291
     0
 45
0.0
1001
ACAD
1000
AcDbSavedByObjectVersion
1070
     0
  0
VISUALSTYLE
  5
31
102
{ACAD_REACTORS
330
2A
102
}
102
{ACAD_XDICTIONARY
360
472
102
}
330
2A
100
AcDbVisualStyle
  2
3D Hidden
 70
     6
 71
     1
 72
     2
 73
     2
 90
        0
 40
-0.6
 41
-30.0
 62
     5
 63
     7
421
 16777215
 74
     2
 91
        2
 64
     7
 65
   257
 75
     2
175
     1
 42
40.0
 92
        0
 66
   257
 43
1.0
 76
     1
 77
     6
 78
     2
 67
     7
 79
     3
170
     0
171
     0
290
     0
174
     0
 93
        1
 44
0.0
173
     0
291
     0
 45
0.0
1001
ACAD
1000
AcDbSavedByObjectVersion
1070
     0
  0
VISUALSTYLE
  5
30
102
{ACAD_REACTORS
330
2A
102
}
102
{ACAD_XDICTIONARY
360
470
102
}
330
2A
100
AcDbVisualStyle
  2
3dWireframe
 70
     5
 71
     0
 72
     2
 73
     0
 90
        0
 40
-0.6
 41
-30.0
 62
     5
 63
     7
421
 16777215
 74
     1
 91
        4
 64
     7
 65
   257
 75
     1
175
     1
 42
1.0
 92
        0
 66
   257
 43
1.0
 76
     1
 77
     6
 78
     2
 67
     7
 79
     5
170
     0
171
     0
290
     0
174
     0
 93
        1
 44
0.0
173
     0
291
     0
 45
0.0
1001
ACAD
1000
AcDbSavedByObjectVersion
1070
     0
  0
VISUALSTYLE
  5
32
102
{ACAD_REACTORS
330
2A
102
}
102
{ACAD_XDICTIONARY
360
474
102
}
330
2A
100
AcDbVisualStyle
  2
Basic
 70
     7
 71
     1
 72
     0
 73
     1
 90
        0
 40
-0.6
 41
-30.0
 62
     5
 63
     7
421
 16777215
 74
     0
 91
        4
 64
     7
 65
   257
 75
     1
175
     1
 42
1.0
 92
        8
 66
     7
 43
1.0
 76
     1
 77
     6
 78
     2
 67
     7
 79
     5
170
     0
171
     0
290
     0
174
     0
 93
        1
 44
0.0
173
     0
291
     1
 45
0.0
1001
ACAD
1000
AcDbSavedByObjectVersion
1070
     0
  0
VISUALSTYLE
  5
36
102
{ACAD_REACTORS
330
2A
102
}
102
{ACAD_XDICTIONARY
360
47C
102
}
330
2A
100
AcDbVisualStyle
  2
Brighten
 70
    12
 71
     2
 72
     2
 73
     0
 90
        0
 40
-0.6
 41
-30.0
 62
     5
 63
     7
421
 16777215
 74
     1
 91
        4
 64
     7
 65
   257
 75
     1
175
     1
 42
1.0
 92
        8
 66
     7
 43
1.0
 76
     1
 77
     6
 78
     2
 67
     7
 79
     5
170
     0
171
     0
290
     0
174
     0
 93
        1
 44
50.0
173
     0
291
     1
 45
0.0
1001
ACAD
1000
AcDbSavedByObjectVersion
1070
     0
  0
VISUALSTYLE
  5
3A
102
{ACAD_REACTORS
330
2A
102
}
102
{ACAD_XDICTIONARY
360
484
102
}
330
2A
100
AcDbVisualStyle
  2
ColorChange
 70
    16
 71
     2
 72
     2
 73
     3
 90
        0
 40
-0.6
 41
-30.0
 62
     5
 63
     8
421
  8421504
 74
     1
 91
        4
 64
     7
 65
   257
 75
     1
175
     1
 42
1.0
 92
        8
 66
     8
424
  8421504
 43
1.0
 76
     1
 77
     6
 78
     2
 67
     7
 79
     5
170
     0
171
     0
290
     0
174
     0
 93
        1
 44
0.0
173
     0
291
     1
 45
0.0
1001
ACAD
1000
AcDbSavedByObjectVersion
1070
     0
  0
VISUALSTYLE
  5
34
102
{ACAD_REACTORS
330
2A
102
}
102
{ACAD_XDICTIONARY
360
478
102
}
330
2A
100
AcDbVisualStyle
  2
Conceptual
 70
     9
 71
     3
 72
     2
 73
     0
 90
        0
 40
-0.6
 41
-30.0
 62
     5
 63
     7
421
 16777215
 74
     2
 91
        2
 64
     7
 65
   257
 75
     1
175
     1
 42
40.0
 92
        8
 66
     7
 43
1.0
 76
     1
 77
     6
 78
     2
 67
     7
 79
     3
170
     0
171
     0
290
     0
174
     0
 93
        1
 44
0.0
173
     0
291
     0
 45
0.0
1001
ACAD
1000
AcDbSavedByObjectVersion
1070
     0
  0
VISUALSTYLE
  5
35
102
{ACAD_REACTORS
330
2A
102
}
102
{ACAD_XDICTIONARY
360
47A
102
}
330
2A
100
AcDbVisualStyle
  2
Dim
 70
    11
 71
     2
 72
     2
 73
     0
 90
        0
 40
-0.6
 41
-30.0
 62
     5
 63
     7
421
 16777215
 74
     1
 91
        4
 64
     7
 65
   257
 75
     1
175
     1
 42
1.0
 92
        8
 66
     7
 43
1.0
 76
     1
 77
     6
 78
     2
 67
     7
 79
     5
170
     0
171
     0
290
     0
174
     0
 93
        1
 44
-50.0
173
     0
291
     1
 45
0.0
1001
ACAD
1000
AcDbSavedByObjectVersion
1070
     0
  0
VISUALSTYLE
  5
39
102
{ACAD_REACTORS
330
2A
102
}
102
{ACAD_XDICTIONARY
360
482
102
}
330
2A
100
AcDbVisualStyle
  2
Facepattern
 70
    15
 71
     2
 72
     2
 73
     0
 90
        0
 40
-0.6
 41
-30.0
 62
     5
 63
     7
421
 16777215
 74
     1
 91
        4
 64
     7
 65
   257
 75
     1
175
     1
 42
1.0
 92
        8
 66
     7
 43
1.0
 76
     1
 77
     6
 78
     2
 67
     7
 79
     5
170
     0
171
     0
290
     0
174
     0
 93
        1
 44
0.0
173
     0
291
     1
 45
0.0
1001
ACAD
1000
AcDbSavedByObjectVersion
1070
     0
  0
VISUALSTYLE
  5
2B
102
{ACAD_REACTORS
330
2A
102
}
102
{ACAD_XDICTIONARY
360
466
102
}
330
2A
100
AcDbVisualStyle
  2
Flat
 70
     0
 71
     2
 72
     1
 73
     1
 90
        2
 40
-0.6
 41
30.0
 62
     5
 63
     7
421
 16777215
 74
     0
 91
        4
 64
     7
 65
   257
 75
     1
175
     1
 42
1.0
 92
        8
 66
     7
 43
1.0
 76
     1
 77
     6
 78
     2
 67
     7
 79
     5
170
     0
171
     0
290
     0
174
     0
 93
       13
 44
0.0
173
     0
291
     1
 45
0.0
1001
ACAD
1000
AcDbSavedByObjectVersion
1070
     0
  0
VISUALSTYLE
  5
2C
102
{ACAD_REACTORS
330
2A
102
}
102
{ACAD_XDICTIONARY
360
468
102
}
330
2A
100
AcDbVisualStyle
  2
FlatWithEdges
 70
     1
 71
     2
 72
     1
 73
     1
 90
        2
 40
-0.6
 41
30.0
 62
     5
 63
     7
421
 16777215
 74
     1
 91
        4
 64
     7
 65
   257
 75
     1
175
     1
 42
1.0
 92
        0
 66
   257
 43
1.0
 76
     1
 77
     6
 78
     2
 67
     7
 79
     5
170
     0
171
     0
290
     0
174
     0
 93
       13
 44
0.0
173
     0
291
     1
 45
0.0
1001
ACAD
1000
AcDbSavedByObjectVersion
1070
     0
  0
VISUALSTYLE
  5
2D
102
{ACAD_REACTORS
330
2A
102
}
102
{ACAD_XDICTIONARY
360
46A
102
}
330
2A
100
AcDbVisualStyle
  2
Gouraud
 70
     2
 71
     2
 72
     2
 73
     1
 90
        2
 40
-0.6
 41
30.0
 62
     5
 63
     7
421
 16777215
 74
     0
 91
        4
 64
     7
 65
   257
 75
     1
175
     1
 42
1.0
 92
        0
 66
     7
 43
1.0
 76
     1
 77
     6
 78
     2
 67
     7
 79
     5
170
     0
171
     0
290
     0
174
     0
 93
       13
 44
0.0
173
     0
291
     1
 45
0.0
1001
ACAD
1000
AcDbSavedByObjectVersion
1070
     0
  0
VISUALSTYLE
  5
2E
102
{ACAD_REACTORS
330
2A
102
}
102
{ACAD_XDICTIONARY
360
46C
102
}
330
2A
100
AcDbVisualStyle
  2
GouraudWithEdges
 70
     3
 71
     2
 72
     2
 73
     1
 90
        2
 40
-0.6
 41
30.0
 62
     5
 63
     7
421
 16777215
 74
     1
 91
        4
 64
     7
 65
   257
 75
     1
175
     1
 42
1.0
 92
        0
 66
   257
 43
1.0
 76
     1
 77
     6
 78
     2
 67
     7
 79
     5
170
     0
171
     0
290
     0
174
     0
 93
       13
 44
0.0
173
     0
291
     1
 45
0.0
1001
ACAD
1000
AcDbSavedByObjectVersion
1070
     0
  0
VISUALSTYLE
  5
38
102
{ACAD_REACTORS
330
2A
102
}
102
{ACAD_XDICTIONARY
360
480
102
}
330
2A
100
AcDbVisualStyle
  2
Linepattern
 70
    14
 71
     2
 72
     2
 73
     0
 90
        0
 40
-0.6
 41
-30.0
 62
     5
 63
     7
421
 16777215
 74
     1
 91
        4
 64
     7
 65
   257
 75
     7
175
     7
 42
1.0
 92
        8
 66
     7
 43
1.0
 76
     1
 77
     6
 78
     2
 67
     7
 79
     5
170
     0
171
     0
290
     0
174
     0
 93
        1
 44
0.0
173
     0
291
     1
 45
0.0
1001
ACAD
1000
AcDbSavedByObjectVersion
1070
     0
  0
VISUALSTYLE
  5
33
102
{ACAD_REACTORS
330
2A
102
}
102
{ACAD_XDICTIONARY
360
476
102
}
330
2A
100
AcDbVisualStyle
  2
Realistic
 70
     8
 71
     2
 72
     2
 73
     0
 90
        0
 40
-0.6
 41
-30.0
 62
     5
 63
     7
421
 16777215
 74
     1
 91
        0
 64
     7
 65
   257
 75
     1
175
     1
 42
1.0
 92
        8
 66
     8
424
  7895160
 43
1.0
 76
     1
 77
     6
 78
     2
 67
     7
 79
     5
170
     0
171
     0
290
     0
174
     0
 93
       13
 44
0.0
173
     0
291
     0
 45
0.0
1001
ACAD
1000
AcDbSavedByObjectVersion
1070
     0
  0
VISUALSTYLE
  5
37
102
{ACAD_REACTORS
330
2A
102
}
102
{ACAD_XDICTIONARY
360
47E
102
}
330
2A
100
AcDbVisualStyle
  2
Thicken
 70
    13
 71
     2
 72
     2
 73
     0
 90
        0
 40
-0.6
 41
-30.0
 62
     5
 63
     7
421
 16777215
 74
     1
 91
        4
 64
     7
 65
   257
 75
     1
175
     1
 42
1.0
 92
       12
 66
     7
 43
1.0
 76
     1
 77
     6
 78
     2
 67
     7
 79
     5
170
     0
171
     0
290
     0
174
     0
 93
        1
 44
0.0
173
     0
291
     1
 45
0.0
1001
ACAD
1000
AcDbSavedByObjectVersion
1070
     0
  0
DICTIONARY
  5
488
330
3D
100
AcDbDictionary
280
     1
281
     1
  3
ACAD_XREC_ROUNDTRIP
360
489
  0
DICTIONARY
  5
486
330
3C
100
AcDbDictionary
280
     1
281
     1
  3
ACAD_XREC_ROUNDTRIP
360
487
  0
DICTIONARY
  5
48A
330
3E
100
AcDbDictionary
280
     1
281
     1
  3
ACAD_XREC_ROUNDTRIP
360
48B
  0
DICTIONARY
  5
46E
330
2F
100
AcDbDictionary
280
     1
281
     1
  3
ACAD_XREC_ROUNDTRIP
360
46F
  0
DICTIONARY
  5
472
330
31
100
AcDbDictionary
280
     1
281
     1
  3
ACAD_XREC_ROUNDTRIP
360
473
  0
DICTIONARY
  5
470
330
30
100
AcDbDictionary
280
     1
281
     1
  3
ACAD_XREC_ROUNDTRIP
360
471
  0
DICTIONARY
  5
474
330
32
100
AcDbDictionary
280
     1
281
     1
  3
ACAD_XREC_ROUNDTRIP
360
475
  0
DICTIONARY
  5
47C
330
36
100
AcDbDictionary
280
     1
281
     1
  3
ACAD_XREC_ROUNDTRIP
360
47D
  0
DICTIONARY
  5
484
330
3A
100
AcDbDictionary
280
     1
281
     1
  3
ACAD_XREC_ROUNDTRIP
360
485
  0
DICTIONARY
  5
478
330
34
100
AcDbDictionary
280
     1
281
     1
  3
ACAD_XREC_ROUNDTRIP
360
479
  0
DICTIONARY
  5
47A
330
35
100
AcDbDictionary
280
     1
281
     1
  3
ACAD_XREC_ROUNDTRIP
360
47B
  0
DICTIONARY
  5
482
330
39
100
AcDbDictionary
280
     1
281
     1
  3
ACAD_XREC_ROUNDTRIP
360
483
  0
DICTIONARY
  5
466
330
2B
100
AcDbDictionary
280
     1
281
     1
  3
ACAD_XREC_ROUNDTRIP
360
467
  0
DICTIONARY
  5
468
330
2C
100
AcDbDictionary
280
     1
281
     1
  3
ACAD_XREC_ROUNDTRIP
360
469
  0
DICTIONARY
  5
46A
330
2D
100
AcDbDictionary
280
     1
281
     1
  3
ACAD_XREC_ROUNDTRIP
360
46B
  0
DICTIONARY
  5
46C
330
2E
100
AcDbDictionary
280
     1
281
     1
  3
ACAD_XREC_ROUNDTRIP
360
46D
  0
DICTIONARY
  5
480
330
38
100
AcDbDictionary
280
     1
281
     1
  3
ACAD_XREC_ROUNDTRIP
360
481
  0
DICTIONARY
  5
476
330
33
100
AcDbDictionary
280
     1
281
     1
  3
ACAD_XREC_ROUNDTRIP
360
477
  0
DICTIONARY
  5
47E
330
37
100
AcDbDictionary
280
     1
281
     1
  3
ACAD_XREC_ROUNDTRIP
360
47F
  0
XRECORD
  5
489
102
{ACAD_REACTORS
330
488
102
}
330
488
100
AcDbXrecord
280
     1
102
MATERIAL
148
0.0
149
0.0
149
0.0
 93
        0
 94
      127
282
     0
 72
     1
 77
     1
171
     1
175
     1
179
     1
273
     0
  0
XRECORD
  5
487
102
{ACAD_REACTORS
330
486
102
}
330
486
100
AcDbXrecord
280
     1
102
MATERIAL
148
0.0
149
0.0
149
0.0
 93
        0
 94
      127
282
     0
 72
     1
 77
     1
171
     1
175
     1
179
     1
273
     0
  0
XRECORD
  5
48B
102
{ACAD_REACTORS
330
48A
102
}
330
48A
100
AcDbXrecord
280
     1
102
MATERIAL
148
0.0
149
0.0
149
0.0
 93
        0
 94
      127
282
     0
 72
     1
 77
     1
171
     1
175
     1
179
     1
273
     0
  0
XRECORD
  5
46F
102
{ACAD_REACTORS
330
46E
102
}
330
46E
100
AcDbXrecord
280
     1
102
RTVSPropertyOp0
 70
     1
102
RTVSPropertyOp1
 70
     1
102
RTVSPropertyOp2
 70
     1
102
RTVSPropertyOp3
 70
     1
102
RTVSPropertyOp4
 70
     1
102
RTVSPropertyOp5
 70
     1
102
RTVSPropertyOp6
 70
     1
102
RTVSPropertyOp7
 70
     1
102
RTVSPropertyOp8
 70
     1
102
RTVSPropertyOp9
 70
     1
102
RTVSPropertyOp10
 70
     1
102
RTVSPropertyOp11
 70
     1
102
RTVSPropertyOp12
 70
     1
102
RTVSPropertyOp13
 70
     1
102
RTVSPropertyOp14
 70
     1
102
RTVSPropertyOp15
 70
     1
102
RTVSPropertyOp16
 70
     1
102
RTVSPropertyOp17
 70
     1
102
RTVSPropertyOp18
 70
     1
102
RTVSPropertyOp19
 70
     1
102
RTVSPropertyOp20
 70
     1
102
RTVSPropertyOp21
 70
     1
102
RTVSPropertyOp22
 70
     1
102
RTVSPropertyOp23
 70
     1
102
RTVSPropertyOp24
 70
     1
102
RTVSPropertyOp25
 70
     1
102
RTVSPropertyOp26
 70
     1
102
RTVSPropertyOp27
 70
     1
102
RTVSPropertyOp28
 70
     1
102
RTVSPropertyOp29
 70
     1
102
RTVSPropertyOp30
 70
     1
102
RTVSPropertyOp31
 70
     1
102
RTVSPropertyOp32
 70
     1
  0
XRECORD
  5
473
102
{ACAD_REACTORS
330
472
102
}
330
472
100
AcDbXrecord
280
     1
102
RTVSPropertyOp0
 70
     1
102
RTVSPropertyOp1
 70
     1
102
RTVSPropertyOp2
 70
     1
102
RTVSPropertyOp3
 70
     1
102
RTVSPropertyOp4
 70
     1
102
RTVSPropertyOp5
 70
     1
102
RTVSPropertyOp6
 70
     1
102
RTVSPropertyOp7
 70
     1
102
RTVSPropertyOp8
 70
     1
102
RTVSPropertyOp9
 70
     1
102
RTVSPropertyOp10
 70
     1
102
RTVSPropertyOp11
 70
     1
102
RTVSPropertyOp12
 70
     1
102
RTVSPropertyOp13
 70
     1
102
RTVSPropertyOp14
 70
     1
102
RTVSPropertyOp15
 70
     1
102
RTVSPropertyOp16
 70
     1
102
RTVSPropertyOp17
 70
     1
102
RTVSPropertyOp18
 70
     1
102
RTVSPropertyOp19
 70
     1
102
RTVSPropertyOp20
 70
     1
102
RTVSPropertyOp21
 70
     1
102
RTVSPropertyOp22
 70
     1
102
RTVSPropertyOp23
 70
     1
102
RTVSPropertyOp24
 70
     1
102
RTVSPropertyOp25
 70
     1
102
RTVSPropertyOp26
 70
     1
102
RTVSPropertyOp27
 70
     1
102
RTVSPropertyOp28
 70
     1
102
RTVSPropertyOp29
 70
     1
102
RTVSPropertyOp30
 70
     1
102
RTVSPropertyOp31
 70
     1
102
RTVSPropertyOp32
 70
     1
  0
XRECORD
  5
471
102
{ACAD_REACTORS
330
470
102
}
330
470
100
AcDbXrecord
280
     1
102
RTVSPropertyOp0
 70
     1
102
RTVSPropertyOp1
 70
     1
102
RTVSPropertyOp2
 70
     1
102
RTVSPropertyOp3
 70
     1
102
RTVSPropertyOp4
 70
     1
102
RTVSPropertyOp5
 70
     1
102
RTVSPropertyOp6
 70
     1
102
RTVSPropertyOp7
 70
     1
102
RTVSPropertyOp8
 70
     1
102
RTVSPropertyOp9
 70
     1
102
RTVSPropertyOp10
 70
     1
102
RTVSPropertyOp11
 70
     1
102
RTVSPropertyOp12
 70
     1
102
RTVSPropertyOp13
 70
     1
102
RTVSPropertyOp14
 70
     1
102
RTVSPropertyOp15
 70
     1
102
RTVSPropertyOp16
 70
     1
102
RTVSPropertyOp17
 70
     1
102
RTVSPropertyOp18
 70
     1
102
RTVSPropertyOp19
 70
     1
102
RTVSPropertyOp20
 70
     1
102
RTVSPropertyOp21
 70
     1
102
RTVSPropertyOp22
 70
     1
102
RTVSPropertyOp23
 70
     1
102
RTVSPropertyOp24
 70
     1
102
RTVSPropertyOp25
 70
     1
102
RTVSPropertyOp26
 70
     1
102
RTVSPropertyOp27
 70
     1
102
RTVSPropertyOp28
 70
     1
102
RTVSPropertyOp29
 70
     1
102
RTVSPropertyOp30
 70
     1
102
RTVSPropertyOp31
 70
     1
102
RTVSPropertyOp32
 70
     1
  0
XRECORD
  5
475
102
{ACAD_REACTORS
330
474
102
}
330
474
100
AcDbXrecord
280
     1
102
RTVSPropertyOp0
 70
     1
102
RTVSPropertyOp1
 70
     1
102
RTVSPropertyOp2
 70
     1
102
RTVSPropertyOp3
 70
     1
102
RTVSPropertyOp4
 70
     1
102
RTVSPropertyOp5
 70
     1
102
RTVSPropertyOp6
 70
     1
102
RTVSPropertyOp7
 70
     1
102
RTVSPropertyOp8
 70
     1
102
RTVSPropertyOp9
 70
     1
102
RTVSPropertyOp10
 70
     1
102
RTVSPropertyOp11
 70
     1
102
RTVSPropertyOp12
 70
     1
102
RTVSPropertyOp13
 70
     1
102
RTVSPropertyOp14
 70
     1
102
RTVSPropertyOp15
 70
     1
102
RTVSPropertyOp16
 70
     1
102
RTVSPropertyOp17
 70
     1
102
RTVSPropertyOp18
 70
     1
102
RTVSPropertyOp19
 70
     1
102
RTVSPropertyOp20
 70
     1
102
RTVSPropertyOp21
 70
     1
102
RTVSPropertyOp22
 70
     1
102
RTVSPropertyOp23
 70
     1
102
RTVSPropertyOp24
 70
     1
102
RTVSPropertyOp25
 70
     1
102
RTVSPropertyOp26
 70
     1
102
RTVSPropertyOp27
 70
     1
102
RTVSPropertyOp28
 70
     1
102
RTVSPropertyOp29
 70
     1
102
RTVSPropertyOp30
 70
     1
102
RTVSPropertyOp31
 70
     1
102
RTVSPropertyOp32
 70
     1
  0
XRECORD
  5
47D
102
{ACAD_REACTORS
330
47C
102
}
330
47C
100
AcDbXrecord
280
     1
102
RTVSPropertyOp0
 70
     1
102
RTVSPropertyOp1
 70
     1
102
RTVSPropertyOp2
 70
     1
102
RTVSPropertyOp3
 70
     1
102
RTVSPropertyOp4
 70
     1
102
RTVSPropertyOp5
 70
     1
102
RTVSPropertyOp6
 70
     1
102
RTVSPropertyOp7
 70
     1
102
RTVSPropertyOp8
 70
     1
102
RTVSPropertyOp9
 70
     1
102
RTVSPropertyOp10
 70
     1
102
RTVSPropertyOp11
 70
     1
102
RTVSPropertyOp12
 70
     1
102
RTVSPropertyOp13
 70
     1
102
RTVSPropertyOp14
 70
     1
102
RTVSPropertyOp15
 70
     1
102
RTVSPropertyOp16
 70
     1
102
RTVSPropertyOp17
 70
     1
102
RTVSPropertyOp18
 70
     1
102
RTVSPropertyOp19
 70
     1
102
RTVSPropertyOp20
 70
     1
102
RTVSPropertyOp21
 70
     1
102
RTVSPropertyOp22
 70
     1
102
RTVSPropertyOp23
 70
     1
102
RTVSPropertyOp24
 70
     1
102
RTVSPropertyOp25
 70
     1
102
RTVSPropertyOp26
 70
     1
102
RTVSPropertyOp27
 70
     1
102
RTVSPropertyOp28
 70
     1
102
RTVSPropertyOp29
 70
     1
102
RTVSPropertyOp30
 70
     1
102
RTVSPropertyOp31
 70
     1
102
RTVSPropertyOp32
 70
     1
  0
XRECORD
  5
485
102
{ACAD_REACTORS
330
484
102
}
330
484
100
AcDbXrecord
280
     1
102
RTVSPropertyOp0
 70
     1
102
RTVSPropertyOp1
 70
     1
102
RTVSPropertyOp2
 70
     1
102
RTVSPropertyOp3
 70
     1
102
RTVSPropertyOp4
 70
     1
102
RTVSPropertyOp5
 70
     1
102
RTVSPropertyOp6
 70
     1
102
RTVSPropertyOp7
 70
     1
102
RTVSPropertyOp8
 70
     1
102
RTVSPropertyOp9
 70
     1
102
RTVSPropertyOp10
 70
     1
102
RTVSPropertyOp11
 70
     1
102
RTVSPropertyOp12
 70
     1
102
RTVSPropertyOp13
 70
     1
102
RTVSPropertyOp14
 70
     1
102
RTVSPropertyOp15
 70
     1
102
RTVSPropertyOp16
 70
     1
102
RTVSPropertyOp17
 70
     1
102
RTVSPropertyOp18
 70
     1
102
RTVSPropertyOp19
 70
     1
102
RTVSPropertyOp20
 70
     1
102
RTVSPropertyOp21
 70
     1
102
RTVSPropertyOp22
 70
     1
102
RTVSPropertyOp23
 70
     1
102
RTVSPropertyOp24
 70
     1
102
RTVSPropertyOp25
 70
     1
102
RTVSPropertyOp26
 70
     1
102
RTVSPropertyOp27
 70
     1
102
RTVSPropertyOp28
 70
     1
102
RTVSPropertyOp29
 70
     1
102
RTVSPropertyOp30
 70
     1
102
RTVSPropertyOp31
 70
     1
102
RTVSPropertyOp32
 70
     1
  0
XRECORD
  5
479
102
{ACAD_REACTORS
330
478
102
}
330
478
100
AcDbXrecord
280
     1
102
RTVSPropertyOp0
 70
     1
102
RTVSPropertyOp1
 70
     1
102
RTVSPropertyOp2
 70
     1
102
RTVSPropertyOp3
 70
     1
102
RTVSPropertyOp4
 70
     1
102
RTVSPropertyOp5
 70
     1
102
RTVSPropertyOp6
 70
     1
102
RTVSPropertyOp7
 70
     1
102
RTVSPropertyOp8
 70
     1
102
RTVSPropertyOp9
 70
     1
102
RTVSPropertyOp10
 70
     1
102
RTVSPropertyOp11
 70
     1
102
RTVSPropertyOp12
 70
     1
102
RTVSPropertyOp13
 70
     1
102
RTVSPropertyOp14
 70
     1
102
RTVSPropertyOp15
 70
     1
102
RTVSPropertyOp16
 70
     1
102
RTVSPropertyOp17
 70
     1
102
RTVSPropertyOp18
 70
     1
102
RTVSPropertyOp19
 70
     1
102
RTVSPropertyOp20
 70
     1
102
RTVSPropertyOp21
 70
     1
102
RTVSPropertyOp22
 70
     1
102
RTVSPropertyOp23
 70
     1
102
RTVSPropertyOp24
 70
     1
102
RTVSPropertyOp25
 70
     1
102
RTVSPropertyOp26
 70
     1
102
RTVSPropertyOp27
 70
     1
102
RTVSPropertyOp28
 70
     1
102
RTVSPropertyOp29
 70
     1
102
RTVSPropertyOp30
 70
     1
102
RTVSPropertyOp31
 70
     1
102
RTVSPropertyOp32
 70
     1
  0
XRECORD
  5
47B
102
{ACAD_REACTORS
330
47A
102
}
330
47A
100
AcDbXrecord
280
     1
102
RTVSPropertyOp0
 70
     1
102
RTVSPropertyOp1
 70
     1
102
RTVSPropertyOp2
 70
     1
102
RTVSPropertyOp3
 70
     1
102
RTVSPropertyOp4
 70
     1
102
RTVSPropertyOp5
 70
     1
102
RTVSPropertyOp6
 70
     1
102
RTVSPropertyOp7
 70
     1
102
RTVSPropertyOp8
 70
     1
102
RTVSPropertyOp9
 70
     1
102
RTVSPropertyOp10
 70
     1
102
RTVSPropertyOp11
 70
     1
102
RTVSPropertyOp12
 70
     1
102
RTVSPropertyOp13
 70
     1
102
RTVSPropertyOp14
 70
     1
102
RTVSPropertyOp15
 70
     1
102
RTVSPropertyOp16
 70
     1
102
RTVSPropertyOp17
 70
     1
102
RTVSPropertyOp18
 70
     1
102
RTVSPropertyOp19
 70
     1
102
RTVSPropertyOp20
 70
     1
102
RTVSPropertyOp21
 70
     1
102
RTVSPropertyOp22
 70
     1
102
RTVSPropertyOp23
 70
     1
102
RTVSPropertyOp24
 70
     1
102
RTVSPropertyOp25
 70
     1
102
RTVSPropertyOp26
 70
     1
102
RTVSPropertyOp27
 70
     1
102
RTVSPropertyOp28
 70
     1
102
RTVSPropertyOp29
 70
     1
102
RTVSPropertyOp30
 70
     1
102
RTVSPropertyOp31
 70
     1
102
RTVSPropertyOp32
 70
     1
  0
XRECORD
  5
483
102
{ACAD_REACTORS
330
482
102
}
330
482
100
AcDbXrecord
280
     1
102
RTVSPropertyOp0
 70
     1
102
RTVSPropertyOp1
 70
     1
102
RTVSPropertyOp2
 70
     1
102
RTVSPropertyOp3
 70
     1
102
RTVSPropertyOp4
 70
     1
102
RTVSPropertyOp5
 70
     1
102
RTVSPropertyOp6
 70
     1
102
RTVSPropertyOp7
 70
     1
102
RTVSPropertyOp8
 70
     1
102
RTVSPropertyOp9
 70
     1
102
RTVSPropertyOp10
 70
     1
102
RTVSPropertyOp11
 70
     1
102
RTVSPropertyOp12
 70
     1
102
RTVSPropertyOp13
 70
     1
102
RTVSPropertyOp14
 70
     1
102
RTVSPropertyOp15
 70
     1
102
RTVSPropertyOp16
 70
     1
102
RTVSPropertyOp17
 70
     1
102
RTVSPropertyOp18
 70
     1
102
RTVSPropertyOp19
 70
     1
102
RTVSPropertyOp20
 70
     1
102
RTVSPropertyOp21
 70
     1
102
RTVSPropertyOp22
 70
     1
102
RTVSPropertyOp23
 70
     1
102
RTVSPropertyOp24
 70
     1
102
RTVSPropertyOp25
 70
     1
102
RTVSPropertyOp26
 70
     1
102
RTVSPropertyOp27
 70
     1
102
RTVSPropertyOp28
 70
     1
102
RTVSPropertyOp29
 70
     1
102
RTVSPropertyOp30
 70
     1
102
RTVSPropertyOp31
 70
     1
102
RTVSPropertyOp32
 70
     1
  0
XRECORD
  5
467
102
{ACAD_REACTORS
330
466
102
}
330
466
100
AcDbXrecord
280
     1
102
RTVSPropertyOp0
 70
     1
102
RTVSPropertyOp1
 70
     1
102
RTVSPropertyOp2
 70
     1
102
RTVSPropertyOp3
 70
     1
102
RTVSPropertyOp4
 70
     1
102
RTVSPropertyOp5
 70
     1
102
RTVSPropertyOp6
 70
     1
102
RTVSPropertyOp7
 70
     1
102
RTVSPropertyOp8
 70
     1
102
RTVSPropertyOp9
 70
     1
102
RTVSPropertyOp10
 70
     1
102
RTVSPropertyOp11
 70
     1
102
RTVSPropertyOp12
 70
     1
102
RTVSPropertyOp13
 70
     1
102
RTVSPropertyOp14
 70
     1
102
RTVSPropertyOp15
 70
     1
102
RTVSPropertyOp16
 70
     1
102
RTVSPropertyOp17
 70
     1
102
RTVSPropertyOp18
 70
     1
102
RTVSPropertyOp19
 70
     1
102
RTVSPropertyOp20
 70
     1
102
RTVSPropertyOp21
 70
     1
102
RTVSPropertyOp22
 70
     1
102
RTVSPropertyOp23
 70
     1
102
RTVSPropertyOp24
 70
     1
102
RTVSPropertyOp25
 70
     1
102
RTVSPropertyOp26
 70
     1
102
RTVSPropertyOp27
 70
     1
102
RTVSPropertyOp28
 70
     1
102
RTVSPropertyOp29
 70
     1
102
RTVSPropertyOp30
 70
     1
102
RTVSPropertyOp31
 70
     1
102
RTVSPropertyOp32
 70
     1
  0
XRECORD
  5
469
102
{ACAD_REACTORS
330
468
102
}
330
468
100
AcDbXrecord
280
     1
102
RTVSPropertyOp0
 70
     1
102
RTVSPropertyOp1
 70
     1
102
RTVSPropertyOp2
 70
     1
102
RTVSPropertyOp3
 70
     1
102
RTVSPropertyOp4
 70
     1
102
RTVSPropertyOp5
 70
     1
102
RTVSPropertyOp6
 70
     1
102
RTVSPropertyOp7
 70
     1
102
RTVSPropertyOp8
 70
     1
102
RTVSPropertyOp9
 70
     1
102
RTVSPropertyOp10
 70
     1
102
RTVSPropertyOp11
 70
     1
102
RTVSPropertyOp12
 70
     1
102
RTVSPropertyOp13
 70
     1
102
RTVSPropertyOp14
 70
     1
102
RTVSPropertyOp15
 70
     1
102
RTVSPropertyOp16
 70
     1
102
RTVSPropertyOp17
 70
     1
102
RTVSPropertyOp18
 70
     1
102
RTVSPropertyOp19
 70
     1
102
RTVSPropertyOp20
 70
     1
102
RTVSPropertyOp21
 70
     1
102
RTVSPropertyOp22
 70
     1
102
RTVSPropertyOp23
 70
     1
102
RTVSPropertyOp24
 70
     1
102
RTVSPropertyOp25
 70
     1
102
RTVSPropertyOp26
 70
     1
102
RTVSPropertyOp27
 70
     1
102
RTVSPropertyOp28
 70
     1
102
RTVSPropertyOp29
 70
     1
102
RTVSPropertyOp30
 70
     1
102
RTVSPropertyOp31
 70
     1
102
RTVSPropertyOp32
 70
     1
  0
XRECORD
  5
46B
102
{ACAD_REACTORS
330
46A
102
}
330
46A
100
AcDbXrecord
280
     1
102
RTVSPropertyOp0
 70
     1
102
RTVSPropertyOp1
 70
     1
102
RTVSPropertyOp2
 70
     1
102
RTVSPropertyOp3
 70
     1
102
RTVSPropertyOp4
 70
     1
102
RTVSPropertyOp5
 70
     1
102
RTVSPropertyOp6
 70
     1
102
RTVSPropertyOp7
 70
     1
102
RTVSPropertyOp8
 70
     1
102
RTVSPropertyOp9
 70
     1
102
RTVSPropertyOp10
 70
     1
102
RTVSPropertyOp11
 70
     1
102
RTVSPropertyOp12
 70
     1
102
RTVSPropertyOp13
 70
     1
102
RTVSPropertyOp14
 70
     1
102
RTVSPropertyOp15
 70
     1
102
RTVSPropertyOp16
 70
     1
102
RTVSPropertyOp17
 70
     1
102
RTVSPropertyOp18
 70
     1
102
RTVSPropertyOp19
 70
     1
102
RTVSPropertyOp20
 70
     1
102
RTVSPropertyOp21
 70
     1
102
RTVSPropertyOp22
 70
     1
102
RTVSPropertyOp23
 70
     1
102
RTVSPropertyOp24
 70
     1
102
RTVSPropertyOp25
 70
     1
102
RTVSPropertyOp26
 70
     1
102
RTVSPropertyOp27
 70
     1
102
RTVSPropertyOp28
 70
     1
102
RTVSPropertyOp29
 70
     1
102
RTVSPropertyOp30
 70
     1
102
RTVSPropertyOp31
 70
     1
102
RTVSPropertyOp32
 70
     1
  0
XRECORD
  5
46D
102
{ACAD_REACTORS
330
46C
102
}
330
46C
100
AcDbXrecord
280
     1
102
RTVSPropertyOp0
 70
     1
102
RTVSPropertyOp1
 70
     1
102
RTVSPropertyOp2
 70
     1
102
RTVSPropertyOp3
 70
     1
102
RTVSPropertyOp4
 70
     1
102
RTVSPropertyOp5
 70
     1
102
RTVSPropertyOp6
 70
     1
102
RTVSPropertyOp7
 70
     1
102
RTVSPropertyOp8
 70
     1
102
RTVSPropertyOp9
 70
     1
102
RTVSPropertyOp10
 70
     1
102
RTVSPropertyOp11
 70
     1
102
RTVSPropertyOp12
 70
     1
102
RTVSPropertyOp13
 70
     1
102
RTVSPropertyOp14
 70
     1
102
RTVSPropertyOp15
 70
     1
102
RTVSPropertyOp16
 70
     1
102
RTVSPropertyOp17
 70
     1
102
RTVSPropertyOp18
 70
     1
102
RTVSPropertyOp19
 70
     1
102
RTVSPropertyOp20
 70
     1
102
RTVSPropertyOp21
 70
     1
102
RTVSPropertyOp22
 70
     1
102
RTVSPropertyOp23
 70
     1
102
RTVSPropertyOp24
 70
     1
102
RTVSPropertyOp25
 70
     1
102
RTVSPropertyOp26
 70
     1
102
RTVSPropertyOp27
 70
     1
102
RTVSPropertyOp28
 70
     1
102
RTVSPropertyOp29
 70
     1
102
RTVSPropertyOp30
 70
     1
102
RTVSPropertyOp31
 70
     1
102
RTVSPropertyOp32
 70
     1
  0
XRECORD
  5
481
102
{ACAD_REACTORS
330
480
102
}
330
480
100
AcDbXrecord
280
     1
102
RTVSPropertyOp0
 70
     1
102
RTVSPropertyOp1
 70
     1
102
RTVSPropertyOp2
 70
     1
102
RTVSPropertyOp3
 70
     1
102
RTVSPropertyOp4
 70
     1
102
RTVSPropertyOp5
 70
     1
102
RTVSPropertyOp6
 70
     1
102
RTVSPropertyOp7
 70
     1
102
RTVSPropertyOp8
 70
     1
102
RTVSPropertyOp9
 70
     1
102
RTVSPropertyOp10
 70
     1
102
RTVSPropertyOp11
 70
     1
102
RTVSPropertyOp12
 70
     1
102
RTVSPropertyOp13
 70
     1
102
RTVSPropertyOp14
 70
     1
102
RTVSPropertyOp15
 70
     1
102
RTVSPropertyOp16
 70
     1
102
RTVSPropertyOp17
 70
     1
102
RTVSPropertyOp18
 70
     1
102
RTVSPropertyOp19
 70
     1
102
RTVSPropertyOp20
 70
     1
102
RTVSPropertyOp21
 70
     1
102
RTVSPropertyOp22
 70
     1
102
RTVSPropertyOp23
 70
     1
102
RTVSPropertyOp24
 70
     1
102
RTVSPropertyOp25
 70
     1
102
RTVSPropertyOp26
 70
     1
102
RTVSPropertyOp27
 70
     1
102
RTVSPropertyOp28
 70
     1
102
RTVSPropertyOp29
 70
     1
102
RTVSPropertyOp30
 70
     1
102
RTVSPropertyOp31
 70
     1
102
RTVSPropertyOp32
 70
     1
  0
XRECORD
  5
477
102
{ACAD_REACTORS
330
476
102
}
330
476
100
AcDbXrecord
280
     1
102
RTVSPropertyOp0
 70
     1
102
RTVSPropertyOp1
 70
     1
102
RTVSPropertyOp2
 70
     1
102
RTVSPropertyOp3
 70
     1
102
RTVSPropertyOp4
 70
     1
102
RTVSPropertyOp5
 70
     1
102
RTVSPropertyOp6
 70
     1
102
RTVSPropertyOp7
 70
     1
102
RTVSPropertyOp8
 70
     1
102
RTVSPropertyOp9
 70
     1
102
RTVSPropertyOp10
 70
     1
102
RTVSPropertyOp11
 70
     1
102
RTVSPropertyOp12
 70
     1
102
RTVSPropertyOp13
 70
     1
102
RTVSPropertyOp14
 70
     1
102
RTVSPropertyOp15
 70
     1
102
RTVSPropertyOp16
 70
     1
102
RTVSPropertyOp17
 70
     1
102
RTVSPropertyOp18
 70
     1
102
RTVSPropertyOp19
 70
     1
102
RTVSPropertyOp20
 70
     1
102
RTVSPropertyOp21
 70
     1
102
RTVSPropertyOp22
 70
     1
102
RTVSPropertyOp23
 70
     1
102
RTVSPropertyOp24
 70
     1
102
RTVSPropertyOp25
 70
     1
102
RTVSPropertyOp26
 70
     1
102
RTVSPropertyOp27
 70
     1
102
RTVSPropertyOp28
 70
     1
102
RTVSPropertyOp29
 70
     1
102
RTVSPropertyOp30
 70
     1
102
RTVSPropertyOp31
 70
     1
102
RTVSPropertyOp32
 70
     1
  0
XRECORD
  5
47F
102
{ACAD_REACTORS
330
47E
102
}
330
47E
100
AcDbXrecord
280
     1
102
RTVSPropertyOp0
 70
     1
102
RTVSPropertyOp1
 70
     1
102
RTVSPropertyOp2
 70
     1
102
RTVSPropertyOp3
 70
     1
102
RTVSPropertyOp4
 70
     1
102
RTVSPropertyOp5
 70
     1
102
RTVSPropertyOp6
 70
     1
102
RTVSPropertyOp7
 70
     1
102
RTVSPropertyOp8
 70
     1
102
RTVSPropertyOp9
 70
     1
102
RTVSPropertyOp10
 70
     1
102
RTVSPropertyOp11
 70
     1
102
RTVSPropertyOp12
 70
     1
102
RTVSPropertyOp13
 70
     1
102
RTVSPropertyOp14
 70
     1
102
RTVSPropertyOp15
 70
     1
102
RTVSPropertyOp16
 70
     1
102
RTVSPropertyOp17
 70
     1
102
RTVSPropertyOp18
 70
     1
102
RTVSPropertyOp19
 70
     1
102
RTVSPropertyOp20
 70
     1
102
RTVSPropertyOp21
 70
     1
102
RTVSPropertyOp22
 70
     1
102
RTVSPropertyOp23
 70
     1
102
RTVSPropertyOp24
 70
     1
102
RTVSPropertyOp25
 70
     1
102
RTVSPropertyOp26
 70
     1
102
RTVSPropertyOp27
 70
     1
102
RTVSPropertyOp28
 70
     1
102
RTVSPropertyOp29
 70
     1
102
RTVSPropertyOp30
 70
     1
102
RTVSPropertyOp31
 70
     1
102
RTVSPropertyOp32
 70
     1
  0
ENDSEC
  0
EOF
