  0
SECTION
  2
HEADER
  9
$ACADVER
  1
AC1018
  9
$ACADMAINTVER
 70
     0
  9
$DWGCODEPAGE
  3
ANSI_1252
  9
$INSBASE
 10
0.0
 20
0.0
 30
0.0
  9
$EXTMIN
 10
-226.2398765889416
 20
-4.10347261104414
 30
0.0
  9
$EXTMAX
 10
70.76012341105644
 20
205.896527388956
 30
0.0
  9
$LIMMIN
 10
0.0
 20
0.0
  9
$LIMMAX
 10
12.0
 20
9.0
  9
$ORTHOMODE
 70
     0
  9
$REGENMODE
 70
     1
  9
$FILLMODE
 70
     1
  9
$QTEXTMODE
 70
     0
  9
$MIRRTEXT
 70
     1
  9
$LTSCALE
 40
1.0
  9
$ATTMODE
 70
     1
  9
$TEXTSIZE
 40
0.2
  9
$TRACEWID
 40
0.05
  9
$TEXTSTYLE
  7
Standard
  9
$CLAYER
  8
0
  9
$CELTYPE
  6
ByLayer
  9
$CECOLOR
 62
   256
  9
$CELTSCALE
 40
1.0
  9
$DISPSILH
 70
     0
  9
$DIMSCALE
 40
1.0
  9
$DIMASZ
 40
0.18
  9
$DIMEXO
 40
0.0625
  9
$DIMDLI
 40
0.38
  9
$DIMRND
 40
0.0
  9
$DIMDLE
 40
0.0
  9
$DIMEXE
 40
0.18
  9
$DIMTP
 40
0.0
  9
$DIMTM
 40
0.0
  9
$DIMTXT
 40
0.18
  9
$DIMCEN
 40
0.09
  9
$DIMTSZ
 40
0.0
  9
$DIMTOL
 70
     0
  9
$DIMLIM
 70
     0
  9
$DIMTIH
 70
     1
  9
$DIMTOH
 70
     1
  9
$DIMSE1
 70
     0
  9
$DIMSE2
 70
     0
  9
$DIMTAD
 70
     0
  9
$DIMZIN
 70
     0
  9
$DIMBLK
  1

  9
$DIMASO
 70
     1
  9
$DIMSHO
 70
     1
  9
$DIMPOST
  1

  9
$DIMAPOST
  1

  9
$DIMALT
 70
     0
  9
$DIMALTD
 70
     2
  9
$DIMALTF
 40
25.4
  9
$DIMLFAC
 40
1.0
  9
$DIMTOFL
 70
     0
  9
$DIMTVP
 40
0.0
  9
$DIMTIX
 70
     0
  9
$DIMSOXD
 70
     0
  9
$DIMSAH
 70
     0
  9
$DIMBLK1
  1

  9
$DIMBLK2
  1

  9
$DIMSTYLE
  2
Standard
  9
$DIMCLRD
 70
     0
  9
$DIMCLRE
 70
     0
  9
$DIMCLRT
 70
     0
  9
$DIMTFAC
 40
1.0
  9
$DIMGAP
 40
0.09
  9
$DIMJUST
 70
     0
  9
$DIMSD1
 70
     0
  9
$DIMSD2
 70
     0
  9
$DIMTOLJ
 70
     1
  9
$DIMTZIN
 70
     0
  9
$DIMALTZ
 70
     0
  9
$DIMALTTZ
 70
     0
  9
$DIMUPT
 70
     0
  9
$DIMDEC
 70
     4
  9
$DIMTDEC
 70
     4
  9
$DIMALTU
 70
     2
  9
$DIMALTTD
 70
     2
  9
$DIMTXSTY
  7
Standard
  9
$DIMAUNIT
 70
     0
  9
$DIMADEC
 70
     0
  9
$DIMALTRND
 40
0.0
  9
$DIMAZIN
 70
     0
  9
$DIMDSEP
 70
    46
  9
$DIMATFIT
 70
     3
  9
$DIMFRAC
 70
     0
  9
$DIMLDRBLK
  1

  9
$DIMLUNIT
 70
     2
  9
$DIMLWD
 70
    -2
  9
$DIMLWE
 70
    -2
  9
$DIMTMOVE
 70
     0
  9
$LUNITS
 70
     2
  9
$LUPREC
 70
     4
  9
$SKETCHINC
 40
0.1
  9
$FILLETRAD
 40
0.5
  9
$AUNITS
 70
     0
  9
$AUPREC
 70
     0
  9
$MENU
  1
.
  9
$ELEVATION
 40
0.0
  9
$PELEVATION
 40
0.0
  9
$THICKNESS
 40
0.0
  9
$LIMCHECK
 70
     0
  9
$CHAMFERA
 40
0.5
  9
$CHAMFERB
 40
0.5
  9
$CHAMFERC
 40
1.0
  9
$CHAMFERD
 40
0.0
  9
$SKPOLY
 70
     0
  9
$TDCREATE
 40
2458073.333228195
  9
$TDUCREATE
 40
2458073.291561528
  9
$TDUPDATE
 40
2458073.333228727
  9
$TDUUPDATE
 40
2458073.29156206
  9
$TDINDWG
 40
0.0000000116
  9
$TDUSRTIMER
 40
0.0000000116
  9
$USRTIMER
 70
     1
  9
$ANGBASE
 50
0.0
  9
$ANGDIR
 70
     0
  9
$PDMODE
 70
     0
  9
$PDSIZE
 40
0.0
  9
$PLINEWID
 40
0.0
  9
$SPLFRAME
 70
     0
  9
$SPLINETYPE
 70
     6
  9
$SPLINESEGS
 70
     8
  9
$HANDSEED
  5
469
  9
$SURFTAB1
 70
     6
  9
$SURFTAB2
 70
     6
  9
$SURFTYPE
 70
     6
  9
$SURFU
 70
     6
  9
$SURFV
 70
     6
  9
$UCSBASE
  2

  9
$UCSNAME
  2

  9
$UCSORG
 10
0.0
 20
0.0
 30
0.0
  9
$UCSXDIR
 10
1.0
 20
0.0
 30
0.0
  9
$UCSYDIR
 10
0.0
 20
1.0
 30
0.0
  9
$UCSORTHOREF
  2

  9
$UCSORTHOVIEW
 70
     0
  9
$UCSORGTOP
 10
0.0
 20
0.0
 30
0.0
  9
$UCSORGBOTTOM
 10
0.0
 20
0.0
 30
0.0
  9
$UCSORGLEFT
 10
0.0
 20
0.0
 30
0.0
  9
$UCSORGRIGHT
 10
0.0
 20
0.0
 30
0.0
  9
$UCSORGFRONT
 10
0.0
 20
0.0
 30
0.0
  9
$UCSORGBACK
 10
0.0
 20
0.0
 30
0.0
  9
$PUCSBASE
  2

  9
$PUCSNAME
  2

  9
$PUCSORG
 10
0.0
 20
0.0
 30
0.0
  9
$PUCSXDIR
 10
1.0
 20
0.0
 30
0.0
  9
$PUCSYDIR
 10
0.0
 20
1.0
 30
0.0
  9
$PUCSORTHOREF
  2

  9
$PUCSORTHOVIEW
 70
     0
  9
$PUCSORGTOP
 10
0.0
 20
0.0
 30
0.0
  9
$PUCSORGBOTTOM
 10
0.0
 20
0.0
 30
0.0
  9
$PUCSORGLEFT
 10
0.0
 20
0.0
 30
0.0
  9
$PUCSORGRIGHT
 10
0.0
 20
0.0
 30
0.0
  9
$PUCSORGFRONT
 10
0.0
 20
0.0
 30
0.0
  9
$PUCSORGBACK
 10
0.0
 20
0.0
 30
0.0
  9
$USERI1
 70
     0
  9
$USERI2
 70
     0
  9
$USERI3
 70
     0
  9
$USERI4
 70
     0
  9
$USERI5
 70
     0
  9
$USERR1
 40
18.1
  9
$USERR2
 40
0.0
  9
$USERR3
 40
0.0
  9
$USERR4
 40
0.0
  9
$USERR5
 40
0.0
  9
$WORLDVIEW
 70
     1
  9
$SHADEDGE
 70
     3
  9
$SHADEDIF
 70
    70
  9
$TILEMODE
 70
     1
  9
$MAXACTVP
 70
    64
  9
$PINSBASE
 10
0.0
 20
0.0
 30
0.0
  9
$PLIMCHECK
 70
     0
  9
$PEXTMIN
 10
1.00000000000000E+20
 20
1.00000000000000E+20
 30
1.00000000000000E+20
  9
$PEXTMAX
 10
-1.00000000000000E+20
 20
-1.00000000000000E+20
 30
-1.00000000000000E+20
  9
$PLIMMIN
 10
0.0
 20
0.0
  9
$PLIMMAX
 10
12.0
 20
9.0
  9
$UNITMODE
 70
     0
  9
$VISRETAIN
 70
     1
  9
$PLINEGEN
 70
     0
  9
$PSLTSCALE
 70
     1
  9
$TREEDEPTH
 70
  3020
  9
$CMLSTYLE
  2
Standard
  9
$CMLJUST
 70
     0
  9
$CMLSCALE
 40
1.0
  9
$PROXYGRAPHICS
 70
     1
  9
$MEASUREMENT
 70
     1
  9
$CELWEIGHT
370
    -1
  9
$ENDCAPS
280
     0
  9
$JOINSTYLE
280
     0
  9
$LWDISPLAY
290
     0
  9
$INSUNITS
 70
     4
  9
$HYPERLINKBASE
  1

  9
$STYLESHEET
  1

  9
$XEDIT
290
     1
  9
$CEPSNTYPE
380
     0
  9
$PSTYLEMODE
290
     1
  9
$FINGERPRINTGUID
  2
{5A51D3CF-02D3-4420-928D-83C9382D2ABE}
  9
$VERSIONGUID
  2
{FAEB1C32-E019-11D5-929B-00C0DF256EC4}
  9
$EXTNAMES
290
     1
  9
$PSVPSCALE
 40
0.0
  9
$OLESTARTUP
290
     0
  9
$SORTENTS
280
   127
  9
$INDEXCTL
280
     0
  9
$HIDETEXT
280
     1
  9
$XCLIPFRAME
290
     0
  9
$HALOGAP
280
     0
  9
$OBSCOLOR
 70
   257
  9
$OBSLTYPE
280
     0
  9
$INTERSECTIONDISPLAY
280
     0
  9
$INTERSECTIONCOLOR
 70
   257
  9
$DIMASSOC
280
     2
  9
$PROJECTNAME
  1

  0
ENDSEC
  0
SECTION
  2
CLASSES
  0
CLASS
  1
ACDBDICTIONARYWDFLT
  2
AcDbDictionaryWithDefault
  3
ObjectDBX Classes
 90
        0
 91
        4
280
     0
281
     0
  0
CLASS
  1
VISUALSTYLE
  2
AcDbVisualStyle
  3
ObjectDBX Classes
 90
     4095
 91
        4
280
     0
281
     0
  0
CLASS
  1
MATERIAL
  2
AcDbMaterial
  3
ObjectDBX Classes
 90
     1153
 91
        4
280
     0
281
     0
  0
ENDSEC
  0
SECTION
  2
TABLES
  0
TABLE
  2
VPORT
  5
8
330
0
100
AcDbSymbolTable
 70
     1
  0
VPORT
  5
29
330
8
100
AcDbSymbolTableRecord
100
AcDbViewportTableRecord
  2
*Active
 70
     0
 10
0.0
 20
0.0
 11
1.0
 21
1.0
 12
-77.73987658894258
 22
100.8965273889559
 13
0.0
 23
0.0
 14
0.5
 24
0.5
 15
0.5
 25
0.5
 16
0.0
 26
0.0
 36
1.0
 17
0.0
 27
0.0
 37
0.0
 40
231.0000000000002
 41
1.60267857142857
 42
50.0
 43
0.0
 44
0.0
 50
0.0
 51
0.0
 71
     0
 72
   100
 73
     1
 74
     3
 75
     0
 76
     0
 77
     0
 78
     0
281
     0
 65
     1
110
0.0
120
0.0
130
0.0
111
1.0
121
0.0
131
0.0
112
0.0
122
1.0
132
0.0
 79
     0
146
0.0
  0
ENDTAB
  0
TABLE
  2
LTYPE
  5
5
330
0
100
AcDbSymbolTable
 70
     8
  0
LTYPE
  5
14
330
5
100
AcDbSymbolTableRecord
100
AcDbLinetypeTableRecord
  2
ByBlock
 70
     0
  3

 72
    65
 73
     0
 40
0.0
  0
LTYPE
  5
15
330
5
100
AcDbSymbolTableRecord
100
AcDbLinetypeTableRecord
  2
ByLayer
 70
     0
  3

 72
    65
 73
     0
 40
0.0
  0
LTYPE
  5
16
330
5
100
AcDbSymbolTableRecord
100
AcDbLinetypeTableRecord
  2
Continuous
 70
     0
  3
Solid line
 72
    65
 73
     0
 40
0.0
  0
LTYPE
  5
3F
330
5
100
AcDbSymbolTableRecord
100
AcDbLinetypeTableRecord
  2
DASHED
 70
     0
  3
Dashed
 72
    65
 73
     2
 40
15.0
 49
7.0
 74
     0
 49
-8.0
 74
     0
  0
LTYPE
  5
40
330
5
100
AcDbSymbolTableRecord
100
AcDbLinetypeTableRecord
  2
DOTTED
 70
     0
  3
Dotted
 72
    65
 73
     2
 40
1.0
 49
0.0
 74
     0
 49
-1.0
 74
     0
  0
LTYPE
  5
41
330
5
100
AcDbSymbolTableRecord
100
AcDbLinetypeTableRecord
  2
DOT_CENTER
 70
     0
  3
Dot_Center
 72
    65
 73
     4
 40
14.0
 49
12.0
 74
     0
 49
-1.0
 74
     0
 49
0.0
 74
     0
 49
-1.0
 74
     0
  0
LTYPE
  5
42
330
5
100
AcDbSymbolTableRecord
100
AcDbLinetypeTableRecord
  2
LONG_DASHED
 70
     0
  3
Long_Dashed
 72
    65
 73
     2
 40
15.0
 49
10.0
 74
     0
 49
-5.0
 74
     0
  0
LTYPE
  5
43
330
5
100
AcDbSymbolTableRecord
100
AcDbLinetypeTableRecord
  2
DASH_CENTER
 70
     0
  3
Dash_Center
 72
    65
 73
     4
 40
14.0
 49
11.0
 74
     0
 49
-1.0
 74
     0
 49
1.0
 74
     0
 49
-1.0
 74
     0
  0
LTYPE
  5
44
330
5
100
AcDbSymbolTableRecord
100
AcDbLinetypeTableRecord
  2
PHANTOM
 70
     0
  3
Phantom
 72
    65
 73
     6
 40
13.0
 49
10.0
 74
     0
 49
-1.0
 74
     0
 49
0.0
 74
     0
 49
-1.0
 74
     0
 49
0.0
 74
     0
 49
-1.0
 74
     0
  0
LTYPE
  5
45
330
5
100
AcDbSymbolTableRecord
100
AcDbLinetypeTableRecord
  2
CENTER_DASH_DASH
 70
     0
  3
Center_Dash_Dash
 72
    65
 73
     6
 40
14.0
 49
9.0
 74
     0
 49
-1.0
 74
     0
 49
1.0
 74
     0
 49
-1.0
 74
     0
 49
1.0
 74
     0
 49
-1.0
 74
     0
  0
ENDTAB
  0
TABLE
  2
LAYER
  5
2
330
0
100
AcDbSymbolTable
 70
     2
  0
LAYER
  5
10
330
2
100
AcDbSymbolTableRecord
100
AcDbLayerTableRecord
  2
0
 70
     0
 62
     7
  6
Continuous
370
    -3
390
F
  0
LAYER
  5
46
330
2
100
AcDbSymbolTableRecord
100
AcDbLayerTableRecord
  2
1
 70
     0
 62
     7
  6
Continuous
370
    -3
390
F
  0
ENDTAB
  0
TABLE
  2
STYLE
  5
3
330
0
100
AcDbSymbolTable
 70
     5
  0
STYLE
  5
11
330
3
100
AcDbSymbolTableRecord
100
AcDbTextStyleTableRecord
  2
Standard
 70
     0
 40
0.0
 41
1.0
 50
0.0
 71
     0
 42
0.2
  3
txt
  4

  0
STYLE
  5
142
330
3
100
AcDbSymbolTableRecord
100
AcDbTextStyleTableRecord
  2
CONVERTER_11
 70
     0
 40
0.0
 41
0.9
 50
0.0
 71
     0
 42
0.2
  3
txt.shx
  4

  0
STYLE
  5
404
330
3
100
AcDbSymbolTableRecord
100
AcDbTextStyleTableRecord
  2
CONVERTER_12
 70
     0
 40
0.0
 41
0.81
 50
0.0
 71
     0
 42
0.2
  3
txt.shx
  4

  0
STYLE
  5
41A
330
3
100
AcDbSymbolTableRecord
100
AcDbTextStyleTableRecord
  2
CONVERTER_13
 70
     0
 40
0.0
 41
0.72
 50
0.0
 71
     0
 42
0.2
  3
txt.shx
  4

  0
STYLE
  5
41D
330
3
100
AcDbSymbolTableRecord
100
AcDbTextStyleTableRecord
  2
CONVERTER_14
 70
     0
 40
0.0
 41
0.855
 50
0.0
 71
     0
 42
0.2
  3
txt.shx
  4

  0
ENDTAB
  0
TABLE
  2
VIEW
  5
6
330
0
100
AcDbSymbolTable
 70
     0
  0
ENDTAB
  0
TABLE
  2
UCS
  5
7
330
0
100
AcDbSymbolTable
 70
     0
  0
ENDTAB
  0
TABLE
  2
APPID
  5
9
330
0
100
AcDbSymbolTable
 70
     1
  0
APPID
  5
12
330
9
100
AcDbSymbolTableRecord
100
AcDbRegAppTableRecord
  2
ACAD
 70
     0
  0
ENDTAB
  0
TABLE
  2
DIMSTYLE
  5
A
330
0
100
AcDbSymbolTable
 70
     5
100
AcDbDimStyleTable
  0
DIMSTYLE
105
27
330
A
100
AcDbSymbolTableRecord
100
AcDbDimStyleTableRecord
  2
Standard
 70
     0
178
     0
340
11
  0
DIMSTYLE
105
1A0
102
{ACAD_REACTORS
330
1A1
102
}
330
A
100
AcDbSymbolTableRecord
100
AcDbDimStyleTableRecord
  2
ME10_DIM_10
 70
     0
 41
3.5
 42
0.0
 44
1.5
 73
     0
 74
     0
 77
     1
 78
     8
140
3.5
147
1.5
172
     1
173
     1
174
     1
175
     1
176
     2
177
     2
178
     3
340
142
  0
DIMSTYLE
105
2F0
102
{ACAD_REACTORS
330
2F1
102
}
330
A
100
AcDbSymbolTableRecord
100
AcDbDimStyleTableRecord
  2
ME10_DIM_11
 70
     0
 41
3.5
 42
0.0
 44
1.5
 73
     0
 74
     0
 77
     1
 78
     8
140
3.5
147
1.5
172
     1
173
     1
174
     1
175
     1
176
     2
177
     2
178
     3
340
142
  0
DIMSTYLE
105
2FB
102
{ACAD_REACTORS
330
2FC
102
}
330
A
100
AcDbSymbolTableRecord
100
AcDbDimStyleTableRecord
  2
ME10_DIM_12
 70
     0
 41
3.5
 42
0.0
 44
1.5
 73
     0
 74
     0
 77
     1
 78
     8
140
3.5
147
1.5
172
     1
173
     1
174
     1
175
     1
176
     2
177
     2
271
     2
178
     3
271
     2
340
142
  0
DIMSTYLE
105
306
102
{ACAD_REACTORS
330
307
102
}
330
A
100
AcDbSymbolTableRecord
100
AcDbDimStyleTableRecord
  2
ME10_DIM_13
 70
     0
 41
3.5
 42
0.0
 44
1.5
 73
     0
 74
     0
 77
     1
 78
     8
140
3.5
147
1.5
172
     1
173
     1
174
     1
175
     1
176
     2
177
     2
271
     2
178
     3
271
     2
340
142
  0
ENDTAB
  0
TABLE
  2
BLOCK_RECORD
  5
1
330
0
100
AcDbSymbolTable
 70
    21
  0
BLOCK_RECORD
  5
1F
330
1
100
AcDbSymbolTableRecord
100
AcDbBlockTableRecord
  2
*Model_Space
340
22
  0
BLOCK_RECORD
  5
1B
330
1
100
AcDbSymbolTableRecord
100
AcDbBlockTableRecord
  2
*Paper_Space
340
1E
  0
BLOCK_RECORD
  5
23
330
1
100
AcDbSymbolTableRecord
100
AcDbBlockTableRecord
  2
*Paper_Space0
340
26
  0
BLOCK_RECORD
  5
47
330
1
100
AcDbSymbolTableRecord
100
AcDbBlockTableRecord
  2
PP_H_4_1_GNYE-select__1
340
0
102
{BLKREFS
331
4B
102
}
  0
BLOCK_RECORD
  5
4A
330
1
100
AcDbSymbolTableRecord
100
AcDbBlockTableRecord
  2
Allg1
340
0
102
{BLKREFS
331
7D
102
}
  0
BLOCK_RECORD
  5
4E
330
1
100
AcDbSymbolTableRecord
100
AcDbBlockTableRecord
  2
PP_H_4_1_GNYE-select__2
340
0
102
{BLKREFS
331
52
102
}
  0
BLOCK_RECORD
  5
51
330
1
100
AcDbSymbolTableRecord
100
AcDbBlockTableRecord
  2
Drfsicht1
340
0
102
{BLKREFS
331
7E
102
}
  0
BLOCK_RECORD
  5
55
330
1
100
AcDbSymbolTableRecord
100
AcDbBlockTableRecord
  2
PP_H_4_1_GNYE-select__3
340
0
102
{BLKREFS
331
59
102
}
  0
BLOCK_RECORD
  5
58
330
1
100
AcDbSymbolTableRecord
100
AcDbBlockTableRecord
  2
Rckans1
340
0
102
{BLKREFS
331
7F
102
}
  0
BLOCK_RECORD
  5
5C
330
1
100
AcDbSymbolTableRecord
100
AcDbBlockTableRecord
  2
PP_H_4_1_GNYE-select__4
340
0
102
{BLKREFS
331
60
102
}
  0
BLOCK_RECORD
  5
5F
330
1
100
AcDbSymbolTableRecord
100
AcDbBlockTableRecord
  2
SA_Links1
340
0
102
{BLKREFS
331
80
102
}
  0
BLOCK_RECORD
  5
63
330
1
100
AcDbSymbolTableRecord
100
AcDbBlockTableRecord
  2
PP_H_4_1_GNYE-select__5
340
0
102
{BLKREFS
331
67
102
}
  0
BLOCK_RECORD
  5
66
330
1
100
AcDbSymbolTableRecord
100
AcDbBlockTableRecord
  2
SA_Rechts1
340
0
102
{BLKREFS
331
81
102
}
  0
BLOCK_RECORD
  5
6A
330
1
100
AcDbSymbolTableRecord
100
AcDbBlockTableRecord
  2
PP_H_4_1_GNYE-select__6
340
0
102
{BLKREFS
331
6E
102
}
  0
BLOCK_RECORD
  5
6D
330
1
100
AcDbSymbolTableRecord
100
AcDbBlockTableRecord
  2
Vordans1
340
0
102
{BLKREFS
331
82
102
}
  0
BLOCK_RECORD
  5
71
330
1
100
AcDbSymbolTableRecord
100
AcDbBlockTableRecord
  2
_rahmen
340
0
102
{BLKREFS
331
78
102
}
  0
BLOCK_RECORD
  5
74
330
1
100
AcDbSymbolTableRecord
100
AcDbBlockTableRecord
  2
_punkt
340
0
102
{BLKREFS
331
79
102
}
  0
BLOCK_RECORD
  5
77
330
1
100
AcDbSymbolTableRecord
100
AcDbBlockTableRecord
  2
A4I_CS
340
0
102
{BLKREFS
331
83
102
}
  0
BLOCK_RECORD
  5
7C
330
1
100
AcDbSymbolTableRecord
100
AcDbBlockTableRecord
  2
1
340
0
102
{BLKREFS
331
86
102
}
  0
BLOCK_RECORD
  5
195
330
1
100
AcDbSymbolTableRecord
100
AcDbBlockTableRecord
  2
*D17
340
0
  0
BLOCK_RECORD
  5
2E7
330
1
100
AcDbSymbolTableRecord
100
AcDbBlockTableRecord
  2
*D18
340
0
  0
BLOCK_RECORD
  5
2F2
330
1
100
AcDbSymbolTableRecord
100
AcDbBlockTableRecord
  2
*D19
340
0
  0
BLOCK_RECORD
  5
2FD
330
1
100
AcDbSymbolTableRecord
100
AcDbBlockTableRecord
  2
*D20
340
0
  0
ENDTAB
  0
ENDSEC
  0
SECTION
  2
BLOCKS
  0
BLOCK
  5
20
330
1F
100
AcDbEntity
  8
0
100
AcDbBlockBegin
  2
*Model_Space
 70
     0
 10
0.0
 20
0.0
 30
0.0
  3
*Model_Space
  1

  0
ENDBLK
  5
21
330
1F
100
AcDbEntity
  8
0
100
AcDbBlockEnd
  0
BLOCK
  5
1C
330
1B
100
AcDbEntity
 67
     1
  8
0
100
AcDbBlockBegin
  2
*Paper_Space
 70
     0
 10
0.0
 20
0.0
 30
0.0
  3
*Paper_Space
  1

  0
ENDBLK
  5
1D
330
1B
100
AcDbEntity
 67
     1
  8
0
100
AcDbBlockEnd
  0
BLOCK
  5
24
330
23
100
AcDbEntity
  8
0
100
AcDbBlockBegin
  2
*Paper_Space0
 70
     0
 10
0.0
 20
0.0
 30
0.0
  3
*Paper_Space0
  1

  0
ENDBLK
  5
25
330
23
100
AcDbEntity
  8
0
100
AcDbBlockEnd
  0
BLOCK
  5
48
330
47
100
AcDbEntity
  8
0
100
AcDbBlockBegin
  2
PP_H_4_1_GNYE-select__1
 70
     0
 10
-5.6307666656774
 20
51.08715248165368
 30
0.0
  3
PP_H_4_1_GNYE-select__1
  1

  0
LINE
  5
87
330
47
100
AcDbEntity
  8
0
  6
Continuous
 62
     7
100
AcDbLine
 10
14.56831177997098
 20
88.27552904451343
 30
0.0
 11
-1.49331142455114
 21
92.91212028464467
 31
0.0
  0
LINE
  5
88
330
47
100
AcDbEntity
  8
0
  6
Continuous
 62
     7
100
AcDbLine
 10
7.86762709310727
 20
51.08715248165368
 30
0.0
 11
1.80544926650148
 21
52.83715248166201
 31
0.0
  0
LINE
  5
89
330
47
100
AcDbEntity
  8
0
  6
Continuous
 62
     7
100
AcDbLine
 10
1.36891116090987
 20
60.45428992067927
 30
0.0
 11
-0.7095498081729
 21
61.0542899206793
 31
0.0
  0
LINE
  5
8A
330
47
100
AcDbEntity
  8
0
  6
Continuous
 62
     7
100
AcDbLine
 10
1.36891116090987
 20
60.45428992067927
 30
0.0
 11
1.37243656467648
 21
60.45734300989976
 31
0.0
  0
LINE
  5
8B
330
47
100
AcDbEntity
  8
0
  6
Continuous
 62
     7
100
AcDbLine
 10
7.86762709310727
 20
51.08715248165368
 30
0.0
 11
8.30063979497601
 21
52.26119058719366
 31
0.0
  0
LINE
  5
8C
330
47
100
AcDbEntity
  8
0
  6
Continuous
 62
     7
100
AcDbLine
 10
10.56583217388314
 20
53.74348186847707
 30
0.0
 11
10.56583217387956
 21
64.25630668203631
 31
0.0
  0
LINE
  5
8D
330
47
100
AcDbEntity
  8
0
  6
Continuous
 62
     7
100
AcDbLine
 10
8.73365249687267
 20
64.26054624018603
 30
0.0
 11
8.6586524969746
 21
64.19559433498958
 31
0.0
  0
LINE
  5
8E
330
47
100
AcDbEntity
  8
0
  6
Continuous
 62
     7
100
AcDbLine
 10
8.65865249697427
 20
64.2821968753683
 30
0.0
 11
8.6586524969746
 21
64.19559433498958
 31
0.0
  0
LINE
  5
8F
330
47
100
AcDbEntity
  8
0
  6
Continuous
 62
     7
100
AcDbLine
 10
9.0756397949705
 20
62.56485749941068
 30
0.0
 11
9.0756397949705
 21
52.93236027513112
 31
0.0
  0
LINE
  5
90
330
47
100
AcDbEntity
  8
0
  6
Continuous
 62
     7
100
AcDbLine
 10
14.56831177997098
 20
88.27552904451343
 30
0.0
 11
11.49331177947749
 21
85.61250092741203
 31
0.0
  0
LINE
  5
91
330
47
100
AcDbEntity
  8
0
  6
Continuous
 62
     7
100
AcDbLine
 10
4.25580134443174
 20
88.56781563015721
 30
0.0
 11
7.54669787935994
 21
87.6178156300056
 31
0.0
  0
LINE
  5
92
330
47
100
AcDbEntity
  8
0
  6
Continuous
 62
     7
100
AcDbLine
 10
1.36891116090988
 20
63.77460931846621
 30
0.0
 11
1.37243656467663
 21
63.77766240768683
 31
0.0
  0
LINE
  5
93
330
47
100
AcDbEntity
  8
0
  6
Continuous
 62
     7
100
AcDbLine
 10
8.73365249687258
 20
62.26868781148217
 30
0.0
 11
8.73365249687267
 21
64.26054624018603
 31
0.0
  0
LINE
  5
94
330
47
100
AcDbEntity
  8
0
  6
Continuous
 62
     7
100
AcDbLine
 10
9.5086524968651
 20
62.93985749941793
 30
0.0
 11
8.73365249687258
 21
62.26868781148217
 31
0.0
  0
LINE
  5
95
330
47
100
AcDbEntity
  8
0
  6
Continuous
 62
     7
100
AcDbLine
 10
7.54669787935994
 20
87.6178156300056
 30
0.0
 11
7.99669787936152
 21
88.00752706171222
 31
0.0
  0
LINE
  5
96
330
47
100
AcDbEntity
  8
0
  6
Continuous
 62
     7
100
AcDbLine
 10
7.96009533892197
 20
87.98922579157482
 30
0.0
 11
7.96499914952806
 21
87.98007515640859
 31
0.0
  0
LINE
  5
97
330
47
100
AcDbEntity
  8
0
  6
Continuous
 62
     7
100
AcDbLine
 10
7.8502877178669
 20
88.19412960198329
 30
0.0
 11
7.96009533892197
 21
87.98922579157482
 31
0.0
  0
LINE
  5
98
330
47
100
AcDbEntity
  8
0
  6
Continuous
 62
     7
100
AcDbLine
 10
6.23605723305546
 20
87.99616499498043
 30
0.0
 11
6.65279966346891
 21
88.35707452661165
 31
0.0
  0
LINE
  5
99
330
47
100
AcDbEntity
  8
0
  6
Continuous
 62
     7
100
AcDbLine
 10
5.95997934043275
 20
88.12406182472145
 30
0.0
 11
5.9599793404315
 21
88.55707452661426
 31
0.0
  0
LINE
  5
9A
330
47
100
AcDbEntity
  8
0
  6
Continuous
 62
     7
100
AcDbLine
 10
5.9182369099677
 20
88.08791181952414
 30
0.0
 11
5.95997934043275
 21
88.12406182472145
 31
0.0
  0
LINE
  5
9B
330
47
100
AcDbEntity
  8
0
  6
Continuous
 62
     7
100
AcDbLine
 10
7.99669787936152
 20
88.00752706171222
 30
0.0
 11
7.85028771786651
 21
88.28073214242684
 31
0.0
  0
LINE
  5
9C
330
47
100
AcDbEntity
  8
0
  6
Continuous
 62
     7
100
AcDbLine
 10
7.85028771786651
 20
88.28073214242684
 30
0.0
 11
7.8502877178669
 21
88.19412960198329
 31
0.0
  0
LINE
  5
9D
330
47
100
AcDbEntity
  8
0
  6
Continuous
 62
     7
100
AcDbLine
 10
1.55724418616121
 20
88.480796577219
 30
0.0
 11
1.55724418622248
 21
84.58368226290703
 31
0.0
  0
LINE
  5
9E
330
47
100
AcDbEntity
  8
0
  6
Continuous
 62
     7
100
AcDbLine
 10
1.55724418616121
 20
88.480796577219
 30
0.0
 11
1.68720630815007
 21
88.59334707639238
 31
0.0
  0
LINE
  5
9F
330
47
100
AcDbEntity
  8
0
  6
Continuous
 62
     7
100
AcDbLine
 10
1.47926416414687
 20
84.38852163653668
 30
0.0
 11
1.47926416414491
 21
84.24255819007367
 31
0.0
  0
LINE
  5
A0
330
47
100
AcDbEntity
  8
0
  6
Continuous
 62
     7
100
AcDbLine
 10
5.9599793404315
 20
88.55707452661426
 30
0.0
 11
5.54323690997011
 21
88.19616499499577
 31
0.0
  0
LINE
  5
A1
330
47
100
AcDbEntity
  8
0
  6
Continuous
 62
     2
100
AcDbLine
 10
11.41291346495324
 20
78.32362043872865
 30
0.0
 11
10.91932805269654
 21
77.896162932777
 31
0.0
  0
LINE
  5
A2
330
47
100
AcDbEntity
  8
0
  6
Continuous
 62
     7
100
AcDbLine
 10
11.8396970801513
 20
78.92515105818279
 30
0.0
 11
10.91995698603347
 21
79.07772727004088
 31
0.0
  0
LINE
  5
A3
330
47
100
AcDbEntity
  8
0
  6
Continuous
 62
     7
100
AcDbLine
 10
11.42993378909255
 20
78.31870709436694
 30
0.0
 11
11.33011997082539
 21
78.34752086178923
 31
0.0
  0
LINE
  5
A4
330
47
100
AcDbEntity
  8
0
  6
Continuous
 62
     7
100
AcDbLine
 10
11.20088413988658
 20
84.31227435787679
 30
0.0
 11
11.62416097567997
 21
84.5090468342602
 31
0.0
  0
LINE
  5
A5
330
47
100
AcDbEntity
  8
0
  6
Continuous
 62
     7
100
AcDbLine
 10
11.17214426327889
 20
84.55463835701562
 30
0.0
 11
11.20088413988658
 21
84.31227435787679
 31
0.0
  0
LINE
  5
A6
330
47
100
AcDbEntity
  8
0
  6
Continuous
 62
     7
100
AcDbLine
 10
10.25240416939289
 20
84.70721456883496
 30
0.0
 11
11.17214426327889
 21
84.55463835701562
 31
0.0
  0
LINE
  5
A7
330
47
100
AcDbEntity
  8
0
  6
Continuous
 62
     7
100
AcDbLine
 10
11.49331177947749
 20
85.61250092741203
 30
0.0
 11
11.62416097567997
 21
84.5090468342602
 31
0.0
  0
LINE
  5
A8
330
47
100
AcDbEntity
  8
0
  6
Continuous
 62
     7
100
AcDbLine
 10
10.91995698603347
 20
79.07772727004088
 30
0.0
 11
10.25240416939289
 21
84.70721456883496
 31
0.0
  0
LINE
  5
A9
330
47
100
AcDbEntity
  8
0
  6
Continuous
 62
     7
100
AcDbLine
 10
13.91833124860374
 20
76.51851629191604
 30
0.0
 11
13.91833124860374
 21
78.04206430493282
 31
0.0
  0
LINE
  5
AA
330
47
100
AcDbEntity
  8
0
  6
Continuous
 62
     7
100
AcDbLine
 10
11.34333124871373
 20
76.50175416504688
 30
0.0
 11
12.03452572469736
 21
77.10034614020407
 31
0.0
  0
LINE
  5
AB
330
47
100
AcDbEntity
  8
0
  6
Continuous
 62
     7
100
AcDbLine
 10
10.91932805269654
 20
77.896162932777
 30
0.0
 11
11.34333124871373
 21
76.50175416504688
 31
0.0
  0
LINE
  5
AC
330
47
100
AcDbEntity
  8
0
  6
Continuous
 62
     7
100
AcDbLine
 10
13.99495698646558
 20
81.74075538708914
 30
0.0
 11
13.476467184725
 21
86.11319106690306
 31
0.0
  0
LINE
  5
AD
330
47
100
AcDbEntity
  8
0
  6
Continuous
 62
     7
100
AcDbLine
 10
11.81095720354205
 20
79.16751505732918
 30
0.0
 11
11.8396970801513
 21
78.92515105818279
 31
0.0
  0
LINE
  5
AE
330
47
100
AcDbEntity
  8
0
  6
Continuous
 62
     7
100
AcDbLine
 10
12.55576681401623
 20
76.86204889027036
 30
0.0
 11
12.29595919288
 21
76.93704889026958
 31
0.0
  0
LINE
  5
AF
330
47
100
AcDbEntity
  8
0
  6
Continuous
 62
     7
100
AcDbLine
 10
11.86294649098779
 20
77.49506159216182
 30
0.0
 11
11.86294649098474
 21
77.7606943924747
 31
0.0
  0
LINE
  5
B0
330
47
100
AcDbEntity
  8
0
  6
Continuous
 62
     7
100
AcDbLine
 10
12.55576681401631
 20
78.63635412026595
 30
0.0
 11
11.81095720354205
 21
79.16751505732918
 31
0.0
  0
LINE
  5
B1
330
47
100
AcDbEntity
  8
0
  6
Continuous
 62
     7
100
AcDbLine
 10
12.55576681401623
 20
76.86204889027036
 30
0.0
 11
12.55576681401631
 21
78.63635412026595
 31
0.0
  0
LINE
  5
B2
330
47
100
AcDbEntity
  8
0
  6
Continuous
 62
     7
100
AcDbLine
 10
12.55576681404303
 20
64.22929308013202
 30
0.0
 11
8.65865249697427
 21
64.2821968753683
 31
0.0
  0
LINE
  5
B3
330
47
100
AcDbEntity
  8
0
  6
Continuous
 62
     7
100
AcDbLine
 10
10.91995698603347
 20
79.07772727004088
 30
0.0
 11
13.99495698646558
 21
81.74075538708914
 31
0.0
  0
LINE
  5
B4
330
47
100
AcDbEntity
  8
0
  6
Continuous
 62
     7
100
AcDbLine
 10
9.44669787925049
 20
89.26326389711186
 30
0.0
 11
6.15580134433437
 21
90.21326389727292
 31
0.0
  0
LINE
  5
B5
330
47
100
AcDbEntity
  8
0
  6
Continuous
 62
     7
100
AcDbLine
 10
6.15580134433437
 20
90.21326389727292
 30
0.0
 11
4.25580134443174
 21
88.56781563015721
 31
0.0
  0
LINE
  5
B6
330
47
100
AcDbEntity
  8
0
  6
Continuous
 62
     7
100
AcDbLine
 10
8.45028771784278
 20
88.80034738468319
 30
0.0
 11
8.99669787927719
 21
88.8735524654297
 31
0.0
  0
LINE
  5
B7
330
47
100
AcDbEntity
  8
0
  6
Continuous
 62
     7
100
AcDbLine
 10
7.85028771786651
 20
88.28073214242684
 30
0.0
 11
8.45028771784278
 21
88.80034738468319
 31
0.0
  0
LINE
  5
B8
330
47
100
AcDbEntity
  8
0
  6
Continuous
 62
     7
100
AcDbLine
 10
6.15580134433475
 20
90.1266613568097
 30
0.0
 11
7.36823690984896
 21
89.77666135675375
 31
0.0
  0
LINE
  5
B9
330
47
100
AcDbEntity
  8
0
  6
Continuous
 62
     7
100
AcDbLine
 10
6.15580134433437
 20
90.21326389727292
 30
0.0
 11
6.15580134433475
 21
90.1266613568097
 31
0.0
  0
LINE
  5
BA
330
47
100
AcDbEntity
  8
0
  6
Continuous
 62
     7
100
AcDbLine
 10
6.87649447945504
 20
88.91778721803054
 30
0.0
 11
6.87649447945314
 21
89.35079991992379
 31
0.0
  0
LINE
  5
BB
330
47
100
AcDbEntity
  8
0
  6
Continuous
 62
     7
100
AcDbLine
 10
7.56931480247334
 20
88.71778721802721
 30
0.0
 11
7.56931480247211
 21
89.15079991991999
 31
0.0
  0
LINE
  5
BC
330
47
100
AcDbEntity
  8
0
  6
Continuous
 62
     7
100
AcDbLine
 10
6.87649447945504
 20
88.91778721803054
 30
0.0
 11
7.36823690984204
 21
89.3436486548575
 31
0.0
  0
LINE
  5
BD
330
47
100
AcDbEntity
  8
0
  6
Continuous
 62
     7
100
AcDbLine
 10
7.36823690984896
 20
89.77666135675375
 30
0.0
 11
6.87649447945314
 21
89.35079991992379
 31
0.0
  0
LINE
  5
BE
330
47
100
AcDbEntity
  8
0
  6
Continuous
 62
     7
100
AcDbLine
 10
7.36823690984204
 20
89.3436486548575
 30
0.0
 11
7.36823690984896
 21
89.77666135675375
 31
0.0
  0
LINE
  5
BF
330
47
100
AcDbEntity
  8
0
  6
Continuous
 62
     7
100
AcDbLine
 10
8.06105723444404
 20
89.57666135629889
 30
0.0
 11
9.37169787919314
 21
89.19831199177796
 31
0.0
  0
LINE
  5
C0
330
47
100
AcDbEntity
  8
0
  6
Continuous
 62
     7
100
AcDbLine
 10
7.68605722263908
 20
89.25190183328533
 30
0.0
 11
7.36823690984204
 21
89.3436486548575
 31
0.0
  0
LINE
  5
C1
330
47
100
AcDbEntity
  8
0
  6
Continuous
 62
     7
100
AcDbLine
 10
7.56931480247211
 20
89.15079991991999
 30
0.0
 11
8.06105723444404
 21
89.57666135629889
 31
0.0
  0
LINE
  5
C2
330
47
100
AcDbEntity
  8
0
  6
Continuous
 62
     7
100
AcDbLine
 10
4.33080134450123
 20
88.54616499504269
 30
0.0
 11
6.15580134433475
 21
90.1266613568097
 31
0.0
  0
LINE
  5
C3
330
47
100
AcDbEntity
  8
0
  6
Continuous
 62
     2
100
AcDbLine
 10
3.41801370204662
 20
88.78079657740045
 30
0.0
 11
3.41801370204748
 21
91.29227024826754
 31
0.0
  0
LINE
  5
C4
330
47
100
AcDbEntity
  8
0
  6
Continuous
 62
     7
100
AcDbLine
 10
-3.99495664816141
 20
83.38329197075225
 30
0.0
 11
-3.3274038315167
 21
88.62736747115886
 31
0.0
  0
LINE
  5
C5
330
47
100
AcDbEntity
  8
0
  6
Continuous
 62
     7
100
AcDbLine
 10
-1.49331142455114
 20
92.91212028464467
 30
0.0
 11
-4.56831142488362
 21
90.2490921676827
 31
0.0
  0
LINE
  5
C6
330
47
100
AcDbEntity
  8
0
  6
Continuous
 62
     7
100
AcDbLine
 10
0.93589845901768
 20
65.51563472225058
 30
0.0
 11
0.93589845901767
 21
66.03524996452126
 31
0.0
  0
LINE
  5
C7
330
47
100
AcDbEntity
  8
0
  6
Continuous
 62
     7
100
AcDbLine
 10
-0.7095498081729
 20
67.8525893404647
 30
0.0
 11
-0.7095498081729
 21
61.0542899206793
 31
0.0
  0
LINE
  5
C8
330
47
100
AcDbEntity
  8
0
  6
Continuous
 62
     7
100
AcDbLine
 10
-0.91086975775157
 20
85.44623265774928
 30
0.0
 11
-0.9108697577502
 21
89.34334697473234
 31
0.0
  0
LINE
  5
C9
330
47
100
AcDbEntity
  8
0
  6
Continuous
 62
     7
100
AcDbLine
 10
-0.9108697577502
 20
89.34334697473234
 30
0.0
 11
-1.04083182807039
 21
89.23079652030523
 31
0.0
  0
LINE
  5
CA
330
47
100
AcDbEntity
  8
0
  6
Continuous
 62
     7
100
AcDbLine
 10
-1.04083182807195
 20
85.33368220332184
 30
0.0
 11
-1.04083182807039
 21
89.23079652030523
 31
0.0
  0
LINE
  5
CB
330
47
100
AcDbEntity
  8
0
  6
Continuous
 62
     2
100
AcDbLine
 10
-0.91086975775157
 20
85.44623265774928
 30
0.0
 11
-1.04083182807195
 21
85.33368220332184
 31
0.0
  0
LINE
  5
CC
330
47
100
AcDbEntity
  8
0
  6
Continuous
 62
     7
100
AcDbLine
 10
-4.56831142488362
 20
90.2490921676827
 30
0.0
 11
-1.04083182807039
 21
89.23079652030523
 31
0.0
  0
LINE
  5
CD
330
47
100
AcDbEntity
  8
0
  6
Continuous
 62
     7
100
AcDbLine
 10
-4.24714392559267
 20
89.00580345020026
 30
0.0
 11
-3.3274038315167
 21
88.62736747115886
 31
0.0
  0
LINE
  5
CE
330
47
100
AcDbEntity
  8
0
  6
Continuous
 62
     7
100
AcDbLine
 10
-4.24714392559267
 20
89.00580345020026
 30
0.0
 11
-4.27588380220263
 21
88.7800324265406
 31
0.0
  0
LINE
  5
CF
330
47
100
AcDbEntity
  8
0
  6
Continuous
 62
     7
100
AcDbLine
 10
-4.15852347923813
 20
72.37727579954117
 30
0.0
 11
-4.15852347923452
 21
77.8548864784814
 31
0.0
  0
LINE
  5
D0
330
47
100
AcDbEntity
  8
0
  6
Continuous
 62
     7
100
AcDbLine
 10
-4.08989625162194
 20
88.94110237013334
 30
0.0
 11
-4.27588380220263
 21
88.7800324265406
 31
0.0
  0
LINE
  5
D1
330
47
100
AcDbEntity
  8
0
  6
Continuous
 62
     7
100
AcDbLine
 10
-4.69916062252574
 20
89.22118388188441
 30
0.0
 11
-4.56831142488362
 21
90.2490921676827
 31
0.0
  0
LINE
  5
D2
330
47
100
AcDbEntity
  8
0
  6
Continuous
 62
     7
100
AcDbLine
 10
-4.69916062252574
 20
89.22118388188441
 30
0.0
 11
-4.27588380220263
 21
88.7800324265406
 31
0.0
  0
LINE
  5
D3
330
47
100
AcDbEntity
  8
0
  6
Continuous
 62
     7
100
AcDbLine
 10
-3.7981175167906
 20
84.92959548502894
 30
0.0
 11
-4.88595686586491
 21
83.98749897348122
 31
0.0
  0
LINE
  5
D4
330
47
100
AcDbEntity
  8
0
  6
Continuous
 62
     7
100
AcDbLine
 10
-4.88595686586491
 20
83.98749897348122
 30
0.0
 11
-4.9146967424675
 21
83.76172794988835
 31
0.0
  0
LINE
  5
D5
330
47
100
AcDbEntity
  8
0
  6
Continuous
 62
     7
100
AcDbLine
 10
-4.9146967424675
 20
83.76172794988835
 30
0.0
 11
-3.82685739338036
 21
84.70382446144667
 31
0.0
  0
LINE
  5
D6
330
47
100
AcDbEntity
  8
0
  6
Continuous
 62
     7
100
AcDbLine
 10
-4.9146967424675
 20
83.76172794988835
 30
0.0
 11
-3.99495664816141
 21
83.38329197075225
 31
0.0
  0
LINE
  5
D7
330
47
100
AcDbEntity
  8
0
  6
Continuous
 62
     7
100
AcDbLine
 10
-5.08517066128876
 20
78.12238647847934
 30
0.0
 11
-4.15852347923452
 21
77.8548864784814
 31
0.0
  0
LINE
  5
D8
330
47
100
AcDbEntity
  8
0
  6
Continuous
 62
     7
100
AcDbLine
 10
-5.08517066125621
 20
77.88656116090476
 30
0.0
 11
-5.08517066128876
 21
78.12238647847934
 31
0.0
  0
LINE
  5
D9
330
47
100
AcDbEntity
  8
0
  6
Continuous
 62
     7
100
AcDbLine
 10
-4.88093994539069
 20
78.06343014907984
 30
0.0
 11
-5.08517066125621
 21
77.88656116090476
 31
0.0
  0
LINE
  5
DA
330
47
100
AcDbEntity
  8
0
  6
Continuous
 62
     7
100
AcDbLine
 10
-4.15852347923726
 20
73.68310111710312
 30
0.0
 11
-5.08517066128914
 21
72.88060111708982
 31
0.0
  0
LINE
  5
DB
330
47
100
AcDbEntity
  8
0
  6
Continuous
 62
     7
100
AcDbLine
 10
-5.08517066128981
 20
72.64477579953808
 30
0.0
 11
-4.15852347923742
 21
73.44727579955183
 31
0.0
  0
LINE
  5
DC
330
47
100
AcDbEntity
  8
0
  6
Continuous
 62
     7
100
AcDbLine
 10
-4.15852347923813
 20
72.37727579954117
 30
0.0
 11
-5.08517066128981
 21
72.64477579953808
 31
0.0
  0
LINE
  5
DD
330
47
100
AcDbEntity
  8
0
  6
Continuous
 62
     7
100
AcDbLine
 10
-5.08517066128981
 20
72.64477579953808
 30
0.0
 11
-5.08517066128914
 21
72.88060111708982
 31
0.0
  0
LINE
  5
DE
330
47
100
AcDbEntity
  8
0
  6
Continuous
 62
     7
100
AcDbLine
 10
-3.72030538119735
 20
85.54086204510402
 30
0.0
 11
-5.63076666563895
 21
83.88635403980805
 31
0.0
  0
LINE
  5
DF
330
47
100
AcDbEntity
  8
0
  6
Continuous
 62
     7
100
AcDbLine
 10
-5.63076666563895
 20
83.88635403980805
 30
0.0
 11
-4.88595686586491
 21
83.98749897348122
 31
0.0
  0
LINE
  5
E0
330
47
100
AcDbEntity
  8
0
  6
Continuous
 62
     7
100
AcDbLine
 10
-5.63076666564139
 20
78.35906116090229
 30
0.0
 11
-5.63076666563895
 21
83.88635403980805
 31
0.0
  0
LINE
  5
E1
330
47
100
AcDbEntity
  8
0
  6
Continuous
 62
     7
100
AcDbLine
 10
-5.63076666564139
 20
78.35906116090229
 30
0.0
 11
-5.08517066125621
 21
77.88656116090476
 31
0.0
  0
LINE
  5
E2
330
47
100
AcDbEntity
  8
0
  6
Continuous
 62
     7
100
AcDbLine
 10
1.55724418616121
 20
88.480796577219
 30
0.0
 11
11.49331177947749
 21
85.61250092741203
 31
0.0
  0
LINE
  5
E3
330
47
100
AcDbEntity
  8
0
  6
Continuous
 62
     7
100
AcDbLine
 10
1.29743656477869
 20
66.32059433496798
 30
0.0
 11
8.6586524969746
 21
64.19559433498958
 31
0.0
  0
LINE
  5
E4
330
47
100
AcDbEntity
  8
0
  6
Continuous
 62
     2
100
AcDbLine
 10
0.93589845901767
 20
66.03524996452126
 30
0.0
 11
1.29743656477755
 21
66.3483511485454
 31
0.0
  0
LINE
  5
E5
330
47
100
AcDbEntity
  8
0
  6
Continuous
 62
     7
100
AcDbLine
 10
1.36891116090988
 20
63.77460931846621
 30
0.0
 11
0.93589845901768
 21
65.51563472225058
 31
0.0
  0
LINE
  5
E6
330
47
100
AcDbEntity
  8
0
  6
Continuous
 62
     7
100
AcDbLine
 10
1.29743656477839
 20
67.27322227912839
 30
0.0
 11
1.29743656477869
 21
66.32059433496798
 31
0.0
  0
LINE
  5
E7
330
47
100
AcDbEntity
  8
0
  6
Continuous
 62
     7
100
AcDbLine
 10
9.50865249686509
 20
64.27065802321093
 30
0.0
 11
9.5086524968651
 21
62.93985749941793
 31
0.0
  0
LINE
  5
E8
330
47
100
AcDbEntity
  8
0
  6
Continuous
 62
     7
100
AcDbLine
 10
8.99669787927719
 20
88.8735524654297
 30
0.0
 11
9.44669787925049
 21
89.26326389711186
 31
0.0
  0
LINE
  5
E9
330
47
100
AcDbEntity
  8
0
  6
Continuous
 62
     7
100
AcDbLine
 10
1.47926416414687
 20
84.38852163653668
 30
0.0
 11
1.23861124081496
 21
84.87481524177127
 31
0.0
  0
LINE
  5
EA
330
47
100
AcDbEntity
  8
0
  6
Continuous
 62
     7
100
AcDbLine
 10
1.23861124081496
 20
84.87481524177127
 30
0.0
 11
1.23861124081243
 21
86.03299215018194
 31
0.0
  0
LINE
  5
EB
330
47
100
AcDbEntity
  8
0
  6
Continuous
 62
     7
100
AcDbLine
 10
1.23861124081243
 20
86.03299215018194
 30
0.0
 11
1.55724418616079
 21
85.94101074179709
 31
0.0
  0
LINE
  5
EC
330
47
100
AcDbEntity
  8
0
  6
Continuous
 62
     7
100
AcDbLine
 10
12.55576681401623
 20
76.86204889027036
 30
0.0
 11
15.13076681387456
 21
79.09206430492381
 31
0.0
  0
LINE
  5
ED
330
47
100
AcDbEntity
  8
0
  6
Continuous
 62
     7
100
AcDbLine
 10
14.69916097616621
 20
87.17207495135531
 30
0.0
 11
11.62416097567997
 21
84.5090468342602
 31
0.0
  0
LINE
  5
EE
330
47
100
AcDbEntity
  8
0
  6
Continuous
 62
     7
100
AcDbLine
 10
14.88595720398598
 20
81.83054317438767
 30
0.0
 11
11.81095720354205
 21
79.16751505732918
 31
0.0
  0
LINE
  5
EF
330
47
100
AcDbEntity
  8
0
  6
Continuous
 62
     7
100
AcDbLine
 10
15.63076681446508
 20
81.29938223732862
 30
0.0
 11
12.55576681401631
 21
78.63635412026595
 31
0.0
  0
LINE
  5
F0
330
47
100
AcDbEntity
  8
0
  6
Continuous
 62
     7
100
AcDbLine
 10
15.13076681390191
 20
70.34520772669211
 30
0.0
 11
13.91833124860374
 21
76.51851629191604
 31
0.0
  0
LINE
  5
F1
330
47
100
AcDbEntity
  8
0
  6
Continuous
 62
     7
100
AcDbLine
 10
15.13076681390191
 20
70.34520772669211
 30
0.0
 11
15.13076681390191
 21
71.40540059457317
 31
0.0
  0
LINE
  5
F2
330
47
100
AcDbEntity
  8
0
  6
Continuous
 62
     7
100
AcDbLine
 10
15.63076681437147
 20
66.89232119709048
 30
0.0
 11
15.63076681441299
 21
71.838413296914
 31
0.0
  0
LINE
  5
F3
330
47
100
AcDbEntity
  8
0
  6
Continuous
 62
     7
100
AcDbLine
 10
12.85576681404043
 20
69.43519280105626
 30
0.0
 11
12.55576681404357
 21
69.17538517992006
 31
0.0
  0
LINE
  5
F4
330
47
100
AcDbEntity
  8
0
  6
Continuous
 62
     7
100
AcDbLine
 10
12.85576681404037
 20
67.9203365961961
 30
0.0
 11
15.33076681389981
 21
70.06374947046208
 31
0.0
  0
LINE
  5
F5
330
47
100
AcDbEntity
  8
0
  6
Continuous
 62
     7
100
AcDbLine
 10
15.33076681389981
 20
67.42237198892241
 30
0.0
 11
15.33076681389981
 21
70.06374947046208
 31
0.0
  0
LINE
  5
F6
330
47
100
AcDbEntity
  8
0
  6
Continuous
 62
     7
100
AcDbLine
 10
15.13076681390191
 20
70.34520772669211
 30
0.0
 11
12.85576681401717
 21
68.37499993317704
 31
0.0
  0
LINE
  5
F7
330
47
100
AcDbEntity
  8
0
  6
Continuous
 62
     7
100
AcDbLine
 10
12.85576681401717
 20
68.37499993317704
 30
0.0
 11
12.85576681404043
 21
69.43519280105626
 31
0.0
  0
LINE
  5
F8
330
47
100
AcDbEntity
  8
0
  6
Continuous
 62
     7
100
AcDbLine
 10
15.63076681441299
 20
71.838413296914
 30
0.0
 11
15.13076681390191
 21
71.40540059457317
 31
0.0
  0
LINE
  5
F9
330
47
100
AcDbEntity
  8
0
  6
Continuous
 62
     2
100
AcDbLine
 10
12.31242634061296
 20
74.87188921202386
 30
0.0
 11
12.01242634064246
 21
74.61208159087636
 31
0.0
  0
LINE
  5
FA
330
47
100
AcDbEntity
  8
0
  6
Continuous
 62
     7
100
AcDbLine
 10
11.34333124871373
 20
76.50175416504688
 30
0.0
 11
11.34333124874139
 21
75.99410787721982
 31
0.0
  0
LINE
  5
FB
330
47
100
AcDbEntity
  8
0
  6
Continuous
 62
     7
100
AcDbLine
 10
11.64333124873824
 20
76.25391549835602
 30
0.0
 11
11.34333124874139
 21
75.99410787721982
 31
0.0
  0
LINE
  5
FC
330
47
100
AcDbEntity
  8
0
  6
Continuous
 62
     7
100
AcDbLine
 10
13.91833124860374
 20
76.51851629191604
 30
0.0
 11
12.31805114545693
 21
75.13263306942036
 31
0.0
  0
LINE
  5
FD
330
47
100
AcDbEntity
  8
0
  6
Continuous
 62
     7
100
AcDbLine
 10
15.63076681444855
 20
79.33090954314508
 30
0.0
 11
15.63076681446508
 21
81.29938223732862
 31
0.0
  0
LINE
  5
FE
330
47
100
AcDbEntity
  8
0
  6
Continuous
 62
     7
100
AcDbLine
 10
15.13076681383762
 20
78.89789684071779
 30
0.0
 11
15.13076681387456
 21
79.09206430492381
 31
0.0
  0
LINE
  5
FF
330
47
100
AcDbEntity
  8
0
  6
Continuous
 62
     7
100
AcDbLine
 10
15.63076681446508
 20
81.29938223732862
 30
0.0
 11
14.88595720398598
 21
81.83054317438767
 31
0.0
  0
LINE
  5
100
330
47
100
AcDbEntity
  8
0
  6
Continuous
 62
     7
100
AcDbLine
 10
14.65570946122737
 20
81.63114277999192
 30
0.0
 11
13.99495698646558
 21
81.74075538708914
 31
0.0
  0
LINE
  5
101
330
47
100
AcDbEntity
  8
0
  6
Continuous
 62
     7
100
AcDbLine
 10
1.47926416414687
 20
84.38852163653668
 30
0.0
 11
0.90587445105266
 21
83.89195157872167
 31
0.0
  0
LINE
  5
102
330
47
100
AcDbEntity
  8
0
  6
Continuous
 62
     7
100
AcDbLine
 10
14.69916097616621
 20
87.17207495135531
 30
0.0
 11
14.56831177997098
 21
88.27552904451343
 31
0.0
  0
LINE
  5
103
330
47
100
AcDbEntity
  8
0
  6
Continuous
 62
     7
100
AcDbLine
 10
7.86762709310727
 20
51.08715248165368
 30
0.0
 11
10.0676270931118
 21
52.99240836998274
 31
0.0
  0
LINE
  5
104
330
47
100
AcDbEntity
  8
0
  6
Continuous
 62
     7
100
AcDbLine
 10
10.56583217388314
 20
53.74348186847707
 30
0.0
 11
10.10395195846838
 21
52.49117455563984
 31
0.0
  0
LINE
  5
105
330
47
100
AcDbEntity
  8
0
  6
Continuous
 62
     7
100
AcDbLine
 10
9.0756397949705
 20
52.93236027513112
 30
0.0
 11
8.30063979497601
 21
52.26119058719366
 31
0.0
  0
LINE
  5
106
330
47
100
AcDbEntity
  8
0
  6
Continuous
 62
     7
100
AcDbLine
 10
9.3176270930021
 20
52.34288931704026
 30
0.0
 11
9.77895195847169
 21
52.20971629940887
 31
0.0
  0
LINE
  5
107
330
47
100
AcDbEntity
  8
0
  6
Continuous
 62
     7
100
AcDbLine
 10
9.77895195847169
 20
52.20971629940887
 30
0.0
 11
10.0676270931118
 21
52.99240836998274
 31
0.0
  0
LINE
  5
108
330
47
100
AcDbEntity
  8
0
  6
Continuous
 62
     7
100
AcDbLine
 10
9.0756397949705
 20
52.93236027513112
 30
0.0
 11
8.81583217388281
 21
52.22793741185429
 31
0.0
  0
LINE
  5
109
330
47
100
AcDbEntity
  8
0
  6
Continuous
 62
     7
100
AcDbLine
 10
8.30063979497601
 20
52.26119058719366
 30
0.0
 11
8.30063979497646
 21
62.39368781148155
 31
0.0
  0
LINE
  5
10A
330
47
100
AcDbEntity
  8
0
  6
Continuous
 62
     7
100
AcDbLine
 10
8.30063979497646
 20
62.39368781148155
 30
0.0
 11
8.73365249687258
 21
62.26868781148217
 31
0.0
  0
LINE
  5
10B
330
47
100
AcDbEntity
  8
0
  6
Continuous
 62
     7
100
AcDbLine
 10
9.77895195847169
 20
52.20971629940887
 30
0.0
 11
10.10395195846838
 21
52.49117455563984
 31
0.0
  0
LINE
  5
10C
330
47
100
AcDbEntity
  8
0
  6
Continuous
 62
     7
100
AcDbLine
 10
10.56583217388314
 20
53.74348186847707
 30
0.0
 11
8.81583217388281
 21
52.22793741185429
 31
0.0
  0
LINE
  5
10D
330
47
100
AcDbEntity
  8
0
  6
Continuous
 62
     7
100
AcDbLine
 10
1.37243656467621
 20
54.26119058718222
 30
0.0
 11
1.80544926650148
 21
52.83715248166201
 31
0.0
  0
LINE
  5
10E
330
47
100
AcDbEntity
  8
0
  6
Continuous
 62
     7
100
AcDbLine
 10
1.37243656467674
 20
66.2989436999031
 30
0.0
 11
1.37243656467621
 21
54.26119058718222
 31
0.0
  0
LINE
  5
10F
330
47
100
AcDbEntity
  8
0
  6
Continuous
 62
     7
100
AcDbLine
 10
1.36891116090988
 20
63.77460931846621
 30
0.0
 11
1.36891116090987
 21
60.45428992067927
 31
0.0
  0
LINE
  5
110
330
47
100
AcDbEntity
  8
0
  6
Continuous
 62
     7
100
AcDbLine
 10
3.41801370204748
 20
91.29227024826754
 30
0.0
 11
2.89839845982782
 21
91.44227024831099
 31
0.0
  0
LINE
  5
111
330
47
100
AcDbEntity
  8
0
  6
Continuous
 62
     2
100
AcDbLine
 10
2.89839845982689
 20
88.66318129102748
 30
0.0
 11
2.89839845982782
 21
91.44227024831099
 31
0.0
  0
LINE
  5
112
330
47
100
AcDbEntity
  8
0
  6
Continuous
 62
     7
100
AcDbLine
 10
-4.15852347923705
 20
73.99810111711155
 30
0.0
 11
-5.63076666567588
 21
72.72310111708933
 31
0.0
  0
LINE
  5
113
330
47
100
AcDbEntity
  8
0
  6
Continuous
 62
     7
100
AcDbLine
 10
-5.6307666656774
 20
69.27322227915245
 30
0.0
 11
1.29743656477839
 21
67.27322227912839
 31
0.0
  0
LINE
  5
114
330
47
100
AcDbEntity
  8
0
  6
Continuous
 62
     7
100
AcDbLine
 10
-5.6307666656774
 20
69.27322227915245
 30
0.0
 11
-5.63076666567588
 21
72.72310111708933
 31
0.0
  0
LINE
  5
115
330
47
100
AcDbEntity
  8
0
  6
Continuous
 62
     7
100
AcDbLine
 10
-5.08517066128914
 20
72.88060111708982
 30
0.0
 11
-5.63076666567588
 21
72.72310111708933
 31
0.0
  0
LINE
  5
116
330
47
100
AcDbEntity
  8
0
  6
Continuous
 62
     7
100
AcDbLine
 10
15.63076681437147
 20
66.89232119709048
 30
0.0
 11
12.55576681404303
 21
64.22929308013202
 31
0.0
  0
LINE
  5
117
330
47
100
AcDbEntity
  8
0
  6
Continuous
 62
     7
100
AcDbLine
 10
12.55576681404357
 20
69.17538517992006
 30
0.0
 11
12.55576681404303
 21
64.22929308013202
 31
0.0
  0
LINE
  5
118
330
47
100
AcDbEntity
  8
0
  6
Continuous
 62
     7
100
AcDbLine
 10
0.93589845901768
 20
65.51563472225058
 30
0.0
 11
1.37243656467672
 21
65.89368781147125
 31
0.0
  0
LINE
  5
119
330
47
100
AcDbEntity
  8
0
  6
Continuous
 62
     7
100
AcDbLine
 10
14.68124776106365
 20
68.25939104175802
 30
0.0
 11
12.85576681404031
 21
66.67847816751161
 31
0.0
  0
LINE
  5
11A
330
47
100
AcDbEntity
  8
0
  6
Continuous
 62
     7
100
AcDbLine
 10
15.33076681389981
 20
67.42237198892241
 30
0.0
 11
12.85576681402801
 21
65.27895911463703
 31
0.0
  0
LINE
  5
11B
330
47
100
AcDbEntity
  8
0
  6
Continuous
 62
     7
100
AcDbLine
 10
13.60576681391333
 20
68.56985564893084
 30
0.0
 11
14.68124776106365
 21
68.25939104175802
 31
0.0
  0
LINE
  5
11C
330
47
100
AcDbEntity
  8
0
  6
Continuous
 62
     7
100
AcDbLine
 10
15.33076681389981
 20
67.42237198892241
 30
0.0
 11
14.68124776106365
 21
68.25939104175802
 31
0.0
  0
LINE
  5
11D
330
47
100
AcDbEntity
  8
0
  6
Continuous
 62
     7
100
AcDbLine
 10
12.85576681402801
 20
65.27895911463703
 30
0.0
 11
12.85576681404037
 21
67.9203365961961
 31
0.0
  0
LINE
  5
11E
330
47
100
AcDbEntity
  8
0
  6
Continuous
 62
     7
100
AcDbLine
 10
15.63076681444855
 20
79.33090954314508
 30
0.0
 11
15.13076681383762
 21
78.89789684071779
 31
0.0
  0
SPLINE
  5
11F
330
47
100
AcDbEntity
  8
0
  6
Continuous
 62
     7
100
AcDbSpline
210
0.0
220
0.0
230
1.0
 70
     8
 71
     3
 72
    15
 73
    11
 74
     9
 42
0.000000001
 43
0.0000000001
 44
0.00000001
 40
0.0
 40
0.0
 40
0.0
 40
0.0
 40
0.1569776550871584
 40
0.345686271753466
 40
0.5779295168936125
 40
0.8491932741118273
 40
1.145980603244154
 40
1.450377820892094
 40
1.743298286985991
 40
2.007447478457831
 40
2.007447478457831
 40
2.007447478457831
 40
2.007447478457831
 10
10.45602455338156
 20
88.17803976352371
 30
0.0
 10
10.44588211289596
 20
88.23054220547395
 30
0.0
 10
10.42354705919512
 20
88.346159759394
 30
0.0
 10
10.27492957813921
 20
88.48377990186569
 30
0.0
 10
10.07240970512042
 20
88.5932900098824
 30
0.0
 10
9.814328385544922
 20
88.66935379534577
 30
0.0
 10
9.525042457725897
 20
88.7070759690561
 30
0.0
 10
9.22639907983709
 20
88.70170060452641
 30
0.0
 10
8.940212613686612
 20
88.65963140431928
 30
0.0
 10
8.766843425747414
 20
88.59171905132492
 30
0.0
 10
8.684635878590662
 20
88.55951662385911
 30
0.0
 11
10.45602455338156
 21
88.17803976352371
 31
0.0
 11
10.41187185170222
 21
88.32868014897572
 31
0.0
 11
10.28312894525471
 21
88.46665191059887
 31
0.0
 11
10.08062122250995
 21
88.5803512797823
 31
0.0
 11
9.821380961463635
 21
88.66021687161437
 31
0.0
 11
9.527209066937948
 21
88.6995311834271
 31
0.0
 11
9.222845741930136
 21
88.6949888720048
 31
0.0
 11
8.933887825333755
 21
88.64697094197263
 31
0.0
 11
8.684635878590662
 21
88.55951662385911
 31
0.0
  0
SPLINE
  5
120
330
47
100
AcDbEntity
  8
0
  6
Continuous
 62
     7
100
AcDbSpline
210
0.0
220
0.0
230
1.0
 70
     8
 71
     3
 72
    17
 73
    13
 74
    11
 42
0.000000001
 43
0.0000000001
 44
0.00000001
 40
0.0
 40
0.0
 40
0.0
 40
0.0
 40
0.1701789767108695
 40
0.3791341961317154
 40
0.6388463247442966
 40
0.9409022076529343
 40
1.266385867528389
 40
1.59186952740384
 40
1.893925410312474
 40
2.153637538925056
 40
2.362592758345912
 40
2.532771735056774
 40
2.532771735056774
 40
2.532771735056774
 40
2.532771735056774
 10
8.356024553381559
 20
88.17803976352442
 30
0.0
 10
8.368077349117925
 20
88.1212067217994
 30
0.0
 10
8.3949292567784
 20
87.9945909169142
 30
0.0
 10
8.567573683065511
 20
87.85036696034356
 30
0.0
 10
8.798191939416817
 20
87.73946663942503
 30
0.0
 10
9.088276741556172
 20
87.66904324438362
 30
0.0
 10
9.40602455338138
 20
87.64473991591274
 30
0.0
 10
9.723772365206605
 20
87.6690432443834
 30
0.0
 10
10.01385716734601
 20
87.73946663942465
 30
0.0
 10
10.24447542369739
 20
87.85036696034294
 30
0.0
 10
10.41711984998459
 20
87.99459091691357
 30
0.0
 10
10.44397175764515
 20
88.12120672179867
 30
0.0
 10
10.45602455338156
 20
88.17803976352371
 30
0.0
 11
8.356024553381559
 21
88.17803976352442
 31
0.0
 11
8.407416006579112
 21
88.01580597068305
 31
0.0
 11
8.556556709287761
 21
87.86945250607072
 31
0.0
 11
8.788850530001397
 21
87.7533061797418
 31
0.0
 11
9.081556709287696
 21
87.67873509246908
 31
0.0
 11
9.406024553381386
 21
87.6530401816418
 31
0.0
 11
9.73049239747509
 21
87.67873509246886
 31
0.0
 11
10.02319857676143
 21
87.75330617974137
 31
0.0
 11
10.25549239747515
 21
87.86945250607013
 31
0.0
 11
10.4046331001839
 21
88.01580597068238
 31
0.0
 11
10.45602455338156
 21
88.17803976352371
 31
0.0
  0
SPLINE
  5
121
330
47
100
AcDbEntity
  8
0
  6
Continuous
 62
     7
100
AcDbSpline
210
0.0
220
0.0
230
1.0
 70
     8
 71
     3
 72
    11
 73
     7
 74
     5
 42
0.000000001
 43
0.0000000001
 44
0.00000001
 40
0.0
 40
0.0
 40
0.0
 40
0.0
 40
0.1609147873547984
 40
0.3003106167260629
 40
0.4204401833311524
 40
0.5286485643086567
 40
0.5286485643086567
 40
0.5286485643086567
 40
0.5286485643086567
 10
8.684635878590662
 20
88.55951662385911
 30
0.0
 10
8.63691595571184
 20
88.53454581034846
 30
0.0
 10
8.547857649974635
 20
88.48794349140069
 30
0.0
 10
8.442411453550472
 20
88.39446756547454
 30
0.0
 10
8.370276234804948
 20
88.29077424435422
 30
0.0
 10
8.3606068342942
 20
88.21428682657806
 30
0.0
 10
8.356024553381559
 20
88.17803976352442
 30
0.0
 11
8.684635878590662
 21
88.55951662385911
 31
0.0
 11
8.545421183731298
 21
88.47881447618303
 31
0.0
 11
8.441670337201035
 21
88.3857179675654
 31
0.0
 11
8.377658937605368
 21
88.28406338264087
 31
0.0
 11
8.356024553381559
 21
88.17803976352442
 31
0.0
  0
SPLINE
  5
122
330
47
100
AcDbEntity
  8
0
  6
Continuous
 62
     7
100
AcDbSpline
210
0.0
220
0.0
230
1.0
 70
     8
 71
     3
 72
    13
 73
     9
 74
     7
 42
0.000000001
 43
0.0000000001
 44
0.00000001
 40
0.0
 40
0.0
 40
0.0
 40
0.0
 40
0.117263164263548
 40
0.2419307378212678
 40
0.3712960139461154
 40
0.5017221147109445
 40
0.6293737711447689
 40
0.7509434390751781
 40
0.7509434390751781
 40
0.7509434390751781
 40
0.7509434390751781
 10
11.86294649098474
 20
77.7606943924747
 30
0.0
 10
11.85987211673057
 20
77.79984475499917
 30
0.0
 10
11.85352922671247
 20
77.88061756997493
 30
0.0
 10
11.80765919361127
 20
77.99726548428484
 30
0.0
 10
11.73938971412951
 20
78.10647323501937
 30
0.0
 10
11.64979129394146
 20
78.20041164062161
 30
0.0
 10
11.54638935939906
 20
78.27581467048654
 30
0.0
 10
11.46811558424026
 20
78.30464414198327
 30
0.0
 10
11.42993378909255
 20
78.31870709436694
 30
0.0
 11
11.86294649098474
 21
77.7606943924747
 31
0.0
 11
11.84819182945139
 21
77.87702560052074
 31
0.0
 11
11.80493378909252
 21
77.99394756794776
 31
0.0
 11
11.73611992530941
 21
78.10349220460812
 31
0.0
 11
11.64644014003864
 21
78.1981943924747
 31
0.0
 11
11.54200569323452
 21
78.2716000608211
 31
0.0
 11
11.42993378909255
 21
78.31870709436694
 31
0.0
  0
SPLINE
  5
123
330
47
100
AcDbEntity
  8
0
  6
Continuous
 62
     7
100
AcDbSpline
210
0.0
220
0.0
230
1.0
 70
     8
 71
     3
 72
    11
 73
     7
 74
     5
 42
0.000000001
 43
0.0000000001
 44
0.00000001
 40
0.0
 40
0.0
 40
0.0
 40
0.0
 40
0.0935705952109108
 40
0.1815181363975755
 40
0.2647690944695782
 40
0.3453217744505894
 40
0.3453217744505894
 40
0.3453217744505894
 40
0.3453217744505894
 10
11.33011997082539
 20
78.34752086178923
 30
0.0
 10
11.29958966356903
 20
78.35456126210576
 30
0.0
 10
11.24036374242151
 20
78.36821896082587
 30
0.0
 10
11.15133146681504
 20
78.36374547175133
 30
0.0
 10
11.06909423129834
 20
78.34078085728807
 30
0.0
 10
11.02464945729437
 20
78.30839756571913
 30
0.0
 10
11.00279313547144
 20
78.29247263290627
 30
0.0
 11
11.33011997082539
 21
78.34752086178923
 31
0.0
 11
11.23804752968335
 21
78.36419785006991
 31
0.0
 11
11.15018604303211
 21
78.3603081758747
 31
0.0
 11
11.07055393271724
 21
78.33602959477777
 31
0.0
 11
11.00279313547144
 21
78.29247263290627
 31
0.0
  0
SPLINE
  5
124
330
47
100
AcDbEntity
  8
0
  6
Continuous
 62
     7
100
AcDbSpline
210
0.0
220
0.0
230
1.0
 70
     8
 71
     3
 72
    11
 73
     7
 74
     5
 42
0.000000001
 43
0.0000000001
 44
0.00000001
 40
0.0
 40
0.0
 40
0.0
 40
0.0
 40
0.0974301069696679
 40
0.1994891075958288
 40
0.309128735364801
 40
0.4269691443373438
 40
0.4269691443373438
 40
0.4269691443373438
 40
0.4269691443373438
 10
11.00279313547144
 20
78.29247263290627
 30
0.0
 10
10.98032560138823
 20
78.26856495049847
 30
0.0
 10
10.93432311462975
 20
78.21961372523822
 30
0.0
 10
10.90035044932758
 20
78.11962909245511
 30
0.0
 10
10.89235422935755
 20
78.00873474847756
 30
0.0
 10
10.91012324569477
 20
77.93457800114238
 30
0.0
 10
10.91932805269654
 20
77.896162932777
 30
0.0
 11
11.00279313547144
 21
78.29247263290627
 31
0.0
 11
10.94113416739648
 21
78.21703525569333
 31
0.0
 11
10.90539688088143
 21
78.1214377313199
 31
0.0
 11
10.89796318739991
 21
78.01205039773943
 31
0.0
 11
10.91932805269654
 21
77.896162932777
 31
0.0
  0
SPLINE
  5
125
330
47
100
AcDbEntity
  8
0
  6
Continuous
 62
     7
100
AcDbSpline
210
0.0
220
0.0
230
1.0
 70
     8
 71
     3
 72
    13
 73
     9
 74
     7
 42
0.000000001
 43
0.0000000001
 44
0.00000001
 40
0.0
 40
0.0
 40
0.0
 40
0.0
 40
0.117263164263548
 40
0.2419307378212811
 40
0.3712960139461317
 40
0.5017221147109645
 40
0.6293737711447821
 40
0.7509434390751979
 40
0.7509434390751979
 40
0.7509434390751979
 40
0.7509434390751979
 10
11.86294649098779
 20
77.49506159216182
 30
0.0
 10
11.86602086524196
 20
77.45591122963737
 30
0.0
 10
11.87236375526006
 20
77.37513841466159
 30
0.0
 10
11.91823378836125
 20
77.25849050035168
 30
0.0
 10
11.98650326784303
 20
77.14928274961717
 30
0.0
 10
12.07610168803107
 20
77.05534434401487
 30
0.0
 10
12.17950362257349
 20
76.97994131414998
 30
0.0
 10
12.25777739773229
 20
76.95111184265325
 30
0.0
 10
12.29595919288
 20
76.93704889026958
 30
0.0
 11
11.86294649098779
 21
77.49506159216182
 31
0.0
 11
11.87770115252114
 21
77.37873038411578
 31
0.0
 11
11.92095919288001
 21
77.26180841668875
 31
0.0
 11
11.98977305666312
 21
77.15226378002839
 31
0.0
 11
12.0794528419339
 21
77.0575615921618
 31
0.0
 11
12.18388728873802
 21
76.98415592381542
 31
0.0
 11
12.29595919288
 21
76.93704889026958
 31
0.0
  0
SPLINE
  5
126
330
47
100
AcDbEntity
  8
0
  6
Continuous
 62
     7
100
AcDbSpline
210
0.0
220
0.0
230
1.0
 70
     8
 71
     3
 72
    15
 73
    11
 74
     9
 42
0.000000001
 43
0.0000000001
 44
0.00000001
 40
0.0
 40
0.0
 40
0.0
 40
0.0
 40
0.603463558791773
 40
1.196479089655182
 40
1.760315321003274
 40
2.278662694674152
 40
2.739552627363077
 40
3.137998120881932
 40
3.47989782172535
 40
3.786496288032927
 40
3.786496288032927
 40
3.786496288032927
 40
3.786496288032927
 10
1.687206308150067
 20
88.59334707639238
 30
0.0
 10
1.888507417919802
 20
88.5896209929273
 30
0.0
 10
2.28762442340867
 20
88.58223334122717
 30
0.0
 10
2.872257415351589
 20
88.6486736916182
 30
0.0
 10
3.418730742817052
 20
88.76893757162368
 30
0.0
 10
3.904098491583882
 20
88.9433482106535
 30
0.0
 10
4.310551529959859
 20
89.16379981570822
 30
0.0
 10
4.616958248255655
 20
89.42337189531514
 30
0.0
 10
4.826352194703682
 20
89.71667605254491
 30
0.0
 10
4.854639819548483
 20
89.9338550303874
 30
0.0
 10
4.86801370198468
 20
90.0365334128335
 30
0.0
 11
1.687206308150067
 21
88.59334707639238
 31
0.0
 11
2.290665887364028
 21
88.59553597844356
 31
0.0
 11
2.880153532183705
 21
88.66012495877078
 31
0.0
 11
3.430142184874227
 21
88.78431746138821
 31
0.0
 11
3.916815713195604
 21
88.96273516352642
 31
0.0
 11
4.319098983840185
 21
89.18765225884901
 31
0.0
 11
4.619572284451351
 21
89.44932878842981
 31
0.0
 11
4.805223396489196
 21
89.73643342680805
 31
0.0
 11
4.86801370198468
 21
90.0365334128335
 31
0.0
  0
SPLINE
  5
127
330
47
100
AcDbEntity
  8
0
  6
Continuous
 62
     7
100
AcDbSpline
210
0.0
220
0.0
230
1.0
 70
     8
 71
     3
 72
     9
 73
     5
 74
     3
 42
0.000000001
 43
0.0000000001
 44
0.00000001
 40
0.0
 40
0.0
 40
0.0
 40
0.0
 40
0.1640893791793203
 40
0.3662417153946818
 40
0.3662417153946818
 40
0.3662417153946818
 40
0.3662417153946818
 10
5.764647071450021
 20
88.85393722326396
 30
0.0
 10
5.776279755971796
 20
88.79870555544993
 30
0.0
 10
5.80224351583267
 20
88.67543042567846
 30
0.0
 10
5.903879758777872
 20
88.59916842095909
 30
0.0
 10
5.959979340431502
 20
88.55707452661426
 30
0.0
 11
5.764647071450021
 21
88.85393722326396
 31
0.0
 11
5.814735326000567
 21
88.69767944933312
 31
0.0
 11
5.959979340431502
 21
88.55707452661426
 31
0.0
  0
SPLINE
  5
128
330
47
100
AcDbEntity
  8
0
  6
Continuous
 62
     7
100
AcDbSpline
210
0.0
220
0.0
230
1.0
 70
     8
 71
     3
 72
     9
 73
     5
 74
     3
 42
0.000000001
 43
0.0000000001
 44
0.00000001
 40
0.0
 40
0.0
 40
0.0
 40
0.0
 40
0.1640893791776788
 40
0.366241715390464
 40
0.366241715390464
 40
0.366241715390464
 40
0.366241715390464
 10
7.764647071450021
 20
88.85393722327271
 30
0.0
 10
7.753014386928505
 20
88.90916889108622
 30
0.0
 10
7.727050627068244
 20
89.03244402085625
 30
0.0
 10
7.625414384124735
 20
89.10870602557537
 30
0.0
 10
7.569314802472107
 20
89.15079991991999
 30
0.0
 11
7.764647071450021
 21
88.85393722327271
 31
0.0
 11
7.71455881690042
 21
89.01019499720212
 31
0.0
 11
7.569314802472107
 21
89.15079991991999
 31
0.0
  0
SPLINE
  5
129
330
47
100
AcDbEntity
  8
0
  6
Continuous
 62
     7
100
AcDbSpline
210
0.0
220
0.0
230
1.0
 70
     8
 71
     3
 72
    13
 73
     9
 74
     7
 42
0.000000001
 43
0.0000000001
 44
0.00000001
 40
0.0
 40
0.0
 40
0.0
 40
0.0
 40
0.279478070925544
 40
0.5491926934560659
 40
0.7942608272680763
 40
1.003866458922178
 40
1.175085468456124
 40
1.31890447794115
 40
1.31890447794115
 40
1.31890447794115
 40
1.31890447794115
 10
6.652799663468912
 20
88.35707452661165
 30
0.0
 10
6.746114709741267
 20
88.3555873649878
 30
0.0
 10
6.92948488024481
 20
88.35266499936179
 30
0.0
 10
7.191917800482129
 20
88.39533302544665
 30
0.0
 10
7.423781484282244
 20
88.46917044363444
 30
0.0
 10
7.604714607040904
 20
88.57253685566876
 30
0.0
 10
7.736281616069084
 20
88.70038966720753
 30
0.0
 10
7.755756525193457
 20
88.80581099469168
 30
0.0
 10
7.764647071450021
 20
88.85393722327271
 30
0.0
 11
6.652799663468912
 21
88.35707452661165
 31
0.0
 11
6.932250012693864
 21
88.36101013746904
 31
0.0
 11
7.198601570182507
 21
88.40346982905052
 31
0.0
 11
7.431037300896566
 21
88.48113591705032
 31
0.0
 11
7.611392162588572
 21
88.58793781038224
 31
0.0
 11
7.725569441337736
 21
88.7155289570482
 31
0.0
 11
7.764647071450021
 21
88.85393722327271
 31
0.0
  0
SPLINE
  5
12A
330
47
100
AcDbEntity
  8
0
  6
Continuous
 62
     7
100
AcDbSpline
210
0.0
220
0.0
230
1.0
 70
     8
 71
     3
 72
     9
 73
     5
 74
     3
 42
0.000000001
 43
0.0000000001
 44
0.00000001
 40
0.0
 40
0.0
 40
0.0
 40
0.0
 40
0.0607831111351432
 40
0.1259174215030299
 40
0.1259174215030299
 40
0.1259174215030299
 40
0.1259174215030299
 10
7.666034890315046
 20
88.63743087232567
 30
0.0
 10
7.65150115216052
 20
88.65159507489005
 30
0.0
 10
7.621393255370359
 20
88.68093741885275
 30
0.0
 10
7.587069652900095
 20
88.70522420583293
 30
0.0
 10
7.569314802473343
 20
88.71778721802721
 30
0.0
 11
7.666034890315046
 21
88.63743087232567
 31
0.0
 11
7.621451323474297
 21
88.67874542461146
 31
0.0
 11
7.569314802473343
 21
88.71778721802721
 31
0.0
  0
SPLINE
  5
12B
330
47
100
AcDbEntity
  8
0
  6
Continuous
 62
     7
100
AcDbSpline
210
0.0
220
0.0
230
1.0
 70
     8
 71
     3
 72
    11
 73
     7
 74
     5
 42
0.000000001
 43
0.0000000001
 44
0.00000001
 40
0.0
 40
0.0
 40
0.0
 40
0.0
 40
0.3073300356402401
 40
0.6009111281972501
 40
0.8615368120530045
 40
1.076958460878551
 40
1.076958460878551
 40
1.076958460878551
 40
1.076958460878551
 10
6.87649447945504
 20
88.91778721803054
 30
0.0
 10
6.773759451427814
 20
88.91914115463328
 30
0.0
 10
6.57288542596331
 20
88.92178844285574
 30
0.0
 10
6.290062219598409
 20
88.8676783659388
 30
0.0
 10
6.043398615948723
 20
88.78369217273394
 30
0.0
 10
5.919380232354942
 20
88.68299741844032
 30
0.0
 10
5.863259252586893
 20
88.63743087231778
 30
0.0
 11
6.87649447945504
 21
88.91778721803054
 31
0.0
 11
6.569233246616022
 21
88.91128459356622
 31
0.0
 11
6.280453726106657
 21
88.85840503645757
 31
0.0
 11
6.037469230190522
 21
88.76414855597758
 31
0.0
 11
5.863259252586893
 21
88.63743087231778
 31
0.0
  0
SPLINE
  5
12C
330
47
100
AcDbEntity
  8
0
  6
Continuous
 62
     7
100
AcDbSpline
210
0.0
220
0.0
230
1.0
 70
     8
 71
     3
 72
    13
 73
     9
 74
     7
 42
0.000000001
 43
0.0000000001
 44
0.00000001
 40
0.0
 40
0.0
 40
0.0
 40
0.0
 40
0.2794780709293248
 40
0.5491926934644165
 40
0.7942608272810583
 40
1.003866458939182
 40
1.175085468476059
 40
1.318904477963084
 40
1.318904477963084
 40
1.318904477963084
 40
1.318904477963084
 10
6.876494479453143
 20
89.35079991992379
 30
0.0
 10
6.783179433179535
 20
89.35228708154858
 30
0.0
 10
6.599809262673229
 20
89.35520944717655
 30
0.0
 10
6.337376342431237
 20
89.31254142109327
 30
0.0
 10
6.105512658626246
 20
89.23870400290616
 30
0.0
 10
5.924579535863453
 20
89.1353375908713
 30
0.0
 10
5.79301252683182
 20
89.00748477933146
 30
0.0
 10
5.773537617706843
 20
88.90206345184562
 30
0.0
 10
5.764647071450021
 20
88.85393722326396
 30
0.0
 11
6.876494479453143
 21
89.35079991992379
 31
0.0
 11
6.59704413022437
 21
89.34686430906916
 31
0.0
 11
6.330692572730833
 21
89.30440461748935
 31
0.0
 11
6.098256842011724
 21
89.22673852949005
 31
0.0
 11
5.917901980315388
 21
89.11993663615755
 31
0.0
 11
5.803724701563323
 21
88.99234548949025
 31
0.0
 11
5.764647071450021
 21
88.85393722326396
 31
0.0
  0
SPLINE
  5
12D
330
47
100
AcDbEntity
  8
0
  6
Continuous
 62
     7
100
AcDbSpline
210
0.0
220
0.0
230
1.0
 70
     8
 71
     3
 72
    11
 73
     7
 74
     5
 42
0.000000001
 43
0.0000000001
 44
0.00000001
 40
0.0
 40
0.0
 40
0.0
 40
0.0
 40
0.3880789720121928
 40
0.8422055809169391
 40
1.392277358289038
 40
2.035573833200322
 40
2.035573833200322
 40
2.035573833200322
 40
2.035573833200322
 10
4.86801370198468
 20
90.0365334128335
 30
0.0
 10
4.845926767613328
 20
90.16651641841246
 30
0.0
 10
4.797993882139791
 20
90.44860439285809
 30
0.0
 10
4.465287187364987
 20
90.8007815282769
 30
0.0
 10
4.001579644762352
 20
91.09735451764769
 30
0.0
 10
3.622409153820646
 20
91.22400052324147
 30
0.0
 10
3.418013702047482
 20
91.29227024826754
 30
0.0
 11
4.86801370198468
 21
90.0365334128335
 31
0.0
 11
4.769197851415306
 21
90.41182092816226
 31
0.0
 11
4.479487372976507
 21
90.76153341280255
 31
0.0
 11
4.018622820758179
 21
91.06183797215813
 31
0.0
 11
3.418013702047482
 21
91.29227024826754
 31
0.0
  0
SPLINE
  5
12E
330
47
100
AcDbEntity
  8
0
  6
Continuous
 62
     7
100
AcDbSpline
210
0.0
220
0.0
230
1.0
 70
     8
 71
     3
 72
    23
 73
    19
 74
    17
 42
0.000000001
 43
0.0000000001
 44
0.00000001
 40
0.0
 40
0.0
 40
0.0
 40
0.0
 40
0.099695265427875
 40
0.2066218056519234
 40
0.3076679474415019
 40
0.4208274774659779
 40
0.5211770732481851
 40
0.6431779435928316
 40
0.7431278425466795
 40
0.870183071884933
 40
0.9718343469036332
 40
1.096463956153197
 40
1.218539827950579
 40
1.315966864939837
 40
1.426968505848192
 40
1.524659223813548
 40
1.627738213010821
 40
1.723581010001912
 40
1.723581010001912
 40
1.723581010001912
 40
1.723581010001912
 10
-0.0484901124951733
 20
84.09458988085463
 30
0.0
 10
-0.0804157607660493
 20
84.10381951157257
 30
0.0
 10
-0.1465827410983896
 20
84.12294824740648
 30
0.0
 10
-0.243748250160308
 20
84.15598439045345
 30
0.0
 10
-0.3423914234759511
 20
84.19782362648749
 30
0.0
 10
-0.4351614790810368
 20
84.24702978415729
 30
0.0
 10
-0.5290594439972292
 20
84.30799407612555
 30
0.0
 10
-0.6137214151353413
 20
84.3744243164642
 30
0.0
 10
-0.6988250272173309
 20
84.45388647054594
 30
0.0
 10
-0.7723211603547234
 20
84.5353750260823
 30
0.0
 10
-0.8434053249780519
 20
84.6294171407397
 30
0.0
 10
-0.9050892970595517
 20
84.72803335707063
 30
0.0
 10
-0.9556693387042117
 20
84.83124341396135
 30
0.0
 10
-0.9940276914589687
 20
84.93467548885867
 30
0.0
 10
-1.019622434451163
 20
85.03368127350272
 30
0.0
 10
-1.035026084613802
 20
85.13661118452097
 30
0.0
 10
-1.040784454557944
 20
85.23542138722453
 30
0.0
 10
-1.040816429355924
 20
85.30173266799518
 30
0.0
 10
-1.040831828071951
 20
85.33368220332184
 30
0.0
 11
-0.0484901124951733
 21
84.09458988085463
 31
0.0
 11
-0.1440544691818264
 21
84.12299058143111
 31
0.0
 11
-0.2451303861922511
 21
84.15787530738048
 31
0.0
 11
-0.338086680008617
 21
84.19749159575956
 31
0.0
 11
-0.4380363450744724
 21
84.25054952457418
 31
0.0
 11
-0.5222216467488066
 21
84.30516524073009
 31
0.0
 11
-0.6182507098298871
 21
84.38041569957385
 31
0.0
 11
-0.6913256939493593
 21
84.44860682144693
 31
0.0
 11
-0.7764178209532275
 21
84.54295914741778
 31
0.0
 11
-0.8376816389076707
 21
84.62407466048793
 31
0.0
 11
-0.9036468551214583
 21
84.72981552291049
 31
0.0
 11
-0.9571930771700332
 21
84.83952113273712
 31
0.0
 11
-0.9909744457489538
 21
84.93090410073003
 31
0.0
 11
-1.018715975468595
 21
85.0383832709611
 31
0.0
 11
-1.033334171080078
 21
85.13497408263157
 31
0.0
 11
-1.039896557568096
 21
85.23784396776966
 31
0.0
 11
-1.040831828071951
 21
85.33368220332184
 31
0.0
  0
SPLINE
  5
12F
330
47
100
AcDbEntity
  8
0
  6
Continuous
 62
     7
100
AcDbSpline
210
0.0
220
0.0
230
1.0
 70
     8
 71
     3
 72
    23
 73
    19
 74
    17
 42
0.000000001
 43
0.0000000001
 44
0.00000001
 40
0.0
 40
0.0
 40
0.0
 40
0.0
 40
0.0972183112983979
 40
0.2030570940425572
 40
0.303766133646284
 40
0.4210999959514022
 40
0.5381087288826452
 40
0.6497134995666974
 40
0.7789916083266366
 40
0.8792706412908884
 40
0.9915291781743422
 40
1.103862847562238
 40
1.222027198932949
 40
1.32046577688723
 40
1.43025252444332
 40
1.528383876064294
 40
1.633433724239642
 40
1.732775334560233
 40
1.732775334560233
 40
1.732775334560233
 40
1.732775334560233
 10
-0.9108697577515699
 20
85.44623265774928
 30
0.0
 10
-0.9108561015136027
 20
85.41382532261764
 30
0.0
 10
-0.9108275631017853
 20
85.34613705279604
 30
0.0
 10
-0.9063893959936167
 20
85.24491907043215
 30
0.0
 10
-0.8946253553142347
 20
85.1375205669428
 30
0.0
 10
-0.8742141586703884
 20
85.02759312012341
 30
0.0
 10
-0.8442245754016829
 20
84.91612254089694
 30
0.0
 10
-0.8046164116803015
 20
84.80348628909017
 30
0.0
 10
-0.758462030677967
 20
84.69938689941183
 30
0.0
 10
-0.7042407444167232
 20
84.59907999473432
 30
0.0
 10
-0.6455292075750919
 20
84.50792895314797
 30
0.0
 10
-0.5753297685092646
 20
84.41758632806051
 30
0.0
 10
-0.49952208531853
 20
84.33804924644409
 30
0.0
 10
-0.4164067757586102
 20
84.26757830826922
 30
0.0
 10
-0.3315128086555941
 20
84.21036233991056
 30
0.0
 10
-0.2387943033938242
 20
84.16215921025109
 30
0.0
 10
-0.1449832052098166
 20
84.12472200216177
 30
0.0
 10
-0.0798799255738672
 20
84.10459243667803
 30
0.0
 10
-0.0482373847045778
 20
84.09480874954153
 30
0.0
 11
-0.9108697577515699
 21
85.44623265774928
 31
0.0
 11
-0.9101552740713714
 21
85.3490169727672
 31
0.0
 11
-0.9051369603906494
 21
85.24329722776424
 31
0.0
 11
-0.8940850537080873
 21
85.14319644837484
 31
0.0
 11
-0.8726804922920977
 21
85.02783146225383
 31
0.0
 11
-0.842319875096778
 21
84.91483023857454
 31
0.0
 11
-0.8052995459294507
 21
84.80954434140848
 31
0.0
 11
-0.7528395124807918
 21
84.69138862020041
 31
0.0
 11
-0.7050956294113817
 21
84.60320468621892
 31
0.0
 11
-0.6441913199605551
 21
84.50890386757277
 31
0.0
 11
-0.5751194711554675
 21
84.42031530612041
 31
0.0
 11
-0.493416833802347
 21
84.33494849009064
 31
0.0
 11
-0.4182514897816887
 21
84.2713849399805
 31
0.0
 11
-0.3271730279477838
 21
84.21008368386367
 31
0.0
 11
-0.2401879903557571
 21
84.16465939937783
 31
0.0
 11
-0.1427581440737588
 21
84.12537968567071
 31
0.0
 11
-0.0482373847045778
 21
84.09480874954153
 31
0.0
  0
SPLINE
  5
130
330
47
100
AcDbEntity
  8
0
  6
Continuous
 62
     7
100
AcDbSpline
210
0.0
220
0.0
230
1.0
 70
     8
 71
     3
 72
    11
 73
     7
 74
     5
 42
0.000000001
 43
0.0000000001
 44
0.00000001
 40
0.0
 40
0.0
 40
0.0
 40
0.0
 40
0.0000459852962533
 40
0.0000919711513848
 40
0.2950014631305966
 40
0.5899109551104771
 40
0.5899109551104771
 40
0.5899109551104771
 40
0.5899109551104771
 10
0.5652440605554716
 20
83.91771301263925
 30
0.0
 10
0.5652293311422992
 20
83.9177172558948
 30
0.0
 10
0.5651998721370337
 20
83.91772574245783
 30
0.0
 10
0.4707088336362065
 20
83.94494676380845
 30
0.0
 10
0.2817777740438338
 20
83.99939977870486
 30
0.0
 10
0.0928576176893609
 20
84.05383526973559
 30
0.0
 10
-0.0016020436106032
 20
84.08105446221902
 30
0.0
 11
0.5652440605554716
 21
83.91771301263925
 31
0.0
 11
0.5651998724468533
 21
83.91772574286036
 31
0.0
 11
0.5651556843248645
 21
83.91773847505371
 31
0.0
 11
0.2817768203571306
 21
83.99939646863635
 31
0.0
 11
-0.0016020436106032
 21
84.08105446221902
 31
0.0
  0
SPLINE
  5
131
330
47
100
AcDbEntity
  8
0
  6
Continuous
 62
     7
100
AcDbSpline
210
0.0
220
0.0
230
1.0
 70
     8
 71
     3
 72
    11
 73
     7
 74
     5
 42
0.000000001
 43
0.0000000001
 44
0.00000001
 40
0.0
 40
0.0
 40
0.0
 40
0.0
 40
0.0121162221889718
 40
0.0242646178640334
 40
0.0364232996854182
 40
0.0486216022195706
 40
0.0486216022195706
 40
0.0486216022195706
 40
0.0486216022195706
 10
-0.0482373847045778
 20
84.09480874954153
 30
0.0
 10
-0.0443693423209351
 20
84.09364698331281
 30
0.0
 10
-0.0366229820259929
 20
84.09132038027322
 30
0.0
 10
-0.0249820450793968
 20
84.08787140434671
 30
0.0
 10
-0.0133063340818077
 20
84.08444361744192
 30
0.0
 10
-0.0055077037560493
 20
84.08218540027738
 30
0.0
 10
-0.0016020436106032
 20
84.08105446221902
 30
0.0
 11
-0.0482373847045778
 21
84.09480874954153
 31
0.0
 11
-0.0366311005562654
 21
84.09133067410441
 31
0.0
 11
-0.0249839148131912
 21
84.08787718565564
 31
0.0
 11
-0.0133169143901046
 21
84.08445451922785
 31
0.0
 11
-0.0016020436106032
 21
84.08105446221902
 31
0.0
  0
SPLINE
  5
132
330
47
100
AcDbEntity
  8
0
  6
Continuous
 62
     7
100
AcDbSpline
210
0.0
220
0.0
230
1.0
 70
     8
 71
     3
 72
     9
 73
     5
 74
     3
 42
0.000000001
 43
0.0000000001
 44
0.00000001
 40
0.0
 40
0.0
 40
0.0
 40
0.0
 40
0.1347351597551228
 40
0.2806984683897968
 40
0.2806984683897968
 40
0.2806984683897968
 40
0.2806984683897968
 10
1.041584325555903
 20
66.28821443753048
 30
0.0
 10
1.011191841854763
 20
66.2535129712404
 30
0.0
 10
0.9478741347811672
 20
66.1812181838165
 30
0.0
 10
0.939995396400391
 20
66.08518648620982
 30
0.0
 10
0.9358984590176718
 20
66.03524996452126
 30
0.0
 11
1.041584325555903
 21
66.28821443753048
 31
0.0
 11
0.963179999738708
 21
66.17864105779647
 31
0.0
 11
0.9358984590176718
 21
66.03524996452126
 31
0.0
  0
SPLINE
  5
133
330
47
100
AcDbEntity
  8
0
  6
Continuous
 62
     7
100
AcDbSpline
210
0.0
220
0.0
230
1.0
 70
     8
 71
     3
 72
    11
 73
     7
 74
     5
 42
0.000000001
 43
0.0000000001
 44
0.00000001
 40
0.0
 40
0.0
 40
0.0
 40
0.0
 40
0.0122003349950393
 40
0.0244010628185295
 40
0.0366018560786135
 40
0.0488026491224142
 40
0.0488026491224142
 40
0.0488026491224142
 40
0.0488026491224142
 10
-0.0016020436106032
 20
84.08105446221902
 30
0.0
 10
-0.0055092778442142
 20
84.08218238360047
 30
0.0
 10
-0.0133238721042843
 20
84.08443826272517
 30
0.0
 10
-0.0250458473720188
 20
84.08782210555715
 30
0.0
 10
-0.0367679694080486
 20
84.09120599047492
 30
0.0
 10
-0.044582731468175
 20
84.09346191747429
 30
0.0
 10
-0.0484901124951733
 20
84.09458988085463
 30
0.0
 11
-0.0016020436106032
 21
84.08105446221902
 31
0.0
 11
-0.0133237463141809
 21
84.08443822635383
 31
0.0
 11
-0.0250458264401132
 21
84.0878220994224
 31
0.0
 11
-0.0367679694676406
 21
84.09120599052845
 31
0.0
 11
-0.0484901124951733
 21
84.09458988085463
 31
0.0
  0
SPLINE
  5
134
330
47
100
AcDbEntity
  8
0
  6
Continuous
 62
     7
100
AcDbSpline
210
0.0
220
0.0
230
1.0
 70
     8
 71
     3
 72
    11
 73
     7
 74
     5
 42
0.000000001
 43
0.0000000001
 44
0.00000001
 40
0.0
 40
0.0
 40
0.0
 40
0.0
 40
0.2267504624627537
 40
0.4687516795135929
 40
0.7374140423507696
 40
1.039009786640368
 40
1.039009786640368
 40
1.039009786640368
 40
1.039009786640368
 10
-1.451601540172163
 20
90.18653341282453
 30
0.0
 10
-1.444513615854401
 20
90.11067408054268
 30
0.0
 10
-1.429861033905846
 20
89.95385328082895
 30
0.0
 10
-1.315594718361379
 20
89.73080805855481
 30
0.0
 10
-1.142884686844734
 20
89.52000679501717
 30
0.0
 10
-0.991129445696498
 20
89.40445795869299
 30
0.0
 10
-0.9108697577501985
 20
89.34334697473234
 30
0.0
 11
-1.451601540172163
 21
90.18653341282453
 31
0.0
 11
-1.41676989253243
 21
89.96247420272476
 31
0.0
 11
-1.313111800064121
 21
89.74379729375559
 31
0.0
 11
-1.143117188750116
 21
89.5357557147842
 31
0.0
 11
-0.9108697577501985
 21
89.34334697473234
 31
0.0
  0
SPLINE
  5
135
330
47
100
AcDbEntity
  8
0
  6
Continuous
 62
     7
100
AcDbSpline
210
0.0
220
0.0
230
1.0
 70
     8
 71
     3
 72
     9
 73
     5
 74
     3
 42
0.000000001
 43
0.0000000001
 44
0.00000001
 40
0.0
 40
0.0
 40
0.0
 40
0.0
 40
0.1407419043314279
 40
0.2711815176448858
 40
0.2711815176448858
 40
0.2711815176448858
 40
0.2711815176448858
 10
1.297436564777549
 20
66.3579559438974
 30
0.0
 10
1.249237213401851
 20
66.35988578357555
 30
0.0
 10
1.156366700926638
 20
66.36360417995184
 30
0.0
 10
1.078863658118662
 20
66.31269973080641
 30
0.0
 10
1.041584325555903
 20
66.28821443753048
 30
0.0
 11
1.297436564777549
 21
66.3579559438974
 31
0.0
 11
1.156977831767974
 21
66.34903246110349
 31
0.0
 11
1.041584325555903
 21
66.28821443753048
 31
0.0
  0
SPLINE
  5
136
330
47
100
AcDbEntity
  8
0
  6
Continuous
 62
     7
100
AcDbSpline
210
0.0
220
0.0
230
1.0
 70
     8
 71
     3
 72
    13
 73
     9
 74
     7
 42
0.000000001
 43
0.0000000001
 44
0.00000001
 40
0.0
 40
0.0
 40
0.0
 40
0.0
 40
0.1643397308512912
 40
0.3185259234257182
 40
0.3892171458901136
 40
0.4592734522441391
 40
0.5254276126966437
 40
0.6029976809754585
 40
0.6029976809754585
 40
0.6029976809754585
 40
0.6029976809754585
 10
1.557244186222476
 20
84.58368226290703
 30
0.0
 10
1.554287584822192
 20
84.52879220923919
 30
0.0
 10
1.548557037838438
 20
84.42240342120542
 30
0.0
 10
1.507603294603888
 20
84.29762462363286
 30
0.0
 10
1.462986262652786
 20
84.20991750423096
 30
0.0
 10
1.425045060242672
 20
84.15217365409227
 30
0.0
 10
1.380191276924135
 20
84.09655367412188
 30
0.0
 10
1.345030683819079
 20
84.06392264528812
 30
0.0
 10
1.326053992278993
 20
84.04631120709546
 30
0.0
 11
1.557244186222476
 21
84.58368226290703
 31
0.0
 11
1.540978220353017
 21
84.4201494972083
 31
0.0
 11
1.493948847233973
 21
84.27331074024617
 31
0.0
 11
1.461750519308135
 21
84.21037810369596
 31
0.0
 11
1.423377028357038
 21
84.15176614742163
 31
0.0
 11
1.381526007905009
 21
84.10053270887425
 31
0.0
 11
1.326053992278993
 21
84.04631120709546
 31
0.0
  0
SPLINE
  5
137
330
47
100
AcDbEntity
  8
0
  6
Continuous
 62
     7
100
AcDbSpline
210
0.0
220
0.0
230
1.0
 70
     8
 71
     3
 72
     9
 73
     5
 74
     3
 42
0.000000001
 43
0.0000000001
 44
0.00000001
 40
0.0
 40
0.0
 40
0.0
 40
0.0
 40
0.2070324927194228
 40
0.404556879071149
 40
0.404556879071149
 40
0.404556879071149
 40
0.404556879071149
 10
1.238611240812432
 20
86.03299215018194
 30
0.0
 10
1.291023844021029
 20
86.07794982074537
 30
0.0
 10
1.393441978939561
 20
86.16580043505473
 30
0.0
 10
1.503505704826815
 20
86.24385151302634
 30
0.0
 10
1.557244186160837
 20
86.28195984568714
 30
0.0
 11
1.238611240812432
 21
86.03299215018194
 31
0.0
 11
1.397851355977311
 21
86.16529875958264
 31
0.0
 11
1.557244186160837
 21
86.28195984568714
 31
0.0
  0
SPLINE
  5
138
330
47
100
AcDbEntity
  8
0
  6
Continuous
 62
     7
100
AcDbSpline
210
0.0
220
0.0
230
1.0
 70
     8
 71
     3
 72
    11
 73
     7
 74
     5
 42
0.000000001
 43
0.0000000001
 44
0.00000001
 40
0.0
 40
0.0
 40
0.0
 40
0.0
 40
1.308988763684206
 40
2.664373091707599
 40
4.065248081282557
 40
5.508289492588198
 40
5.508289492588198
 40
5.508289492588198
 40
5.508289492588198
 10
12.01242634064246
 20
74.61208159087636
 30
0.0
 10
11.96629219763859
 20
74.17758050678201
 30
0.0
 10
11.8723887563124
 20
73.29317795854686
 30
0.0
 10
11.94401914899431
 20
71.93546039872541
 30
0.0
 10
12.15342098272106
 20
70.54816491811192
 30
0.0
 10
12.42033237720684
 20
69.63747930172549
 30
0.0
 10
12.55576681404357
 20
69.17538517992006
 30
0.0
 11
12.01242634064246
 21
74.61208159087636
 31
0.0
 11
11.90802080159907
 21
73.30726318631591
 31
0.0
 11
11.96470957959041
 21
71.95306487640276
 31
0.0
 11
12.18167203188641
 21
70.56909304367187
 31
0.0
 11
12.55576681404357
 21
69.17538517992006
 31
0.0
  0
SPLINE
  5
139
330
47
100
AcDbEntity
  8
0
  6
Continuous
 62
     7
100
AcDbSpline
210
0.0
220
0.0
230
1.0
 70
     8
 71
     3
 72
    13
 73
     9
 74
     7
 42
0.000000001
 43
0.0000000001
 44
0.00000001
 40
0.0
 40
0.0
 40
0.0
 40
0.0
 40
0.2416821362342611
 40
0.4983365525325206
 40
0.7677752575423327
 40
1.045877374903251
 40
1.327343331823347
 40
1.606440474312093
 40
1.606440474312093
 40
1.606440474312093
 40
1.606440474312093
 10
12.31242634061296
 20
74.87188921202386
 30
0.0
 10
12.31837842680873
 20
74.95254402633653
 30
0.0
 10
12.33065131796256
 20
75.11885024505713
 30
0.0
 10
12.28012715435271
 20
75.37251130694777
 30
0.0
 10
12.18449315966134
 20
75.62399918569977
 30
0.0
 10
12.04173903517134
 20
75.86196125458753
 30
0.0
 10
11.8626252291871
 20
76.07897335747495
 30
0.0
 10
11.71622302438153
 20
76.19576596824294
 30
0.0
 10
11.64333124873824
 20
76.25391549835602
 30
0.0
 11
12.31242634061296
 21
74.87188921202386
 31
0.0
 11
12.31968282598137
 21
75.11346238793874
 31
0.0
 11
12.2743182366298
 21
75.36607581780858
 31
0.0
 11
12.17845912017281
 21
75.61788575966823
 31
0.0
 11
12.03660017757988
 21
75.85708615450429
 31
0.0
 11
11.85539215739039
 21
76.0724619625637
 31
0.0
 11
11.64333124873824
 21
76.25391549835602
 31
0.0
  0
SPLINE
  5
13A
330
47
100
AcDbEntity
  8
0
  6
Continuous
 62
     7
100
AcDbSpline
210
0.0
220
0.0
230
1.0
 70
     8
 71
     3
 72
    13
 73
     9
 74
     7
 42
0.000000001
 43
0.0000000001
 44
0.00000001
 40
0.0
 40
0.0
 40
0.0
 40
0.0
 40
0.2416821362434693
 40
0.4983365525436961
 40
0.7677752575535088
 40
1.045877374914427
 40
1.327343331834511
 40
1.606440474323256
 40
1.606440474323256
 40
1.606440474323256
 40
1.606440474323256
 10
12.01242634064246
 20
74.61208159087636
 30
0.0
 10
12.018378426829
 20
74.69273640519245
 30
0.0
 10
12.03065131796364
 20
74.8590426239175
 30
0.0
 10
11.98012715435693
 20
75.11270368581071
 30
0.0
 10
11.88449315966425
 20
75.36419156456368
 30
0.0
 10
11.74173903517456
 20
75.60215363345131
 30
0.0
 10
11.56262522919023
 20
75.81916573633876
 30
0.0
 10
11.41622302438467
 20
75.93595834710672
 30
0.0
 10
11.34333124874139
 20
75.99410787721982
 30
0.0
 11
12.01242634064246
 21
74.61208159087636
 31
0.0
 11
12.01968282598781
 21
74.85365476680114
 31
0.0
 11
11.97431823663295
 21
75.10626819667239
 31
0.0
 11
11.87845912017596
 21
75.35807813853204
 31
0.0
 11
11.73660017758302
 21
75.5972785333681
 31
0.0
 11
11.55539215739353
 21
75.81265434142749
 31
0.0
 11
11.34333124874139
 21
75.99410787721982
 31
0.0
  0
SPLINE
  5
13B
330
47
100
AcDbEntity
  8
0
  6
Continuous
 62
     7
100
AcDbSpline
210
0.0
220
0.0
230
1.0
 70
     8
 71
     3
 72
    11
 73
     7
 74
     5
 42
0.000000001
 43
0.0000000001
 44
0.00000001
 40
0.0
 40
0.0
 40
0.0
 40
0.0
 40
1.308988763692225
 40
2.664373091717162
 40
4.065248081292107
 40
5.508289492597761
 40
5.508289492597761
 40
5.508289492597761
 40
5.508289492597761
 10
12.31242634061296
 20
74.87188921202386
 30
0.0
 10
12.26629219761842
 20
74.43738812792603
 30
0.0
 10
12.17238875631146
 20
73.55298557968608
 30
0.0
 10
12.24401914899043
 20
72.19526801986234
 30
0.0
 10
12.45342098271811
 20
70.8079725392481
 30
0.0
 10
12.72033237720376
 20
69.89728692286167
 30
0.0
 10
12.85576681404043
 20
69.43519280105626
 30
0.0
 11
12.31242634061296
 21
74.87188921202386
 31
0.0
 11
12.20802080159264
 21
73.56707080745352
 31
0.0
 11
12.26470957958727
 21
72.21287249753897
 31
0.0
 11
12.48167203188327
 21
70.82890066480809
 31
0.0
 11
12.85576681404043
 21
69.43519280105626
 31
0.0
  0
SPLINE
  5
13C
330
47
100
AcDbEntity
  8
0
  6
Continuous
 62
     7
100
AcDbSpline
210
0.0
220
0.0
230
1.0
 70
     8
 71
     3
 72
    11
 73
     7
 74
     5
 42
0.000000001
 43
0.0000000001
 44
0.00000001
 40
0.0
 40
0.0
 40
0.0
 40
0.0
 40
1.772801100347813
 40
3.633850905040383
 40
5.588997060624333
 40
7.633055530832095
 40
7.633055530832095
 40
7.633055530832095
 40
7.633055530832095
 10
15.13076681383762
 20
78.89789684071779
 30
0.0
 10
14.94541039247918
 20
78.33465175842902
 30
0.0
 10
14.56547066110839
 20
77.18012367365094
 30
0.0
 10
14.43432005800253
 20
75.30640917339625
 30
0.0
 10
14.58555926329262
 20
73.34946313709638
 30
0.0
 10
14.94635714588788
 20
72.06295553414394
 30
0.0
 10
15.13076681390191
 20
71.40540059457317
 30
0.0
 11
15.13076681383762
 21
78.89789684071779
 31
0.0
 11
14.64483004179088
 21
77.19299531875663
 31
0.0
 11
14.48124776102422
 21
75.33914871762106
 31
0.0
 11
14.64483004180926
 21
73.39085784265279
 31
0.0
 11
15.13076681390191
 21
71.40540059457317
 31
0.0
  0
SPLINE
  5
13D
330
47
100
AcDbEntity
  8
0
  6
Continuous
 62
     7
100
AcDbSpline
210
0.0
220
0.0
230
1.0
 70
     8
 71
     3
 72
    15
 73
    11
 74
     9
 42
0.000000001
 43
0.0000000001
 44
0.00000001
 40
0.0
 40
0.0
 40
0.0
 40
0.0
 40
0.1233816253641111
 40
0.2268446024135083
 40
0.3495828343758983
 40
0.4509484581337175
 40
0.5740929259647867
 40
0.6736313886305643
 40
0.7572336076011186
 40
0.8398651842902417
 40
0.8398651842902417
 40
0.8398651842902417
 40
0.8398651842902417
 10
0.5652440605554716
 20
83.91771301263925
 30
0.0
 10
0.6053551265496865
 20
83.90831650127537
 30
0.0
 10
0.6791017572106743
 20
83.89104045867285
 30
0.0
 10
0.7957960021039701
 20
83.88346201026457
 30
0.0
 10
0.905124543746185
 20
83.88945242425646
 30
0.0
 10
1.019185656039778
 20
83.91051135017254
 30
0.0
 10
1.122566421672755
 20
83.94301075989299
 30
0.0
 10
1.21567580381551
 20
83.98526564978889
 30
0.0
 10
1.292845609149871
 20
84.02912498102903
 30
0.0
 10
1.337702696580132
 20
84.06171665905978
 30
0.0
 10
1.36000027543885
 20
84.07791735232456
 30
0.0
 11
0.5652440605554716
 21
83.91771301263925
 31
0.0
 11
0.6861619309102478
 21
83.89317947882445
 31
0.0
 11
0.7893593392906624
 21
83.8857711902394
 31
0.0
 11
0.9119023740841161
 21
83.89269061993721
 31
0.0
 11
1.011599776055931
 21
83.9110050381303
 31
0.0
 11
1.129073686871087
 21
83.94794337247667
 31
0.0
 11
1.219782699938847
 21
83.98892850047069
 31
0.0
 11
1.292264797681196
 21
84.03058995384751
 31
0.0
 11
1.36000027543885
 21
84.07791735232456
 31
0.0
  0
SPLINE
  5
13E
330
47
100
AcDbEntity
  8
0
  6
Continuous
 62
     7
100
AcDbSpline
210
0.0
220
0.0
230
1.0
 70
     8
 71
     3
 72
    11
 73
     7
 74
     5
 42
0.000000001
 43
0.0000000001
 44
0.00000001
 40
0.0
 40
0.0
 40
0.0
 40
0.0
 40
0.4256828263361337
 40
0.9829204242059144
 40
1.720118024733654
 40
2.634384778531808
 40
2.634384778531808
 40
2.634384778531808
 40
2.634384778531808
 10
-0.9108697577513212
 20
86.15953656305344
 30
0.0
 10
-0.7682162603387258
 20
86.18715303462054
 30
0.0
 10
-0.4388230414879821
 20
86.25092066893045
 30
0.0
 10
0.0978591273942876
 20
85.97246192328679
 30
0.0
 10
0.6733642280334736
 20
85.52233608540291
 30
0.0
 10
1.037192413023084
 20
85.10555133830535
 30
0.0
 10
1.238611240814961
 20
84.87481524177127
 30
0.0
 11
-0.9108697577513212
 21
86.15953656305344
 31
0.0
 11
-0.4871703898601401
 21
86.20058187955968
 31
0.0
 11
0.0293713211774893
 21
85.99154022657865
 31
0.0
 11
0.6139792216874294
 21
85.5424367808968
 31
0.0
 11
1.238611240814961
 21
84.87481524177127
 31
0.0
  0
SPLINE
  5
13F
330
47
100
AcDbEntity
  8
0
  6
Continuous
 62
     7
100
AcDbSpline
210
0.0
220
0.0
230
1.0
 70
     8
 71
     3
 72
    15
 73
    11
 74
     9
 42
0.000000001
 43
0.0000000001
 44
0.00000001
 40
0.0
 40
0.0
 40
0.0
 40
0.0
 40
0.7142676959365826
 40
1.466467150908204
 40
2.218666605603287
 40
2.932934292283185
 40
3.576230762042655
 40
4.126302543944894
 40
4.58042915680304
 40
4.968508124450436
 40
4.968508124450436
 40
4.968508124450436
 40
4.968508124450436
 10
2.898398459827817
 20
91.44227024831099
 30
0.0
 10
2.666364427366833
 20
91.49737847160577
 30
0.0
 10
2.189974007931139
 20
91.6105214787749
 30
0.0
 10
1.4480359250949
 20
91.65115794022219
 30
0.0
 10
0.7082364322308821
 20
91.60552221107687
 30
0.0
 10
0.016971656653945
 20
91.46579689166529
 30
0.0
 10
-0.5843068418143889
 20
91.24389275828962
 30
0.0
 10
-1.049048753693885
 20
90.95148026086184
 30
0.0
 10
-1.381548546703092
 20
90.59847094829024
 30
0.0
 10
-1.429504141136959
 20
90.31647432427906
 30
0.0
 10
-1.451601540172163
 20
90.18653341282453
 30
0.0
 11
2.898398459827817
 21
91.44227024831099
 31
0.0
 11
2.198973490517506
 21
91.5871254875369
 31
0.0
 11
1.448398459827949
 21
91.63653341282398
 31
0.0
 11
0.6978234291383854
 21
91.58712548753728
 31
0.0
 11
-0.0016015401719507
 21
91.44227024831179
 31
0.0
 11
-0.6022106589085663
 21
91.2118379721928
 31
0.0
 11
-1.063075211146849
 21
90.91153341282455
 31
0.0
 11
-1.352785689598295
 21
90.5618209281694
 31
0.0
 11
-1.451601540172163
 21
90.18653341282453
 31
0.0
  0
SPLINE
  5
140
330
47
100
AcDbEntity
  8
0
  6
Continuous
 62
     7
100
AcDbSpline
210
0.0
220
0.0
230
1.0
 70
     8
 71
     3
 72
    19
 73
    15
 74
    13
 42
0.000000001
 43
0.0000000001
 44
0.00000001
 40
0.0
 40
0.0
 40
0.0
 40
0.0
 40
0.0438316919207067
 40
0.0879008711392383
 40
0.1784855787136917
 40
0.2553712330448725
 40
0.3410181393634532
 40
0.4288822912086908
 40
0.5269303675120891
 40
0.6118254554721735
 40
0.7070223371342274
 40
0.8046668139156434
 40
1.099484691848143
 40
1.394302973316456
 40
1.394302973316456
 40
1.394302973316456
 40
1.394302973316456
 10
1.326053992278993
 20
84.04631120709546
 30
0.0
 10
1.314818654605573
 20
84.03696185914949
 30
0.0
 10
1.292287096246248
 20
84.01821251705314
 30
0.0
 10
1.243437114604966
 20
83.98415013647212
 30
0.0
 10
1.181768070514605
 20
83.94950569296914
 30
0.0
 10
1.103534616947568
 20
83.9174825141718
 30
0.0
 10
1.023058615413469
 20
83.89464137069527
 30
0.0
 10
0.9335719315710975
 20
83.8798741263022
 30
0.0
 10
0.8432093944227468
 20
83.87523616401755
 30
0.0
 10
0.7505190647444064
 20
83.8800542612216
 30
0.0
 10
0.6586687389009412
 20
83.8930826802721
 30
0.0
 10
0.5010844976086768
 20
83.93354241627581
 30
0.0
 10
0.2818828082106832
 20
84.00005085598812
 30
0.0
 10
0.0928929505423875
 20
84.05405324928704
 30
0.0
 10
-0.0016020436106032
 20
84.08105446221902
 30
0.0
 11
1.326053992278993
 21
84.04631120709546
 31
0.0
 11
1.291968490893891
 21
84.01875406124788
 31
0.0
 11
1.255910807010551
 21
83.99341760072961
 31
0.0
 11
1.176914304291074
 21
83.9490876767077
 31
0.0
 11
1.105794665076047
 21
83.91987465108795
 31
0.0
 11
1.023427289040134
 21
83.89640109119406
 31
0.0
 11
0.9367555323672221
 21
83.88197487032092
 31
0.0
 11
0.8388429976139358
 21
83.8768211441961
 31
0.0
 11
0.7540537917211765
 21
83.88105984661799
 31
0.0
 11
0.6598337434084897
 21
83.89466237950259
 31
0.0
 11
0.5649020452405235
 21
83.91751881716326
 31
0.0
 11
0.281650189524549
 21
83.99928658521537
 31
0.0
 11
-0.0016020436106032
 21
84.08105446221902
 31
0.0
  0
SPLINE
  5
141
330
47
100
AcDbEntity
  8
0
  6
Continuous
 62
     7
100
AcDbSpline
210
0.0
220
0.0
230
1.0
 70
     8
 71
     3
 72
    11
 73
     7
 74
     5
 42
0.000000001
 43
0.0000000001
 44
0.00000001
 40
0.0
 40
0.0
 40
0.0
 40
0.0
 40
1.772801100276387
 40
3.633850904960192
 40
5.588997060561033
 40
7.633055530860464
 40
7.633055530860464
 40
7.633055530860464
 40
7.633055530860464
 10
15.63076681444855
 20
79.33090954314508
 30
0.0
 10
15.44541039311624
 20
78.76766446087375
 30
0.0
 10
15.06547066179209
 20
77.61313637611045
 30
0.0
 10
14.93432005868356
 20
75.7394218758774
 30
0.0
 10
15.08555926399438
 20
73.7824758395539
 30
0.0
 10
15.4463571464613
 20
72.49596823653197
 30
0.0
 10
15.63076681441299
 20
71.838413296914
 30
0.0
 11
15.63076681444855
 21
79.33090954314508
 31
0.0
 11
15.14483004246635
 21
77.6260080212398
 31
0.0
 11
14.9812477617089
 21
75.77216142011221
 31
0.0
 11
15.14483004247223
 21
73.82387054512517
 31
0.0
 11
15.63076681441299
 21
71.838413296914
 31
0.0
  0
ENDBLK
  5
49
330
47
100
AcDbEntity
  8
0
100
AcDbBlockEnd
  0
BLOCK
  5
4C
330
4A
100
AcDbEntity
  8
0
100
AcDbBlockBegin
  2
Allg1
 70
     0
 10
5.00000000000021
 20
71.0
 30
0.0
  3
Allg1
  1

  0
INSERT
  5
4B
330
4A
100
AcDbEntity
  8
0
100
AcDbBlockReference
  2
PP_H_4_1_GNYE-select__1
 10
-5.6307666656774
 20
51.08715248165368
 30
0.0
  0
MTEXT
  5
143
330
4A
100
AcDbEntity
  8
1
 62
     6
100
AcDbMText
 10
4.849293870824
 20
43.60555484624751
 30
0.0
 40
5.0
 41
0.0
 71
     2
 72
     1
  1
 
  7
CONVERTER_11
 73
     1
 44
1.32052821128451
  0
ENDBLK
  5
4D
330
4A
100
AcDbEntity
  8
0
100
AcDbBlockEnd
  0
BLOCK
  5
4F
330
4E
100
AcDbEntity
  8
0
100
AcDbBlockBegin
  2
PP_H_4_1_GNYE-select__2
 70
     0
 10
-119.8625429283
 20
84.37597502394189
 30
0.0
  3
PP_H_4_1_GNYE-select__2
  1

  0
LINE
  5
144
330
4E
100
AcDbEntity
  8
0
  6
Continuous
 62
     7
100
AcDbLine
 10
-107.9125429279592
 20
86.85945988510878
 30
0.0
 11
-107.9125429279526
 21
85.87597502406001
 31
0.0
  0
LINE
  5
145
330
4E
100
AcDbEntity
  8
0
  6
Continuous
 62
     7
100
AcDbLine
 10
-107.9125429279152
 20
89.67597502386751
 30
0.0
 11
-107.9125429279254
 21
88.69249016309351
 31
0.0
  0
LINE
  5
146
330
4E
100
AcDbEntity
  8
0
  6
Continuous
 62
     7
100
AcDbLine
 10
-105.5125429275416
 20
89.67597502385819
 30
0.0
 11
-107.1125429260992
 21
89.67597502385709
 31
0.0
  0
LINE
  5
147
330
4E
100
AcDbEntity
  8
0
  6
Continuous
 62
     7
100
AcDbLine
 10
-105.5125429275393
 20
88.77597502390756
 30
0.0
 11
-105.5125429275416
 21
89.67597502385819
 31
0.0
  0
LINE
  5
148
330
4E
100
AcDbEntity
  8
0
  6
Continuous
 62
     7
100
AcDbLine
 10
-107.1125429260992
 20
89.67597502385709
 30
0.0
 11
-107.9125429279152
 21
89.67597502386751
 31
0.0
  0
LINE
  5
149
330
4E
100
AcDbEntity
  8
0
  6
Continuous
 62
     7
100
AcDbLine
 10
-105.9125429274745
 20
87.1759750240015
 30
0.0
 11
-105.9125429274808
 21
88.37597502396497
 31
0.0
  0
LINE
  5
14A
330
4E
100
AcDbEntity
  8
0
  6
Continuous
 62
     7
100
AcDbLine
 10
-105.5125429275308
 20
85.87597502405829
 30
0.0
 11
-105.5125429275331
 21
86.77597502406547
 31
0.0
  0
LINE
  5
14B
330
4E
100
AcDbEntity
  8
0
  6
Continuous
 62
     7
100
AcDbLine
 10
-104.1593010867962
 20
86.77071665611754
 30
0.0
 11
-104.1593010868013
 21
88.78123339178457
 31
0.0
  0
LINE
  5
14C
330
4E
100
AcDbEntity
  8
0
  6
Continuous
 62
     7
100
AcDbLine
 10
-105.5125429275331
 20
86.77597502406547
 30
0.0
 11
-105.9125429274745
 21
87.1759750240015
 31
0.0
  0
LINE
  5
14D
330
4E
100
AcDbEntity
  8
0
  6
Continuous
 62
     7
100
AcDbLine
 10
-105.9125429274808
 20
88.37597502396497
 30
0.0
 11
-105.5125429275393
 21
88.77597502390756
 31
0.0
  0
LINE
  5
14E
330
4E
100
AcDbEntity
  8
0
  6
Continuous
 62
     7
100
AcDbLine
 10
-107.1125429278836
 20
85.87597502405285
 30
0.0
 11
-107.1125429279444
 21
86.8594598851029
 31
0.0
  0
LINE
  5
14F
330
4E
100
AcDbEntity
  8
0
  6
Continuous
 62
     7
100
AcDbLine
 10
-107.1125429279254
 20
88.69249016307637
 30
0.0
 11
-107.1125429260992
 21
89.67597502385709
 31
0.0
  0
LINE
  5
150
330
4E
100
AcDbEntity
  8
0
  6
Continuous
 62
     7
100
AcDbLine
 10
-99.72257498636492
 20
90.52597502501634
 30
0.0
 11
-99.93826869124398
 21
90.52597502509994
 31
0.0
  0
LINE
  5
151
330
4E
100
AcDbEntity
  8
0
  6
Continuous
 62
     7
100
AcDbLine
 10
-99.93826869124398
 20
90.52597502509994
 30
0.0
 11
-100.0893603285454
 21
90.52597502511426
 31
0.0
  0
LINE
  5
152
330
4E
100
AcDbEntity
  8
0
  6
Continuous
 62
     7
100
AcDbLine
 10
-99.72257498636492
 20
90.52597502501634
 30
0.0
 11
-99.72257498632766
 21
84.3759750240639
 31
0.0
  0
LINE
  5
153
330
4E
100
AcDbEntity
  8
0
  6
Continuous
 62
     7
100
AcDbLine
 10
-99.72257498632766
 20
84.3759750240639
 30
0.0
 11
-99.93826869120673
 21
84.3759750240629
 31
0.0
  0
LINE
  5
154
330
4E
100
AcDbEntity
  8
0
  6
Continuous
 62
     7
100
AcDbLine
 10
-98.86254292812599
 20
84.37597502406909
 30
0.0
 11
-99.72257498632766
 21
84.3759750240639
 31
0.0
  0
LINE
  5
155
330
4E
100
AcDbEntity
  8
0
  6
Continuous
 62
     7
100
AcDbLine
 10
-99.93826869120673
 20
84.3759750240629
 30
0.0
 11
-100.0893603285082
 21
84.37597502406271
 31
0.0
  0
LINE
  5
156
330
4E
100
AcDbEntity
  8
0
  6
Continuous
 62
     7
100
AcDbLine
 10
-98.86254292816324
 20
90.52597502503119
 30
0.0
 11
-98.86254292812599
 21
84.37597502406909
 31
0.0
  0
LINE
  5
157
330
4E
100
AcDbEntity
  8
0
  6
Continuous
 62
     7
100
AcDbLine
 10
-98.86254292816324
 20
90.52597502503119
 30
0.0
 11
-99.72257498636492
 21
90.52597502501634
 31
0.0
  0
LINE
  5
158
330
4E
100
AcDbEntity
  8
0
  6
Continuous
 62
     7
100
AcDbLine
 10
-99.93826869124398
 20
90.52597502509994
 30
0.0
 11
-99.93826869120673
 21
84.3759750240629
 31
0.0
  0
LINE
  5
159
330
4E
100
AcDbEntity
  8
0
  6
Continuous
 62
     7
100
AcDbLine
 10
-100.0893603285454
 20
90.52597502511426
 30
0.0
 11
-100.0893603285082
 21
84.37597502406271
 31
0.0
  0
LINE
  5
15A
330
4E
100
AcDbEntity
  8
0
  6
Continuous
 62
     7
100
AcDbLine
 10
-114.5625427002191
 20
84.63589916461831
 30
0.0
 11
-114.5625427002175
 21
84.37597502397483
 31
0.0
  0
LINE
  5
15B
330
4E
100
AcDbEntity
  8
0
  6
Continuous
 62
     7
100
AcDbLine
 10
-114.7625429268756
 20
85.87597502512833
 30
0.0
 11
-115.4131525929994
 21
85.22536535900429
 31
0.0
  0
LINE
  5
15C
330
4E
100
AcDbEntity
  8
0
  6
Continuous
 62
     7
100
AcDbLine
 10
-118.7868169287266
 20
84.37597502394873
 30
0.0
 11
-118.6357252897637
 21
84.37597502395039
 31
0.0
  0
LINE
  5
15D
330
4E
100
AcDbEntity
  8
0
  6
Continuous
 62
     7
100
AcDbLine
 10
-119.0025106514765
 20
84.37597502394712
 30
0.0
 11
-118.7868169287266
 21
84.37597502394873
 31
0.0
  0
LINE
  5
15E
330
4E
100
AcDbEntity
  8
0
  6
Continuous
 62
     7
100
AcDbLine
 10
-114.3125429311903
 20
85.87597502512227
 30
0.0
 11
-114.3125429541832
 21
89.67597502385692
 31
0.0
  0
LINE
  5
15F
330
4E
100
AcDbEntity
  8
0
  6
Continuous
 62
     7
100
AcDbLine
 10
-114.5625429277464
 20
85.8759750251256
 30
0.0
 11
-114.5625429530713
 21
89.675975023857
 31
0.0
  0
LINE
  5
160
330
4E
100
AcDbEntity
  8
0
  6
Continuous
 62
     7
100
AcDbLine
 10
-114.712542927872
 20
89.67597502385709
 30
0.0
 11
-114.7125429278629
 21
85.87597502512777
 31
0.0
  0
LINE
  5
161
330
4E
100
AcDbEntity
  8
0
  6
Continuous
 62
     7
100
AcDbLine
 10
-109.3125429281553
 20
85.87597502404533
 30
0.0
 11
-107.9125429279526
 21
85.87597502406001
 31
0.0
  0
LINE
  5
162
330
4E
100
AcDbEntity
  8
0
  6
Continuous
 62
     7
100
AcDbLine
 10
-112.7625429275539
 20
85.87597502510698
 30
0.0
 11
-114.3125429311903
 21
85.87597502512227
 31
0.0
  0
LINE
  5
163
330
4E
100
AcDbEntity
  8
0
  6
Continuous
 62
     7
100
AcDbLine
 10
-114.5625429277464
 20
85.8759750251256
 30
0.0
 11
-114.7125429278629
 21
85.87597502512777
 31
0.0
  0
LINE
  5
164
330
4E
100
AcDbEntity
  8
0
  6
Continuous
 62
     7
100
AcDbLine
 10
-114.7125429278629
 20
85.87597502512777
 30
0.0
 11
-114.7625429268756
 21
85.87597502512833
 31
0.0
  0
LINE
  5
165
330
4E
100
AcDbEntity
  8
0
  6
Continuous
 62
     7
100
AcDbLine
 10
-114.3125429311903
 20
85.87597502512227
 30
0.0
 11
-114.5625429277464
 21
85.8759750251256
 31
0.0
  0
LINE
  5
166
330
4E
100
AcDbEntity
  8
0
  6
Continuous
 62
     7
100
AcDbLine
 10
-112.2625429283334
 20
85.8759750251017
 30
0.0
 11
-112.7625429275539
 21
85.87597502510698
 31
0.0
  0
LINE
  5
167
330
4E
100
AcDbEntity
  8
0
  6
Continuous
 62
     7
100
AcDbLine
 10
-107.1125429278836
 20
85.87597502405285
 30
0.0
 11
-105.5125429275308
 21
85.87597502405829
 31
0.0
  0
LINE
  5
168
330
4E
100
AcDbEntity
  8
0
  6
Continuous
 62
     7
100
AcDbLine
 10
-107.9125429279526
 20
85.87597502406001
 30
0.0
 11
-107.1125429278836
 21
85.87597502405285
 31
0.0
  0
LINE
  5
169
330
4E
100
AcDbEntity
  8
0
  6
Continuous
 62
     2
100
AcDbLine
 10
-112.7625429275539
 20
85.87597502510698
 30
0.0
 11
-112.7625429275616
 21
84.37644031581493
 31
0.0
  0
LINE
  5
16A
330
4E
100
AcDbEntity
  8
0
  6
Continuous
 62
     7
100
AcDbLine
 10
-111.5625429278429
 20
84.37597502399322
 30
0.0
 11
-100.0893603285082
 21
84.37597502406271
 31
0.0
  0
LINE
  5
16B
330
4E
100
AcDbEntity
  8
0
  6
Continuous
 62
     7
100
AcDbLine
 10
-112.7082989298044
 20
84.3764823812582
 30
0.0
 11
-112.7625429275616
 21
84.37644031581493
 31
0.0
  0
LINE
  5
16C
330
4E
100
AcDbEntity
  8
0
  6
Continuous
 62
     7
100
AcDbLine
 10
-107.9125429279152
 20
89.67597502386751
 30
0.0
 11
-109.3125429281651
 21
89.67597502386764
 31
0.0
  0
LINE
  5
16D
330
4E
100
AcDbEntity
  8
0
  6
Continuous
 62
     7
100
AcDbLine
 10
-114.3125429541832
 20
89.67597502385692
 30
0.0
 11
-112.7625429275574
 21
89.67597502385725
 31
0.0
  0
LINE
  5
16E
330
4E
100
AcDbEntity
  8
0
  6
Continuous
 62
     7
100
AcDbLine
 10
-112.7625429275574
 20
89.67597502385725
 30
0.0
 11
-112.2625429283251
 21
89.67597502385726
 31
0.0
  0
LINE
  5
16F
330
4E
100
AcDbEntity
  8
0
  6
Continuous
 62
     2
100
AcDbLine
 10
-112.7625429275574
 20
89.67597502385725
 30
0.0
 11
-112.7625429275461
 21
90.1759750244348
 31
0.0
  0
LINE
  5
170
330
4E
100
AcDbEntity
  8
0
  6
Continuous
 62
     7
100
AcDbLine
 10
-100.0893603285454
 20
90.52597502511426
 30
0.0
 11
-118.6357252898009
 21
90.5259750246799
 31
0.0
  0
LINE
  5
171
330
4E
100
AcDbEntity
  8
0
  6
Continuous
 62
     7
100
AcDbLine
 10
-112.7625429275461
 20
90.1759750244348
 30
0.0
 11
-113.3625429275452
 21
90.1759750244348
 31
0.0
  0
LINE
  5
172
330
4E
100
AcDbEntity
  8
0
  6
Continuous
 62
     7
100
AcDbLine
 10
-114.9904249880089
 20
89.67597502385718
 30
0.0
 11
-114.712542927872
 21
89.67597502385709
 31
0.0
  0
LINE
  5
173
330
4E
100
AcDbEntity
  8
0
  6
Continuous
 62
     7
100
AcDbLine
 10
-114.712542927872
 20
89.67597502385709
 30
0.0
 11
-114.5625429530713
 21
89.675975023857
 31
0.0
  0
LINE
  5
174
330
4E
100
AcDbEntity
  8
0
  6
Continuous
 62
     7
100
AcDbLine
 10
-114.5625429530713
 20
89.675975023857
 30
0.0
 11
-114.3125429541832
 21
89.67597502385692
 31
0.0
  0
LINE
  5
175
330
4E
100
AcDbEntity
  8
0
  6
Continuous
 62
     7
100
AcDbLine
 10
-119.8625429283
 20
90.52597502453938
 30
0.0
 11
-119.8625429282627
 21
84.37597502394189
 31
0.0
  0
LINE
  5
176
330
4E
100
AcDbEntity
  8
0
  6
Continuous
 62
     7
100
AcDbLine
 10
-119.0025106515138
 20
90.52597502456481
 30
0.0
 11
-119.0025106514765
 21
84.37597502394712
 31
0.0
  0
LINE
  5
177
330
4E
100
AcDbEntity
  8
0
  6
Continuous
 62
     7
100
AcDbLine
 10
-118.7868169287638
 20
90.52597502465849
 30
0.0
 11
-118.7868169287266
 21
84.37597502394873
 31
0.0
  0
LINE
  5
178
330
4E
100
AcDbEntity
  8
0
  6
Continuous
 62
     7
100
AcDbLine
 10
-118.6357252897637
 20
84.37597502395039
 30
0.0
 11
-114.5625427002175
 21
84.37597502397483
 31
0.0
  0
LINE
  5
179
330
4E
100
AcDbEntity
  8
0
  6
Continuous
 62
     7
100
AcDbLine
 10
-118.6357252898009
 20
90.5259750246799
 30
0.0
 11
-118.6357252897637
 21
84.37597502395039
 31
0.0
  0
LINE
  5
17A
330
4E
100
AcDbEntity
  8
0
  6
Continuous
 62
     7
100
AcDbLine
 10
-118.7868169287638
 20
90.52597502465849
 30
0.0
 11
-119.0025106515138
 21
90.52597502456481
 31
0.0
  0
LINE
  5
17B
330
4E
100
AcDbEntity
  8
0
  6
Continuous
 62
     7
100
AcDbLine
 10
-118.6357252898009
 20
90.5259750246799
 30
0.0
 11
-118.7868169287638
 21
90.52597502465849
 31
0.0
  0
LINE
  5
17C
330
4E
100
AcDbEntity
  8
0
  6
Continuous
 62
     7
100
AcDbLine
 10
-119.0025106515138
 20
90.52597502456481
 30
0.0
 11
-119.0356966024991
 21
90.52597502456011
 31
0.0
  0
LINE
  5
17D
330
4E
100
AcDbEntity
  8
0
  6
Continuous
 62
     7
100
AcDbLine
 10
-119.0356966024991
 20
90.52597502456011
 30
0.0
 11
-119.8625429283
 21
90.52597502453938
 31
0.0
  0
LINE
  5
17E
330
4E
100
AcDbEntity
  8
0
  6
Continuous
 62
     7
100
AcDbLine
 10
-119.8625429282627
 20
84.37597502394189
 30
0.0
 11
-119.0025106514765
 21
84.37597502394712
 31
0.0
  0
LINE
  5
17F
330
4E
100
AcDbEntity
  8
0
  6
Continuous
 62
     7
100
AcDbLine
 10
-111.5625429278429
 20
84.37597502399322
 30
0.0
 11
-111.5625429278444
 21
84.6358992679735
 31
0.0
  0
LINE
  5
180
330
4E
100
AcDbEntity
  8
0
  6
Continuous
 62
     7
100
AcDbLine
 10
-109.3125429281651
 20
89.67597502386764
 30
0.0
 11
-109.3125429281553
 21
85.87597502404533
 31
0.0
  0
LINE
  5
181
330
4E
100
AcDbEntity
  8
0
  6
Continuous
 62
     7
100
AcDbLine
 10
-112.7625429275616
 20
84.37644031581493
 30
0.0
 11
-113.3625429275296
 21
84.37597502398204
 31
0.0
  0
LINE
  5
182
330
4E
100
AcDbEntity
  8
0
  6
Continuous
 62
     7
100
AcDbLine
 10
-113.3625429275296
 20
84.37597502398204
 30
0.0
 11
-113.4166851869888
 21
84.37597502398171
 31
0.0
  0
LINE
  5
183
330
4E
100
AcDbEntity
  8
0
  6
Continuous
 62
     7
100
AcDbLine
 10
-113.4166851869888
 20
84.37597502398171
 30
0.0
 11
-114.5625427002175
 21
84.37597502397483
 31
0.0
  0
LINE
  5
184
330
4E
100
AcDbEntity
  8
0
  6
Continuous
 62
     7
100
AcDbLine
 10
-111.5625429278429
 20
84.37597502399322
 30
0.0
 11
-113.3625429275296
 21
84.37597502398204
 31
0.0
  0
ARC
  5
185
330
4E
100
AcDbEntity
  8
0
  6
Continuous
 62
     7
100
AcDbCircle
 10
-113.3625429275452
 20
87.27597502443481
 30
0.0
 40
2.900000000001182
100
AcDbArc
 50
124.1484243653123
 51
224.9999999996695
  0
ARC
  5
186
330
4E
100
AcDbEntity
  8
0
  6
Continuous
 62
     7
100
AcDbCircle
 10
-104.4625429274129
 20
87.77597502395008
 30
0.0
 40
1.050000000000049
100
AcDbArc
 50
163.3960038231629
 51
286.7862323174362
  0
ARC
  5
187
330
4E
100
AcDbEntity
  8
0
  6
Continuous
 62
     7
100
AcDbCircle
 10
-104.4625429274129
 20
87.77597502395008
 30
0.0
 40
1.049999999999019
100
AcDbArc
 50
286.7862323174362
 51
73.21376768286096
  0
ARC
  5
188
330
4E
100
AcDbEntity
  8
0
  6
Continuous
 62
     7
100
AcDbCircle
 10
-107.5125429279451
 20
87.77597502409378
 30
0.0
 40
1.000000000000025
100
AcDbArc
 50
293.5781784782451
 51
66.42182152056697
  0
ARC
  5
189
330
4E
100
AcDbEntity
  8
0
  6
Continuous
 62
     7
100
AcDbCircle
 10
-104.4625429274129
 20
87.77597502395008
 30
0.0
 40
1.04999999999941
100
AcDbArc
 50
73.21376768286096
 51
163.3960038231629
  0
ARC
  5
18A
330
4E
100
AcDbEntity
  8
0
  6
Continuous
 62
     7
100
AcDbCircle
 10
-113.3625429275484
 20
87.275975024437
 30
0.0
 40
2.900000000001225
100
AcDbArc
 50
224.9999999997447
 51
245.5566695058878
  0
ARC
  5
18B
330
4E
100
AcDbEntity
  8
0
  6
Continuous
 62
     7
100
AcDbCircle
 10
-112.7625429275461
 20
87.27597502445994
 30
0.0
 40
2.899999999874484
100
AcDbArc
 50
271.071770135635
 51
294.4433354223513
  0
ARC
  5
18C
330
4E
100
AcDbEntity
  8
0
  6
Continuous
 62
     7
100
AcDbCircle
 10
-112.2625429283548
 20
88.67597502382446
 30
0.0
 40
1.000000000032799
100
AcDbArc
 50
359.9999999993828
 51
89.99999999829826
  0
ARC
  5
18D
330
4E
100
AcDbEntity
  8
0
  6
Continuous
 62
     7
100
AcDbCircle
 10
-113.3625429275467
 20
87.27597502443514
 30
0.0
 40
2.899999999999665
100
AcDbArc
 50
89.99999999997053
 51
124.1484243652915
  0
ARC
  5
18E
330
4E
100
AcDbEntity
  8
0
  6
Continuous
 62
     7
100
AcDbCircle
 10
-107.5125429279451
 20
87.77597502409378
 30
0.0
 40
0.9999999999999631
100
AcDbArc
 50
113.5781784769709
 51
246.4218215209171
  0
ARC
  5
18F
330
4E
100
AcDbEntity
  8
0
  6
Continuous
 62
     7
100
AcDbCircle
 10
-112.762542927557
 20
87.27597502451016
 30
0.0
 40
2.899999999924632
100
AcDbArc
 50
294.443335422137
 51
89.99999999978438
  0
ARC
  5
190
330
4E
100
AcDbEntity
  8
0
  6
Continuous
 62
     7
100
AcDbCircle
 10
-112.26254292835
 20
86.87597502512963
 30
0.0
 40
1.000000000027939
100
AcDbArc
 50
270.000000000951
 51
359.9999999990807
  0
ARC
  5
191
330
4E
100
AcDbEntity
  8
0
  6
Continuous
 62
     7
100
AcDbCircle
 10
-113.3625429275467
 20
87.27597502443514
 30
0.0
 40
2.900000000000241
100
AcDbArc
 50
245.5566695058419
 51
268.9302402758822
  0
ARC
  5
192
330
4E
100
AcDbEntity
  8
0
  6
Continuous
 62
     7
100
AcDbCircle
 10
-113.3625429032917
 20
87.27597502420838
 30
0.0
 40
2.900000000226349
100
AcDbArc
 50
268.930239796672
 51
269.9999995211277
  0
SPLINE
  5
193
330
4E
100
AcDbEntity
  8
0
  6
Continuous
 62
     7
100
AcDbSpline
210
0.0
220
0.0
230
1.0
 70
    24
 71
     3
 72
    17
 73
    13
 74
    11
 42
0.000000001
 43
0.0000000001
 44
0.00000001
 40
0.0
 40
0.0
 40
0.0
 40
0.0
 40
0.1259943820445386
 40
0.256953042969613
 40
0.3917005197560428
 40
0.5266379665769989
 40
0.7841945662731717
 40
1.020672600510139
 40
1.235624732959536
 40
1.434304499059294
 40
1.621689325659034
 40
1.799999998700102
 40
1.799999998700102
 40
1.799999998700102
 40
1.799999998700102
 10
-111.262542928322
 20
86.87597502511359
 30
0.0
 10
-111.2625429283275
 20
86.91797315246177
 30
0.0
 10
-111.2625429283381
 20
87.00362416678497
 30
0.0
 10
-111.262542928352
 20
87.13419100670366
 30
0.0
 10
-111.2625429283637
 20
87.26773886821448
 30
0.0
 10
-111.2625429283758
 20
87.443486042649
 30
0.0
 10
-111.2625429283843
 20
87.65314340290034
 30
0.0
 10
-111.262542928385
 20
87.88947232502787
 30
0.0
 10
-111.262542928378
 20
88.10617563595657
 30
0.0
 10
-111.2625429283649
 20
88.30651454433952
 30
0.0
 10
-111.2625429283464
 20
88.49463963291974
 30
0.0
 10
-111.2625429283306
 20
88.6165381328
 30
0.0
 10
-111.262542928322
 20
88.67597502381369
 30
0.0
 11
-111.262542928322
 21
86.87597502511359
 31
0.0
 11
-111.2625429283358
 21
87.00196940715816
 31
0.0
 11
-111.2625429283382
 21
87.13292806808323
 31
0.0
 11
-111.2625429283386
 21
87.26767554486966
 31
0.0
 11
-111.2625429283388
 21
87.40261299169062
 31
0.0
 11
-111.2625429283391
 21
87.66016959138679
 31
0.0
 11
-111.262542928339
 21
87.89664762562376
 31
0.0
 11
-111.2625429283387
 21
88.11159975807314
 31
0.0
 11
-111.2625429283383
 21
88.3102795241729
 31
0.0
 11
-111.2625429283417
 21
88.49766435077262
 31
0.0
 11
-111.262542928322
 21
88.67597502381369
 31
0.0
  0
ENDBLK
  5
50
330
4E
100
AcDbEntity
  8
0
100
AcDbBlockEnd
  0
BLOCK
  5
53
330
51
100
AcDbEntity
  8
0
100
AcDbBlockBegin
  2
Drfsicht1
 70
     0
 10
-109.362543
 20
87.45097499999991
 30
0.0
  3
Drfsicht1
  1

  0
INSERT
  5
52
330
51
100
AcDbEntity
  8
0
100
AcDbBlockReference
  2
PP_H_4_1_GNYE-select__2
 10
-119.8625429283
 20
84.37597502394189
 30
0.0
  0
MTEXT
  5
194
330
51
100
AcDbEntity
  8
1
 62
     6
100
AcDbMText
 10
-109.5365625601556
 20
79.37597462084295
 30
0.0
 40
5.0
 41
0.0
 71
     2
 72
     1
  1
 
  7
CONVERTER_11
 73
     1
 44
1.32052821128451
  0
DIMENSION
  5
1A1
330
51
100
AcDbEntity
  8
1
100
AcDbDimension
  2
*D17
 10
-129.8625429283
 20
90.52597502453938
 30
0.0
 11
-133.2875429283
 21
98.56490569405578
 31
0.0
 70
    32
  1
<>
 71
     5
 42
-1.0
 53
90.0
  3
ME10_DIM_10
100
AcDbAlignedDimension
 13
-119.8625429282627
 23
84.37597502394189
 33
0.0
 14
-119.8625429283
 24
90.52597502453938
 34
0.0
 50
90.0
100
AcDbRotatedDimension
  0
ENDBLK
  5
54
330
51
100
AcDbEntity
  8
0
100
AcDbBlockEnd
  0
BLOCK
  5
56
330
55
100
AcDbEntity
  8
0
100
AcDbBlockBegin
  2
PP_H_4_1_GNYE-select__3
 70
     0
 10
-34.13745707190185
 20
120.9124999315588
 30
0.0
  3
PP_H_4_1_GNYE-select__3
  1

  0
LINE
  5
1A2
330
55
100
AcDbEntity
  8
0
  6
Continuous
 62
     7
100
AcDbLine
 10
-28.83745707191871
 20
122.5124999317132
 30
0.0
 11
-28.83745707191457
 21
137.4124999315084
 31
0.0
  0
LINE
  5
1A3
330
55
100
AcDbEntity
  8
0
  6
Continuous
 62
     7
100
AcDbLine
 10
-28.30412373851254
 20
120.9124999315588
 30
0.0
 11
-21.97079040517556
 21
120.9124999315588
 31
0.0
  0
LINE
  5
1A4
330
55
100
AcDbEntity
  8
0
  6
Continuous
 62
     7
100
AcDbLine
 10
-20.13745707186211
 20
130.4124999315593
 30
0.0
 11
-21.13745707185567
 21
130.612499931558
 31
0.0
  0
LINE
  5
1A5
330
55
100
AcDbEntity
  8
0
  6
Continuous
 62
     7
100
AcDbLine
 10
-21.13745707185567
 20
129.4124999315592
 30
0.0
 11
-20.13745707186222
 21
129.4124999315593
 31
0.0
  0
LINE
  5
1A6
330
55
100
AcDbEntity
  8
0
  6
Continuous
 62
     7
100
AcDbLine
 10
-21.13745707185567
 20
129.4124999315592
 30
0.0
 11
-21.13745707185567
 21
130.612499931558
 31
0.0
  0
LINE
  5
1A7
330
55
100
AcDbEntity
  8
0
  6
Continuous
 62
     7
100
AcDbLine
 10
-21.13745707184219
 20
123.4124999315589
 30
0.0
 11
-21.13745707185567
 21
127.4828292404078
 31
0.0
  0
LINE
  5
1A8
330
55
100
AcDbEntity
  8
0
  6
Continuous
 62
     7
100
AcDbLine
 10
-21.04956983144146
 20
123.6761616528539
 30
0.0
 11
-21.13745707184219
 21
123.4124999315589
 31
0.0
  0
LINE
  5
1A9
330
55
100
AcDbEntity
  8
0
  6
Continuous
 62
     7
100
AcDbLine
 10
-21.13745707185567
 20
127.4828292404078
 30
0.0
 11
-21.13745707185567
 21
129.4124999315592
 31
0.0
  0
LINE
  5
1AA
330
55
100
AcDbEntity
  8
0
  6
Continuous
 62
     7
100
AcDbLine
 10
-28.83745707191871
 20
122.5124999317132
 30
0.0
 11
-28.30412373851254
 21
120.9124999315588
 31
0.0
  0
LINE
  5
1AB
330
55
100
AcDbEntity
  8
0
  6
Continuous
 62
     7
100
AcDbLine
 10
-29.13745707186345
 20
123.4124999315481
 30
0.0
 11
-28.83745707191871
 21
122.5124999317132
 31
0.0
  0
LINE
  5
1AC
330
55
100
AcDbEntity
  8
0
  6
Continuous
 62
     7
100
AcDbLine
 10
-13.13745707165782
 20
142.4960768830651
 30
0.0
 11
-13.13745707165624
 21
138.5124999315559
 31
0.0
  0
LINE
  5
1AD
330
55
100
AcDbEntity
  8
0
  6
Continuous
 62
     7
100
AcDbLine
 10
-13.13745707165624
 20
138.5124999315559
 30
0.0
 11
-18.23745707182656
 21
138.5124999315561
 31
0.0
  0
LINE
  5
1AE
330
55
100
AcDbEntity
  8
0
  6
Continuous
 62
     7
100
AcDbLine
 10
-29.63745707186621
 20
135.1124999315592
 30
0.0
 11
-29.13745707186345
 21
135.1124999317161
 31
0.0
  0
LINE
  5
1AF
330
55
100
AcDbEntity
  8
0
  6
Continuous
 62
     7
100
AcDbLine
 10
-29.63745707186621
 20
137.5124999315593
 30
0.0
 11
-29.63745707186621
 21
135.1124999315592
 31
0.0
  0
LINE
  5
1B0
330
55
100
AcDbEntity
  8
0
  6
Continuous
 62
     7
100
AcDbLine
 10
-20.13745707186211
 20
133.2464745277749
 30
0.0
 11
-19.63745707186213
 21
135.1124999315593
 31
0.0
  0
LINE
  5
1B1
330
55
100
AcDbEntity
  8
0
  6
Continuous
 62
     7
100
AcDbLine
 10
-19.63745707186213
 20
135.1124999315593
 30
0.0
 11
-19.63745707186213
 21
135.7124999315593
 31
0.0
  0
LINE
  5
1B2
330
55
100
AcDbEntity
  8
0
  6
Continuous
 62
     7
100
AcDbLine
 10
-32.24858658278541
 20
155.3506750069024
 30
0.0
 11
-31.47776298601637
 21
161.628529416075
 31
0.0
  0
LINE
  5
1B3
330
55
100
AcDbEntity
  8
0
  6
Continuous
 62
     7
100
AcDbLine
 10
-15.79715137633406
 20
161.6285294160109
 30
0.0
 11
-15.02632777956079
 21
155.3506750068451
 31
0.0
  0
LINE
  5
1B4
330
55
100
AcDbEntity
  8
0
  6
Continuous
 62
     7
100
AcDbLine
 10
-13.99748934848611
 20
155.7513530856251
 30
0.0
 11
-13.13745707169991
 21
155.3862910430038
 31
0.0
  0
LINE
  5
1B5
330
55
100
AcDbEntity
  8
0
  6
Continuous
 62
     7
100
AcDbLine
 10
-14.73512699453926
 20
161.7589296133977
 30
0.0
 11
-15.79715137633406
 21
161.6285294160109
 31
0.0
  0
LINE
  5
1B6
330
55
100
AcDbEntity
  8
0
  6
Continuous
 62
     7
100
AcDbLine
 10
-14.21318307123605
 20
161.8569572815108
 30
0.0
 11
-14.70194104354493
 21
161.4886517319577
 31
0.0
  0
LINE
  5
1B7
330
55
100
AcDbEntity
  8
0
  6
Continuous
 62
     7
100
AcDbLine
 10
-14.70194104354493
 20
161.4886517319577
 30
0.0
 11
-14.73512699453926
 21
161.7589296133977
 31
0.0
  0
LINE
  5
1B8
330
55
100
AcDbEntity
  8
0
  6
Continuous
 62
     7
100
AcDbLine
 10
-14.36427471019894
 20
163.0874999317396
 30
0.0
 11
-14.21318307123605
 21
161.8569572815108
 31
0.0
  0
LINE
  5
1B9
330
55
100
AcDbEntity
  8
0
  6
Continuous
 62
     7
100
AcDbLine
 10
-32.91063967145451
 20
163.0874999317333
 30
0.0
 11
-14.36427471019894
 21
163.0874999317396
 31
0.0
  0
LINE
  5
1BA
330
55
100
AcDbEntity
  8
0
  6
Continuous
 62
     7
100
AcDbLine
 10
-32.53978736759179
 20
161.7589296134344
 30
0.0
 11
-32.57297331858356
 21
161.4886517320142
 31
0.0
  0
LINE
  5
1BB
330
55
100
AcDbEntity
  8
0
  6
Continuous
 62
     7
100
AcDbLine
 10
-31.47776298601637
 20
161.628529416075
 30
0.0
 11
-32.53978736759179
 21
161.7589296134344
 31
0.0
  0
LINE
  5
1BC
330
55
100
AcDbEntity
  8
0
  6
Continuous
 62
     7
100
AcDbLine
 10
-32.57297331858356
 20
161.4886517320142
 30
0.0
 11
-33.06173130875592
 21
161.8569572950281
 31
0.0
  0
LINE
  5
1BD
330
55
100
AcDbEntity
  8
0
  6
Continuous
 62
     7
100
AcDbLine
 10
-33.06173130875592
 20
161.8569572950281
 30
0.0
 11
-32.91063967145451
 21
163.0874999317333
 31
0.0
  0
LINE
  5
1BE
330
55
100
AcDbEntity
  8
0
  6
Continuous
 62
     7
100
AcDbLine
 10
-13.13745707169991
 20
155.3862910430038
 30
0.0
 11
-13.13745707169738
 21
149.0039229799511
 31
0.0
  0
LINE
  5
1BF
330
55
100
AcDbEntity
  8
0
  6
Continuous
 62
     7
100
AcDbLine
 10
-13.13745707169738
 20
149.0039229799511
 30
0.0
 11
-13.76745707169633
 21
148.6401923103622
 31
0.0
  0
LINE
  5
1C0
330
55
100
AcDbEntity
  8
0
  6
Continuous
 62
     7
100
AcDbLine
 10
-13.76745707165871
 20
148.9124999315182
 30
0.0
 11
-14.83745707166062
 21
148.9124999315179
 31
0.0
  0
LINE
  5
1C1
330
55
100
AcDbEntity
  8
0
  6
Continuous
 62
     7
100
AcDbLine
 10
-14.83745707166062
 20
148.9124999315179
 30
0.0
 11
-14.83745707165673
 21
142.5874999315128
 31
0.0
  0
LINE
  5
1C2
330
55
100
AcDbEntity
  8
0
  6
Continuous
 62
     7
100
AcDbLine
 10
-19.63745707186219
 20
138.5124999315561
 30
0.0
 11
-19.6374570718622
 21
138.0124999315593
 31
0.0
  0
LINE
  5
1C3
330
55
100
AcDbEntity
  8
0
  6
Continuous
 62
     7
100
AcDbLine
 10
-20.63745707187299
 20
138.5124999315561
 30
0.0
 11
-20.63745707187299
 21
135.1124999315593
 31
0.0
  0
LINE
  5
1C4
330
55
100
AcDbEntity
  8
0
  6
Continuous
 62
     7
100
AcDbLine
 10
-13.76745707169633
 20
148.6401923103622
 30
0.0
 11
-13.76745707165871
 21
148.9124999315182
 31
0.0
  0
LINE
  5
1C5
330
55
100
AcDbEntity
  8
0
  6
Continuous
 62
     7
100
AcDbLine
 10
-13.96430339750076
 20
155.4810752042645
 30
0.0
 11
-13.99748934848611
 21
155.7513530856251
 31
0.0
  0
LINE
  5
1C6
330
55
100
AcDbEntity
  8
0
  6
Continuous
 62
     7
100
AcDbLine
 10
-15.02632777956079
 20
155.3506750068451
 30
0.0
 11
-13.96430339750076
 21
155.4810752042645
 31
0.0
  0
LINE
  5
1C7
330
55
100
AcDbEntity
  8
0
  6
Continuous
 62
     7
100
AcDbLine
 10
-29.13745707186345
 20
135.1124999317161
 30
0.0
 11
-29.13745707186345
 21
123.4124999315481
 31
0.0
  0
LINE
  5
1C8
330
55
100
AcDbEntity
  8
0
  6
Continuous
 62
     7
100
AcDbLine
 10
-21.13745707185567
 20
130.612499931558
 30
0.0
 11
-21.13745707185567
 21
135.1124999315593
 31
0.0
  0
LINE
  5
1C9
330
55
100
AcDbEntity
  8
0
  6
Continuous
 62
     7
100
AcDbLine
 10
-20.1374570718621
 20
136.2124999315593
 30
0.0
 11
-20.13745707186221
 21
137.5124999315593
 31
0.0
  0
LINE
  5
1CA
330
55
100
AcDbEntity
  8
0
  6
Continuous
 62
     7
100
AcDbLine
 10
-20.63745707187299
 20
135.1124999315593
 30
0.0
 11
-21.13745707185567
 21
135.1124999315593
 31
0.0
  0
LINE
  5
1CB
330
55
100
AcDbEntity
  8
0
  6
Continuous
 62
     7
100
AcDbLine
 10
-21.13745707185567
 20
135.1124999315593
 30
0.0
 11
-21.13745707184219
 21
137.4124999315084
 31
0.0
  0
LINE
  5
1CC
330
55
100
AcDbEntity
  8
0
  6
Continuous
 62
     7
100
AcDbLine
 10
-21.97079040517556
 20
120.9124999315588
 30
0.0
 11
-21.13745707184219
 21
123.4124999315589
 31
0.0
  0
LINE
  5
1CD
330
55
100
AcDbEntity
  8
0
  6
Continuous
 62
     7
100
AcDbLine
 10
-20.13745707186211
 20
130.4124999315593
 30
0.0
 11
-20.13745707186211
 21
133.2464745277749
 31
0.0
  0
LINE
  5
1CE
330
55
100
AcDbEntity
  8
0
  6
Continuous
 62
     7
100
AcDbLine
 10
-20.13745707186222
 20
129.4124999315593
 30
0.0
 11
-20.13745707186211
 21
130.4124999315593
 31
0.0
  0
LINE
  5
1CF
330
55
100
AcDbEntity
  8
0
  6
Continuous
 62
     7
100
AcDbLine
 10
-17.73745707186197
 20
129.4124999315593
 30
0.0
 11
-20.13745707186222
 21
129.4124999315593
 31
0.0
  0
LINE
  5
1D0
330
55
100
AcDbEntity
  8
0
  6
Continuous
 62
     7
100
AcDbLine
 10
-17.73745707186197
 20
137.5124999315593
 30
0.0
 11
-17.73745707186197
 21
129.4124999315593
 31
0.0
  0
LINE
  5
1D1
330
55
100
AcDbEntity
  8
0
  6
Continuous
 62
     7
100
AcDbLine
 10
-33.31061096462854
 20
155.4810752042943
 30
0.0
 11
-32.24858658278541
 21
155.3506750069024
 31
0.0
  0
LINE
  5
1D2
330
55
100
AcDbEntity
  8
0
  6
Continuous
 62
     7
100
AcDbLine
 10
-33.27742501363497
 20
155.7513530857228
 30
0.0
 11
-33.31061096462854
 21
155.4810752042943
 31
0.0
  0
LINE
  5
1D3
330
55
100
AcDbEntity
  8
0
  6
Continuous
 62
     7
100
AcDbLine
 10
-34.13745707183665
 20
155.3862911358845
 30
0.0
 11
-33.27742501363497
 21
155.7513530857228
 31
0.0
  0
LINE
  5
1D4
330
55
100
AcDbEntity
  8
0
  6
Continuous
 62
     7
100
AcDbLine
 10
-34.13745707183665
 20
153.1132946561424
 30
0.0
 11
-34.13745707183665
 21
155.3862911358845
 31
0.0
  0
LINE
  5
1D5
330
55
100
AcDbEntity
  8
0
  6
Continuous
 62
     7
100
AcDbLine
 10
-34.13745707186823
 20
138.7504499963888
 30
0.0
 11
-33.27249868450858
 21
138.5124999315594
 31
0.0
  0
LINE
  5
1D6
330
55
100
AcDbEntity
  8
0
  6
Continuous
 62
     7
100
AcDbLine
 10
-13.76745707165856
 20
142.8598075526534
 30
0.0
 11
-13.13745707165782
 21
142.4960768830651
 31
0.0
  0
LINE
  5
1D7
330
55
100
AcDbEntity
  8
0
  6
Continuous
 62
     7
100
AcDbLine
 10
-21.13745707184219
 20
137.4124999315084
 30
0.0
 11
-28.83745707191457
 21
137.4124999315084
 31
0.0
  0
LINE
  5
1D8
330
55
100
AcDbEntity
  8
0
  6
Continuous
 62
     7
100
AcDbLine
 10
-33.27249868450858
 20
138.5124999315594
 30
0.0
 11
-29.63745707186621
 21
137.5124999315593
 31
0.0
  0
LINE
  5
1D9
330
55
100
AcDbEntity
  8
0
  6
Continuous
 62
     7
100
AcDbLine
 10
-17.73745707186197
 20
137.5124999315593
 30
0.0
 11
-20.13745707186221
 21
137.5124999315593
 31
0.0
  0
LINE
  5
1DA
330
55
100
AcDbEntity
  8
0
  6
Continuous
 62
     7
100
AcDbLine
 10
-18.23745707182656
 20
138.0124999315593
 30
0.0
 11
-18.23745707182656
 21
138.5124999315561
 31
0.0
  0
LINE
  5
1DB
330
55
100
AcDbEntity
  8
0
  6
Continuous
 62
     2
100
AcDbLine
 10
-19.6374570718622
 20
138.0124999315593
 30
0.0
 11
-18.23745707182656
 21
138.0124999315593
 31
0.0
  0
LINE
  5
1DC
330
55
100
AcDbEntity
  8
0
  6
Continuous
 62
     7
100
AcDbLine
 10
-28.83745707191464
 20
138.5124999315595
 30
0.0
 11
-28.83745707191457
 21
137.4124999315084
 31
0.0
  0
LINE
  5
1DD
330
55
100
AcDbEntity
  8
0
  6
Continuous
 62
     7
100
AcDbLine
 10
-21.13745707183642
 20
138.5124999315559
 30
0.0
 11
-21.13745707184219
 21
137.4124999315084
 31
0.0
  0
LINE
  5
1DE
330
55
100
AcDbEntity
  8
0
  6
Continuous
 62
     7
100
AcDbLine
 10
-20.63745707187299
 20
138.5124999315561
 30
0.0
 11
-21.13745707183642
 21
138.5124999315559
 31
0.0
  0
LINE
  5
1DF
330
55
100
AcDbEntity
  8
0
  6
Continuous
 62
     7
100
AcDbLine
 10
-18.23745707182656
 20
138.5124999315561
 30
0.0
 11
-19.63745707186219
 21
138.5124999315561
 31
0.0
  0
LINE
  5
1E0
330
55
100
AcDbEntity
  8
0
  6
Continuous
 62
     7
100
AcDbLine
 10
-19.63745707186219
 20
138.5124999315561
 30
0.0
 11
-20.63745707187299
 21
138.5124999315561
 31
0.0
  0
LINE
  5
1E1
330
55
100
AcDbEntity
  8
0
  6
Continuous
 62
     7
100
AcDbLine
 10
-34.13745707186823
 20
138.7504499963888
 30
0.0
 11
-34.13745707190185
 21
144.4617052068871
 31
0.0
  0
LINE
  5
1E2
330
55
100
AcDbEntity
  8
0
  6
Continuous
 62
     7
100
AcDbLine
 10
-33.27249868450858
 20
138.5124999315594
 30
0.0
 11
-28.83745707191464
 21
138.5124999315595
 31
0.0
  0
LINE
  5
1E3
330
55
100
AcDbEntity
  8
0
  6
Continuous
 62
     7
100
AcDbLine
 10
-13.76745707165777
 20
142.5874999315128
 30
0.0
 11
-13.76745707165856
 21
142.8598075526534
 31
0.0
  0
LINE
  5
1E4
330
55
100
AcDbEntity
  8
0
  6
Continuous
 62
     7
100
AcDbLine
 10
-14.83745707165673
 20
142.5874999315128
 30
0.0
 11
-13.76745707165777
 21
142.5874999315128
 31
0.0
  0
ARC
  5
1E5
330
55
100
AcDbEntity
  8
0
  6
Continuous
 62
     7
100
AcDbCircle
 10
-22.23745707187455
 20
125.8124999315655
 30
0.0
 40
2.00000000000478
100
AcDbArc
 50
327.9223455679389
 51
56.63298703021082
  0
ARC
  5
1E6
330
55
100
AcDbEntity
  8
0
  6
Continuous
 62
     7
100
AcDbCircle
 10
-16.30615334118889
 20
122.0950228227697
 30
0.0
 40
4.999999999999961
100
AcDbArc
 50
147.9223455680803
 51
161.5650511770779
  0
ARC
  5
1E7
330
55
100
AcDbEntity
  8
0
  6
Continuous
 62
     7
100
AcDbCircle
 10
-20.13745707186212
 20
135.7124999315593
 30
0.0
 40
0.4999999999999893
100
AcDbArc
 50
0.0
 51
89.99999999999797
  0
ARC
  5
1E8
330
55
100
AcDbEntity
  8
0
  6
Continuous
 62
     7
100
AcDbCircle
 10
-46.23745707186825
 20
148.787499931606
 30
0.0
 40
12.84999999998415
100
AcDbArc
 50
340.327842230515
 51
19.67215776862086
  0
ARC
  5
1E9
330
55
100
AcDbEntity
  8
0
  6
Continuous
 62
     7
100
AcDbCircle
 10
-17.73745707184426
 20
138.0124999315416
 30
0.0
 40
0.4999999999823004
100
AcDbArc
 50
179.9999999979742
 51
269.9999999979705
  0
ARC
  5
1EA
330
55
100
AcDbEntity
  8
0
  6
Continuous
 62
     7
100
AcDbCircle
 10
-20.13745707186215
 20
138.0124999315593
 30
0.0
 40
0.5
100
AcDbArc
 50
269.9999999999931
 51
0.0
  0
ENDBLK
  5
57
330
55
100
AcDbEntity
  8
0
100
AcDbBlockEnd
  0
BLOCK
  5
5A
330
58
100
AcDbEntity
  8
0
100
AcDbBlockBegin
  2
Rckans1
 70
     0
 10
-23.63745699999996
 20
142.0000000000001
 30
0.0
  3
Rckans1
  1

  0
INSERT
  5
59
330
58
100
AcDbEntity
  8
0
100
AcDbBlockReference
  2
PP_H_4_1_GNYE-select__3
 10
-34.13745707190185
 20
120.9124999315588
 30
0.0
  0
MTEXT
  5
1EB
330
58
100
AcDbEntity
  8
1
 62
     6
100
AcDbMText
 10
-23.46343743984392
 20
115.5259742962605
 30
0.0
 40
5.0
 41
0.0
 71
     2
 72
     1
  1
 
  7
CONVERTER_11
 73
     1
 44
1.32052821128451
  0
ENDBLK
  5
5B
330
58
100
AcDbEntity
  8
0
100
AcDbBlockEnd
  0
BLOCK
  5
5D
330
5C
100
AcDbEntity
  8
0
100
AcDbBlockBegin
  2
PP_H_4_1_GNYE-select__4
 70
     0
 10
-75.07500002508637
 20
120.9124999315587
 30
0.0
  3
PP_H_4_1_GNYE-select__4
  1

  0
LINE
  5
1EC
330
5C
100
AcDbEntity
  8
0
  6
Continuous
 62
     7
100
AcDbLine
 10
-75.07500002445627
 20
148.6401923103621
 30
0.0
 11
-68.92500002394546
 21
148.6401923103624
 31
0.0
  0
LINE
  5
1ED
330
5C
100
AcDbEntity
  8
0
  6
Continuous
 62
     7
100
AcDbLine
 10
-75.07500002448185
 20
138.5124999315558
 30
0.0
 11
-71.90000002384141
 21
138.5124999315559
 31
0.0
  0
LINE
  5
1EE
330
5C
100
AcDbEntity
  8
0
  6
Continuous
 62
     7
100
AcDbLine
 10
-75.07500002435233
 20
142.496076883065
 30
0.0
 11
-68.92500002394134
 21
142.4960768830653
 31
0.0
  0
LINE
  5
1EF
330
5C
100
AcDbEntity
  8
0
  6
Continuous
 62
     7
100
AcDbLine
 10
-75.07500002448185
 20
138.5124999315558
 30
0.0
 11
-75.0750000244659
 21
137.4124999314945
 31
0.0
  0
LINE
  5
1F0
330
5C
100
AcDbEntity
  8
0
  6
Continuous
 62
     2
100
AcDbLine
 10
-71.3000000238416
 20
138.0124999315592
 30
0.0
 11
-71.9000000238416
 21
138.0124999315592
 31
0.0
  0
LINE
  5
1F1
330
5C
100
AcDbEntity
  8
0
  6
Continuous
 62
     7
100
AcDbLine
 10
-70.80000002384118
 20
138.512499931556
 30
0.0
 11
-68.9250000239896
 21
138.5124999315561
 31
0.0
  0
LINE
  5
1F2
330
5C
100
AcDbEntity
  8
0
  6
Continuous
 62
     7
100
AcDbLine
 10
-75.07500002444681
 20
149.0039229799509
 30
0.0
 11
-68.92500002394166
 21
149.0039229799513
 31
0.0
  0
LINE
  5
1F3
330
5C
100
AcDbEntity
  8
0
  6
Continuous
 62
     7
100
AcDbLine
 10
-75.07500002437237
 20
142.8598075526533
 30
0.0
 11
-68.92500002394517
 21
142.8598075526536
 31
0.0
  0
LINE
  5
1F4
330
5C
100
AcDbEntity
  8
0
  6
Continuous
 62
     7
100
AcDbLine
 10
-75.07500002445627
 20
148.6401923103621
 30
0.0
 11
-75.07500002437237
 21
142.8598075526533
 31
0.0
  0
LINE
  5
1F5
330
5C
100
AcDbEntity
  8
0
  6
Continuous
 62
     7
100
AcDbLine
 10
-68.92500002395164
 20
142.587499931513
 30
0.0
 11
-68.92500002394517
 21
142.8598075526536
 31
0.0
  0
LINE
  5
1F6
330
5C
100
AcDbEntity
  8
0
  6
Continuous
 62
     7
100
AcDbLine
 10
-75.07500002437237
 20
142.8598075526533
 30
0.0
 11
-75.07500002439347
 21
142.5874999315126
 31
0.0
  0
LINE
  5
1F7
330
5C
100
AcDbEntity
  8
0
  6
Continuous
 62
     7
100
AcDbLine
 10
-75.07500002439347
 20
142.5874999315126
 30
0.0
 11
-75.07500002435233
 21
142.496076883065
 31
0.0
  0
LINE
  5
1F8
330
5C
100
AcDbEntity
  8
0
  6
Continuous
 62
     7
100
AcDbLine
 10
-68.92500002395164
 20
142.587499931513
 30
0.0
 11
-68.92500002394134
 21
142.4960768830653
 31
0.0
  0
LINE
  5
1F9
330
5C
100
AcDbEntity
  8
0
  6
Continuous
 62
     7
100
AcDbLine
 10
-75.07500002498652
 20
155.3506750069023
 30
0.0
 11
-75.07500002444681
 21
149.0039229799509
 31
0.0
  0
LINE
  5
1FA
330
5C
100
AcDbEntity
  8
0
  6
Continuous
 62
     7
100
AcDbLine
 10
-74.12500002384172
 20
123.4124999315588
 30
0.0
 11
-74.12500002384137
 21
137.4124999315083
 31
0.0
  0
LINE
  5
1FB
330
5C
100
AcDbEntity
  8
0
  6
Continuous
 62
     7
100
AcDbLine
 10
-74.12500002384137
 20
137.4124999315083
 30
0.0
 11
-75.0750000244659
 21
137.4124999314945
 31
0.0
  0
LINE
  5
1FC
330
5C
100
AcDbEntity
  8
0
  6
Continuous
 62
     7
100
AcDbLine
 10
-75.07500002453946
 20
155.3862910430037
 30
0.0
 11
-75.07500002498652
 21
155.3506750069023
 31
0.0
  0
LINE
  5
1FD
330
5C
100
AcDbEntity
  8
0
  6
Continuous
 62
     7
100
AcDbLine
 10
-75.07500002448529
 20
148.9124999315178
 30
0.0
 11
-75.07500002445627
 21
148.6401923103621
 31
0.0
  0
LINE
  5
1FE
330
5C
100
AcDbEntity
  8
0
  6
Continuous
 62
     7
100
AcDbLine
 10
-75.07500002444681
 20
149.0039229799509
 30
0.0
 11
-75.07500002448529
 21
148.9124999315178
 31
0.0
  0
LINE
  5
1FF
330
5C
100
AcDbEntity
  8
0
  6
Continuous
 62
     7
100
AcDbLine
 10
-75.07500002435233
 20
142.496076883065
 30
0.0
 11
-75.07500002448185
 21
138.5124999315558
 31
0.0
  0
LINE
  5
200
330
5C
100
AcDbEntity
  8
0
  6
Continuous
 62
     7
100
AcDbLine
 10
-75.07500002508323
 20
161.488651732014
 30
0.0
 11
-75.07500002501644
 21
155.7513530857227
 31
0.0
  0
LINE
  5
201
330
5C
100
AcDbEntity
  8
0
  6
Continuous
 62
     7
100
AcDbLine
 10
-75.07500002508637
 20
161.7589296134343
 30
0.0
 11
-75.07500002508323
 21
161.488651732014
 31
0.0
  0
LINE
  5
202
330
5C
100
AcDbEntity
  8
0
  6
Continuous
 62
     7
100
AcDbLine
 10
-70.90000002384139
 20
127.4828292404076
 30
0.0
 11
-71.90000002384166
 21
127.4828292404077
 31
0.0
  0
LINE
  5
203
330
5C
100
AcDbEntity
  8
0
  6
Continuous
 62
     2
100
AcDbLine
 10
-70.90000002384149
 20
124.7503636147618
 30
0.0
 11
-71.90000002384177
 21
124.7503636147618
 31
0.0
  0
LINE
  5
204
330
5C
100
AcDbEntity
  8
0
  6
Continuous
 62
     7
100
AcDbLine
 10
-71.90000002384177
 20
124.7503636147618
 30
0.0
 11
-71.90000002384166
 21
127.4828292404077
 31
0.0
  0
LINE
  5
205
330
5C
100
AcDbEntity
  8
0
  6
Continuous
 62
     7
100
AcDbLine
 10
-70.90000002384149
 20
124.7503636147618
 30
0.0
 11
-70.90000002384139
 21
127.4828292404076
 31
0.0
  0
LINE
  5
206
330
5C
100
AcDbEntity
  8
0
  6
Continuous
 62
     2
100
AcDbLine
 10
-70.90000002384149
 20
123.6761616528504
 30
0.0
 11
-71.90000002384176
 21
123.6761616528538
 31
0.0
  0
LINE
  5
207
330
5C
100
AcDbEntity
  8
0
  6
Continuous
 62
     7
100
AcDbLine
 10
-71.90000002384177
 20
124.7503636147618
 30
0.0
 11
-71.90000002384176
 21
123.6761616528538
 31
0.0
  0
LINE
  5
208
330
5C
100
AcDbEntity
  8
0
  6
Continuous
 62
     7
100
AcDbLine
 10
-71.30000002384135
 20
138.512499931556
 30
0.0
 11
-70.80000002384118
 21
138.512499931556
 31
0.0
  0
LINE
  5
209
330
5C
100
AcDbEntity
  8
0
  6
Continuous
 62
     7
100
AcDbLine
 10
-70.90000002384149
 20
124.7503636147618
 30
0.0
 11
-70.90000002384149
 21
123.6761616528504
 31
0.0
  0
LINE
  5
20A
330
5C
100
AcDbEntity
  8
0
  6
Continuous
 62
     7
100
AcDbLine
 10
-70.8000000238416
 20
137.5124999315591
 30
0.0
 11
-70.80000002384175
 21
129.4124999315591
 31
0.0
  0
LINE
  5
20B
330
5C
100
AcDbEntity
  8
0
  6
Continuous
 62
     7
100
AcDbLine
 10
-70.80000002384118
 20
138.512499931556
 30
0.0
 11
-70.8000000238416
 21
137.5124999315591
 31
0.0
  0
LINE
  5
20C
330
5C
100
AcDbEntity
  8
0
  6
Continuous
 62
     7
100
AcDbLine
 10
-71.30000002384135
 20
138.512499931556
 30
0.0
 11
-71.3000000238416
 21
138.0124999315592
 31
0.0
  0
LINE
  5
20D
330
5C
100
AcDbEntity
  8
0
  6
Continuous
 62
     7
100
AcDbLine
 10
-70.90000002384149
 20
123.412499931559
 30
0.0
 11
-70.90000002384149
 21
123.6761616528504
 31
0.0
  0
LINE
  5
20E
330
5C
100
AcDbEntity
  8
0
  6
Continuous
 62
     7
100
AcDbLine
 10
-70.80000002384175
 20
129.4124999315591
 30
0.0
 11
-72.40000002384186
 21
129.4124999315592
 31
0.0
  0
LINE
  5
20F
330
5C
100
AcDbEntity
  8
0
  6
Continuous
 62
     7
100
AcDbLine
 10
-68.92500002394517
 20
142.8598075526536
 30
0.0
 11
-68.92500002394546
 21
148.6401923103624
 31
0.0
  0
LINE
  5
210
330
5C
100
AcDbEntity
  8
0
  6
Continuous
 62
     7
100
AcDbLine
 10
-69.0750000237872
 20
123.4124999315591
 30
0.0
 11
-69.07500002379015
 21
121.9124999317155
 31
0.0
  0
LINE
  5
211
330
5C
100
AcDbEntity
  8
0
  6
Continuous
 62
     7
100
AcDbLine
 10
-69.07500002378791
 20
137.4124999315586
 30
0.0
 11
-69.0750000237872
 21
123.4124999315591
 31
0.0
  0
LINE
  5
212
330
5C
100
AcDbEntity
  8
0
  6
Continuous
 62
     7
100
AcDbLine
 10
-68.9250000239896
 20
138.5124999315561
 30
0.0
 11
-68.92500002399021
 21
137.4124999315586
 31
0.0
  0
LINE
  5
213
330
5C
100
AcDbEntity
  8
0
  6
Continuous
 62
     7
100
AcDbLine
 10
-68.92500002399021
 20
137.4124999315586
 30
0.0
 11
-69.07500002378791
 21
137.4124999315586
 31
0.0
  0
LINE
  5
214
330
5C
100
AcDbEntity
  8
0
  6
Continuous
 62
     7
100
AcDbLine
 10
-68.92500002406399
 20
155.7513530857229
 30
0.0
 11
-68.92500002406418
 21
155.4810752042945
 31
0.0
  0
LINE
  5
215
330
5C
100
AcDbEntity
  8
0
  6
Continuous
 62
     7
100
AcDbLine
 10
-68.92500002406418
 20
155.4810752042945
 30
0.0
 11
-68.92500002394199
 21
155.386291043004
 31
0.0
  0
LINE
  5
216
330
5C
100
AcDbEntity
  8
0
  6
Continuous
 62
     7
100
AcDbLine
 10
-68.92500002394199
 20
155.386291043004
 30
0.0
 11
-68.92500002405774
 21
155.3506750069026
 31
0.0
  0
LINE
  5
217
330
5C
100
AcDbEntity
  8
0
  6
Continuous
 62
     7
100
AcDbLine
 10
-68.92500002405983
 20
161.7589296134346
 30
0.0
 11
-68.92500002406001
 21
161.4886517320144
 31
0.0
  0
LINE
  5
218
330
5C
100
AcDbEntity
  8
0
  6
Continuous
 62
     7
100
AcDbLine
 10
-68.92500002394546
 20
148.6401923103624
 30
0.0
 11
-68.92500002395195
 21
148.9124999315181
 31
0.0
  0
LINE
  5
219
330
5C
100
AcDbEntity
  8
0
  6
Continuous
 62
     7
100
AcDbLine
 10
-68.92500002394883
 20
161.856957281511
 30
0.0
 11
-68.92500002395047
 21
163.0874999317397
 31
0.0
  0
LINE
  5
21A
330
5C
100
AcDbEntity
  8
0
  6
Continuous
 62
     7
100
AcDbLine
 10
-68.92500002394883
 20
161.856957281511
 30
0.0
 11
-68.92500002405983
 21
161.7589296134346
 31
0.0
  0
LINE
  5
21B
330
5C
100
AcDbEntity
  8
0
  6
Continuous
 62
     7
100
AcDbLine
 10
-68.9250000239896
 20
138.5124999315561
 30
0.0
 11
-68.92500002394134
 21
142.4960768830653
 31
0.0
  0
LINE
  5
21C
330
5C
100
AcDbEntity
  8
0
  6
Continuous
 62
     7
100
AcDbLine
 10
-68.92500002394166
 20
149.0039229799513
 30
0.0
 11
-68.92500002405774
 21
155.3506750069026
 31
0.0
  0
LINE
  5
21D
330
5C
100
AcDbEntity
  8
0
  6
Continuous
 62
     7
100
AcDbLine
 10
-68.92500002394166
 20
149.0039229799513
 30
0.0
 11
-68.92500002395195
 21
148.9124999315181
 31
0.0
  0
LINE
  5
21E
330
5C
100
AcDbEntity
  8
0
  6
Continuous
 62
     7
100
AcDbLine
 10
-70.8000000238416
 20
137.5124999315591
 30
0.0
 11
-72.40000002384166
 21
137.5124999315592
 31
0.0
  0
LINE
  5
21F
330
5C
100
AcDbEntity
  8
0
  6
Continuous
 62
     7
100
AcDbLine
 10
-71.90000002384141
 20
138.5124999315559
 30
0.0
 11
-71.30000002384135
 21
138.512499931556
 31
0.0
  0
LINE
  5
220
330
5C
100
AcDbEntity
  8
0
  6
Continuous
 62
     7
100
AcDbLine
 10
-71.90000002384176
 20
123.6761616528538
 30
0.0
 11
-71.90000002384176
 21
123.4124999315589
 31
0.0
  0
LINE
  5
221
330
5C
100
AcDbEntity
  8
0
  6
Continuous
 62
     7
100
AcDbLine
 10
-72.40000002384166
 20
137.5124999315592
 30
0.0
 11
-72.40000002384186
 21
129.4124999315592
 31
0.0
  0
LINE
  5
222
330
5C
100
AcDbEntity
  8
0
  6
Continuous
 62
     7
100
AcDbLine
 10
-71.90000002384141
 20
138.5124999315559
 30
0.0
 11
-71.9000000238416
 21
138.0124999315592
 31
0.0
  0
LINE
  5
223
330
5C
100
AcDbEntity
  8
0
  6
Continuous
 62
     7
100
AcDbLine
 10
-74.12500002384172
 20
120.9124999315587
 30
0.0
 11
-74.12500002384172
 21
123.4124999315588
 31
0.0
  0
LINE
  5
224
330
5C
100
AcDbEntity
  8
0
  6
Continuous
 62
     7
100
AcDbLine
 10
-73.47500002384115
 20
121.9124999315589
 30
0.0
 11
-69.07500002379015
 21
121.9124999317155
 31
0.0
  0
LINE
  5
225
330
5C
100
AcDbEntity
  8
0
  6
Continuous
 62
     7
100
AcDbLine
 10
-70.90000002384149
 20
123.412499931559
 30
0.0
 11
-69.0750000237872
 21
123.4124999315591
 31
0.0
  0
LINE
  5
226
330
5C
100
AcDbEntity
  8
0
  6
Continuous
 62
     7
100
AcDbLine
 10
-74.12500002384172
 20
123.4124999315588
 30
0.0
 11
-71.90000002384176
 21
123.4124999315589
 31
0.0
  0
LINE
  5
227
330
5C
100
AcDbEntity
  8
0
  6
Continuous
 62
     7
100
AcDbLine
 10
-73.47500002384136
 20
120.9124999315587
 30
0.0
 11
-74.12500002384172
 21
120.9124999315587
 31
0.0
  0
LINE
  5
228
330
5C
100
AcDbEntity
  8
0
  6
Continuous
 62
     7
100
AcDbLine
 10
-73.47500002384115
 20
121.9124999315589
 30
0.0
 11
-73.47500002384136
 21
120.9124999315587
 31
0.0
  0
LINE
  5
229
330
5C
100
AcDbEntity
  8
0
  6
Continuous
 62
     7
100
AcDbLine
 10
-75.07500002453946
 20
155.3862910430037
 30
0.0
 11
-68.92500002394199
 21
155.386291043004
 31
0.0
  0
LINE
  5
22A
330
5C
100
AcDbEntity
  8
0
  6
Continuous
 62
     7
100
AcDbLine
 10
-75.07500002508323
 20
161.488651732014
 30
0.0
 11
-68.92500002406001
 21
161.4886517320144
 31
0.0
  0
LINE
  5
22B
330
5C
100
AcDbEntity
  8
0
  6
Continuous
 62
     7
100
AcDbLine
 10
-75.07500002501644
 20
155.7513530857227
 30
0.0
 11
-68.92500002406399
 21
155.7513530857229
 31
0.0
  0
LINE
  5
22C
330
5C
100
AcDbEntity
  8
0
  6
Continuous
 62
     7
100
AcDbLine
 10
-75.07500002465859
 20
161.8569572815107
 30
0.0
 11
-75.07500002508637
 21
161.7589296134343
 31
0.0
  0
LINE
  5
22D
330
5C
100
AcDbEntity
  8
0
  6
Continuous
 62
     7
100
AcDbLine
 10
-75.07500002501644
 20
155.7513530857227
 30
0.0
 11
-75.07500002501328
 21
155.4810752042942
 31
0.0
  0
LINE
  5
22E
330
5C
100
AcDbEntity
  8
0
  6
Continuous
 62
     7
100
AcDbLine
 10
-75.07500002501328
 20
155.4810752042942
 30
0.0
 11
-75.07500002453946
 21
155.3862910430037
 31
0.0
  0
LINE
  5
22F
330
5C
100
AcDbEntity
  8
0
  6
Continuous
 62
     7
100
AcDbLine
 10
-75.07500002468
 20
163.0874999317394
 30
0.0
 11
-75.07500002465859
 21
161.8569572815107
 31
0.0
  0
LINE
  5
230
330
5C
100
AcDbEntity
  8
0
  6
Continuous
 62
     7
100
AcDbLine
 10
-68.92500002395047
 20
163.0874999317397
 30
0.0
 11
-75.07500002468
 21
163.0874999317394
 31
0.0
  0
LINE
  5
231
330
5C
100
AcDbEntity
  8
0
  6
Continuous
 62
     7
100
AcDbLine
 10
-75.07500002465859
 20
161.8569572815107
 30
0.0
 11
-68.92500002394883
 21
161.856957281511
 31
0.0
  0
LINE
  5
232
330
5C
100
AcDbEntity
  8
0
  6
Continuous
 62
     7
100
AcDbLine
 10
-68.92500002406399
 20
155.7513530857229
 30
0.0
 11
-68.92500002406001
 21
161.4886517320144
 31
0.0
  0
ARC
  5
233
330
5C
100
AcDbEntity
  8
0
  6
Continuous
 62
     7
100
AcDbCircle
 10
-72.40000002384164
 20
138.0124999315592
 30
0.0
 40
0.5
100
AcDbArc
 50
269.9999999999984
 51
0.0
  0
ARC
  5
234
330
5C
100
AcDbEntity
  8
0
  6
Continuous
 62
     7
100
AcDbCircle
 10
-70.80000002384165
 20
138.0124999315592
 30
0.0
 40
0.4999999999999574
100
AcDbArc
 50
180.0
 51
270.0000000000049
  0
CIRCLE
  5
235
330
5C
100
AcDbEntity
  8
0
  6
Continuous
 62
     7
100
AcDbCircle
 10
-72.00000002382556
 20
152.1874999315814
 30
0.0
 40
1.050000000000011
  0
ENDBLK
  5
5E
330
5C
100
AcDbEntity
  8
0
100
AcDbBlockEnd
  0
BLOCK
  5
61
330
5F
100
AcDbEntity
  8
0
100
AcDbBlockBegin
  2
SA_Links1
 70
     0
 10
-72.0
 20
142.0
 30
0.0
  3
SA_Links1
  1

  0
INSERT
  5
60
330
5F
100
AcDbEntity
  8
0
100
AcDbBlockReference
  2
PP_H_4_1_GNYE-select__4
 10
-75.07500002508637
 20
120.9124999315587
 30
0.0
  0
MTEXT
  5
236
330
5F
100
AcDbEntity
  8
1
 62
     6
100
AcDbMText
 10
-72.0
 20
115.5259742962605
 30
0.0
 40
5.0
 41
0.0
 71
     2
 72
     1
  1
 
  7
CONVERTER_11
 73
     1
 44
1.32052821128451
  0
ENDBLK
  5
62
330
5F
100
AcDbEntity
  8
0
100
AcDbBlockEnd
  0
BLOCK
  5
64
330
63
100
AcDbEntity
  8
0
100
AcDbBlockBegin
  2
PP_H_4_1_GNYE-select__5
 70
     0
 10
-171.1481229760251
 20
120.9124999315587
 30
0.0
  3
PP_H_4_1_GNYE-select__5
  1

  0
LINE
  5
237
330
63
100
AcDbEntity
  8
0
  6
Continuous
 62
     7
100
AcDbLine
 10
-165.9481229761589
 20
122.5124999317131
 30
0.0
 11
-169.4481229761591
 21
122.512499931713
 31
0.0
  0
LINE
  5
238
330
63
100
AcDbEntity
  8
0
  6
Continuous
 62
     7
100
AcDbLine
 10
-165.99812297616
 20
143.2374999315587
 30
0.0
 11
-170.5481229759308
 21
143.2374999315533
 31
0.0
  0
LINE
  5
239
330
63
100
AcDbEntity
  8
0
  6
Continuous
 62
     7
100
AcDbLine
 10
-170.9981229761606
 20
137.4124999315586
 30
0.0
 11
-171.1481229759583
 21
137.4124999315586
 31
0.0
  0
LINE
  5
23A
330
63
100
AcDbEntity
  8
0
  6
Continuous
 62
     7
100
AcDbLine
 10
-171.148122975959
 20
137.5124999315593
 30
0.0
 11
-171.1481229759583
 21
137.4124999315586
 31
0.0
  0
LINE
  5
23B
330
63
100
AcDbEntity
  8
0
  6
Continuous
 62
     7
100
AcDbLine
 10
-170.5481229759355
 20
140.4124999315586
 30
0.0
 11
-170.548122975958
 21
141.6214840986208
 31
0.0
  0
LINE
  5
23C
330
63
100
AcDbEntity
  8
0
  6
Continuous
 62
     7
100
AcDbLine
 10
-170.5481229759399
 20
142.2124999315586
 30
0.0
 11
-170.5481229759308
 21
142.7124999315679
 31
0.0
  0
LINE
  5
23D
330
63
100
AcDbEntity
  8
0
  6
Continuous
 62
     7
100
AcDbLine
 10
-170.548122975958
 20
141.6214840986208
 30
0.0
 11
-170.5481229759399
 21
142.2124999315586
 31
0.0
  0
LINE
  5
23E
330
63
100
AcDbEntity
  8
0
  6
Continuous
 62
     7
100
AcDbLine
 10
-170.5481229759309
 20
139.6624999315449
 30
0.0
 11
-170.5481229759355
 21
140.4124999315586
 31
0.0
  0
LINE
  5
23F
330
63
100
AcDbEntity
  8
0
  6
Continuous
 62
     7
100
AcDbLine
 10
-165.99812297616
 20
149.9616774669712
 30
0.0
 11
-165.99812297616
 21
144.4617052068868
 31
0.0
  0
LINE
  5
240
330
63
100
AcDbEntity
  8
0
  6
Continuous
 62
     7
100
AcDbLine
 10
-165.9981229761601
 20
152.5173222299406
 30
0.0
 11
-165.99812297616
 21
149.9616774669712
 31
0.0
  0
LINE
  5
241
330
63
100
AcDbEntity
  8
0
  6
Continuous
 62
     7
100
AcDbLine
 10
-165.9981229761602
 20
153.1132946561423
 30
0.0
 11
-165.9981229761601
 21
152.5173222299406
 31
0.0
  0
LINE
  5
242
330
63
100
AcDbEntity
  8
0
  6
Continuous
 62
     7
100
AcDbLine
 10
-169.4481229761591
 20
123.412499931548
 30
0.0
 11
-169.4481229761591
 21
122.512499931713
 31
0.0
  0
LINE
  5
243
330
63
100
AcDbEntity
  8
0
  6
Continuous
 62
     7
100
AcDbLine
 10
-171.1481229760182
 20
157.4874999317917
 30
0.0
 11
-171.1481229760251
 21
158.5874999317918
 31
0.0
  0
LINE
  5
244
330
63
100
AcDbEntity
  8
0
  6
Continuous
 62
     2
100
AcDbLine
 10
-170.5481229759342
 20
150.5583479884913
 30
0.0
 11
-171.1481229759342
 21
150.5583479884914
 31
0.0
  0
LINE
  5
245
330
63
100
AcDbEntity
  8
0
  6
Continuous
 62
     7
100
AcDbLine
 10
-171.148122975936
 20
155.7513530857229
 30
0.0
 11
-171.1481229760182
 21
157.4874999317917
 31
0.0
  0
LINE
  5
246
330
63
100
AcDbEntity
  8
0
  6
Continuous
 62
     7
100
AcDbLine
 10
-171.1481229759308
 20
155.3862911358847
 30
0.0
 11
-171.148122975936
 21
155.7513530857229
 31
0.0
  0
LINE
  5
247
330
63
100
AcDbEntity
  8
0
  6
Continuous
 62
     7
100
AcDbLine
 10
-170.5481229759342
 20
150.5583479884913
 30
0.0
 11
-170.5481229759388
 21
151.9311427880891
 31
0.0
  0
LINE
  5
248
330
63
100
AcDbEntity
  8
0
  6
Continuous
 62
     7
100
AcDbLine
 10
-170.5481229759389
 20
149.9616774669711
 30
0.0
 11
-170.5481229759307
 21
144.461705206887
 31
0.0
  0
LINE
  5
249
330
63
100
AcDbEntity
  8
0
  6
Continuous
 62
     7
100
AcDbLine
 10
-170.5481229759342
 20
150.5583479884913
 30
0.0
 11
-170.5481229759389
 21
149.9616774669711
 31
0.0
  0
LINE
  5
24A
330
63
100
AcDbEntity
  8
0
  6
Continuous
 62
     7
100
AcDbLine
 10
-171.1481229759342
 20
150.5583479884914
 30
0.0
 11
-171.1481229759307
 21
144.4617052068871
 31
0.0
  0
LINE
  5
24B
330
63
100
AcDbEntity
  8
0
  6
Continuous
 62
     7
100
AcDbLine
 10
-171.1481229759342
 20
150.5583479884914
 30
0.0
 11
-171.1481229759388
 21
151.9311427880891
 31
0.0
  0
LINE
  5
24C
330
63
100
AcDbEntity
  8
0
  6
Continuous
 62
     7
100
AcDbLine
 10
-171.1481229759309
 20
153.3374999315597
 30
0.0
 11
-171.1481229759395
 21
152.5173222299405
 31
0.0
  0
LINE
  5
24D
330
63
100
AcDbEntity
  8
0
  6
Continuous
 62
     7
100
AcDbLine
 10
-171.1481229759309
 20
153.3374999315597
 30
0.0
 11
-171.1481229759308
 21
155.3862911358847
 31
0.0
  0
LINE
  5
24E
330
63
100
AcDbEntity
  8
0
  6
Continuous
 62
     7
100
AcDbLine
 10
-165.5981229761598
 20
140.4124999315588
 30
0.0
 11
-165.5981229761595
 21
141.6214840986328
 31
0.0
  0
LINE
  5
24F
330
63
100
AcDbEntity
  8
0
  6
Continuous
 62
     7
100
AcDbLine
 10
-164.9981229751273
 20
144.4617052068867
 30
0.0
 11
-165.99812297616
 21
144.4617052068868
 31
0.0
  0
LINE
  5
250
330
63
100
AcDbEntity
  8
0
  6
Continuous
 62
     7
100
AcDbLine
 10
-165.5981229761598
 20
142.2124999315587
 30
0.0
 11
-165.5981229761599
 21
142.7124999315579
 31
0.0
  0
LINE
  5
251
330
63
100
AcDbEntity
  8
0
  6
Continuous
 62
     7
100
AcDbLine
 10
-165.5981229761595
 20
141.6214840986328
 30
0.0
 11
-165.5981229761598
 21
142.2124999315587
 31
0.0
  0
LINE
  5
252
330
63
100
AcDbEntity
  8
0
  6
Continuous
 62
     7
100
AcDbLine
 10
-165.5981229761599
 20
139.6624999315612
 30
0.0
 11
-165.5981229761598
 21
140.4124999315588
 31
0.0
  0
LINE
  5
253
330
63
100
AcDbEntity
  8
0
  6
Continuous
 62
     7
100
AcDbLine
 10
-164.9981229752102
 20
138.7504499963887
 30
0.0
 11
-164.9981229751273
 21
144.4617052068867
 31
0.0
  0
LINE
  5
254
330
63
100
AcDbEntity
  8
0
  6
Continuous
 62
     7
100
AcDbLine
 10
-165.99812297616
 20
143.2374999315587
 30
0.0
 11
-165.99812297616
 21
144.4617052068868
 31
0.0
  0
LINE
  5
255
330
63
100
AcDbEntity
  8
0
  6
Continuous
 62
     7
100
AcDbLine
 10
-165.9981229761602
 20
153.1132946561423
 30
0.0
 11
-165.9981229761602
 21
153.3374999315598
 31
0.0
  0
LINE
  5
256
330
63
100
AcDbEntity
  8
0
  6
Continuous
 62
     7
100
AcDbLine
 10
-164.9981229749836
 20
155.7513530857226
 30
0.0
 11
-164.9981229749168
 21
161.488651732014
 31
0.0
  0
LINE
  5
257
330
63
100
AcDbEntity
  8
0
  6
Continuous
 62
     7
100
AcDbLine
 10
-164.9981229750017
 20
153.1132946561423
 30
0.0
 11
-165.9981229761602
 21
153.1132946561423
 31
0.0
  0
LINE
  5
258
330
63
100
AcDbEntity
  8
0
  6
Continuous
 62
     7
100
AcDbLine
 10
-164.9981229750017
 20
153.1132946561423
 30
0.0
 11
-164.9981229749687
 21
155.3862911358843
 31
0.0
  0
LINE
  5
259
330
63
100
AcDbEntity
  8
0
  6
Continuous
 62
     7
100
AcDbLine
 10
-164.9981229749
 20
161.856957295028
 30
0.0
 11
-164.9981229748857
 21
163.0874999317331
 31
0.0
  0
LINE
  5
25A
330
63
100
AcDbEntity
  8
0
  6
Continuous
 62
     7
100
AcDbLine
 10
-165.9481229761589
 20
122.5124999317131
 30
0.0
 11
-165.9481229761592
 21
137.4124999315083
 31
0.0
  0
LINE
  5
25B
330
63
100
AcDbEntity
  8
0
  6
Continuous
 62
     7
100
AcDbLine
 10
-165.9481229761589
 20
122.5124999317131
 30
0.0
 11
-165.9481229761588
 21
120.9124999315587
 31
0.0
  0
LINE
  5
25C
330
63
100
AcDbEntity
  8
0
  6
Continuous
 62
     7
100
AcDbLine
 10
-166.598122976159
 20
120.9124999315587
 30
0.0
 11
-166.5981229761587
 21
121.9124999315581
 31
0.0
  0
LINE
  5
25D
330
63
100
AcDbEntity
  8
0
  6
Continuous
 62
     7
100
AcDbLine
 10
-166.598122976159
 20
120.9124999315587
 30
0.0
 11
-165.9481229761588
 21
120.9124999315587
 31
0.0
  0
LINE
  5
25E
330
63
100
AcDbEntity
  8
0
  6
Continuous
 62
     7
100
AcDbLine
 10
-164.9981229749
 20
161.856957295028
 30
0.0
 11
-171.148122975937
 21
161.8569572950283
 31
0.0
  0
LINE
  5
25F
330
63
100
AcDbEntity
  8
0
  6
Continuous
 62
     7
100
AcDbLine
 10
-164.9981229749168
 20
161.488651732014
 30
0.0
 11
-171.14812297594
 21
161.4886517320144
 31
0.0
  0
LINE
  5
260
330
63
100
AcDbEntity
  8
0
  6
Continuous
 62
     7
100
AcDbLine
 10
-171.1481229759395
 20
152.5173222299405
 30
0.0
 11
-165.9981229761601
 21
152.5173222299406
 31
0.0
  0
LINE
  5
261
330
63
100
AcDbEntity
  8
0
  6
Continuous
 62
     7
100
AcDbLine
 10
-165.99812297616
 20
149.9616774669712
 30
0.0
 11
-170.5481229759389
 21
149.9616774669711
 31
0.0
  0
LINE
  5
262
330
63
100
AcDbEntity
  8
0
  6
Continuous
 62
     7
100
AcDbLine
 10
-170.5481229759307
 20
144.461705206887
 30
0.0
 11
-171.1481229759307
 21
144.4617052068871
 31
0.0
  0
LINE
  5
263
330
63
100
AcDbEntity
  8
0
  6
Continuous
 62
     7
100
AcDbLine
 10
-171.1481229759307
 20
144.4617052068871
 30
0.0
 11
-171.1481229759317
 21
138.750449996389
 31
0.0
  0
LINE
  5
264
330
63
100
AcDbEntity
  8
0
  6
Continuous
 62
     7
100
AcDbLine
 10
-171.148122975959
 20
137.5124999315593
 30
0.0
 11
-169.4481229761595
 21
137.5124999315592
 31
0.0
  0
LINE
  5
265
330
63
100
AcDbEntity
  8
0
  6
Continuous
 62
     7
100
AcDbLine
 10
-169.4481229761598
 20
138.5124999315593
 30
0.0
 11
-169.4481229761595
 21
137.5124999315592
 31
0.0
  0
LINE
  5
266
330
63
100
AcDbEntity
  8
0
  6
Continuous
 62
     7
100
AcDbLine
 10
-171.1481229759317
 20
138.750449996389
 30
0.0
 11
-171.148122975959
 21
137.5124999315593
 31
0.0
  0
LINE
  5
267
330
63
100
AcDbEntity
  8
0
  6
Continuous
 62
     7
100
AcDbLine
 10
-170.5481229759308
 20
143.2374999315533
 30
0.0
 11
-170.5481229759307
 21
144.461705206887
 31
0.0
  0
LINE
  5
268
330
63
100
AcDbEntity
  8
0
  6
Continuous
 62
     7
100
AcDbLine
 10
-171.1481229759395
 20
152.5173222299405
 30
0.0
 11
-171.1481229759388
 21
151.9311427880891
 31
0.0
  0
LINE
  5
269
330
63
100
AcDbEntity
  8
0
  6
Continuous
 62
     7
100
AcDbLine
 10
-170.5481229759388
 20
151.9311427880891
 30
0.0
 11
-171.1481229759388
 21
151.9311427880891
 31
0.0
  0
LINE
  5
26A
330
63
100
AcDbEntity
  8
0
  6
Continuous
 62
     7
100
AcDbLine
 10
-164.9981229749687
 20
155.3862911358843
 30
0.0
 11
-171.1481229759308
 21
155.3862911358847
 31
0.0
  0
LINE
  5
26B
330
63
100
AcDbEntity
  8
0
  6
Continuous
 62
     7
100
AcDbLine
 10
-164.9981229749836
 20
155.7513530857226
 30
0.0
 11
-171.148122975936
 21
155.7513530857229
 31
0.0
  0
LINE
  5
26C
330
63
100
AcDbEntity
  8
0
  6
Continuous
 62
     7
100
AcDbLine
 10
-171.1481229759309
 20
153.3374999315597
 30
0.0
 11
-165.9981229761602
 21
153.3374999315598
 31
0.0
  0
LINE
  5
26D
330
63
100
AcDbEntity
  8
0
  6
Continuous
 62
     7
100
AcDbLine
 10
-164.9981229749687
 20
155.3862911358843
 30
0.0
 11
-164.9981229749836
 21
155.7513530857226
 31
0.0
  0
LINE
  5
26E
330
63
100
AcDbEntity
  8
0
  6
Continuous
 62
     7
100
AcDbLine
 10
-164.9981229749168
 20
161.488651732014
 30
0.0
 11
-164.9981229749
 21
161.856957295028
 31
0.0
  0
LINE
  5
26F
330
63
100
AcDbEntity
  8
0
  6
Continuous
 62
     7
100
AcDbLine
 10
-170.9981229761644
 20
123.4124999315481
 30
0.0
 11
-170.9981229761638
 21
135.1124999315591
 31
0.0
  0
LINE
  5
270
330
63
100
AcDbEntity
  8
0
  6
Continuous
 62
     7
100
AcDbLine
 10
-170.9981229761638
 20
135.1124999315591
 30
0.0
 11
-170.9981229761606
 21
137.4124999315586
 31
0.0
  0
LINE
  5
271
330
63
100
AcDbEntity
  8
0
  6
Continuous
 62
     7
100
AcDbLine
 10
-169.4481229761591
 20
123.412499931548
 30
0.0
 11
-170.9981229761644
 21
123.4124999315481
 31
0.0
  0
LINE
  5
272
330
63
100
AcDbEntity
  8
0
  6
Continuous
 62
     7
100
AcDbLine
 10
-169.4481229761594
 20
135.112499931716
 30
0.0
 11
-170.9981229761638
 21
135.1124999315591
 31
0.0
  0
LINE
  5
273
330
63
100
AcDbEntity
  8
0
  6
Continuous
 62
     7
100
AcDbLine
 10
-170.9981229761675
 20
121.9124999317158
 30
0.0
 11
-166.5981229761587
 21
121.9124999315581
 31
0.0
  0
LINE
  5
274
330
63
100
AcDbEntity
  8
0
  6
Continuous
 62
     7
100
AcDbLine
 10
-170.9981229761675
 20
121.9124999317158
 30
0.0
 11
-170.9981229761644
 21
123.4124999315481
 31
0.0
  0
LINE
  5
275
330
63
100
AcDbEntity
  8
0
  6
Continuous
 62
     7
100
AcDbLine
 10
-169.4481229761594
 20
135.112499931716
 30
0.0
 11
-169.4481229761591
 21
123.412499931548
 31
0.0
  0
LINE
  5
276
330
63
100
AcDbEntity
  8
0
  6
Continuous
 62
     7
100
AcDbLine
 10
-171.148122975937
 20
161.8569572950283
 30
0.0
 11
-171.1481229760249
 21
163.0874999317383
 31
0.0
  0
LINE
  5
277
330
63
100
AcDbEntity
  8
0
  6
Continuous
 62
     7
100
AcDbLine
 10
-171.1481229760251
 20
158.5874999317918
 30
0.0
 11
-171.14812297594
 21
161.4886517320144
 31
0.0
  0
LINE
  5
278
330
63
100
AcDbEntity
  8
0
  6
Continuous
 62
     7
100
AcDbLine
 10
-169.4481229761595
 20
137.5124999315592
 30
0.0
 11
-169.4481229761594
 21
135.112499931716
 31
0.0
  0
LINE
  5
279
330
63
100
AcDbEntity
  8
0
  6
Continuous
 62
     7
100
AcDbLine
 10
-164.9981229748857
 20
163.0874999317331
 30
0.0
 11
-171.1481229760249
 21
163.0874999317383
 31
0.0
  0
LINE
  5
27A
330
63
100
AcDbEntity
  8
0
  6
Continuous
 62
     7
100
AcDbLine
 10
-171.14812297594
 20
161.4886517320144
 30
0.0
 11
-171.148122975937
 21
161.8569572950283
 31
0.0
  0
LINE
  5
27B
330
63
100
AcDbEntity
  8
0
  6
Continuous
 62
     7
100
AcDbLine
 10
-164.9981229752339
 20
138.5124999315594
 30
0.0
 11
-164.9981229753538
 21
137.4124999314945
 31
0.0
  0
LINE
  5
27C
330
63
100
AcDbEntity
  8
0
  6
Continuous
 62
     7
100
AcDbLine
 10
-165.5981229761599
 20
139.6624999315612
 30
0.0
 11
-170.5481229759309
 21
139.6624999315449
 31
0.0
  0
LINE
  5
27D
330
63
100
AcDbEntity
  8
0
  6
Continuous
 62
     7
100
AcDbLine
 10
-164.9981229752102
 20
138.7504499963887
 30
0.0
 11
-171.1481229759317
 21
138.750449996389
 31
0.0
  0
LINE
  5
27E
330
63
100
AcDbEntity
  8
0
  6
Continuous
 62
     7
100
AcDbLine
 10
-164.9981229752102
 20
138.7504499963887
 30
0.0
 11
-164.9981229752339
 21
138.5124999315594
 31
0.0
  0
LINE
  5
27F
330
63
100
AcDbEntity
  8
0
  6
Continuous
 62
     7
100
AcDbLine
 10
-169.4481229761598
 20
138.5124999315593
 30
0.0
 11
-164.9981229752339
 21
138.5124999315594
 31
0.0
  0
LINE
  5
280
330
63
100
AcDbEntity
  8
0
  6
Continuous
 62
     7
100
AcDbLine
 10
-170.5481229759308
 20
142.7124999315679
 30
0.0
 11
-165.5981229761599
 21
142.7124999315579
 31
0.0
  0
LINE
  5
281
330
63
100
AcDbEntity
  8
0
  6
Continuous
 62
     7
100
AcDbLine
 10
-165.5981229761598
 20
142.2124999315587
 30
0.0
 11
-170.5481229759399
 21
142.2124999315586
 31
0.0
  0
LINE
  5
282
330
63
100
AcDbEntity
  8
0
  6
Continuous
 62
     2
100
AcDbLine
 10
-165.5981229761595
 20
141.6214840986328
 30
0.0
 11
-170.548122975958
 21
141.6214840986208
 31
0.0
  0
LINE
  5
283
330
63
100
AcDbEntity
  8
0
  6
Continuous
 62
     7
100
AcDbLine
 10
-165.5981229761598
 20
140.4124999315588
 30
0.0
 11
-170.5481229759355
 21
140.4124999315586
 31
0.0
  0
LINE
  5
284
330
63
100
AcDbEntity
  8
0
  6
Continuous
 62
     7
100
AcDbLine
 10
-165.9481229761592
 20
137.4124999315083
 30
0.0
 11
-164.9981229753538
 21
137.4124999314945
 31
0.0
  0
LINE
  5
285
330
63
100
AcDbEntity
  8
0
  6
Continuous
 62
     7
100
AcDbLine
 10
-164.9981229750017
 20
153.1132946561423
 30
0.0
 11
-164.9981229751273
 21
144.4617052068867
 31
0.0
  0
ENDBLK
  5
65
330
63
100
AcDbEntity
  8
0
100
AcDbBlockEnd
  0
BLOCK
  5
68
330
66
100
AcDbEntity
  8
0
100
AcDbBlockBegin
  2
SA_Rechts1
 70
     0
 10
-168.073123
 20
142.0
 30
0.0
  3
SA_Rechts1
  1

  0
INSERT
  5
67
330
66
100
AcDbEntity
  8
0
100
AcDbBlockReference
  2
PP_H_4_1_GNYE-select__5
 10
-171.1481229760251
 20
120.9124999315587
 30
0.0
  0
MTEXT
  5
286
330
66
100
AcDbEntity
  8
1
 62
     6
100
AcDbMText
 10
-168.0731231203116
 20
115.5259742962605
 30
0.0
 40
5.0
 41
0.0
 71
     2
 72
     1
  1
 
  7
CONVERTER_11
 73
     1
 44
1.32052821128451
  0
ENDBLK
  5
69
330
66
100
AcDbEntity
  8
0
100
AcDbBlockEnd
  0
BLOCK
  5
6B
330
6A
100
AcDbEntity
  8
0
100
AcDbBlockBegin
  2
PP_H_4_1_GNYE-select__6
 70
     0
 10
-119.8625429283063
 20
120.9124999315587
 30
0.0
  3
PP_H_4_1_GNYE-select__6
  1

  0
LINE
  5
287
330
6A
100
AcDbEntity
  8
0
  6
Continuous
 62
     7
100
AcDbLine
 10
-98.86254292809434
 20
138.750449996389
 30
0.0
 11
-103.3625429281233
 21
137.5124999315593
 31
0.0
  0
LINE
  5
288
330
6A
100
AcDbEntity
  8
0
  6
Continuous
 62
     2
100
AcDbLine
 10
-113.3625429281376
 20
138.0124999315592
 30
0.0
 11
-114.7625429281733
 21
138.0124999315592
 31
0.0
  0
LINE
  5
289
330
6A
100
AcDbEntity
  8
0
  6
Continuous
 62
     7
100
AcDbLine
 10
-112.8625429281377
 20
137.5124999315591
 30
0.0
 11
-115.2625429281379
 21
137.5124999315591
 31
0.0
  0
LINE
  5
28A
330
6A
100
AcDbEntity
  8
0
  6
Continuous
 62
     7
100
AcDbLine
 10
-114.7625429281733
 20
138.512499931556
 30
0.0
 11
-114.7625429281733
 21
138.0124999315592
 31
0.0
  0
LINE
  5
28B
330
6A
100
AcDbEntity
  8
0
  6
Continuous
 62
     7
100
AcDbLine
 10
-113.3625429281376
 20
138.512499931556
 30
0.0
 11
-112.3625429281269
 21
138.512499931556
 31
0.0
  0
LINE
  5
28C
330
6A
100
AcDbEntity
  8
0
  6
Continuous
 62
     7
100
AcDbLine
 10
-114.7625429281733
 20
138.512499931556
 30
0.0
 11
-113.3625429281376
 21
138.512499931556
 31
0.0
  0
LINE
  5
28D
330
6A
100
AcDbEntity
  8
0
  6
Continuous
 62
     7
100
AcDbLine
 10
-112.762542927548
 20
157.4874999318831
 30
0.0
 11
-113.3625429275295
 21
157.4874999329006
 31
0.0
  0
LINE
  5
28E
330
6A
100
AcDbEntity
  8
0
  6
Continuous
 62
     7
100
AcDbLine
 10
-119.0025106514765
 20
155.7513530856253
 30
0.0
 11
-119.0356966024623
 21
155.4810752042648
 31
0.0
  0
LINE
  5
28F
330
6A
100
AcDbEntity
  8
0
  6
Continuous
 62
     7
100
AcDbLine
 10
-119.2325429282662
 20
148.6401923103624
 30
0.0
 11
-119.2325429283039
 21
148.9124999315184
 31
0.0
  0
LINE
  5
290
330
6A
100
AcDbEntity
  8
0
  6
Continuous
 62
     7
100
AcDbLine
 10
-119.2325429283039
 20
148.9124999315184
 30
0.0
 11
-118.162542928302
 21
148.9124999315181
 31
0.0
  0
LINE
  5
291
330
6A
100
AcDbEntity
  8
0
  6
Continuous
 62
     7
100
AcDbLine
 10
-119.0356966024623
 20
155.4810752042648
 30
0.0
 11
-117.9736722204018
 21
155.3506750068453
 31
0.0
  0
LINE
  5
292
330
6A
100
AcDbEntity
  8
0
  6
Continuous
 62
     7
100
AcDbLine
 10
-119.8625429282627
 20
155.386291043004
 30
0.0
 11
-119.0025106514765
 21
155.7513530856253
 31
0.0
  0
LINE
  5
293
330
6A
100
AcDbEntity
  8
0
  6
Continuous
 62
     7
100
AcDbLine
 10
-119.8625429282652
 20
149.0039229799512
 30
0.0
 11
-119.2325429282662
 21
148.6401923103624
 31
0.0
  0
LINE
  5
294
330
6A
100
AcDbEntity
  8
0
  6
Continuous
 62
     7
100
AcDbLine
 10
-119.232542928304
 20
142.8598075526536
 30
0.0
 11
-119.8625429283048
 21
142.4960768830653
 31
0.0
  0
LINE
  5
295
330
6A
100
AcDbEntity
  8
0
  6
Continuous
 62
     7
100
AcDbLine
 10
-119.8625429283063
 20
138.5124999315561
 30
0.0
 11
-119.8625429283048
 21
142.4960768830653
 31
0.0
  0
LINE
  5
296
330
6A
100
AcDbEntity
  8
0
  6
Continuous
 62
     7
100
AcDbLine
 10
-119.8625429283063
 20
138.5124999315561
 30
0.0
 11
-114.7625429281733
 21
138.512499931556
 31
0.0
  0
LINE
  5
297
330
6A
100
AcDbEntity
  8
0
  6
Continuous
 62
     7
100
AcDbLine
 10
-119.8625429282652
 20
149.0039229799512
 30
0.0
 11
-119.8625429282627
 21
155.386291043004
 31
0.0
  0
LINE
  5
298
330
6A
100
AcDbEntity
  8
0
  6
Continuous
 62
     7
100
AcDbLine
 10
-112.8625429281377
 20
129.4124999315591
 30
0.0
 11
-111.8625429281405
 21
129.4124999315591
 31
0.0
  0
LINE
  5
299
330
6A
100
AcDbEntity
  8
0
  6
Continuous
 62
     7
100
AcDbLine
 10
-112.8625429281377
 20
129.4124999315591
 30
0.0
 11
-115.2625429281379
 21
129.4124999315591
 31
0.0
  0
LINE
  5
29A
330
6A
100
AcDbEntity
  8
0
  6
Continuous
 62
     7
100
AcDbLine
 10
-111.8625429281405
 20
129.4124999315591
 30
0.0
 11
-111.8625429281381
 21
127.4828292404076
 31
0.0
  0
LINE
  5
29B
330
6A
100
AcDbEntity
  8
0
  6
Continuous
 62
     7
100
AcDbLine
 10
-117.9736722204018
 20
155.3506750068453
 30
0.0
 11
-117.2028486236285
 21
161.6285294160111
 31
0.0
  0
LINE
  5
29C
330
6A
100
AcDbEntity
  8
0
  6
Continuous
 62
     7
100
AcDbLine
 10
-118.1625429283058
 20
142.587499931513
 30
0.0
 11
-118.162542928302
 21
148.9124999315181
 31
0.0
  0
LINE
  5
29D
330
6A
100
AcDbEntity
  8
0
  6
Continuous
 62
     7
100
AcDbLine
 10
-114.5625427002174
 20
158.5874999317918
 30
0.0
 11
-114.5625427002158
 21
163.0874999317383
 31
0.0
  0
LINE
  5
29E
330
6A
100
AcDbEntity
  8
0
  6
Continuous
 62
     7
100
AcDbLine
 10
-115.2625429281379
 20
137.5124999315591
 30
0.0
 11
-115.2625429281379
 21
129.4124999315591
 31
0.0
  0
LINE
  5
29F
330
6A
100
AcDbEntity
  8
0
  6
Continuous
 62
     7
100
AcDbLine
 10
-118.2648730054233
 20
161.7589296133979
 30
0.0
 11
-118.2980589564177
 21
161.4886517319578
 31
0.0
  0
LINE
  5
2A0
330
6A
100
AcDbEntity
  8
0
  6
Continuous
 62
     7
100
AcDbLine
 10
-118.2648730054233
 20
161.7589296133979
 30
0.0
 11
-117.2028486236285
 21
161.6285294160111
 31
0.0
  0
LINE
  5
2A1
330
6A
100
AcDbEntity
  8
0
  6
Continuous
 62
     7
100
AcDbLine
 10
-118.6357252897636
 20
163.0874999317397
 30
0.0
 11
-114.5625427002158
 21
163.0874999317383
 31
0.0
  0
LINE
  5
2A2
330
6A
100
AcDbEntity
  8
0
  6
Continuous
 62
     7
100
AcDbLine
 10
-118.1625429283058
 20
142.587499931513
 30
0.0
 11
-119.2325429283048
 21
142.587499931513
 31
0.0
  0
LINE
  5
2A3
330
6A
100
AcDbEntity
  8
0
  6
Continuous
 62
     7
100
AcDbLine
 10
-119.2325429283048
 20
142.587499931513
 30
0.0
 11
-119.232542928304
 21
142.8598075526536
 31
0.0
  0
LINE
  5
2A4
330
6A
100
AcDbEntity
  8
0
  6
Continuous
 62
     7
100
AcDbLine
 10
-118.7868169287265
 20
161.856957281511
 30
0.0
 11
-118.6357252897636
 21
163.0874999317397
 31
0.0
  0
LINE
  5
2A5
330
6A
100
AcDbEntity
  8
0
  6
Continuous
 62
     7
100
AcDbLine
 10
-118.7868169287265
 20
161.856957281511
 30
0.0
 11
-118.2980589564177
 21
161.4886517319578
 31
0.0
  0
LINE
  5
2A6
330
6A
100
AcDbEntity
  8
0
  6
Continuous
 62
     7
100
AcDbLine
 10
-100.7521396468415
 20
153.9861123860868
 30
0.0
 11
-100.2625429281259
 21
152.5173222299405
 31
0.0
  0
LINE
  5
2A7
330
6A
100
AcDbEntity
  8
0
  6
Continuous
 62
     7
100
AcDbLine
 10
-100.2625429281259
 20
152.5173222299405
 30
0.0
 11
-100.2625429281259
 21
151.9311427880891
 31
0.0
  0
LINE
  5
2A8
330
6A
100
AcDbEntity
  8
0
  6
Continuous
 62
     7
100
AcDbLine
 10
-98.86254292809434
 20
144.4617052068871
 30
0.0
 11
-98.86254292809434
 21
138.750449996389
 31
0.0
  0
LINE
  5
2A9
330
6A
100
AcDbEntity
  8
0
  6
Continuous
 62
     7
100
AcDbLine
 10
-103.3625429281233
 20
137.5124999315593
 30
0.0
 11
-103.3625429281242
 21
137.4124999315586
 31
0.0
  0
LINE
  5
2AA
330
6A
100
AcDbEntity
  8
0
  6
Continuous
 62
     7
100
AcDbLine
 10
-111.8625429281271
 20
137.4124999315586
 30
0.0
 11
-103.3625429281242
 21
137.4124999315586
 31
0.0
  0
LINE
  5
2AB
330
6A
100
AcDbEntity
  8
0
  6
Continuous
 62
     7
100
AcDbLine
 10
-103.3625429281242
 20
135.1124999315591
 30
0.0
 11
-103.3625429281242
 21
137.4124999315586
 31
0.0
  0
LINE
  5
2AC
330
6A
100
AcDbEntity
  8
0
  6
Continuous
 62
     7
100
AcDbLine
 10
-103.862542928127
 20
135.1124999315591
 30
0.0
 11
-103.3625429281242
 21
135.1124999315591
 31
0.0
  0
LINE
  5
2AD
330
6A
100
AcDbEntity
  8
0
  6
Continuous
 62
     7
100
AcDbLine
 10
-98.86254292812592
 20
153.3374999315597
 30
0.0
 11
-99.16254292812593
 21
153.3374999315597
 31
0.0
  0
LINE
  5
2AE
330
6A
100
AcDbEntity
  8
0
  6
Continuous
 62
     7
100
AcDbLine
 10
-98.86254292815713
 20
153.1132946561423
 30
0.0
 11
-98.86254292812592
 21
153.3374999315597
 31
0.0
  0
LINE
  5
2AF
330
6A
100
AcDbEntity
  8
0
  6
Continuous
 62
     7
100
AcDbLine
 10
-99.66254292812594
 20
153.8374999315597
 30
0.0
 11
-99.66254292812593
 21
154.1442262690952
 31
0.0
  0
LINE
  5
2B0
330
6A
100
AcDbEntity
  8
0
  6
Continuous
 62
     7
100
AcDbLine
 10
-100.1625429281259
 20
154.6442262690952
 30
0.0
 11
-100.2777979978163
 21
154.6442262690952
 31
0.0
  0
LINE
  5
2B1
330
6A
100
AcDbEntity
  8
0
  6
Continuous
 62
     7
100
AcDbLine
 10
-98.86254292812592
 20
153.3374999315597
 30
0.0
 11
-98.86254292812592
 21
155.3862911358847
 31
0.0
  0
LINE
  5
2B2
330
6A
100
AcDbEntity
  8
0
  6
Continuous
 62
     7
100
AcDbLine
 10
-99.68938903533405
 20
155.4810752042945
 30
0.0
 11
-100.7514134171772
 21
155.3506750069026
 31
0.0
  0
LINE
  5
2B3
330
6A
100
AcDbEntity
  8
0
  6
Continuous
 62
     7
100
AcDbLine
 10
-98.86254292812592
 20
155.3862911358847
 30
0.0
 11
-99.7225749863276
 21
155.7513530857229
 31
0.0
  0
LINE
  5
2B4
330
6A
100
AcDbEntity
  8
0
  6
Continuous
 62
     7
100
AcDbLine
 10
-99.7225749863276
 20
155.7513530857229
 30
0.0
 11
-99.68938903533405
 21
155.4810752042945
 31
0.0
  0
LINE
  5
2B5
330
6A
100
AcDbEntity
  8
0
  6
Continuous
 62
     7
100
AcDbLine
 10
-112.8625429281377
 20
133.2464745277748
 30
0.0
 11
-112.8625429281377
 21
130.4124999315591
 31
0.0
  0
LINE
  5
2B6
330
6A
100
AcDbEntity
  8
0
  6
Continuous
 62
     7
100
AcDbLine
 10
-112.8625429281377
 20
130.4124999315591
 30
0.0
 11
-112.8625429281377
 21
129.4124999315591
 31
0.0
  0
LINE
  5
2B7
330
6A
100
AcDbEntity
  8
0
  6
Continuous
 62
     7
100
AcDbLine
 10
-111.8625429281405
 20
130.6124999315586
 30
0.0
 11
-112.8625429281377
 21
130.4124999315591
 31
0.0
  0
LINE
  5
2B8
330
6A
100
AcDbEntity
  8
0
  6
Continuous
 62
     7
100
AcDbLine
 10
-111.8625429281405
 20
130.6124999315586
 30
0.0
 11
-111.8625429281405
 21
129.4124999315591
 31
0.0
  0
LINE
  5
2B9
330
6A
100
AcDbEntity
  8
0
  6
Continuous
 62
     7
100
AcDbLine
 10
-111.8625429281381
 20
123.412499931559
 30
0.0
 11
-111.3625429282058
 21
121.9124999317153
 31
0.0
  0
LINE
  5
2BA
330
6A
100
AcDbEntity
  8
0
  6
Continuous
 62
     7
100
AcDbLine
 10
-111.0292095948203
 20
120.9124999315587
 30
0.0
 11
-104.6958762614834
 21
120.9124999315587
 31
0.0
  0
LINE
  5
2BB
330
6A
100
AcDbEntity
  8
0
  6
Continuous
 62
     7
100
AcDbLine
 10
-111.3625429282058
 20
121.9124999317153
 30
0.0
 11
-111.0292095948203
 21
120.9124999315587
 31
0.0
  0
LINE
  5
2BC
330
6A
100
AcDbEntity
  8
0
  6
Continuous
 62
     7
100
AcDbLine
 10
-104.6958762614834
 20
120.9124999315587
 30
0.0
 11
-104.3625429280978
 21
121.9124999317155
 31
0.0
  0
LINE
  5
2BD
330
6A
100
AcDbEntity
  8
0
  6
Continuous
 62
     7
100
AcDbLine
 10
-103.862542928127
 20
123.4124999315481
 30
0.0
 11
-103.862542928127
 21
135.1124999315591
 31
0.0
  0
LINE
  5
2BE
330
6A
100
AcDbEntity
  8
0
  6
Continuous
 62
     7
100
AcDbLine
 10
-104.3625429280978
 20
121.9124999317155
 30
0.0
 11
-111.3625429282058
 21
121.9124999317153
 31
0.0
  0
LINE
  5
2BF
330
6A
100
AcDbEntity
  8
0
  6
Continuous
 62
     7
100
AcDbLine
 10
-111.8625429281381
 20
127.4828292404076
 30
0.0
 11
-111.8625429281381
 21
123.412499931559
 31
0.0
  0
LINE
  5
2C0
330
6A
100
AcDbEntity
  8
0
  6
Continuous
 62
     7
100
AcDbLine
 10
-111.8625429281381
 20
123.412499931559
 30
0.0
 11
-111.9504301685686
 21
123.6761616528503
 31
0.0
  0
LINE
  5
2C1
330
6A
100
AcDbEntity
  8
0
  6
Continuous
 62
     7
100
AcDbLine
 10
-104.3625429280978
 20
121.9124999317155
 30
0.0
 11
-103.862542928127
 21
123.4124999315481
 31
0.0
  0
LINE
  5
2C2
330
6A
100
AcDbEntity
  8
0
  6
Continuous
 62
     7
100
AcDbLine
 10
-111.5625429278429
 20
163.0874999317373
 30
0.0
 11
-112.7625429275461
 21
163.0874999317375
 31
0.0
  0
LINE
  5
2C3
330
6A
100
AcDbEntity
  8
0
  6
Continuous
 62
     7
100
AcDbLine
 10
-112.8625429281377
 20
133.2464745277748
 30
0.0
 11
-113.3625429281377
 21
135.1124999315591
 31
0.0
  0
LINE
  5
2C4
330
6A
100
AcDbEntity
  8
0
  6
Continuous
 62
     7
100
AcDbLine
 10
-111.5625429278429
 20
163.0874999317373
 30
0.0
 11
-111.5625429277719
 21
158.5874999348965
 31
0.0
  0
LINE
  5
2C5
330
6A
100
AcDbEntity
  8
0
  6
Continuous
 62
     7
100
AcDbLine
 10
-100.7514134171772
 20
155.3506750069026
 30
0.0
 11
-101.5222370139462
 21
161.6285294160752
 31
0.0
  0
LINE
  5
2C6
330
6A
100
AcDbEntity
  8
0
  6
Continuous
 62
     7
100
AcDbLine
 10
-111.5625429278429
 20
163.0874999317373
 30
0.0
 11
-100.0893603285081
 21
163.0874999317335
 31
0.0
  0
LINE
  5
2C7
330
6A
100
AcDbEntity
  8
0
  6
Continuous
 62
     7
100
AcDbLine
 10
-112.3625429281269
 20
138.512499931556
 30
0.0
 11
-112.3625429281269
 21
135.1124999315591
 31
0.0
  0
LINE
  5
2C8
330
6A
100
AcDbEntity
  8
0
  6
Continuous
 62
     7
100
AcDbLine
 10
-113.3625429281376
 20
138.0124999315592
 30
0.0
 11
-113.3625429281376
 21
138.512499931556
 31
0.0
  0
LINE
  5
2C9
330
6A
100
AcDbEntity
  8
0
  6
Continuous
 62
     7
100
AcDbLine
 10
-113.3625429281377
 20
135.1124999315591
 30
0.0
 11
-113.3625429281377
 21
135.7124999315591
 31
0.0
  0
LINE
  5
2CA
330
6A
100
AcDbEntity
  8
0
  6
Continuous
 62
     7
100
AcDbLine
 10
-112.3625429281269
 20
138.512499931556
 30
0.0
 11
-111.8625429281262
 21
138.5124999315561
 31
0.0
  0
LINE
  5
2CB
330
6A
100
AcDbEntity
  8
0
  6
Continuous
 62
     7
100
AcDbLine
 10
-111.8625429281262
 20
138.5124999315561
 30
0.0
 11
-111.8625429281271
 21
137.4124999315586
 31
0.0
  0
LINE
  5
2CC
330
6A
100
AcDbEntity
  8
0
  6
Continuous
 62
     7
100
AcDbLine
 10
-101.5222370139462
 20
161.6285294160752
 30
0.0
 11
-100.4602126323708
 21
161.7589296134346
 31
0.0
  0
LINE
  5
2CD
330
6A
100
AcDbEntity
  8
0
  6
Continuous
 62
     7
100
AcDbLine
 10
-100.4602126323708
 20
161.7589296134346
 30
0.0
 11
-100.427026681379
 21
161.4886517320144
 31
0.0
  0
LINE
  5
2CE
330
6A
100
AcDbEntity
  8
0
  6
Continuous
 62
     7
100
AcDbLine
 10
-100.427026681379
 20
161.4886517320144
 30
0.0
 11
-99.93826869120666
 21
161.8569572950283
 31
0.0
  0
LINE
  5
2CF
330
6A
100
AcDbEntity
  8
0
  6
Continuous
 62
     7
100
AcDbLine
 10
-100.0893603285081
 20
163.0874999317335
 30
0.0
 11
-99.93826869120666
 21
161.8569572950283
 31
0.0
  0
LINE
  5
2D0
330
6A
100
AcDbEntity
  8
0
  6
Continuous
 62
     7
100
AcDbLine
 10
-113.3625429275452
 20
163.0874999317377
 30
0.0
 11
-114.5625427002158
 21
163.0874999317383
 31
0.0
  0
LINE
  5
2D1
330
6A
100
AcDbEntity
  8
0
  6
Continuous
 62
     2
100
AcDbLine
 10
-113.3625429275295
 20
157.4874999329006
 30
0.0
 11
-113.3625429275452
 21
163.0874999317377
 31
0.0
  0
LINE
  5
2D2
330
6A
100
AcDbEntity
  8
0
  6
Continuous
 62
     2
100
AcDbLine
 10
-112.762542927548
 20
157.4874999318831
 30
0.0
 11
-112.7625429275461
 21
163.0874999317375
 31
0.0
  0
LINE
  5
2D3
330
6A
100
AcDbEntity
  8
0
  6
Continuous
 62
     7
100
AcDbLine
 10
-111.8625429281375
 20
135.1124999315591
 30
0.0
 11
-111.8625429281405
 21
130.6124999315586
 31
0.0
  0
LINE
  5
2D4
330
6A
100
AcDbEntity
  8
0
  6
Continuous
 62
     7
100
AcDbLine
 10
-112.8625429281377
 20
137.5124999315591
 30
0.0
 11
-112.8625429281377
 21
136.2124999315591
 31
0.0
  0
LINE
  5
2D5
330
6A
100
AcDbEntity
  8
0
  6
Continuous
 62
     7
100
AcDbLine
 10
-111.8625429281375
 20
135.1124999315591
 30
0.0
 11
-112.3625429281269
 21
135.1124999315591
 31
0.0
  0
LINE
  5
2D6
330
6A
100
AcDbEntity
  8
0
  6
Continuous
 62
     7
100
AcDbLine
 10
-111.8625429281271
 20
137.4124999315586
 30
0.0
 11
-111.8625429281375
 21
135.1124999315591
 31
0.0
  0
LINE
  5
2D7
330
6A
100
AcDbEntity
  8
0
  6
Continuous
 62
     7
100
AcDbLine
 10
-112.7625429275461
 20
163.0874999317375
 30
0.0
 11
-113.3625429275452
 21
163.0874999317377
 31
0.0
  0
ARC
  5
2D8
330
6A
100
AcDbEntity
  8
0
  6
Continuous
 62
     7
100
AcDbCircle
 10
-115.2625429281556
 20
138.0124999315414
 30
0.0
 40
0.4999999999823217
100
AcDbArc
 50
270.0000000020274
 51
0.00000000203881
  0
ARC
  5
2D9
330
6A
100
AcDbEntity
  8
0
  6
Continuous
 62
     7
100
AcDbCircle
 10
-86.76254292809433
 20
148.787499931559
 30
0.0
 40
12.84999999999999
100
AcDbArc
 50
172.0789068748322
 51
199.6721577692372
  0
ARC
  5
2DA
330
6A
100
AcDbEntity
  8
0
  6
Continuous
 62
     7
100
AcDbCircle
 10
-86.76254292806021
 20
148.7874999316979
 30
0.0
 40
12.85000000001464
100
AcDbArc
 50
160.3278422318635
 51
172.0789068754666
  0
ARC
  5
2DB
330
6A
100
AcDbEntity
  8
0
  6
Continuous
 62
     7
100
AcDbCircle
 10
-99.16254292812594
 20
153.8374999315597
 30
0.0
 40
0.5
100
AcDbArc
 50
180.0
 51
270.0000000000016
  0
ARC
  5
2DC
330
6A
100
AcDbEntity
  8
0
  6
Continuous
 62
     7
100
AcDbCircle
 10
-100.2777979978163
 20
154.1442262690952
 30
0.0
 40
0.5
100
AcDbArc
 50
90.0
 51
198.434948822923
  0
ARC
  5
2DD
330
6A
100
AcDbEntity
  8
0
  6
Continuous
 62
     7
100
AcDbCircle
 10
-100.7775349009306
 20
150.7374999319674
 30
0.0
 40
1.300000000009117
100
AcDbArc
 50
352.0789068760845
 51
66.66242937243541
  0
ARC
  5
2DE
330
6A
100
AcDbEntity
  8
0
  6
Continuous
 62
     7
100
AcDbCircle
 10
-112.8625429281377
 20
135.7124999315591
 30
0.0
 40
0.5
100
AcDbArc
 50
90.0
 51
180.0
  0
ARC
  5
2DF
330
6A
100
AcDbEntity
  8
0
  6
Continuous
 62
     7
100
AcDbCircle
 10
-100.1625429281259
 20
154.1442262690952
 30
0.0
 40
0.4999999999999716
100
AcDbArc
 50
0.0
 51
90.0
  0
ARC
  5
2E0
330
6A
100
AcDbEntity
  8
0
  6
Continuous
 62
     7
100
AcDbCircle
 10
-116.6938466588302
 20
122.0950228228101
 30
0.0
 40
4.999999999994652
100
AcDbArc
 50
18.43494882241112
 51
32.07765443140981
  0
ARC
  5
2E1
330
6A
100
AcDbEntity
  8
0
  6
Continuous
 62
     7
100
AcDbCircle
 10
-110.7625429281259
 20
125.812499931563
 30
0.0
 40
2.000000000003031
100
AcDbArc
 50
123.3670129695931
 51
212.0776544320113
  0
ARC
  5
2E2
330
6A
100
AcDbEntity
  8
0
  6
Continuous
 62
     7
100
AcDbCircle
 10
-112.8625429281377
 20
138.0124999315591
 30
0.0
 40
0.4999999999999005
100
AcDbArc
 50
179.999999999987
 51
270.0
  0
SPLINE
  5
2E3
330
6A
100
AcDbEntity
  8
0
  6
Continuous
 62
     7
100
AcDbSpline
210
0.0
220
0.0
230
1.0
 70
    24
 71
     3
 72
    11
 73
     7
 74
     5
 42
0.000000001
 43
0.0000000001
 44
0.00000001
 40
0.0
 40
0.0
 40
0.0
 40
0.0
 40
0.0135355648647817
 40
0.0270711297296486
 40
0.0406066945944303
 40
0.0541422594591978
 40
0.0541422594591978
 40
0.0541422594591978
 40
0.0541422594591978
 10
-113.3625429275295
 20
157.4874999329006
 30
0.0
 10
-113.3670547824844
 20
157.4874999329129
 30
0.0
 10
-113.3760784923943
 20
157.487499932933
 30
0.0
 10
-113.3896140572591
 20
157.4874999329546
 30
0.0
 10
-113.4031496221239
 20
157.4874999329724
 30
0.0
 10
-113.4121733320338
 20
157.4874999329851
 30
0.0
 10
-113.4166851869887
 20
157.4874999329924
 30
0.0
 11
-113.3625429275295
 21
157.4874999329006
 31
0.0
 11
-113.3760784923943
 21
157.4874999329322
 31
0.0
 11
-113.3896140572591
 21
157.4874999329465
 31
0.0
 11
-113.4031496221239
 21
157.4874999329694
 31
0.0
 11
-113.4166851869887
 21
157.4874999329924
 31
0.0
  0
SPLINE
  5
2E4
330
6A
100
AcDbEntity
  8
0
  6
Continuous
 62
     7
100
AcDbSpline
210
0.0
220
0.0
230
1.0
 70
     8
 71
     3
 72
    23
 73
    19
 74
    17
 42
0.000000001
 43
0.0000000001
 44
0.00000001
 40
0.0
 40
0.0
 40
0.0
 40
0.0
 40
0.1006696874793306
 40
0.219771747171213
 40
0.3386805055626786
 40
0.4401035306026105
 40
0.6585863883037284
 40
0.8791923194184884
 40
0.9989000462029637
 40
1.099115936641448
 40
1.208764095395372
 40
1.318721639775969
 40
1.438185273755837
 40
1.538841647915207
 40
1.648764535502365
 40
1.758507941364901
 40
1.785578938955428
 40
1.812649936082854
 40
1.812649936082854
 40
1.812649936082854
 40
1.812649936082854
 10
-111.5625429277719
 20
158.5874999348965
 30
0.0
 10
-111.5635212036992
 20
158.5539306821776
 30
0.0
 10
-111.5656568906848
 20
158.480645729891
 30
0.0
 10
-111.5841748562398
 20
158.3689046076929
 30
0.0
 10
-111.6146353451838
 20
158.2597228656829
 30
0.0
 10
-111.6687244237663
 20
158.1236070232403
 30
0.0
 10
-111.7597637241188
 20
157.9666698958802
 30
0.0
 10
-111.883426941767
 20
157.8257700563897
 30
0.0
 10
-111.9955088821802
 20
157.7305490242912
 30
0.0
 10
-112.0856420997275
 20
157.6675094766302
 30
0.0
 10
-112.1782508877759
 20
157.6143820032945
 30
0.0
 10
-112.2812657722117
 20
157.5674937060564
 30
0.0
 10
-112.3855813864114
 20
157.5318714789245
 30
0.0
 10
-112.4927166385151
 20
157.5063228848185
 30
0.0
 10
-112.5985519319308
 20
157.490921510045
 30
0.0
 10
-112.6808460639707
 20
157.487305519952
 30
0.0
 10
-112.7354716441708
 20
157.4875213345233
 30
0.0
 10
-112.7535191664737
 20
157.4875070612944
 30
0.0
 10
-112.762542927548
 20
157.4874999318831
 30
0.0
 11
-111.5625429277719
 21
158.5874999348965
 31
0.0
 11
-111.5675509669935
 21
158.4869548902282
 31
0.0
 11
-111.5862751089445
 21
158.3693338560314
 31
0.0
 11
-111.6183557340419
 21
158.2548343945276
 31
0.0
 11
-111.6557478571929
 21
158.1605557684769
 31
0.0
 11
-111.7651539152087
 21
157.9714392058274
 31
0.0
 11
-111.9104927429783
 21
157.8054765519581
 31
0.0
 11
-112.0017100471983
 21
157.7279565972509
 31
0.0
 11
-112.0838319328889
 21
157.6705177544354
 31
0.0
 11
-112.1789415863421
 21
157.6159570301767
 31
0.0
 11
-112.2790215104343
 21
157.5704084796105
 31
0.0
 11
-112.3920811670275
 21
157.5318199576955
 31
0.0
 11
-112.4899873087203
 21
157.5084513210335
 31
0.0
 11
-112.5987832492328
 21
157.4927514903083
 31
0.0
 11
-112.7084009322161
 21
157.4874999317916
 31
0.0
 11
-112.7354719298821
 21
157.4874999318375
 31
0.0
 11
-112.762542927548
 21
157.4874999318831
 31
0.0
  0
SPLINE
  5
2E5
330
6A
100
AcDbEntity
  8
0
  6
Continuous
 62
     7
100
AcDbSpline
210
0.0
220
0.0
230
1.0
 70
     8
 71
     3
 72
    23
 73
    19
 74
    17
 42
0.000000001
 43
0.0000000001
 44
0.00000001
 40
0.0
 40
0.0
 40
0.0
 40
0.0
 40
0.1103522109064687
 40
0.2272504948175928
 40
0.3355968779787429
 40
0.4543451866021934
 40
0.5576625356031947
 40
0.6813873480544871
 40
0.7972118664406495
 40
0.9088535464134151
 40
1.010681213086726
 40
1.136474674497721
 40
1.261640319806638
 40
1.363652661393485
 40
1.482894849591063
 40
1.590883099608929
 40
1.707725522375984
 40
1.818083509520367
 40
1.818083509520367
 40
1.818083509520367
 40
1.818083509520367
 10
-113.4166851869887
 20
157.4874999329924
 30
0.0
 10
-113.4534706589112
 20
157.4875136340393
 30
0.0
 10
-113.5292237101085
 20
157.4875418636241
 30
0.0
 10
-113.64104221729
 20
157.4932100122841
 30
0.0
 10
-113.7548313470609
 20
157.5085141925222
 30
0.0
 10
-113.8621573105149
 20
157.5343166601766
 30
0.0
 10
-113.9708015403874
 20
157.5733883691352
 30
0.0
 10
-114.0735115552969
 20
157.6242200894802
 30
0.0
 10
-114.1716249925831
 20
157.6885502963613
 30
0.0
 10
-114.2561425263607
 20
157.7589567968921
 30
0.0
 10
-114.334864724801
 20
157.8404108968033
 30
0.0
 10
-114.4063581583419
 20
157.9342164797308
 30
0.0
 10
-114.4647324751415
 20
158.036802048839
 30
0.0
 10
-114.5089786882037
 20
158.1437120405716
 30
0.0
 10
-114.5383910586073
 20
158.2497749869036
 30
0.0
 10
-114.5559813094923
 20
158.3633072880672
 30
0.0
 10
-114.5624963978103
 20
158.4749748303898
 30
0.0
 10
-114.5625275673141
 20
158.5507120935447
 30
0.0
 10
-114.5625427002174
 20
158.5874999317918
 30
0.0
 11
-113.4166851869887
 21
157.4874999329924
 31
0.0
 11
-113.527033400133
 21
157.4884394506018
 31
0.0
 11
-113.643745816893
 21
157.4950288899746
 31
0.0
 11
-113.7510821909262
 21
157.5097883512964
 31
0.0
 11
-113.86649443147
 21
157.5377378721688
 31
0.0
 11
-113.9637019456703
 21
157.5727403567803
 31
0.0
 11
-114.0745880554761
 21
157.6276229594405
 31
0.0
 11
-114.1714541717085
 21
157.691123154466
 31
0.0
 11
-114.2572237038435
 21
157.7625895958022
 31
0.0
 11
-114.3279651244411
 21
157.8358325153153
 31
0.0
 11
-114.4041351380945
 21
157.9359430751278
 31
0.0
 11
-114.4659648000384
 21
158.0447710674229
 31
0.0
 11
-114.5049723540071
 21
158.1390309673225
 31
0.0
 11
-114.5370054856503
 21
158.2538899162204
 31
0.0
 11
-114.5538851516524
 21
158.3605507768477
 31
0.0
 11
-114.5614627428631
 21
158.477147226437
 31
0.0
 11
-114.5625427002174
 21
158.5874999317918
 31
0.0
  0
ENDBLK
  5
6C
330
6A
100
AcDbEntity
  8
0
100
AcDbBlockEnd
  0
BLOCK
  5
6F
330
6D
100
AcDbEntity
  8
0
100
AcDbBlockBegin
  2
Vordans1
 70
     0
 10
-109.362543
 20
142.0
 30
0.0
  3
Vordans1
  1

  0
INSERT
  5
6E
330
6D
100
AcDbEntity
  8
0
100
AcDbBlockReference
  2
PP_H_4_1_GNYE-select__6
 10
-119.8625429283063
 20
120.9124999315587
 30
0.0
  0
MTEXT
  5
2E6
330
6D
100
AcDbEntity
  8
1
 62
     6
100
AcDbMText
 10
-109.5365625601556
 20
115.5259742962603
 30
0.0
 40
5.0
 41
0.0
 71
     2
 72
     1
  1
 
  7
CONVERTER_11
 73
     1
 44
1.32052821128451
  0
DIMENSION
  5
2F1
330
6D
100
AcDbEntity
  8
1
100
AcDbDimension
  2
*D18
 10
-119.8625429283064
 20
112.2759742962603
 30
0.0
 11
-109.5365625601556
 21
115.5259742962603
 31
0.0
 70
    32
  1
<>
 71
     5
 42
-1.0
 53
0.00013888888889
  3
ME10_DIM_11
100
AcDbAlignedDimension
 13
-98.86254292809434
 23
138.750449996389
 33
0.0
 14
-119.8625429283063
 24
138.5124999315561
 34
0.0
100
AcDbRotatedDimension
  0
DIMENSION
  5
2FC
330
6D
100
AcDbEntity
  8
1
100
AcDbDimension
  2
*D19
 10
-129.8625429283064
 20
163.0874999317384
 30
0.0
 11
-133.2875429283064
 21
150.9053164066241
 31
0.0
 70
    32
  1
<>
 71
     5
 42
-1.0
 53
90.0
  3
ME10_DIM_12
100
AcDbAlignedDimension
 13
-119.8625429283063
 23
138.5124999315561
 33
0.0
 14
-114.5625427002158
 24
163.0874999317383
 34
0.0
 50
90.0
100
AcDbRotatedDimension
  0
DIMENSION
  5
307
330
6D
100
AcDbEntity
  8
1
100
AcDbDimension
  2
*D20
 10
-137.392135165953
 20
163.0874999317383
 30
0.0
 11
-140.817135165953
 21
143.830986203872
 31
0.0
 70
    32
  1
<>
 71
     5
 42
-1.0
 53
90.0
  3
ME10_DIM_13
100
AcDbAlignedDimension
 13
-111.0292095948203
 23
120.9124999315587
 33
0.0
 14
-114.5625427002158
 24
163.0874999317383
 34
0.0
 50
90.0
100
AcDbRotatedDimension
  0
ENDBLK
  5
70
330
6D
100
AcDbEntity
  8
0
100
AcDbBlockEnd
  0
BLOCK
  5
72
330
71
100
AcDbEntity
  8
0
100
AcDbBlockBegin
  2
_rahmen
 70
     0
 10
65.76012341105745
 20
-4.10347261104414
 30
0.0
  3
_rahmen
  1

  0
LINE
  5
308
330
71
100
AcDbEntity
  8
1
  6
Continuous
 62
     6
100
AcDbLine
 10
-63.78468111569256
 20
26.39652738895597
 30
0.0
 11
65.76012341105914
 21
26.39652738895597
 31
0.0
  0
LINE
  5
309
330
71
100
AcDbEntity
  8
1
  6
Continuous
 62
     7
100
AcDbLine
 10
-45.58468111569255
 20
5.14652738895597
 30
0.0
 11
-27.38468111569264
 21
5.14652738895597
 31
0.0
  0
LINE
  5
30A
330
71
100
AcDbEntity
  8
1
  6
Continuous
 62
     6
100
AcDbLine
 10
-45.58468111569255
 20
0.89652738895597
 30
0.0
 11
-63.78468111569256
 21
0.89652738895586
 31
0.0
  0
LINE
  5
30B
330
71
100
AcDbEntity
  8
1
  6
Continuous
 62
     7
100
AcDbLine
 10
-45.58468111569255
 20
5.14652738895597
 30
0.0
 11
-45.58468111569255
 21
0.89652738895597
 31
0.0
  0
LINE
  5
30C
330
71
100
AcDbEntity
  8
1
  6
Continuous
 62
     7
100
AcDbLine
 10
-27.38468111569264
 20
5.14652738895597
 30
0.0
 11
-27.38468111569264
 21
0.89652738895586
 31
0.0
  0
LINE
  5
30D
330
71
100
AcDbEntity
  8
1
  6
Continuous
 62
     7
100
AcDbLine
 10
-63.78468111569256
 20
5.14652738895586
 30
0.0
 11
-63.78468111569256
 21
0.89652738895586
 31
0.0
  0
LINE
  5
30E
330
71
100
AcDbEntity
  8
1
  6
Continuous
 62
     7
100
AcDbLine
 10
-63.78468111569256
 20
5.14652738895586
 30
0.0
 11
-45.58468111569255
 21
5.14652738895597
 31
0.0
  0
LINE
  5
30F
330
71
100
AcDbEntity
  8
1
  6
Continuous
 62
     2
100
AcDbLine
 10
-54.54802622912996
 20
24.52152738895589
 30
0.0
 11
-54.54802622912996
 21
19.52152738895589
 31
0.0
  0
LINE
  5
310
330
71
100
AcDbEntity
  8
1
  6
Continuous
 62
     2
100
AcDbLine
 10
-54.54802622912996
 20
19.52152738895589
 30
0.0
 11
-59.54802622912996
 21
20.77152738895589
 31
0.0
  0
LINE
  5
311
330
71
100
AcDbEntity
  8
1
  6
Continuous
 62
     2
100
AcDbLine
 10
-59.54802622912996
 20
20.77152738895589
 30
0.0
 11
-59.54802622912996
 21
23.27152738895589
 31
0.0
  0
LINE
  5
312
330
71
100
AcDbEntity
  8
1
  6
Continuous
 62
     2
100
AcDbLine
 10
-59.54802622912996
 20
23.27152738895589
 30
0.0
 11
-54.54802622912996
 21
24.52152738895589
 31
0.0
  0
LINE
  5
313
330
71
100
AcDbEntity
  8
1
  6
Continuous
 62
     6
100
AcDbLine
 10
-186.2398765889408
 20
0.89652738895597
 30
0.0
 11
-221.2398765889407
 21
0.89652738895597
 31
0.0
  0
LINE
  5
314
330
71
100
AcDbEntity
  8
1
  6
Continuous
 62
     6
100
AcDbLine
 10
65.76012341105914
 20
17.89652738895597
 30
0.0
 11
65.76012341105874
 21
9.39652738895597
 31
0.0
  0
LINE
  5
315
330
71
100
AcDbEntity
  8
1
  6
Continuous
 62
     6
100
AcDbLine
 10
-27.38468111569264
 20
0.89652738895586
 30
0.0
 11
-27.73987658894257
 21
0.89652738895597
 31
0.0
  0
LINE
  5
316
330
71
100
AcDbEntity
  8
1
  6
Continuous
 62
     6
100
AcDbLine
 10
-180.0398765889428
 20
0.89652738895586
 30
0.0
 11
-186.2398765889408
 21
0.89652738895597
 31
0.0
  0
LINE
  5
317
330
71
100
AcDbEntity
  8
1
  6
Continuous
 62
     7
100
AcDbLine
 10
-27.38468111569264
 20
17.89652738895597
 30
0.0
 11
-27.38468111569264
 21
5.14652738895597
 31
0.0
  0
LINE
  5
318
330
71
100
AcDbEntity
  8
1
  6
Continuous
 62
     7
100
AcDbLine
 10
-63.78468111569256
 20
17.89652738895597
 30
0.0
 11
-63.78468111569256
 21
5.14652738895586
 31
0.0
  0
LINE
  5
319
330
71
100
AcDbEntity
  8
1
  6
Continuous
 62
     6
100
AcDbLine
 10
-77.73987658894254
 20
0.89652738895597
 30
0.0
 11
-127.7398765889428
 21
0.89652738895597
 31
0.0
  0
LINE
  5
31A
330
71
100
AcDbEntity
  8
1
  6
Continuous
 62
     6
100
AcDbLine
 10
-180.0398765889428
 20
0.89652738895586
 30
0.0
 11
-177.7398765889425
 21
0.89652738895597
 31
0.0
  0
LINE
  5
31B
330
71
100
AcDbEntity
  8
1
  6
Continuous
 62
     6
100
AcDbLine
 10
-27.38468111569264
 20
0.89652738895586
 30
0.0
 11
22.26012341105744
 21
0.89652738895597
 31
0.0
  0
LINE
  5
31C
330
71
100
AcDbEntity
  8
1
  6
Continuous
 62
     6
100
AcDbLine
 10
65.76012341105745
 20
0.89652738895597
 30
0.0
 11
65.76012341105874
 21
9.39652738895597
 31
0.0
  0
LINE
  5
31D
330
71
100
AcDbEntity
  8
1
  6
Continuous
 62
     2
100
AcDbLine
 10
-226.2398765889416
 20
0.89652738895597
 30
0.0
 11
-226.2398765889416
 21
-4.10347261104414
 31
0.0
  0
LINE
  5
31E
330
71
100
AcDbEntity
  8
1
  6
Continuous
 62
     2
100
AcDbLine
 10
-221.2398765889407
 20
0.89652738895597
 30
0.0
 11
-226.2398765889416
 21
0.89652738895597
 31
0.0
  0
LINE
  5
31F
330
71
100
AcDbEntity
  8
1
  6
Continuous
 62
     2
100
AcDbLine
 10
-221.2398765889407
 20
-4.10347261104414
 30
0.0
 11
-177.7398765889425
 21
-4.10347261104414
 31
0.0
  0
LINE
  5
320
330
71
100
AcDbEntity
  8
1
  6
Continuous
 62
     2
100
AcDbLine
 10
-221.2398765889407
 20
0.89652738895597
 30
0.0
 11
-221.2398765889407
 21
-4.10347261104414
 31
0.0
  0
LINE
  5
321
330
71
100
AcDbEntity
  8
1
  6
Continuous
 62
     2
100
AcDbLine
 10
22.26012341105744
 20
-4.10347261104414
 30
0.0
 11
-27.73987658894257
 21
-4.10347261104414
 31
0.0
  0
LINE
  5
322
330
71
100
AcDbEntity
  8
1
  6
Continuous
 62
     2
100
AcDbLine
 10
22.26012341105744
 20
-4.10347261104414
 30
0.0
 11
22.26012341105744
 21
0.89652738895597
 31
0.0
  0
LINE
  5
323
330
71
100
AcDbEntity
  8
1
  6
Continuous
 62
     2
100
AcDbLine
 10
-27.73987658894257
 20
-4.10347261104414
 30
0.0
 11
-27.73987658894257
 21
0.89652738895597
 31
0.0
  0
LINE
  5
324
330
71
100
AcDbEntity
  8
1
  6
Continuous
 62
     2
100
AcDbLine
 10
-77.73987658894254
 20
-4.10347261104414
 30
0.0
 11
-27.73987658894257
 21
-4.10347261104414
 31
0.0
  0
LINE
  5
325
330
71
100
AcDbEntity
  8
1
  6
Continuous
 62
     2
100
AcDbLine
 10
-77.73987658894254
 20
-4.10347261104414
 30
0.0
 11
-77.73987658894254
 21
0.89652738895597
 31
0.0
  0
LINE
  5
326
330
71
100
AcDbEntity
  8
1
  6
Continuous
 62
     2
100
AcDbLine
 10
-127.7398765889428
 20
-4.10347261104414
 30
0.0
 11
-77.73987658894254
 21
-4.10347261104414
 31
0.0
  0
LINE
  5
327
330
71
100
AcDbEntity
  8
1
  6
Continuous
 62
     2
100
AcDbLine
 10
-127.7398765889428
 20
-4.10347261104414
 30
0.0
 11
-127.7398765889428
 21
0.89652738895597
 31
0.0
  0
LINE
  5
328
330
71
100
AcDbEntity
  8
1
  6
Continuous
 62
     2
100
AcDbLine
 10
-177.7398765889425
 20
-4.10347261104414
 30
0.0
 11
-127.7398765889428
 21
-4.10347261104414
 31
0.0
  0
LINE
  5
329
330
71
100
AcDbEntity
  8
1
  6
Continuous
 62
     2
100
AcDbLine
 10
-177.7398765889425
 20
-4.10347261104414
 30
0.0
 11
-177.7398765889425
 21
0.89652738895597
 31
0.0
  0
LINE
  5
32A
330
71
100
AcDbEntity
  8
1
  6
Continuous
 62
     6
100
AcDbLine
 10
-221.2398765889408
 20
50.89652738895609
 30
0.0
 11
-221.2398765889407
 21
0.89652738895597
 31
0.0
  0
LINE
  5
32B
330
71
100
AcDbEntity
  8
1
  6
Continuous
 62
     2
100
AcDbLine
 10
-226.2398765889416
 20
50.89652738895609
 30
0.0
 11
-226.2398765889416
 21
0.89652738895597
 31
0.0
  0
LINE
  5
32C
330
71
100
AcDbEntity
  8
1
  6
Continuous
 62
     2
100
AcDbLine
 10
-226.2398765889416
 20
50.89652738895609
 30
0.0
 11
-221.2398765889408
 21
50.89652738895609
 31
0.0
  0
LINE
  5
32D
330
71
100
AcDbEntity
  8
1
  6
Continuous
 62
     6
100
AcDbLine
 10
-221.2398765889411
 20
100.8965273889559
 30
0.0
 11
-221.2398765889408
 21
50.89652738895609
 31
0.0
  0
LINE
  5
32E
330
71
100
AcDbEntity
  8
1
  6
Continuous
 62
     2
100
AcDbLine
 10
-226.2398765889416
 20
100.8965273889559
 30
0.0
 11
-226.2398765889416
 21
50.89652738895609
 31
0.0
  0
LINE
  5
32F
330
71
100
AcDbEntity
  8
1
  6
Continuous
 62
     2
100
AcDbLine
 10
-226.2398765889416
 20
100.8965273889559
 30
0.0
 11
-221.2398765889411
 21
100.8965273889559
 31
0.0
  0
LINE
  5
330
330
71
100
AcDbEntity
  8
1
  6
Continuous
 62
     6
100
AcDbLine
 10
-221.2398765889416
 20
150.896527388956
 30
0.0
 11
-221.2398765889411
 21
100.8965273889559
 31
0.0
  0
LINE
  5
331
330
71
100
AcDbEntity
  8
1
  6
Continuous
 62
     2
100
AcDbLine
 10
-226.2398765889416
 20
150.896527388956
 30
0.0
 11
-226.2398765889416
 21
100.8965273889559
 31
0.0
  0
LINE
  5
332
330
71
100
AcDbEntity
  8
1
  6
Continuous
 62
     2
100
AcDbLine
 10
-226.2398765889416
 20
150.896527388956
 30
0.0
 11
-221.2398765889416
 21
150.896527388956
 31
0.0
  0
LINE
  5
333
330
71
100
AcDbEntity
  8
1
  6
Continuous
 62
     6
100
AcDbLine
 10
-221.2398765889416
 20
185.896527388956
 30
0.0
 11
-221.2398765889416
 21
150.896527388956
 31
0.0
  0
LINE
  5
334
330
71
100
AcDbEntity
  8
1
  6
Continuous
 62
     2
100
AcDbLine
 10
-226.2398765889416
 20
205.896527388956
 30
0.0
 11
-226.2398765889416
 21
150.896527388956
 31
0.0
  0
LINE
  5
335
330
71
100
AcDbEntity
  8
1
  6
Continuous
 62
     2
100
AcDbLine
 10
-226.2398765889416
 20
-4.10347261104414
 30
0.0
 11
-221.2398765889407
 21
-4.10347261104414
 31
0.0
  0
LINE
  5
336
330
71
100
AcDbEntity
  8
1
  6
Continuous
 62
     2
100
AcDbLine
 10
-77.73987658894254
 20
205.896527388956
 30
0.0
 11
-77.73987658894254
 21
196.6878355442547
 31
0.0
  0
LINE
  5
337
330
71
100
AcDbEntity
  8
1
  6
Continuous
 62
     2
100
AcDbLine
 10
-77.73987658894254
 20
205.896527388956
 30
0.0
 11
-226.2398765889416
 21
205.896527388956
 31
0.0
  0
LINE
  5
338
330
71
100
AcDbEntity
  8
1
  6
Continuous
 62
     2
100
AcDbLine
 10
70.76012341105644
 20
0.89652738895597
 30
0.0
 11
70.76012341105644
 21
50.89652738895609
 31
0.0
  0
LINE
  5
339
330
71
100
AcDbEntity
  8
1
  6
Continuous
 62
     2
100
AcDbLine
 10
70.76012341105644
 20
150.896527388956
 30
0.0
 11
70.76012341105644
 21
205.896527388956
 31
0.0
  0
LINE
  5
33A
330
71
100
AcDbEntity
  8
1
  6
Continuous
 62
     6
100
AcDbLine
 10
65.76012341105664
 20
150.896527388956
 30
0.0
 11
65.76012341105644
 21
185.896527388956
 31
0.0
  0
LINE
  5
33B
330
71
100
AcDbEntity
  8
1
  6
Continuous
 62
     2
100
AcDbLine
 10
65.76012341105664
 20
150.896527388956
 30
0.0
 11
70.76012341105644
 21
150.896527388956
 31
0.0
  0
LINE
  5
33C
330
71
100
AcDbEntity
  8
1
  6
Continuous
 62
     2
100
AcDbLine
 10
70.76012341105644
 20
100.8965273889559
 30
0.0
 11
70.76012341105644
 21
150.896527388956
 31
0.0
  0
LINE
  5
33D
330
71
100
AcDbEntity
  8
1
  6
Continuous
 62
     6
100
AcDbLine
 10
65.76012341105785
 20
100.8965273889559
 30
0.0
 11
65.76012341105664
 21
150.896527388956
 31
0.0
  0
LINE
  5
33E
330
71
100
AcDbEntity
  8
1
  6
Continuous
 62
     2
100
AcDbLine
 10
65.76012341105785
 20
100.8965273889559
 30
0.0
 11
70.76012341105644
 21
100.8965273889559
 31
0.0
  0
LINE
  5
33F
330
71
100
AcDbEntity
  8
1
  6
Continuous
 62
     2
100
AcDbLine
 10
70.76012341105644
 20
50.89652738895609
 30
0.0
 11
70.76012341105644
 21
100.8965273889559
 31
0.0
  0
LINE
  5
340
330
71
100
AcDbEntity
  8
1
  6
Continuous
 62
     6
100
AcDbLine
 10
65.76012341105834
 20
50.89652738895609
 30
0.0
 11
65.76012341105785
 21
100.8965273889559
 31
0.0
  0
LINE
  5
341
330
71
100
AcDbEntity
  8
1
  6
Continuous
 62
     2
100
AcDbLine
 10
65.76012341105834
 20
50.89652738895609
 30
0.0
 11
70.76012341105644
 21
50.89652738895609
 31
0.0
  0
LINE
  5
342
330
71
100
AcDbEntity
  8
1
  6
Continuous
 62
     6
100
AcDbLine
 10
65.76012341105644
 20
185.896527388956
 30
0.0
 11
-221.2398765889416
 21
185.896527388956
 31
0.0
  0
LINE
  5
343
330
71
100
AcDbEntity
  8
1
  6
Continuous
 62
     2
100
AcDbLine
 10
70.76012341105644
 20
205.896527388956
 30
0.0
 11
-77.73987658894254
 21
205.896527388956
 31
0.0
  0
LINE
  5
344
330
71
100
AcDbEntity
  8
1
  6
Continuous
 62
     6
100
AcDbLine
 10
65.76012341105914
 20
17.89652738895597
 30
0.0
 11
65.76012341105834
 21
50.89652738895609
 31
0.0
  0
LINE
  5
345
330
71
100
AcDbEntity
  8
1
  6
Continuous
 62
     2
100
AcDbLine
 10
65.76012341105745
 20
-4.10347261104414
 30
0.0
 11
22.26012341105744
 21
-4.10347261104414
 31
0.0
  0
LINE
  5
346
330
71
100
AcDbEntity
  8
1
  6
Continuous
 62
     2
100
AcDbLine
 10
70.76012341105644
 20
-4.10347261104414
 30
0.0
 11
65.76012341105745
 21
-4.10347261104414
 31
0.0
  0
LINE
  5
347
330
71
100
AcDbEntity
  8
1
  6
Continuous
 62
     2
100
AcDbLine
 10
70.76012341105644
 20
-4.10347261104414
 30
0.0
 11
70.76012341105644
 21
0.89652738895597
 31
0.0
  0
LINE
  5
348
330
71
100
AcDbEntity
  8
1
  6
Continuous
 62
     6
100
AcDbLine
 10
-63.78468111569256
 20
17.89652738895597
 30
0.0
 11
-27.38468111569264
 21
17.89652738895597
 31
0.0
  0
LINE
  5
349
330
71
100
AcDbEntity
  8
1
  6
Continuous
 62
     2
100
AcDbLine
 10
65.76012341105745
 20
0.89652738895597
 30
0.0
 11
65.76012341105745
 21
-4.10347261104414
 31
0.0
  0
LINE
  5
34A
330
71
100
AcDbEntity
  8
1
  6
Continuous
 62
     2
100
AcDbLine
 10
65.76012341105745
 20
0.89652738895597
 30
0.0
 11
70.76012341105644
 21
0.89652738895597
 31
0.0
  0
LINE
  5
34B
330
71
100
AcDbEntity
  8
1
  6
Continuous
 62
     6
100
AcDbLine
 10
-27.73987658894257
 20
0.89652738895597
 30
0.0
 11
-45.58468111569255
 21
0.89652738895597
 31
0.0
  0
LINE
  5
34C
330
71
100
AcDbEntity
  8
1
  6
Continuous
 62
     6
100
AcDbLine
 10
22.26012341105744
 20
0.89652738895597
 30
0.0
 11
65.76012341105745
 21
0.89652738895597
 31
0.0
  0
LINE
  5
34D
330
71
100
AcDbEntity
  8
1
  6
Continuous
 62
     6
100
AcDbLine
 10
-127.7398765889428
 20
0.89652738895597
 30
0.0
 11
-132.7846811156925
 21
0.89652738895597
 31
0.0
  0
LINE
  5
34E
330
71
100
AcDbEntity
  8
1
  6
Continuous
 62
     6
100
AcDbLine
 10
-77.73987658894254
 20
0.89652738895597
 30
0.0
 11
-63.78468111569256
 21
0.89652738895586
 31
0.0
  0
LINE
  5
34F
102
{ACAD_REACTORS
330
439
330
43A
102
}
330
71
100
AcDbEntity
  8
0
  6
Continuous
 62
     2
100
AcDbLine
 10
-56.27005517354576
 20
12.96904214516809
 30
0.0
 11
-56.27005517354576
 21
13.57457743367488
 31
0.0
  0
LINE
  5
350
102
{ACAD_REACTORS
330
439
330
43A
102
}
330
71
100
AcDbEntity
  8
0
  6
Continuous
 62
     2
100
AcDbLine
 10
-56.27005517354576
 20
10.16890753853679
 30
0.0
 11
-56.27005517354576
 21
10.75075894523187
 31
0.0
  0
LINE
  5
351
102
{ACAD_REACTORS
330
43B
330
43C
102
}
330
71
100
AcDbEntity
  8
0
  6
Continuous
 62
     2
100
AcDbLine
 10
-33.64056873806655
 20
10.45857160665977
 30
0.0
 11
-33.64056873806655
 21
8.19002738897228
 31
0.0
  0
LINE
  5
352
102
{ACAD_REACTORS
330
43B
330
43C
102
}
330
71
100
AcDbEntity
  8
0
  6
Continuous
 62
     2
100
AcDbLine
 10
-35.02162251705414
 20
11.24383691278288
 30
0.0
 11
-31.63667699842546
 21
11.24383691278337
 31
0.0
  0
LINE
  5
353
102
{ACAD_REACTORS
330
43B
330
43C
102
}
330
71
100
AcDbEntity
  8
0
  6
Continuous
 62
     2
100
AcDbLine
 10
-31.63667699842546
 20
10.45857160665977
 30
0.0
 11
-31.63667699842546
 21
11.24383691278337
 31
0.0
  0
LINE
  5
354
102
{ACAD_REACTORS
330
43B
330
43C
102
}
330
71
100
AcDbEntity
  8
0
  6
Continuous
 62
     2
100
AcDbLine
 10
-32.44777603589884
 20
10.45857160665977
 30
0.0
 11
-31.63667699842546
 21
10.45857160665977
 31
0.0
  0
LINE
  5
355
102
{ACAD_REACTORS
330
43B
330
43C
102
}
330
71
100
AcDbEntity
  8
0
  6
Continuous
 62
     2
100
AcDbLine
 10
-32.44777603589884
 20
8.19002738897228
 30
0.0
 11
-32.44777603589884
 21
10.45857160665977
 31
0.0
  0
LINE
  5
356
102
{ACAD_REACTORS
330
43B
330
43C
102
}
330
71
100
AcDbEntity
  8
0
  6
Continuous
 62
     2
100
AcDbLine
 10
-33.64056873806655
 20
8.19002738897228
 30
0.0
 11
-32.44777603589884
 21
8.19002738897228
 31
0.0
  0
LINE
  5
357
102
{ACAD_REACTORS
330
431
330
432
102
}
330
71
100
AcDbEntity
  8
0
  6
Continuous
 62
     2
100
AcDbLine
 10
-34.33715967613105
 20
14.60302738895777
 30
0.0
 11
-35.73988389388035
 21
14.60302738895777
 31
0.0
  0
LINE
  5
358
102
{ACAD_REACTORS
330
431
330
432
102
}
330
71
100
AcDbEntity
  8
0
  6
Continuous
 62
     2
100
AcDbLine
 10
-34.33715967613105
 20
14.60302738895777
 30
0.0
 11
-33.73599215423926
 21
13.92320406740228
 31
0.0
  0
LINE
  5
359
102
{ACAD_REACTORS
330
431
330
432
102
}
330
71
100
AcDbEntity
  8
0
  6
Continuous
 62
     2
100
AcDbLine
 10
-33.73599215423926
 20
13.92320406740228
 30
0.0
 11
-33.13482463234647
 21
14.60302738895777
 31
0.0
  0
LINE
  5
35A
102
{ACAD_REACTORS
330
431
330
432
102
}
330
71
100
AcDbEntity
  8
0
  6
Continuous
 62
     2
100
AcDbLine
 10
-33.03463004536576
 20
13.13007685892157
 30
0.0
 11
-31.73210041459925
 21
14.60302738895777
 31
0.0
  0
LINE
  5
35B
102
{ACAD_REACTORS
330
431
330
432
102
}
330
71
100
AcDbEntity
  8
0
  6
Continuous
 62
     2
100
AcDbLine
 10
-33.03463004536576
 20
13.13007685892157
 30
0.0
 11
-31.63667699842546
 21
11.54921786514657
 31
0.0
  0
LINE
  5
35C
102
{ACAD_REACTORS
330
431
330
432
102
}
330
71
100
AcDbEntity
  8
0
  6
Continuous
 62
     2
100
AcDbLine
 10
-33.03940121617376
 20
11.54921786514657
 30
0.0
 11
-31.63667699842546
 21
11.54921786514657
 31
0.0
  0
LINE
  5
35D
102
{ACAD_REACTORS
330
431
330
432
102
}
330
71
100
AcDbEntity
  8
0
  6
Continuous
 62
     2
100
AcDbLine
 10
-33.73599215423926
 20
12.33694965044029
 30
0.0
 11
-33.03940121617376
 21
11.54921786514657
 31
0.0
  0
LINE
  5
35E
102
{ACAD_REACTORS
330
42F
330
430
102
}
330
71
100
AcDbEntity
  8
0
  6
Continuous
 62
     2
100
AcDbLine
 10
-37.19509099052294
 20
14.60302738895777
 30
0.0
 11
-35.95458658027005
 21
14.60302738895777
 31
0.0
  0
LINE
  5
35F
102
{ACAD_REACTORS
330
42F
330
430
102
}
330
71
100
AcDbEntity
  8
0
  6
Continuous
 62
     2
100
AcDbLine
 10
-35.95458658027005
 20
14.60302738895777
 30
0.0
 11
-35.95458658027005
 21
11.54921786514657
 31
0.0
  0
LINE
  5
360
102
{ACAD_REACTORS
330
42F
330
430
102
}
330
71
100
AcDbEntity
  8
0
  6
Continuous
 62
     2
100
AcDbLine
 10
-37.19509099052294
 20
11.54921786514657
 30
0.0
 11
-37.19509099052294
 21
14.60302738895777
 31
0.0
  0
LINE
  5
361
102
{ACAD_REACTORS
330
42D
330
42E
102
}
330
71
100
AcDbEntity
  8
0
  6
Continuous
 62
     2
100
AcDbLine
 10
-38.66340107306056
 20
9.41155119849677
 30
0.0
 11
-38.36323583586815
 21
10.17936616448347
 31
0.0
  0
LINE
  5
362
102
{ACAD_REACTORS
330
42D
330
42E
102
}
330
71
100
AcDbEntity
  8
0
  6
Continuous
 62
     2
100
AcDbLine
 10
-39.14093667768137
 20
8.19002738897228
 30
0.0
 11
-38.92945662420556
 21
8.73098793319016
 31
0.0
  0
LINE
  5
363
102
{ACAD_REACTORS
330
42D
330
42E
102
}
330
71
100
AcDbEntity
  8
0
  6
Continuous
 62
     2
100
AcDbLine
 10
-38.98348804099504
 20
11.24383691278337
 30
0.0
 11
-40.38144108793435
 21
8.19002738897228
 31
0.0
  0
LINE
  5
364
102
{ACAD_REACTORS
330
42D
330
42E
102
}
330
71
100
AcDbEntity
  8
0
  6
Continuous
 62
     2
100
AcDbLine
 10
-36.34503058380204
 20
8.19002738897228
 30
0.0
 11
-37.58553499405596
 21
8.19002738897228
 31
0.0
  0
LINE
  5
365
102
{ACAD_REACTORS
330
42D
330
42E
102
}
330
71
100
AcDbEntity
  8
0
  6
Continuous
 62
     2
100
AcDbLine
 10
-38.92945662420556
 20
8.73098793319016
 30
0.0
 11
-37.79701504753174
 21
8.73098793319016
 31
0.0
  0
LINE
  5
366
102
{ACAD_REACTORS
330
42B
330
42C
102
}
330
71
100
AcDbEntity
  8
0
  6
Continuous
 62
     2
100
AcDbLine
 10
-42.53895322711657
 20
10.45857160665977
 30
0.0
 11
-41.72785418964196
 21
10.45857160665977
 31
0.0
  0
LINE
  5
367
102
{ACAD_REACTORS
330
42B
330
42C
102
}
330
71
100
AcDbEntity
  8
0
  6
Continuous
 62
     2
100
AcDbLine
 10
-39.72396245000294
 20
11.24383691278337
 30
0.0
 11
-42.53895322711657
 21
11.24383691278337
 31
0.0
  0
LINE
  5
368
102
{ACAD_REACTORS
330
42B
330
42C
102
}
330
71
100
AcDbEntity
  8
0
  6
Continuous
 62
     2
100
AcDbLine
 10
-39.72396245000294
 20
10.45857160665977
 30
0.0
 11
-39.72396245000294
 21
11.24383691278337
 31
0.0
  0
LINE
  5
369
102
{ACAD_REACTORS
330
42B
330
42C
102
}
330
71
100
AcDbEntity
  8
0
  6
Continuous
 62
     2
100
AcDbLine
 10
-40.53506148747545
 20
10.45857160665977
 30
0.0
 11
-39.72396245000294
 21
10.45857160665977
 31
0.0
  0
LINE
  5
36A
102
{ACAD_REACTORS
330
42B
330
42C
102
}
330
71
100
AcDbEntity
  8
0
  6
Continuous
 62
     2
100
AcDbLine
 10
-40.53506148747545
 20
8.19002738897228
 30
0.0
 11
-40.53506148747545
 21
10.45857160665977
 31
0.0
  0
LINE
  5
36B
102
{ACAD_REACTORS
330
429
330
42A
102
}
330
71
100
AcDbEntity
  8
0
  6
Continuous
 62
     2
100
AcDbLine
 10
-39.86694664337745
 20
11.54921786514657
 30
0.0
 11
-39.86694664337745
 21
12.85799337535127
 31
0.0
  0
LINE
  5
36C
102
{ACAD_REACTORS
330
429
330
42A
102
}
330
71
100
AcDbEntity
  8
0
  6
Continuous
 62
     2
100
AcDbLine
 10
-41.05973934554396
 20
14.60302738895777
 30
0.0
 11
-41.05973934554396
 21
11.54921786514657
 31
0.0
  0
LINE
  5
36D
102
{ACAD_REACTORS
330
429
330
42A
102
}
330
71
100
AcDbEntity
  8
0
  6
Continuous
 62
     2
100
AcDbLine
 10
-39.86694664337745
 20
14.60302738895777
 30
0.0
 11
-41.05973934554396
 21
14.60302738895777
 31
0.0
  0
LINE
  5
36E
102
{ACAD_REACTORS
330
429
330
42A
102
}
330
71
100
AcDbEntity
  8
0
  6
Continuous
 62
     2
100
AcDbLine
 10
-38.62644223312344
 20
14.60302738895777
 30
0.0
 11
-38.62644223312344
 21
13.29425187875259
 31
0.0
  0
LINE
  5
36F
102
{ACAD_REACTORS
330
427
330
428
102
}
330
71
100
AcDbEntity
  8
0
  6
Continuous
 62
     2
100
AcDbLine
 10
-46.30817816596365
 20
11.24383691278337
 30
0.0
 11
-46.30817816596365
 21
8.19002738897228
 31
0.0
  0
LINE
  5
370
102
{ACAD_REACTORS
330
427
330
428
102
}
330
71
100
AcDbEntity
  8
0
  6
Continuous
 62
     2
100
AcDbLine
 10
-45.11538546379606
 20
11.24383691278337
 30
0.0
 11
-46.30817816596365
 21
11.24383691278337
 31
0.0
  0
LINE
  5
371
102
{ACAD_REACTORS
330
427
330
428
102
}
330
71
100
AcDbEntity
  8
0
  6
Continuous
 62
     2
100
AcDbLine
 10
-43.87488105354316
 20
8.19002738897228
 30
0.0
 11
-42.68208835137676
 21
8.19002738897228
 31
0.0
  0
LINE
  5
372
102
{ACAD_REACTORS
330
427
330
428
102
}
330
71
100
AcDbEntity
  8
0
  6
Continuous
 62
     2
100
AcDbLine
 10
-46.30817816596365
 20
8.19002738897228
 30
0.0
 11
-45.11538546379606
 21
8.19002738897228
 31
0.0
  0
LINE
  5
373
102
{ACAD_REACTORS
330
437
330
438
102
}
330
71
100
AcDbEntity
  8
0
  6
Continuous
 62
     2
100
AcDbLine
 10
-42.63422571240454
 20
13.42512942977308
 30
0.0
 11
-42.63422571240454
 21
13.90501378351479
 31
0.0
  0
LINE
  5
374
102
{ACAD_REACTORS
330
437
330
438
102
}
330
71
100
AcDbEntity
  8
0
  6
Continuous
 62
     2
100
AcDbLine
 10
-41.29829788597687
 20
13.42512942977308
 30
0.0
 11
-42.63422571240454
 21
13.42512942977308
 31
0.0
  0
LINE
  5
375
102
{ACAD_REACTORS
330
437
330
438
102
}
330
71
100
AcDbEntity
  8
0
  6
Continuous
 62
     2
100
AcDbLine
 10
-41.29829788597687
 20
12.72711582433078
 30
0.0
 11
-41.29829788597687
 21
13.42512942977308
 31
0.0
  0
LINE
  5
376
102
{ACAD_REACTORS
330
437
330
438
102
}
330
71
100
AcDbEntity
  8
0
  6
Continuous
 62
     2
100
AcDbLine
 10
-42.63422571240454
 20
12.72711582433078
 30
0.0
 11
-41.29829788597687
 21
12.72711582433078
 31
0.0
  0
LINE
  5
377
102
{ACAD_REACTORS
330
425
330
426
102
}
330
71
100
AcDbEntity
  8
0
  6
Continuous
 62
     2
100
AcDbLine
 10
-46.11718040273146
 20
14.60302738895777
 30
0.0
 11
-46.11718040273146
 21
11.54921786514657
 31
0.0
  0
LINE
  5
378
102
{ACAD_REACTORS
330
425
330
426
102
}
330
71
100
AcDbEntity
  8
0
  6
Continuous
 62
     2
100
AcDbLine
 10
-46.11718040273146
 20
11.54921786514657
 30
0.0
 11
-47.30997310489786
 21
11.54921786514657
 31
0.0
  0
LINE
  5
379
102
{ACAD_REACTORS
330
425
330
426
102
}
330
71
100
AcDbEntity
  8
0
  6
Continuous
 62
     2
100
AcDbLine
 10
-47.30997310489786
 20
11.54921786514657
 30
0.0
 11
-47.30997310489786
 21
12.68348997399039
 31
0.0
  0
LINE
  5
37A
102
{ACAD_REACTORS
330
425
330
426
102
}
330
71
100
AcDbEntity
  8
0
  6
Continuous
 62
     2
100
AcDbLine
 10
-48.35963068280535
 20
11.54921786514657
 30
0.0
 11
-49.55242338497195
 21
11.54921786514657
 31
0.0
  0
LINE
  5
37B
102
{ACAD_REACTORS
330
425
330
426
102
}
330
71
100
AcDbEntity
  8
0
  6
Continuous
 62
     2
100
AcDbLine
 10
-49.55242338497195
 20
14.60302738895777
 30
0.0
 11
-48.35963068280535
 21
14.60302738895777
 31
0.0
  0
LINE
  5
37C
102
{ACAD_REACTORS
330
425
330
426
102
}
330
71
100
AcDbEntity
  8
0
  6
Continuous
 62
     2
100
AcDbLine
 10
-48.35963068280535
 20
14.60302738895777
 30
0.0
 11
-48.35963068280535
 21
13.53419405562318
 31
0.0
  0
LINE
  5
37D
102
{ACAD_REACTORS
330
425
330
426
102
}
330
71
100
AcDbEntity
  8
0
  6
Continuous
 62
     2
100
AcDbLine
 10
-48.35963068280535
 20
13.53419405562318
 30
0.0
 11
-47.30997310489786
 21
13.53419405562318
 31
0.0
  0
LINE
  5
37E
102
{ACAD_REACTORS
330
433
330
434
102
}
330
71
100
AcDbEntity
  8
0
  6
Continuous
 62
     2
100
AcDbLine
 10
-51.50860341652555
 20
13.93992154351767
 30
0.0
 11
-51.19130835498365
 21
13.93992154351767
 31
0.0
  0
LINE
  5
37F
102
{ACAD_REACTORS
330
433
330
434
102
}
330
71
100
AcDbEntity
  8
0
  6
Continuous
 62
     2
100
AcDbLine
 10
-51.50860341652555
 20
13.23419389417546
 30
0.0
 11
-51.19130835498365
 21
13.23419389417546
 31
0.0
  0
LINE
  5
380
102
{ACAD_REACTORS
330
433
330
434
102
}
330
71
100
AcDbEntity
  8
0
  6
Continuous
 62
     2
100
AcDbLine
 10
-52.74910782677966
 20
14.60302738895777
 30
0.0
 11
-52.74910782677966
 21
11.54921786514657
 31
0.0
  0
LINE
  5
381
102
{ACAD_REACTORS
330
433
330
434
102
}
330
71
100
AcDbEntity
  8
0
  6
Continuous
 62
     2
100
AcDbLine
 10
-52.74910782677966
 20
14.60302738895777
 30
0.0
 11
-50.74983582874526
 21
14.60302738895777
 31
0.0
  0
LINE
  5
382
102
{ACAD_REACTORS
330
433
330
434
102
}
330
71
100
AcDbEntity
  8
0
  6
Continuous
 62
     2
100
AcDbLine
 10
-51.50860341652555
 20
12.49229610629038
 30
0.0
 11
-50.74983582874526
 21
12.49229610629038
 31
0.0
  0
LINE
  5
383
102
{ACAD_REACTORS
330
439
330
43A
102
}
330
71
100
AcDbEntity
  8
0
  6
Continuous
 62
     2
100
AcDbLine
 10
-58.84560386007635
 20
13.57475491032298
 30
0.0
 11
-58.84560386007635
 21
9.21829986760588
 31
0.0
  0
LINE
  5
384
102
{ACAD_REACTORS
330
439
330
43A
102
}
330
71
100
AcDbEntity
  8
0
  6
Continuous
 62
     2
100
AcDbLine
 10
-58.52988693700067
 20
13.89047183339918
 30
0.0
 11
-57.05405367599104
 21
13.89047183339918
 31
0.0
  0
LINE
  5
385
102
{ACAD_REACTORS
330
439
330
43A
102
}
330
71
100
AcDbEntity
  8
0
  6
Continuous
 62
     2
100
AcDbLine
 10
-56.73833675291445
 20
12.97073029126247
 30
0.0
 11
-56.73833675291445
 21
13.57475491032298
 31
0.0
  0
LINE
  5
386
102
{ACAD_REACTORS
330
439
330
43A
102
}
330
71
100
AcDbEntity
  8
0
  6
Continuous
 62
     2
100
AcDbLine
 10
-56.73833675291445
 20
9.21829986760588
 30
0.0
 11
-56.73833675291445
 21
10.74907079913749
 31
0.0
  0
LINE
  5
387
102
{ACAD_REACTORS
330
439
330
43A
102
}
330
71
100
AcDbEntity
  8
0
  6
Continuous
 62
     2
100
AcDbLine
 10
-53.65046952303035
 20
8.19002738897228
 30
0.0
 11
-59.12378161374716
 21
8.19002738897228
 31
0.0
  0
LINE
  5
388
102
{ACAD_REACTORS
330
439
330
43A
102
}
330
71
100
AcDbEntity
  8
0
  6
Continuous
 62
     2
100
AcDbLine
 10
-53.22622490764647
 20
14.17878277355578
 30
0.0
 11
-53.22622490764647
 21
8.61427200435557
 31
0.0
  0
LINE
  5
389
102
{ACAD_REACTORS
330
439
330
43A
102
}
330
71
100
AcDbEntity
  8
0
  6
Continuous
 62
     2
100
AcDbLine
 10
-59.12378161374716
 20
14.60302738893958
 30
0.0
 11
-53.65046952303035
 21
14.60302738893958
 31
0.0
  0
LINE
  5
38A
102
{ACAD_REACTORS
330
439
330
43A
102
}
330
71
100
AcDbEntity
  8
0
  6
Continuous
 62
     2
100
AcDbLine
 10
-59.54802622912996
 20
14.17878277355578
 30
0.0
 11
-59.54802622912996
 21
8.61427200435557
 31
0.0
  0
LINE
  5
38B
102
{ACAD_REACTORS
330
439
330
43A
102
}
330
71
100
AcDbEntity
  8
0
  6
Continuous
 62
     2
100
AcDbLine
 10
-57.05405367599104
 20
8.90258294452917
 30
0.0
 11
-58.52988693700067
 21
8.90258294452917
 31
0.0
  0
LINE
  5
38C
102
{ACAD_REACTORS
330
433
330
434
102
}
330
71
100
AcDbEntity
  8
0
  6
Continuous
 62
     2
100
AcDbLine
 10
-51.50860341652555
 20
11.54921786514657
 30
0.0
 11
-51.50860341652555
 21
12.49229610629038
 31
0.0
  0
LINE
  5
38D
102
{ACAD_REACTORS
330
433
330
434
102
}
330
71
100
AcDbEntity
  8
0
  6
Continuous
 62
     2
100
AcDbLine
 10
-52.74910782677966
 20
11.54921786514657
 30
0.0
 11
-51.50860341652555
 21
11.54921786514657
 31
0.0
  0
LINE
  5
38E
102
{ACAD_REACTORS
330
433
330
434
102
}
330
71
100
AcDbEntity
  8
0
  6
Continuous
 62
     2
100
AcDbLine
 10
-51.50860341652555
 20
13.23419389417546
 30
0.0
 11
-51.50860341652555
 21
13.93992154351767
 31
0.0
  0
LINE
  5
38F
102
{ACAD_REACTORS
330
425
330
426
102
}
330
71
100
AcDbEntity
  8
0
  6
Continuous
 62
     2
100
AcDbLine
 10
-49.55242338497195
 20
14.60302738895777
 30
0.0
 11
-49.55242338497195
 21
11.54921786514657
 31
0.0
  0
LINE
  5
390
102
{ACAD_REACTORS
330
425
330
426
102
}
330
71
100
AcDbEntity
  8
0
  6
Continuous
 62
     2
100
AcDbLine
 10
-48.35963068280535
 20
12.68348997399039
 30
0.0
 11
-48.35963068280535
 21
11.54921786514657
 31
0.0
  0
LINE
  5
391
102
{ACAD_REACTORS
330
425
330
426
102
}
330
71
100
AcDbEntity
  8
0
  6
Continuous
 62
     2
100
AcDbLine
 10
-47.30997310489786
 20
12.68348997399039
 30
0.0
 11
-48.35963068280535
 21
12.68348997399039
 31
0.0
  0
LINE
  5
392
102
{ACAD_REACTORS
330
425
330
426
102
}
330
71
100
AcDbEntity
  8
0
  6
Continuous
 62
     2
100
AcDbLine
 10
-47.30997310489786
 20
14.60302738895777
 30
0.0
 11
-46.11718040273146
 21
14.60302738895777
 31
0.0
  0
LINE
  5
393
102
{ACAD_REACTORS
330
425
330
426
102
}
330
71
100
AcDbEntity
  8
0
  6
Continuous
 62
     2
100
AcDbLine
 10
-47.30997310489786
 20
13.53419405562318
 30
0.0
 11
-47.30997310489786
 21
14.60302738895777
 31
0.0
  0
LINE
  5
394
102
{ACAD_REACTORS
330
437
330
438
102
}
330
71
100
AcDbEntity
  8
0
  6
Continuous
 62
     2
100
AcDbLine
 10
-41.29829788597687
 20
13.90501378351479
 30
0.0
 11
-41.29829788597687
 21
14.60302738895777
 31
0.0
  0
LINE
  5
395
102
{ACAD_REACTORS
330
437
330
438
102
}
330
71
100
AcDbEntity
  8
0
  6
Continuous
 62
     2
100
AcDbLine
 10
-44.44861760975786
 20
14.60302738895777
 30
0.0
 11
-41.29829788597687
 21
14.60302738895777
 31
0.0
  0
LINE
  5
396
102
{ACAD_REACTORS
330
437
330
438
102
}
330
71
100
AcDbEntity
  8
0
  6
Continuous
 62
     2
100
AcDbLine
 10
-44.44861760975786
 20
11.54921786514657
 30
0.0
 11
-41.29829788597687
 21
11.54921786514657
 31
0.0
  0
LINE
  5
397
102
{ACAD_REACTORS
330
437
330
438
102
}
330
71
100
AcDbEntity
  8
0
  6
Continuous
 62
     2
100
AcDbLine
 10
-41.29829788597687
 20
11.54921786514657
 30
0.0
 11
-41.29829788597687
 21
12.24723147058907
 31
0.0
  0
LINE
  5
398
102
{ACAD_REACTORS
330
437
330
438
102
}
330
71
100
AcDbEntity
  8
0
  6
Continuous
 62
     2
100
AcDbLine
 10
-41.29829788597687
 20
12.24723147058907
 30
0.0
 11
-42.63422571240454
 21
12.24723147058907
 31
0.0
  0
LINE
  5
399
102
{ACAD_REACTORS
330
437
330
438
102
}
330
71
100
AcDbEntity
  8
0
  6
Continuous
 62
     2
100
AcDbLine
 10
-42.63422571240454
 20
12.24723147058907
 30
0.0
 11
-42.63422571240454
 21
12.72711582433078
 31
0.0
  0
LINE
  5
39A
102
{ACAD_REACTORS
330
437
330
438
102
}
330
71
100
AcDbEntity
  8
0
  6
Continuous
 62
     2
100
AcDbLine
 10
-42.63422571240454
 20
13.90501378351479
 30
0.0
 11
-41.29829788597687
 21
13.90501378351479
 31
0.0
  0
LINE
  5
39B
102
{ACAD_REACTORS
330
427
330
428
102
}
330
71
100
AcDbEntity
  8
0
  6
Continuous
 62
     2
100
AcDbLine
 10
-45.11538546379606
 20
8.19002738897228
 30
0.0
 11
-45.11538546379606
 21
9.49880289917687
 31
0.0
  0
LINE
  5
39C
102
{ACAD_REACTORS
330
427
330
428
102
}
330
71
100
AcDbEntity
  8
0
  6
Continuous
 62
     2
100
AcDbLine
 10
-45.11538546379606
 20
9.49880289917687
 30
0.0
 11
-43.87488105354316
 21
8.19002738897228
 31
0.0
  0
LINE
  5
39D
102
{ACAD_REACTORS
330
427
330
428
102
}
330
71
100
AcDbEntity
  8
0
  6
Continuous
 62
     2
100
AcDbLine
 10
-42.68208835137676
 20
8.19002738897228
 30
0.0
 11
-42.68208835137676
 21
11.24383691278337
 31
0.0
  0
LINE
  5
39E
102
{ACAD_REACTORS
330
427
330
428
102
}
330
71
100
AcDbEntity
  8
0
  6
Continuous
 62
     2
100
AcDbLine
 10
-42.68208835137676
 20
11.24383691278337
 30
0.0
 11
-43.87488105354316
 21
11.24383691278337
 31
0.0
  0
LINE
  5
39F
102
{ACAD_REACTORS
330
427
330
428
102
}
330
71
100
AcDbEntity
  8
0
  6
Continuous
 62
     2
100
AcDbLine
 10
-43.87488105354316
 20
11.24383691278337
 30
0.0
 11
-43.87488105354316
 21
9.93506140257827
 31
0.0
  0
LINE
  5
3A0
102
{ACAD_REACTORS
330
427
330
428
102
}
330
71
100
AcDbEntity
  8
0
  6
Continuous
 62
     2
100
AcDbLine
 10
-43.87488105354316
 20
9.93506140257827
 30
0.0
 11
-45.11538546379606
 21
11.24383691278337
 31
0.0
  0
LINE
  5
3A1
102
{ACAD_REACTORS
330
429
330
42A
102
}
330
71
100
AcDbEntity
  8
0
  6
Continuous
 62
     2
100
AcDbLine
 10
-39.86694664337745
 20
12.85799337535127
 30
0.0
 11
-38.62644223312344
 21
11.54921786514657
 31
0.0
  0
LINE
  5
3A2
102
{ACAD_REACTORS
330
429
330
42A
102
}
330
71
100
AcDbEntity
  8
0
  6
Continuous
 62
     2
100
AcDbLine
 10
-38.62644223312344
 20
11.54921786514657
 30
0.0
 11
-37.43364953095684
 21
11.54921786514657
 31
0.0
  0
LINE
  5
3A3
102
{ACAD_REACTORS
330
429
330
42A
102
}
330
71
100
AcDbEntity
  8
0
  6
Continuous
 62
     2
100
AcDbLine
 10
-37.43364953095684
 20
11.54921786514657
 30
0.0
 11
-37.43364953095684
 21
14.60302738895777
 31
0.0
  0
LINE
  5
3A4
102
{ACAD_REACTORS
330
429
330
42A
102
}
330
71
100
AcDbEntity
  8
0
  6
Continuous
 62
     2
100
AcDbLine
 10
-37.43364953095684
 20
14.60302738895777
 30
0.0
 11
-38.62644223312344
 21
14.60302738895777
 31
0.0
  0
LINE
  5
3A5
102
{ACAD_REACTORS
330
429
330
42A
102
}
330
71
100
AcDbEntity
  8
0
  6
Continuous
 62
     2
100
AcDbLine
 10
-38.62644223312344
 20
13.29425187875259
 30
0.0
 11
-39.86694664337745
 21
14.60302738895777
 31
0.0
  0
LINE
  5
3A6
102
{ACAD_REACTORS
330
429
330
42A
102
}
330
71
100
AcDbEntity
  8
0
  6
Continuous
 62
     2
100
AcDbLine
 10
-41.05973934554396
 20
11.54921786514657
 30
0.0
 11
-39.86694664337745
 21
11.54921786514657
 31
0.0
  0
LINE
  5
3A7
102
{ACAD_REACTORS
330
42B
330
42C
102
}
330
71
100
AcDbEntity
  8
0
  6
Continuous
 62
     2
100
AcDbLine
 10
-42.53895322711657
 20
11.24383691278337
 30
0.0
 11
-42.53895322711657
 21
10.45857160665977
 31
0.0
  0
LINE
  5
3A8
102
{ACAD_REACTORS
330
42B
330
42C
102
}
330
71
100
AcDbEntity
  8
0
  6
Continuous
 62
     2
100
AcDbLine
 10
-41.72785418964196
 20
10.45857160665977
 30
0.0
 11
-41.72785418964196
 21
8.19002738897228
 31
0.0
  0
LINE
  5
3A9
102
{ACAD_REACTORS
330
42B
330
42C
102
}
330
71
100
AcDbEntity
  8
0
  6
Continuous
 62
     2
100
AcDbLine
 10
-41.72785418964196
 20
8.19002738897228
 30
0.0
 11
-40.53506148747545
 21
8.19002738897228
 31
0.0
  0
LINE
  5
3AA
102
{ACAD_REACTORS
330
42D
330
42E
102
}
330
71
100
AcDbEntity
  8
0
  6
Continuous
 62
     2
100
AcDbLine
 10
-37.58553499405596
 20
8.19002738897228
 30
0.0
 11
-37.79701504753174
 21
8.73098793319016
 31
0.0
  0
LINE
  5
3AB
102
{ACAD_REACTORS
330
42D
330
42E
102
}
330
71
100
AcDbEntity
  8
0
  6
Continuous
 62
     2
100
AcDbLine
 10
-37.74298363074234
 20
11.24383691278337
 30
0.0
 11
-36.34503058380204
 21
8.19002738897228
 31
0.0
  0
LINE
  5
3AC
102
{ACAD_REACTORS
330
42D
330
42E
102
}
330
71
100
AcDbEntity
  8
0
  6
Continuous
 62
     2
100
AcDbLine
 10
-38.98348804099504
 20
11.24383691278337
 30
0.0
 11
-37.74298363074234
 21
11.24383691278337
 31
0.0
  0
LINE
  5
3AD
102
{ACAD_REACTORS
330
42D
330
42E
102
}
330
71
100
AcDbEntity
  8
0
  6
Continuous
 62
     2
100
AcDbLine
 10
-40.38144108793435
 20
8.19002738897228
 30
0.0
 11
-39.14093667768137
 21
8.19002738897228
 31
0.0
  0
LINE
  5
3AE
102
{ACAD_REACTORS
330
42D
330
42E
102
}
330
71
100
AcDbEntity
  8
0
  6
Continuous
 62
     2
100
AcDbLine
 10
-38.66340107306056
 20
9.41155119849677
 30
0.0
 11
-38.06307059867805
 21
9.41155119849677
 31
0.0
  0
LINE
  5
3AF
102
{ACAD_REACTORS
330
42D
330
42E
102
}
330
71
100
AcDbEntity
  8
0
  6
Continuous
 62
     2
100
AcDbLine
 10
-38.06307059867805
 20
9.41155119849677
 30
0.0
 11
-38.36323583586815
 21
10.17936616448347
 31
0.0
  0
LINE
  5
3B0
102
{ACAD_REACTORS
330
42F
330
430
102
}
330
71
100
AcDbEntity
  8
0
  6
Continuous
 62
     2
100
AcDbLine
 10
-35.95458658027005
 20
11.54921786514657
 30
0.0
 11
-37.19509099052294
 21
11.54921786514657
 31
0.0
  0
LINE
  5
3B1
102
{ACAD_REACTORS
330
431
330
432
102
}
330
71
100
AcDbEntity
  8
0
  6
Continuous
 62
     2
100
AcDbLine
 10
-34.43258309230495
 20
11.54921786514657
 30
0.0
 11
-35.83530731005317
 21
11.54921786514657
 31
0.0
  0
LINE
  5
3B2
102
{ACAD_REACTORS
330
431
330
432
102
}
330
71
100
AcDbEntity
  8
0
  6
Continuous
 62
     2
100
AcDbLine
 10
-34.43258309230495
 20
11.54921786514657
 30
0.0
 11
-33.73599215423926
 21
12.33694965044029
 31
0.0
  0
LINE
  5
3B3
102
{ACAD_REACTORS
330
431
330
432
102
}
330
71
100
AcDbEntity
  8
0
  6
Continuous
 62
     2
100
AcDbLine
 10
-33.13482463234647
 20
14.60302738895777
 30
0.0
 11
-31.73210041459925
 21
14.60302738895777
 31
0.0
  0
LINE
  5
3B4
102
{ACAD_REACTORS
330
431
330
432
102
}
330
71
100
AcDbEntity
  8
0
  6
Continuous
 62
     2
100
AcDbLine
 10
-35.73988389388035
 20
14.60302738895777
 30
0.0
 11
-34.43735426311287
 21
13.13007685892157
 31
0.0
  0
LINE
  5
3B5
102
{ACAD_REACTORS
330
431
330
432
102
}
330
71
100
AcDbEntity
  8
0
  6
Continuous
 62
     2
100
AcDbLine
 10
-35.83530731005317
 20
11.54921786514657
 30
0.0
 11
-34.43735426311287
 21
13.13007685892157
 31
0.0
  0
LINE
  5
3B6
102
{ACAD_REACTORS
330
43B
330
43C
102
}
330
71
100
AcDbEntity
  8
0
  6
Continuous
 62
     2
100
AcDbLine
 10
-33.97455069467324
 20
9.23704779713589
 30
0.0
 11
-33.97455069467324
 21
8.36453079033257
 31
0.0
  0
LINE
  5
3B7
102
{ACAD_REACTORS
330
43B
330
43C
102
}
330
71
100
AcDbEntity
  8
0
  6
Continuous
 62
     2
100
AcDbLine
 10
-34.74420803763465
 20
10.45857160665977
 30
0.0
 11
-33.64056873806655
 21
10.45857160665977
 31
0.0
  0
LINE
  5
3B8
102
{ACAD_REACTORS
330
43D
330
43E
102
}
330
71
100
AcDbEntity
  8
0
  6
Continuous
 62
     2
100
AcDbLine
 10
-50.07725217392516
 20
9.23704779713637
 30
0.0
 11
-50.07725217392516
 21
8.36453079033316
 31
0.0
  0
LINE
  5
3B9
102
{ACAD_REACTORS
330
43D
330
43E
102
}
330
71
100
AcDbEntity
  8
0
  6
Continuous
 62
     2
100
AcDbLine
 10
-50.07725217392516
 20
10.19681650461928
 30
0.0
 11
-50.07725217392516
 21
11.06933351142257
 31
0.0
  0
LINE
  5
3BA
330
71
100
AcDbEntity
  8
1
  6
Continuous
 62
     7
100
AcDbLine
 10
65.76012341105874
 20
9.39652738895597
 30
0.0
 11
-27.38468111569264
 21
9.39652738895597
 31
0.0
  0
LINE
  5
3BB
330
71
100
AcDbEntity
  8
1
  6
Continuous
 62
     6
100
AcDbLine
 10
-132.7846811156925
 20
0.89652738895597
 30
0.0
 11
-177.7398765889425
 21
0.89652738895597
 31
0.0
  0
LINE
  5
3BC
330
71
100
AcDbEntity
  8
1
  6
Continuous
 62
     7
100
AcDbLine
 10
56.84171512937994
 20
26.39652738895597
 30
0.0
 11
56.84171512937994
 21
17.89652738895597
 31
0.0
  0
LINE
  5
3BD
330
71
100
AcDbEntity
  8
1
  6
Continuous
 62
     7
100
AcDbLine
 10
30.34171512938033
 20
26.39652738895597
 30
0.0
 11
30.34171512938033
 21
17.89652738895597
 31
0.0
  0
LINE
  5
3BE
330
71
100
AcDbEntity
  8
1
  6
Continuous
 62
     7
100
AcDbLine
 10
-27.38468111569264
 20
17.89652738895597
 30
0.0
 11
-27.38468111569264
 21
26.39652738895597
 31
0.0
  0
LINE
  5
3BF
330
71
100
AcDbEntity
  8
1
  6
Continuous
 62
     7
100
AcDbLine
 10
-63.78468111569256
 20
17.89652738895597
 30
0.0
 11
-63.78468111569256
 21
26.39652738895597
 31
0.0
  0
LINE
  5
3C0
330
71
100
AcDbEntity
  8
1
  6
Continuous
 62
     6
100
AcDbLine
 10
-27.38468111569264
 20
17.89652738895597
 30
0.0
 11
65.76012341105914
 21
17.89652738895597
 31
0.0
  0
LINE
  5
3C1
330
71
100
AcDbEntity
  8
1
  6
Continuous
 62
     7
100
AcDbLine
 10
0.51531888430745
 20
9.39652738895589
 30
0.0
 11
0.51531888430745
 21
17.89652738895597
 31
0.0
  0
LINE
  5
3C2
330
71
100
AcDbEntity
  8
1
  6
PHANTOM
 62
     2
100
AcDbLine
 10
-48.29802622912996
 20
22.02152738895589
 30
0.0
 11
-53.79802622912996
 21
22.02152738895589
 31
0.0
  0
LINE
  5
3C3
330
71
100
AcDbEntity
  8
1
  6
PHANTOM
 62
     2
100
AcDbLine
 10
-51.04802622912996
 20
24.77152738895589
 30
0.0
 11
-51.04802622912996
 21
19.27152738895589
 31
0.0
  0
LINE
  5
3C4
330
71
100
AcDbEntity
  8
1
  6
DOT_CENTER
 62
     2
100
AcDbLine
 10
-59.79802622912996
 20
22.02152738895589
 30
0.0
 11
-54.29802622912996
 21
22.02152738895589
 31
0.0
  0
ARC
  5
3C5
102
{ACAD_REACTORS
330
43D
330
43E
102
}
330
71
100
AcDbEntity
  8
0
  6
Continuous
 62
     2
100
AcDbCircle
 10
-51.41318009104296
 20
6.40425120562168
 30
0.0
 40
4.852596863498067
100
AcDbArc
 50
74.02000874164739
 51
84.84185523037506
  0
ARC
  5
3C6
102
{ACAD_REACTORS
330
43D
330
43E
102
}
330
71
100
AcDbEntity
  8
0
  6
Continuous
 62
     2
100
AcDbCircle
 10
-50.83713948228925
 20
9.56001156150597
 30
0.0
 40
0.9059297849853217
100
AcDbArc
 50
71.55192388185299
 51
113.3722778881285
  0
ARC
  5
3C7
102
{ACAD_REACTORS
330
43D
330
43E
102
}
330
71
100
AcDbEntity
  8
0
  6
Continuous
 62
     2
100
AcDbCircle
 10
-50.99357951499127
 20
9.51186072153908
 30
0.0
 40
0.5115800601948096
100
AcDbArc
 50
208.5214732576952
 51
246.6277221118274
  0
ARC
  5
3C8
102
{ACAD_REACTORS
330
43D
330
43E
102
}
330
71
100
AcDbEntity
  8
0
  6
Continuous
 62
     2
100
AcDbCircle
 10
-50.83713948228925
 20
9.87385274024908
 30
0.0
 40
0.9059297849849164
100
AcDbArc
 50
246.6277221118714
 51
288.4480761181589
  0
ARC
  5
3C9
102
{ACAD_REACTORS
330
43D
330
43E
102
}
330
71
100
AcDbEntity
  8
0
  6
Continuous
 62
     2
100
AcDbCircle
 10
-51.25530721595004
 20
11.12739851628626
 30
0.0
 40
2.227384008972733
100
AcDbArc
 50
288.4480761181328
 51
301.9309089499593
  0
ARC
  5
3CA
102
{ACAD_REACTORS
330
439
330
43A
102
}
330
71
100
AcDbEntity
  8
0
  6
Continuous
 62
     2
100
AcDbCircle
 10
-56.48038094855684
 20
11.85990054520028
 30
0.0
 40
0.9118481501444653
100
AcDbArc
 50
295.3740086781763
 51
64.62599132180736
  0
ARC
  5
3CB
102
{ACAD_REACTORS
330
439
330
43A
102
}
330
71
100
AcDbEntity
  8
0
  6
Continuous
 62
     2
100
AcDbCircle
 10
-55.95433825046897
 20
13.57457743367488
 30
0.0
 40
0.3157169230760639
100
AcDbArc
 50
90.18896704254463
 51
180.0
  0
ARC
  5
3CC
102
{ACAD_REACTORS
330
43B
330
43C
102
}
330
71
100
AcDbEntity
  8
0
  6
Continuous
 62
     2
100
AcDbCircle
 10
-34.74420803763465
 20
9.50404859983368
 30
0.0
 40
0.9545230068260899
100
AcDbArc
 50
90.0
 51
109.3371432194321
  0
ARC
  5
3CD
102
{ACAD_REACTORS
330
43B
330
43C
102
}
330
71
100
AcDbEntity
  8
0
  6
Continuous
 62
     2
100
AcDbCircle
 10
-34.51352077765696
 20
9.71693215087757
 30
0.0
 40
0.9410597353348978
100
AcDbArc
 50
151.4785267423627
 51
208.5214732576693
  0
ARC
  5
3CE
102
{ACAD_REACTORS
330
43B
330
43C
102
}
330
71
100
AcDbEntity
  8
0
  6
Continuous
 62
     2
100
AcDbCircle
 10
-34.73443800303525
 20
9.87385274024908
 30
0.0
 40
0.9059297849852801
100
AcDbArc
 50
246.6277221118183
 51
288.4480761180817
  0
ARC
  5
3CF
102
{ACAD_REACTORS
330
43B
330
43C
102
}
330
71
100
AcDbEntity
  8
0
  6
Continuous
 62
     2
100
AcDbCircle
 10
-35.15260573669715
 20
11.12739851628567
 30
0.0
 40
2.227384008972747
100
AcDbArc
 50
288.4480761181333
 51
301.9309089499395
  0
ARC
  5
3D0
102
{ACAD_REACTORS
330
43B
330
43C
102
}
330
71
100
AcDbEntity
  8
0
  6
Continuous
 62
     2
100
AcDbCircle
 10
-35.31047861178996
 20
13.02961309613397
 30
0.0
 40
4.852596863498822
100
AcDbArc
 50
275.1581447696362
 51
285.9799912583387
  0
ARC
  5
3D1
102
{ACAD_REACTORS
330
43B
330
43C
102
}
330
71
100
AcDbEntity
  8
0
  6
Continuous
 62
     2
100
AcDbCircle
 10
-35.02162251705414
 20
9.82972251291238
 30
0.0
 40
1.639695123940442
100
AcDbArc
 50
195.0618917771013
 51
275.158144769676
  0
ARC
  5
3D2
102
{ACAD_REACTORS
330
433
330
434
102
}
330
71
100
AcDbEntity
  8
0
  6
Continuous
 62
     2
100
AcDbCircle
 10
-50.74983582874526
 20
13.54766174762409
 30
0.0
 40
1.05536564133371
100
AcDbArc
 50
270.0
 51
90.0
  0
ARC
  5
3D3
102
{ACAD_REACTORS
330
439
330
43A
102
}
330
71
100
AcDbEntity
  8
0
  6
Continuous
 62
     2
100
AcDbCircle
 10
-58.52988693700067
 20
9.21829986760588
 30
0.0
 40
0.3157169230756836
100
AcDbArc
 50
180.0
 51
270.0
  0
ARC
  5
3D4
102
{ACAD_REACTORS
330
439
330
43A
102
}
330
71
100
AcDbEntity
  8
0
  6
Continuous
 62
     2
100
AcDbCircle
 10
-57.05405367599104
 20
13.57475491032298
 30
0.0
 40
0.315716923076593
100
AcDbArc
 50
0.0
 51
90.0
  0
ARC
  5
3D5
102
{ACAD_REACTORS
330
439
330
43A
102
}
330
71
100
AcDbEntity
  8
0
  6
Continuous
 62
     2
100
AcDbCircle
 10
-57.05405367599104
 20
12.97073029126247
 30
0.0
 40
0.3157169230761172
100
AcDbArc
 50
295.1944106485386
 51
0.0
  0
ARC
  5
3D6
102
{ACAD_REACTORS
330
439
330
43A
102
}
330
71
100
AcDbEntity
  8
0
  6
Continuous
 62
     2
100
AcDbCircle
 10
-57.05405367599104
 20
9.21829986760588
 30
0.0
 40
0.3157169230767067
100
AcDbArc
 50
270.0
 51
0.0
  0
ARC
  5
3D7
102
{ACAD_REACTORS
330
439
330
43A
102
}
330
71
100
AcDbEntity
  8
0
  6
Continuous
 62
     2
100
AcDbCircle
 10
-59.12378161374716
 20
14.17878277355578
 30
0.0
 40
0.4242446153838006
100
AcDbArc
 50
90.0
 51
180.0
  0
ARC
  5
3D8
102
{ACAD_REACTORS
330
439
330
43A
102
}
330
71
100
AcDbEntity
  8
0
  6
Continuous
 62
     2
100
AcDbCircle
 10
-53.65046952303035
 20
14.17878277355578
 30
0.0
 40
0.4242446153838841
100
AcDbArc
 50
0.0
 51
90.0
  0
ARC
  5
3D9
102
{ACAD_REACTORS
330
439
330
43A
102
}
330
71
100
AcDbEntity
  8
0
  6
Continuous
 62
     2
100
AcDbCircle
 10
-53.65046952303035
 20
8.61427200435557
 30
0.0
 40
0.4242446153832873
100
AcDbArc
 50
270.0
 51
0.0
  0
ARC
  5
3DA
102
{ACAD_REACTORS
330
437
330
438
102
}
330
71
100
AcDbEntity
  8
0
  6
Continuous
 62
     2
100
AcDbCircle
 10
-44.43208563593885
 20
13.07612262705189
 30
0.0
 40
0.7717997786796351
100
AcDbArc
 50
321.879580202844
 51
38.12041979715967
  0
ARC
  5
3DB
102
{ACAD_REACTORS
330
437
330
438
102
}
330
71
100
AcDbEntity
  8
0
  6
Continuous
 62
     2
100
AcDbCircle
 10
-44.23234559959266
 20
12.91939144893146
 30
0.0
 40
0.5179085730134261
100
AcDbArc
 50
218.1204197971508
 51
321.8795802028574
  0
ARC
  5
3DC
102
{ACAD_REACTORS
330
435
330
436
102
}
330
71
100
AcDbEntity
  8
0
  6
Continuous
 62
     2
100
AcDbCircle
 10
-47.91235318855286
 20
9.71693215087757
 30
0.0
 40
1.458034083652006
100
AcDbArc
 50
297.5481481757013
 51
62.45185182429877
  0
ARC
  5
3DD
102
{ACAD_REACTORS
330
435
330
436
102
}
330
71
100
AcDbEntity
  8
0
  6
Continuous
 62
     2
100
AcDbCircle
 10
-48.47423297221945
 20
9.71693215087757
 30
0.0
 40
1.458034083651496
100
AcDbArc
 50
117.5481481756626
 51
242.4518518243373
  0
ARC
  5
3DE
102
{ACAD_REACTORS
330
435
330
436
102
}
330
71
100
AcDbEntity
  8
0
  6
Continuous
 62
     2
100
AcDbCircle
 10
-48.19329308038616
 20
9.17835714057478
 30
0.0
 40
2.065479772208574
100
AcDbArc
 50
62.45185182430624
 51
117.5481481756662
  0
ARC
  5
3DF
102
{ACAD_REACTORS
330
435
330
436
102
}
330
71
100
AcDbEntity
  8
0
  6
Continuous
 62
     2
100
AcDbCircle
 10
-48.19329308038616
 20
10.25550716118087
 30
0.0
 40
2.065479772208502
100
AcDbArc
 50
242.4518518243403
 51
297.5481481756873
  0
ARC
  5
3E0
102
{ACAD_REACTORS
330
437
330
438
102
}
330
71
100
AcDbEntity
  8
0
  6
Continuous
 62
     2
100
AcDbCircle
 10
-44.03260556324636
 20
13.07612262705189
 30
0.0
 40
0.7717997786796679
100
AcDbArc
 50
141.87958020284
 51
218.1204197971564
  0
ARC
  5
3E1
102
{ACAD_REACTORS
330
437
330
438
102
}
330
71
100
AcDbEntity
  8
0
  6
Continuous
 62
     2
100
AcDbCircle
 10
-44.23234559959266
 20
13.23285380517237
 30
0.0
 40
0.5179085730135277
100
AcDbArc
 50
38.12041979714349
 51
141.8795802028483
  0
ARC
  5
3E2
102
{ACAD_REACTORS
330
439
330
43A
102
}
330
71
100
AcDbEntity
  8
0
  6
Continuous
 62
     2
100
AcDbCircle
 10
-59.12378161374716
 20
8.61427200435557
 30
0.0
 40
0.424244615382797
100
AcDbArc
 50
180.0
 51
270.0
  0
ARC
  5
3E3
102
{ACAD_REACTORS
330
439
330
43A
102
}
330
71
100
AcDbEntity
  8
0
  6
Continuous
 62
     2
100
AcDbCircle
 10
-57.05405367599104
 20
10.74907079913749
 30
0.0
 40
0.315716923076593
100
AcDbArc
 50
0.0
 51
64.80558935146145
  0
ARC
  5
3E4
102
{ACAD_REACTORS
330
439
330
43A
102
}
330
71
100
AcDbEntity
  8
0
  6
Continuous
 62
     2
100
AcDbCircle
 10
-56.53146922841606
 20
11.85990054520028
 30
0.0
 40
0.9118975235576144
100
AcDbArc
 50
115.1944106485287
 51
244.8055893514873
  0
ARC
  5
3E5
102
{ACAD_REACTORS
330
439
330
43A
102
}
330
71
100
AcDbEntity
  8
0
  6
Continuous
 62
     2
100
AcDbCircle
 10
-58.52988693700067
 20
13.57475491032298
 30
0.0
 40
0.3157169230762005
100
AcDbArc
 50
90.0
 51
180.0
  0
ARC
  5
3E6
102
{ACAD_REACTORS
330
433
330
434
102
}
330
71
100
AcDbEntity
  8
0
  6
Continuous
 62
     2
100
AcDbCircle
 10
-51.19130835498365
 20
13.58705771884658
 30
0.0
 40
0.35286382467112
100
AcDbArc
 50
270.0
 51
90.0
  0
ARC
  5
3E7
102
{ACAD_REACTORS
330
437
330
438
102
}
330
71
100
AcDbEntity
  8
0
  6
Continuous
 62
     2
100
AcDbCircle
 10
-44.44861760975786
 20
13.07612262705189
 30
0.0
 40
1.526904761905881
100
AcDbArc
 50
90.0
 51
270.0
  0
ARC
  5
3E8
102
{ACAD_REACTORS
330
43B
330
43C
102
}
330
71
100
AcDbEntity
  8
0
  6
Continuous
 62
     2
100
AcDbCircle
 10
-35.02162251705414
 20
9.60414178884267
 30
0.0
 40
1.639695123940212
100
AcDbArc
 50
90.0
 51
164.9381082228949
  0
ARC
  5
3E9
102
{ACAD_REACTORS
330
43B
330
43C
102
}
330
71
100
AcDbEntity
  8
0
  6
Continuous
 62
     2
100
AcDbCircle
 10
-35.44075036051575
 20
9.71693215087757
 30
0.0
 40
1.205656168392996
100
AcDbArc
 50
164.9381082229027
 51
195.061891777096
  0
ARC
  5
3EA
102
{ACAD_REACTORS
330
43B
330
43C
102
}
330
71
100
AcDbEntity
  8
0
  6
Continuous
 62
     2
100
AcDbCircle
 10
-34.89087803573835
 20
9.51186072153908
 30
0.0
 40
0.5115800601960215
100
AcDbArc
 50
208.5214732576866
 51
246.6277221118449
  0
ARC
  5
3EB
102
{ACAD_REACTORS
330
43B
330
43C
102
}
330
71
100
AcDbEntity
  8
0
  6
Continuous
 62
     2
100
AcDbCircle
 10
-34.89087803573835
 20
9.92200358021657
 30
0.0
 40
0.5115800601944109
100
AcDbArc
 50
109.3371432194854
 51
151.4785267424226
  0
ARC
  5
3EC
102
{ACAD_REACTORS
330
439
330
43A
102
}
330
71
100
AcDbEntity
  8
0
  6
Continuous
 62
     2
100
AcDbCircle
 10
-55.95433825046897
 20
10.16890753853679
 30
0.0
 40
0.3157169230767849
100
AcDbArc
 50
180.0
 51
269.8110329574554
  0
ARC
  5
3ED
102
{ACAD_REACTORS
330
439
330
43A
102
}
330
71
100
AcDbEntity
  8
0
  6
Continuous
 62
     2
100
AcDbCircle
 10
-55.94872211515894
 20
11.87174248610577
 30
0.0
 40
2.018561131933262
100
AcDbArc
 50
269.8110329575857
 51
90.18896704241436
  0
ARC
  5
3EE
102
{ACAD_REACTORS
330
439
330
43A
102
}
330
71
100
AcDbEntity
  8
0
  6
Continuous
 62
     2
100
AcDbCircle
 10
-55.95433825046897
 20
12.96904214516809
 30
0.0
 40
0.3157169230767849
100
AcDbArc
 50
180.0
 51
244.6259913216495
  0
ARC
  5
3EF
102
{ACAD_REACTORS
330
439
330
43A
102
}
330
71
100
AcDbEntity
  8
0
  6
Continuous
 62
     2
100
AcDbCircle
 10
-55.95433825046897
 20
10.75075894523187
 30
0.0
 40
0.3157169230765218
100
AcDbArc
 50
115.3740086783514
 51
180.0
  0
ARC
  5
3F0
102
{ACAD_REACTORS
330
43D
330
43E
102
}
330
71
100
AcDbEntity
  8
0
  6
Continuous
 62
     2
100
AcDbCircle
 10
-51.12432399630706
 20
9.60414178884267
 30
0.0
 40
1.639695123940507
100
AcDbArc
 50
84.84185523036211
 51
164.9381082228864
  0
ARC
  5
3F1
102
{ACAD_REACTORS
330
43D
330
43E
102
}
330
71
100
AcDbEntity
  8
0
  6
Continuous
 62
     2
100
AcDbCircle
 10
-51.54345183976986
 20
9.71693215087757
 30
0.0
 40
1.205656168390944
100
AcDbArc
 50
164.9381082228765
 51
195.0618917770948
  0
ARC
  5
3F2
102
{ACAD_REACTORS
330
43D
330
43E
102
}
330
71
100
AcDbEntity
  8
0
  6
Continuous
 62
     2
100
AcDbCircle
 10
-51.12432399630706
 20
9.82972251291238
 30
0.0
 40
1.63969512393938
100
AcDbArc
 50
195.0618917770896
 51
275.1581447696398
  0
ARC
  5
3F3
102
{ACAD_REACTORS
330
43D
330
43E
102
}
330
71
100
AcDbEntity
  8
0
  6
Continuous
 62
     2
100
AcDbCircle
 10
-51.41318009104296
 20
13.02961309613397
 30
0.0
 40
4.852596863498136
100
AcDbArc
 50
275.1581447696249
 51
285.9799912583529
  0
ARC
  5
3F4
102
{ACAD_REACTORS
330
43D
330
43E
102
}
330
71
100
AcDbEntity
  8
0
  6
Continuous
 62
     2
100
AcDbCircle
 10
-50.61622225691096
 20
9.71693215087757
 30
0.0
 40
0.9410597353332616
100
AcDbArc
 50
151.478526742267
 51
208.5214732577055
  0
ARC
  5
3F5
102
{ACAD_REACTORS
330
43D
330
43E
102
}
330
71
100
AcDbEntity
  8
0
  6
Continuous
 62
     2
100
AcDbCircle
 10
-50.99357951499127
 20
9.92200358021657
 30
0.0
 40
0.5115800601948811
100
AcDbArc
 50
113.372277888199
 51
151.4785267423047
  0
ARC
  5
3F6
102
{ACAD_REACTORS
330
43D
330
43E
102
}
330
71
100
AcDbEntity
  8
0
  6
Continuous
 62
     2
100
AcDbCircle
 10
-51.25530721595004
 20
8.30646578546938
 30
0.0
 40
2.227384008973479
100
AcDbArc
 50
58.06909105004074
 51
71.5519238818672
  0
ARC
  5
3F7
102
{ACAD_REACTORS
330
435
330
436
102
}
330
71
100
AcDbEntity
  8
0
  6
Continuous
 62
     2
100
AcDbCircle
 10
-48.19329308038616
 20
9.87366332899808
 30
0.0
 40
0.5179085730133043
100
AcDbArc
 50
38.12041979714639
 51
141.8795802028585
  0
ARC
  5
3F8
102
{ACAD_REACTORS
330
435
330
436
102
}
330
71
100
AcDbEntity
  8
0
  6
Continuous
 62
     2
100
AcDbCircle
 10
-47.99355304404006
 20
9.71693215087757
 30
0.0
 40
0.7717997786794566
100
AcDbArc
 50
141.8795802028361
 51
218.120419797169
  0
ARC
  5
3F9
102
{ACAD_REACTORS
330
435
330
436
102
}
330
71
100
AcDbEntity
  8
0
  6
Continuous
 62
     2
100
AcDbCircle
 10
-48.19329308038616
 20
9.56020097275757
 30
0.0
 40
0.5179085730137298
100
AcDbArc
 50
218.1204197971936
 51
321.8795802028015
  0
ARC
  5
3FA
102
{ACAD_REACTORS
330
435
330
436
102
}
330
71
100
AcDbEntity
  8
0
  6
Continuous
 62
     2
100
AcDbCircle
 10
-48.39303311673257
 20
9.71693215087757
 30
0.0
 40
0.7717997786796947
100
AcDbArc
 50
321.8795802028417
 51
38.12041979715318
  0
CIRCLE
  5
3FB
330
71
100
AcDbEntity
  8
1
  6
Continuous
 62
     2
100
AcDbCircle
 10
-51.04802622912996
 20
22.02152738895589
 30
0.0
 40
2.5
  0
CIRCLE
  5
3FC
330
71
100
AcDbEntity
  8
1
  6
Continuous
 62
     2
100
AcDbCircle
 10
-51.04802622912996
 20
22.02152738895589
 30
0.0
 40
1.249999999999908
  0
CIRCLE
  5
3FD
102
{ACAD_REACTORS
330
439
330
43A
102
}
330
71
100
AcDbEntity
  8
0
  6
Continuous
 62
     2
100
AcDbCircle
 10
-56.50419596322965
 20
11.85990054520028
 30
0.0
 40
0.4709789327785074
  0
MTEXT
  5
3FE
330
71
100
AcDbEntity
  8
1
 62
     3
100
AcDbMText
 10
-221.2348088028708
 20
187.6878355442548
 30
0.0
 40
1.8
 41
0.0
 71
     7
 72
     1
  3
Weitergabe sowie Vervielf\U+00e4ltigung dieses Dokuments, Verwertung und \PMitteilung seines Inhalts sind verboten, soweit nicht ausdr\U+00fccklich gestattet. \PZuwiderhandlungen verpflichten zu Schadenersatz. Alle Rechte f\U+00fcr den Fall\Pder Pat
  1
ent-, Gebrauchsmuster- oder Designeintragung vorbehalten.
  7
CONVERTER_11
 73
     1
 44
0.99639855942377
  0
MTEXT
  5
3FF
330
71
100
AcDbEntity
  8
1
 62
     3
100
AcDbMText
 10
-38.38169896408266
 20
187.6878355442548
 30
0.0
 40
1.8
 41
0.0
 71
     7
 72
     1
  3
Transfer or duplication of this document as well as the utilisation or\Pcommunication of its content are not permitted unless express consent\Pis granted. Violations give rise to claims for damages. All rights reserved\Pin case of patent, utility mo
  1
del or design patent registrations.
  7
CONVERTER_11
 73
     1
 44
0.99639855942377
  0
TEXT
  5
400
330
71
100
AcDbEntity
  8
1
 62
     2
100
AcDbText
 10
-44.58468111569275
 20
2.13751017396436
 30
0.0
 40
1.8
  1
of
 41
0.9
  7
CONVERTER_11
100
AcDbText
  0
TEXT
  5
401
330
71
100
AcDbEntity
  8
1
 62
     2
100
AcDbText
 10
-62.78468111569256
 20
2.1375101739643
 30
0.0
 40
1.8
  1
page
 41
0.9
  7
CONVERTER_11
100
AcDbText
  0
TEXT
  5
402
330
71
100
AcDbEntity
  8
1
 62
     2
100
AcDbText
 10
-54.13841614535056
 20
2.09727873515396
 30
0.0
 40
1.8
  1
1
 41
0.9
  7
CONVERTER_11
100
AcDbText
  0
TEXT
  5
403
330
71
100
AcDbEntity
  8
1
 62
     2
100
AcDbText
 10
-39.34937230587906
 20
2.14652738895586
 30
0.0
 40
1.8
  1
1
 41
0.9
  7
CONVERTER_11
100
AcDbText
  0
MTEXT
  5
405
330
71
100
AcDbEntity
  8
1
 62
     7
100
AcDbMText
 10
19.18772114768294
 20
4.1465273889562
 30
0.0
 40
3.0
 41
0.0
 71
     5
 72
     1
  1
PP-H 4/ 1 GNYE
  7
CONVERTER_12
 73
     1
 44
1.20048019207683
  0
MTEXT
  5
406
330
71
100
AcDbEntity
  8
1
 62
     2
100
AcDbMText
 10
-26.38468111569264
 20
8.39652738895597
 30
0.0
 40
1.8
 41
0.0
 71
     1
 72
     1
  1
description
  7
CONVERTER_11
 73
     1
 44
1.20048019207683
  0
MTEXT
  5
407
330
71
100
AcDbEntity
  8
1
 62
     3
100
AcDbMText
 10
-37.58468111569266
 20
22.02152738895597
 30
0.0
 40
2.5
 41
0.0
 71
     5
 72
     1
  1
DIN A4
  7
CONVERTER_11
 73
     1
 44
1.20048019207683
  0
MTEXT
  5
408
330
71
100
AcDbEntity
  8
1
 62
     7
100
AcDbMText
 10
-223.7398765889416
 20
23.39652738895597
 30
0.0
 40
3.5
 41
0.0
 71
     5
 72
     1
  1
D
  7
CONVERTER_11
 73
     1
 44
1.20048019207683
  0
MTEXT
  5
409
330
71
100
AcDbEntity
  8
1
 62
     7
100
AcDbMText
 10
-223.7398765889416
 20
75.89652738895597
 30
0.0
 40
3.5
 41
0.0
 71
     5
 72
     1
  1
C
  7
CONVERTER_11
 73
     1
 44
1.20048019207683
  0
MTEXT
  5
40A
330
71
100
AcDbEntity
  8
1
 62
     7
100
AcDbMText
 10
-223.7398765889416
 20
125.896527388956
 30
0.0
 40
3.5
 41
0.0
 71
     5
 72
     1
  1
B
  7
CONVERTER_11
 73
     1
 44
1.20048019207683
  0
MTEXT
  5
40B
330
71
100
AcDbEntity
  8
1
 62
     7
100
AcDbMText
 10
-223.7398765889416
 20
178.396527388956
 30
0.0
 40
3.5
 41
0.0
 71
     5
 72
     1
  1
A
  7
CONVERTER_11
 73
     1
 44
1.20048019207683
  0
MTEXT
  5
40C
330
71
100
AcDbEntity
  8
1
 62
     7
100
AcDbMText
 10
46.51012341105664
 20
-1.60347261104414
 30
0.0
 40
3.5
 41
0.0
 71
     5
 72
     1
  1
6
  7
CONVERTER_11
 73
     1
 44
1.20048019207683
  0
MTEXT
  5
40D
330
71
100
AcDbEntity
  8
1
 62
     7
100
AcDbMText
 10
-2.73987658894257
 20
-1.60347261104414
 30
0.0
 40
3.5
 41
0.0
 71
     5
 72
     1
  1
5
  7
CONVERTER_11
 73
     1
 44
1.20048019207683
  0
MTEXT
  5
40E
330
71
100
AcDbEntity
  8
1
 62
     7
100
AcDbMText
 10
-52.73987658894265
 20
-1.60347261104414
 30
0.0
 40
3.5
 41
0.0
 71
     5
 72
     1
  1
4
  7
CONVERTER_11
 73
     1
 44
1.20048019207683
  0
MTEXT
  5
40F
330
71
100
AcDbEntity
  8
1
 62
     7
100
AcDbMText
 10
-102.7398765889425
 20
-1.60347261104414
 30
0.0
 40
3.5
 41
0.0
 71
     5
 72
     1
  1
3
  7
CONVERTER_11
 73
     1
 44
1.20048019207683
  0
MTEXT
  5
410
330
71
100
AcDbEntity
  8
1
 62
     7
100
AcDbMText
 10
-152.7398765889425
 20
-1.60347261104414
 30
0.0
 40
3.5
 41
0.0
 71
     5
 72
     1
  1
2
  7
CONVERTER_11
 73
     1
 44
1.20048019207683
  0
MTEXT
  5
411
330
71
100
AcDbEntity
  8
1
 62
     7
100
AcDbMText
 10
-201.9898765889421
 20
-1.60347261104414
 30
0.0
 40
3.5
 41
0.0
 71
     5
 72
     1
  1
1
  7
CONVERTER_11
 73
     1
 44
1.20048019207683
  0
MTEXT
  5
412
330
71
100
AcDbEntity
  8
1
 62
     7
100
AcDbMText
 10
68.26012341105644
 20
23.39652738895597
 30
0.0
 40
3.5
 41
0.0
 71
     5
 72
     1
  1
D
  7
CONVERTER_11
 73
     1
 44
1.20048019207683
  0
MTEXT
  5
413
330
71
100
AcDbEntity
  8
1
 62
     7
100
AcDbMText
 10
68.26012341105644
 20
125.8965273889579
 30
0.0
 40
3.5
 41
0.0
 71
     5
 72
     1
  1
B
  7
CONVERTER_11
 73
     1
 44
1.20048019207683
  0
MTEXT
  5
414
330
71
100
AcDbEntity
  8
1
 62
     7
100
AcDbMText
 10
68.26012341105644
 20
178.396527388956
 30
0.0
 40
3.5
 41
0.0
 71
     5
 72
     1
  1
A
  7
CONVERTER_11
 73
     1
 44
1.20048019207683
  0
MTEXT
  5
415
330
71
100
AcDbEntity
  8
1
 62
     7
100
AcDbMText
 10
68.26012341105644
 20
75.89652738895788
 30
0.0
 40
3.5
 41
0.0
 71
     5
 72
     1
  1
C
  7
CONVERTER_11
 73
     1
 44
1.20048019207683
  0
MTEXT
  5
416
330
71
100
AcDbEntity
  8
1
 62
     2
100
AcDbMText
 10
-98.22269584074007
 20
13.64652738895589
 30
0.0
 40
2.0
 41
0.0
 71
     5
 72
     1
  1
General Information\P- Simplified representation\P- Document excluded from change process\P- Linear dimensions [mm]
  7
CONVERTER_11
 73
     1
 44
1.20048019207683
  0
TEXT
  5
417
330
71
100
AcDbEntity
  8
1
 62
     7
100
AcDbText
 10
-25.88468111569284
 20
10.69652738895587
 30
0.0
 40
2.5
  1
3212088
 41
0.81
  7
CONVERTER_12
100
AcDbText
  0
MTEXT
  5
418
330
71
100
AcDbEntity
  8
1
 62
     2
100
AcDbMText
 10
-26.28468111569256
 20
16.89652738895597
 30
0.0
 40
1.8
 41
0.0
 71
     1
 72
     1
  1
ident.-No.
  7
CONVERTER_11
 73
     1
 44
1.20048019207683
  0
MTEXT
  5
419
330
71
100
AcDbEntity
  8
1
 62
     2
100
AcDbMText
 10
57.94171512938016
 20
25.39652738895597
 30
0.0
 40
1.8
 41
0.0
 71
     1
 72
     1
  1
scale
  7
CONVERTER_11
 73
     1
 44
1.20048019207683
  0
MTEXT
  5
41B
330
71
100
AcDbEntity
  8
1
 62
     3
100
AcDbMText
 10
61.30091927021975
 20
19.19652738895607
 30
0.0
 40
2.5
 41
0.0
 71
     8
 72
     1
  1
1:1
  7
CONVERTER_13
 73
     1
 44
1.32052821128451
  0
TEXT
  5
41C
330
71
100
AcDbEntity
  8
1
 62
     7
100
AcDbText
 10
-26.28468111569256
 20
19.19652738895587
 30
0.0
 40
2.5
  1
00697864
 41
0.81
  7
CONVERTER_12
100
AcDbText
  0
MTEXT
  5
41E
330
71
100
AcDbEntity
  8
1
 62
     2
100
AcDbMText
 10
-26.28468111569256
 20
25.39652738895597
 30
0.0
 40
1.8
 41
0.0
 71
     1
 72
     1
  1
document-No. / RI
  7
CONVERTER_14
 73
     1
 44
1.32052821128451
  0
TEXT
  5
41F
330
71
100
AcDbEntity
  8
1
 62
     3
100
AcDbText
 10
1.51531888430745
 20
10.69652738895587
 30
0.0
 40
2.5
  1
TECDOC 2D_Productdrawing
 41
0.81
  7
CONVERTER_12
100
AcDbText
  0
MTEXT
  5
420
330
71
100
AcDbEntity
  8
1
 62
     2
100
AcDbMText
 10
1.51531888430745
 20
16.89652738895589
 30
0.0
 40
1.8
 41
0.0
 71
     1
 72
     1
  1
document-type
  7
CONVERTER_11
 73
     1
 44
1.20048019207683
  0
MTEXT
  5
421
330
71
100
AcDbEntity
  8
1
 62
     2
100
AcDbMText
 10
31.34171512938033
 20
25.39652738895589
 30
0.0
 40
1.8
 41
0.0
 71
     1
 72
     1
  1
date
  7
CONVERTER_11
 73
     1
 44
1.32052821128451
  0
TEXT
  5
422
330
71
100
AcDbEntity
  8
1
 62
     3
100
AcDbText
 10
31.34171512938033
 20
19.19652738895587
 30
0.0
 40
2.5
  1
15.11.2017
 41
0.81
  7
CONVERTER_12
100
AcDbText
  0
TEXT
  5
423
330
71
100
AcDbEntity
  8
1
 62
     7
100
AcDbText
 10
-6.25476889663676
 20
19.19652738895587
 30
0.0
 40
2.5
  1
01
 41
0.81
  7
CONVERTER_12
100
AcDbText
  0
TEXT
  5
424
330
71
100
AcDbEntity
  8
1
 62
     7
100
AcDbText
 10
-8.41113339367877
 20
19.19652738895587
 30
0.0
 40
2.5
  1
/
 41
0.9
  7
CONVERTER_11
100
AcDbText
  0
HATCH
  5
425
330
71
100
AcDbEntity
  8
1
  6
Continuous
 62
     2
100
AcDbHatch
 10
0.0
 20
0.0
 30
0.0
210
0.0
220
0.0
230
1.0
  2
_USER
 70
     0
 71
     1
 91
        1
 92
        1
 93
       12
 72
     1
 10
-46.11718040273146
 20
11.54921786514657
 11
-47.30997310489786
 21
11.54921786514657
 72
     1
 10
-47.30997310489786
 20
11.54921786514657
 11
-47.30997310489786
 21
12.68348997399039
 72
     1
 10
-47.30997310489786
 20
12.68348997399039
 11
-48.35963068280535
 21
12.68348997399039
 72
     1
 10
-48.35963068280535
 20
12.68348997399039
 11
-48.35963068280535
 21
11.54921786514657
 72
     1
 10
-48.35963068280535
 20
11.54921786514657
 11
-49.55242338497195
 21
11.54921786514657
 72
     1
 10
-49.55242338497195
 20
11.54921786514657
 11
-49.55242338497195
 21
14.60302738895777
 72
     1
 10
-49.55242338497195
 20
14.60302738895777
 11
-48.35963068280535
 21
14.60302738895777
 72
     1
 10
-48.35963068280535
 20
14.60302738895777
 11
-48.35963068280535
 21
13.53419405562318
 72
     1
 10
-48.35963068280535
 20
13.53419405562318
 11
-47.30997310489786
 21
13.53419405562318
 72
     1
 10
-47.30997310489786
 20
13.53419405562318
 11
-47.30997310489786
 21
14.60302738895777
 72
     1
 10
-47.30997310489786
 20
14.60302738895777
 11
-46.11718040273146
 21
14.60302738895777
 72
     1
 10
-46.11718040273146
 20
14.60302738895777
 11
-46.11718040273146
 21
11.54921786514657
 97
       12
330
392
330
393
330
37D
330
37C
330
37B
330
38F
330
37A
330
390
330
391
330
379
330
378
330
377
 75
     1
 76
     0
 52
45.0
 41
0.1
 77
     0
 78
     1
 53
45.0
 43
0.0
 44
0.0
 45
-0.0707106781186548
 46
0.0707106781186548
 79
     0
 98
        1
 10
0.0
 20
0.0
  0
HATCH
  5
426
330
71
100
AcDbEntity
  8
1
  6
Continuous
 62
     2
100
AcDbHatch
 10
0.0
 20
0.0
 30
0.0
210
0.0
220
0.0
230
1.0
  2
_USER
 70
     0
 71
     1
 91
        1
 92
        1
 93
       12
 72
     1
 10
-46.11718040273146
 20
11.54921786514657
 11
-47.30997310489786
 21
11.54921786514657
 72
     1
 10
-47.30997310489786
 20
11.54921786514657
 11
-47.30997310489786
 21
12.68348997399039
 72
     1
 10
-47.30997310489786
 20
12.68348997399039
 11
-48.35963068280535
 21
12.68348997399039
 72
     1
 10
-48.35963068280535
 20
12.68348997399039
 11
-48.35963068280535
 21
11.54921786514657
 72
     1
 10
-48.35963068280535
 20
11.54921786514657
 11
-49.55242338497195
 21
11.54921786514657
 72
     1
 10
-49.55242338497195
 20
11.54921786514657
 11
-49.55242338497195
 21
14.60302738895777
 72
     1
 10
-49.55242338497195
 20
14.60302738895777
 11
-48.35963068280535
 21
14.60302738895777
 72
     1
 10
-48.35963068280535
 20
14.60302738895777
 11
-48.35963068280535
 21
13.53419405562318
 72
     1
 10
-48.35963068280535
 20
13.53419405562318
 11
-47.30997310489786
 21
13.53419405562318
 72
     1
 10
-47.30997310489786
 20
13.53419405562318
 11
-47.30997310489786
 21
14.60302738895777
 72
     1
 10
-47.30997310489786
 20
14.60302738895777
 11
-46.11718040273146
 21
14.60302738895777
 72
     1
 10
-46.11718040273146
 20
14.60302738895777
 11
-46.11718040273146
 21
11.54921786514657
 97
       12
330
392
330
393
330
37D
330
37C
330
37B
330
38F
330
37A
330
390
330
391
330
379
330
378
330
377
 75
     1
 76
     0
 52
45.0
 41
0.1
 77
     0
 78
     1
 53
45.0
 43
0.0
 44
0.0
 45
-0.0707106781186548
 46
0.0707106781186548
 79
     0
 98
        1
 10
0.0
 20
0.0
  0
HATCH
  5
427
330
71
100
AcDbEntity
  8
1
  6
Continuous
 62
     2
100
AcDbHatch
 10
0.0
 20
0.0
 30
0.0
210
0.0
220
0.0
230
1.0
  2
_USER
 70
     0
 71
     1
 91
        1
 92
        1
 93
       10
 72
     1
 10
-43.87488105354316
 20
9.93506140257827
 11
-45.11538546379606
 21
11.24383691278337
 72
     1
 10
-45.11538546379606
 20
11.24383691278337
 11
-46.30817816596365
 21
11.24383691278337
 72
     1
 10
-46.30817816596365
 20
11.24383691278337
 11
-46.30817816596365
 21
8.190027388972283
 72
     1
 10
-46.30817816596365
 20
8.190027388972283
 11
-45.11538546379606
 21
8.190027388972283
 72
     1
 10
-45.11538546379606
 20
8.190027388972283
 11
-45.11538546379606
 21
9.498802899176866
 72
     1
 10
-45.11538546379606
 20
9.498802899176866
 11
-43.87488105354316
 21
8.190027388972283
 72
     1
 10
-43.87488105354316
 20
8.190027388972283
 11
-42.68208835137676
 21
8.190027388972283
 72
     1
 10
-42.68208835137676
 20
8.190027388972283
 11
-42.68208835137676
 21
11.24383691278337
 72
     1
 10
-42.68208835137676
 20
11.24383691278337
 11
-43.87488105354316
 21
11.24383691278337
 72
     1
 10
-43.87488105354316
 20
11.24383691278337
 11
-43.87488105354316
 21
9.93506140257827
 97
       10
330
3A0
330
370
330
36F
330
372
330
39B
330
39C
330
371
330
39D
330
39E
330
39F
 75
     1
 76
     0
 52
45.0
 41
0.1
 77
     0
 78
     1
 53
45.0
 43
0.0
 44
0.0
 45
-0.0707106781186548
 46
0.0707106781186548
 79
     0
 98
        1
 10
0.0
 20
0.0
  0
HATCH
  5
428
330
71
100
AcDbEntity
  8
1
  6
Continuous
 62
     2
100
AcDbHatch
 10
0.0
 20
0.0
 30
0.0
210
0.0
220
0.0
230
1.0
  2
_USER
 70
     0
 71
     1
 91
        1
 92
        1
 93
       10
 72
     1
 10
-43.87488105354316
 20
9.93506140257827
 11
-45.11538546379606
 21
11.24383691278337
 72
     1
 10
-45.11538546379606
 20
11.24383691278337
 11
-46.30817816596365
 21
11.24383691278337
 72
     1
 10
-46.30817816596365
 20
11.24383691278337
 11
-46.30817816596365
 21
8.190027388972283
 72
     1
 10
-46.30817816596365
 20
8.190027388972283
 11
-45.11538546379606
 21
8.190027388972283
 72
     1
 10
-45.11538546379606
 20
8.190027388972283
 11
-45.11538546379606
 21
9.498802899176866
 72
     1
 10
-45.11538546379606
 20
9.498802899176866
 11
-43.87488105354316
 21
8.190027388972283
 72
     1
 10
-43.87488105354316
 20
8.190027388972283
 11
-42.68208835137676
 21
8.190027388972283
 72
     1
 10
-42.68208835137676
 20
8.190027388972283
 11
-42.68208835137676
 21
11.24383691278337
 72
     1
 10
-42.68208835137676
 20
11.24383691278337
 11
-43.87488105354316
 21
11.24383691278337
 72
     1
 10
-43.87488105354316
 20
11.24383691278337
 11
-43.87488105354316
 21
9.93506140257827
 97
       10
330
3A0
330
370
330
36F
330
372
330
39B
330
39C
330
371
330
39D
330
39E
330
39F
 75
     1
 76
     0
 52
45.0
 41
0.1
 77
     0
 78
     1
 53
45.0
 43
0.0
 44
0.0
 45
-0.0707106781186548
 46
0.0707106781186548
 79
     0
 98
        1
 10
0.0
 20
0.0
  0
HATCH
  5
429
330
71
100
AcDbEntity
  8
1
  6
Continuous
 62
     2
100
AcDbHatch
 10
0.0
 20
0.0
 30
0.0
210
0.0
220
0.0
230
1.0
  2
_USER
 70
     0
 71
     1
 91
        1
 92
        1
 93
       10
 72
     1
 10
-38.62644223312344
 20
13.29425187875259
 11
-39.86694664337745
 21
14.60302738895777
 72
     1
 10
-39.86694664337745
 20
14.60302738895777
 11
-41.05973934554396
 21
14.60302738895777
 72
     1
 10
-41.05973934554396
 20
14.60302738895777
 11
-41.05973934554396
 21
11.54921786514657
 72
     1
 10
-41.05973934554396
 20
11.54921786514657
 11
-39.86694664337745
 21
11.54921786514657
 72
     1
 10
-39.86694664337745
 20
11.54921786514657
 11
-39.86694664337745
 21
12.85799337535127
 72
     1
 10
-39.86694664337745
 20
12.85799337535127
 11
-38.62644223312344
 21
11.54921786514657
 72
     1
 10
-38.62644223312344
 20
11.54921786514657
 11
-37.43364953095684
 21
11.54921786514657
 72
     1
 10
-37.43364953095684
 20
11.54921786514657
 11
-37.43364953095684
 21
14.60302738895777
 72
     1
 10
-37.43364953095684
 20
14.60302738895777
 11
-38.62644223312344
 21
14.60302738895777
 72
     1
 10
-38.62644223312344
 20
14.60302738895777
 11
-38.62644223312344
 21
13.29425187875259
 97
       10
330
3A5
330
36D
330
36C
330
3A6
330
36B
330
3A1
330
3A2
330
3A3
330
3A4
330
36E
 75
     1
 76
     0
 52
45.0
 41
0.1
 77
     0
 78
     1
 53
45.0
 43
0.0
 44
0.0
 45
-0.0707106781186548
 46
0.0707106781186548
 79
     0
 98
        1
 10
0.0
 20
0.0
  0
HATCH
  5
42A
330
71
100
AcDbEntity
  8
1
  6
Continuous
 62
     2
100
AcDbHatch
 10
0.0
 20
0.0
 30
0.0
210
0.0
220
0.0
230
1.0
  2
_USER
 70
     0
 71
     1
 91
        1
 92
        1
 93
       10
 72
     1
 10
-38.62644223312344
 20
13.29425187875259
 11
-39.86694664337745
 21
14.60302738895777
 72
     1
 10
-39.86694664337745
 20
14.60302738895777
 11
-41.05973934554396
 21
14.60302738895777
 72
     1
 10
-41.05973934554396
 20
14.60302738895777
 11
-41.05973934554396
 21
11.54921786514657
 72
     1
 10
-41.05973934554396
 20
11.54921786514657
 11
-39.86694664337745
 21
11.54921786514657
 72
     1
 10
-39.86694664337745
 20
11.54921786514657
 11
-39.86694664337745
 21
12.85799337535127
 72
     1
 10
-39.86694664337745
 20
12.85799337535127
 11
-38.62644223312344
 21
11.54921786514657
 72
     1
 10
-38.62644223312344
 20
11.54921786514657
 11
-37.43364953095684
 21
11.54921786514657
 72
     1
 10
-37.43364953095684
 20
11.54921786514657
 11
-37.43364953095684
 21
14.60302738895777
 72
     1
 10
-37.43364953095684
 20
14.60302738895777
 11
-38.62644223312344
 21
14.60302738895777
 72
     1
 10
-38.62644223312344
 20
14.60302738895777
 11
-38.62644223312344
 21
13.29425187875259
 97
       10
330
3A5
330
36D
330
36C
330
3A6
330
36B
330
3A1
330
3A2
330
3A3
330
3A4
330
36E
 75
     1
 76
     0
 52
45.0
 41
0.1
 77
     0
 78
     1
 53
45.0
 43
0.0
 44
0.0
 45
-0.0707106781186548
 46
0.0707106781186548
 79
     0
 98
        1
 10
0.0
 20
0.0
  0
HATCH
  5
42B
330
71
100
AcDbEntity
  8
1
  6
Continuous
 62
     2
100
AcDbHatch
 10
0.0
 20
0.0
 30
0.0
210
0.0
220
0.0
230
1.0
  2
_USER
 70
     0
 71
     1
 91
        1
 92
        1
 93
        8
 72
     1
 10
-39.72396245000294
 20
11.24383691278337
 11
-42.53895322711657
 21
11.24383691278337
 72
     1
 10
-42.53895322711657
 20
11.24383691278337
 11
-42.53895322711657
 21
10.45857160665977
 72
     1
 10
-42.53895322711657
 20
10.45857160665977
 11
-41.72785418964196
 21
10.45857160665977
 72
     1
 10
-41.72785418964196
 20
10.45857160665977
 11
-41.72785418964196
 21
8.190027388972283
 72
     1
 10
-41.72785418964196
 20
8.190027388972283
 11
-40.53506148747545
 21
8.190027388972283
 72
     1
 10
-40.53506148747545
 20
8.190027388972283
 11
-40.53506148747545
 21
10.45857160665977
 72
     1
 10
-40.53506148747545
 20
10.45857160665977
 11
-39.72396245000294
 21
10.45857160665977
 72
     1
 10
-39.72396245000294
 20
10.45857160665977
 11
-39.72396245000294
 21
11.24383691278337
 97
        8
330
367
330
3A7
330
366
330
3A8
330
3A9
330
36A
330
369
330
368
 75
     1
 76
     0
 52
45.0
 41
0.1
 77
     0
 78
     1
 53
45.0
 43
0.0
 44
0.0
 45
-0.0707106781186548
 46
0.0707106781186548
 79
     0
 98
        1
 10
0.0
 20
0.0
  0
HATCH
  5
42C
330
71
100
AcDbEntity
  8
1
  6
Continuous
 62
     2
100
AcDbHatch
 10
0.0
 20
0.0
 30
0.0
210
0.0
220
0.0
230
1.0
  2
_USER
 70
     0
 71
     1
 91
        1
 92
        1
 93
        8
 72
     1
 10
-39.72396245000294
 20
11.24383691278337
 11
-42.53895322711657
 21
11.24383691278337
 72
     1
 10
-42.53895322711657
 20
11.24383691278337
 11
-42.53895322711657
 21
10.45857160665977
 72
     1
 10
-42.53895322711657
 20
10.45857160665977
 11
-41.72785418964196
 21
10.45857160665977
 72
     1
 10
-41.72785418964196
 20
10.45857160665977
 11
-41.72785418964196
 21
8.190027388972283
 72
     1
 10
-41.72785418964196
 20
8.190027388972283
 11
-40.53506148747545
 21
8.190027388972283
 72
     1
 10
-40.53506148747545
 20
8.190027388972283
 11
-40.53506148747545
 21
10.45857160665977
 72
     1
 10
-40.53506148747545
 20
10.45857160665977
 11
-39.72396245000294
 21
10.45857160665977
 72
     1
 10
-39.72396245000294
 20
10.45857160665977
 11
-39.72396245000294
 21
11.24383691278337
 97
        8
330
367
330
3A7
330
366
330
3A8
330
3A9
330
36A
330
369
330
368
 75
     1
 76
     0
 52
45.0
 41
0.1
 77
     0
 78
     1
 53
45.0
 43
0.0
 44
0.0
 45
-0.0707106781186548
 46
0.0707106781186548
 79
     0
 98
        1
 10
0.0
 20
0.0
  0
HATCH
  5
42D
330
71
100
AcDbEntity
  8
1
  6
Continuous
 62
     2
100
AcDbHatch
 10
0.0
 20
0.0
 30
0.0
210
0.0
220
0.0
230
1.0
  2
_USER
 70
     0
 71
     1
 91
        2
 92
        1
 93
        8
 72
     1
 10
-37.58553499405596
 20
8.190027388972283
 11
-37.79701504753174
 21
8.730987933190164
 72
     1
 10
-37.79701504753174
 20
8.730987933190164
 11
-38.92945662420556
 21
8.730987933190164
 72
     1
 10
-38.92945662420556
 20
8.730987933190164
 11
-39.14093667768137
 21
8.190027388972283
 72
     1
 10
-39.14093667768137
 20
8.190027388972283
 11
-40.38144108793435
 21
8.190027388972283
 72
     1
 10
-40.38144108793435
 20
8.190027388972283
 11
-38.98348804099504
 21
11.24383691278337
 72
     1
 10
-38.98348804099504
 20
11.24383691278337
 11
-37.74298363074234
 21
11.24383691278337
 72
     1
 10
-37.74298363074234
 20
11.24383691278337
 11
-36.34503058380204
 21
8.190027388972283
 72
     1
 10
-36.34503058380204
 20
8.190027388972283
 11
-37.58553499405596
 21
8.190027388972283
 97
        8
330
3AB
330
3AC
330
363
330
3AD
330
362
330
365
330
3AA
330
364
 92
       16
 93
        3
 72
     1
 10
-38.66340107306056
 20
9.411551198496767
 11
-38.36323583586815
 21
10.17936616448347
 72
     1
 10
-38.36323583586815
 20
10.17936616448347
 11
-38.06307059867805
 21
9.411551198496767
 72
     1
 10
-38.06307059867805
 20
9.411551198496767
 11
-38.66340107306056
 21
9.411551198496767
 97
        3
330
361
330
3AF
330
3AE
 75
     1
 76
     0
 52
45.0
 41
0.1
 77
     0
 78
     1
 53
45.0
 43
0.0
 44
0.0
 45
-0.0707106781186548
 46
0.0707106781186548
 79
     0
 98
        1
 10
0.0
 20
0.0
  0
HATCH
  5
42E
330
71
100
AcDbEntity
  8
1
  6
Continuous
 62
     2
100
AcDbHatch
 10
0.0
 20
0.0
 30
0.0
210
0.0
220
0.0
230
1.0
  2
_USER
 70
     0
 71
     1
 91
        2
 92
        1
 93
        8
 72
     1
 10
-37.58553499405596
 20
8.190027388972283
 11
-37.79701504753174
 21
8.730987933190164
 72
     1
 10
-37.79701504753174
 20
8.730987933190164
 11
-38.92945662420556
 21
8.730987933190164
 72
     1
 10
-38.92945662420556
 20
8.730987933190164
 11
-39.14093667768137
 21
8.190027388972283
 72
     1
 10
-39.14093667768137
 20
8.190027388972283
 11
-40.38144108793435
 21
8.190027388972283
 72
     1
 10
-40.38144108793435
 20
8.190027388972283
 11
-38.98348804099504
 21
11.24383691278337
 72
     1
 10
-38.98348804099504
 20
11.24383691278337
 11
-37.74298363074234
 21
11.24383691278337
 72
     1
 10
-37.74298363074234
 20
11.24383691278337
 11
-36.34503058380204
 21
8.190027388972283
 72
     1
 10
-36.34503058380204
 20
8.190027388972283
 11
-37.58553499405596
 21
8.190027388972283
 97
        8
330
3AB
330
3AC
330
363
330
3AD
330
362
330
365
330
3AA
330
364
 92
       16
 93
        3
 72
     1
 10
-38.66340107306056
 20
9.411551198496767
 11
-38.36323583586815
 21
10.17936616448347
 72
     1
 10
-38.36323583586815
 20
10.17936616448347
 11
-38.06307059867805
 21
9.411551198496767
 72
     1
 10
-38.06307059867805
 20
9.411551198496767
 11
-38.66340107306056
 21
9.411551198496767
 97
        3
330
361
330
3AF
330
3AE
 75
     1
 76
     0
 52
45.0
 41
0.1
 77
     0
 78
     1
 53
45.0
 43
0.0
 44
0.0
 45
-0.0707106781186548
 46
0.0707106781186548
 79
     0
 98
        1
 10
0.0
 20
0.0
  0
HATCH
  5
42F
330
71
100
AcDbEntity
  8
1
  6
Continuous
 62
     2
100
AcDbHatch
 10
0.0
 20
0.0
 30
0.0
210
0.0
220
0.0
230
1.0
  2
_USER
 70
     0
 71
     1
 91
        1
 92
        1
 93
        4
 72
     1
 10
-35.95458658027005
 20
11.54921786514657
 11
-37.19509099052294
 21
11.54921786514657
 72
     1
 10
-37.19509099052294
 20
11.54921786514657
 11
-37.19509099052294
 21
14.60302738895777
 72
     1
 10
-37.19509099052294
 20
14.60302738895777
 11
-35.95458658027005
 21
14.60302738895777
 72
     1
 10
-35.95458658027005
 20
14.60302738895777
 11
-35.95458658027005
 21
11.54921786514657
 97
        4
330
35E
330
360
330
3B0
330
35F
 75
     1
 76
     0
 52
45.0
 41
0.1
 77
     0
 78
     1
 53
45.0
 43
0.0
 44
0.0
 45
-0.0707106781186548
 46
0.0707106781186548
 79
     0
 98
        1
 10
0.0
 20
0.0
  0
HATCH
  5
430
330
71
100
AcDbEntity
  8
1
  6
Continuous
 62
     2
100
AcDbHatch
 10
0.0
 20
0.0
 30
0.0
210
0.0
220
0.0
230
1.0
  2
_USER
 70
     0
 71
     1
 91
        1
 92
        1
 93
        4
 72
     1
 10
-35.95458658027005
 20
11.54921786514657
 11
-37.19509099052294
 21
11.54921786514657
 72
     1
 10
-37.19509099052294
 20
11.54921786514657
 11
-37.19509099052294
 21
14.60302738895777
 72
     1
 10
-37.19509099052294
 20
14.60302738895777
 11
-35.95458658027005
 21
14.60302738895777
 72
     1
 10
-35.95458658027005
 20
14.60302738895777
 11
-35.95458658027005
 21
11.54921786514657
 97
        4
330
35E
330
360
330
3B0
330
35F
 75
     1
 76
     0
 52
45.0
 41
0.1
 77
     0
 78
     1
 53
45.0
 43
0.0
 44
0.0
 45
-0.0707106781186548
 46
0.0707106781186548
 79
     0
 98
        1
 10
0.0
 20
0.0
  0
HATCH
  5
431
330
71
100
AcDbEntity
  8
1
  6
Continuous
 62
     2
100
AcDbHatch
 10
0.0
 20
0.0
 30
0.0
210
0.0
220
0.0
230
1.0
  2
_USER
 70
     0
 71
     1
 91
        1
 92
        1
 93
       12
 72
     1
 10
-31.73210041459925
 20
14.60302738895777
 11
-33.03463004536576
 21
13.13007685892157
 72
     1
 10
-33.03463004536576
 20
13.13007685892157
 11
-31.63667699842546
 21
11.54921786514657
 72
     1
 10
-31.63667699842546
 20
11.54921786514657
 11
-33.03940121617376
 21
11.54921786514657
 72
     1
 10
-33.03940121617376
 20
11.54921786514657
 11
-33.73599215423926
 21
12.33694965044029
 72
     1
 10
-33.73599215423926
 20
12.33694965044029
 11
-34.43258309230495
 21
11.54921786514657
 72
     1
 10
-34.43258309230495
 20
11.54921786514657
 11
-35.83530731005317
 21
11.54921786514657
 72
     1
 10
-35.83530731005317
 20
11.54921786514657
 11
-34.43735426311287
 21
13.13007685892157
 72
     1
 10
-34.43735426311287
 20
13.13007685892157
 11
-35.73988389388035
 21
14.60302738895777
 72
     1
 10
-35.73988389388035
 20
14.60302738895777
 11
-34.33715967613105
 21
14.60302738895777
 72
     1
 10
-34.33715967613105
 20
14.60302738895777
 11
-33.73599215423926
 21
13.92320406740228
 72
     1
 10
-33.73599215423926
 20
13.92320406740228
 11
-33.13482463234647
 21
14.60302738895777
 72
     1
 10
-33.13482463234647
 20
14.60302738895777
 11
-31.73210041459925
 21
14.60302738895777
 97
       12
330
359
330
358
330
357
330
3B4
330
3B5
330
3B1
330
3B2
330
35D
330
35C
330
35B
330
35A
330
3B3
 75
     1
 76
     0
 52
45.0
 41
0.1
 77
     0
 78
     1
 53
45.0
 43
0.0
 44
0.0
 45
-0.0707106781186548
 46
0.0707106781186548
 79
     0
 98
        1
 10
0.0
 20
0.0
  0
HATCH
  5
432
330
71
100
AcDbEntity
  8
1
  6
Continuous
 62
     2
100
AcDbHatch
 10
0.0
 20
0.0
 30
0.0
210
0.0
220
0.0
230
1.0
  2
_USER
 70
     0
 71
     1
 91
        1
 92
        1
 93
       12
 72
     1
 10
-31.73210041459925
 20
14.60302738895777
 11
-33.03463004536576
 21
13.13007685892157
 72
     1
 10
-33.03463004536576
 20
13.13007685892157
 11
-31.63667699842546
 21
11.54921786514657
 72
     1
 10
-31.63667699842546
 20
11.54921786514657
 11
-33.03940121617376
 21
11.54921786514657
 72
     1
 10
-33.03940121617376
 20
11.54921786514657
 11
-33.73599215423926
 21
12.33694965044029
 72
     1
 10
-33.73599215423926
 20
12.33694965044029
 11
-34.43258309230495
 21
11.54921786514657
 72
     1
 10
-34.43258309230495
 20
11.54921786514657
 11
-35.83530731005317
 21
11.54921786514657
 72
     1
 10
-35.83530731005317
 20
11.54921786514657
 11
-34.43735426311287
 21
13.13007685892157
 72
     1
 10
-34.43735426311287
 20
13.13007685892157
 11
-35.73988389388035
 21
14.60302738895777
 72
     1
 10
-35.73988389388035
 20
14.60302738895777
 11
-34.33715967613105
 21
14.60302738895777
 72
     1
 10
-34.33715967613105
 20
14.60302738895777
 11
-33.73599215423926
 21
13.92320406740228
 72
     1
 10
-33.73599215423926
 20
13.92320406740228
 11
-33.13482463234647
 21
14.60302738895777
 72
     1
 10
-33.13482463234647
 20
14.60302738895777
 11
-31.73210041459925
 21
14.60302738895777
 97
       12
330
359
330
358
330
357
330
3B4
330
3B5
330
3B1
330
3B2
330
35D
330
35C
330
35B
330
35A
330
3B3
 75
     1
 76
     0
 52
45.0
 41
0.1
 77
     0
 78
     1
 53
45.0
 43
0.0
 44
0.0
 45
-0.0707106781186548
 46
0.0707106781186548
 79
     0
 98
        1
 10
0.0
 20
0.0
  0
HATCH
  5
433
330
71
100
AcDbEntity
  8
1
  6
Continuous
 62
     2
100
AcDbHatch
 10
0.0
 20
0.0
 30
0.0
210
0.0
220
0.0
230
1.0
  2
_USER
 70
     0
 71
     1
 91
        2
 92
        1
 93
        6
 72
     1
 10
-50.74983582874526
 20
12.49229610629038
 11
-51.50860341652555
 21
12.49229610629038
 72
     1
 10
-51.50860341652555
 20
12.49229610629038
 11
-51.50860341652555
 21
11.54921786514657
 72
     1
 10
-51.50860341652555
 20
11.54921786514657
 11
-52.74910782677966
 21
11.54921786514657
 72
     1
 10
-52.74910782677966
 20
11.54921786514657
 11
-52.74910782677966
 21
14.60302738895777
 72
     1
 10
-52.74910782677966
 20
14.60302738895777
 11
-50.74983582874526
 21
14.60302738895777
 72
     2
 10
-50.74983582874526
 20
13.54766174762409
 40
1.05536564133371
 50
270.0
 51
450.0
 73
     0
 97
        6
330
381
330
380
330
38D
330
38C
330
382
330
3D2
 92
       16
 93
        4
 72
     2
 10
-51.19130835498365
 20
13.58705771884658
 40
0.35286382467112
 50
270.0
 51
450.0
 73
     1
 72
     1
 10
-51.19130835498365
 20
13.93992154351767
 11
-51.50860341652555
 21
13.93992154351767
 72
     1
 10
-51.50860341652555
 20
13.93992154351767
 11
-51.50860341652555
 21
13.23419389417546
 72
     1
 10
-51.50860341652555
 20
13.23419389417546
 11
-51.19130835498365
 21
13.23419389417546
 97
        4
330
3E6
330
37E
330
38E
330
37F
 75
     1
 76
     0
 52
45.0
 41
0.1
 77
     0
 78
     1
 53
45.0
 43
0.0
 44
0.0
 45
-0.0707106781186548
 46
0.0707106781186548
 79
     0
 98
        1
 10
0.0
 20
0.0
  0
HATCH
  5
434
330
71
100
AcDbEntity
  8
1
  6
Continuous
 62
     2
100
AcDbHatch
 10
0.0
 20
0.0
 30
0.0
210
0.0
220
0.0
230
1.0
  2
_USER
 70
     0
 71
     1
 91
        2
 92
        1
 93
        6
 72
     1
 10
-50.74983582874526
 20
12.49229610629038
 11
-51.50860341652555
 21
12.49229610629038
 72
     1
 10
-51.50860341652555
 20
12.49229610629038
 11
-51.50860341652555
 21
11.54921786514657
 72
     1
 10
-51.50860341652555
 20
11.54921786514657
 11
-52.74910782677966
 21
11.54921786514657
 72
     1
 10
-52.74910782677966
 20
11.54921786514657
 11
-52.74910782677966
 21
14.60302738895777
 72
     1
 10
-52.74910782677966
 20
14.60302738895777
 11
-50.74983582874526
 21
14.60302738895777
 72
     2
 10
-50.74983582874526
 20
13.54766174762409
 40
1.05536564133371
 50
270.0
 51
450.0
 73
     0
 97
        6
330
381
330
380
330
38D
330
38C
330
382
330
3D2
 92
       16
 93
        4
 72
     2
 10
-51.19130835498365
 20
13.58705771884658
 40
0.35286382467112
 50
270.0
 51
450.0
 73
     1
 72
     1
 10
-51.19130835498365
 20
13.93992154351767
 11
-51.50860341652555
 21
13.93992154351767
 72
     1
 10
-51.50860341652555
 20
13.93992154351767
 11
-51.50860341652555
 21
13.23419389417546
 72
     1
 10
-51.50860341652555
 20
13.23419389417546
 11
-51.19130835498365
 21
13.23419389417546
 97
        4
330
3E6
330
37E
330
38E
330
37F
 75
     1
 76
     0
 52
45.0
 41
0.1
 77
     0
 78
     1
 53
45.0
 43
0.0
 44
0.0
 45
-0.0707106781186548
 46
0.0707106781186548
 79
     0
 98
        1
 10
0.0
 20
0.0
  0
HATCH
  5
435
330
71
100
AcDbEntity
  8
1
  6
Continuous
 62
     2
100
AcDbHatch
 10
0.0
 20
0.0
 30
0.0
210
0.0
220
0.0
230
1.0
  2
_USER
 70
     0
 71
     1
 91
        2
 92
        1
 93
        4
 72
     2
 10
-48.19329308038616
 20
9.178357140574775
 40
2.065479772208574
 50
62.45185182430624
 51
117.5481481756662
 73
     1
 72
     2
 10
-48.47423297221945
 20
9.716932150877568
 40
1.458034083651496
 50
117.5481481756626
 51
242.4518518243373
 73
     1
 72
     2
 10
-48.19329308038616
 20
10.25550716118087
 40
2.065479772208502
 50
242.4518518243403
 51
297.5481481756873
 73
     1
 72
     2
 10
-47.91235318855286
 20
9.716932150877568
 40
1.458034083652006
 50
297.5481481757013
 51
422.4518518242988
 73
     1
 97
        4
330
3DE
330
3DD
330
3DF
330
3DC
 92
       16
 93
        4
 72
     2
 10
-48.39303311673257
 20
9.716932150877568
 40
0.7717997786796947
 50
321.8795802028417
 51
398.1204197971532
 73
     1
 72
     2
 10
-48.19329308038616
 20
9.873663328998077
 40
0.5179085730133043
 50
38.12041979714639
 51
141.8795802028585
 73
     1
 72
     2
 10
-47.99355304404006
 20
9.716932150877568
 40
0.7717997786794566
 50
141.8795802028361
 51
218.120419797169
 73
     1
 72
     2
 10
-48.19329308038616
 20
9.56020097275757
 40
0.5179085730137298
 50
218.1204197971936
 51
321.8795802028015
 73
     1
 97
        4
330
3FA
330
3F7
330
3F8
330
3F9
 75
     1
 76
     0
 52
45.0
 41
0.1
 77
     0
 78
     1
 53
45.0
 43
0.0
 44
0.0
 45
-0.0707106781186548
 46
0.0707106781186548
 79
     0
 98
        1
 10
0.0
 20
0.0
  0
HATCH
  5
436
330
71
100
AcDbEntity
  8
1
  6
Continuous
 62
     2
100
AcDbHatch
 10
0.0
 20
0.0
 30
0.0
210
0.0
220
0.0
230
1.0
  2
_USER
 70
     0
 71
     1
 91
        2
 92
        1
 93
        4
 72
     2
 10
-48.19329308038616
 20
9.178357140574775
 40
2.065479772208574
 50
62.45185182430624
 51
117.5481481756662
 73
     1
 72
     2
 10
-48.47423297221945
 20
9.716932150877568
 40
1.458034083651496
 50
117.5481481756626
 51
242.4518518243373
 73
     1
 72
     2
 10
-48.19329308038616
 20
10.25550716118087
 40
2.065479772208502
 50
242.4518518243403
 51
297.5481481756873
 73
     1
 72
     2
 10
-47.91235318855286
 20
9.716932150877568
 40
1.458034083652006
 50
297.5481481757013
 51
422.4518518242988
 73
     1
 97
        4
330
3DE
330
3DD
330
3DF
330
3DC
 92
       16
 93
        4
 72
     2
 10
-48.39303311673257
 20
9.716932150877568
 40
0.7717997786796947
 50
321.8795802028417
 51
398.1204197971532
 73
     1
 72
     2
 10
-48.19329308038616
 20
9.873663328998077
 40
0.5179085730133043
 50
38.12041979714639
 51
141.8795802028585
 73
     1
 72
     2
 10
-47.99355304404006
 20
9.716932150877568
 40
0.7717997786794566
 50
141.8795802028361
 51
218.120419797169
 73
     1
 72
     2
 10
-48.19329308038616
 20
9.56020097275757
 40
0.5179085730137298
 50
218.1204197971936
 51
321.8795802028015
 73
     1
 97
        4
330
3FA
330
3F7
330
3F8
330
3F9
 75
     1
 76
     0
 52
45.0
 41
0.1
 77
     0
 78
     1
 53
45.0
 43
0.0
 44
0.0
 45
-0.0707106781186548
 46
0.0707106781186548
 79
     0
 98
        1
 10
0.0
 20
0.0
  0
HATCH
  5
437
330
71
100
AcDbEntity
  8
1
  6
Continuous
 62
     2
100
AcDbHatch
 10
0.0
 20
0.0
 30
0.0
210
0.0
220
0.0
230
1.0
  2
_USER
 70
     0
 71
     1
 91
        2
 92
        1
 93
       12
 72
     1
 10
-41.29829788597687
 20
13.90501378351479
 11
-42.63422571240454
 21
13.90501378351479
 72
     1
 10
-42.63422571240454
 20
13.90501378351479
 11
-42.63422571240454
 21
13.42512942977308
 72
     1
 10
-42.63422571240454
 20
13.42512942977308
 11
-41.29829788597687
 21
13.42512942977308
 72
     1
 10
-41.29829788597687
 20
13.42512942977308
 11
-41.29829788597687
 21
12.72711582433078
 72
     1
 10
-41.29829788597687
 20
12.72711582433078
 11
-42.63422571240454
 21
12.72711582433078
 72
     1
 10
-42.63422571240454
 20
12.72711582433078
 11
-42.63422571240454
 21
12.24723147058907
 72
     1
 10
-42.63422571240454
 20
12.24723147058907
 11
-41.29829788597687
 21
12.24723147058907
 72
     1
 10
-41.29829788597687
 20
12.24723147058907
 11
-41.29829788597687
 21
11.54921786514657
 72
     1
 10
-41.29829788597687
 20
11.54921786514657
 11
-44.44861760975786
 21
11.54921786514657
 72
     2
 10
-44.44861760975786
 20
13.07612262705189
 40
1.526904761905881
 50
90.0
 51
270.0
 73
     0
 72
     1
 10
-44.44861760975786
 20
14.60302738895777
 11
-41.29829788597687
 21
14.60302738895777
 72
     1
 10
-41.29829788597687
 20
14.60302738895777
 11
-41.29829788597687
 21
13.90501378351479
 97
       12
330
395
330
3E7
330
396
330
397
330
398
330
399
330
376
330
375
330
374
330
373
330
39A
330
394
 92
       16
 93
        4
 72
     2
 10
-44.23234559959266
 20
13.23285380517237
 40
0.5179085730135277
 50
38.12041979714349
 51
141.8795802028483
 73
     1
 72
     2
 10
-44.03260556324636
 20
13.07612262705189
 40
0.7717997786796679
 50
141.87958020284
 51
218.1204197971564
 73
     1
 72
     2
 10
-44.23234559959266
 20
12.91939144893146
 40
0.5179085730134261
 50
218.1204197971508
 51
321.8795802028574
 73
     1
 72
     2
 10
-44.43208563593885
 20
13.07612262705189
 40
0.7717997786796351
 50
321.879580202844
 51
398.1204197971597
 73
     1
 97
        4
330
3E1
330
3E0
330
3DB
330
3DA
 75
     1
 76
     0
 52
45.0
 41
0.1
 77
     0
 78
     1
 53
45.0
 43
0.0
 44
0.0
 45
-0.0707106781186548
 46
0.0707106781186548
 79
     0
 98
        1
 10
0.0
 20
0.0
  0
HATCH
  5
438
330
71
100
AcDbEntity
  8
1
  6
Continuous
 62
     2
100
AcDbHatch
 10
0.0
 20
0.0
 30
0.0
210
0.0
220
0.0
230
1.0
  2
_USER
 70
     0
 71
     1
 91
        2
 92
        1
 93
       12
 72
     1
 10
-41.29829788597687
 20
13.90501378351479
 11
-42.63422571240454
 21
13.90501378351479
 72
     1
 10
-42.63422571240454
 20
13.90501378351479
 11
-42.63422571240454
 21
13.42512942977308
 72
     1
 10
-42.63422571240454
 20
13.42512942977308
 11
-41.29829788597687
 21
13.42512942977308
 72
     1
 10
-41.29829788597687
 20
13.42512942977308
 11
-41.29829788597687
 21
12.72711582433078
 72
     1
 10
-41.29829788597687
 20
12.72711582433078
 11
-42.63422571240454
 21
12.72711582433078
 72
     1
 10
-42.63422571240454
 20
12.72711582433078
 11
-42.63422571240454
 21
12.24723147058907
 72
     1
 10
-42.63422571240454
 20
12.24723147058907
 11
-41.29829788597687
 21
12.24723147058907
 72
     1
 10
-41.29829788597687
 20
12.24723147058907
 11
-41.29829788597687
 21
11.54921786514657
 72
     1
 10
-41.29829788597687
 20
11.54921786514657
 11
-44.44861760975786
 21
11.54921786514657
 72
     2
 10
-44.44861760975786
 20
13.07612262705189
 40
1.526904761905881
 50
90.0
 51
270.0
 73
     0
 72
     1
 10
-44.44861760975786
 20
14.60302738895777
 11
-41.29829788597687
 21
14.60302738895777
 72
     1
 10
-41.29829788597687
 20
14.60302738895777
 11
-41.29829788597687
 21
13.90501378351479
 97
       12
330
395
330
3E7
330
396
330
397
330
398
330
399
330
376
330
375
330
374
330
373
330
39A
330
394
 92
       16
 93
        4
 72
     2
 10
-44.23234559959266
 20
13.23285380517237
 40
0.5179085730135277
 50
38.12041979714349
 51
141.8795802028483
 73
     1
 72
     2
 10
-44.03260556324636
 20
13.07612262705189
 40
0.7717997786796679
 50
141.87958020284
 51
218.1204197971564
 73
     1
 72
     2
 10
-44.23234559959266
 20
12.91939144893146
 40
0.5179085730134261
 50
218.1204197971508
 51
321.8795802028574
 73
     1
 72
     2
 10
-44.43208563593885
 20
13.07612262705189
 40
0.7717997786796351
 50
321.879580202844
 51
398.1204197971597
 73
     1
 97
        4
330
3E1
330
3E0
330
3DB
330
3DA
 75
     1
 76
     0
 52
45.0
 41
0.1
 77
     0
 78
     1
 53
45.0
 43
0.0
 44
0.0
 45
-0.0707106781186548
 46
0.0707106781186548
 79
     0
 98
        1
 10
0.0
 20
0.0
  0
HATCH
  5
439
330
71
100
AcDbEntity
  8
1
  6
Continuous
 62
     2
100
AcDbHatch
 10
0.0
 20
0.0
 30
0.0
210
0.0
220
0.0
230
1.0
  2
_USER
 70
     0
 71
     1
 91
        4
 92
        1
 93
        8
 72
     1
 10
-53.22622490764647
 20
14.17878277355578
 11
-53.22622490764647
 21
8.61427200435557
 72
     2
 10
-53.65046952303035
 20
8.61427200435557
 40
0.4242446153832873
 50
0.0
 51
90.0
 73
     0
 72
     1
 10
-53.65046952303035
 20
8.190027388972283
 11
-59.12378161374716
 21
8.190027388972283
 72
     2
 10
-59.12378161374716
 20
8.61427200435557
 40
0.424244615382797
 50
90.0
 51
180.0
 73
     0
 72
     1
 10
-59.54802622912996
 20
8.61427200435557
 11
-59.54802622912996
 21
14.17878277355578
 72
     2
 10
-59.12378161374716
 20
14.17878277355578
 40
0.4242446153838006
 50
180.0
 51
270.0
 73
     0
 72
     1
 10
-59.12378161374716
 20
14.60302738893958
 11
-53.65046952303035
 21
14.60302738893958
 72
     2
 10
-53.65046952303035
 20
14.17878277355578
 40
0.4242446153838841
 50
270.0
 51
360.0
 73
     0
 97
        8
330
389
330
3D7
330
38A
330
3E2
330
387
330
3D9
330
388
330
3D8
 92
       16
 93
        1
 72
     2
 10
-56.50419596322965
 20
11.85990054520028
 40
0.4709789327785074
 50
0.0
 51
360.0
 73
     1
 97
        1
330
3FD
 92
       16
 93
        8
 72
     2
 10
-55.95433825046897
 20
10.75075894523187
 40
0.3157169230765218
 50
115.3740086783514
 51
180.0
 73
     1
 72
     1
 10
-56.27005517354576
 20
10.75075894523187
 11
-56.27005517354576
 21
10.16890753853679
 72
     2
 10
-55.95433825046897
 20
10.16890753853679
 40
0.3157169230767849
 50
180.0
 51
269.8110329574554
 73
     1
 72
     2
 10
-55.94872211515894
 20
11.87174248610577
 40
2.018561131933262
 50
269.8110329575857
 51
450.1889670424143
 73
     1
 72
     2
 10
-55.95433825046897
 20
13.57457743367488
 40
0.3157169230760639
 50
90.18896704254463
 51
180.0
 73
     1
 72
     1
 10
-56.27005517354576
 20
13.57457743367488
 11
-56.27005517354576
 21
12.96904214516809
 72
     2
 10
-55.95433825046897
 20
12.96904214516809
 40
0.3157169230767849
 50
180.0
 51
244.6259913216495
 73
     1
 72
     2
 10
-56.48038094855684
 20
11.85990054520028
 40
0.9118481501444653
 50
295.3740086781926
 51
424.6259913218237
 73
     0
 97
        8
330
3EF
330
350
330
3EC
330
3ED
330
3CB
330
34F
330
3EE
330
3CA
 92
       16
 93
       12
 72
     2
 10
-58.52988693700067
 20
9.218299867605879
 40
0.3157169230756836
 50
180.0
 51
270.0
 73
     1
 72
     1
 10
-58.52988693700067
 20
8.902582944529172
 11
-57.05405367599104
 21
8.902582944529172
 72
     2
 10
-57.05405367599104
 20
9.218299867605879
 40
0.3157169230767067
 50
270.0
 51
360.0
 73
     1
 72
     1
 10
-56.73833675291445
 20
9.218299867605879
 11
-56.73833675291445
 21
10.74907079913749
 72
     2
 10
-57.05405367599104
 20
10.74907079913749
 40
0.315716923076593
 50
0.0
 51
64.80558935146145
 73
     1
 72
     2
 10
-56.53146922841606
 20
11.85990054520028
 40
0.9118975235576144
 50
115.1944106485128
 51
244.8055893514713
 73
     0
 72
     2
 10
-57.05405367599104
 20
12.97073029126247
 40
0.3157169230761172
 50
295.1944106485386
 51
360.0
 73
     1
 72
     1
 10
-56.73833675291445
 20
12.97073029126247
 11
-56.73833675291445
 21
13.57475491032298
 72
     2
 10
-57.05405367599104
 20
13.57475491032298
 40
0.315716923076593
 50
0.0
 51
90.0
 73
     1
 72
     1
 10
-57.05405367599104
 20
13.89047183339918
 11
-58.52988693700067
 21
13.89047183339918
 72
     2
 10
-58.52988693700067
 20
13.57475491032298
 40
0.3157169230762005
 50
90.0
 51
180.0
 73
     1
 72
     1
 10
-58.84560386007635
 20
13.57475491032298
 11
-58.84560386007635
 21
9.218299867605879
 97
       12
330
3D3
330
38B
330
3D6
330
386
330
3E3
330
3E4
330
3D5
330
385
330
3D4
330
384
330
3E5
330
383
 75
     1
 76
     0
 52
45.0
 41
0.1
 77
     0
 78
     1
 53
45.0
 43
0.0
 44
0.0
 45
-0.0707106781186548
 46
0.0707106781186548
 79
     0
 98
        1
 10
0.0
 20
0.0
  0
HATCH
  5
43A
330
71
100
AcDbEntity
  8
1
  6
Continuous
 62
     2
100
AcDbHatch
 10
0.0
 20
0.0
 30
0.0
210
0.0
220
0.0
230
1.0
  2
_USER
 70
     0
 71
     1
 91
        4
 92
        1
 93
        8
 72
     1
 10
-53.22622490764647
 20
14.17878277355578
 11
-53.22622490764647
 21
8.61427200435557
 72
     2
 10
-53.65046952303035
 20
8.61427200435557
 40
0.4242446153832873
 50
0.0
 51
90.0
 73
     0
 72
     1
 10
-53.65046952303035
 20
8.190027388972283
 11
-59.12378161374716
 21
8.190027388972283
 72
     2
 10
-59.12378161374716
 20
8.61427200435557
 40
0.424244615382797
 50
90.0
 51
180.0
 73
     0
 72
     1
 10
-59.54802622912996
 20
8.61427200435557
 11
-59.54802622912996
 21
14.17878277355578
 72
     2
 10
-59.12378161374716
 20
14.17878277355578
 40
0.4242446153838006
 50
180.0
 51
270.0
 73
     0
 72
     1
 10
-59.12378161374716
 20
14.60302738893958
 11
-53.65046952303035
 21
14.60302738893958
 72
     2
 10
-53.65046952303035
 20
14.17878277355578
 40
0.4242446153838841
 50
270.0
 51
360.0
 73
     0
 97
        8
330
389
330
3D7
330
38A
330
3E2
330
387
330
3D9
330
388
330
3D8
 92
       16
 93
        1
 72
     2
 10
-56.50419596322965
 20
11.85990054520028
 40
0.4709789327785074
 50
0.0
 51
360.0
 73
     1
 97
        1
330
3FD
 92
       16
 93
        8
 72
     2
 10
-55.95433825046897
 20
10.75075894523187
 40
0.3157169230765218
 50
115.3740086783514
 51
180.0
 73
     1
 72
     1
 10
-56.27005517354576
 20
10.75075894523187
 11
-56.27005517354576
 21
10.16890753853679
 72
     2
 10
-55.95433825046897
 20
10.16890753853679
 40
0.3157169230767849
 50
180.0
 51
269.8110329574554
 73
     1
 72
     2
 10
-55.94872211515894
 20
11.87174248610577
 40
2.018561131933262
 50
269.8110329575857
 51
450.1889670424143
 73
     1
 72
     2
 10
-55.95433825046897
 20
13.57457743367488
 40
0.3157169230760639
 50
90.18896704254463
 51
180.0
 73
     1
 72
     1
 10
-56.27005517354576
 20
13.57457743367488
 11
-56.27005517354576
 21
12.96904214516809
 72
     2
 10
-55.95433825046897
 20
12.96904214516809
 40
0.3157169230767849
 50
180.0
 51
244.6259913216495
 73
     1
 72
     2
 10
-56.48038094855684
 20
11.85990054520028
 40
0.9118481501444653
 50
295.3740086781926
 51
424.6259913218237
 73
     0
 97
        8
330
3EF
330
350
330
3EC
330
3ED
330
3CB
330
34F
330
3EE
330
3CA
 92
       16
 93
       12
 72
     2
 10
-58.52988693700067
 20
9.218299867605879
 40
0.3157169230756836
 50
180.0
 51
270.0
 73
     1
 72
     1
 10
-58.52988693700067
 20
8.902582944529172
 11
-57.05405367599104
 21
8.902582944529172
 72
     2
 10
-57.05405367599104
 20
9.218299867605879
 40
0.3157169230767067
 50
270.0
 51
360.0
 73
     1
 72
     1
 10
-56.73833675291445
 20
9.218299867605879
 11
-56.73833675291445
 21
10.74907079913749
 72
     2
 10
-57.05405367599104
 20
10.74907079913749
 40
0.315716923076593
 50
0.0
 51
64.80558935146145
 73
     1
 72
     2
 10
-56.53146922841606
 20
11.85990054520028
 40
0.9118975235576144
 50
115.1944106485128
 51
244.8055893514713
 73
     0
 72
     2
 10
-57.05405367599104
 20
12.97073029126247
 40
0.3157169230761172
 50
295.1944106485386
 51
360.0
 73
     1
 72
     1
 10
-56.73833675291445
 20
12.97073029126247
 11
-56.73833675291445
 21
13.57475491032298
 72
     2
 10
-57.05405367599104
 20
13.57475491032298
 40
0.315716923076593
 50
0.0
 51
90.0
 73
     1
 72
     1
 10
-57.05405367599104
 20
13.89047183339918
 11
-58.52988693700067
 21
13.89047183339918
 72
     2
 10
-58.52988693700067
 20
13.57475491032298
 40
0.3157169230762005
 50
90.0
 51
180.0
 73
     1
 72
     1
 10
-58.84560386007635
 20
13.57475491032298
 11
-58.84560386007635
 21
9.218299867605879
 97
       12
330
3D3
330
38B
330
3D6
330
386
330
3E3
330
3E4
330
3D5
330
385
330
3D4
330
384
330
3E5
330
383
 75
     1
 76
     0
 52
45.0
 41
0.1
 77
     0
 78
     1
 53
45.0
 43
0.0
 44
0.0
 45
-0.0707106781186548
 46
0.0707106781186548
 79
     0
 98
        1
 10
0.0
 20
0.0
  0
HATCH
  5
43B
330
71
100
AcDbEntity
  8
1
  6
Continuous
 62
     2
100
AcDbHatch
 10
0.0
 20
0.0
 30
0.0
210
0.0
220
0.0
230
1.0
  2
_USER
 70
     0
 71
     1
 91
        1
 92
        1
 93
       18
 72
     1
 10
-31.63667699842546
 20
10.45857160665977
 11
-32.44777603589884
 21
10.45857160665977
 72
     1
 10
-32.44777603589884
 20
10.45857160665977
 11
-32.44777603589884
 21
8.190027388972283
 72
     1
 10
-32.44777603589884
 20
8.190027388972283
 11
-33.64056873806655
 21
8.190027388972283
 72
     1
 10
-33.64056873806655
 20
8.190027388972283
 11
-33.64056873806655
 21
10.45857160665977
 72
     1
 10
-33.64056873806655
 20
10.45857160665977
 11
-34.74420803763465
 21
10.45857160665977
 72
     2
 10
-34.74420803763465
 20
9.50404859983368
 40
0.9545230068260899
 50
90.0
 51
109.3371432194321
 73
     1
 72
     2
 10
-34.89087803573835
 20
9.922003580216568
 40
0.5115800601944109
 50
109.3371432194854
 51
151.4785267424226
 73
     1
 72
     2
 10
-34.51352077765696
 20
9.716932150877568
 40
0.9410597353348978
 50
151.4785267423627
 51
208.5214732576693
 73
     1
 72
     2
 10
-34.89087803573835
 20
9.51186072153908
 40
0.5115800601960215
 50
208.5214732576866
 51
246.6277221118449
 73
     1
 72
     2
 10
-34.73443800303525
 20
9.873852740249077
 40
0.9059297849852801
 50
246.6277221118183
 51
288.4480761180817
 73
     1
 72
     2
 10
-35.15260573669715
 20
11.12739851628567
 40
2.227384008972747
 50
288.4480761181333
 51
301.9309089499395
 73
     1
 72
     1
 10
-33.97455069467324
 20
9.237047797135887
 11
-33.97455069467324
 21
8.364530790332566
 72
     2
 10
-35.31047861178996
 20
13.02961309613397
 40
4.852596863498822
 50
74.02000874166129
 51
84.84185523036375
 73
     0
 72
     2
 10
-35.02162251705414
 20
9.829722512912383
 40
1.639695123940442
 50
84.84185523032401
 51
164.9381082228987
 73
     0
 72
     2
 10
-35.44075036051575
 20
9.716932150877568
 40
1.205656168392996
 50
164.938108222904
 51
195.0618917770973
 73
     0
 72
     2
 10
-35.02162251705414
 20
9.604141788842668
 40
1.639695123940212
 50
195.0618917771051
 51
270.0
 73
     0
 72
     1
 10
-35.02162251705414
 20
11.24383691278288
 11
-31.63667699842546
 21
11.24383691278337
 72
     1
 10
-31.63667699842546
 20
11.24383691278337
 11
-31.63667699842546
 21
10.45857160665977
 97
       18
330
352
330
3E8
330
3E9
330
3D1
330
3D0
330
3B6
330
3CF
330
3CE
330
3EA
330
3CD
330
3EB
330
3CC
330
3B7
330
351
330
356
330
355
330
354
330
353
 75
     1
 76
     0
 52
45.0
 41
0.1
 77
     0
 78
     1
 53
45.0
 43
0.0
 44
0.0
 45
-0.0707106781186548
 46
0.0707106781186548
 79
     0
 98
        1
 10
0.0
 20
0.0
  0
HATCH
  5
43C
330
71
100
AcDbEntity
  8
1
  6
Continuous
 62
     2
100
AcDbHatch
 10
0.0
 20
0.0
 30
0.0
210
0.0
220
0.0
230
1.0
  2
_USER
 70
     0
 71
     1
 91
        1
 92
        1
 93
       18
 72
     1
 10
-31.63667699842546
 20
10.45857160665977
 11
-32.44777603589884
 21
10.45857160665977
 72
     1
 10
-32.44777603589884
 20
10.45857160665977
 11
-32.44777603589884
 21
8.190027388972283
 72
     1
 10
-32.44777603589884
 20
8.190027388972283
 11
-33.64056873806655
 21
8.190027388972283
 72
     1
 10
-33.64056873806655
 20
8.190027388972283
 11
-33.64056873806655
 21
10.45857160665977
 72
     1
 10
-33.64056873806655
 20
10.45857160665977
 11
-34.74420803763465
 21
10.45857160665977
 72
     2
 10
-34.74420803763465
 20
9.50404859983368
 40
0.9545230068260899
 50
90.0
 51
109.3371432194321
 73
     1
 72
     2
 10
-34.89087803573835
 20
9.922003580216568
 40
0.5115800601944109
 50
109.3371432194854
 51
151.4785267424226
 73
     1
 72
     2
 10
-34.51352077765696
 20
9.716932150877568
 40
0.9410597353348978
 50
151.4785267423627
 51
208.5214732576693
 73
     1
 72
     2
 10
-34.89087803573835
 20
9.51186072153908
 40
0.5115800601960215
 50
208.5214732576866
 51
246.6277221118449
 73
     1
 72
     2
 10
-34.73443800303525
 20
9.873852740249077
 40
0.9059297849852801
 50
246.6277221118183
 51
288.4480761180817
 73
     1
 72
     2
 10
-35.15260573669715
 20
11.12739851628567
 40
2.227384008972747
 50
288.4480761181333
 51
301.9309089499395
 73
     1
 72
     1
 10
-33.97455069467324
 20
9.237047797135887
 11
-33.97455069467324
 21
8.364530790332566
 72
     2
 10
-35.31047861178996
 20
13.02961309613397
 40
4.852596863498822
 50
74.02000874166129
 51
84.84185523036375
 73
     0
 72
     2
 10
-35.02162251705414
 20
9.829722512912383
 40
1.639695123940442
 50
84.84185523032401
 51
164.9381082228987
 73
     0
 72
     2
 10
-35.44075036051575
 20
9.716932150877568
 40
1.205656168392996
 50
164.938108222904
 51
195.0618917770973
 73
     0
 72
     2
 10
-35.02162251705414
 20
9.604141788842668
 40
1.639695123940212
 50
195.0618917771051
 51
270.0
 73
     0
 72
     1
 10
-35.02162251705414
 20
11.24383691278288
 11
-31.63667699842546
 21
11.24383691278337
 72
     1
 10
-31.63667699842546
 20
11.24383691278337
 11
-31.63667699842546
 21
10.45857160665977
 97
       18
330
352
330
3E8
330
3E9
330
3D1
330
3D0
330
3B6
330
3CF
330
3CE
330
3EA
330
3CD
330
3EB
330
3CC
330
3B7
330
351
330
356
330
355
330
354
330
353
 75
     1
 76
     0
 52
45.0
 41
0.1
 77
     0
 78
     1
 53
45.0
 43
0.0
 44
0.0
 45
-0.0707106781186548
 46
0.0707106781186548
 79
     0
 98
        1
 10
0.0
 20
0.0
  0
HATCH
  5
43D
330
71
100
AcDbEntity
  8
1
  6
Continuous
 62
     2
100
AcDbHatch
 10
0.0
 20
0.0
 30
0.0
210
0.0
220
0.0
230
1.0
  2
_USER
 70
     0
 71
     1
 91
        1
 92
        1
 93
       14
 72
     2
 10
-51.12432399630706
 20
9.604141788842668
 40
1.639695123940507
 50
84.84185523036211
 51
164.9381082228864
 73
     1
 72
     2
 10
-51.54345183976986
 20
9.716932150877568
 40
1.205656168390944
 50
164.9381082228765
 51
195.0618917770948
 73
     1
 72
     2
 10
-51.12432399630706
 20
9.829722512912383
 40
1.63969512393938
 50
195.0618917770896
 51
275.1581447696398
 73
     1
 72
     2
 10
-51.41318009104296
 20
13.02961309613397
 40
4.852596863498136
 50
275.1581447696249
 51
285.9799912583529
 73
     1
 72
     1
 10
-50.07725217392516
 20
8.364530790333163
 11
-50.07725217392516
 21
9.23704779713637
 72
     2
 10
-51.25530721595004
 20
11.12739851628626
 40
2.227384008972733
 50
58.06909105004065
 51
71.55192388186718
 73
     0
 72
     2
 10
-50.83713948228925
 20
9.873852740249077
 40
0.9059297849849164
 50
71.55192388184112
 51
113.3722778881286
 73
     0
 72
     2
 10
-50.99357951499127
 20
9.51186072153908
 40
0.5115800601948096
 50
113.3722778881726
 51
151.4785267423048
 73
     0
 72
     2
 10
-50.61622225691096
 20
9.716932150877568
 40
0.9410597353332616
 50
151.4785267422945
 51
208.521473257733
 73
     0
 72
     2
 10
-50.99357951499127
 20
9.922003580216568
 40
0.5115800601948811
 50
208.5214732576954
 51
246.627722111801
 73
     0
 72
     2
 10
-50.83713948228925
 20
9.560011561505974
 40
0.9059297849853217
 50
246.6277221118715
 51
288.448076118147
 73
     0
 72
     2
 10
-51.25530721595004
 20
8.306465785469385
 40
2.227384008973479
 50
288.4480761181328
 51
301.9309089499592
 73
     0
 72
     1
 10
-50.07725217392516
 20
10.19681650461928
 11
-50.07725217392516
 21
11.06933351142257
 72
     2
 10
-51.41318009104296
 20
6.404251205621677
 40
4.852596863498067
 50
74.02000874164739
 51
84.84185523037506
 73
     1
 97
       14
330
3F0
330
3F1
330
3F2
330
3F3
330
3B8
330
3C9
330
3C8
330
3C7
330
3F4
330
3F5
330
3C6
330
3F6
330
3B9
330
3C5
 75
     1
 76
     0
 52
45.0
 41
0.1
 77
     0
 78
     1
 53
45.0
 43
0.0
 44
0.0
 45
-0.0707106781186548
 46
0.0707106781186548
 79
     0
 98
        1
 10
0.0
 20
0.0
  0
HATCH
  5
43E
330
71
100
AcDbEntity
  8
1
  6
Continuous
 62
     2
100
AcDbHatch
 10
0.0
 20
0.0
 30
0.0
210
0.0
220
0.0
230
1.0
  2
_USER
 70
     0
 71
     1
 91
        1
 92
        1
 93
       14
 72
     2
 10
-51.12432399630706
 20
9.604141788842668
 40
1.639695123940507
 50
84.84185523036211
 51
164.9381082228864
 73
     1
 72
     2
 10
-51.54345183976986
 20
9.716932150877568
 40
1.205656168390944
 50
164.9381082228765
 51
195.0618917770948
 73
     1
 72
     2
 10
-51.12432399630706
 20
9.829722512912383
 40
1.63969512393938
 50
195.0618917770896
 51
275.1581447696398
 73
     1
 72
     2
 10
-51.41318009104296
 20
13.02961309613397
 40
4.852596863498136
 50
275.1581447696249
 51
285.9799912583529
 73
     1
 72
     1
 10
-50.07725217392516
 20
8.364530790333163
 11
-50.07725217392516
 21
9.23704779713637
 72
     2
 10
-51.25530721595004
 20
11.12739851628626
 40
2.227384008972733
 50
58.06909105004065
 51
71.55192388186718
 73
     0
 72
     2
 10
-50.83713948228925
 20
9.873852740249077
 40
0.9059297849849164
 50
71.55192388184112
 51
113.3722778881286
 73
     0
 72
     2
 10
-50.99357951499127
 20
9.51186072153908
 40
0.5115800601948096
 50
113.3722778881726
 51
151.4785267423048
 73
     0
 72
     2
 10
-50.61622225691096
 20
9.716932150877568
 40
0.9410597353332616
 50
151.4785267422945
 51
208.521473257733
 73
     0
 72
     2
 10
-50.99357951499127
 20
9.922003580216568
 40
0.5115800601948811
 50
208.5214732576954
 51
246.627722111801
 73
     0
 72
     2
 10
-50.83713948228925
 20
9.560011561505974
 40
0.9059297849853217
 50
246.6277221118715
 51
288.448076118147
 73
     0
 72
     2
 10
-51.25530721595004
 20
8.306465785469385
 40
2.227384008973479
 50
288.4480761181328
 51
301.9309089499592
 73
     0
 72
     1
 10
-50.07725217392516
 20
10.19681650461928
 11
-50.07725217392516
 21
11.06933351142257
 72
     2
 10
-51.41318009104296
 20
6.404251205621677
 40
4.852596863498067
 50
74.02000874164739
 51
84.84185523037506
 73
     1
 97
       14
330
3F0
330
3F1
330
3F2
330
3F3
330
3B8
330
3C9
330
3C8
330
3C7
330
3F4
330
3F5
330
3C6
330
3F6
330
3B9
330
3C5
 75
     1
 76
     0
 52
45.0
 41
0.1
 77
     0
 78
     1
 53
45.0
 43
0.0
 44
0.0
 45
-0.0707106781186548
 46
0.0707106781186548
 79
     0
 98
        1
 10
0.0
 20
0.0
  0
ENDBLK
  5
73
330
71
100
AcDbEntity
  8
0
100
AcDbBlockEnd
  0
BLOCK
  5
75
330
74
100
AcDbEntity
  8
0
100
AcDbBlockBegin
  2
_punkt
 70
     0
 10
65.76012341105745
 20
0.89652738895597
 30
0.0
  3
_punkt
  1

  0
LINE
  5
43F
330
74
100
AcDbEntity
  8
1
  6
Continuous
 62
     2
100
AcDbLine
 10
65.76012341105745
 20
0.89652738895597
 30
0.0
 11
70.76012341105644
 21
0.89652738895597
 31
0.0
  0
LINE
  5
440
330
74
100
AcDbEntity
  8
1
  6
Continuous
 62
     2
100
AcDbLine
 10
65.76012341105745
 20
0.89652738895597
 30
0.0
 11
65.76012341105745
 21
-4.10347261104414
 31
0.0
  0
ENDBLK
  5
76
330
74
100
AcDbEntity
  8
0
100
AcDbBlockEnd
  0
BLOCK
  5
7A
330
77
100
AcDbEntity
  8
0
100
AcDbBlockBegin
  2
A4I_CS
 70
     0
 10
65.76012341105745
 20
-4.10347261104414
 30
0.0
  3
A4I_CS
  1

  0
INSERT
  5
78
330
77
100
AcDbEntity
  8
1
100
AcDbBlockReference
  2
_rahmen
 10
65.76012341105745
 20
-4.10347261104414
 30
0.0
  0
INSERT
  5
79
330
77
100
AcDbEntity
  8
1
100
AcDbBlockReference
  2
_punkt
 10
65.76012341105745
 20
0.89652738895597
 30
0.0
  0
ENDBLK
  5
7B
330
77
100
AcDbEntity
  8
0
100
AcDbBlockEnd
  0
BLOCK
  5
84
330
7C
100
AcDbEntity
  8
0
100
AcDbBlockBegin
  2
1
 70
     0
 10
0.0
 20
0.0
 30
0.0
  3
1
  1

  0
INSERT
  5
7D
330
7C
100
AcDbEntity
  8
0
100
AcDbBlockReference
  2
Allg1
 10
5.00000000000021
 20
71.0
 30
0.0
  0
INSERT
  5
7E
330
7C
100
AcDbEntity
  8
0
100
AcDbBlockReference
  2
Drfsicht1
 10
-109.362543
 20
87.45097499999991
 30
0.0
  0
INSERT
  5
7F
330
7C
100
AcDbEntity
  8
0
100
AcDbBlockReference
  2
Rckans1
 10
-23.63745699999996
 20
142.0000000000001
 30
0.0
  0
INSERT
  5
80
330
7C
100
AcDbEntity
  8
0
100
AcDbBlockReference
  2
SA_Links1
 10
-72.0
 20
142.0
 30
0.0
  0
INSERT
  5
81
330
7C
100
AcDbEntity
  8
0
100
AcDbBlockReference
  2
SA_Rechts1
 10
-168.073123
 20
142.0
 30
0.0
  0
INSERT
  5
82
330
7C
100
AcDbEntity
  8
0
100
AcDbBlockReference
  2
Vordans1
 10
-109.362543
 20
142.0
 30
0.0
  0
INSERT
  5
83
330
7C
100
AcDbEntity
  8
0
100
AcDbBlockReference
  2
A4I_CS
 10
65.76012341105745
 20
-4.10347261104414
 30
0.0
  0
ENDBLK
  5
85
330
7C
100
AcDbEntity
  8
0
100
AcDbBlockEnd
  0
BLOCK
  5
19E
330
195
100
AcDbEntity
  8
0
100
AcDbBlockBegin
  2
*D17
 70
     1
 10
0.0
 20
0.0
 30
0.0
  3
*D17
  1

  0
LINE
  5
196
330
195
100
AcDbEntity
  8
1
  6
Continuous
 62
     2
100
AcDbLine
 10
-129.8625429283
 20
84.37597502394189
 30
0.0
 11
-129.8625429283
 21
77.37597502394189
 31
0.0
  0
LINE
  5
197
330
195
100
AcDbEntity
  8
1
  6
Continuous
 62
     2
100
AcDbLine
 10
-129.8625429283
 20
90.52597502453938
 30
0.0
 11
-129.8625429283
 21
84.37597502394189
 31
0.0
  0
LINE
  5
198
330
195
100
AcDbEntity
  8
1
  6
Continuous
 62
     2
100
AcDbLine
 10
-129.8625429283
 20
102.8524056940558
 30
0.0
 11
-129.8625429283
 21
90.52597502453938
 31
0.0
  0
LINE
  5
199
330
195
100
AcDbEntity
  8
1
  6
Continuous
 62
     2
100
AcDbLine
 10
-119.8625429282629
 20
84.37597502394189
 30
0.0
 11
-131.3625429283
 21
84.37597502394189
 31
0.0
  0
LINE
  5
19A
330
195
100
AcDbEntity
  8
1
  6
Continuous
 62
     2
100
AcDbLine
 10
-119.8625429283
 20
90.52597502453938
 30
0.0
 11
-131.3625429283
 21
90.52597502453938
 31
0.0
  0
SOLID
  5
19B
330
195
100
AcDbEntity
  8
1
 62
     2
100
AcDbTrace
 10
-130.3233266698559
 20
94.02597502453938
 30
0.0
 11
-129.4017591867441
 21
94.02597502453938
 31
0.0
 12
-129.8625429283
 22
90.52597502453938
 32
0.0
 13
-129.8625429283
 23
90.52597502453938
 33
0.0
  0
SOLID
  5
19C
330
195
100
AcDbEntity
  8
1
 62
     2
100
AcDbTrace
 10
-129.4017591867441
 20
80.87597502394189
 30
0.0
 11
-130.3233266698559
 21
80.87597502394189
 31
0.0
 12
-129.8625429283
 22
84.37597502394189
 32
0.0
 13
-129.8625429283
 23
84.37597502394189
 33
0.0
  0
MTEXT
  5
19D
330
195
100
AcDbEntity
  8
1
 62
     3
100
AcDbMText
 10
-131.7125429283
 20
94.27740569405577
 30
0.0
 40
3.5
 41
0.0
 71
     7
 72
     1
  1
6,15
  7
CONVERTER_11
 11
0.0
 21
1.0
 31
0.0
 73
     1
 44
0.60024009603842
  0
ENDBLK
  5
19F
330
195
100
AcDbEntity
  8
0
100
AcDbBlockEnd
  0
BLOCK
  5
2EE
330
2E7
100
AcDbEntity
  8
0
100
AcDbBlockBegin
  2
*D18
 70
     1
 10
0.0
 20
0.0
 30
0.0
  3
*D18
  1

  0
LINE
  5
2E8
330
2E7
100
AcDbEntity
  8
1
  6
Continuous
 62
     2
100
AcDbLine
 10
-119.8625429283064
 20
112.2759742962603
 30
0.0
 11
-98.8625429280943
 21
112.2759742962603
 31
0.0
  0
LINE
  5
2E9
330
2E7
100
AcDbEntity
  8
1
  6
Continuous
 62
     2
100
AcDbLine
 10
-98.8625429280943
 20
138.7504499963891
 30
0.0
 11
-98.8625429280943
 21
110.7759742962603
 31
0.0
  0
LINE
  5
2EA
330
2E7
100
AcDbEntity
  8
1
  6
Continuous
 62
     2
100
AcDbLine
 10
-119.8625429283064
 20
138.5124999315561
 30
0.0
 11
-119.8625429283064
 21
110.7759742962603
 31
0.0
  0
SOLID
  5
2EB
330
2E7
100
AcDbEntity
  8
1
 62
     2
100
AcDbTrace
 10
-116.3625429283064
 20
112.7367580378162
 30
0.0
 11
-116.3625429283064
 21
111.8151905547044
 31
0.0
 12
-119.8625429283064
 22
112.2759742962603
 32
0.0
 13
-119.8625429283064
 23
112.2759742962603
 33
0.0
  0
SOLID
  5
2EC
330
2E7
100
AcDbEntity
  8
1
 62
     2
100
AcDbTrace
 10
-102.3625429280943
 20
111.8151905547044
 30
0.0
 11
-102.3625429280943
 21
112.7367580378162
 31
0.0
 12
-98.8625429280943
 22
112.2759742962603
 32
0.0
 13
-98.8625429280943
 23
112.2759742962603
 33
0.0
  0
MTEXT
  5
2ED
330
2E7
100
AcDbEntity
  8
1
 62
     3
100
AcDbMText
 10
-111.6365625601556
 20
113.7759742962603
 30
0.0
 40
3.5
 41
0.0
 71
     7
 72
     1
  1
21
  7
CONVERTER_11
 11
0.9999999999970619
 21
2.424068405545306E-6
 31
0.0
 73
     1
 44
0.60024009603842
  0
ENDBLK
  5
2EF
330
2E7
100
AcDbEntity
  8
0
100
AcDbBlockEnd
  0
BLOCK
  5
2F9
330
2F2
100
AcDbEntity
  8
0
100
AcDbBlockBegin
  2
*D19
 70
     1
 10
0.0
 20
0.0
 30
0.0
  3
*D19
  1

  0
LINE
  5
2F3
330
2F2
100
AcDbEntity
  8
1
  6
Continuous
 62
     2
100
AcDbLine
 10
-129.8625429283064
 20
163.0874999317384
 30
0.0
 11
-129.8625429283064
 21
138.5124999315561
 31
0.0
  0
LINE
  5
2F4
330
2F2
100
AcDbEntity
  8
1
  6
Continuous
 62
     2
100
AcDbLine
 10
-119.8625429283066
 20
138.5124999315561
 30
0.0
 11
-131.3625429283064
 21
138.5124999315561
 31
0.0
  0
LINE
  5
2F5
330
2F2
100
AcDbEntity
  8
1
  6
Continuous
 62
     2
100
AcDbLine
 10
-114.5625427002158
 20
163.0874999317384
 30
0.0
 11
-131.3625429283064
 21
163.0874999317384
 31
0.0
  0
SOLID
  5
2F6
330
2F2
100
AcDbEntity
  8
1
 62
     2
100
AcDbTrace
 10
-129.4017591867505
 20
159.5874999317384
 30
0.0
 11
-130.3233266698623
 21
159.5874999317384
 31
0.0
 12
-129.8625429283064
 22
163.0874999317384
 32
0.0
 13
-129.8625429283064
 23
163.0874999317384
 33
0.0
  0
SOLID
  5
2F7
330
2F2
100
AcDbEntity
  8
1
 62
     2
100
AcDbTrace
 10
-130.3233266698623
 20
142.0124999315561
 30
0.0
 11
-129.4017591867505
 21
142.0124999315561
 31
0.0
 12
-129.8625429283064
 22
138.5124999315561
 32
0.0
 13
-129.8625429283064
 23
138.5124999315561
 33
0.0
  0
MTEXT
  5
2F8
330
2F2
100
AcDbEntity
  8
1
 62
     3
100
AcDbMText
 10
-131.7125429283064
 20
144.5178164066241
 30
0.0
 40
3.5
 41
0.0
 71
     7
 72
     1
  1
24,58
  7
CONVERTER_11
 11
0.0
 21
1.0
 31
0.0
 73
     1
 44
0.60024009603842
  0
ENDBLK
  5
2FA
330
2F2
100
AcDbEntity
  8
0
100
AcDbBlockEnd
  0
BLOCK
  5
304
330
2FD
100
AcDbEntity
  8
0
100
AcDbBlockBegin
  2
*D20
 70
     1
 10
0.0
 20
0.0
 30
0.0
  3
*D20
  1

  0
LINE
  5
2FE
330
2FD
100
AcDbEntity
  8
1
  6
Continuous
 62
     2
100
AcDbLine
 10
-137.392135165953
 20
163.0874999317383
 30
0.0
 11
-137.392135165953
 21
120.9124999315587
 31
0.0
  0
LINE
  5
2FF
330
2FD
100
AcDbEntity
  8
1
  6
Continuous
 62
     2
100
AcDbLine
 10
-111.0292095948204
 20
120.9124999315587
 30
0.0
 11
-138.892135165953
 21
120.9124999315587
 31
0.0
  0
LINE
  5
300
330
2FD
100
AcDbEntity
  8
1
  6
Continuous
 62
     2
100
AcDbLine
 10
-114.5625427002158
 20
163.0874999317383
 30
0.0
 11
-138.892135165953
 21
163.0874999317383
 31
0.0
  0
SOLID
  5
301
330
2FD
100
AcDbEntity
  8
1
 62
     2
100
AcDbTrace
 10
-136.9313514243971
 20
159.5874999317383
 30
0.0
 11
-137.8529189075089
 21
159.5874999317383
 31
0.0
 12
-137.392135165953
 22
163.0874999317383
 32
0.0
 13
-137.392135165953
 23
163.0874999317383
 33
0.0
  0
SOLID
  5
302
330
2FD
100
AcDbEntity
  8
1
 62
     2
100
AcDbTrace
 10
-137.8529189075089
 20
124.4124999315587
 30
0.0
 11
-136.9313514243971
 21
124.4124999315587
 31
0.0
 12
-137.392135165953
 22
120.9124999315587
 32
0.0
 13
-137.392135165953
 23
120.9124999315587
 33
0.0
  0
MTEXT
  5
303
330
2FD
100
AcDbEntity
  8
1
 62
     3
100
AcDbMText
 10
-139.242135165953
 20
137.968486203872
 30
0.0
 40
3.5
 41
0.0
 71
     7
 72
     1
  1
42,18
  7
CONVERTER_11
 11
0.0
 21
1.0
 31
0.0
 73
     1
 44
0.60024009603842
  0
ENDBLK
  5
305
330
2FD
100
AcDbEntity
  8
0
100
AcDbBlockEnd
  0
ENDSEC
  0
SECTION
  2
ENTITIES
  0
INSERT
  5
86
330
1F
100
AcDbEntity
  8
1
100
AcDbBlockReference
  2
1
 10
0.0
 20
0.0
 30
0.0
  0
ENDSEC
  0
SECTION
  2
OBJECTS
  0
DICTIONARY
  5
C
330
0
100
AcDbDictionary
281
     1
  3
ACAD_GROUP
350
D
  3
ACAD_LAYOUT
350
1A
  3
ACAD_MATERIAL
350
3B
  3
ACAD_MLEADERSTYLE
350
468
  3
ACAD_MLINESTYLE
350
17
  3
ACAD_PLOTSETTINGS
350
19
  3
ACAD_PLOTSTYLENAME
350
E
  3
ACAD_TABLESTYLE
350
467
  3
ACAD_VISUALSTYLE
350
2A
  0
DICTIONARY
  5
D
102
{ACAD_REACTORS
330
C
102
}
330
C
100
AcDbDictionary
281
     1
  0
DICTIONARY
  5
1A
102
{ACAD_REACTORS
330
C
102
}
330
C
100
AcDbDictionary
281
     1
  3
Layout1
350
1E
  3
Layout2
350
26
  3
Model
350
22
  0
DICTIONARY
  5
3B
102
{ACAD_REACTORS
330
C
102
}
330
C
100
AcDbDictionary
281
     1
  3
ByBlock
350
3D
  3
ByLayer
350
3C
  3
Global
350
3E
  0
DICTIONARY
  5
468
102
{ACAD_REACTORS
330
C
102
}
330
C
100
AcDbDictionary
281
     1
  0
DICTIONARY
  5
17
102
{ACAD_REACTORS
330
C
102
}
330
C
100
AcDbDictionary
281
     1
  3
Standard
350
18
  0
DICTIONARY
  5
19
102
{ACAD_REACTORS
330
C
102
}
330
C
100
AcDbDictionary
281
     1
  0
ACDBDICTIONARYWDFLT
  5
E
102
{ACAD_REACTORS
330
C
102
}
330
C
100
AcDbDictionary
281
     1
  3
Normal
350
F
100
AcDbDictionaryWithDefault
340
F
  0
DICTIONARY
  5
467
102
{ACAD_REACTORS
330
C
102
}
330
C
100
AcDbDictionary
281
     1
  0
DICTIONARY
  5
2A
102
{ACAD_REACTORS
330
C
102
}
330
C
100
AcDbDictionary
281
     1
  3
2dWireframe
350
2F
  3
3D Hidden
350
31
  3
3dWireframe
350
30
  3
Basic
350
32
  3
Brighten
350
36
  3
ColorChange
350
3A
  3
Conceptual
350
34
  3
Dim
350
35
  3
Facepattern
350
39
  3
Flat
350
2B
  3
FlatWithEdges
350
2C
  3
Gouraud
350
2D
  3
GouraudWithEdges
350
2E
  3
Linepattern
350
38
  3
Realistic
350
33
  3
Thicken
350
37
  0
LAYOUT
  5
1E
102
{ACAD_REACTORS
330
1A
102
}
330
1A
100
AcDbPlotSettings
  1

  2
none_device
  4

  6

 40
0.0
 41
0.0
 42
0.0
 43
0.0
 44
0.0
 45
0.0
 46
0.0
 47
0.0
 48
0.0
 49
0.0
140
0.0
141
0.0
142
1.0
143
1.0
 70
   688
 72
     0
 73
     0
 74
     5
  7

 75
    16
 76
     0
 77
     2
 78
   300
147
1.0
148
0.0
149
0.0
100
AcDbLayout
  1
Layout1
 70
     1
 71
     1
 10
0.0
 20
0.0
 11
12.0
 21
9.0
 12
0.0
 22
0.0
 32
0.0
 14
1.00000000000000E+20
 24
1.00000000000000E+20
 34
1.00000000000000E+20
 15
-1.00000000000000E+20
 25
-1.00000000000000E+20
 35
-1.00000000000000E+20
146
0.0
 13
0.0
 23
0.0
 33
0.0
 16
1.0
 26
0.0
 36
0.0
 17
0.0
 27
1.0
 37
0.0
 76
     0
330
1B
  0
LAYOUT
  5
26
102
{ACAD_REACTORS
330
1A
102
}
330
1A
100
AcDbPlotSettings
  1

  2
none_device
  4

  6

 40
0.0
 41
0.0
 42
0.0
 43
0.0
 44
0.0
 45
0.0
 46
0.0
 47
0.0
 48
0.0
 49
0.0
140
0.0
141
0.0
142
1.0
143
1.0
 70
   688
 72
     0
 73
     0
 74
     5
  7

 75
    16
 76
     0
 77
     2
 78
   300
147
1.0
148
0.0
149
0.0
100
AcDbLayout
  1
Layout2
 70
     1
 71
     2
 10
0.0
 20
0.0
 11
0.0
 21
0.0
 12
0.0
 22
0.0
 32
0.0
 14
0.0
 24
0.0
 34
0.0
 15
0.0
 25
0.0
 35
0.0
146
0.0
 13
0.0
 23
0.0
 33
0.0
 16
1.0
 26
0.0
 36
0.0
 17
0.0
 27
1.0
 37
0.0
 76
     0
330
23
  0
LAYOUT
  5
22
102
{ACAD_REACTORS
330
1A
102
}
330
1A
100
AcDbPlotSettings
  1

  2
none_device
  4

  6

 40
0.0
 41
0.0
 42
0.0
 43
0.0
 44
0.0
 45
0.0
 46
0.0
 47
0.0
 48
0.0
 49
0.0
140
0.0
141
0.0
142
1.0
143
1.0
 70
  1712
 72
     0
 73
     0
 74
     0
  7

 75
     0
 76
     0
 77
     2
 78
   300
147
1.0
148
0.0
149
0.0
100
AcDbLayout
  1
Model
 70
     1
 71
     0
 10
0.0
 20
0.0
 11
12.0
 21
9.0
 12
0.0
 22
0.0
 32
0.0
 14
-226.2398765889416
 24
-4.10347261104414
 34
0.0
 15
70.76012341105644
 25
205.896527388956
 35
0.0
146
0.0
 13
0.0
 23
0.0
 33
0.0
 16
1.0
 26
0.0
 36
0.0
 17
0.0
 27
1.0
 37
0.0
 76
     0
330
1F
331
29
  0
MATERIAL
  5
3D
102
{ACAD_REACTORS
330
3B
102
}
102
{ACAD_XDICTIONARY
360
463
102
}
330
3B
100
AcDbMaterial
  1
ByBlock
  0
MATERIAL
  5
3C
102
{ACAD_REACTORS
330
3B
102
}
102
{ACAD_XDICTIONARY
360
461
102
}
330
3B
100
AcDbMaterial
  1
ByLayer
  0
MATERIAL
  5
3E
102
{ACAD_REACTORS
330
3B
102
}
102
{ACAD_XDICTIONARY
360
465
102
}
330
3B
100
AcDbMaterial
  1
Global
  0
MLINESTYLE
  5
18
102
{ACAD_REACTORS
330
17
102
}
330
17
100
AcDbMlineStyle
  2
Standard
 70
     0
  3

 62
   256
 51
90.0
 52
90.0
 71
     2
 49
0.5
 62
   256
  6
BYLAYER
 49
-0.5
 62
   256
  6
BYLAYER
  0
ACDBPLACEHOLDER
  5
F
102
{ACAD_REACTORS
330
E
102
}
330
E
  0
VISUALSTYLE
  5
2F
102
{ACAD_REACTORS
330
2A
102
}
102
{ACAD_XDICTIONARY
360
449
102
}
330
2A
100
AcDbVisualStyle
  2
2dWireframe
 70
     4
 71
     0
 72
     2
 73
     0
 90
        0
 40
-0.6
 41
-30.0
 62
     5
 63
     7
421
 16777215
 74
     1
 91
        4
 64
     7
 65
   257
 75
     1
175
     1
 42
1.0
 92
        0
 66
   257
 43
1.0
 76
     1
 77
     6
 78
     2
 67
     7
 79
     5
170
     0
171
     0
290
     0
174
     0
 93
        1
 44
0.0
173
     0
291
     0
 45
0.0
1001
ACAD
1000
AcDbSavedByObjectVersion
1070
     0
  0
VISUALSTYLE
  5
31
102
{ACAD_REACTORS
330
2A
102
}
102
{ACAD_XDICTIONARY
360
44D
102
}
330
2A
100
AcDbVisualStyle
  2
3D Hidden
 70
     6
 71
     1
 72
     2
 73
     2
 90
        0
 40
-0.6
 41
-30.0
 62
     5
 63
     7
421
 16777215
 74
     2
 91
        2
 64
     7
 65
   257
 75
     2
175
     1
 42
40.0
 92
        0
 66
   257
 43
1.0
 76
     1
 77
     6
 78
     2
 67
     7
 79
     3
170
     0
171
     0
290
     0
174
     0
 93
        1
 44
0.0
173
     0
291
     0
 45
0.0
1001
ACAD
1000
AcDbSavedByObjectVersion
1070
     0
  0
VISUALSTYLE
  5
30
102
{ACAD_REACTORS
330
2A
102
}
102
{ACAD_XDICTIONARY
360
44B
102
}
330
2A
100
AcDbVisualStyle
  2
3dWireframe
 70
     5
 71
     0
 72
     2
 73
     0
 90
        0
 40
-0.6
 41
-30.0
 62
     5
 63
     7
421
 16777215
 74
     1
 91
        4
 64
     7
 65
   257
 75
     1
175
     1
 42
1.0
 92
        0
 66
   257
 43
1.0
 76
     1
 77
     6
 78
     2
 67
     7
 79
     5
170
     0
171
     0
290
     0
174
     0
 93
        1
 44
0.0
173
     0
291
     0
 45
0.0
1001
ACAD
1000
AcDbSavedByObjectVersion
1070
     0
  0
VISUALSTYLE
  5
32
102
{ACAD_REACTORS
330
2A
102
}
102
{ACAD_XDICTIONARY
360
44F
102
}
330
2A
100
AcDbVisualStyle
  2
Basic
 70
     7
 71
     1
 72
     0
 73
     1
 90
        0
 40
-0.6
 41
-30.0
 62
     5
 63
     7
421
 16777215
 74
     0
 91
        4
 64
     7
 65
   257
 75
     1
175
     1
 42
1.0
 92
        8
 66
     7
 43
1.0
 76
     1
 77
     6
 78
     2
 67
     7
 79
     5
170
     0
171
     0
290
     0
174
     0
 93
        1
 44
0.0
173
     0
291
     1
 45
0.0
1001
ACAD
1000
AcDbSavedByObjectVersion
1070
     0
  0
VISUALSTYLE
  5
36
102
{ACAD_REACTORS
330
2A
102
}
102
{ACAD_XDICTIONARY
360
457
102
}
330
2A
100
AcDbVisualStyle
  2
Brighten
 70
    12
 71
     2
 72
     2
 73
     0
 90
        0
 40
-0.6
 41
-30.0
 62
     5
 63
     7
421
 16777215
 74
     1
 91
        4
 64
     7
 65
   257
 75
     1
175
     1
 42
1.0
 92
        8
 66
     7
 43
1.0
 76
     1
 77
     6
 78
     2
 67
     7
 79
     5
170
     0
171
     0
290
     0
174
     0
 93
        1
 44
50.0
173
     0
291
     1
 45
0.0
1001
ACAD
1000
AcDbSavedByObjectVersion
1070
     0
  0
VISUALSTYLE
  5
3A
102
{ACAD_REACTORS
330
2A
102
}
102
{ACAD_XDICTIONARY
360
45F
102
}
330
2A
100
AcDbVisualStyle
  2
ColorChange
 70
    16
 71
     2
 72
     2
 73
     3
 90
        0
 40
-0.6
 41
-30.0
 62
     5
 63
     8
421
  8421504
 74
     1
 91
        4
 64
     7
 65
   257
 75
     1
175
     1
 42
1.0
 92
        8
 66
     8
424
  8421504
 43
1.0
 76
     1
 77
     6
 78
     2
 67
     7
 79
     5
170
     0
171
     0
290
     0
174
     0
 93
        1
 44
0.0
173
     0
291
     1
 45
0.0
1001
ACAD
1000
AcDbSavedByObjectVersion
1070
     0
  0
VISUALSTYLE
  5
34
102
{ACAD_REACTORS
330
2A
102
}
102
{ACAD_XDICTIONARY
360
453
102
}
330
2A
100
AcDbVisualStyle
  2
Conceptual
 70
     9
 71
     3
 72
     2
 73
     0
 90
        0
 40
-0.6
 41
-30.0
 62
     5
 63
     7
421
 16777215
 74
     2
 91
        2
 64
     7
 65
   257
 75
     1
175
     1
 42
40.0
 92
        8
 66
     7
 43
1.0
 76
     1
 77
     6
 78
     2
 67
     7
 79
     3
170
     0
171
     0
290
     0
174
     0
 93
        1
 44
0.0
173
     0
291
     0
 45
0.0
1001
ACAD
1000
AcDbSavedByObjectVersion
1070
     0
  0
VISUALSTYLE
  5
35
102
{ACAD_REACTORS
330
2A
102
}
102
{ACAD_XDICTIONARY
360
455
102
}
330
2A
100
AcDbVisualStyle
  2
Dim
 70
    11
 71
     2
 72
     2
 73
     0
 90
        0
 40
-0.6
 41
-30.0
 62
     5
 63
     7
421
 16777215
 74
     1
 91
        4
 64
     7
 65
   257
 75
     1
175
     1
 42
1.0
 92
        8
 66
     7
 43
1.0
 76
     1
 77
     6
 78
     2
 67
     7
 79
     5
170
     0
171
     0
290
     0
174
     0
 93
        1
 44
-50.0
173
     0
291
     1
 45
0.0
1001
ACAD
1000
AcDbSavedByObjectVersion
1070
     0
  0
VISUALSTYLE
  5
39
102
{ACAD_REACTORS
330
2A
102
}
102
{ACAD_XDICTIONARY
360
45D
102
}
330
2A
100
AcDbVisualStyle
  2
Facepattern
 70
    15
 71
     2
 72
     2
 73
     0
 90
        0
 40
-0.6
 41
-30.0
 62
     5
 63
     7
421
 16777215
 74
     1
 91
        4
 64
     7
 65
   257
 75
     1
175
     1
 42
1.0
 92
        8
 66
     7
 43
1.0
 76
     1
 77
     6
 78
     2
 67
     7
 79
     5
170
     0
171
     0
290
     0
174
     0
 93
        1
 44
0.0
173
     0
291
     1
 45
0.0
1001
ACAD
1000
AcDbSavedByObjectVersion
1070
     0
  0
VISUALSTYLE
  5
2B
102
{ACAD_REACTORS
330
2A
102
}
102
{ACAD_XDICTIONARY
360
441
102
}
330
2A
100
AcDbVisualStyle
  2
Flat
 70
     0
 71
     2
 72
     1
 73
     1
 90
        2
 40
-0.6
 41
30.0
 62
     5
 63
     7
421
 16777215
 74
     0
 91
        4
 64
     7
 65
   257
 75
     1
175
     1
 42
1.0
 92
        8
 66
     7
 43
1.0
 76
     1
 77
     6
 78
     2
 67
     7
 79
     5
170
     0
171
     0
290
     0
174
     0
 93
       13
 44
0.0
173
     0
291
     1
 45
0.0
1001
ACAD
1000
AcDbSavedByObjectVersion
1070
     0
  0
VISUALSTYLE
  5
2C
102
{ACAD_REACTORS
330
2A
102
}
102
{ACAD_XDICTIONARY
360
443
102
}
330
2A
100
AcDbVisualStyle
  2
FlatWithEdges
 70
     1
 71
     2
 72
     1
 73
     1
 90
        2
 40
-0.6
 41
30.0
 62
     5
 63
     7
421
 16777215
 74
     1
 91
        4
 64
     7
 65
   257
 75
     1
175
     1
 42
1.0
 92
        0
 66
   257
 43
1.0
 76
     1
 77
     6
 78
     2
 67
     7
 79
     5
170
     0
171
     0
290
     0
174
     0
 93
       13
 44
0.0
173
     0
291
     1
 45
0.0
1001
ACAD
1000
AcDbSavedByObjectVersion
1070
     0
  0
VISUALSTYLE
  5
2D
102
{ACAD_REACTORS
330
2A
102
}
102
{ACAD_XDICTIONARY
360
445
102
}
330
2A
100
AcDbVisualStyle
  2
Gouraud
 70
     2
 71
     2
 72
     2
 73
     1
 90
        2
 40
-0.6
 41
30.0
 62
     5
 63
     7
421
 16777215
 74
     0
 91
        4
 64
     7
 65
   257
 75
     1
175
     1
 42
1.0
 92
        0
 66
     7
 43
1.0
 76
     1
 77
     6
 78
     2
 67
     7
 79
     5
170
     0
171
     0
290
     0
174
     0
 93
       13
 44
0.0
173
     0
291
     1
 45
0.0
1001
ACAD
1000
AcDbSavedByObjectVersion
1070
     0
  0
VISUALSTYLE
  5
2E
102
{ACAD_REACTORS
330
2A
102
}
102
{ACAD_XDICTIONARY
360
447
102
}
330
2A
100
AcDbVisualStyle
  2
GouraudWithEdges
 70
     3
 71
     2
 72
     2
 73
     1
 90
        2
 40
-0.6
 41
30.0
 62
     5
 63
     7
421
 16777215
 74
     1
 91
        4
 64
     7
 65
   257
 75
     1
175
     1
 42
1.0
 92
        0
 66
   257
 43
1.0
 76
     1
 77
     6
 78
     2
 67
     7
 79
     5
170
     0
171
     0
290
     0
174
     0
 93
       13
 44
0.0
173
     0
291
     1
 45
0.0
1001
ACAD
1000
AcDbSavedByObjectVersion
1070
     0
  0
VISUALSTYLE
  5
38
102
{ACAD_REACTORS
330
2A
102
}
102
{ACAD_XDICTIONARY
360
45B
102
}
330
2A
100
AcDbVisualStyle
  2
Linepattern
 70
    14
 71
     2
 72
     2
 73
     0
 90
        0
 40
-0.6
 41
-30.0
 62
     5
 63
     7
421
 16777215
 74
     1
 91
        4
 64
     7
 65
   257
 75
     7
175
     7
 42
1.0
 92
        8
 66
     7
 43
1.0
 76
     1
 77
     6
 78
     2
 67
     7
 79
     5
170
     0
171
     0
290
     0
174
     0
 93
        1
 44
0.0
173
     0
291
     1
 45
0.0
1001
ACAD
1000
AcDbSavedByObjectVersion
1070
     0
  0
VISUALSTYLE
  5
33
102
{ACAD_REACTORS
330
2A
102
}
102
{ACAD_XDICTIONARY
360
451
102
}
330
2A
100
AcDbVisualStyle
  2
Realistic
 70
     8
 71
     2
 72
     2
 73
     0
 90
        0
 40
-0.6
 41
-30.0
 62
     5
 63
     7
421
 16777215
 74
     1
 91
        0
 64
     7
 65
   257
 75
     1
175
     1
 42
1.0
 92
        8
 66
     8
424
  7895160
 43
1.0
 76
     1
 77
     6
 78
     2
 67
     7
 79
     5
170
     0
171
     0
290
     0
174
     0
 93
       13
 44
0.0
173
     0
291
     0
 45
0.0
1001
ACAD
1000
AcDbSavedByObjectVersion
1070
     0
  0
VISUALSTYLE
  5
37
102
{ACAD_REACTORS
330
2A
102
}
102
{ACAD_XDICTIONARY
360
459
102
}
330
2A
100
AcDbVisualStyle
  2
Thicken
 70
    13
 71
     2
 72
     2
 73
     0
 90
        0
 40
-0.6
 41
-30.0
 62
     5
 63
     7
421
 16777215
 74
     1
 91
        4
 64
     7
 65
   257
 75
     1
175
     1
 42
1.0
 92
       12
 66
     7
 43
1.0
 76
     1
 77
     6
 78
     2
 67
     7
 79
     5
170
     0
171
     0
290
     0
174
     0
 93
        1
 44
0.0
173
     0
291
     1
 45
0.0
1001
ACAD
1000
AcDbSavedByObjectVersion
1070
     0
  0
DICTIONARY
  5
463
330
3D
100
AcDbDictionary
280
     1
281
     1
  3
ACAD_XREC_ROUNDTRIP
360
464
  0
DICTIONARY
  5
461
330
3C
100
AcDbDictionary
280
     1
281
     1
  3
ACAD_XREC_ROUNDTRIP
360
462
  0
DICTIONARY
  5
465
330
3E
100
AcDbDictionary
280
     1
281
     1
  3
ACAD_XREC_ROUNDTRIP
360
466
  0
DICTIONARY
  5
449
330
2F
100
AcDbDictionary
280
     1
281
     1
  3
ACAD_XREC_ROUNDTRIP
360
44A
  0
DICTIONARY
  5
44D
330
31
100
AcDbDictionary
280
     1
281
     1
  3
ACAD_XREC_ROUNDTRIP
360
44E
  0
DICTIONARY
  5
44B
330
30
100
AcDbDictionary
280
     1
281
     1
  3
ACAD_XREC_ROUNDTRIP
360
44C
  0
DICTIONARY
  5
44F
330
32
100
AcDbDictionary
280
     1
281
     1
  3
ACAD_XREC_ROUNDTRIP
360
450
  0
DICTIONARY
  5
457
330
36
100
AcDbDictionary
280
     1
281
     1
  3
ACAD_XREC_ROUNDTRIP
360
458
  0
DICTIONARY
  5
45F
330
3A
100
AcDbDictionary
280
     1
281
     1
  3
ACAD_XREC_ROUNDTRIP
360
460
  0
DICTIONARY
  5
453
330
34
100
AcDbDictionary
280
     1
281
     1
  3
ACAD_XREC_ROUNDTRIP
360
454
  0
DICTIONARY
  5
455
330
35
100
AcDbDictionary
280
     1
281
     1
  3
ACAD_XREC_ROUNDTRIP
360
456
  0
DICTIONARY
  5
45D
330
39
100
AcDbDictionary
280
     1
281
     1
  3
ACAD_XREC_ROUNDTRIP
360
45E
  0
DICTIONARY
  5
441
330
2B
100
AcDbDictionary
280
     1
281
     1
  3
ACAD_XREC_ROUNDTRIP
360
442
  0
DICTIONARY
  5
443
330
2C
100
AcDbDictionary
280
     1
281
     1
  3
ACAD_XREC_ROUNDTRIP
360
444
  0
DICTIONARY
  5
445
330
2D
100
AcDbDictionary
280
     1
281
     1
  3
ACAD_XREC_ROUNDTRIP
360
446
  0
DICTIONARY
  5
447
330
2E
100
AcDbDictionary
280
     1
281
     1
  3
ACAD_XREC_ROUNDTRIP
360
448
  0
DICTIONARY
  5
45B
330
38
100
AcDbDictionary
280
     1
281
     1
  3
ACAD_XREC_ROUNDTRIP
360
45C
  0
DICTIONARY
  5
451
330
33
100
AcDbDictionary
280
     1
281
     1
  3
ACAD_XREC_ROUNDTRIP
360
452
  0
DICTIONARY
  5
459
330
37
100
AcDbDictionary
280
     1
281
     1
  3
ACAD_XREC_ROUNDTRIP
360
45A
  0
XRECORD
  5
464
102
{ACAD_REACTORS
330
463
102
}
330
463
100
AcDbXrecord
280
     1
102
MATERIAL
148
0.0
149
0.0
149
0.0
 93
        0
 94
      127
282
     0
 72
     1
 77
     1
171
     1
175
     1
179
     1
273
     0
  0
XRECORD
  5
462
102
{ACAD_REACTORS
330
461
102
}
330
461
100
AcDbXrecord
280
     1
102
MATERIAL
148
0.0
149
0.0
149
0.0
 93
        0
 94
      127
282
     0
 72
     1
 77
     1
171
     1
175
     1
179
     1
273
     0
  0
XRECORD
  5
466
102
{ACAD_REACTORS
330
465
102
}
330
465
100
AcDbXrecord
280
     1
102
MATERIAL
148
0.0
149
0.0
149
0.0
 93
        0
 94
      127
282
     0
 72
     1
 77
     1
171
     1
175
     1
179
     1
273
     0
  0
XRECORD
  5
44A
102
{ACAD_REACTORS
330
449
102
}
330
449
100
AcDbXrecord
280
     1
102
RTVSPropertyOp0
 70
     1
102
RTVSPropertyOp1
 70
     1
102
RTVSPropertyOp2
 70
     1
102
RTVSPropertyOp3
 70
     1
102
RTVSPropertyOp4
 70
     1
102
RTVSPropertyOp5
 70
     1
102
RTVSPropertyOp6
 70
     1
102
RTVSPropertyOp7
 70
     1
102
RTVSPropertyOp8
 70
     1
102
RTVSPropertyOp9
 70
     1
102
RTVSPropertyOp10
 70
     1
102
RTVSPropertyOp11
 70
     1
102
RTVSPropertyOp12
 70
     1
102
RTVSPropertyOp13
 70
     1
102
RTVSPropertyOp14
 70
     1
102
RTVSPropertyOp15
 70
     1
102
RTVSPropertyOp16
 70
     1
102
RTVSPropertyOp17
 70
     1
102
RTVSPropertyOp18
 70
     1
102
RTVSPropertyOp19
 70
     1
102
RTVSPropertyOp20
 70
     1
102
RTVSPropertyOp21
 70
     1
102
RTVSPropertyOp22
 70
     1
102
RTVSPropertyOp23
 70
     1
102
RTVSPropertyOp24
 70
     1
102
RTVSPropertyOp25
 70
     1
102
RTVSPropertyOp26
 70
     1
102
RTVSPropertyOp27
 70
     1
102
RTVSPropertyOp28
 70
     1
102
RTVSPropertyOp29
 70
     1
102
RTVSPropertyOp30
 70
     1
102
RTVSPropertyOp31
 70
     1
102
RTVSPropertyOp32
 70
     1
  0
XRECORD
  5
44E
102
{ACAD_REACTORS
330
44D
102
}
330
44D
100
AcDbXrecord
280
     1
102
RTVSPropertyOp0
 70
     1
102
RTVSPropertyOp1
 70
     1
102
RTVSPropertyOp2
 70
     1
102
RTVSPropertyOp3
 70
     1
102
RTVSPropertyOp4
 70
     1
102
RTVSPropertyOp5
 70
     1
102
RTVSPropertyOp6
 70
     1
102
RTVSPropertyOp7
 70
     1
102
RTVSPropertyOp8
 70
     1
102
RTVSPropertyOp9
 70
     1
102
RTVSPropertyOp10
 70
     1
102
RTVSPropertyOp11
 70
     1
102
RTVSPropertyOp12
 70
     1
102
RTVSPropertyOp13
 70
     1
102
RTVSPropertyOp14
 70
     1
102
RTVSPropertyOp15
 70
     1
102
RTVSPropertyOp16
 70
     1
102
RTVSPropertyOp17
 70
     1
102
RTVSPropertyOp18
 70
     1
102
RTVSPropertyOp19
 70
     1
102
RTVSPropertyOp20
 70
     1
102
RTVSPropertyOp21
 70
     1
102
RTVSPropertyOp22
 70
     1
102
RTVSPropertyOp23
 70
     1
102
RTVSPropertyOp24
 70
     1
102
RTVSPropertyOp25
 70
     1
102
RTVSPropertyOp26
 70
     1
102
RTVSPropertyOp27
 70
     1
102
RTVSPropertyOp28
 70
     1
102
RTVSPropertyOp29
 70
     1
102
RTVSPropertyOp30
 70
     1
102
RTVSPropertyOp31
 70
     1
102
RTVSPropertyOp32
 70
     1
  0
XRECORD
  5
44C
102
{ACAD_REACTORS
330
44B
102
}
330
44B
100
AcDbXrecord
280
     1
102
RTVSPropertyOp0
 70
     1
102
RTVSPropertyOp1
 70
     1
102
RTVSPropertyOp2
 70
     1
102
RTVSPropertyOp3
 70
     1
102
RTVSPropertyOp4
 70
     1
102
RTVSPropertyOp5
 70
     1
102
RTVSPropertyOp6
 70
     1
102
RTVSPropertyOp7
 70
     1
102
RTVSPropertyOp8
 70
     1
102
RTVSPropertyOp9
 70
     1
102
RTVSPropertyOp10
 70
     1
102
RTVSPropertyOp11
 70
     1
102
RTVSPropertyOp12
 70
     1
102
RTVSPropertyOp13
 70
     1
102
RTVSPropertyOp14
 70
     1
102
RTVSPropertyOp15
 70
     1
102
RTVSPropertyOp16
 70
     1
102
RTVSPropertyOp17
 70
     1
102
RTVSPropertyOp18
 70
     1
102
RTVSPropertyOp19
 70
     1
102
RTVSPropertyOp20
 70
     1
102
RTVSPropertyOp21
 70
     1
102
RTVSPropertyOp22
 70
     1
102
RTVSPropertyOp23
 70
     1
102
RTVSPropertyOp24
 70
     1
102
RTVSPropertyOp25
 70
     1
102
RTVSPropertyOp26
 70
     1
102
RTVSPropertyOp27
 70
     1
102
RTVSPropertyOp28
 70
     1
102
RTVSPropertyOp29
 70
     1
102
RTVSPropertyOp30
 70
     1
102
RTVSPropertyOp31
 70
     1
102
RTVSPropertyOp32
 70
     1
  0
XRECORD
  5
450
102
{ACAD_REACTORS
330
44F
102
}
330
44F
100
AcDbXrecord
280
     1
102
RTVSPropertyOp0
 70
     1
102
RTVSPropertyOp1
 70
     1
102
RTVSPropertyOp2
 70
     1
102
RTVSPropertyOp3
 70
     1
102
RTVSPropertyOp4
 70
     1
102
RTVSPropertyOp5
 70
     1
102
RTVSPropertyOp6
 70
     1
102
RTVSPropertyOp7
 70
     1
102
RTVSPropertyOp8
 70
     1
102
RTVSPropertyOp9
 70
     1
102
RTVSPropertyOp10
 70
     1
102
RTVSPropertyOp11
 70
     1
102
RTVSPropertyOp12
 70
     1
102
RTVSPropertyOp13
 70
     1
102
RTVSPropertyOp14
 70
     1
102
RTVSPropertyOp15
 70
     1
102
RTVSPropertyOp16
 70
     1
102
RTVSPropertyOp17
 70
     1
102
RTVSPropertyOp18
 70
     1
102
RTVSPropertyOp19
 70
     1
102
RTVSPropertyOp20
 70
     1
102
RTVSPropertyOp21
 70
     1
102
RTVSPropertyOp22
 70
     1
102
RTVSPropertyOp23
 70
     1
102
RTVSPropertyOp24
 70
     1
102
RTVSPropertyOp25
 70
     1
102
RTVSPropertyOp26
 70
     1
102
RTVSPropertyOp27
 70
     1
102
RTVSPropertyOp28
 70
     1
102
RTVSPropertyOp29
 70
     1
102
RTVSPropertyOp30
 70
     1
102
RTVSPropertyOp31
 70
     1
102
RTVSPropertyOp32
 70
     1
  0
XRECORD
  5
458
102
{ACAD_REACTORS
330
457
102
}
330
457
100
AcDbXrecord
280
     1
102
RTVSPropertyOp0
 70
     1
102
RTVSPropertyOp1
 70
     1
102
RTVSPropertyOp2
 70
     1
102
RTVSPropertyOp3
 70
     1
102
RTVSPropertyOp4
 70
     1
102
RTVSPropertyOp5
 70
     1
102
RTVSPropertyOp6
 70
     1
102
RTVSPropertyOp7
 70
     1
102
RTVSPropertyOp8
 70
     1
102
RTVSPropertyOp9
 70
     1
102
RTVSPropertyOp10
 70
     1
102
RTVSPropertyOp11
 70
     1
102
RTVSPropertyOp12
 70
     1
102
RTVSPropertyOp13
 70
     1
102
RTVSPropertyOp14
 70
     1
102
RTVSPropertyOp15
 70
     1
102
RTVSPropertyOp16
 70
     1
102
RTVSPropertyOp17
 70
     1
102
RTVSPropertyOp18
 70
     1
102
RTVSPropertyOp19
 70
     1
102
RTVSPropertyOp20
 70
     1
102
RTVSPropertyOp21
 70
     1
102
RTVSPropertyOp22
 70
     1
102
RTVSPropertyOp23
 70
     1
102
RTVSPropertyOp24
 70
     1
102
RTVSPropertyOp25
 70
     1
102
RTVSPropertyOp26
 70
     1
102
RTVSPropertyOp27
 70
     1
102
RTVSPropertyOp28
 70
     1
102
RTVSPropertyOp29
 70
     1
102
RTVSPropertyOp30
 70
     1
102
RTVSPropertyOp31
 70
     1
102
RTVSPropertyOp32
 70
     1
  0
XRECORD
  5
460
102
{ACAD_REACTORS
330
45F
102
}
330
45F
100
AcDbXrecord
280
     1
102
RTVSPropertyOp0
 70
     1
102
RTVSPropertyOp1
 70
     1
102
RTVSPropertyOp2
 70
     1
102
RTVSPropertyOp3
 70
     1
102
RTVSPropertyOp4
 70
     1
102
RTVSPropertyOp5
 70
     1
102
RTVSPropertyOp6
 70
     1
102
RTVSPropertyOp7
 70
     1
102
RTVSPropertyOp8
 70
     1
102
RTVSPropertyOp9
 70
     1
102
RTVSPropertyOp10
 70
     1
102
RTVSPropertyOp11
 70
     1
102
RTVSPropertyOp12
 70
     1
102
RTVSPropertyOp13
 70
     1
102
RTVSPropertyOp14
 70
     1
102
RTVSPropertyOp15
 70
     1
102
RTVSPropertyOp16
 70
     1
102
RTVSPropertyOp17
 70
     1
102
RTVSPropertyOp18
 70
     1
102
RTVSPropertyOp19
 70
     1
102
RTVSPropertyOp20
 70
     1
102
RTVSPropertyOp21
 70
     1
102
RTVSPropertyOp22
 70
     1
102
RTVSPropertyOp23
 70
     1
102
RTVSPropertyOp24
 70
     1
102
RTVSPropertyOp25
 70
     1
102
RTVSPropertyOp26
 70
     1
102
RTVSPropertyOp27
 70
     1
102
RTVSPropertyOp28
 70
     1
102
RTVSPropertyOp29
 70
     1
102
RTVSPropertyOp30
 70
     1
102
RTVSPropertyOp31
 70
     1
102
RTVSPropertyOp32
 70
     1
  0
XRECORD
  5
454
102
{ACAD_REACTORS
330
453
102
}
330
453
100
AcDbXrecord
280
     1
102
RTVSPropertyOp0
 70
     1
102
RTVSPropertyOp1
 70
     1
102
RTVSPropertyOp2
 70
     1
102
RTVSPropertyOp3
 70
     1
102
RTVSPropertyOp4
 70
     1
102
RTVSPropertyOp5
 70
     1
102
RTVSPropertyOp6
 70
     1
102
RTVSPropertyOp7
 70
     1
102
RTVSPropertyOp8
 70
     1
102
RTVSPropertyOp9
 70
     1
102
RTVSPropertyOp10
 70
     1
102
RTVSPropertyOp11
 70
     1
102
RTVSPropertyOp12
 70
     1
102
RTVSPropertyOp13
 70
     1
102
RTVSPropertyOp14
 70
     1
102
RTVSPropertyOp15
 70
     1
102
RTVSPropertyOp16
 70
     1
102
RTVSPropertyOp17
 70
     1
102
RTVSPropertyOp18
 70
     1
102
RTVSPropertyOp19
 70
     1
102
RTVSPropertyOp20
 70
     1
102
RTVSPropertyOp21
 70
     1
102
RTVSPropertyOp22
 70
     1
102
RTVSPropertyOp23
 70
     1
102
RTVSPropertyOp24
 70
     1
102
RTVSPropertyOp25
 70
     1
102
RTVSPropertyOp26
 70
     1
102
RTVSPropertyOp27
 70
     1
102
RTVSPropertyOp28
 70
     1
102
RTVSPropertyOp29
 70
     1
102
RTVSPropertyOp30
 70
     1
102
RTVSPropertyOp31
 70
     1
102
RTVSPropertyOp32
 70
     1
  0
XRECORD
  5
456
102
{ACAD_REACTORS
330
455
102
}
330
455
100
AcDbXrecord
280
     1
102
RTVSPropertyOp0
 70
     1
102
RTVSPropertyOp1
 70
     1
102
RTVSPropertyOp2
 70
     1
102
RTVSPropertyOp3
 70
     1
102
RTVSPropertyOp4
 70
     1
102
RTVSPropertyOp5
 70
     1
102
RTVSPropertyOp6
 70
     1
102
RTVSPropertyOp7
 70
     1
102
RTVSPropertyOp8
 70
     1
102
RTVSPropertyOp9
 70
     1
102
RTVSPropertyOp10
 70
     1
102
RTVSPropertyOp11
 70
     1
102
RTVSPropertyOp12
 70
     1
102
RTVSPropertyOp13
 70
     1
102
RTVSPropertyOp14
 70
     1
102
RTVSPropertyOp15
 70
     1
102
RTVSPropertyOp16
 70
     1
102
RTVSPropertyOp17
 70
     1
102
RTVSPropertyOp18
 70
     1
102
RTVSPropertyOp19
 70
     1
102
RTVSPropertyOp20
 70
     1
102
RTVSPropertyOp21
 70
     1
102
RTVSPropertyOp22
 70
     1
102
RTVSPropertyOp23
 70
     1
102
RTVSPropertyOp24
 70
     1
102
RTVSPropertyOp25
 70
     1
102
RTVSPropertyOp26
 70
     1
102
RTVSPropertyOp27
 70
     1
102
RTVSPropertyOp28
 70
     1
102
RTVSPropertyOp29
 70
     1
102
RTVSPropertyOp30
 70
     1
102
RTVSPropertyOp31
 70
     1
102
RTVSPropertyOp32
 70
     1
  0
XRECORD
  5
45E
102
{ACAD_REACTORS
330
45D
102
}
330
45D
100
AcDbXrecord
280
     1
102
RTVSPropertyOp0
 70
     1
102
RTVSPropertyOp1
 70
     1
102
RTVSPropertyOp2
 70
     1
102
RTVSPropertyOp3
 70
     1
102
RTVSPropertyOp4
 70
     1
102
RTVSPropertyOp5
 70
     1
102
RTVSPropertyOp6
 70
     1
102
RTVSPropertyOp7
 70
     1
102
RTVSPropertyOp8
 70
     1
102
RTVSPropertyOp9
 70
     1
102
RTVSPropertyOp10
 70
     1
102
RTVSPropertyOp11
 70
     1
102
RTVSPropertyOp12
 70
     1
102
RTVSPropertyOp13
 70
     1
102
RTVSPropertyOp14
 70
     1
102
RTVSPropertyOp15
 70
     1
102
RTVSPropertyOp16
 70
     1
102
RTVSPropertyOp17
 70
     1
102
RTVSPropertyOp18
 70
     1
102
RTVSPropertyOp19
 70
     1
102
RTVSPropertyOp20
 70
     1
102
RTVSPropertyOp21
 70
     1
102
RTVSPropertyOp22
 70
     1
102
RTVSPropertyOp23
 70
     1
102
RTVSPropertyOp24
 70
     1
102
RTVSPropertyOp25
 70
     1
102
RTVSPropertyOp26
 70
     1
102
RTVSPropertyOp27
 70
     1
102
RTVSPropertyOp28
 70
     1
102
RTVSPropertyOp29
 70
     1
102
RTVSPropertyOp30
 70
     1
102
RTVSPropertyOp31
 70
     1
102
RTVSPropertyOp32
 70
     1
  0
XRECORD
  5
442
102
{ACAD_REACTORS
330
441
102
}
330
441
100
AcDbXrecord
280
     1
102
RTVSPropertyOp0
 70
     1
102
RTVSPropertyOp1
 70
     1
102
RTVSPropertyOp2
 70
     1
102
RTVSPropertyOp3
 70
     1
102
RTVSPropertyOp4
 70
     1
102
RTVSPropertyOp5
 70
     1
102
RTVSPropertyOp6
 70
     1
102
RTVSPropertyOp7
 70
     1
102
RTVSPropertyOp8
 70
     1
102
RTVSPropertyOp9
 70
     1
102
RTVSPropertyOp10
 70
     1
102
RTVSPropertyOp11
 70
     1
102
RTVSPropertyOp12
 70
     1
102
RTVSPropertyOp13
 70
     1
102
RTVSPropertyOp14
 70
     1
102
RTVSPropertyOp15
 70
     1
102
RTVSPropertyOp16
 70
     1
102
RTVSPropertyOp17
 70
     1
102
RTVSPropertyOp18
 70
     1
102
RTVSPropertyOp19
 70
     1
102
RTVSPropertyOp20
 70
     1
102
RTVSPropertyOp21
 70
     1
102
RTVSPropertyOp22
 70
     1
102
RTVSPropertyOp23
 70
     1
102
RTVSPropertyOp24
 70
     1
102
RTVSPropertyOp25
 70
     1
102
RTVSPropertyOp26
 70
     1
102
RTVSPropertyOp27
 70
     1
102
RTVSPropertyOp28
 70
     1
102
RTVSPropertyOp29
 70
     1
102
RTVSPropertyOp30
 70
     1
102
RTVSPropertyOp31
 70
     1
102
RTVSPropertyOp32
 70
     1
  0
XRECORD
  5
444
102
{ACAD_REACTORS
330
443
102
}
330
443
100
AcDbXrecord
280
     1
102
RTVSPropertyOp0
 70
     1
102
RTVSPropertyOp1
 70
     1
102
RTVSPropertyOp2
 70
     1
102
RTVSPropertyOp3
 70
     1
102
RTVSPropertyOp4
 70
     1
102
RTVSPropertyOp5
 70
     1
102
RTVSPropertyOp6
 70
     1
102
RTVSPropertyOp7
 70
     1
102
RTVSPropertyOp8
 70
     1
102
RTVSPropertyOp9
 70
     1
102
RTVSPropertyOp10
 70
     1
102
RTVSPropertyOp11
 70
     1
102
RTVSPropertyOp12
 70
     1
102
RTVSPropertyOp13
 70
     1
102
RTVSPropertyOp14
 70
     1
102
RTVSPropertyOp15
 70
     1
102
RTVSPropertyOp16
 70
     1
102
RTVSPropertyOp17
 70
     1
102
RTVSPropertyOp18
 70
     1
102
RTVSPropertyOp19
 70
     1
102
RTVSPropertyOp20
 70
     1
102
RTVSPropertyOp21
 70
     1
102
RTVSPropertyOp22
 70
     1
102
RTVSPropertyOp23
 70
     1
102
RTVSPropertyOp24
 70
     1
102
RTVSPropertyOp25
 70
     1
102
RTVSPropertyOp26
 70
     1
102
RTVSPropertyOp27
 70
     1
102
RTVSPropertyOp28
 70
     1
102
RTVSPropertyOp29
 70
     1
102
RTVSPropertyOp30
 70
     1
102
RTVSPropertyOp31
 70
     1
102
RTVSPropertyOp32
 70
     1
  0
XRECORD
  5
446
102
{ACAD_REACTORS
330
445
102
}
330
445
100
AcDbXrecord
280
     1
102
RTVSPropertyOp0
 70
     1
102
RTVSPropertyOp1
 70
     1
102
RTVSPropertyOp2
 70
     1
102
RTVSPropertyOp3
 70
     1
102
RTVSPropertyOp4
 70
     1
102
RTVSPropertyOp5
 70
     1
102
RTVSPropertyOp6
 70
     1
102
RTVSPropertyOp7
 70
     1
102
RTVSPropertyOp8
 70
     1
102
RTVSPropertyOp9
 70
     1
102
RTVSPropertyOp10
 70
     1
102
RTVSPropertyOp11
 70
     1
102
RTVSPropertyOp12
 70
     1
102
RTVSPropertyOp13
 70
     1
102
RTVSPropertyOp14
 70
     1
102
RTVSPropertyOp15
 70
     1
102
RTVSPropertyOp16
 70
     1
102
RTVSPropertyOp17
 70
     1
102
RTVSPropertyOp18
 70
     1
102
RTVSPropertyOp19
 70
     1
102
RTVSPropertyOp20
 70
     1
102
RTVSPropertyOp21
 70
     1
102
RTVSPropertyOp22
 70
     1
102
RTVSPropertyOp23
 70
     1
102
RTVSPropertyOp24
 70
     1
102
RTVSPropertyOp25
 70
     1
102
RTVSPropertyOp26
 70
     1
102
RTVSPropertyOp27
 70
     1
102
RTVSPropertyOp28
 70
     1
102
RTVSPropertyOp29
 70
     1
102
RTVSPropertyOp30
 70
     1
102
RTVSPropertyOp31
 70
     1
102
RTVSPropertyOp32
 70
     1
  0
XRECORD
  5
448
102
{ACAD_REACTORS
330
447
102
}
330
447
100
AcDbXrecord
280
     1
102
RTVSPropertyOp0
 70
     1
102
RTVSPropertyOp1
 70
     1
102
RTVSPropertyOp2
 70
     1
102
RTVSPropertyOp3
 70
     1
102
RTVSPropertyOp4
 70
     1
102
RTVSPropertyOp5
 70
     1
102
RTVSPropertyOp6
 70
     1
102
RTVSPropertyOp7
 70
     1
102
RTVSPropertyOp8
 70
     1
102
RTVSPropertyOp9
 70
     1
102
RTVSPropertyOp10
 70
     1
102
RTVSPropertyOp11
 70
     1
102
RTVSPropertyOp12
 70
     1
102
RTVSPropertyOp13
 70
     1
102
RTVSPropertyOp14
 70
     1
102
RTVSPropertyOp15
 70
     1
102
RTVSPropertyOp16
 70
     1
102
RTVSPropertyOp17
 70
     1
102
RTVSPropertyOp18
 70
     1
102
RTVSPropertyOp19
 70
     1
102
RTVSPropertyOp20
 70
     1
102
RTVSPropertyOp21
 70
     1
102
RTVSPropertyOp22
 70
     1
102
RTVSPropertyOp23
 70
     1
102
RTVSPropertyOp24
 70
     1
102
RTVSPropertyOp25
 70
     1
102
RTVSPropertyOp26
 70
     1
102
RTVSPropertyOp27
 70
     1
102
RTVSPropertyOp28
 70
     1
102
RTVSPropertyOp29
 70
     1
102
RTVSPropertyOp30
 70
     1
102
RTVSPropertyOp31
 70
     1
102
RTVSPropertyOp32
 70
     1
  0
XRECORD
  5
45C
102
{ACAD_REACTORS
330
45B
102
}
330
45B
100
AcDbXrecord
280
     1
102
RTVSPropertyOp0
 70
     1
102
RTVSPropertyOp1
 70
     1
102
RTVSPropertyOp2
 70
     1
102
RTVSPropertyOp3
 70
     1
102
RTVSPropertyOp4
 70
     1
102
RTVSPropertyOp5
 70
     1
102
RTVSPropertyOp6
 70
     1
102
RTVSPropertyOp7
 70
     1
102
RTVSPropertyOp8
 70
     1
102
RTVSPropertyOp9
 70
     1
102
RTVSPropertyOp10
 70
     1
102
RTVSPropertyOp11
 70
     1
102
RTVSPropertyOp12
 70
     1
102
RTVSPropertyOp13
 70
     1
102
RTVSPropertyOp14
 70
     1
102
RTVSPropertyOp15
 70
     1
102
RTVSPropertyOp16
 70
     1
102
RTVSPropertyOp17
 70
     1
102
RTVSPropertyOp18
 70
     1
102
RTVSPropertyOp19
 70
     1
102
RTVSPropertyOp20
 70
     1
102
RTVSPropertyOp21
 70
     1
102
RTVSPropertyOp22
 70
     1
102
RTVSPropertyOp23
 70
     1
102
RTVSPropertyOp24
 70
     1
102
RTVSPropertyOp25
 70
     1
102
RTVSPropertyOp26
 70
     1
102
RTVSPropertyOp27
 70
     1
102
RTVSPropertyOp28
 70
     1
102
RTVSPropertyOp29
 70
     1
102
RTVSPropertyOp30
 70
     1
102
RTVSPropertyOp31
 70
     1
102
RTVSPropertyOp32
 70
     1
  0
XRECORD
  5
452
102
{ACAD_REACTORS
330
451
102
}
330
451
100
AcDbXrecord
280
     1
102
RTVSPropertyOp0
 70
     1
102
RTVSPropertyOp1
 70
     1
102
RTVSPropertyOp2
 70
     1
102
RTVSPropertyOp3
 70
     1
102
RTVSPropertyOp4
 70
     1
102
RTVSPropertyOp5
 70
     1
102
RTVSPropertyOp6
 70
     1
102
RTVSPropertyOp7
 70
     1
102
RTVSPropertyOp8
 70
     1
102
RTVSPropertyOp9
 70
     1
102
RTVSPropertyOp10
 70
     1
102
RTVSPropertyOp11
 70
     1
102
RTVSPropertyOp12
 70
     1
102
RTVSPropertyOp13
 70
     1
102
RTVSPropertyOp14
 70
     1
102
RTVSPropertyOp15
 70
     1
102
RTVSPropertyOp16
 70
     1
102
RTVSPropertyOp17
 70
     1
102
RTVSPropertyOp18
 70
     1
102
RTVSPropertyOp19
 70
     1
102
RTVSPropertyOp20
 70
     1
102
RTVSPropertyOp21
 70
     1
102
RTVSPropertyOp22
 70
     1
102
RTVSPropertyOp23
 70
     1
102
RTVSPropertyOp24
 70
     1
102
RTVSPropertyOp25
 70
     1
102
RTVSPropertyOp26
 70
     1
102
RTVSPropertyOp27
 70
     1
102
RTVSPropertyOp28
 70
     1
102
RTVSPropertyOp29
 70
     1
102
RTVSPropertyOp30
 70
     1
102
RTVSPropertyOp31
 70
     1
102
RTVSPropertyOp32
 70
     1
  0
XRECORD
  5
45A
102
{ACAD_REACTORS
330
459
102
}
330
459
100
AcDbXrecord
280
     1
102
RTVSPropertyOp0
 70
     1
102
RTVSPropertyOp1
 70
     1
102
RTVSPropertyOp2
 70
     1
102
RTVSPropertyOp3
 70
     1
102
RTVSPropertyOp4
 70
     1
102
RTVSPropertyOp5
 70
     1
102
RTVSPropertyOp6
 70
     1
102
RTVSPropertyOp7
 70
     1
102
RTVSPropertyOp8
 70
     1
102
RTVSPropertyOp9
 70
     1
102
RTVSPropertyOp10
 70
     1
102
RTVSPropertyOp11
 70
     1
102
RTVSPropertyOp12
 70
     1
102
RTVSPropertyOp13
 70
     1
102
RTVSPropertyOp14
 70
     1
102
RTVSPropertyOp15
 70
     1
102
RTVSPropertyOp16
 70
     1
102
RTVSPropertyOp17
 70
     1
102
RTVSPropertyOp18
 70
     1
102
RTVSPropertyOp19
 70
     1
102
RTVSPropertyOp20
 70
     1
102
RTVSPropertyOp21
 70
     1
102
RTVSPropertyOp22
 70
     1
102
RTVSPropertyOp23
 70
     1
102
RTVSPropertyOp24
 70
     1
102
RTVSPropertyOp25
 70
     1
102
RTVSPropertyOp26
 70
     1
102
RTVSPropertyOp27
 70
     1
102
RTVSPropertyOp28
 70
     1
102
RTVSPropertyOp29
 70
     1
102
RTVSPropertyOp30
 70
     1
102
RTVSPropertyOp31
 70
     1
102
RTVSPropertyOp32
 70
     1
  0
ENDSEC
  0
EOF
