  0
SECTION
  2
HEADER
  9
$ACADVER
  1
AC1018
  9
$ACADMAINTVER
 70
     0
  9
$DWGCODEPAGE
  3
ANSI_1252
  9
$INSBASE
 10
0.0
 20
0.0
 30
0.0
  9
$EXTMIN
 10
-229.2398765889431
 20
-1.60347261104414
 30
0.0
  9
$EXTMAX
 10
67.76012341105496
 20
208.396527388956
 30
0.0
  9
$LIMMIN
 10
0.0
 20
0.0
  9
$LIMMAX
 10
12.0
 20
9.0
  9
$ORTHOMODE
 70
     0
  9
$REGENMODE
 70
     1
  9
$FILLMODE
 70
     1
  9
$QTEXTMODE
 70
     0
  9
$MIRRTEXT
 70
     1
  9
$LTSCALE
 40
1.0
  9
$ATTMODE
 70
     1
  9
$TEXTSIZE
 40
0.2
  9
$TRACEWID
 40
0.05
  9
$TEXTSTYLE
  7
Standard
  9
$CLAYER
  8
0
  9
$CELTYPE
  6
ByLayer
  9
$CECOLOR
 62
   256
  9
$CELTSCALE
 40
1.0
  9
$DISPSILH
 70
     0
  9
$DIMSCALE
 40
1.0
  9
$DIMASZ
 40
0.18
  9
$DIMEXO
 40
0.0625
  9
$DIMDLI
 40
0.38
  9
$DIMRND
 40
0.0
  9
$DIMDLE
 40
0.0
  9
$DIMEXE
 40
0.18
  9
$DIMTP
 40
0.0
  9
$DIMTM
 40
0.0
  9
$DIMTXT
 40
0.18
  9
$DIMCEN
 40
0.09
  9
$DIMTSZ
 40
0.0
  9
$DIMTOL
 70
     0
  9
$DIMLIM
 70
     0
  9
$DIMTIH
 70
     1
  9
$DIMTOH
 70
     1
  9
$DIMSE1
 70
     0
  9
$DIMSE2
 70
     0
  9
$DIMTAD
 70
     0
  9
$DIMZIN
 70
     0
  9
$DIMBLK
  1

  9
$DIMASO
 70
     1
  9
$DIMSHO
 70
     1
  9
$DIMPOST
  1

  9
$DIMAPOST
  1

  9
$DIMALT
 70
     0
  9
$DIMALTD
 70
     2
  9
$DIMALTF
 40
25.4
  9
$DIMLFAC
 40
1.0
  9
$DIMTOFL
 70
     0
  9
$DIMTVP
 40
0.0
  9
$DIMTIX
 70
     0
  9
$DIMSOXD
 70
     0
  9
$DIMSAH
 70
     0
  9
$DIMBLK1
  1

  9
$DIMBLK2
  1

  9
$DIMSTYLE
  2
Standard
  9
$DIMCLRD
 70
     0
  9
$DIMCLRE
 70
     0
  9
$DIMCLRT
 70
     0
  9
$DIMTFAC
 40
1.0
  9
$DIMGAP
 40
0.09
  9
$DIMJUST
 70
     0
  9
$DIMSD1
 70
     0
  9
$DIMSD2
 70
     0
  9
$DIMTOLJ
 70
     1
  9
$DIMTZIN
 70
     0
  9
$DIMALTZ
 70
     0
  9
$DIMALTTZ
 70
     0
  9
$DIMUPT
 70
     0
  9
$DIMDEC
 70
     4
  9
$DIMTDEC
 70
     4
  9
$DIMALTU
 70
     2
  9
$DIMALTTD
 70
     2
  9
$DIMTXSTY
  7
Standard
  9
$DIMAUNIT
 70
     0
  9
$DIMADEC
 70
     0
  9
$DIMALTRND
 40
0.0
  9
$DIMAZIN
 70
     0
  9
$DIMDSEP
 70
    46
  9
$DIMATFIT
 70
     3
  9
$DIMFRAC
 70
     0
  9
$DIMLDRBLK
  1

  9
$DIMLUNIT
 70
     2
  9
$DIMLWD
 70
    -2
  9
$DIMLWE
 70
    -2
  9
$DIMTMOVE
 70
     0
  9
$LUNITS
 70
     2
  9
$LUPREC
 70
     4
  9
$SKETCHINC
 40
0.1
  9
$FILLETRAD
 40
0.5
  9
$AUNITS
 70
     0
  9
$AUPREC
 70
     0
  9
$MENU
  1
.
  9
$ELEVATION
 40
0.0
  9
$PELEVATION
 40
0.0
  9
$THICKNESS
 40
0.0
  9
$LIMCHECK
 70
     0
  9
$CHAMFERA
 40
0.5
  9
$CHAMFERB
 40
0.5
  9
$CHAMFERC
 40
1.0
  9
$CHAMFERD
 40
0.0
  9
$SKPOLY
 70
     0
  9
$TDCREATE
 40
2458137.855100798
  9
$TDUCREATE
 40
2458137.813434132
  9
$TDUPDATE
 40
2458137.855101516
  9
$TDUUPDATE
 40
2458137.813434849
  9
$TDINDWG
 40
0.0000000116
  9
$TDUSRTIMER
 40
0.0000000116
  9
$USRTIMER
 70
     1
  9
$ANGBASE
 50
0.0
  9
$ANGDIR
 70
     0
  9
$PDMODE
 70
     0
  9
$PDSIZE
 40
0.0
  9
$PLINEWID
 40
0.0
  9
$SPLFRAME
 70
     0
  9
$SPLINETYPE
 70
     6
  9
$SPLINESEGS
 70
     8
  9
$HANDSEED
  5
470
  9
$SURFTAB1
 70
     6
  9
$SURFTAB2
 70
     6
  9
$SURFTYPE
 70
     6
  9
$SURFU
 70
     6
  9
$SURFV
 70
     6
  9
$UCSBASE
  2

  9
$UCSNAME
  2

  9
$UCSORG
 10
0.0
 20
0.0
 30
0.0
  9
$UCSXDIR
 10
1.0
 20
0.0
 30
0.0
  9
$UCSYDIR
 10
0.0
 20
1.0
 30
0.0
  9
$UCSORTHOREF
  2

  9
$UCSORTHOVIEW
 70
     0
  9
$UCSORGTOP
 10
0.0
 20
0.0
 30
0.0
  9
$UCSORGBOTTOM
 10
0.0
 20
0.0
 30
0.0
  9
$UCSORGLEFT
 10
0.0
 20
0.0
 30
0.0
  9
$UCSORGRIGHT
 10
0.0
 20
0.0
 30
0.0
  9
$UCSORGFRONT
 10
0.0
 20
0.0
 30
0.0
  9
$UCSORGBACK
 10
0.0
 20
0.0
 30
0.0
  9
$PUCSBASE
  2

  9
$PUCSNAME
  2

  9
$PUCSORG
 10
0.0
 20
0.0
 30
0.0
  9
$PUCSXDIR
 10
1.0
 20
0.0
 30
0.0
  9
$PUCSYDIR
 10
0.0
 20
1.0
 30
0.0
  9
$PUCSORTHOREF
  2

  9
$PUCSORTHOVIEW
 70
     0
  9
$PUCSORGTOP
 10
0.0
 20
0.0
 30
0.0
  9
$PUCSORGBOTTOM
 10
0.0
 20
0.0
 30
0.0
  9
$PUCSORGLEFT
 10
0.0
 20
0.0
 30
0.0
  9
$PUCSORGRIGHT
 10
0.0
 20
0.0
 30
0.0
  9
$PUCSORGFRONT
 10
0.0
 20
0.0
 30
0.0
  9
$PUCSORGBACK
 10
0.0
 20
0.0
 30
0.0
  9
$USERI1
 70
     0
  9
$USERI2
 70
     0
  9
$USERI3
 70
     0
  9
$USERI4
 70
     0
  9
$USERI5
 70
     0
  9
$USERR1
 40
18.1
  9
$USERR2
 40
0.0
  9
$USERR3
 40
0.0
  9
$USERR4
 40
0.0
  9
$USERR5
 40
0.0
  9
$WORLDVIEW
 70
     1
  9
$SHADEDGE
 70
     3
  9
$SHADEDIF
 70
    70
  9
$TILEMODE
 70
     1
  9
$MAXACTVP
 70
    64
  9
$PINSBASE
 10
0.0
 20
0.0
 30
0.0
  9
$PLIMCHECK
 70
     0
  9
$PEXTMIN
 10
1.00000000000000E+20
 20
1.00000000000000E+20
 30
1.00000000000000E+20
  9
$PEXTMAX
 10
-1.00000000000000E+20
 20
-1.00000000000000E+20
 30
-1.00000000000000E+20
  9
$PLIMMIN
 10
0.0
 20
0.0
  9
$PLIMMAX
 10
12.0
 20
9.0
  9
$UNITMODE
 70
     0
  9
$VISRETAIN
 70
     1
  9
$PLINEGEN
 70
     0
  9
$PSLTSCALE
 70
     1
  9
$TREEDEPTH
 70
  3020
  9
$CMLSTYLE
  2
Standard
  9
$CMLJUST
 70
     0
  9
$CMLSCALE
 40
1.0
  9
$PROXYGRAPHICS
 70
     1
  9
$MEASUREMENT
 70
     1
  9
$CELWEIGHT
370
    -1
  9
$ENDCAPS
280
     0
  9
$JOINSTYLE
280
     0
  9
$LWDISPLAY
290
     0
  9
$INSUNITS
 70
     4
  9
$HYPERLINKBASE
  1

  9
$STYLESHEET
  1

  9
$XEDIT
290
     1
  9
$CEPSNTYPE
380
     0
  9
$PSTYLEMODE
290
     1
  9
$FINGERPRINTGUID
  2
{A44885E3-DBA7-4588-ADB3-F661B6DFB61E}
  9
$VERSIONGUID
  2
{FAEB1C32-E019-11D5-929B-00C0DF256EC4}
  9
$EXTNAMES
290
     1
  9
$PSVPSCALE
 40
0.0
  9
$OLESTARTUP
290
     0
  9
$SORTENTS
280
   127
  9
$INDEXCTL
280
     0
  9
$HIDETEXT
280
     1
  9
$XCLIPFRAME
290
     0
  9
$HALOGAP
280
     0
  9
$OBSCOLOR
 70
   257
  9
$OBSLTYPE
280
     0
  9
$INTERSECTIONDISPLAY
280
     0
  9
$INTERSECTIONCOLOR
 70
   257
  9
$DIMASSOC
280
     2
  9
$PROJECTNAME
  1

  0
ENDSEC
  0
SECTION
  2
CLASSES
  0
CLASS
  1
ACDBDICTIONARYWDFLT
  2
AcDbDictionaryWithDefault
  3
ObjectDBX Classes
 90
        0
 91
        4
280
     0
281
     0
  0
CLASS
  1
VISUALSTYLE
  2
AcDbVisualStyle
  3
ObjectDBX Classes
 90
     4095
 91
        4
280
     0
281
     0
  0
CLASS
  1
MATERIAL
  2
AcDbMaterial
  3
ObjectDBX Classes
 90
     1153
 91
        4
280
     0
281
     0
  0
ENDSEC
  0
SECTION
  2
TABLES
  0
TABLE
  2
VPORT
  5
8
330
0
100
AcDbSymbolTable
 70
     1
  0
VPORT
  5
29
330
8
100
AcDbSymbolTableRecord
100
AcDbViewportTableRecord
  2
*Active
 70
     0
 10
0.0
 20
0.0
 11
1.0
 21
1.0
 12
-80.73987658894407
 22
103.3965273889559
 13
0.0
 23
0.0
 14
0.5
 24
0.5
 15
0.5
 25
0.5
 16
0.0
 26
0.0
 36
1.0
 17
0.0
 27
0.0
 37
0.0
 40
231.0000000000002
 41
1.60267857142857
 42
50.0
 43
0.0
 44
0.0
 50
0.0
 51
0.0
 71
     0
 72
   100
 73
     1
 74
     3
 75
     0
 76
     0
 77
     0
 78
     0
281
     0
 65
     1
110
0.0
120
0.0
130
0.0
111
1.0
121
0.0
131
0.0
112
0.0
122
1.0
132
0.0
 79
     0
146
0.0
  0
ENDTAB
  0
TABLE
  2
LTYPE
  5
5
330
0
100
AcDbSymbolTable
 70
     8
  0
LTYPE
  5
14
330
5
100
AcDbSymbolTableRecord
100
AcDbLinetypeTableRecord
  2
ByBlock
 70
     0
  3

 72
    65
 73
     0
 40
0.0
  0
LTYPE
  5
15
330
5
100
AcDbSymbolTableRecord
100
AcDbLinetypeTableRecord
  2
ByLayer
 70
     0
  3

 72
    65
 73
     0
 40
0.0
  0
LTYPE
  5
16
330
5
100
AcDbSymbolTableRecord
100
AcDbLinetypeTableRecord
  2
Continuous
 70
     0
  3
Solid line
 72
    65
 73
     0
 40
0.0
  0
LTYPE
  5
3F
330
5
100
AcDbSymbolTableRecord
100
AcDbLinetypeTableRecord
  2
DASHED
 70
     0
  3
Dashed
 72
    65
 73
     2
 40
15.0
 49
7.0
 74
     0
 49
-8.0
 74
     0
  0
LTYPE
  5
40
330
5
100
AcDbSymbolTableRecord
100
AcDbLinetypeTableRecord
  2
DOTTED
 70
     0
  3
Dotted
 72
    65
 73
     2
 40
1.0
 49
0.0
 74
     0
 49
-1.0
 74
     0
  0
LTYPE
  5
41
330
5
100
AcDbSymbolTableRecord
100
AcDbLinetypeTableRecord
  2
DOT_CENTER
 70
     0
  3
Dot_Center
 72
    65
 73
     4
 40
14.0
 49
12.0
 74
     0
 49
-1.0
 74
     0
 49
0.0
 74
     0
 49
-1.0
 74
     0
  0
LTYPE
  5
42
330
5
100
AcDbSymbolTableRecord
100
AcDbLinetypeTableRecord
  2
LONG_DASHED
 70
     0
  3
Long_Dashed
 72
    65
 73
     2
 40
15.0
 49
10.0
 74
     0
 49
-5.0
 74
     0
  0
LTYPE
  5
43
330
5
100
AcDbSymbolTableRecord
100
AcDbLinetypeTableRecord
  2
DASH_CENTER
 70
     0
  3
Dash_Center
 72
    65
 73
     4
 40
14.0
 49
11.0
 74
     0
 49
-1.0
 74
     0
 49
1.0
 74
     0
 49
-1.0
 74
     0
  0
LTYPE
  5
44
330
5
100
AcDbSymbolTableRecord
100
AcDbLinetypeTableRecord
  2
PHANTOM
 70
     0
  3
Phantom
 72
    65
 73
     6
 40
13.0
 49
10.0
 74
     0
 49
-1.0
 74
     0
 49
0.0
 74
     0
 49
-1.0
 74
     0
 49
0.0
 74
     0
 49
-1.0
 74
     0
  0
LTYPE
  5
45
330
5
100
AcDbSymbolTableRecord
100
AcDbLinetypeTableRecord
  2
CENTER_DASH_DASH
 70
     0
  3
Center_Dash_Dash
 72
    65
 73
     6
 40
14.0
 49
9.0
 74
     0
 49
-1.0
 74
     0
 49
1.0
 74
     0
 49
-1.0
 74
     0
 49
1.0
 74
     0
 49
-1.0
 74
     0
  0
ENDTAB
  0
TABLE
  2
LAYER
  5
2
330
0
100
AcDbSymbolTable
 70
     2
  0
LAYER
  5
10
330
2
100
AcDbSymbolTableRecord
100
AcDbLayerTableRecord
  2
0
 70
     0
 62
     7
  6
Continuous
370
    -3
390
F
  0
LAYER
  5
46
330
2
100
AcDbSymbolTableRecord
100
AcDbLayerTableRecord
  2
1
 70
     0
 62
     7
  6
Continuous
370
    -3
390
F
  0
ENDTAB
  0
TABLE
  2
STYLE
  5
3
330
0
100
AcDbSymbolTable
 70
     5
  0
STYLE
  5
11
330
3
100
AcDbSymbolTableRecord
100
AcDbTextStyleTableRecord
  2
Standard
 70
     0
 40
0.0
 41
1.0
 50
0.0
 71
     0
 42
0.2
  3
txt
  4

  0
STYLE
  5
143
330
3
100
AcDbSymbolTableRecord
100
AcDbTextStyleTableRecord
  2
CONVERTER_11
 70
     0
 40
0.0
 41
0.9
 50
0.0
 71
     0
 42
0.2
  3
txt.shx
  4

  0
STYLE
  5
406
330
3
100
AcDbSymbolTableRecord
100
AcDbTextStyleTableRecord
  2
CONVERTER_12
 70
     0
 40
0.0
 41
0.81
 50
0.0
 71
     0
 42
0.2
  3
txt.shx
  4

  0
STYLE
  5
40C
330
3
100
AcDbSymbolTableRecord
100
AcDbTextStyleTableRecord
  2
CONVERTER_13
 70
     0
 40
0.0
 41
0.855
 50
0.0
 71
     0
 42
0.2
  3
txt.shx
  4

  0
STYLE
  5
40F
330
3
100
AcDbSymbolTableRecord
100
AcDbTextStyleTableRecord
  2
CONVERTER_14
 70
     0
 40
0.0
 41
0.72
 50
0.0
 71
     0
 42
0.2
  3
txt.shx
  4

  0
ENDTAB
  0
TABLE
  2
VIEW
  5
6
330
0
100
AcDbSymbolTable
 70
     0
  0
ENDTAB
  0
TABLE
  2
UCS
  5
7
330
0
100
AcDbSymbolTable
 70
     0
  0
ENDTAB
  0
TABLE
  2
APPID
  5
9
330
0
100
AcDbSymbolTable
 70
     1
  0
APPID
  5
12
330
9
100
AcDbSymbolTableRecord
100
AcDbRegAppTableRecord
  2
ACAD
 70
     0
  0
ENDTAB
  0
TABLE
  2
DIMSTYLE
  5
A
330
0
100
AcDbSymbolTable
 70
     5
100
AcDbDimStyleTable
  0
DIMSTYLE
105
27
330
A
100
AcDbSymbolTableRecord
100
AcDbDimStyleTableRecord
  2
Standard
 70
     0
178
     0
340
11
  0
DIMSTYLE
105
1A3
102
{ACAD_REACTORS
330
1A4
102
}
330
A
100
AcDbSymbolTableRecord
100
AcDbDimStyleTableRecord
  2
ME10_DIM_10
 70
     0
 41
3.5
 42
0.0
 44
1.5
 73
     0
 74
     0
 77
     1
 78
     8
140
3.5
147
1.5
172
     1
173
     1
174
     1
175
     1
176
     2
177
     2
178
     3
340
143
  0
DIMSTYLE
105
2F7
102
{ACAD_REACTORS
330
2F8
102
}
330
A
100
AcDbSymbolTableRecord
100
AcDbDimStyleTableRecord
  2
ME10_DIM_11
 70
     0
 41
3.5
 42
0.0
 44
1.5
 73
     0
 74
     0
 77
     1
 78
     8
140
3.5
147
1.5
172
     1
173
     1
174
     1
175
     1
176
     2
177
     2
271
     2
178
     3
271
     2
340
143
  0
DIMSTYLE
105
302
102
{ACAD_REACTORS
330
303
102
}
330
A
100
AcDbSymbolTableRecord
100
AcDbDimStyleTableRecord
  2
ME10_DIM_12
 70
     0
 41
3.5
 42
0.0
 44
1.5
 73
     0
 74
     0
 77
     1
 78
     8
140
3.5
147
1.5
172
     1
173
     1
174
     1
175
     1
176
     2
177
     2
271
     2
178
     3
271
     2
340
143
  0
DIMSTYLE
105
30D
102
{ACAD_REACTORS
330
30E
102
}
330
A
100
AcDbSymbolTableRecord
100
AcDbDimStyleTableRecord
  2
ME10_DIM_13
 70
     0
 41
3.5
 42
0.0
 44
1.5
 73
     0
 74
     0
 77
     1
 78
     8
140
3.5
147
1.5
172
     1
173
     1
174
     1
175
     1
176
     2
177
     2
178
     3
340
143
  0
ENDTAB
  0
TABLE
  2
BLOCK_RECORD
  5
1
330
0
100
AcDbSymbolTable
 70
    21
  0
BLOCK_RECORD
  5
1F
330
1
100
AcDbSymbolTableRecord
100
AcDbBlockTableRecord
  2
*Model_Space
340
22
  0
BLOCK_RECORD
  5
1B
330
1
100
AcDbSymbolTableRecord
100
AcDbBlockTableRecord
  2
*Paper_Space
340
1E
  0
BLOCK_RECORD
  5
23
330
1
100
AcDbSymbolTableRecord
100
AcDbBlockTableRecord
  2
*Paper_Space0
340
26
  0
BLOCK_RECORD
  5
47
330
1
100
AcDbSymbolTableRecord
100
AcDbBlockTableRecord
  2
PP_H_4_1_R_GNYE-select__1
340
0
102
{BLKREFS
331
4B
102
}
  0
BLOCK_RECORD
  5
4A
330
1
100
AcDbSymbolTableRecord
100
AcDbBlockTableRecord
  2
Allg1
340
0
102
{BLKREFS
331
7D
102
}
  0
BLOCK_RECORD
  5
4E
330
1
100
AcDbSymbolTableRecord
100
AcDbBlockTableRecord
  2
PP_H_4_1_R_GNYE-select__2
340
0
102
{BLKREFS
331
52
102
}
  0
BLOCK_RECORD
  5
51
330
1
100
AcDbSymbolTableRecord
100
AcDbBlockTableRecord
  2
Drfsicht1
340
0
102
{BLKREFS
331
7E
102
}
  0
BLOCK_RECORD
  5
55
330
1
100
AcDbSymbolTableRecord
100
AcDbBlockTableRecord
  2
PP_H_4_1_R_GNYE-select__3
340
0
102
{BLKREFS
331
59
102
}
  0
BLOCK_RECORD
  5
58
330
1
100
AcDbSymbolTableRecord
100
AcDbBlockTableRecord
  2
Rckans1
340
0
102
{BLKREFS
331
7F
102
}
  0
BLOCK_RECORD
  5
5C
330
1
100
AcDbSymbolTableRecord
100
AcDbBlockTableRecord
  2
PP_H_4_1_R_GNYE-select__4
340
0
102
{BLKREFS
331
60
102
}
  0
BLOCK_RECORD
  5
5F
330
1
100
AcDbSymbolTableRecord
100
AcDbBlockTableRecord
  2
SA_Links1
340
0
102
{BLKREFS
331
80
102
}
  0
BLOCK_RECORD
  5
63
330
1
100
AcDbSymbolTableRecord
100
AcDbBlockTableRecord
  2
PP_H_4_1_R_GNYE-select__5
340
0
102
{BLKREFS
331
67
102
}
  0
BLOCK_RECORD
  5
66
330
1
100
AcDbSymbolTableRecord
100
AcDbBlockTableRecord
  2
SA_Rechts1
340
0
102
{BLKREFS
331
81
102
}
  0
BLOCK_RECORD
  5
6A
330
1
100
AcDbSymbolTableRecord
100
AcDbBlockTableRecord
  2
PP_H_4_1_R_GNYE-select__6
340
0
102
{BLKREFS
331
6E
102
}
  0
BLOCK_RECORD
  5
6D
330
1
100
AcDbSymbolTableRecord
100
AcDbBlockTableRecord
  2
Vordans1
340
0
102
{BLKREFS
331
82
102
}
  0
BLOCK_RECORD
  5
71
330
1
100
AcDbSymbolTableRecord
100
AcDbBlockTableRecord
  2
_rahmen
340
0
102
{BLKREFS
331
78
102
}
  0
BLOCK_RECORD
  5
74
330
1
100
AcDbSymbolTableRecord
100
AcDbBlockTableRecord
  2
_punkt
340
0
102
{BLKREFS
331
79
102
}
  0
BLOCK_RECORD
  5
77
330
1
100
AcDbSymbolTableRecord
100
AcDbBlockTableRecord
  2
A4I_CS
340
0
102
{BLKREFS
331
83
102
}
  0
BLOCK_RECORD
  5
7C
330
1
100
AcDbSymbolTableRecord
100
AcDbBlockTableRecord
  2
1
340
0
102
{BLKREFS
331
86
102
}
  0
BLOCK_RECORD
  5
198
330
1
100
AcDbSymbolTableRecord
100
AcDbBlockTableRecord
  2
*D17
340
0
  0
BLOCK_RECORD
  5
2EE
330
1
100
AcDbSymbolTableRecord
100
AcDbBlockTableRecord
  2
*D18
340
0
  0
BLOCK_RECORD
  5
2F9
330
1
100
AcDbSymbolTableRecord
100
AcDbBlockTableRecord
  2
*D19
340
0
  0
BLOCK_RECORD
  5
304
330
1
100
AcDbSymbolTableRecord
100
AcDbBlockTableRecord
  2
*D20
340
0
  0
ENDTAB
  0
ENDSEC
  0
SECTION
  2
BLOCKS
  0
BLOCK
  5
20
330
1F
100
AcDbEntity
  8
0
100
AcDbBlockBegin
  2
*Model_Space
 70
     0
 10
0.0
 20
0.0
 30
0.0
  3
*Model_Space
  1

  0
ENDBLK
  5
21
330
1F
100
AcDbEntity
  8
0
100
AcDbBlockEnd
  0
BLOCK
  5
1C
330
1B
100
AcDbEntity
 67
     1
  8
0
100
AcDbBlockBegin
  2
*Paper_Space
 70
     0
 10
0.0
 20
0.0
 30
0.0
  3
*Paper_Space
  1

  0
ENDBLK
  5
1D
330
1B
100
AcDbEntity
 67
     1
  8
0
100
AcDbBlockEnd
  0
BLOCK
  5
24
330
23
100
AcDbEntity
  8
0
100
AcDbBlockBegin
  2
*Paper_Space0
 70
     0
 10
0.0
 20
0.0
 30
0.0
  3
*Paper_Space0
  1

  0
ENDBLK
  5
25
330
23
100
AcDbEntity
  8
0
100
AcDbBlockEnd
  0
BLOCK
  5
48
330
47
100
AcDbEntity
  8
0
100
AcDbBlockBegin
  2
PP_H_4_1_R_GNYE-select__1
 70
     0
 10
-18.63076666568003
 20
55.08715248165451
 30
0.0
  3
PP_H_4_1_R_GNYE-select__1
  1

  0
LINE
  5
87
330
47
100
AcDbEntity
  8
0
  6
Continuous
 62
     7
100
AcDbLine
 10
1.56831177996803
 20
92.27552904451427
 30
0.0
 11
-14.49331142455409
 21
96.91212028464551
 31
0.0
  0
LINE
  5
88
330
47
100
AcDbEntity
  8
0
  6
Continuous
 62
     7
100
AcDbLine
 10
1.69916097616326
 20
91.17207495135617
 30
0.0
 11
-1.37583902432264
 21
88.50904683426134
 31
0.0
  0
LINE
  5
89
330
47
100
AcDbEntity
  8
0
  6
Continuous
 62
     7
100
AcDbLine
 10
-16.99495664816403
 20
87.38329197075339
 30
0.0
 11
-16.32740383151933
 21
92.62736747116
 31
0.0
  0
LINE
  5
8A
330
47
100
AcDbEntity
  8
0
  6
Continuous
 62
     7
100
AcDbLine
 10
-17.2471439255953
 20
93.0058034502014
 30
0.0
 11
-16.32740383151933
 21
92.62736747116
 31
0.0
  0
LINE
  5
8B
330
47
100
AcDbEntity
  8
0
  6
Continuous
 62
     7
100
AcDbLine
 10
-17.2471439255953
 20
93.0058034502014
 30
0.0
 11
-17.27588380220525
 21
92.78003242654172
 31
0.0
  0
LINE
  5
8C
330
47
100
AcDbEntity
  8
0
  6
Continuous
 62
     7
100
AcDbLine
 10
-17.08989625162489
 20
92.94110237013417
 30
0.0
 11
-17.27588380220525
 21
92.78003242654172
 31
0.0
  0
LINE
  5
8D
330
47
100
AcDbEntity
  8
0
  6
Continuous
 62
     7
100
AcDbLine
 10
-11.44275581384175
 20
92.48079657721985
 30
0.0
 11
-11.4427558138424
 21
88.58368226112917
 31
0.0
  0
LINE
  5
8E
330
47
100
AcDbEntity
  8
0
  6
Continuous
 62
     7
100
AcDbLine
 10
-11.76138875918799
 20
88.87481524177211
 30
0.0
 11
-11.76138875919053
 21
90.03299215018278
 31
0.0
  0
LINE
  5
8F
330
47
100
AcDbEntity
  8
0
  6
Continuous
 62
     7
100
AcDbLine
 10
-11.52073583585609
 20
88.38852163653752
 30
0.0
 11
-11.52073583585805
 21
88.2425582425561
 31
0.0
  0
LINE
  5
90
330
47
100
AcDbEntity
  8
0
  6
Continuous
 62
     7
100
AcDbLine
 10
-11.76138875919053
 20
90.03299215018278
 30
0.0
 11
-11.44275581384217
 21
89.94101074179794
 31
0.0
  0
LINE
  5
91
330
47
100
AcDbEntity
  8
0
  6
Continuous
 62
     7
100
AcDbLine
 10
-6.76394276694749
 20
91.99616499498126
 30
0.0
 11
-6.3472003364783
 21
92.35707452660935
 31
0.0
  0
LINE
  5
92
330
47
100
AcDbEntity
  8
0
  6
Continuous
 62
     7
100
AcDbLine
 10
-5.14971228213606
 20
92.19412960198414
 30
0.0
 11
-5.03990466108098
 21
91.98922579157568
 31
0.0
  0
LINE
  5
93
330
47
100
AcDbEntity
  8
0
  6
Continuous
 62
     7
100
AcDbLine
 10
-5.03990466108098
 20
91.98922579157568
 30
0.0
 11
-5.0350008504749
 21
91.98007515640941
 31
0.0
  0
LINE
  5
94
330
47
100
AcDbEntity
  8
0
  6
Continuous
 62
     7
100
AcDbLine
 10
-5.14971228213643
 20
92.28073214242768
 30
0.0
 11
-5.14971228213606
 21
92.19412960198414
 31
0.0
  0
LINE
  5
95
330
47
100
AcDbEntity
  8
0
  6
Continuous
 62
     7
100
AcDbLine
 10
1.69916097616326
 20
91.17207495135617
 30
0.0
 11
1.56831177996803
 21
92.27552904451427
 31
0.0
  0
LINE
  5
96
330
47
100
AcDbEntity
  8
0
  6
Continuous
 62
     7
100
AcDbLine
 10
-2.43416782611982
 20
57.74348186847792
 30
0.0
 11
-4.18416782612014
 21
56.22793741185511
 31
0.0
  0
LINE
  5
97
330
47
100
AcDbEntity
  8
0
  6
Continuous
 62
     7
100
AcDbLine
 10
-2.08004301396914
 20
83.07772727004202
 30
0.0
 11
-2.74759583060973
 21
88.7072145688361
 31
0.0
  0
LINE
  5
98
330
47
100
AcDbEntity
  8
0
  6
Continuous
 62
     7
100
AcDbLine
 10
-3.49134750313787
 20
68.27065802321178
 30
0.0
 11
-3.49134750313786
 21
66.93985749941876
 31
0.0
  0
LINE
  5
99
330
47
100
AcDbEntity
  8
0
  6
Continuous
 62
     7
100
AcDbLine
 10
-3.92436020503246
 20
66.56485749941153
 30
0.0
 11
-3.92436020503246
 21
56.93236027513196
 31
0.0
  0
LINE
  5
9A
330
47
100
AcDbEntity
  8
0
  6
Continuous
 62
     7
100
AcDbLine
 10
-2.43416782611982
 20
57.74348186847792
 30
0.0
 11
-2.4341678261234
 21
68.25630668203716
 31
0.0
  0
LINE
  5
9B
330
47
100
AcDbEntity
  8
0
  6
Continuous
 62
     7
100
AcDbLine
 10
-4.69936020502694
 20
56.26119058719451
 30
0.0
 11
-4.6993602050265
 21
66.3936878114824
 31
0.0
  0
LINE
  5
9C
330
47
100
AcDbEntity
  8
0
  6
Continuous
 62
     7
100
AcDbLine
 10
-4.6993602050265
 20
66.3936878114824
 30
0.0
 11
-4.26634750313038
 21
66.26868781148302
 31
0.0
  0
LINE
  5
9D
330
47
100
AcDbEntity
  8
0
  6
Continuous
 62
     7
100
AcDbLine
 10
-2.43416782611982
 20
57.74348186847792
 30
0.0
 11
-2.89604804153458
 21
56.49117455564068
 31
0.0
  0
LINE
  5
9E
330
47
100
AcDbEntity
  8
0
  6
Continuous
 62
     7
100
AcDbLine
 10
-3.92436020503246
 20
56.93236027513196
 30
0.0
 11
-4.69936020502694
 21
56.26119058719451
 31
0.0
  0
LINE
  5
9F
330
47
100
AcDbEntity
  8
0
  6
Continuous
 62
     7
100
AcDbLine
 10
-3.92436020503246
 20
56.93236027513196
 30
0.0
 11
-4.18416782612014
 21
56.22793741185511
 31
0.0
  0
LINE
  5
A0
330
47
100
AcDbEntity
  8
0
  6
Continuous
 62
     7
100
AcDbLine
 10
-5.13237290689568
 20
55.08715248165451
 30
0.0
 11
-2.93237290689115
 21
56.99240836998358
 31
0.0
  0
LINE
  5
A1
330
47
100
AcDbEntity
  8
0
  6
Continuous
 62
     7
100
AcDbLine
 10
-5.13237290689568
 20
55.08715248165451
 30
0.0
 11
-4.69936020502694
 21
56.26119058719451
 31
0.0
  0
LINE
  5
A2
330
47
100
AcDbEntity
  8
0
  6
Continuous
 62
     7
100
AcDbLine
 10
-3.68237290700085
 20
56.34288931704111
 30
0.0
 11
-3.22104804153127
 21
56.20971629940971
 31
0.0
  0
LINE
  5
A3
330
47
100
AcDbEntity
  8
0
  6
Continuous
 62
     7
100
AcDbLine
 10
-3.22104804153127
 20
56.20971629940971
 30
0.0
 11
-2.89604804153458
 21
56.49117455564068
 31
0.0
  0
LINE
  5
A4
330
47
100
AcDbEntity
  8
0
  6
Continuous
 62
     7
100
AcDbLine
 10
-3.22104804153127
 20
56.20971629940971
 30
0.0
 11
-2.93237290689115
 21
56.99240836998358
 31
0.0
  0
LINE
  5
A5
330
47
100
AcDbEntity
  8
0
  6
Continuous
 62
     7
100
AcDbLine
 10
-11.70256343522427
 20
70.32059433496883
 30
0.0
 11
-4.34134750302835
 21
68.19559433499043
 31
0.0
  0
LINE
  5
A6
330
47
100
AcDbEntity
  8
0
  6
Continuous
 62
     7
100
AcDbLine
 10
-4.26634750313029
 20
68.26054624018687
 30
0.0
 11
-4.34134750302835
 21
68.19559433499043
 31
0.0
  0
LINE
  5
A7
330
47
100
AcDbEntity
  8
0
  6
Continuous
 62
     7
100
AcDbLine
 10
-4.34134750302834
 20
68.28219687536944
 30
0.0
 11
-4.34134750302835
 21
68.19559433499043
 31
0.0
  0
LINE
  5
A8
330
47
100
AcDbEntity
  8
0
  6
Continuous
 62
     7
100
AcDbLine
 10
-11.70256343522423
 20
71.27322227912953
 30
0.0
 11
-11.70256343522427
 21
70.32059433496883
 31
0.0
  0
LINE
  5
A9
330
47
100
AcDbEntity
  8
0
  6
Continuous
 62
     7
100
AcDbLine
 10
-18.63076666568003
 20
73.27322227915359
 30
0.0
 11
-11.70256343522423
 21
71.27322227912953
 31
0.0
  0
LINE
  5
AA
330
47
100
AcDbEntity
  8
0
  6
Continuous
 62
     7
100
AcDbLine
 10
-12.06410154098528
 20
69.51563472225143
 30
0.0
 11
-11.62756343532623
 21
69.8936878114721
 31
0.0
  0
LINE
  5
AB
330
47
100
AcDbEntity
  8
0
  6
Continuous
 62
     7
100
AcDbLine
 10
-12.06410154098528
 20
69.51563472225143
 30
0.0
 11
-12.06410154098528
 21
70.0352499645221
 31
0.0
  0
LINE
  5
AC
330
47
100
AcDbEntity
  8
0
  6
Continuous
 62
     2
100
AcDbLine
 10
-12.06410154098528
 20
70.0352499645221
 30
0.0
 11
-11.70256343522541
 21
70.34835114854626
 31
0.0
  0
LINE
  5
AD
330
47
100
AcDbEntity
  8
0
  6
Continuous
 62
     7
100
AcDbLine
 10
-11.52073583585609
 20
88.38852163653752
 30
0.0
 11
-12.09421353752486
 21
87.8918753783817
 31
0.0
  0
LINE
  5
AE
330
47
100
AcDbEntity
  8
0
  6
Continuous
 62
     7
100
AcDbLine
 10
-17.91469674247013
 20
87.76172794988949
 30
0.0
 11
-16.99495664816403
 21
87.38329197075339
 31
0.0
  0
LINE
  5
AF
330
47
100
AcDbEntity
  8
0
  6
Continuous
 62
     7
100
AcDbLine
 10
-17.88595686586753
 20
87.98749897348236
 30
0.0
 11
-17.91469674247013
 21
87.76172794988949
 31
0.0
  0
LINE
  5
B0
330
47
100
AcDbEntity
  8
0
  6
Continuous
 62
     7
100
AcDbLine
 10
-18.63076666564157
 20
87.88635403980919
 30
0.0
 11
-17.88595686586753
 21
87.98749897348236
 31
0.0
  0
LINE
  5
B1
330
47
100
AcDbEntity
  8
0
  6
Continuous
 62
     7
100
AcDbLine
 10
0.99495698646263
 20
85.74075538708998
 30
0.0
 11
0.47646718472204
 21
90.1131910669039
 31
0.0
  0
LINE
  5
B2
330
47
100
AcDbEntity
  8
0
  6
Continuous
 62
     7
100
AcDbLine
 10
-16.79811751679355
 20
88.92959548502978
 30
0.0
 11
-17.88595686586753
 21
87.98749897348236
 31
0.0
  0
LINE
  5
B3
330
47
100
AcDbEntity
  8
0
  6
Continuous
 62
     7
100
AcDbLine
 10
-17.91469674247013
 20
87.76172794988949
 30
0.0
 11
-16.82685739338332
 21
88.70382446144751
 31
0.0
  0
LINE
  5
B4
330
47
100
AcDbEntity
  8
0
  6
Continuous
 62
     7
100
AcDbLine
 10
-11.52073583585609
 20
88.38852163653752
 30
0.0
 11
-11.76138875918799
 21
88.87481524177211
 31
0.0
  0
LINE
  5
B5
330
47
100
AcDbEntity
  8
0
  6
Continuous
 62
     7
100
AcDbLine
 10
-9.5544740676006
 20
95.28432815152567
 30
0.0
 11
-10.10160154017513
 21
95.44227024831152
 31
0.0
  0
LINE
  5
B6
330
47
100
AcDbEntity
  8
0
  6
Continuous
 62
     7
100
AcDbLine
 10
-14.49331142455409
 20
96.91212028464551
 30
0.0
 11
-17.56831142488657
 21
94.24909216768356
 31
0.0
  0
LINE
  5
B7
330
47
100
AcDbEntity
  8
0
  6
Continuous
 62
     7
100
AcDbLine
 10
-9.55447406760145
 20
92.78873867414397
 30
0.0
 11
-9.5544740676006
 21
95.28432815152567
 31
0.0
  0
LINE
  5
B8
330
47
100
AcDbEntity
  8
0
  6
Continuous
 62
     2
100
AcDbLine
 10
-10.10160154017607
 20
92.66308943573873
 30
0.0
 11
-10.10160154017513
 21
95.44227024831152
 31
0.0
  0
LINE
  5
B9
330
47
100
AcDbEntity
  8
0
  6
Continuous
 62
     7
100
AcDbLine
 10
-18.08517066129244
 20
76.64477579953922
 30
0.0
 11
-17.15852347924037
 21
77.44727579955268
 31
0.0
  0
LINE
  5
BA
330
47
100
AcDbEntity
  8
0
  6
Continuous
 62
     7
100
AcDbLine
 10
-17.15852347924022
 20
77.68310111710397
 30
0.0
 11
-18.08517066129175
 21
76.88060111709096
 31
0.0
  0
LINE
  5
BB
330
47
100
AcDbEntity
  8
0
  6
Continuous
 62
     7
100
AcDbLine
 10
-17.88093994539364
 20
82.06343014908067
 30
0.0
 11
-18.08517066125883
 21
81.8865611609059
 31
0.0
  0
LINE
  5
BC
330
47
100
AcDbEntity
  8
0
  6
Continuous
 62
     7
100
AcDbLine
 10
-18.08517066129139
 20
82.12238647848048
 30
0.0
 11
-17.15852347923715
 21
81.85488647848253
 31
0.0
  0
LINE
  5
BD
330
47
100
AcDbEntity
  8
0
  6
Continuous
 62
     7
100
AcDbLine
 10
-18.08517066125883
 20
81.8865611609059
 30
0.0
 11
-18.08517066129139
 21
82.12238647848048
 31
0.0
  0
LINE
  5
BE
330
47
100
AcDbEntity
  8
0
  6
Continuous
 62
     7
100
AcDbLine
 10
-17.69916062252837
 20
93.22118388188554
 30
0.0
 11
-17.27588380220525
 21
92.78003242654172
 31
0.0
  0
LINE
  5
BF
330
47
100
AcDbEntity
  8
0
  6
Continuous
 62
     7
100
AcDbLine
 10
-17.15852347924076
 20
76.3772757995423
 30
0.0
 11
-17.15852347923715
 21
81.85488647848253
 31
0.0
  0
LINE
  5
C0
330
47
100
AcDbEntity
  8
0
  6
Continuous
 62
     7
100
AcDbLine
 10
-17.15852347924076
 20
76.3772757995423
 30
0.0
 11
-18.08517066129244
 21
76.64477579953922
 31
0.0
  0
LINE
  5
C1
330
47
100
AcDbEntity
  8
0
  6
Continuous
 62
     7
100
AcDbLine
 10
-18.08517066129244
 20
76.64477579953922
 30
0.0
 11
-18.08517066129175
 21
76.88060111709096
 31
0.0
  0
LINE
  5
C2
330
47
100
AcDbEntity
  8
0
  6
Continuous
 62
     7
100
AcDbLine
 10
-5.13237290689568
 20
55.08715248165451
 30
0.0
 11
-11.19455073350148
 21
56.83715248166284
 31
0.0
  0
LINE
  5
C3
330
47
100
AcDbEntity
  8
0
  6
Continuous
 62
     7
100
AcDbLine
 10
-11.63108883909308
 20
67.77460931846706
 30
0.0
 11
-12.06410154098528
 21
69.51563472225143
 31
0.0
  0
LINE
  5
C4
330
47
100
AcDbEntity
  8
0
  6
Continuous
 62
     7
100
AcDbLine
 10
-11.63108883909309
 20
64.45428992068011
 30
0.0
 11
-13.70954980817586
 21
65.05428992068015
 31
0.0
  0
LINE
  5
C5
330
47
100
AcDbEntity
  8
0
  6
Continuous
 62
     7
100
AcDbLine
 10
-0.44423318595959
 20
68.22929308013316
 30
0.0
 11
-4.34134750302834
 21
68.28219687536944
 31
0.0
  0
LINE
  5
C6
330
47
100
AcDbEntity
  8
0
  6
Continuous
 62
     7
100
AcDbLine
 10
-4.26634750313038
 20
66.26868781148302
 30
0.0
 11
-4.26634750313029
 21
68.26054624018687
 31
0.0
  0
LINE
  5
C7
330
47
100
AcDbEntity
  8
0
  6
Continuous
 62
     7
100
AcDbLine
 10
-3.49134750313786
 20
66.93985749941876
 30
0.0
 11
-4.26634750313038
 21
66.26868781148302
 31
0.0
  0
LINE
  5
C8
330
47
100
AcDbEntity
  8
0
  6
Continuous
 62
     7
100
AcDbLine
 10
-13.70954980817585
 20
71.85258934046554
 30
0.0
 11
-13.70954980817586
 21
65.05428992068015
 31
0.0
  0
LINE
  5
C9
330
47
100
AcDbEntity
  8
0
  6
Continuous
 62
     7
100
AcDbLine
 10
-11.63108883909308
 20
67.77460931846706
 30
0.0
 11
-11.62756343532632
 21
67.77766240768767
 31
0.0
  0
LINE
  5
CA
330
47
100
AcDbEntity
  8
0
  6
Continuous
 62
     7
100
AcDbLine
 10
-11.63108883909309
 20
64.45428992068011
 30
0.0
 11
-11.62756343532647
 21
64.4573430099006
 31
0.0
  0
LINE
  5
CB
330
47
100
AcDbEntity
  8
0
  6
Continuous
 62
     7
100
AcDbLine
 10
-11.63108883909308
 20
67.77460931846706
 30
0.0
 11
-11.63108883909309
 21
64.45428992068011
 31
0.0
  0
LINE
  5
CC
330
47
100
AcDbEntity
  8
0
  6
Continuous
 62
     7
100
AcDbLine
 10
-11.62756343532622
 20
70.29894369990394
 30
0.0
 11
-11.62756343532673
 21
58.26119058718304
 31
0.0
  0
LINE
  5
CD
330
47
100
AcDbEntity
  8
0
  6
Continuous
 62
     7
100
AcDbLine
 10
-11.62756343532673
 20
58.26119058718304
 30
0.0
 11
-11.19455073350148
 21
56.83715248166284
 31
0.0
  0
LINE
  5
CE
330
47
100
AcDbEntity
  8
0
  6
Continuous
 62
     7
100
AcDbLine
 10
-16.72030538120031
 20
89.54086204510486
 30
0.0
 11
-18.63076666564157
 21
87.88635403980919
 31
0.0
  0
LINE
  5
CF
330
47
100
AcDbEntity
  8
0
  6
Continuous
 62
     7
100
AcDbLine
 10
-18.63076666568003
 20
73.27322227915359
 30
0.0
 11
-18.63076666567851
 21
76.72310111709047
 31
0.0
  0
LINE
  5
D0
330
47
100
AcDbEntity
  8
0
  6
Continuous
 62
     7
100
AcDbLine
 10
-18.08517066129175
 20
76.88060111709096
 30
0.0
 11
-18.63076666567851
 21
76.72310111709047
 31
0.0
  0
LINE
  5
D1
330
47
100
AcDbEntity
  8
0
  6
Continuous
 62
     7
100
AcDbLine
 10
-18.630766665644
 20
82.35906116090342
 30
0.0
 11
-18.08517066125883
 21
81.8865611609059
 31
0.0
  0
LINE
  5
D2
330
47
100
AcDbEntity
  8
0
  6
Continuous
 62
     7
100
AcDbLine
 10
-18.630766665644
 20
82.35906116090342
 30
0.0
 11
-18.63076666564157
 21
87.88635403980919
 31
0.0
  0
LINE
  5
D3
330
47
100
AcDbEntity
  8
0
  6
Continuous
 62
     7
100
AcDbLine
 10
-17.69916062252837
 20
93.22118388188554
 30
0.0
 11
-17.56831142488657
 21
94.24909216768356
 31
0.0
  0
LINE
  5
D4
330
47
100
AcDbEntity
  8
0
  6
Continuous
 62
     7
100
AcDbLine
 10
-17.15852347924
 20
77.9981011171124
 30
0.0
 11
-18.63076666567851
 21
76.72310111709047
 31
0.0
  0
LINE
  5
D5
330
47
100
AcDbEntity
  8
0
  6
Continuous
 62
     7
100
AcDbLine
 10
-11.44275581384175
 20
92.48079657721985
 30
0.0
 11
-1.50668822052547
 21
89.61250092741287
 31
0.0
  0
LINE
  5
D6
330
47
100
AcDbEntity
  8
0
  6
Continuous
 62
     7
100
AcDbLine
 10
-6.84419865566858
 20
94.21326389727376
 30
0.0
 11
-8.74419865556618
 21
92.56781563016243
 31
0.0
  0
LINE
  5
D7
330
47
100
AcDbEntity
  8
0
  6
Continuous
 62
     7
100
AcDbLine
 10
-13.91086975775452
 20
89.44623265775012
 30
0.0
 11
-13.91086975775315
 21
93.34334697473318
 31
0.0
  0
LINE
  5
D8
330
47
100
AcDbEntity
  8
0
  6
Continuous
 62
     7
100
AcDbLine
 10
-17.56831142488657
 20
94.24909216768356
 30
0.0
 11
-14.04083182807334
 21
93.23079652030609
 31
0.0
  0
LINE
  5
D9
330
47
100
AcDbEntity
  8
0
  6
Continuous
 62
     7
100
AcDbLine
 10
-14.04083182807491
 20
89.33368220332271
 30
0.0
 11
-14.04083182807334
 21
93.23079652030609
 31
0.0
  0
LINE
  5
DA
330
47
100
AcDbEntity
  8
0
  6
Continuous
 62
     7
100
AcDbLine
 10
-13.91086975775315
 20
93.34334697473318
 30
0.0
 11
-14.04083182807334
 21
93.23079652030609
 31
0.0
  0
LINE
  5
DB
330
47
100
AcDbEntity
  8
0
  6
Continuous
 62
     7
100
AcDbLine
 10
-11.44275581384175
 20
92.48079657721985
 30
0.0
 11
-11.31288925676921
 21
92.59326431474805
 31
0.0
  0
LINE
  5
DC
330
47
100
AcDbEntity
  8
0
  6
Continuous
 62
     7
100
AcDbLine
 10
-7.04002065957138
 20
92.1240618247231
 30
0.0
 11
-7.08176309003525
 21
92.08791181952498
 31
0.0
  0
LINE
  5
DD
330
47
100
AcDbEntity
  8
0
  6
Continuous
 62
     7
100
AcDbLine
 10
-7.04002065957327
 20
92.55707452661632
 30
0.0
 11
-7.45676309003284
 21
92.19616499499662
 31
0.0
  0
LINE
  5
DE
330
47
100
AcDbEntity
  8
0
  6
Continuous
 62
     7
100
AcDbLine
 10
-7.04002065957138
 20
92.1240618247231
 30
0.0
 11
-7.04002065957327
 21
92.55707452661632
 31
0.0
  0
LINE
  5
DF
330
47
100
AcDbEntity
  8
0
  6
Continuous
 62
     7
100
AcDbLine
 10
-5.43068520792261
 20
92.7177872250708
 30
0.0
 11
-5.4306852079245
 21
93.15079992696403
 31
0.0
  0
LINE
  5
E0
330
47
100
AcDbEntity
  8
0
  6
Continuous
 62
     7
100
AcDbLine
 10
-5.03990466108136
 20
92.07582833201738
 30
0.0
 11
-5.14971228213643
 21
92.28073214242768
 31
0.0
  0
LINE
  5
E1
330
47
100
AcDbEntity
  8
0
  6
Continuous
 62
     7
100
AcDbLine
 10
-5.14971228213643
 20
92.28073214242768
 30
0.0
 11
-4.54971228216018
 21
92.80034738468404
 31
0.0
  0
LINE
  5
E2
330
47
100
AcDbEntity
  8
0
  6
Continuous
 62
     7
100
AcDbLine
 10
-8.66919865550172
 20
92.54616499504354
 30
0.0
 11
-6.84419865566821
 21
94.12666135681054
 31
0.0
  0
LINE
  5
E3
330
47
100
AcDbEntity
  8
0
  6
Continuous
 62
     7
100
AcDbLine
 10
-6.84419865566858
 20
94.21326389727376
 30
0.0
 11
-6.84419865566821
 21
94.12666135681054
 31
0.0
  0
LINE
  5
E4
330
47
100
AcDbEntity
  8
0
  6
Continuous
 62
     7
100
AcDbLine
 10
-6.12350552054792
 20
92.91778721803138
 30
0.0
 11
-6.12350552054982
 21
93.35079991992461
 31
0.0
  0
LINE
  5
E5
330
47
100
AcDbEntity
  8
0
  6
Continuous
 62
     7
100
AcDbLine
 10
-5.63176309015692
 20
93.34364865485719
 30
0.0
 11
-6.12350552054792
 21
92.91778721803138
 31
0.0
  0
LINE
  5
E6
330
47
100
AcDbEntity
  8
0
  6
Continuous
 62
     7
100
AcDbLine
 10
-5.45330212063855
 20
91.6178156300103
 30
0.0
 11
-5.00330212064144
 21
92.00752706171306
 31
0.0
  0
LINE
  5
E7
330
47
100
AcDbEntity
  8
0
  6
Continuous
 62
     7
100
AcDbLine
 10
-5.00330212064144
 20
92.00752706171306
 30
0.0
 11
-5.03990466108136
 21
92.07582833201738
 31
0.0
  0
LINE
  5
E8
330
47
100
AcDbEntity
  8
0
  6
Continuous
 62
     7
100
AcDbLine
 10
-3.55330212075247
 20
93.2632638971127
 30
0.0
 11
-6.84419865566858
 21
94.21326389727376
 31
0.0
  0
LINE
  5
E9
330
47
100
AcDbEntity
  8
0
  6
Continuous
 62
     7
100
AcDbLine
 10
-5.63176309015692
 20
93.34364865485719
 30
0.0
 11
-5.63176309015399
 21
93.7766613567546
 31
0.0
  0
LINE
  5
EA
330
47
100
AcDbEntity
  8
0
  6
Continuous
 62
     7
100
AcDbLine
 10
-5.63176309015399
 20
93.7766613567546
 30
0.0
 11
-6.12350552054982
 21
93.35079991992461
 31
0.0
  0
LINE
  5
EB
330
47
100
AcDbEntity
  8
0
  6
Continuous
 62
     7
100
AcDbLine
 10
-6.84419865566821
 20
94.12666135681054
 30
0.0
 11
-5.63176309015399
 21
93.7766613567546
 31
0.0
  0
LINE
  5
EC
330
47
100
AcDbEntity
  8
0
  6
Continuous
 62
     7
100
AcDbLine
 10
-4.93894276555892
 20
93.57666135629972
 30
0.0
 11
-3.62830212080983
 21
93.1983119917788
 31
0.0
  0
LINE
  5
ED
330
47
100
AcDbEntity
  8
0
  6
Continuous
 62
     7
100
AcDbLine
 10
-4.54971228216018
 20
92.80034738468404
 30
0.0
 11
-4.00330212072579
 21
92.87355246543055
 31
0.0
  0
LINE
  5
EE
330
47
100
AcDbEntity
  8
0
  6
Continuous
 62
     7
100
AcDbLine
 10
-5.4306852079245
 20
93.15079992696403
 30
0.0
 11
-4.93894276555892
 21
93.57666135629972
 31
0.0
  0
LINE
  5
EF
330
47
100
AcDbEntity
  8
0
  6
Continuous
 62
     7
100
AcDbLine
 10
-5.31394277736372
 20
93.25190183328631
 30
0.0
 11
-5.63176309015692
 21
93.34364865485719
 31
0.0
  0
LINE
  5
F0
330
47
100
AcDbEntity
  8
0
  6
Continuous
 62
     7
100
AcDbLine
 10
1.56831177996803
 20
92.27552904451427
 30
0.0
 11
-1.50668822052547
 21
89.61250092741287
 31
0.0
  0
LINE
  5
F1
330
47
100
AcDbEntity
  8
0
  6
Continuous
 62
     7
100
AcDbLine
 10
-8.74419865556618
 20
92.56781563016243
 30
0.0
 11
-5.45330212063855
 21
91.6178156300103
 31
0.0
  0
LINE
  5
F2
330
47
100
AcDbEntity
  8
0
  6
Continuous
 62
     7
100
AcDbLine
 10
-1.79911586011603
 20
88.31227435787793
 30
0.0
 11
-1.37583902432264
 21
88.50904683426134
 31
0.0
  0
LINE
  5
F3
330
47
100
AcDbEntity
  8
0
  6
Continuous
 62
     7
100
AcDbLine
 10
-1.82785573672373
 20
88.55463835701676
 30
0.0
 11
-1.79911586011603
 21
88.31227435787793
 31
0.0
  0
LINE
  5
F4
330
47
100
AcDbEntity
  8
0
  6
Continuous
 62
     7
100
AcDbLine
 10
-2.74759583060973
 20
88.7072145688361
 30
0.0
 11
-1.82785573672373
 21
88.55463835701676
 31
0.0
  0
LINE
  5
F5
330
47
100
AcDbEntity
  8
0
  6
Continuous
 62
     2
100
AcDbLine
 10
-13.91086975775452
 20
89.44623265775012
 30
0.0
 11
-14.04083182807491
 21
89.33368220332271
 31
0.0
  0
LINE
  5
F6
330
47
100
AcDbEntity
  8
0
  6
Continuous
 62
     7
100
AcDbLine
 10
-1.50668822052547
 20
89.61250092741287
 30
0.0
 11
-1.37583902432264
 21
88.50904683426134
 31
0.0
  0
LINE
  5
F7
330
47
100
AcDbEntity
  8
0
  6
Continuous
 62
     7
100
AcDbLine
 10
-4.00330212072579
 20
92.87355246543055
 30
0.0
 11
-3.55330212075247
 21
93.2632638971127
 31
0.0
  0
LINE
  5
F8
330
47
100
AcDbEntity
  8
0
  6
Continuous
 62
     7
100
AcDbLine
 10
-0.44423318598639
 20
80.8620488902715
 30
0.0
 11
2.1307668138716
 21
83.09206430492465
 31
0.0
  0
LINE
  5
F9
330
47
100
AcDbEntity
  8
0
  6
Continuous
 62
     7
100
AcDbLine
 10
1.88595720398303
 20
85.83054317438851
 30
0.0
 11
-1.18904279646058
 21
83.1675150573303
 31
0.0
  0
LINE
  5
FA
330
47
100
AcDbEntity
  8
0
  6
Continuous
 62
     7
100
AcDbLine
 10
2.63076681446212
 20
85.29938223732947
 30
0.0
 11
-0.44423318598631
 21
82.6363541202671
 31
0.0
  0
LINE
  5
FB
330
47
100
AcDbEntity
  8
0
  6
Continuous
 62
     7
100
AcDbLine
 10
2.13076681389896
 20
74.34520772669295
 30
0.0
 11
0.91833124860078
 21
80.51851629191688
 31
0.0
  0
LINE
  5
FC
330
47
100
AcDbEntity
  8
0
  6
Continuous
 62
     7
100
AcDbLine
 10
2.13076681389896
 20
74.34520772669295
 30
0.0
 11
-0.14423318598579
 21
72.37499993317788
 31
0.0
  0
LINE
  5
FD
330
47
100
AcDbEntity
  8
0
  6
Continuous
 62
     7
100
AcDbLine
 10
2.63076681436851
 20
70.89232119709132
 30
0.0
 11
-0.44423318595959
 21
68.22929308013316
 31
0.0
  0
LINE
  5
FE
330
47
100
AcDbEntity
  8
0
  6
Continuous
 62
     7
100
AcDbLine
 10
2.33076681389686
 20
71.42237198892326
 30
0.0
 11
-0.14423318597495
 21
69.27895911463787
 31
0.0
  0
LINE
  5
FF
330
47
100
AcDbEntity
  8
0
  6
Continuous
 62
     7
100
AcDbLine
 10
-0.14423318596259
 20
71.92033659619693
 30
0.0
 11
2.33076681389686
 21
74.06374947046294
 31
0.0
  0
LINE
  5
100
330
47
100
AcDbEntity
  8
0
  6
Continuous
 62
     7
100
AcDbLine
 10
-1.65666875128889
 20
80.50175416504801
 30
0.0
 11
-0.9654742753062
 21
81.1003461402044
 31
0.0
  0
LINE
  5
101
330
47
100
AcDbEntity
  8
0
  6
Continuous
 62
     7
100
AcDbLine
 10
-2.08067194730754
 20
81.89616293277687
 30
0.0
 11
-1.65666875128889
 21
80.50175416504801
 31
0.0
  0
LINE
  5
102
330
47
100
AcDbEntity
  8
0
  6
Continuous
 62
     2
100
AcDbLine
 10
-0.68757365939
 20
78.8718892120247
 30
0.0
 11
-0.98757365938685
 21
78.61208159088848
 31
0.0
  0
LINE
  5
103
330
47
100
AcDbEntity
  8
0
  6
Continuous
 62
     7
100
AcDbLine
 10
-0.44423318595939
 20
73.1753851799209
 30
0.0
 11
-0.44423318595959
 21
68.22929308013316
 31
0.0
  0
LINE
  5
104
330
47
100
AcDbEntity
  8
0
  6
Continuous
 62
     7
100
AcDbLine
 10
-1.65666875128889
 20
80.50175416504801
 30
0.0
 11
-1.65666875126156
 21
79.99410787722066
 31
0.0
  0
LINE
  5
105
330
47
100
AcDbEntity
  8
0
  6
Continuous
 62
     7
100
AcDbLine
 10
-1.35666875126472
 20
80.25391549835686
 30
0.0
 11
-1.65666875126156
 21
79.99410787722066
 31
0.0
  0
LINE
  5
106
330
47
100
AcDbEntity
  8
0
  6
Continuous
 62
     7
100
AcDbLine
 10
-1.13705350901636
 20
81.49506159216162
 30
0.0
 11
-1.13705350901634
 21
81.76069439247716
 31
0.0
  0
LINE
  5
107
330
47
100
AcDbEntity
  8
0
  6
Continuous
 62
     7
100
AcDbLine
 10
-1.57006621091006
 20
82.31870709436808
 30
0.0
 11
-1.66988002917721
 21
82.34752086179037
 31
0.0
  0
LINE
  5
108
330
47
100
AcDbEntity
  8
0
  6
Continuous
 62
     7
100
AcDbLine
 10
-0.44423318598639
 20
80.8620488902715
 30
0.0
 11
-0.70404080712264
 21
80.93704889027069
 31
0.0
  0
LINE
  5
109
330
47
100
AcDbEntity
  8
0
  6
Continuous
 62
     7
100
AcDbLine
 10
-0.44423318598639
 20
80.8620488902715
 30
0.0
 11
-0.44423318598631
 21
82.6363541202671
 31
0.0
  0
LINE
  5
10A
330
47
100
AcDbEntity
  8
0
  6
Continuous
 62
     7
100
AcDbLine
 10
-1.16030291985132
 20
82.92515105818393
 30
0.0
 11
-2.08004301396914
 21
83.07772727004202
 31
0.0
  0
LINE
  5
10B
330
47
100
AcDbEntity
  8
0
  6
Continuous
 62
     7
100
AcDbLine
 10
-0.44423318598631
 20
82.6363541202671
 30
0.0
 11
-1.18904279646058
 21
83.1675150573303
 31
0.0
  0
LINE
  5
10C
330
47
100
AcDbEntity
  8
0
  6
Continuous
 62
     7
100
AcDbLine
 10
-1.18904279646058
 20
83.1675150573303
 30
0.0
 11
-1.16030291985132
 21
82.92515105818393
 31
0.0
  0
LINE
  5
10D
330
47
100
AcDbEntity
  8
0
  6
Continuous
 62
     7
100
AcDbLine
 10
2.33076681389686
 20
71.42237198892326
 30
0.0
 11
2.33076681389686
 21
74.06374947046294
 31
0.0
  0
LINE
  5
10E
330
47
100
AcDbEntity
  8
0
  6
Continuous
 62
     7
100
AcDbLine
 10
-0.14423318597495
 20
69.27895911463787
 30
0.0
 11
-0.14423318596259
 21
71.92033659619693
 31
0.0
  0
LINE
  5
10F
330
47
100
AcDbEntity
  8
0
  6
Continuous
 62
     7
100
AcDbLine
 10
0.91833124860078
 20
80.51851629191688
 30
0.0
 11
-0.68194885454602
 21
79.1326330694212
 31
0.0
  0
LINE
  5
110
330
47
100
AcDbEntity
  8
0
  6
Continuous
 62
     7
100
AcDbLine
 10
-0.14423318598579
 20
72.37499993317788
 30
0.0
 11
-0.14423318596253
 21
73.4351928010571
 31
0.0
  0
LINE
  5
111
330
47
100
AcDbEntity
  8
0
  6
Continuous
 62
     7
100
AcDbLine
 10
0.91833124860078
 20
80.51851629191688
 30
0.0
 11
0.91833124860078
 21
82.04206430493366
 31
0.0
  0
LINE
  5
112
330
47
100
AcDbEntity
  8
0
  6
Continuous
 62
     7
100
AcDbLine
 10
1.68124776106069
 20
72.25939104175886
 30
0.0
 11
-0.14423318596265
 21
70.67847816751245
 31
0.0
  0
LINE
  5
113
330
47
100
AcDbEntity
  8
0
  6
Continuous
 62
     7
100
AcDbLine
 10
0.60576681391038
 20
72.56985564893169
 30
0.0
 11
1.68124776106069
 21
72.25939104175886
 31
0.0
  0
LINE
  5
114
330
47
100
AcDbEntity
  8
0
  6
Continuous
 62
     7
100
AcDbLine
 10
-0.14423318596253
 20
73.4351928010571
 30
0.0
 11
-0.44423318595939
 21
73.1753851799209
 31
0.0
  0
LINE
  5
115
330
47
100
AcDbEntity
  8
0
  6
Continuous
 62
     7
100
AcDbLine
 10
2.13076681383467
 20
82.89789684071863
 30
0.0
 11
2.1307668138716
 21
83.09206430492465
 31
0.0
  0
LINE
  5
116
330
47
100
AcDbEntity
  8
0
  6
Continuous
 62
     7
100
AcDbLine
 10
2.13076681389896
 20
74.34520772669295
 30
0.0
 11
2.13076681386168
 21
75.40540059454175
 31
0.0
  0
LINE
  5
117
330
47
100
AcDbEntity
  8
0
  6
Continuous
 62
     7
100
AcDbLine
 10
2.33076681389686
 20
71.42237198892326
 30
0.0
 11
1.68124776106069
 21
72.25939104175886
 31
0.0
  0
LINE
  5
118
330
47
100
AcDbEntity
  8
0
  6
Continuous
 62
     7
100
AcDbLine
 10
2.63076681436851
 20
70.89232119709132
 30
0.0
 11
2.63076681454636
 21
75.83841329703291
 31
0.0
  0
LINE
  5
119
330
47
100
AcDbEntity
  8
0
  6
Continuous
 62
     7
100
AcDbLine
 10
2.63076681454636
 20
75.83841329703291
 30
0.0
 11
2.13076681386168
 21
75.40540059454175
 31
0.0
  0
LINE
  5
11A
330
47
100
AcDbEntity
  8
0
  6
Continuous
 62
     2
100
AcDbLine
 10
-1.58708653504972
 20
82.32362043872949
 30
0.0
 11
-2.08067194730754
 21
81.89616293277687
 31
0.0
  0
LINE
  5
11B
330
47
100
AcDbEntity
  8
0
  6
Continuous
 62
     7
100
AcDbLine
 10
2.63076681451933
 20
83.3309095432098
 30
0.0
 11
2.63076681446212
 21
85.29938223732947
 31
0.0
  0
LINE
  5
11C
330
47
100
AcDbEntity
  8
0
  6
Continuous
 62
     7
100
AcDbLine
 10
1.65570946122442
 20
85.63114277999276
 30
0.0
 11
0.99495698646263
 21
85.74075538708998
 31
0.0
  0
LINE
  5
11D
330
47
100
AcDbEntity
  8
0
  6
Continuous
 62
     7
100
AcDbLine
 10
-2.08004301396914
 20
83.07772727004202
 30
0.0
 11
0.99495698646263
 21
85.74075538708998
 31
0.0
  0
LINE
  5
11E
330
47
100
AcDbEntity
  8
0
  6
Continuous
 62
     7
100
AcDbLine
 10
2.63076681446212
 20
85.29938223732947
 30
0.0
 11
1.88595720398303
 21
85.83054317438851
 31
0.0
  0
LINE
  5
11F
330
47
100
AcDbEntity
  8
0
  6
Continuous
 62
     7
100
AcDbLine
 10
2.63076681451933
 20
83.3309095432098
 30
0.0
 11
2.13076681383467
 21
82.89789684071863
 31
0.0
  0
SPLINE
  5
120
330
47
100
AcDbEntity
  8
0
  6
Continuous
 62
     7
100
AcDbSpline
210
0.0
220
0.0
230
1.0
 70
     8
 71
     3
 72
     9
 73
     5
 74
     3
 42
0.000000001
 43
0.0000000001
 44
0.00000001
 40
0.0
 40
0.0
 40
0.0
 40
0.0
 40
0.2070324927194255
 40
0.4045568790711601
 40
0.4045568790711601
 40
0.4045568790711601
 40
0.4045568790711601
 10
-11.76138875919053
 20
90.03299215018278
 30
0.0
 10
-11.70897615598193
 20
90.07794982074621
 30
0.0
 10
-11.60655802106339
 20
90.16580043505559
 30
0.0
 10
-11.49649429517614
 20
90.24385151302714
 30
0.0
 10
-11.44275581384211
 20
90.28195984568798
 30
0.0
 11
-11.76138875919053
 21
90.03299215018278
 31
0.0
 11
-11.60214864402565
 21
90.16529875958348
 31
0.0
 11
-11.44275581384211
 21
90.28195984568798
 31
0.0
  0
SPLINE
  5
121
330
47
100
AcDbEntity
  8
0
  6
Continuous
 62
     7
100
AcDbSpline
210
0.0
220
0.0
230
1.0
 70
     8
 71
     3
 72
    11
 73
     7
 74
     5
 42
0.000000001
 43
0.0000000001
 44
0.00000001
 40
0.0
 40
0.0
 40
0.0
 40
0.0
 40
0.3073300356402419
 40
0.6009111281972501
 40
0.8615368120529978
 40
1.07695846087856
 40
1.07695846087856
 40
1.07695846087856
 40
1.07695846087856
 10
-6.123505520547923
 20
92.91778721803138
 30
0.0
 10
-6.226240548575149
 20
92.91914115463413
 30
0.0
 10
-6.427114574039656
 20
92.92178844285657
 30
0.0
 10
-6.709937780404546
 20
92.86767836593962
 30
0.0
 10
-6.956601384054249
 20
92.78369217273477
 30
0.0
 10
-7.080619767648024
 20
92.68299741844118
 30
0.0
 10
-7.136740747416077
 20
92.63743087231862
 30
0.0
 11
-6.123505520547923
 21
92.91778721803138
 31
0.0
 11
-6.430766753386942
 21
92.91128459356706
 31
0.0
 11
-6.719546273896306
 21
92.85840503645841
 31
0.0
 11
-6.96253076981244
 21
92.76414855597844
 31
0.0
 11
-7.136740747416077
 21
92.63743087231862
 31
0.0
  0
SPLINE
  5
122
330
47
100
AcDbEntity
  8
0
  6
Continuous
 62
     7
100
AcDbSpline
210
0.0
220
0.0
230
1.0
 70
     8
 71
     3
 72
     9
 73
     5
 74
     3
 42
0.000000001
 43
0.0000000001
 44
0.00000001
 40
0.0
 40
0.0
 40
0.0
 40
0.0
 40
0.1640893791784853
 40
0.3662417153925399
 40
0.3662417153925399
 40
0.3662417153925399
 40
0.3662417153925399
 10
-7.235352928552942
 20
92.8539372232648
 30
0.0
 10
-7.223720244031295
 20
92.79870555545101
 30
0.0
 10
-7.197756484170728
 20
92.67543042568033
 30
0.0
 10
-7.09612024122639
 20
92.59916842096104
 30
0.0
 10
-7.040020659573273
 20
92.55707452661632
 30
0.0
 11
-7.235352928552942
 21
92.8539372232648
 31
0.0
 11
-7.18526467400287
 21
92.69767944933469
 31
0.0
 11
-7.040020659573273
 21
92.55707452661632
 31
0.0
  0
SPLINE
  5
123
330
47
100
AcDbEntity
  8
0
  6
Continuous
 62
     7
100
AcDbSpline
210
0.0
220
0.0
230
1.0
 70
     8
 71
     3
 72
    13
 73
     9
 74
     7
 42
0.000000001
 43
0.0000000001
 44
0.00000001
 40
0.0
 40
0.0
 40
0.0
 40
0.0
 40
0.2794780709159901
 40
0.5491926934349342
 40
0.7942608272352047
 40
1.003866458879142
 40
1.175085468405622
 40
1.318904477885638
 40
1.318904477885638
 40
1.318904477885638
 40
1.318904477885638
 10
-6.347200336478302
 20
92.35707452660935
 30
0.0
 10
-6.253885290209105
 20
92.35558736498801
 30
0.0
 10
-6.07051511971256
 20
92.35266499936697
 30
0.0
 10
-5.808082199487072
 20
92.39533302545577
 30
0.0
 10
-5.576218515699276
 20
92.46917044364497
 30
0.0
 10
-5.395285392951141
 20
92.57253685567834
 30
0.0
 10
-5.263718383931657
 20
92.70038966721418
 30
0.0
 10
-5.244243474808827
 20
92.80581099469417
 30
0.0
 10
-5.235352928552928
 20
92.85393722327355
 30
0.0
 11
-6.347200336478302
 21
92.35707452660935
 31
0.0
 11
-6.067749987263004
 21
92.36101013747381
 31
0.0
 11
-5.801398429786751
 21
92.40346982905947
 31
0.0
 11
-5.568962699085478
 21
92.4811359170605
 31
0.0
 11
-5.388607837404443
 21
92.587937810391
 31
0.0
 11
-5.274430558662633
 21
92.71552895705352
 31
0.0
 11
-5.235352928552928
 21
92.85393722327355
 31
0.0
  0
SPLINE
  5
124
330
47
100
AcDbEntity
  8
0
  6
Continuous
 62
     7
100
AcDbSpline
210
0.0
220
0.0
230
1.0
 70
     8
 71
     3
 72
    11
 73
     7
 74
     5
 42
0.000000001
 43
0.0000000001
 44
0.00000001
 40
0.0
 40
0.0
 40
0.0
 40
0.0
 40
0.0974301069699515
 40
0.1994891075962638
 40
0.3091287353652803
 40
0.4269691443377647
 40
0.4269691443377647
 40
0.4269691443377647
 40
0.4269691443377647
 10
-1.99720686453233
 20
82.29247263290641
 30
0.0
 10
-2.019674398615618
 20
82.26856495049854
 30
0.0
 10
-2.065676885374223
 20
82.21961372523825
 30
0.0
 10
-2.099649550676547
 20
82.119629092455
 30
0.0
 10
-2.107645770646619
 20
82.00873474847742
 30
0.0
 10
-2.089876754309339
 20
81.9345780011422
 30
0.0
 10
-2.080671947307543
 20
81.89616293277687
 30
0.0
 11
-1.99720686453233
 21
82.29247263290641
 31
0.0
 11
-2.058865832607515
 21
82.21703525569329
 31
0.0
 11
-2.094603119122695
 21
82.12143773131974
 31
0.0
 11
-2.102036812604232
 21
82.01205039773923
 31
0.0
 11
-2.080671947307543
 21
81.89616293277687
 31
0.0
  0
SPLINE
  5
125
330
47
100
AcDbEntity
  8
0
  6
Continuous
 62
     7
100
AcDbSpline
210
0.0
220
0.0
230
1.0
 70
     8
 71
     3
 72
     9
 73
     5
 74
     3
 42
0.000000001
 43
0.0000000001
 44
0.00000001
 40
0.0
 40
0.0
 40
0.0
 40
0.0
 40
0.1347351597551127
 40
0.2806984683898002
 40
0.2806984683898002
 40
0.2806984683898002
 40
0.2806984683898002
 10
-11.95841567444705
 20
70.28821443753132
 30
0.0
 10
-11.9888081581482
 20
70.25351297124124
 30
0.0
 10
-12.05212586522179
 20
70.18121818381732
 30
0.0
 10
-12.06000460360256
 20
70.08518648621066
 30
0.0
 10
-12.06410154098528
 20
70.0352499645221
 30
0.0
 11
-11.95841567444705
 21
70.28821443753132
 31
0.0
 11
-12.03682000026425
 21
70.17864105779732
 31
0.0
 11
-12.06410154098528
 21
70.0352499645221
 31
0.0
  0
SPLINE
  5
126
330
47
100
AcDbEntity
  8
0
  6
Continuous
 62
     7
100
AcDbSpline
210
0.0
220
0.0
230
1.0
 70
     8
 71
     3
 72
     9
 73
     5
 74
     3
 42
0.000000001
 43
0.0000000001
 44
0.00000001
 40
0.0
 40
0.0
 40
0.0
 40
0.0
 40
0.1407419043314245
 40
0.2711815176448858
 40
0.2711815176448858
 40
0.2711815176448858
 40
0.2711815176448858
 10
-11.70256343522541
 20
70.35795594389825
 30
0.0
 10
-11.7507627866011
 20
70.35988578357642
 30
0.0
 10
-11.84363329907633
 20
70.3636041799527
 30
0.0
 10
-11.92113634188429
 20
70.31269973080722
 30
0.0
 10
-11.95841567444705
 20
70.28821443753132
 30
0.0
 11
-11.70256343522541
 21
70.35795594389825
 31
0.0
 11
-11.84302216823498
 21
70.34903246110434
 31
0.0
 11
-11.95841567444705
 21
70.28821443753132
 31
0.0
  0
SPLINE
  5
127
330
47
100
AcDbEntity
  8
0
  6
Continuous
 62
     7
100
AcDbSpline
210
0.0
220
0.0
230
1.0
 70
     8
 71
     3
 72
    11
 73
     7
 74
     5
 42
0.000000001
 43
0.0000000001
 44
0.00000001
 40
0.0
 40
0.0
 40
0.0
 40
0.0
 40
0.425682826336129
 40
0.9829204242059136
 40
1.720118024733656
 40
2.634384778531799
 40
2.634384778531799
 40
2.634384778531799
 40
2.634384778531799
 10
-13.91086975775427
 20
90.15953656305429
 30
0.0
 10
-13.76821626034168
 20
90.1871530346214
 30
0.0
 10
-13.43882304149093
 20
90.25092066893127
 30
0.0
 10
-12.90214087260867
 20
89.97246192328763
 30
0.0
 10
-12.32663577196949
 20
89.52233608540377
 30
0.0
 10
-11.96280758697987
 20
89.10555133830623
 30
0.0
 10
-11.76138875918799
 20
88.87481524177211
 30
0.0
 11
-13.91086975775427
 21
90.15953656305429
 31
0.0
 11
-13.48717038986309
 21
90.20058187956052
 31
0.0
 11
-12.97062867882546
 21
89.99154022657947
 31
0.0
 11
-12.38602077831552
 21
89.54243678089762
 31
0.0
 11
-11.76138875918799
 21
88.87481524177211
 31
0.0
  0
SPLINE
  5
128
330
47
100
AcDbEntity
  8
0
  6
Continuous
 62
     7
100
AcDbSpline
210
0.0
220
0.0
230
1.0
 70
     8
 71
     3
 72
    11
 73
     7
 74
     5
 42
0.000000001
 43
0.0000000001
 44
0.00000001
 40
0.0
 40
0.0
 40
0.0
 40
0.0
 40
0.0000460479691271
 40
0.0000920964986402
 40
0.2950015884779045
 40
0.5899110804576726
 40
0.5899110804576726
 40
0.5899110804576726
 40
0.5899110804576726
 10
-12.43475581899837
 20
87.91771297794241
 30
0.0
 10
-12.43477056848652
 20
87.91771722697965
 30
0.0
 10
-12.43480006764218
 20
87.91772572510621
 30
0.0
 10
-12.52929114892295
 20
87.94494674896629
 30
0.0
 10
-12.71822222467251
 20
87.99939978312909
 30
0.0
 10
-12.90714238225684
 20
88.05383526994594
 30
0.0
 10
-13.00160204361356
 20
88.08105446221987
 30
0.0
 11
-12.43475581899837
 21
87.91771297794241
 31
0.0
 11
-12.43480006733153
 21
87.91772572550967
 31
0.0
 11
-12.4348443156781
 21
87.91773847505453
 31
0.0
 11
-12.71822317964583
 21
87.9993964686372
 31
0.0
 11
-13.00160204361356
 21
88.08105446221987
 31
0.0
  0
SPLINE
  5
129
330
47
100
AcDbEntity
  8
0
  6
Continuous
 62
     7
100
AcDbSpline
210
0.0
220
0.0
230
1.0
 70
     8
 71
     3
 72
    19
 73
    15
 74
    13
 42
0.000000001
 43
0.0000000001
 44
0.00000001
 40
0.0
 40
0.0
 40
0.0
 40
0.0
 40
0.0438316919206732
 40
0.0879008711392345
 40
0.1784855787136705
 40
0.2553712330448571
 40
0.3410181393634422
 40
0.4288822912086871
 40
0.5269303675120779
 40
0.6118254554721645
 40
0.7070223371342124
 40
0.8046668139156337
 40
1.099484888263299
 40
1.394302973316452
 40
1.394302973316452
 40
1.394302973316452
 40
1.394302973316452
 10
-11.67394600772397
 20
88.0463112070963
 30
0.0
 10
-11.68518134539739
 20
88.0369618591503
 30
0.0
 10
-11.70771290375674
 20
88.01821251705408
 30
0.0
 10
-11.75656288539795
 20
87.98415013647285
 30
0.0
 10
-11.81823192948837
 20
87.94950569297006
 30
0.0
 10
-11.89646538305536
 20
87.91748251417263
 30
0.0
 10
-11.97694138458954
 20
87.894641370696
 30
0.0
 10
-12.06642806843166
 20
87.8798741263037
 30
0.0
 10
-12.15679060558101
 20
87.87523616401575
 30
0.0
 10
-12.24948093525588
 20
87.88005426123122
 30
0.0
 10
-12.34133126111351
 20
87.89308268023518
 30
0.0
 10
-12.49891556578311
 20
87.93354243284057
 30
0.0
 10
-12.71811725484732
 20
88.00005087364895
 30
0.0
 10
-12.90710711244883
 20
88.05405326716709
 30
0.0
 10
-13.00160204361356
 20
88.08105446221987
 30
0.0
 11
-11.67394600772397
 21
88.0463112070963
 31
0.0
 11
-11.70803150910906
 21
88.01875406124876
 31
0.0
 11
-11.7440891929924
 21
87.99341760073044
 31
0.0
 11
-11.82308569571187
 21
87.94908767670856
 31
0.0
 11
-11.8942053349269
 21
87.91987465108879
 31
0.0
 11
-11.97657271096282
 21
87.89640109119492
 31
0.0
 11
-12.06324446763574
 21
87.88197487032177
 31
0.0
 11
-12.16115700238902
 21
87.87682114419694
 31
0.0
 11
-12.24594620828178
 21
87.88105984661884
 31
0.0
 11
-12.34016625659446
 21
87.89466237950342
 31
0.0
 11
-12.43509795476243
 21
87.91751881716411
 31
0.0
 11
-12.71834999918799
 21
87.99928663969197
 31
0.0
 11
-13.00160204361356
 21
88.08105446221987
 31
0.0
  0
SPLINE
  5
12A
330
47
100
AcDbEntity
  8
0
  6
Continuous
 62
     7
100
AcDbSpline
210
0.0
220
0.0
230
1.0
 70
     8
 71
     3
 72
    11
 73
     7
 74
     5
 42
0.000000001
 43
0.0000000001
 44
0.00000001
 40
0.0
 40
0.0
 40
0.0
 40
0.0
 40
0.0058904196102008
 40
0.0118153448689499
 40
0.0177637849147617
 40
0.0236752989184819
 40
0.0236752989184819
 40
0.0236752989184819
 40
0.0236752989184819
 10
-12.41187827884829
 20
87.9116201323724
 30
0.0
 10
-12.41377960380204
 20
87.91211024077631
 30
0.0
 10
-12.4175933877623
 20
87.91309334314943
 30
0.0
 10
-12.42331826472902
 20
87.91460577706657
 30
0.0
 10
-12.42904382855978
 20
87.91614295201947
 30
0.0
 10
-12.43285577968116
 20
87.9171907185586
 30
0.0
 10
-12.43475581899837
 20
87.91771297794241
 30
0.0
 11
-12.41187827884829
 21
87.9116201323724
 31
0.0
 11
-12.4175807715862
 21
87.91309614728624
 31
0.0
 11
-12.42330967303353
 21
87.91460757975076
 31
0.0
 11
-12.42905416539838
 21
87.91615184236272
 31
0.0
 11
-12.43475581899837
 21
87.91771297794241
 31
0.0
  0
SPLINE
  5
12B
330
47
100
AcDbEntity
  8
0
  6
Continuous
 62
     7
100
AcDbSpline
210
0.0
220
0.0
230
1.0
 70
     8
 71
     3
 72
    13
 73
     9
 74
     7
 42
0.000000001
 43
0.0000000001
 44
0.00000001
 40
0.0
 40
0.0
 40
0.0
 40
0.0
 40
0.0859320695999024
 40
0.1844574007831332
 40
0.2797372208956667
 40
0.3589575971912349
 40
0.4816229521693153
 40
0.6031447727510626
 40
0.6031447727510626
 40
0.6031447727510626
 40
0.6031447727510626
 10
-11.4427558138424
 20
88.58368226112917
 30
0.0
 10
-11.44357555500153
 20
88.5550248440448
 30
0.0
 10
-11.44533518491107
 20
88.49351029393893
 30
0.0
 10
-11.46112571416746
 20
88.40126701657744
 30
0.0
 10
-11.48743700512055
 20
88.31385955877582
 30
0.0
 10
-11.52810703383664
 20
88.22341018150445
 30
0.0
 10
-11.58602319218623
 20
88.13127086458289
 30
0.0
 10
-11.64473004087288
 20
88.0745425361906
 30
0.0
 10
-11.67394600772397
 20
88.0463112070963
 30
0.0
 11
-11.4427558138424
 21
88.58368226112917
 31
0.0
 11
-11.44709290297726
 21
88.4978597095835
 31
0.0
 11
-11.46330848556318
 21
88.40067794165977
 31
0.0
 11
-11.49109112186695
 21
88.30953865555213
 31
0.0
 11
-11.52347365041728
 21
88.23723900114597
 31
0.0
 11
-11.59000751107531
 21
88.13418544638536
 31
0.0
 11
-11.67394600772397
 21
88.0463112070963
 31
0.0
  0
SPLINE
  5
12C
330
47
100
AcDbEntity
  8
0
  6
Continuous
 62
     7
100
AcDbSpline
210
0.0
220
0.0
230
1.0
 70
     8
 71
     3
 72
    15
 73
    11
 74
     9
 42
0.000000001
 43
0.0000000001
 44
0.00000001
 40
0.0
 40
0.0
 40
0.0
 40
0.0
 40
0.0743499650920942
 40
0.1604533436427026
 40
0.2576501834301289
 40
0.3773840212420134
 40
0.4981330651393582
 40
0.5956213239481974
 40
0.7161674170172234
 40
0.8162220541166287
 40
0.8162220541166287
 40
0.8162220541166287
 40
0.8162220541166287
 10
-11.64004075812272
 20
88.07787632386899
 30
0.0
 10
-11.66006573956972
 20
88.06325314309723
 30
0.0
 10
-11.70328130643234
 20
88.0316951280605
 30
0.0
 10
-11.77776954162217
 20
87.9886025096971
 30
0.0
 10
-11.8695769947366
 20
87.94612173080031
 30
0.0
 10
-11.97689661649053
 20
87.91110798662963
 30
0.0
 10
-12.0879977997621
 20
87.89034536537935
 30
0.0
 10
-12.20087193219996
 20
87.88350225062433
 30
0.0
 10
-12.30724035089713
 20
87.88929724483515
 30
0.0
 10
-12.37922792994806
 20
87.90465467918938
 30
0.0
 10
-12.41187827884829
 20
87.9116201323724
 30
0.0
 11
-11.64004075812272
 21
88.07787632386899
 31
0.0
 11
-11.7007968849819
 21
88.03502063058058
 31
0.0
 11
-11.77512272211668
 21
87.99155268946268
 31
0.0
 11
-11.86339604708127
 21
87.95087043337544
 31
0.0
 11
-11.97722465359158
 21
87.91373230552661
 31
0.0
 11
-12.0959412888031
 21
87.89167119926279
 31
0.0
 11
-12.19324296603328
 21
87.88564256763459
 31
0.0
 11
-12.31356087097236
 21
87.89305624653247
 31
0.0
 11
-12.41187827884829
 21
87.9116201323724
 31
0.0
  0
SPLINE
  5
12D
330
47
100
AcDbEntity
  8
0
  6
Continuous
 62
     7
100
AcDbSpline
210
0.0
220
0.0
230
1.0
 70
     8
 71
     3
 72
    11
 73
     7
 74
     5
 42
0.000000001
 43
0.0000000001
 44
0.00000001
 40
0.0
 40
0.0
 40
0.0
 40
0.0
 40
0.383872077269885
 40
0.8319451280255648
 40
1.373769564575054
 40
2.007336669773286
 40
2.007336669773286
 40
2.007336669773286
 40
2.007336669773286
 10
-8.13181229789268
 20
94.03653341283433
 30
0.0
 10
-8.15338824076113
 20
94.16511551811688
 30
0.0
 10
-8.200148625490515
 20
94.44378453529133
 30
0.0
 10
-8.525932041954272
 20
94.79323885172309
 30
0.0
 10
-8.981033812957321
 20
95.08852027550739
 30
0.0
 10
-9.3536331663315
 20
95.21574868294327
 30
0.0
 10
-9.554474067600601
 20
95.28432815152567
 30
0.0
 11
-8.13181229789268
 21
94.03653341283433
 31
0.0
 11
-8.228588932346058
 21
94.40800623505088
 31
0.0
 11
-8.512457394977261
 21
94.75468787700848
 31
0.0
 11
-8.964475442862657
 21
95.05344096567208
 31
0.0
 11
-9.554474067600601
 21
95.28432815152567
 31
0.0
  0
SPLINE
  5
12E
330
47
100
AcDbEntity
  8
0
  6
Continuous
 62
     7
100
AcDbSpline
210
0.0
220
0.0
230
1.0
 70
     8
 71
     3
 72
    15
 73
    11
 74
     9
 42
0.000000001
 43
0.0000000001
 44
0.00000001
 40
0.0
 40
0.0
 40
0.0
 40
0.0
 40
0.7142676959366425
 40
1.466467150908269
 40
2.218666605603349
 40
2.932934292283249
 40
3.576230762042723
 40
4.126302543944953
 40
4.580429156803097
 40
4.968508124450505
 40
4.968508124450505
 40
4.968508124450505
 40
4.968508124450505
 10
-10.10160154017513
 20
95.44227024831152
 30
0.0
 10
-10.33363557263611
 20
95.49737847160641
 30
0.0
 10
-10.81002599207178
 20
95.61052147877572
 30
0.0
 10
-11.55196407490806
 20
95.65115794022302
 30
0.0
 10
-12.29176356777207
 20
95.60552221107777
 30
0.0
 10
-12.98302834334901
 20
95.46579689166612
 30
0.0
 10
-13.58430684181734
 20
95.24389275829046
 30
0.0
 10
-14.04904875369684
 20
94.95148026086271
 30
0.0
 10
-14.38154854670605
 20
94.5984709482911
 30
0.0
 10
-14.42950414113991
 20
94.31647432427991
 30
0.0
 10
-14.45160154017511
 20
94.18653341282537
 30
0.0
 11
-10.10160154017513
 21
95.44227024831152
 31
0.0
 11
-10.80102650948545
 21
95.58712548753769
 31
0.0
 11
-11.55160154017501
 21
95.6365334128248
 31
0.0
 11
-12.30217657086457
 21
95.58712548753813
 31
0.0
 11
-13.0016015401749
 21
95.44227024831262
 31
0.0
 11
-13.60221065891152
 21
95.21183797219363
 31
0.0
 11
-14.0630752111498
 21
94.9115334128254
 31
0.0
 11
-14.35278568960125
 21
94.56182092817025
 31
0.0
 11
-14.45160154017511
 21
94.18653341282537
 31
0.0
  0
SPLINE
  5
12F
330
47
100
AcDbEntity
  8
0
  6
Continuous
 62
     7
100
AcDbSpline
210
0.0
220
0.0
230
1.0
 70
     8
 71
     3
 72
    15
 73
    11
 74
     9
 42
0.000000001
 43
0.0000000001
 44
0.00000001
 40
0.0
 40
0.0
 40
0.0
 40
0.0
 40
0.603509682600721
 40
1.196572590299378
 40
1.760455245369677
 40
2.278846019949428
 40
2.739774628830412
 40
3.138253043630233
 40
3.48018002479139
 40
3.786802039539911
 40
3.786802039539911
 40
3.786802039539911
 40
3.786802039539911
 10
-11.31288925676921
 20
92.59326431474805
 30
0.0
 10
-11.1115728045434
 20
92.58953531761652
 30
0.0
 10
-10.71242469541209
 20
92.58214187635261
 30
0.0
 10
-10.12774444914753
 20
92.64858096555416
 30
0.0
 10
-9.581225075312934
 20
92.76884886235396
 30
0.0
 10
-9.095815106006363
 20
92.94326900766066
 30
0.0
 10
-8.689325849309707
 20
93.16373484945511
 30
0.0
 10
-8.382891356364256
 20
93.42332518726283
 30
0.0
 10
-8.173477832414399
 20
93.71665112839419
 30
0.0
 10
-8.145187458835
 20
93.93384713912562
 30
0.0
 10
-8.13181229789268
 20
94.03653341283433
 30
0.0
 11
-11.31288925676921
 21
92.59326431474805
 31
0.0
 11
-10.70938352611534
 21
92.59544566926012
 31
0.0
 11
-10.11984804527524
 21
92.66003304610861
 31
0.0
 11
-9.569812775300019
 21
92.7842298676715
 31
0.0
 11
-9.083096643189545
 21
92.96265744885321
 31
0.0
 11
-8.680777313967491
 21
93.18758930380952
 31
0.0
 11
-8.380276629045618
 21
93.44928451704602
 31
0.0
 11
-8.194608416910965
 21
93.73641058481283
 31
0.0
 11
-8.13181229789268
 21
94.03653341283433
 31
0.0
  0
SPLINE
  5
130
330
47
100
AcDbEntity
  8
0
  6
Continuous
 62
     7
100
AcDbSpline
210
0.0
220
0.0
230
1.0
 70
     8
 71
     3
 72
    11
 73
     7
 74
     5
 42
0.000000001
 43
0.0000000001
 44
0.00000001
 40
0.0
 40
0.0
 40
0.0
 40
0.0
 40
0.2267504624627392
 40
0.4687516795135787
 40
0.7374140423507588
 40
1.03900978664036
 40
1.03900978664036
 40
1.03900978664036
 40
1.03900978664036
 10
-14.45160154017511
 20
94.18653341282537
 30
0.0
 10
-14.44451361585735
 20
94.11067408054352
 30
0.0
 10
-14.4298610339088
 20
93.95385328082983
 30
0.0
 10
-14.31559471836433
 20
93.73080805855562
 30
0.0
 10
-14.14288468684767
 20
93.52000679501806
 30
0.0
 10
-13.99112944569945
 20
93.40445795869383
 30
0.0
 10
-13.91086975775315
 20
93.34334697473318
 30
0.0
 11
-14.45160154017511
 21
94.18653341282537
 31
0.0
 11
-14.41676989253538
 21
93.96247420272562
 31
0.0
 11
-14.31311180006707
 21
93.74379729375644
 31
0.0
 11
-14.14311718875306
 21
93.53575571478505
 31
0.0
 11
-13.91086975775315
 21
93.34334697473318
 31
0.0
  0
SPLINE
  5
131
330
47
100
AcDbEntity
  8
0
  6
Continuous
 62
     7
100
AcDbSpline
210
0.0
220
0.0
230
1.0
 70
     8
 71
     3
 72
    13
 73
     9
 74
     7
 42
0.000000001
 43
0.0000000001
 44
0.00000001
 40
0.0
 40
0.0
 40
0.0
 40
0.0
 40
0.2794780709293184
 40
0.5491926934644115
 40
0.7942608272810491
 40
1.003866458939171
 40
1.175085468476051
 40
1.318904477963065
 40
1.318904477963065
 40
1.318904477963065
 40
1.318904477963065
 10
-6.12350552054982
 20
93.35079991992461
 30
0.0
 10
-6.216820566823427
 20
93.35228708154945
 30
0.0
 10
-6.40019073732973
 20
93.35520944717742
 30
0.0
 10
-6.662623657571715
 20
93.31254142109407
 30
0.0
 10
-6.894487341376706
 20
93.23870400290696
 30
0.0
 10
-7.075420464139498
 20
93.13533759087214
 30
0.0
 10
-7.206987473171128
 20
93.00748477933229
 30
0.0
 10
-7.226462382296114
 20
92.90206345184644
 30
0.0
 10
-7.235352928552942
 20
92.8539372232648
 30
0.0
 11
-6.12350552054982
 21
93.35079991992461
 31
0.0
 11
-6.402955869778586
 21
93.34686430907
 31
0.0
 11
-6.669307427272123
 21
93.30440461749018
 31
0.0
 11
-6.901743157991227
 21
93.22673852949087
 31
0.0
 11
-7.08209801968756
 21
93.11993663615837
 31
0.0
 11
-7.19627529843963
 21
92.99234548949107
 31
0.0
 11
-7.235352928552942
 21
92.8539372232648
 31
0.0
  0
SPLINE
  5
132
330
47
100
AcDbEntity
  8
0
  6
Continuous
 62
     7
100
AcDbSpline
210
0.0
220
0.0
230
1.0
 70
     8
 71
     3
 72
    11
 73
     7
 74
     5
 42
0.000000001
 43
0.0000000001
 44
0.00000001
 40
0.0
 40
0.0
 40
0.0
 40
0.0
 40
0.1609147873547952
 40
0.3003106167260616
 40
0.4204401833311632
 40
0.5286485643086676
 40
0.5286485643086676
 40
0.5286485643086676
 40
0.5286485643086676
 10
-4.315364121412287
 20
92.55951662385995
 30
0.0
 10
-4.363084044291109
 20
92.5345458103493
 30
0.0
 10
-4.452142350028321
 20
92.48794349140152
 30
0.0
 10
-4.557588546452489
 20
92.39446756547544
 30
0.0
 10
-4.629723765198006
 20
92.2907742443551
 30
0.0
 10
-4.639393165708756
 20
92.21428682657891
 30
0.0
 10
-4.643975446621397
 20
92.17803976352526
 30
0.0
 11
-4.315364121412287
 21
92.55951662385995
 31
0.0
 11
-4.454578816271656
 21
92.47881447618389
 31
0.0
 11
-4.558329662801921
 21
92.38571796756625
 31
0.0
 11
-4.622341062397588
 21
92.2840633826417
 31
0.0
 11
-4.643975446621397
 21
92.17803976352526
 31
0.0
  0
SPLINE
  5
133
330
47
100
AcDbEntity
  8
0
  6
Continuous
 62
     7
100
AcDbSpline
210
0.0
220
0.0
230
1.0
 70
     8
 71
     3
 72
     9
 73
     5
 74
     3
 42
0.000000001
 43
0.0000000001
 44
0.00000001
 40
0.0
 40
0.0
 40
0.0
 40
0.0
 40
0.0607831169940027
 40
0.1259174340424058
 40
0.1259174340424058
 40
0.1259174340424058
 40
0.1259174340424058
 10
-5.33396510968791
 20
92.6374308723265
 30
0.0
 10
-5.348498849293652
 20
92.65159507621199
 30
0.0
 10
-5.378606749186316
 20
92.68093742300523
 30
0.0
 10
-5.412930355470216
 20
92.70522421186617
 30
0.0
 10
-5.430685207922608
 20
92.7177872250708
 30
0.0
 11
-5.33396510968791
 21
92.6374308723265
 31
0.0
 11
-5.378548681041744
 21
92.67874542836184
 31
0.0
 11
-5.430685207922608
 21
92.7177872250708
 31
0.0
  0
SPLINE
  5
134
330
47
100
AcDbEntity
  8
0
  6
Continuous
 62
     7
100
AcDbSpline
210
0.0
220
0.0
230
1.0
 70
     8
 71
     3
 72
     9
 73
     5
 74
     3
 42
0.000000001
 43
0.0000000001
 44
0.00000001
 40
0.0
 40
0.0
 40
0.0
 40
0.0
 40
0.164089383971523
 40
0.366241727693861
 40
0.366241727693861
 40
0.366241727693861
 40
0.366241727693861
 10
-5.235352928552928
 20
92.85393722327355
 30
0.0
 10
-5.246985613818405
 20
92.90916889266217
 30
0.0
 10
-5.27294937545285
 20
93.03244402648747
 30
0.0
 10
-5.374585623342422
 20
93.10870603202052
 30
0.0
 10
-5.430685207924498
 20
93.15079992696403
 30
0.0
 11
-5.235352928552928
 21
92.85393722327355
 31
0.0
 11
-5.285441185838091
 21
93.01019500136019
 31
0.0
 11
-5.430685207924498
 21
93.15079992696403
 31
0.0
  0
SPLINE
  5
135
330
47
100
AcDbEntity
  8
0
  6
Continuous
 62
     7
100
AcDbSpline
210
0.0
220
0.0
230
1.0
 70
     8
 71
     3
 72
    17
 73
    13
 74
    11
 42
0.000000001
 43
0.0000000001
 44
0.00000001
 40
0.0
 40
0.0
 40
0.0
 40
0.0
 40
0.1701789767108549
 40
0.3791341961317082
 40
0.6388463247442886
 40
0.9409022076529315
 40
1.266385867528378
 40
1.591869527403824
 40
1.893925410312467
 40
2.153637538925058
 40
2.362592758345895
 40
2.53277173505676
 40
2.53277173505676
 40
2.53277173505676
 40
2.53277173505676
 10
-4.643975446621397
 20
92.17803976352526
 30
0.0
 10
-4.631922650885032
 20
92.12120672180022
 30
0.0
 10
-4.605070743224552
 20
91.99459091691507
 30
0.0
 10
-4.432426316937457
 20
91.85036696034439
 30
0.0
 10
-4.20180806058614
 20
91.7394666394259
 30
0.0
 10
-3.911723258446796
 20
91.66904324438441
 30
0.0
 10
-3.593975446621584
 20
91.64473991591363
 30
0.0
 10
-3.276227634796361
 20
91.66904324438424
 30
0.0
 10
-2.986142832656953
 20
91.73946663942544
 30
0.0
 10
-2.755524576305581
 20
91.85036696034382
 30
0.0
 10
-2.582880150018365
 20
91.99459091691438
 30
0.0
 10
-2.556028242357793
 20
92.12120672179947
 30
0.0
 10
-2.543975446621388
 20
92.17803976352454
 30
0.0
 11
-4.643975446621397
 21
92.17803976352526
 31
0.0
 11
-4.592583993423847
 21
92.0158059706839
 31
0.0
 11
-4.443443290715201
 21
91.86945250607155
 31
0.0
 11
-4.211149470001565
 21
91.75330617974264
 31
0.0
 11
-3.918443290715267
 21
91.6787350924699
 31
0.0
 11
-3.593975446621582
 21
91.65304018164267
 31
0.0
 11
-3.26950760252788
 21
91.6787350924697
 31
0.0
 11
-2.976801423241528
 21
91.75330617974221
 31
0.0
 11
-2.744507602527808
 21
91.86945250607099
 31
0.0
 11
-2.595366899819059
 21
92.0158059706832
 31
0.0
 11
-2.543975446621388
 21
92.17803976352454
 31
0.0
  0
SPLINE
  5
136
330
47
100
AcDbEntity
  8
0
  6
Continuous
 62
     7
100
AcDbSpline
210
0.0
220
0.0
230
1.0
 70
     8
 71
     3
 72
    23
 73
    19
 74
    17
 42
0.000000001
 43
0.0000000001
 44
0.00000001
 40
0.0
 40
0.0
 40
0.0
 40
0.0
 40
0.0972183112985826
 40
0.2030570940426426
 40
0.3037661336444883
 40
0.4210999959515136
 40
0.5381087288794664
 40
0.6497134995669211
 40
0.7529179368941019
 40
0.8792704335126759
 40
0.9838056094344587
 40
1.103860606848351
 40
1.222024958220677
 40
1.320463536173449
 40
1.430250283729569
 40
1.528381635350578
 40
1.633431483526191
 40
1.732773093846586
 40
1.732773093846586
 40
1.732773093846586
 40
1.732773093846586
 10
-13.91086975775452
 20
89.44623265775012
 30
0.0
 10
-13.91085610209283
 20
89.41382532479396
 30
0.0
 10
-13.91082756488467
 20
89.34613705951631
 30
0.0
 10
-13.90638938829447
 20
89.2449190413565
 30
0.0
 10
-13.89462538445829
 20
89.1375206769572
 30
0.0
 10
-13.87421402964633
 20
89.02759263302191
 30
0.0
 10
-13.84422504376446
 20
88.91612430904826
 30
0.0
 10
-13.8075004012838
 20
88.81168617823785
 30
0.0
 10
-13.76226265574779
 20
88.70726149640312
 30
0.0
 10
-13.71015223142323
 20
88.60866745444633
 30
0.0
 10
-13.6470207128846
 20
88.51005295069906
 30
0.0
 10
-13.57710728709695
 20
88.41945125327231
 30
0.0
 10
-13.49952250954208
 20
88.33804970004228
 30
0.0
 10
-13.4164066569561
 20
88.2675781812377
 30
0.0
 10
-13.33151283797159
 20
88.21036237125435
 30
0.0
 10
-13.23879429534834
 20
88.1621592016462
 30
0.0
 10
-13.14498320715129
 20
88.12472200423537
 30
0.0
 10
-13.07987992621081
 20
88.10459243735681
 30
0.0
 10
-13.04823738470754
 20
88.09480874954237
 30
0.0
 11
-13.91086975775452
 21
89.44623265775012
 31
0.0
 11
-13.91015527407432
 21
89.3490169727679
 31
0.0
 11
-13.9051369603936
 21
89.24329722776507
 31
0.0
 11
-13.89408505371132
 21
89.14319644837755
 31
0.0
 11
-13.87268049229506
 21
89.02783146225468
 31
0.0
 11
-13.84231987510073
 21
88.91483023857859
 31
0.0
 11
-13.80529954593241
 21
88.80954434140932
 31
0.0
 11
-13.76424741046213
 21
88.71485602030532
 31
0.0
 11
-13.70509562941434
 21
88.60320468621975
 31
0.0
 11
-13.64864078017511
 21
88.51522484092749
 31
0.0
 11
-13.57511947115843
 21
88.42031530612127
 31
0.0
 11
-13.49341683380418
 21
88.33494849009043
 31
0.0
 11
-13.41825148978464
 21
88.27138493998136
 31
0.0
 11
-13.32717302795074
 21
88.21008368386453
 31
0.0
 11
-13.24018799035871
 21
88.16465939937868
 31
0.0
 11
-13.14275814407648
 21
88.12537968567146
 31
0.0
 11
-13.04823738470754
 21
88.09480874954237
 31
0.0
  0
SPLINE
  5
137
330
47
100
AcDbEntity
  8
0
  6
Continuous
 62
     7
100
AcDbSpline
210
0.0
220
0.0
230
1.0
 70
     8
 71
     3
 72
    25
 73
    21
 74
    19
 42
0.000000001
 43
0.0000000001
 44
0.00000001
 40
0.0
 40
0.0
 40
0.0
 40
0.0
 40
0.0244011279951623
 40
0.0488026490141342
 40
0.1484500308627976
 40
0.2553209284104611
 40
0.3560718548668628
 40
0.4688944239075458
 40
0.5689536806522428
 40
0.6908114545773142
 40
0.7908596152603413
 40
0.9183302088849072
 40
1.019770583756728
 40
1.144246841213666
 40
1.266347157111408
 40
1.363835085976684
 40
1.474827418784156
 40
1.572516424595125
 40
1.676106288040301
 40
1.772383910063066
 40
1.772383910063066
 40
1.772383910063066
 40
1.772383910063066
 10
-13.00160204361356
 20
88.08105446221987
 30
0.0
 10
-13.00941664235847
 20
88.08331043525592
 30
0.0
 10
-13.02504596171575
 20
88.08782243152315
 30
0.0
 10
-13.07258852507626
 20
88.10154394722694
 30
0.0
 10
-13.14653330108152
 20
88.12293928022045
 30
0.0
 10
-13.24357539999331
 20
88.15592206274493
 30
0.0
 10
-13.34201411075948
 20
88.1976547471594
 30
0.0
 10
-13.4345343165758
 20
88.24667225571102
 30
0.0
 10
-13.52826003579828
 20
88.30742861288778
 30
0.0
 10
-13.61289125156442
 20
88.37371623646159
 30
0.0
 10
-13.6981532951957
 20
88.45319008833839
 30
0.0
 10
-13.77177098500732
 20
88.53470695329675
 30
0.0
 10
-13.84291976098446
 20
88.62872075968434
 30
0.0
 10
-13.90461760758538
 20
88.72719360357026
 30
0.0
 10
-13.95527848400312
 20
88.83033842862811
 30
0.0
 10
-13.9937406287521
 20
88.9337590276651
 30
0.0
 10
-14.01943300092845
 20
89.03275656789955
 30
0.0
 10
-14.03495680626855
 20
89.13583746721812
 30
0.0
 10
-14.04078357549891
 20
89.23496108396152
 30
0.0
 10
-14.04081614577892
 20
89.30158768482762
 30
0.0
 10
-14.04083182807491
 20
89.33368220332271
 30
0.0
 11
-13.00160204361356
 21
88.08105446221987
 31
0.0
 11
-13.02504588934626
 21
88.08782211670177
 31
0.0
 11
-13.04849011249813
 21
88.09458988085547
 31
0.0
 11
-13.14400877347238
 21
88.12297625379749
 31
0.0
 11
-13.24503365788834
 21
88.15783828974261
 31
0.0
 11
-13.33772597817633
 21
88.19732098238076
 31
0.0
 11
-13.43740257052669
 21
88.25017463998033
 31
0.0
 11
-13.52138337514087
 21
88.30457206083517
 31
0.0
 11
-13.61736486557532
 21
88.37965115702434
 31
0.0
 11
-13.69057018623345
 21
88.44784657897974
 31
0.0
 11
-13.77600229532157
 21
88.54245158493207
 31
0.0
 11
-13.83718643955504
 21
88.62336295792284
 31
0.0
 11
-13.90315107912519
 21
88.72892339193467
 31
0.0
 11
-13.95680491852075
 21
88.83860362222741
 31
0.0
 11
-13.99069098838527
 21
88.93001276137787
 31
0.0
 11
-14.01853022540408
 21
89.03745704955685
 31
0.0
 11
-14.03323490472665
 21
89.13403300123609
 31
0.0
 11
-14.03988416485338
 21
89.23740924288373
 31
0.0
 11
-14.04083182807491
 21
89.33368220332271
 31
0.0
  0
SPLINE
  5
138
330
47
100
AcDbEntity
  8
0
  6
Continuous
 62
     7
100
AcDbSpline
210
0.0
220
0.0
230
1.0
 70
     8
 71
     3
 72
    11
 73
     7
 74
     5
 42
0.000000001
 43
0.0000000001
 44
0.00000001
 40
0.0
 40
0.0
 40
0.0
 40
0.0
 40
0.0121175349767048
 40
0.024264617864066
 40
0.0364347031799388
 40
0.0486216022195227
 40
0.0486216022195227
 40
0.0486216022195227
 40
0.0486216022195227
 10
-13.04823738470754
 20
88.09480874954237
 30
0.0
 10
-13.04436892312325
 20
88.09364685776593
 30
0.0
 10
-13.03662256262862
 20
88.09132025538491
 30
0.0
 10
-13.02497798072149
 20
88.0878702009815
 30
0.0
 10
-13.01330268513749
 20
88.0844425524177
 30
0.0
 10
-13.00550405332574
 20
88.08218434043299
 30
0.0
 10
-13.00160204361356
 20
88.08105446221987
 30
0.0
 11
-13.04823738470754
 21
88.09480874954237
 31
0.0
 11
-13.0366298424753
 21
88.09133029908517
 31
0.0
 11
-13.02498391481615
 21
88.08787718565648
 31
0.0
 11
-13.01330596740801
 21
88.0844513249406
 31
0.0
 11
-13.00160204361356
 21
88.08105446221987
 31
0.0
  0
SPLINE
  5
139
330
47
100
AcDbEntity
  8
0
  6
Continuous
 62
     7
100
AcDbSpline
210
0.0
220
0.0
230
1.0
 70
     8
 71
     3
 72
    15
 73
    11
 74
     9
 42
0.000000001
 43
0.0000000001
 44
0.00000001
 40
0.0
 40
0.0
 40
0.0
 40
0.0
 40
0.1569776550871748
 40
0.3456862717534794
 40
0.577929516893632
 40
0.8491932741118423
 40
1.145980603244167
 40
1.450377820892112
 40
1.743298286986013
 40
2.007447478457839
 40
2.007447478457839
 40
2.007447478457839
 40
2.007447478457839
 10
-2.543975446621388
 20
92.17803976352454
 30
0.0
 10
-2.554117887106989
 20
92.2305422054748
 30
0.0
 10
-2.576452940807833
 20
92.34615975939482
 30
0.0
 10
-2.725070421863753
 20
92.48377990186654
 30
0.0
 10
-2.927590294882524
 20
92.59329000988322
 30
0.0
 10
-3.185671614458034
 20
92.66935379534664
 30
0.0
 10
-3.474957542277054
 20
92.70707596905696
 30
0.0
 10
-3.773600920165865
 20
92.70170060452725
 30
0.0
 10
-4.059787386316343
 20
92.65963140432008
 30
0.0
 10
-4.233156574255537
 20
92.59171905132575
 30
0.0
 10
-4.315364121412287
 20
92.55951662385995
 30
0.0
 11
-2.543975446621388
 21
92.17803976352454
 31
0.0
 11
-2.588128148300735
 21
92.32868014897656
 31
0.0
 11
-2.71687105474824
 21
92.46665191059971
 31
0.0
 11
-2.919378777493002
 21
92.58035127978316
 31
0.0
 11
-3.178619038539317
 21
92.6602168716152
 31
0.0
 11
-3.472790933065004
 21
92.69953118342794
 31
0.0
 11
-3.777154258072819
 21
92.69498887200562
 31
0.0
 11
-4.066112174669204
 21
92.64697094197345
 31
0.0
 11
-4.315364121412287
 21
92.55951662385995
 31
0.0
  0
SPLINE
  5
13A
330
47
100
AcDbEntity
  8
0
  6
Continuous
 62
     7
100
AcDbSpline
210
0.0
220
0.0
230
1.0
 70
     8
 71
     3
 72
    11
 73
     7
 74
     5
 42
0.000000001
 43
0.0000000001
 44
0.00000001
 40
0.0
 40
0.0
 40
0.0
 40
0.0
 40
1.772801100347811
 40
3.633850905040381
 40
5.588997060627949
 40
7.633055530855388
 40
7.633055530855388
 40
7.633055530855388
 40
7.633055530855388
 10
2.630766814519333
 20
83.3309095432098
 30
0.0
 10
2.445410393160945
 20
82.76766446092103
 30
0.0
 10
2.065470661790281
 20
81.61313637614307
 30
0.0
 10
1.934320058683449
 20
79.73942187588659
 30
0.0
 10
2.085559263977995
 20
77.78247583958122
 30
0.0
 10
2.446357146545716
 20
76.49596823661382
 30
0.0
 10
2.630766814546362
 20
75.83841329703291
 30
0.0
 11
2.630766814519333
 21
83.3309095432098
 31
0.0
 11
2.144830042472602
 21
81.62600802124864
 31
0.0
 11
1.981247761705945
 21
79.77216142011306
 31
0.0
 11
2.144830042486314
 21
77.82387054514078
 31
0.0
 11
2.630766814546362
 21
75.83841329703291
 31
0.0
  0
SPLINE
  5
13B
330
47
100
AcDbEntity
  8
0
  6
Continuous
 62
     7
100
AcDbSpline
210
0.0
220
0.0
230
1.0
 70
     8
 71
     3
 72
    11
 73
     7
 74
     5
 42
0.000000001
 43
0.0000000001
 44
0.00000001
 40
0.0
 40
0.0
 40
0.0
 40
0.0
 40
1.772801100347801
 40
3.633850905040386
 40
5.588997060627953
 40
7.633055530855392
 40
7.633055530855392
 40
7.633055530855392
 40
7.633055530855392
 10
2.130766813834669
 20
82.89789684071863
 30
0.0
 10
1.945410392476276
 20
82.33465175842987
 30
0.0
 10
1.565470661105598
 20
81.18012367365192
 30
0.0
 10
1.434320057998771
 20
79.30640917339544
 30
0.0
 10
1.585559263293315
 20
77.34946313709003
 30
0.0
 10
1.946357145861038
 20
76.06295553412266
 30
0.0
 10
2.130766813861683
 20
75.40540059454175
 30
0.0
 11
2.130766813834669
 21
82.89789684071863
 31
0.0
 11
1.644830041787925
 21
81.19299531875748
 31
0.0
 11
1.481247761021266
 21
79.3391487176219
 31
0.0
 11
1.644830041801635
 21
77.39085784264961
 31
0.0
 11
2.130766813861683
 21
75.40540059454175
 31
0.0
  0
SPLINE
  5
13C
330
47
100
AcDbEntity
  8
0
  6
Continuous
 62
     7
100
AcDbSpline
210
0.0
220
0.0
230
1.0
 70
     8
 71
     3
 72
    13
 73
     9
 74
     7
 42
0.000000001
 43
0.0000000001
 44
0.00000001
 40
0.0
 40
0.0
 40
0.0
 40
0.0
 40
0.2416821362342611
 40
0.4983365525325354
 40
0.7677752575423475
 40
1.045877374903263
 40
1.327343331823352
 40
1.606440474312097
 40
1.606440474312097
 40
1.606440474312097
 40
1.606440474312097
 10
-0.6875736593899973
 20
78.8718892120247
 30
0.0
 10
-0.6816215731942322
 20
78.95254402633736
 30
0.0
 10
-0.6693486820403945
 20
79.11885024505798
 30
0.0
 10
-0.7198728456502512
 20
79.37251130694861
 30
0.0
 10
-0.8155068403416237
 20
79.62399918570064
 30
0.0
 10
-0.958260964831607
 20
79.86196125458838
 30
0.0
 10
-1.137374770815868
 20
80.07897335747577
 30
0.0
 10
-1.283776975621434
 20
80.19576596824379
 30
0.0
 10
-1.356668751264721
 20
80.25391549835686
 30
0.0
 11
-0.6875736593899973
 21
78.8718892120247
 31
0.0
 11
-0.6803171740215848
 21
79.11346238793958
 31
0.0
 11
-0.7256817633731636
 21
79.36607581780943
 31
0.0
 11
-0.8215408798301476
 21
79.61788575966908
 31
0.0
 11
-0.9633998224230782
 21
79.85708615450514
 31
0.0
 11
-1.144607842612578
 21
80.07246196256453
 31
0.0
 11
-1.356668751264721
 21
80.25391549835686
 31
0.0
  0
SPLINE
  5
13D
330
47
100
AcDbEntity
  8
0
  6
Continuous
 62
     7
100
AcDbSpline
210
0.0
220
0.0
230
1.0
 70
     8
 71
     3
 72
    13
 73
     9
 74
     7
 42
0.000000001
 43
0.0000000001
 44
0.00000001
 40
0.0
 40
0.0
 40
0.0
 40
0.0
 40
0.1172631642635113
 40
0.241930737821177
 40
0.3712960139459845
 40
0.5017221147108328
 40
0.629373771144766
 40
0.7509434390754208
 40
0.7509434390754208
 40
0.7509434390754208
 40
0.7509434390754208
 10
-1.137053509016361
 20
81.49506159216162
 30
0.0
 10
-1.133979134762181
 20
81.45591122963718
 30
0.0
 10
-1.127636244744073
 20
81.37513841466142
 30
0.0
 10
-1.081766211642705
 20
81.25849050035166
 30
0.0
 10
-1.013496732160683
 20
81.1492827496173
 30
0.0
 10
-0.9238983119723191
 20
81.05534434401527
 30
0.0
 10
-0.8204963774295015
 20
80.9799413141507
 30
0.0
 10
-0.7422226022704737
 20
80.95111184265423
 30
0.0
 10
-0.7040408071226381
 20
80.93704889027069
 30
0.0
 11
-1.137053509016361
 21
81.49506159216162
 31
0.0
 11
-1.122298847482965
 21
81.37873038411563
 31
0.0
 11
-1.079040807123949
 21
81.26180841668872
 31
0.0
 11
-1.010226943340597
 21
81.15226378002856
 31
0.0
 11
-0.9205471580695104
 21
81.05756159216224
 31
0.0
 11
-0.8161127112650188
 21
80.98415592381619
 31
0.0
 11
-0.7040408071226381
 21
80.93704889027069
 31
0.0
  0
SPLINE
  5
13E
330
47
100
AcDbEntity
  8
0
  6
Continuous
 62
     7
100
AcDbSpline
210
0.0
220
0.0
230
1.0
 70
     8
 71
     3
 72
    13
 73
     9
 74
     7
 42
0.000000001
 43
0.0000000001
 44
0.00000001
 40
0.0
 40
0.0
 40
0.0
 40
0.0
 40
0.2416821362342895
 40
0.4983365525325498
 40
0.7677752575423753
 40
1.045877374903279
 40
1.327343331823375
 40
1.60644047431211
 40
1.60644047431211
 40
1.60644047431211
 40
1.60644047431211
 10
-0.9875736593868467
 20
78.61208159088848
 30
0.0
 10
-0.9816215731910807
 20
78.69273640520116
 30
0.0
 10
-0.9693486820372414
 20
78.85904262392178
 30
0.0
 10
-1.019872845647106
 20
79.1127036858124
 30
0.0
 10
-1.115506840338464
 20
79.36419156456444
 30
0.0
 10
-1.258260964828467
 20
79.60215363345218
 30
0.0
 10
-1.437374770812702
 20
79.81916573633961
 30
0.0
 10
-1.583776975618274
 20
79.93595834710756
 30
0.0
 10
-1.656668751261563
 20
79.99410787722066
 30
0.0
 11
-0.9875736593868467
 21
78.61208159088848
 31
0.0
 11
-0.9803171740184342
 21
78.85365476680339
 31
0.0
 11
-1.025681763370013
 21
79.10626819667323
 31
0.0
 11
-1.121540879826997
 21
79.35807813853289
 31
0.0
 11
-1.263399822419927
 21
79.59727853336894
 31
0.0
 11
-1.444607842609421
 21
79.81265434142834
 31
0.0
 11
-1.656668751261563
 21
79.99410787722066
 31
0.0
  0
SPLINE
  5
13F
330
47
100
AcDbEntity
  8
0
  6
Continuous
 62
     7
100
AcDbSpline
210
0.0
220
0.0
230
1.0
 70
     8
 71
     3
 72
    11
 73
     7
 74
     5
 42
0.000000001
 43
0.0000000001
 44
0.00000001
 40
0.0
 40
0.0
 40
0.0
 40
0.0
 40
1.308988763692212
 40
2.664373091717149
 40
4.065248081292079
 40
5.508289492597746
 40
5.508289492597746
 40
5.508289492597746
 40
5.508289492597746
 10
-0.9875736593868467
 20
78.61208159088848
 30
0.0
 10
-1.033707802381393
 20
78.17758050679063
 30
0.0
 10
-1.12761124368836
 20
77.29317795855074
 30
0.0
 10
-1.05598085100939
 20
75.93546039872697
 30
0.0
 10
-0.8465790172817045
 20
74.54816491811272
 30
0.0
 10
-0.5796676227960593
 20
73.63747930172632
 30
0.0
 10
-0.4442331859593907
 20
73.1753851799209
 30
0.0
 11
-0.9875736593868467
 21
78.61208159088848
 31
0.0
 11
-1.091979198407179
 21
77.30726318631815
 31
0.0
 11
-1.035290420412547
 21
75.9530648764036
 31
0.0
 11
-0.8183279681165447
 21
74.56909304367274
 31
0.0
 11
-0.4442331859593907
 21
73.1753851799209
 31
0.0
  0
SPLINE
  5
140
330
47
100
AcDbEntity
  8
0
  6
Continuous
 62
     7
100
AcDbSpline
210
0.0
220
0.0
230
1.0
 70
     8
 71
     3
 72
    11
 73
     7
 74
     5
 42
0.000000001
 43
0.0000000001
 44
0.00000001
 40
0.0
 40
0.0
 40
0.0
 40
0.0
 40
0.0935705952111869
 40
0.1815181363981788
 40
0.2647690944705282
 40
0.3453217744518527
 40
0.3453217744518527
 40
0.3453217744518527
 40
0.3453217744518527
 10
-1.669880029177207
 20
82.34752086179037
 30
0.0
 10
-1.70041033643368
 20
82.35456126210678
 30
0.0
 10
-1.759636257581443
 20
82.36821896082677
 30
0.0
 10
-1.848668533188215
 20
82.36374547175193
 30
0.0
 10
-1.930905768705179
 20
82.34078085728842
 30
0.0
 10
-1.975350542709315
 20
82.3083975657193
 30
0.0
 10
-1.99720686453233
 20
82.29247263290641
 30
0.0
 11
-1.669880029177207
 21
82.34752086179037
 31
0.0
 11
-1.761952470319577
 21
82.36419785007078
 31
0.0
 11
-1.849813956971136
 21
82.3603081758753
 31
0.0
 11
-1.929446067286285
 21
82.33602959477811
 31
0.0
 11
-1.99720686453233
 21
82.29247263290641
 31
0.0
  0
SPLINE
  5
141
330
47
100
AcDbEntity
  8
0
  6
Continuous
 62
     7
100
AcDbSpline
210
0.0
220
0.0
230
1.0
 70
     8
 71
     3
 72
    13
 73
     9
 74
     7
 42
0.000000001
 43
0.0000000001
 44
0.00000001
 40
0.0
 40
0.0
 40
0.0
 40
0.0
 40
0.1172631642634984
 40
0.2419307378211634
 40
0.3712960139459572
 40
0.5017221147108155
 40
0.6293737711447506
 40
0.7509434390753996
 40
0.7509434390753996
 40
0.7509434390753996
 40
0.7509434390753996
 10
-1.13705350901634
 20
81.76069439247716
 30
0.0
 10
-1.140127883270525
 20
81.79984475500162
 30
0.0
 10
-1.146470773288643
 20
81.88061756997733
 30
0.0
 10
-1.192340806389999
 20
81.99726548428714
 30
0.0
 10
-1.260610285872032
 20
82.10647323502143
 30
0.0
 10
-1.350208706060381
 20
82.20041164062354
 30
0.0
 10
-1.453610640603204
 20
82.27581467048805
 30
0.0
 10
-1.53188441576223
 20
82.30464414198453
 30
0.0
 10
-1.570066210910063
 20
82.31870709436808
 30
0.0
 11
-1.13705350901634
 21
81.76069439247716
 31
0.0
 11
-1.151808170549745
 21
81.87702560052314
 31
0.0
 11
-1.19506621090876
 21
81.99394756795004
 31
0.0
 11
-1.263880074692108
 21
82.10349220461019
 31
0.0
 11
-1.353559859963195
 21
82.19819439247652
 31
0.0
 11
-1.457994306767688
 21
82.27160006082258
 31
0.0
 11
-1.570066210910063
 21
82.31870709436808
 31
0.0
  0
SPLINE
  5
142
330
47
100
AcDbEntity
  8
0
  6
Continuous
 62
     7
100
AcDbSpline
210
0.0
220
0.0
230
1.0
 70
     8
 71
     3
 72
    11
 73
     7
 74
     5
 42
0.000000001
 43
0.0000000001
 44
0.00000001
 40
0.0
 40
0.0
 40
0.0
 40
0.0
 40
1.308988763692212
 40
2.664373091717163
 40
4.065248081292122
 40
5.508289492597763
 40
5.508289492597763
 40
5.508289492597763
 40
5.508289492597763
 10
-0.6875736593899973
 20
78.8718892120247
 30
0.0
 10
-0.7337078023845416
 20
78.43738812792688
 30
0.0
 10
-0.8276112436915057
 20
77.55298557968692
 30
0.0
 10
-0.7559808510125412
 20
76.19526801986316
 30
0.0
 10
-0.5465790172848546
 20
74.80797253924891
 30
0.0
 10
-0.2796676227991985
 20
73.89728692286252
 30
0.0
 10
-0.144233185962527
 20
73.4351928010571
 30
0.0
 11
-0.6875736593899973
 21
78.8718892120247
 31
0.0
 11
-0.7919791984103264
 21
77.56707080745437
 31
0.0
 11
-0.7352904204156978
 21
76.2128724975398
 31
0.0
 11
-0.5183279681196882
 21
74.82890066480891
 31
0.0
 11
-0.144233185962527
 21
73.4351928010571
 31
0.0
  0
ENDBLK
  5
49
330
47
100
AcDbEntity
  8
0
100
AcDbBlockEnd
  0
BLOCK
  5
4C
330
4A
100
AcDbEntity
  8
0
100
AcDbBlockBegin
  2
Allg1
 70
     0
 10
-7.99999999999979
 20
75.0
 30
0.0
  3
Allg1
  1

  0
INSERT
  5
4B
330
4A
100
AcDbEntity
  8
0
100
AcDbBlockReference
  2
PP_H_4_1_R_GNYE-select__1
 10
-18.63076666568003
 20
55.08715248165451
 30
0.0
  0
MTEXT
  5
144
330
4A
100
AcDbEntity
  8
1
 62
     6
100
AcDbMText
 10
-8.150706129176
 20
47.60555484624751
 30
0.0
 40
5.0
 41
0.0
 71
     2
 72
     1
  1
 
  7
CONVERTER_11
 73
     1
 44
1.32052821128451
  0
ENDBLK
  5
4D
330
4A
100
AcDbEntity
  8
0
100
AcDbBlockEnd
  0
BLOCK
  5
4F
330
4E
100
AcDbEntity
  8
0
100
AcDbBlockBegin
  2
PP_H_4_1_R_GNYE-select__2
 70
     0
 10
-113.8625429283034
 20
85.37597502394257
 30
0.0
  3
PP_H_4_1_R_GNYE-select__2
  1

  0
LINE
  5
145
330
4E
100
AcDbEntity
  8
0
  6
Continuous
 62
     7
100
AcDbLine
 10
-108.5625429277499
 20
86.8759750251256
 30
0.0
 11
-108.5625429530747
 21
90.675975023857
 31
0.0
  0
LINE
  5
146
330
4E
100
AcDbEntity
  8
0
  6
Continuous
 62
     7
100
AcDbLine
 10
-106.7625429275634
 20
85.37644031581493
 30
0.0
 11
-107.3625435086066
 21
85.37597502398204
 31
0.0
  0
LINE
  5
147
330
4E
100
AcDbEntity
  8
0
  6
Continuous
 62
     7
100
AcDbLine
 10
-107.3625435086066
 20
85.37597502398204
 30
0.0
 11
-108.5625427002209
 21
85.37597502397483
 31
0.0
  0
LINE
  5
148
330
4E
100
AcDbEntity
  8
0
  6
Continuous
 62
     2
100
AcDbLine
 10
-106.7625429275574
 20
86.87597502510697
 30
0.0
 11
-106.7625429275634
 21
85.37644031581493
 31
0.0
  0
LINE
  5
149
330
4E
100
AcDbEntity
  8
0
  6
Continuous
 62
     7
100
AcDbLine
 10
-106.7082987907869
 20
85.37648238136728
 30
0.0
 11
-106.7625429275634
 21
85.37644031581493
 31
0.0
  0
LINE
  5
14A
330
4E
100
AcDbEntity
  8
0
  6
Continuous
 62
     7
100
AcDbLine
 10
-108.7125429278754
 20
90.67597502385709
 30
0.0
 11
-108.7125429278663
 21
86.87597502512776
 31
0.0
  0
LINE
  5
14B
330
4E
100
AcDbEntity
  8
0
  6
Continuous
 62
     7
100
AcDbLine
 10
-108.3125429311937
 20
86.87597502512227
 30
0.0
 11
-108.3125429541866
 21
90.67597502385692
 31
0.0
  0
LINE
  5
14C
330
4E
100
AcDbEntity
  8
0
  6
Continuous
 62
     7
100
AcDbLine
 10
-105.5625429278464
 20
85.37597502399322
 30
0.0
 11
-107.3625435086066
 21
85.37597502398204
 31
0.0
  0
LINE
  5
14D
330
4E
100
AcDbEntity
  8
0
  6
Continuous
 62
     7
100
AcDbLine
 10
-105.5625429278464
 20
85.37597502399322
 30
0.0
 11
-105.5625429278474
 21
85.6357081381413
 31
0.0
  0
LINE
  5
14E
330
4E
100
AcDbEntity
  8
0
  6
Continuous
 62
     7
100
AcDbLine
 10
-106.2625429283368
 20
86.8759750251017
 30
0.0
 11
-106.7625429275574
 21
86.87597502510697
 31
0.0
  0
LINE
  5
14F
330
4E
100
AcDbEntity
  8
0
  6
Continuous
 62
     7
100
AcDbLine
 10
-108.5625427002225
 20
85.63589916461831
 30
0.0
 11
-108.5625427002209
 21
85.37597502397483
 31
0.0
  0
LINE
  5
150
330
4E
100
AcDbEntity
  8
0
  6
Continuous
 62
     7
100
AcDbLine
 10
-108.762542926879
 20
86.87597502512833
 30
0.0
 11
-109.4131525930028
 21
86.22536535900429
 31
0.0
  0
LINE
  5
151
330
4E
100
AcDbEntity
  8
0
  6
Continuous
 62
     7
100
AcDbLine
 10
-113.00251065148
 20
85.3759750239478
 30
0.0
 11
-112.78681692873
 21
85.37597502394941
 31
0.0
  0
LINE
  5
152
330
4E
100
AcDbEntity
  8
0
  6
Continuous
 62
     7
100
AcDbLine
 10
-112.78681692873
 20
85.37597502394941
 30
0.0
 11
-112.6357252897671
 21
85.37597502395039
 31
0.0
  0
LINE
  5
153
330
4E
100
AcDbEntity
  8
0
  6
Continuous
 62
     7
100
AcDbLine
 10
-103.3125429281587
 20
86.8759750240554
 30
0.0
 11
-101.9125429279561
 21
86.87597502406001
 31
0.0
  0
LINE
  5
154
330
4E
100
AcDbEntity
  8
0
  6
Continuous
 62
     7
100
AcDbLine
 10
-101.9125429279654
 20
87.85945988511
 30
0.0
 11
-101.9125429279561
 21
86.87597502406001
 31
0.0
  0
LINE
  5
155
330
4E
100
AcDbEntity
  8
0
  6
Continuous
 62
     7
100
AcDbLine
 10
-106.7625429275661
 20
90.67597502385723
 30
0.0
 11
-106.2625429283286
 21
90.67597502385726
 31
0.0
  0
LINE
  5
156
330
4E
100
AcDbEntity
  8
0
  6
Continuous
 62
     7
100
AcDbLine
 10
-101.9125429279561
 20
86.87597502406001
 30
0.0
 11
-101.112542927887
 21
86.87597502405282
 31
0.0
  0
LINE
  5
157
330
4E
100
AcDbEntity
  8
0
  6
Continuous
 62
     7
100
AcDbLine
 10
-101.112542927887
 20
86.87597502405282
 30
0.0
 11
-101.1125429278964
 21
87.85945988512533
 31
0.0
  0
LINE
  5
158
330
4E
100
AcDbEntity
  8
0
  6
Continuous
 62
     7
100
AcDbLine
 10
-101.1125429439732
 20
89.6924901700787
 30
0.0
 11
-101.1125429261026
 21
90.67597502385709
 31
0.0
  0
LINE
  5
159
330
4E
100
AcDbEntity
  8
0
  6
Continuous
 62
     7
100
AcDbLine
 10
-101.9125429279186
 20
90.67597502386751
 30
0.0
 11
-101.9125429279288
 21
89.69249016309351
 31
0.0
  0
LINE
  5
15A
330
4E
100
AcDbEntity
  8
0
  6
Continuous
 62
     7
100
AcDbLine
 10
-99.51254292754506
 20
90.67597502385817
 30
0.0
 11
-101.1125429261026
 21
90.67597502385709
 31
0.0
  0
LINE
  5
15B
330
4E
100
AcDbEntity
  8
0
  6
Continuous
 62
     7
100
AcDbLine
 10
-101.1125429261026
 20
90.67597502385709
 30
0.0
 11
-101.9125429279186
 21
90.67597502386751
 31
0.0
  0
LINE
  5
15C
330
4E
100
AcDbEntity
  8
0
  6
Continuous
 62
     7
100
AcDbLine
 10
-93.72257498636836
 20
91.52597502501634
 30
0.0
 11
-93.9382686912474
 21
91.52597502509994
 31
0.0
  0
LINE
  5
15D
330
4E
100
AcDbEntity
  8
0
  6
Continuous
 62
     7
100
AcDbLine
 10
-93.9382686912474
 20
91.52597502509994
 30
0.0
 11
-94.08936032854882
 21
91.52597502511426
 31
0.0
  0
LINE
  5
15E
330
4E
100
AcDbEntity
  8
0
  6
Continuous
 62
     7
100
AcDbLine
 10
-92.86254292816668
 20
91.52597502503119
 30
0.0
 11
-92.86254292812943
 21
85.37597502406976
 31
0.0
  0
LINE
  5
15F
330
4E
100
AcDbEntity
  8
0
  6
Continuous
 62
     2
100
AcDbLine
 10
-106.7625429275661
 20
90.67597502385723
 30
0.0
 11
-106.7625429274819
 21
91.17597502419821
 31
0.0
  0
LINE
  5
160
330
4E
100
AcDbEntity
  8
0
  6
Continuous
 62
     7
100
AcDbLine
 10
-106.7307745404048
 20
91.17597502443479
 30
0.0
 11
-106.7625429274819
 21
91.17597502419821
 31
0.0
  0
LINE
  5
161
330
4E
100
AcDbEntity
  8
0
  6
Continuous
 62
     7
100
AcDbLine
 10
-93.72257498636836
 20
91.52597502501634
 30
0.0
 11
-93.7225749863311
 21
85.37597502406456
 31
0.0
  0
LINE
  5
162
330
4E
100
AcDbEntity
  8
0
  6
Continuous
 62
     7
100
AcDbLine
 10
-101.112542927887
 20
86.87597502405282
 30
0.0
 11
-99.5125429275342
 21
86.8759750240672
 31
0.0
  0
LINE
  5
163
330
4E
100
AcDbEntity
  8
0
  6
Continuous
 62
     7
100
AcDbLine
 10
-98.15930108679967
 20
87.77071665611754
 30
0.0
 11
-98.15930108680475
 21
89.78123339178455
 31
0.0
  0
LINE
  5
164
330
4E
100
AcDbEntity
  8
0
  6
Continuous
 62
     7
100
AcDbLine
 10
-99.5125429275342
 20
86.8759750240672
 30
0.0
 11
-99.51254292753651
 21
87.77597502406547
 31
0.0
  0
LINE
  5
165
330
4E
100
AcDbEntity
  8
0
  6
Continuous
 62
     7
100
AcDbLine
 10
-99.51254292754275
 20
89.77597502390756
 30
0.0
 11
-99.51254292754506
 21
90.67597502385817
 31
0.0
  0
LINE
  5
166
330
4E
100
AcDbEntity
  8
0
  6
Continuous
 62
     7
100
AcDbLine
 10
-103.3125429281686
 20
90.67597502386764
 30
0.0
 11
-103.3125429281587
 21
86.8759750240554
 31
0.0
  0
LINE
  5
167
330
4E
100
AcDbEntity
  8
0
  6
Continuous
 62
     7
100
AcDbLine
 10
-101.9125429279186
 20
90.67597502386751
 30
0.0
 11
-103.3125429281686
 21
90.67597502386764
 31
0.0
  0
LINE
  5
168
330
4E
100
AcDbEntity
  8
0
  6
Continuous
 62
     7
100
AcDbLine
 10
-99.51254292753651
 20
87.77597502406547
 30
0.0
 11
-99.61254292770485
 21
87.87597502423405
 31
0.0
  0
LINE
  5
169
330
4E
100
AcDbEntity
  8
0
  6
Continuous
 62
     7
100
AcDbLine
 10
-99.61254292770485
 20
87.87597502423405
 30
0.0
 11
-99.91254292747792
 21
88.1759750240015
 31
0.0
  0
LINE
  5
16A
330
4E
100
AcDbEntity
  8
0
  6
Continuous
 62
     7
100
AcDbLine
 10
-99.91254292748422
 20
89.37597502396497
 30
0.0
 11
-99.51254292754275
 21
89.77597502390756
 31
0.0
  0
LINE
  5
16B
330
4E
100
AcDbEntity
  8
0
  6
Continuous
 62
     7
100
AcDbLine
 10
-99.91254292747792
 20
88.1759750240015
 30
0.0
 11
-99.91254292748422
 21
89.37597502396497
 31
0.0
  0
LINE
  5
16C
330
4E
100
AcDbEntity
  8
0
  6
Continuous
 62
     7
100
AcDbLine
 10
-93.7225749863311
 20
85.37597502406456
 30
0.0
 11
-93.93826869121014
 21
85.37597502406356
 31
0.0
  0
LINE
  5
16D
330
4E
100
AcDbEntity
  8
0
  6
Continuous
 62
     7
100
AcDbLine
 10
-93.93826869121014
 20
85.37597502406356
 30
0.0
 11
-94.08936032851157
 21
85.37597502406271
 31
0.0
  0
LINE
  5
16E
330
4E
100
AcDbEntity
  8
0
  6
Continuous
 62
     7
100
AcDbLine
 10
-106.7625429274819
 20
91.17597502419821
 30
0.0
 11
-107.3625429275487
 21
91.1759750244348
 31
0.0
  0
LINE
  5
16F
330
4E
100
AcDbEntity
  8
0
  6
Continuous
 62
     7
100
AcDbLine
 10
-108.7125429278754
 20
90.67597502385709
 30
0.0
 11
-108.5625429530747
 21
90.675975023857
 31
0.0
  0
LINE
  5
170
330
4E
100
AcDbEntity
  8
0
  6
Continuous
 62
     7
100
AcDbLine
 10
-108.9904249880123
 20
90.67597502385718
 30
0.0
 11
-108.7125429278754
 21
90.67597502385709
 31
0.0
  0
LINE
  5
171
330
4E
100
AcDbEntity
  8
0
  6
Continuous
 62
     7
100
AcDbLine
 10
-108.3125429541866
 20
90.67597502385692
 30
0.0
 11
-106.7625429275661
 21
90.67597502385723
 31
0.0
  0
LINE
  5
172
330
4E
100
AcDbEntity
  8
0
  6
Continuous
 62
     7
100
AcDbLine
 10
-108.5625429530747
 20
90.675975023857
 30
0.0
 11
-108.3125429541866
 21
90.67597502385692
 31
0.0
  0
LINE
  5
173
330
4E
100
AcDbEntity
  8
0
  6
Continuous
 62
     7
100
AcDbLine
 10
-94.08936032854882
 20
91.52597502511426
 30
0.0
 11
-112.6357252898044
 21
91.5259750246799
 31
0.0
  0
LINE
  5
174
330
4E
100
AcDbEntity
  8
0
  6
Continuous
 62
     7
100
AcDbLine
 10
-92.86254292816668
 20
91.52597502503119
 30
0.0
 11
-93.72257498636836
 21
91.52597502501634
 31
0.0
  0
LINE
  5
175
330
4E
100
AcDbEntity
  8
0
  6
Continuous
 62
     7
100
AcDbLine
 10
-93.9382686912474
 20
91.52597502509994
 30
0.0
 11
-93.93826869121014
 21
85.37597502406356
 31
0.0
  0
LINE
  5
176
330
4E
100
AcDbEntity
  8
0
  6
Continuous
 62
     7
100
AcDbLine
 10
-94.08936032854882
 20
91.52597502511426
 30
0.0
 11
-94.08936032851157
 21
85.37597502406271
 31
0.0
  0
LINE
  5
177
330
4E
100
AcDbEntity
  8
0
  6
Continuous
 62
     7
100
AcDbLine
 10
-112.7868169287673
 20
91.52597502465849
 30
0.0
 11
-112.78681692873
 21
85.37597502394941
 31
0.0
  0
LINE
  5
178
330
4E
100
AcDbEntity
  8
0
  6
Continuous
 62
     7
100
AcDbLine
 10
-113.0025106515172
 20
91.52597502456481
 30
0.0
 11
-113.00251065148
 21
85.3759750239478
 31
0.0
  0
LINE
  5
179
330
4E
100
AcDbEntity
  8
0
  6
Continuous
 62
     7
100
AcDbLine
 10
-112.7868169287673
 20
91.52597502465849
 30
0.0
 11
-113.0025106515172
 21
91.52597502456481
 31
0.0
  0
LINE
  5
17A
330
4E
100
AcDbEntity
  8
0
  6
Continuous
 62
     7
100
AcDbLine
 10
-112.6357252898044
 20
91.5259750246799
 30
0.0
 11
-112.6357252897671
 21
85.37597502395039
 31
0.0
  0
LINE
  5
17B
330
4E
100
AcDbEntity
  8
0
  6
Continuous
 62
     7
100
AcDbLine
 10
-112.6357252897671
 20
85.37597502395039
 30
0.0
 11
-108.5625427002209
 21
85.37597502397483
 31
0.0
  0
LINE
  5
17C
330
4E
100
AcDbEntity
  8
0
  6
Continuous
 62
     7
100
AcDbLine
 10
-113.0025106515172
 20
91.52597502456481
 30
0.0
 11
-113.0356966025026
 21
91.52597502456011
 31
0.0
  0
LINE
  5
17D
330
4E
100
AcDbEntity
  8
0
  6
Continuous
 62
     7
100
AcDbLine
 10
-112.6357252898044
 20
91.5259750246799
 30
0.0
 11
-112.7868169287673
 21
91.52597502465849
 31
0.0
  0
LINE
  5
17E
330
4E
100
AcDbEntity
  8
0
  6
Continuous
 62
     7
100
AcDbLine
 10
-113.0356966025026
 20
91.52597502456011
 30
0.0
 11
-113.8625429283034
 21
91.52597502453938
 31
0.0
  0
LINE
  5
17F
330
4E
100
AcDbEntity
  8
0
  6
Continuous
 62
     7
100
AcDbLine
 10
-113.8625429282662
 20
85.37597502394257
 30
0.0
 11
-113.00251065148
 21
85.3759750239478
 31
0.0
  0
LINE
  5
180
330
4E
100
AcDbEntity
  8
0
  6
Continuous
 62
     7
100
AcDbLine
 10
-113.8625429283034
 20
91.52597502453938
 30
0.0
 11
-113.8625429282662
 21
85.37597502394257
 31
0.0
  0
LINE
  5
181
330
4E
100
AcDbEntity
  8
0
  6
Continuous
 62
     7
100
AcDbLine
 10
-106.7625429275574
 20
86.87597502510697
 30
0.0
 11
-108.3125429311937
 21
86.87597502512227
 31
0.0
  0
LINE
  5
182
330
4E
100
AcDbEntity
  8
0
  6
Continuous
 62
     7
100
AcDbLine
 10
-105.5625429278464
 20
85.37597502399322
 30
0.0
 11
-94.08936032851157
 21
85.37597502406271
 31
0.0
  0
LINE
  5
183
330
4E
100
AcDbEntity
  8
0
  6
Continuous
 62
     7
100
AcDbLine
 10
-108.5625429277499
 20
86.8759750251256
 30
0.0
 11
-108.7125429278663
 21
86.87597502512776
 31
0.0
  0
LINE
  5
184
330
4E
100
AcDbEntity
  8
0
  6
Continuous
 62
     7
100
AcDbLine
 10
-108.7125429278663
 20
86.87597502512776
 30
0.0
 11
-108.762542926879
 21
86.87597502512833
 31
0.0
  0
LINE
  5
185
330
4E
100
AcDbEntity
  8
0
  6
Continuous
 62
     7
100
AcDbLine
 10
-108.3125429311937
 20
86.87597502512227
 30
0.0
 11
-108.5625429277499
 21
86.8759750251256
 31
0.0
  0
LINE
  5
186
330
4E
100
AcDbEntity
  8
0
  6
Continuous
 62
     7
100
AcDbLine
 10
-92.86254292812943
 20
85.37597502406976
 30
0.0
 11
-93.7225749863311
 21
85.37597502406456
 31
0.0
  0
ARC
  5
187
330
4E
100
AcDbEntity
  8
0
  6
Continuous
 62
     7
100
AcDbCircle
 10
-107.3625429275487
 20
88.27597502443481
 30
0.0
 40
2.900000000001126
100
AcDbArc
 50
124.1484243653106
 51
224.9999999996706
  0
ARC
  5
188
330
4E
100
AcDbEntity
  8
0
  6
Continuous
 62
     7
100
AcDbCircle
 10
-107.3625429275506
 20
88.27597502443422
 30
0.0
 40
2.899999999999188
100
AcDbArc
 50
245.5566695058436
 51
268.9302402758919
  0
ARC
  5
189
330
4E
100
AcDbEntity
  8
0
  6
Continuous
 62
     7
100
AcDbCircle
 10
-107.3625429032917
 20
88.27597502420835
 30
0.0
 40
2.900000000226384
100
AcDbArc
 50
268.9302397966048
 51
269.9999880406933
  0
ARC
  5
18A
330
4E
100
AcDbEntity
  8
0
  6
Continuous
 62
     7
100
AcDbCircle
 10
-107.3625429275518
 20
88.275975024437
 30
0.0
 40
2.900000000001235
100
AcDbArc
 50
224.9999999997445
 51
245.5566695058878
  0
ARC
  5
18B
330
4E
100
AcDbEntity
  8
0
  6
Continuous
 62
     7
100
AcDbCircle
 10
-101.5125429279485
 20
88.77597502409378
 30
0.0
 40
1.000000000000019
100
AcDbArc
 50
293.5781784814586
 51
66.42182252357902
  0
ARC
  5
18C
330
4E
100
AcDbEntity
  8
0
  6
Continuous
 62
     7
100
AcDbCircle
 10
-101.5125429279485
 20
88.77597502409378
 30
0.0
 40
0.9999999999999631
100
AcDbArc
 50
113.5781784769709
 51
246.4218215207413
  0
ARC
  5
18D
330
4E
100
AcDbEntity
  8
0
  6
Continuous
 62
     7
100
AcDbCircle
 10
-106.2625429283534
 20
87.87597502512963
 30
0.0
 40
1.000000000027939
100
AcDbArc
 50
270.000000000951
 51
359.9999999990783
  0
ARC
  5
18E
330
4E
100
AcDbEntity
  8
0
  6
Continuous
 62
     7
100
AcDbCircle
 10
-106.2625429283582
 20
89.67597502382448
 30
0.0
 40
1.000000000032799
100
AcDbArc
 50
359.999999999382
 51
89.99999999830398
  0
ARC
  5
18F
330
4E
100
AcDbEntity
  8
0
  6
Continuous
 62
     7
100
AcDbCircle
 10
-106.7625429284555
 20
88.27597502425053
 30
0.0
 40
2.900174000184215
100
AcDbArc
 50
271.5887920547522
 51
294.4417729753418
  0
ARC
  5
190
330
4E
100
AcDbEntity
  8
0
  6
Continuous
 62
     7
100
AcDbCircle
 10
-98.46254292741637
 20
88.77597502395008
 30
0.0
 40
1.05
100
AcDbArc
 50
163.3960038231637
 51
286.7862323174362
  0
ARC
  5
191
330
4E
100
AcDbEntity
  8
0
  6
Continuous
 62
     7
100
AcDbCircle
 10
-107.3625429275506
 20
88.27597502443422
 30
0.0
 40
2.900000000000588
100
AcDbArc
 50
89.99999999996238
 51
124.1484243652729
  0
ARC
  5
192
330
4E
100
AcDbEntity
  8
0
  6
Continuous
 62
     7
100
AcDbCircle
 10
-106.7625429275496
 20
88.27597502445994
 30
0.0
 40
2.900174000000003
100
AcDbArc
 50
294.4417729573369
 51
89.37237182737309
  0
ARC
  5
193
330
4E
100
AcDbEntity
  8
0
  6
Continuous
 62
     7
100
AcDbCircle
 10
-98.46254292741637
 20
88.77597502395008
 30
0.0
 40
1.049999999999019
100
AcDbArc
 50
286.7862323174362
 51
73.21376768285924
  0
ARC
  5
194
330
4E
100
AcDbEntity
  8
0
  6
Continuous
 62
     7
100
AcDbCircle
 10
-98.46254292741637
 20
88.77597502395008
 30
0.0
 40
1.049999999999404
100
AcDbArc
 50
73.21376768285924
 51
163.3960038231637
  0
SPLINE
  5
195
330
4E
100
AcDbEntity
  8
0
  6
Continuous
 62
     7
100
AcDbSpline
210
0.0
220
0.0
230
1.0
 70
     8
 71
     3
 72
    11
 73
     7
 74
     5
 42
0.000000001
 43
0.0000000001
 44
0.00000001
 40
0.0
 40
0.0
 40
0.0
 40
0.0
 40
0.0065528942096188
 40
0.0130841310492547
 40
0.0196549471406292
 40
0.026169983451016
 40
0.026169983451016
 40
0.026169983451016
 40
0.026169983451016
 10
-106.6821324172667
 20
85.37691597327643
 30
0.0
 10
-106.6843164769068
 20
85.37688368506
 30
0.0
 10
-106.6886773776258
 20
85.37681920035607
 30
0.0
 10
-106.6952281767976
 20
85.37671358055466
 30
0.0
 10
-106.7017662611477
 20
85.37660230010957
 30
0.0
 10
-106.7061274777075
 20
85.37652224552583
 30
0.0
 10
-106.7082987907869
 20
85.37648238136728
 30
0.0
 11
-106.6821324172667
 21
85.37691597327643
 31
0.0
 11
-106.6886845736773
 21
85.3768176424172
 31
0.0
 11
-106.6952149694657
 21
85.37671283000722
 31
0.0
 11
-106.7017848257748
 21
85.37660052539866
 31
0.0
 11
-106.7082987907869
 21
85.37648238136728
 31
0.0
  0
SPLINE
  5
196
330
4E
100
AcDbEntity
  8
0
  6
Continuous
 62
     7
100
AcDbSpline
210
0.0
220
0.0
230
1.0
 70
    24
 71
     3
 72
    17
 73
    13
 74
    11
 42
0.000000001
 43
0.0000000001
 44
0.00000001
 40
0.0
 40
0.0
 40
0.0
 40
0.0
 40
0.1259943820446665
 40
0.2569530429697977
 40
0.3917005197562702
 40
0.5266379665772547
 40
0.7841945662734418
 40
1.02067260051038
 40
1.235624732959707
 40
1.434304499059451
 40
1.621689325659077
 40
1.799999998700144
 40
1.799999998700144
 40
1.799999998700144
 40
1.799999998700144
 10
-105.2625429283254
 20
87.87597502511355
 30
0.0
 10
-105.262542928331
 20
87.9179731524618
 30
0.0
 10
-105.2625429283417
 20
88.00362416678502
 30
0.0
 10
-105.2625429283557
 20
88.13419100670382
 30
0.0
 10
-105.2625429283674
 20
88.26773886821464
 30
0.0
 10
-105.2625429283797
 20
88.44348604264923
 30
0.0
 10
-105.2625429283881
 20
88.65314340290055
 30
0.0
 10
-105.2625429283888
 20
88.88947232502807
 30
0.0
 10
-105.2625429283817
 20
89.10617563595672
 30
0.0
 10
-105.2625429283684
 20
89.30651454433963
 30
0.0
 10
-105.2625429283499
 20
89.49463963291973
 30
0.0
 10
-105.2625429283341
 20
89.61653813280002
 30
0.0
 10
-105.2625429283254
 20
89.67597502381369
 30
0.0
 11
-105.2625429283254
 21
87.87597502511355
 31
0.0
 11
-105.2625429283392
 21
88.00196940715816
 31
0.0
 11
-105.2625429283416
 21
88.13292806808323
 31
0.0
 11
-105.262542928342
 21
88.26767554486966
 31
0.0
 11
-105.2625429283423
 21
88.40261299169062
 31
0.0
 11
-105.2625429283425
 21
88.66016959138679
 31
0.0
 11
-105.2625429283424
 21
88.89664762562376
 31
0.0
 11
-105.2625429283421
 21
89.11159975807313
 31
0.0
 11
-105.2625429283417
 21
89.3102795241729
 31
0.0
 11
-105.2625429283451
 21
89.4976643507726
 31
0.0
 11
-105.2625429283254
 21
89.67597502381369
 31
0.0
  0
ENDBLK
  5
50
330
4E
100
AcDbEntity
  8
0
100
AcDbBlockEnd
  0
BLOCK
  5
53
330
51
100
AcDbEntity
  8
0
100
AcDbBlockBegin
  2
Drfsicht1
 70
     0
 10
-103.362543
 20
88.45097499999991
 30
0.0
  3
Drfsicht1
  1

  0
INSERT
  5
52
330
51
100
AcDbEntity
  8
0
100
AcDbBlockReference
  2
PP_H_4_1_R_GNYE-select__2
 10
-113.8625429283034
 20
85.37597502394257
 30
0.0
  0
MTEXT
  5
197
330
51
100
AcDbEntity
  8
1
 62
     6
100
AcDbMText
 10
-103.5365625601556
 20
80.37597462084295
 30
0.0
 40
5.0
 41
0.0
 71
     2
 72
     1
  1
 
  7
CONVERTER_11
 73
     1
 44
1.32052821128451
  0
DIMENSION
  5
1A4
330
51
100
AcDbEntity
  8
1
100
AcDbDimension
  2
*D17
 10
-123.8625429283034
 20
91.52597502453949
 30
0.0
 11
-127.2875429283034
 21
100.245745995232
 31
0.0
 70
    32
  1
<>
 71
     5
 42
-1.0
 53
90.0
  3
ME10_DIM_10
100
AcDbAlignedDimension
 13
-113.8625429282662
 23
85.37597502394257
 33
0.0
 14
-113.8625429283034
 24
91.52597502453938
 34
0.0
 50
90.0
100
AcDbRotatedDimension
  0
ENDBLK
  5
54
330
51
100
AcDbEntity
  8
0
100
AcDbBlockEnd
  0
BLOCK
  5
56
330
55
100
AcDbEntity
  8
0
100
AcDbBlockBegin
  2
PP_H_4_1_R_GNYE-select__3
 70
     0
 10
-39.1374570718648
 20
121.9124999315588
 30
0.0
  3
PP_H_4_1_R_GNYE-select__3
  1

  0
LINE
  5
1A5
330
55
100
AcDbEntity
  8
0
  6
Continuous
 62
     7
100
AcDbLine
 10
-20.79715137633063
 20
162.6285294160109
 30
0.0
 11
-20.02632777955736
 21
156.3506750068451
 31
0.0
  0
LINE
  5
1A6
330
55
100
AcDbEntity
  8
0
  6
Continuous
 62
     7
100
AcDbLine
 10
-19.73512699453583
 20
162.7589296133977
 30
0.0
 11
-20.79715137633063
 21
162.6285294160109
 31
0.0
  0
LINE
  5
1A7
330
55
100
AcDbEntity
  8
0
  6
Continuous
 62
     7
100
AcDbLine
 10
-19.8374570716572
 20
149.9124999315179
 30
0.0
 11
-19.8374570716533
 21
143.5874999315128
 31
0.0
  0
LINE
  5
1A8
330
55
100
AcDbEntity
  8
0
  6
Continuous
 62
     7
100
AcDbLine
 10
-33.83745707191502
 20
123.5124999317131
 30
0.0
 11
-33.30412373850911
 21
121.9124999315588
 31
0.0
  0
LINE
  5
1A9
330
55
100
AcDbEntity
  8
0
  6
Continuous
 62
     7
100
AcDbLine
 10
-33.83745707191502
 20
123.5124999317131
 30
0.0
 11
-33.83745707191121
 21
138.4124999314946
 31
0.0
  0
LINE
  5
1AA
330
55
100
AcDbEntity
  8
0
  6
Continuous
 62
     7
100
AcDbLine
 10
-34.13745707186002
 20
124.4124999315481
 30
0.0
 11
-33.83745707191502
 21
123.5124999317131
 31
0.0
  0
LINE
  5
1AB
330
55
100
AcDbEntity
  8
0
  6
Continuous
 62
     7
100
AcDbLine
 10
-34.13745707186002
 20
136.1124999317161
 30
0.0
 11
-34.13745707186002
 21
124.4124999315481
 31
0.0
  0
LINE
  5
1AC
330
55
100
AcDbEntity
  8
0
  6
Continuous
 62
     7
100
AcDbLine
 10
-37.24858658278198
 20
156.3506750069024
 30
0.0
 11
-36.47776298601295
 21
162.628529416075
 31
0.0
  0
LINE
  5
1AD
330
55
100
AcDbEntity
  8
0
  6
Continuous
 62
     7
100
AcDbLine
 10
-33.83745707191121
 20
139.5124999315595
 30
0.0
 11
-33.83745707191121
 21
138.4124999314946
 31
0.0
  0
LINE
  5
1AE
330
55
100
AcDbEntity
  8
0
  6
Continuous
 62
     7
100
AcDbLine
 10
-37.57297331858013
 20
162.4886517320142
 30
0.0
 11
-38.06173130875249
 21
162.8569572950281
 31
0.0
  0
LINE
  5
1AF
330
55
100
AcDbEntity
  8
0
  6
Continuous
 62
     7
100
AcDbLine
 10
-37.53978736758837
 20
162.7589296134344
 30
0.0
 11
-37.57297331858013
 21
162.4886517320142
 31
0.0
  0
LINE
  5
1B0
330
55
100
AcDbEntity
  8
0
  6
Continuous
 62
     7
100
AcDbLine
 10
-36.47776298601295
 20
162.628529416075
 30
0.0
 11
-37.53978736758837
 21
162.7589296134344
 31
0.0
  0
LINE
  5
1B1
330
55
100
AcDbEntity
  8
0
  6
Continuous
 62
     7
100
AcDbLine
 10
-38.06173130875249
 20
162.8569572950281
 30
0.0
 11
-37.91063967145108
 21
164.0874999317333
 31
0.0
  0
LINE
  5
1B2
330
55
100
AcDbEntity
  8
0
  6
Continuous
 62
     7
100
AcDbLine
 10
-19.36427471019552
 20
164.0874999317395
 30
0.0
 11
-19.21318307123262
 21
162.8569572815108
 31
0.0
  0
LINE
  5
1B3
330
55
100
AcDbEntity
  8
0
  6
Continuous
 62
     7
100
AcDbLine
 10
-19.21318307123262
 20
162.8569572815108
 30
0.0
 11
-19.7019410435415
 21
162.4886517319576
 31
0.0
  0
LINE
  5
1B4
330
55
100
AcDbEntity
  8
0
  6
Continuous
 62
     7
100
AcDbLine
 10
-19.7019410435415
 20
162.4886517319576
 30
0.0
 11
-19.73512699453583
 21
162.7589296133977
 31
0.0
  0
LINE
  5
1B5
330
55
100
AcDbEntity
  8
0
  6
Continuous
 62
     7
100
AcDbLine
 10
-18.96430339749733
 20
156.4810752042645
 30
0.0
 11
-18.99748934848269
 21
156.7513530856251
 31
0.0
  0
LINE
  5
1B6
330
55
100
AcDbEntity
  8
0
  6
Continuous
 62
     7
100
AcDbLine
 10
-18.76745707165435
 20
143.5874999315127
 30
0.0
 11
-18.76745707165513
 21
143.8598075526534
 31
0.0
  0
LINE
  5
1B7
330
55
100
AcDbEntity
  8
0
  6
Continuous
 62
     7
100
AcDbLine
 10
-39.13745707183323
 20
156.3862911358845
 30
0.0
 11
-38.27742501363154
 21
156.7513530857227
 31
0.0
  0
LINE
  5
1B8
330
55
100
AcDbEntity
  8
0
  6
Continuous
 62
     7
100
AcDbLine
 10
-38.27742501363154
 20
156.7513530857227
 30
0.0
 11
-38.31061096462511
 21
156.4810752042943
 31
0.0
  0
LINE
  5
1B9
330
55
100
AcDbEntity
  8
0
  6
Continuous
 62
     7
100
AcDbLine
 10
-38.31061096462511
 20
156.4810752042943
 30
0.0
 11
-37.24858658278198
 21
156.3506750069024
 31
0.0
  0
LINE
  5
1BA
330
55
100
AcDbEntity
  8
0
  6
Continuous
 62
     7
100
AcDbLine
 10
-38.27249868448122
 20
139.5124999315528
 30
0.0
 11
-33.83745707191121
 21
139.5124999315595
 31
0.0
  0
LINE
  5
1BB
330
55
100
AcDbEntity
  8
0
  6
Continuous
 62
     7
100
AcDbLine
 10
-39.13745707183323
 20
154.1132946561424
 30
0.0
 11
-39.13745707183323
 21
156.3862911358845
 31
0.0
  0
LINE
  5
1BC
330
55
100
AcDbEntity
  8
0
  6
Continuous
 62
     7
100
AcDbLine
 10
-39.1374570718648
 20
139.7504499963888
 30
0.0
 11
-39.1374570718648
 21
145.4617052068869
 31
0.0
  0
LINE
  5
1BD
330
55
100
AcDbEntity
  8
0
  6
Continuous
 62
     7
100
AcDbLine
 10
-18.13745707169649
 20
156.3862910430038
 30
0.0
 11
-18.13745707169394
 21
150.003922979951
 31
0.0
  0
LINE
  5
1BE
330
55
100
AcDbEntity
  8
0
  6
Continuous
 62
     7
100
AcDbLine
 10
-18.1374570716544
 20
143.4960768830651
 30
0.0
 11
-18.13745707165282
 21
139.5124999315559
 31
0.0
  0
LINE
  5
1BF
330
55
100
AcDbEntity
  8
0
  6
Continuous
 62
     7
100
AcDbLine
 10
-18.76745707165513
 20
143.8598075526534
 30
0.0
 11
-18.1374570716544
 21
143.4960768830651
 31
0.0
  0
LINE
  5
1C0
330
55
100
AcDbEntity
  8
0
  6
Continuous
 62
     7
100
AcDbLine
 10
-26.97079040517213
 20
121.9124999315588
 30
0.0
 11
-26.43745707188107
 21
123.5124999314726
 31
0.0
  0
LINE
  5
1C1
330
55
100
AcDbEntity
  8
0
  6
Continuous
 62
     7
100
AcDbLine
 10
-26.43745707180693
 20
138.4124999314946
 30
0.0
 11
-26.43745707188107
 21
123.5124999314726
 31
0.0
  0
LINE
  5
1C2
330
55
100
AcDbEntity
  8
0
  6
Continuous
 62
     7
100
AcDbLine
 10
-22.73745707185854
 20
138.5124999315593
 30
0.0
 11
-22.73745707185854
 21
130.4124999315592
 31
0.0
  0
LINE
  5
1C3
330
55
100
AcDbEntity
  8
0
  6
Continuous
 62
     7
100
AcDbLine
 10
-26.13745707185224
 20
131.6124999315579
 30
0.0
 11
-26.13745707185224
 21
136.1124999315593
 31
0.0
  0
LINE
  5
1C4
330
55
100
AcDbEntity
  8
0
  6
Continuous
 62
     7
100
AcDbLine
 10
-25.13745707185869
 20
134.2464745277749
 30
0.0
 11
-24.63745707185871
 21
136.1124999315593
 31
0.0
  0
LINE
  5
1C5
330
55
100
AcDbEntity
  8
0
  6
Continuous
 62
     7
100
AcDbLine
 10
-25.63745707186956
 20
139.512499931556
 30
0.0
 11
-25.63745707186956
 21
136.1124999315593
 31
0.0
  0
LINE
  5
1C6
330
55
100
AcDbEntity
  8
0
  6
Continuous
 62
     7
100
AcDbLine
 10
-25.13745707185866
 20
137.2124999315593
 30
0.0
 11
-25.13745707185878
 21
138.5124999315593
 31
0.0
  0
LINE
  5
1C7
330
55
100
AcDbEntity
  8
0
  6
Continuous
 62
     7
100
AcDbLine
 10
-22.73745707185854
 20
138.5124999315593
 30
0.0
 11
-25.13745707185878
 21
138.5124999315593
 31
0.0
  0
LINE
  5
1C8
330
55
100
AcDbEntity
  8
0
  6
Continuous
 62
     7
100
AcDbLine
 10
-18.13745707165282
 20
139.5124999315559
 30
0.0
 11
-23.23745707182313
 21
139.512499931556
 31
0.0
  0
LINE
  5
1C9
330
55
100
AcDbEntity
  8
0
  6
Continuous
 62
     7
100
AcDbLine
 10
-26.43745707180693
 20
138.4124999314946
 30
0.0
 11
-26.43745707180693
 21
139.5124999315559
 31
0.0
  0
LINE
  5
1CA
330
55
100
AcDbEntity
  8
0
  6
Continuous
 62
     7
100
AcDbLine
 10
-23.23745707182313
 20
139.0124999315593
 30
0.0
 11
-23.23745707182313
 21
139.512499931556
 31
0.0
  0
LINE
  5
1CB
330
55
100
AcDbEntity
  8
0
  6
Continuous
 62
     7
100
AcDbLine
 10
-24.63745707185876
 20
139.512499931556
 30
0.0
 11
-25.63745707186956
 21
139.512499931556
 31
0.0
  0
LINE
  5
1CC
330
55
100
AcDbEntity
  8
0
  6
Continuous
 62
     7
100
AcDbLine
 10
-23.23745707182313
 20
139.512499931556
 30
0.0
 11
-24.63745707185876
 21
139.512499931556
 31
0.0
  0
LINE
  5
1CD
330
55
100
AcDbEntity
  8
0
  6
Continuous
 62
     7
100
AcDbLine
 10
-25.63745707186956
 20
139.512499931556
 30
0.0
 11
-26.43745707180693
 21
139.5124999315559
 31
0.0
  0
LINE
  5
1CE
330
55
100
AcDbEntity
  8
0
  6
Continuous
 62
     7
100
AcDbLine
 10
-24.63745707185876
 20
139.512499931556
 30
0.0
 11
-24.63745707185876
 21
139.0124999315593
 31
0.0
  0
LINE
  5
1CF
330
55
100
AcDbEntity
  8
0
  6
Continuous
 62
     2
100
AcDbLine
 10
-24.63745707185876
 20
139.0124999315593
 30
0.0
 11
-23.23745707182313
 21
139.0124999315593
 31
0.0
  0
LINE
  5
1D0
330
55
100
AcDbEntity
  8
0
  6
Continuous
 62
     7
100
AcDbLine
 10
-25.63745707186956
 20
136.1124999315593
 30
0.0
 11
-26.13745707185224
 21
136.1124999315593
 31
0.0
  0
LINE
  5
1D1
330
55
100
AcDbEntity
  8
0
  6
Continuous
 62
     7
100
AcDbLine
 10
-24.63745707185871
 20
136.1124999315593
 30
0.0
 11
-24.63745707185871
 21
136.7124999315593
 31
0.0
  0
LINE
  5
1D2
330
55
100
AcDbEntity
  8
0
  6
Continuous
 62
     7
100
AcDbLine
 10
-25.13745707185869
 20
131.4124999315592
 30
0.0
 11
-26.13745707185224
 21
131.6124999315579
 31
0.0
  0
LINE
  5
1D3
330
55
100
AcDbEntity
  8
0
  6
Continuous
 62
     7
100
AcDbLine
 10
-25.13745707185879
 20
130.4124999315592
 30
0.0
 11
-25.13745707185869
 21
131.4124999315592
 31
0.0
  0
LINE
  5
1D4
330
55
100
AcDbEntity
  8
0
  6
Continuous
 62
     7
100
AcDbLine
 10
-25.13745707185869
 20
131.4124999315592
 30
0.0
 11
-25.13745707185869
 21
134.2464745277749
 31
0.0
  0
LINE
  5
1D5
330
55
100
AcDbEntity
  8
0
  6
Continuous
 62
     7
100
AcDbLine
 10
-22.73745707185854
 20
130.4124999315592
 30
0.0
 11
-25.13745707185879
 21
130.4124999315592
 31
0.0
  0
LINE
  5
1D6
330
55
100
AcDbEntity
  8
0
  6
Continuous
 62
     7
100
AcDbLine
 10
-26.13745707185224
 20
130.4124999315592
 30
0.0
 11
-25.13745707185879
 21
130.4124999315592
 31
0.0
  0
LINE
  5
1D7
330
55
100
AcDbEntity
  8
0
  6
Continuous
 62
     7
100
AcDbLine
 10
-26.04956983142238
 20
124.6761616528486
 30
0.0
 11
-26.43745707188107
 21
123.5124999314726
 31
0.0
  0
LINE
  5
1D8
330
55
100
AcDbEntity
  8
0
  6
Continuous
 62
     7
100
AcDbLine
 10
-26.13745707185748
 20
128.4828292403998
 30
0.0
 11
-26.13745707185224
 21
130.4124999315592
 31
0.0
  0
LINE
  5
1D9
330
55
100
AcDbEntity
  8
0
  6
Continuous
 62
     7
100
AcDbLine
 10
-19.8374570716533
 20
143.5874999315128
 30
0.0
 11
-18.76745707165435
 21
143.5874999315127
 31
0.0
  0
LINE
  5
1DA
330
55
100
AcDbEntity
  8
0
  6
Continuous
 62
     7
100
AcDbLine
 10
-33.30412373850911
 20
121.9124999315588
 30
0.0
 11
-26.97079040517213
 21
121.9124999315588
 31
0.0
  0
LINE
  5
1DB
330
55
100
AcDbEntity
  8
0
  6
Continuous
 62
     7
100
AcDbLine
 10
-34.63745707186279
 20
136.1124999315591
 30
0.0
 11
-34.13745707186002
 21
136.1124999317161
 31
0.0
  0
LINE
  5
1DC
330
55
100
AcDbEntity
  8
0
  6
Continuous
 62
     7
100
AcDbLine
 10
-34.63745707186279
 20
138.5124999315593
 30
0.0
 11
-34.63745707186279
 21
136.1124999315591
 31
0.0
  0
LINE
  5
1DD
330
55
100
AcDbEntity
  8
0
  6
Continuous
 62
     7
100
AcDbLine
 10
-38.27249868448122
 20
139.5124999315528
 30
0.0
 11
-34.63745707186279
 21
138.5124999315593
 31
0.0
  0
LINE
  5
1DE
330
55
100
AcDbEntity
  8
0
  6
Continuous
 62
     7
100
AcDbLine
 10
-26.43745707180693
 20
138.4124999314946
 30
0.0
 11
-33.83745707191121
 21
138.4124999314946
 31
0.0
  0
LINE
  5
1DF
330
55
100
AcDbEntity
  8
0
  6
Continuous
 62
     7
100
AcDbLine
 10
-39.1374570718648
 20
139.7504499963888
 30
0.0
 11
-38.27249868448122
 21
139.5124999315528
 31
0.0
  0
LINE
  5
1E0
330
55
100
AcDbEntity
  8
0
  6
Continuous
 62
     7
100
AcDbLine
 10
-18.99748934848269
 20
156.7513530856251
 30
0.0
 11
-18.13745707169649
 21
156.3862910430038
 31
0.0
  0
LINE
  5
1E1
330
55
100
AcDbEntity
  8
0
  6
Continuous
 62
     7
100
AcDbLine
 10
-18.13745707169394
 20
150.003922979951
 30
0.0
 11
-18.7674570716929
 21
149.6401923103622
 31
0.0
  0
LINE
  5
1E2
330
55
100
AcDbEntity
  8
0
  6
Continuous
 62
     7
100
AcDbLine
 10
-18.7674570716929
 20
149.6401923103622
 30
0.0
 11
-18.76745707165529
 21
149.9124999315182
 31
0.0
  0
LINE
  5
1E3
330
55
100
AcDbEntity
  8
0
  6
Continuous
 62
     7
100
AcDbLine
 10
-18.76745707165529
 20
149.9124999315182
 30
0.0
 11
-19.8374570716572
 21
149.9124999315179
 31
0.0
  0
LINE
  5
1E4
330
55
100
AcDbEntity
  8
0
  6
Continuous
 62
     7
100
AcDbLine
 10
-20.02632777955736
 20
156.3506750068451
 30
0.0
 11
-18.96430339749733
 21
156.4810752042645
 31
0.0
  0
LINE
  5
1E5
330
55
100
AcDbEntity
  8
0
  6
Continuous
 62
     7
100
AcDbLine
 10
-37.91063967145108
 20
164.0874999317333
 30
0.0
 11
-19.36427471019552
 21
164.0874999317395
 31
0.0
  0
ARC
  5
1E6
330
55
100
AcDbEntity
  8
0
  6
Continuous
 62
     7
100
AcDbCircle
 10
-51.23745707186481
 20
149.7874999315588
 30
0.0
 40
12.84999999999998
100
AcDbArc
 50
340.3278422307628
 51
19.67215776881897
  0
ARC
  5
1E7
330
55
100
AcDbEntity
  8
0
  6
Continuous
 62
     7
100
AcDbCircle
 10
-25.1374570718587
 20
136.7124999315593
 30
0.0
 40
0.4999999999999929
100
AcDbArc
 50
0.0
 51
89.99999999999511
  0
ARC
  5
1E8
330
55
100
AcDbEntity
  8
0
  6
Continuous
 62
     7
100
AcDbCircle
 10
-22.73745707184083
 20
139.0124999315416
 30
0.0
 40
0.4999999999823004
100
AcDbArc
 50
179.9999999979742
 51
269.9999999979705
  0
ARC
  5
1E9
330
55
100
AcDbEntity
  8
0
  6
Continuous
 62
     7
100
AcDbCircle
 10
-25.13745707185872
 20
139.0124999315593
 30
0.0
 40
0.5
100
AcDbArc
 50
269.9999999999931
 51
0.0
  0
ARC
  5
1EA
330
55
100
AcDbEntity
  8
0
  6
Continuous
 62
     7
100
AcDbCircle
 10
-21.30615334115586
 20
123.0950228228324
 30
0.0
 40
4.999999999991746
100
AcDbArc
 50
147.9223455688692
 51
161.5650511778676
  0
ARC
  5
1EB
330
55
100
AcDbEntity
  8
0
  6
Continuous
 62
     7
100
AcDbCircle
 10
-27.23745707186968
 20
126.8124999315588
 30
0.0
 40
2.000000000000003
100
AcDbArc
 50
327.9223455680794
 51
56.63298703035025
  0
ENDBLK
  5
57
330
55
100
AcDbEntity
  8
0
100
AcDbBlockEnd
  0
BLOCK
  5
5A
330
58
100
AcDbEntity
  8
0
100
AcDbBlockBegin
  2
Rckans1
 70
     0
 10
-28.63745699999996
 20
143.0000000000001
 30
0.0
  3
Rckans1
  1

  0
INSERT
  5
59
330
58
100
AcDbEntity
  8
0
100
AcDbBlockReference
  2
PP_H_4_1_R_GNYE-select__3
 10
-39.1374570718648
 20
121.9124999315588
 30
0.0
  0
MTEXT
  5
1EC
330
58
100
AcDbEntity
  8
1
 62
     6
100
AcDbMText
 10
-28.46343743984392
 20
116.5259742962605
 30
0.0
 40
5.0
 41
0.0
 71
     2
 72
     1
  1
 
  7
CONVERTER_11
 73
     1
 44
1.32052821128451
  0
ENDBLK
  5
5B
330
58
100
AcDbEntity
  8
0
100
AcDbBlockEnd
  0
BLOCK
  5
5D
330
5C
100
AcDbEntity
  8
0
100
AcDbBlockBegin
  2
PP_H_4_1_R_GNYE-select__4
 70
     0
 10
-73.07500002508637
 20
121.9124999315587
 30
0.0
  3
PP_H_4_1_R_GNYE-select__4
  1

  0
LINE
  5
1ED
330
5C
100
AcDbEntity
  8
0
  6
Continuous
 62
     7
100
AcDbLine
 10
-70.40000002384166
 20
138.5124999315591
 30
0.0
 11
-70.40000002384186
 21
130.4124999315591
 31
0.0
  0
LINE
  5
1EE
330
5C
100
AcDbEntity
  8
0
  6
Continuous
 62
     7
100
AcDbLine
 10
-73.07500002498652
 20
156.3506750069023
 30
0.0
 11
-73.07500002444681
 21
150.0039229799509
 31
0.0
  0
LINE
  5
1EF
330
5C
100
AcDbEntity
  8
0
  6
Continuous
 62
     7
100
AcDbLine
 10
-73.07500002445627
 20
149.6401923103621
 30
0.0
 11
-73.07500002437236
 21
143.8598075526533
 31
0.0
  0
LINE
  5
1F0
330
5C
100
AcDbEntity
  8
0
  6
Continuous
 62
     7
100
AcDbLine
 10
-73.07500002435232
 20
143.496076883065
 30
0.0
 11
-73.07500002448889
 21
139.5124999315558
 31
0.0
  0
LINE
  5
1F1
330
5C
100
AcDbEntity
  8
0
  6
Continuous
 62
     7
100
AcDbLine
 10
-73.07500002447291
 20
138.4124999314945
 30
0.0
 11
-73.07500002448889
 21
139.5124999315558
 31
0.0
  0
LINE
  5
1F2
330
5C
100
AcDbEntity
  8
0
  6
Continuous
 62
     7
100
AcDbLine
 10
-73.07500002448529
 20
149.9124999315177
 30
0.0
 11
-73.07500002445627
 21
149.6401923103621
 31
0.0
  0
LINE
  5
1F3
330
5C
100
AcDbEntity
  8
0
  6
Continuous
 62
     7
100
AcDbLine
 10
-73.07500002444681
 20
150.0039229799509
 30
0.0
 11
-73.07500002448529
 21
149.9124999315177
 31
0.0
  0
LINE
  5
1F4
330
5C
100
AcDbEntity
  8
0
  6
Continuous
 62
     7
100
AcDbLine
 10
-73.07500002437236
 20
143.8598075526533
 30
0.0
 11
-73.07500002439347
 21
143.5874999315126
 31
0.0
  0
LINE
  5
1F5
330
5C
100
AcDbEntity
  8
0
  6
Continuous
 62
     7
100
AcDbLine
 10
-73.07500002439347
 20
143.5874999315126
 30
0.0
 11
-73.07500002435232
 21
143.496076883065
 31
0.0
  0
LINE
  5
1F6
330
5C
100
AcDbEntity
  8
0
  6
Continuous
 62
     7
100
AcDbLine
 10
-73.07500002465859
 20
162.8569572815107
 30
0.0
 11
-73.07500002508637
 21
162.7589296134343
 31
0.0
  0
LINE
  5
1F7
330
5C
100
AcDbEntity
  8
0
  6
Continuous
 62
     7
100
AcDbLine
 10
-73.07500002501328
 20
156.4810752042942
 30
0.0
 11
-73.07500002453946
 21
156.3862910430037
 31
0.0
  0
LINE
  5
1F8
330
5C
100
AcDbEntity
  8
0
  6
Continuous
 62
     7
100
AcDbLine
 10
-73.07500002453946
 20
156.3862910430037
 30
0.0
 11
-73.07500002498652
 21
156.3506750069023
 31
0.0
  0
LINE
  5
1F9
330
5C
100
AcDbEntity
  8
0
  6
Continuous
 62
     7
100
AcDbLine
 10
-73.07500002508323
 20
162.488651732014
 30
0.0
 11
-73.07500002501644
 21
156.7513530857226
 31
0.0
  0
LINE
  5
1FA
330
5C
100
AcDbEntity
  8
0
  6
Continuous
 62
     7
100
AcDbLine
 10
-73.07500002508637
 20
162.7589296134343
 30
0.0
 11
-73.07500002508323
 21
162.488651732014
 31
0.0
  0
LINE
  5
1FB
330
5C
100
AcDbEntity
  8
0
  6
Continuous
 62
     7
100
AcDbLine
 10
-73.07500002501644
 20
156.7513530857226
 30
0.0
 11
-73.07500002501328
 21
156.4810752042942
 31
0.0
  0
LINE
  5
1FC
330
5C
100
AcDbEntity
  8
0
  6
Continuous
 62
     7
100
AcDbLine
 10
-73.07500002468
 20
164.0874999317394
 30
0.0
 11
-73.07500002465859
 21
162.8569572815107
 31
0.0
  0
LINE
  5
1FD
330
5C
100
AcDbEntity
  8
0
  6
Continuous
 62
     7
100
AcDbLine
 10
-73.07500002501644
 20
156.7513530857226
 30
0.0
 11
-66.92500002406466
 21
156.7513530857229
 31
0.0
  0
LINE
  5
1FE
330
5C
100
AcDbEntity
  8
0
  6
Continuous
 62
     7
100
AcDbLine
 10
-69.30000002384135
 20
139.5124999315559
 30
0.0
 11
-69.3000000238416
 21
139.0124999315591
 31
0.0
  0
LINE
  5
1FF
330
5C
100
AcDbEntity
  8
0
  6
Continuous
 62
     7
100
AcDbLine
 10
-69.9000000238416
 20
139.0124999315592
 30
0.0
 11
-69.9000000238416
 21
139.5124999315559
 31
0.0
  0
LINE
  5
200
330
5C
100
AcDbEntity
  8
0
  6
Continuous
 62
     7
100
AcDbLine
 10
-69.9000000238416
 20
139.5124999315559
 30
0.0
 11
-69.30000002384135
 21
139.5124999315559
 31
0.0
  0
LINE
  5
201
330
5C
100
AcDbEntity
  8
0
  6
Continuous
 62
     7
100
AcDbLine
 10
-69.30000002384135
 20
139.5124999315559
 30
0.0
 11
-68.80000002384118
 21
139.512499931556
 31
0.0
  0
LINE
  5
202
330
5C
100
AcDbEntity
  8
0
  6
Continuous
 62
     7
100
AcDbLine
 10
-73.07500002448889
 20
139.5124999315558
 30
0.0
 11
-69.9000000238416
 21
139.5124999315559
 31
0.0
  0
LINE
  5
203
330
5C
100
AcDbEntity
  8
0
  6
Continuous
 62
     7
100
AcDbLine
 10
-73.07500002508323
 20
162.488651732014
 30
0.0
 11
-66.92500002406068
 21
162.4886517320143
 31
0.0
  0
LINE
  5
204
330
5C
100
AcDbEntity
  8
0
  6
Continuous
 62
     7
100
AcDbLine
 10
-66.92500002406466
 20
156.7513530857229
 30
0.0
 11
-66.92500002406484
 21
156.4810752042945
 31
0.0
  0
LINE
  5
205
330
5C
100
AcDbEntity
  8
0
  6
Continuous
 62
     7
100
AcDbLine
 10
-73.07500002465859
 20
162.8569572815107
 30
0.0
 11
-66.9250000239495
 21
162.856957281511
 31
0.0
  0
LINE
  5
206
330
5C
100
AcDbEntity
  8
0
  6
Continuous
 62
     7
100
AcDbLine
 10
-66.92500002406466
 20
156.7513530857229
 30
0.0
 11
-66.92500002398609
 21
158.4874999317916
 31
0.0
  0
LINE
  5
207
330
5C
100
AcDbEntity
  8
0
  6
Continuous
 62
     7
100
AcDbLine
 10
-66.92500002394584
 20
143.8598075526536
 30
0.0
 11
-66.92500002394614
 21
149.6401923103624
 31
0.0
  0
LINE
  5
208
330
5C
100
AcDbEntity
  8
0
  6
Continuous
 62
     7
100
AcDbLine
 10
-66.92500002394614
 20
149.6401923103624
 30
0.0
 11
-66.92500002395263
 21
149.9124999315181
 31
0.0
  0
LINE
  5
209
330
5C
100
AcDbEntity
  8
0
  6
Continuous
 62
     7
100
AcDbLine
 10
-66.92500002395231
 20
143.5874999315129
 30
0.0
 11
-66.92500002394584
 21
143.8598075526536
 31
0.0
  0
LINE
  5
20A
330
5C
100
AcDbEntity
  8
0
  6
Continuous
 62
     7
100
AcDbLine
 10
-66.92500002406484
 20
156.4810752042945
 30
0.0
 11
-66.92500002394266
 21
156.386291043004
 31
0.0
  0
LINE
  5
20B
330
5C
100
AcDbEntity
  8
0
  6
Continuous
 62
     7
100
AcDbLine
 10
-66.92500002394266
 20
156.386291043004
 30
0.0
 11
-66.9250000240584
 21
156.3506750069026
 31
0.0
  0
LINE
  5
20C
330
5C
100
AcDbEntity
  8
0
  6
Continuous
 62
     7
100
AcDbLine
 10
-66.92500002394233
 20
150.0039229799512
 30
0.0
 11
-66.92500002395263
 21
149.9124999315181
 31
0.0
  0
LINE
  5
20D
330
5C
100
AcDbEntity
  8
0
  6
Continuous
 62
     7
100
AcDbLine
 10
-68.8000000238416
 20
138.5124999315591
 30
0.0
 11
-68.80000002384175
 21
130.4124999315591
 31
0.0
  0
LINE
  5
20E
330
5C
100
AcDbEntity
  8
0
  6
Continuous
 62
     7
100
AcDbLine
 10
-67.07500002378791
 20
138.4124999315586
 30
0.0
 11
-67.0750000237872
 21
124.4124999315591
 31
0.0
  0
LINE
  5
20F
330
5C
100
AcDbEntity
  8
0
  6
Continuous
 62
     7
100
AcDbLine
 10
-67.0750000237872
 20
124.4124999315591
 30
0.0
 11
-67.07500002379015
 21
122.9124999317154
 31
0.0
  0
LINE
  5
210
330
5C
100
AcDbEntity
  8
0
  6
Continuous
 62
     7
100
AcDbLine
 10
-68.90000002384147
 20
124.412499931559
 30
0.0
 11
-67.0750000237872
 21
124.4124999315591
 31
0.0
  0
LINE
  5
211
330
5C
100
AcDbEntity
  8
0
  6
Continuous
 62
     7
100
AcDbLine
 10
-66.92500002406068
 20
162.4886517320143
 30
0.0
 11
-66.92500002399309
 21
159.5874999328219
 31
0.0
  0
LINE
  5
212
330
5C
100
AcDbEntity
  8
0
  6
Continuous
 62
     7
100
AcDbLine
 10
-66.92500002399309
 20
159.5874999328219
 30
0.0
 11
-66.92500002398609
 21
158.4874999317916
 31
0.0
  0
LINE
  5
213
330
5C
100
AcDbEntity
  8
0
  6
Continuous
 62
     7
100
AcDbLine
 10
-66.92500002399026
 20
139.5124999315561
 30
0.0
 11
-66.92500002399021
 21
138.4124999315586
 31
0.0
  0
LINE
  5
214
330
5C
100
AcDbEntity
  8
0
  6
Continuous
 62
     7
100
AcDbLine
 10
-66.9250000239933
 20
164.0874999317373
 30
0.0
 11
-66.9250000239495
 21
162.856957281511
 31
0.0
  0
LINE
  5
215
330
5C
100
AcDbEntity
  8
0
  6
Continuous
 62
     7
100
AcDbLine
 10
-66.9250000239495
 20
162.856957281511
 30
0.0
 11
-66.92500002406068
 21
162.4886517320143
 31
0.0
  0
LINE
  5
216
330
5C
100
AcDbEntity
  8
0
  6
Continuous
 62
     7
100
AcDbLine
 10
-66.9250000239933
 20
164.0874999317373
 30
0.0
 11
-73.07500002468
 21
164.0874999317394
 31
0.0
  0
LINE
  5
217
330
5C
100
AcDbEntity
  8
0
  6
Continuous
 62
     7
100
AcDbLine
 10
-72.12500002384172
 20
121.9124999315587
 30
0.0
 11
-72.12500002384172
 21
123.5124999316899
 31
0.0
  0
LINE
  5
218
330
5C
100
AcDbEntity
  8
0
  6
Continuous
 62
     7
100
AcDbLine
 10
-72.12500002384135
 20
138.4124999315083
 30
0.0
 11
-72.12500002384172
 21
123.5124999316899
 31
0.0
  0
LINE
  5
219
330
5C
100
AcDbEntity
  8
0
  6
Continuous
 62
     7
100
AcDbLine
 10
-73.07500002447291
 20
138.4124999314945
 30
0.0
 11
-72.12500002384135
 21
138.4124999315083
 31
0.0
  0
LINE
  5
21A
330
5C
100
AcDbEntity
  8
0
  6
Continuous
 62
     7
100
AcDbLine
 10
-71.47500002384136
 20
121.9124999315587
 30
0.0
 11
-72.12500002384172
 21
121.9124999315587
 31
0.0
  0
LINE
  5
21B
330
5C
100
AcDbEntity
  8
0
  6
Continuous
 62
     7
100
AcDbLine
 10
-71.47500002384142
 20
122.9124999317152
 30
0.0
 11
-71.47500002384136
 21
121.9124999315587
 31
0.0
  0
LINE
  5
21C
330
5C
100
AcDbEntity
  8
0
  6
Continuous
 62
     7
100
AcDbLine
 10
-73.07500002445627
 20
149.6401923103621
 30
0.0
 11
-66.92500002394614
 21
149.6401923103624
 31
0.0
  0
LINE
  5
21D
330
5C
100
AcDbEntity
  8
0
  6
Continuous
 62
     7
100
AcDbLine
 10
-73.07500002444681
 20
150.0039229799509
 30
0.0
 11
-66.92500002394233
 21
150.0039229799512
 31
0.0
  0
LINE
  5
21E
330
5C
100
AcDbEntity
  8
0
  6
Continuous
 62
     7
100
AcDbLine
 10
-66.92500002399026
 20
139.5124999315561
 30
0.0
 11
-66.925000023942
 21
143.4960768830653
 31
0.0
  0
LINE
  5
21F
330
5C
100
AcDbEntity
  8
0
  6
Continuous
 62
     7
100
AcDbLine
 10
-68.80000002384118
 20
139.512499931556
 30
0.0
 11
-66.92500002399026
 21
139.5124999315561
 31
0.0
  0
LINE
  5
220
330
5C
100
AcDbEntity
  8
0
  6
Continuous
 62
     7
100
AcDbLine
 10
-73.07500002435232
 20
143.496076883065
 30
0.0
 11
-66.925000023942
 21
143.4960768830653
 31
0.0
  0
LINE
  5
221
330
5C
100
AcDbEntity
  8
0
  6
Continuous
 62
     7
100
AcDbLine
 10
-66.92500002399021
 20
138.4124999315586
 30
0.0
 11
-67.07500002378791
 21
138.4124999315586
 31
0.0
  0
LINE
  5
222
330
5C
100
AcDbEntity
  8
0
  6
Continuous
 62
     7
100
AcDbLine
 10
-68.8000000238416
 20
138.5124999315591
 30
0.0
 11
-70.40000002384166
 21
138.5124999315591
 31
0.0
  0
LINE
  5
223
330
5C
100
AcDbEntity
  8
0
  6
Continuous
 62
     7
100
AcDbLine
 10
-73.07500002437236
 20
143.8598075526533
 30
0.0
 11
-66.92500002394584
 21
143.8598075526536
 31
0.0
  0
LINE
  5
224
330
5C
100
AcDbEntity
  8
0
  6
Continuous
 62
     7
100
AcDbLine
 10
-66.92500002395231
 20
143.5874999315129
 30
0.0
 11
-66.925000023942
 21
143.4960768830653
 31
0.0
  0
LINE
  5
225
330
5C
100
AcDbEntity
  8
0
  6
Continuous
 62
     7
100
AcDbLine
 10
-73.07500002453946
 20
156.3862910430037
 30
0.0
 11
-66.92500002394266
 21
156.386291043004
 31
0.0
  0
LINE
  5
226
330
5C
100
AcDbEntity
  8
0
  6
Continuous
 62
     7
100
AcDbLine
 10
-66.92500002394233
 20
150.0039229799512
 30
0.0
 11
-66.9250000240584
 21
156.3506750069026
 31
0.0
  0
LINE
  5
227
330
5C
100
AcDbEntity
  8
0
  6
Continuous
 62
     2
100
AcDbLine
 10
-69.3000000238416
 20
139.0124999315591
 30
0.0
 11
-69.9000000238416
 21
139.0124999315592
 31
0.0
  0
LINE
  5
228
330
5C
100
AcDbEntity
  8
0
  6
Continuous
 62
     7
100
AcDbLine
 10
-68.80000002384118
 20
139.512499931556
 30
0.0
 11
-68.8000000238416
 21
138.5124999315591
 31
0.0
  0
LINE
  5
229
330
5C
100
AcDbEntity
  8
0
  6
Continuous
 62
     7
100
AcDbLine
 10
-68.80000002384175
 20
130.4124999315591
 30
0.0
 11
-69.90000002384159
 21
130.4124999315591
 31
0.0
  0
LINE
  5
22A
330
5C
100
AcDbEntity
  8
0
  6
Continuous
 62
     7
100
AcDbLine
 10
-69.90000002384159
 20
130.4124999315591
 30
0.0
 11
-70.40000002384186
 21
130.4124999315591
 31
0.0
  0
LINE
  5
22B
330
5C
100
AcDbEntity
  8
0
  6
Continuous
 62
     2
100
AcDbLine
 10
-68.90000002384149
 20
124.6761616528503
 30
0.0
 11
-69.90000002384174
 21
124.6761616528485
 31
0.0
  0
LINE
  5
22C
330
5C
100
AcDbEntity
  8
0
  6
Continuous
 62
     2
100
AcDbLine
 10
-68.90000002384149
 20
125.7503636147618
 30
0.0
 11
-69.90000002384176
 21
125.7503636147618
 31
0.0
  0
LINE
  5
22D
330
5C
100
AcDbEntity
  8
0
  6
Continuous
 62
     7
100
AcDbLine
 10
-69.90000002384174
 20
124.6761616528485
 30
0.0
 11
-69.9000000236673
 21
123.5124999314724
 31
0.0
  0
LINE
  5
22E
330
5C
100
AcDbEntity
  8
0
  6
Continuous
 62
     7
100
AcDbLine
 10
-69.90000002384176
 20
125.7503636147618
 30
0.0
 11
-69.90000002384164
 21
128.4828292403997
 31
0.0
  0
LINE
  5
22F
330
5C
100
AcDbEntity
  8
0
  6
Continuous
 62
     7
100
AcDbLine
 10
-69.90000002384176
 20
125.7503636147618
 30
0.0
 11
-69.90000002384174
 21
124.6761616528485
 31
0.0
  0
LINE
  5
230
330
5C
100
AcDbEntity
  8
0
  6
Continuous
 62
     7
100
AcDbLine
 10
-69.9000000236673
 20
123.5124999314724
 30
0.0
 11
-72.12500002384172
 21
123.5124999316899
 31
0.0
  0
LINE
  5
231
330
5C
100
AcDbEntity
  8
0
  6
Continuous
 62
     7
100
AcDbLine
 10
-69.90000002384164
 20
128.4828292403997
 30
0.0
 11
-69.90000002384159
 21
130.4124999315591
 31
0.0
  0
LINE
  5
232
330
5C
100
AcDbEntity
  8
0
  6
Continuous
 62
     7
100
AcDbLine
 10
-68.90000002384149
 20
125.7503636147618
 30
0.0
 11
-68.90000002384137
 21
128.4828292404076
 31
0.0
  0
LINE
  5
233
330
5C
100
AcDbEntity
  8
0
  6
Continuous
 62
     7
100
AcDbLine
 10
-68.90000002384149
 20
125.7503636147618
 30
0.0
 11
-68.90000002384149
 21
124.6761616528503
 31
0.0
  0
LINE
  5
234
330
5C
100
AcDbEntity
  8
0
  6
Continuous
 62
     7
100
AcDbLine
 10
-68.90000002384147
 20
124.412499931559
 30
0.0
 11
-68.90000002384149
 21
124.6761616528503
 31
0.0
  0
LINE
  5
235
330
5C
100
AcDbEntity
  8
0
  6
Continuous
 62
     7
100
AcDbLine
 10
-68.90000002384137
 20
128.4828292404076
 30
0.0
 11
-69.90000002384164
 21
128.4828292403997
 31
0.0
  0
LINE
  5
236
330
5C
100
AcDbEntity
  8
0
  6
Continuous
 62
     7
100
AcDbLine
 10
-71.47500002384142
 20
122.9124999317152
 30
0.0
 11
-67.07500002379015
 21
122.9124999317154
 31
0.0
  0
ARC
  5
237
330
5C
100
AcDbEntity
  8
0
  6
Continuous
 62
     7
100
AcDbCircle
 10
-70.40000002384164
 20
139.0124999315592
 30
0.0
 40
0.5000000000001137
100
AcDbArc
 50
269.9999999999984
 51
0.0
  0
ARC
  5
238
330
5C
100
AcDbEntity
  8
0
  6
Continuous
 62
     7
100
AcDbCircle
 10
-68.80000002384165
 20
139.0124999315591
 30
0.0
 40
0.4999999999999574
100
AcDbArc
 50
180.0
 51
270.0000000000049
  0
CIRCLE
  5
239
330
5C
100
AcDbEntity
  8
0
  6
Continuous
 62
     7
100
AcDbCircle
 10
-70.00000002382555
 20
153.1874999315814
 30
0.0
 40
1.049999999999997
  0
ENDBLK
  5
5E
330
5C
100
AcDbEntity
  8
0
100
AcDbBlockEnd
  0
BLOCK
  5
61
330
5F
100
AcDbEntity
  8
0
100
AcDbBlockBegin
  2
SA_Links1
 70
     0
 10
-70.0
 20
143.0
 30
0.0
  3
SA_Links1
  1

  0
INSERT
  5
60
330
5F
100
AcDbEntity
  8
0
100
AcDbBlockReference
  2
PP_H_4_1_R_GNYE-select__4
 10
-73.07500002508637
 20
121.9124999315587
 30
0.0
  0
MTEXT
  5
23A
330
5F
100
AcDbEntity
  8
1
 62
     6
100
AcDbMText
 10
-70.0
 20
116.5259742962605
 30
0.0
 40
5.0
 41
0.0
 71
     2
 72
     1
  1
 
  7
CONVERTER_11
 73
     1
 44
1.32052821128451
  0
ENDBLK
  5
62
330
5F
100
AcDbEntity
  8
0
100
AcDbBlockEnd
  0
BLOCK
  5
64
330
63
100
AcDbEntity
  8
0
100
AcDbBlockBegin
  2
PP_H_4_1_R_GNYE-select__5
 70
     0
 10
-164.1481229760251
 20
121.9124999315587
 30
0.0
  3
PP_H_4_1_R_GNYE-select__5
  1

  0
LINE
  5
23B
330
63
100
AcDbEntity
  8
0
  6
Continuous
 62
     7
100
AcDbLine
 10
-159.598122976159
 20
121.9124999315587
 30
0.0
 11
-158.9481229761588
 21
121.9124999315587
 31
0.0
  0
LINE
  5
23C
330
63
100
AcDbEntity
  8
0
  6
Continuous
 62
     7
100
AcDbLine
 10
-158.9481229761589
 20
123.5124999317131
 30
0.0
 11
-162.4481229761591
 21
123.512499931713
 31
0.0
  0
LINE
  5
23D
330
63
100
AcDbEntity
  8
0
  6
Continuous
 62
     7
100
AcDbLine
 10
-158.9481229761589
 20
123.5124999317131
 30
0.0
 11
-158.9481229761588
 21
121.9124999315587
 31
0.0
  0
LINE
  5
23E
330
63
100
AcDbEntity
  8
0
  6
Continuous
 62
     7
100
AcDbLine
 10
-159.598122976159
 20
121.9124999315587
 30
0.0
 11
-159.598122976159
 21
122.9124999317155
 31
0.0
  0
LINE
  5
23F
330
63
100
AcDbEntity
  8
0
  6
Continuous
 62
     7
100
AcDbLine
 10
-158.99812297616
 20
150.9616774669712
 30
0.0
 11
-158.99812297616
 21
145.4617052068868
 31
0.0
  0
LINE
  5
240
330
63
100
AcDbEntity
  8
0
  6
Continuous
 62
     7
100
AcDbLine
 10
-157.9981229751273
 20
145.4617052068867
 30
0.0
 11
-158.99812297616
 21
145.4617052068868
 31
0.0
  0
LINE
  5
241
330
63
100
AcDbEntity
  8
0
  6
Continuous
 62
     7
100
AcDbLine
 10
-162.4481229761598
 20
139.5124999315593
 30
0.0
 11
-157.9981229752339
 21
139.5124999315527
 31
0.0
  0
LINE
  5
242
330
63
100
AcDbEntity
  8
0
  6
Continuous
 62
     7
100
AcDbLine
 10
-157.9981229752102
 20
139.7504499963887
 30
0.0
 11
-157.9981229751273
 21
145.4617052068867
 31
0.0
  0
LINE
  5
243
330
63
100
AcDbEntity
  8
0
  6
Continuous
 62
     7
100
AcDbLine
 10
-157.9981229755437
 20
149.6401923103621
 30
0.0
 11
-157.9981229755398
 21
149.9124999315181
 31
0.0
  0
LINE
  5
244
330
63
100
AcDbEntity
  8
0
  6
Continuous
 62
     7
100
AcDbLine
 10
-158.9981229761601
 20
153.5173222299406
 30
0.0
 11
-158.99812297616
 21
150.9616774669712
 31
0.0
  0
LINE
  5
245
330
63
100
AcDbEntity
  8
0
  6
Continuous
 62
     7
100
AcDbLine
 10
-158.9981229761602
 20
154.1132946561423
 30
0.0
 11
-158.9981229761601
 21
153.5173222299406
 31
0.0
  0
LINE
  5
246
330
63
100
AcDbEntity
  8
0
  6
Continuous
 62
     7
100
AcDbLine
 10
-158.9981229761602
 20
154.1132946561423
 30
0.0
 11
-158.9981229761602
 21
154.3374999315598
 31
0.0
  0
LINE
  5
247
330
63
100
AcDbEntity
  8
0
  6
Continuous
 62
     7
100
AcDbLine
 10
-157.9981229749836
 20
156.7513530857226
 30
0.0
 11
-157.9981229749168
 21
162.488651732014
 31
0.0
  0
LINE
  5
248
330
63
100
AcDbEntity
  8
0
  6
Continuous
 62
     7
100
AcDbLine
 10
-157.9981229750017
 20
154.1132946561423
 30
0.0
 11
-158.9981229761602
 21
154.1132946561423
 31
0.0
  0
LINE
  5
249
330
63
100
AcDbEntity
  8
0
  6
Continuous
 62
     7
100
AcDbLine
 10
-157.9981229750017
 20
154.1132946561423
 30
0.0
 11
-157.9981229749687
 21
156.3862911358843
 31
0.0
  0
LINE
  5
24A
330
63
100
AcDbEntity
  8
0
  6
Continuous
 62
     7
100
AcDbLine
 10
-157.9981229749
 20
162.856957295028
 30
0.0
 11
-157.9981229748857
 21
164.0874999317331
 31
0.0
  0
LINE
  5
24B
330
63
100
AcDbEntity
  8
0
  6
Continuous
 62
     7
100
AcDbLine
 10
-162.4481229761595
 20
136.112499931559
 30
0.0
 11
-163.9981229761607
 21
136.1124999315591
 31
0.0
  0
LINE
  5
24C
330
63
100
AcDbEntity
  8
0
  6
Continuous
 62
     7
100
AcDbLine
 10
-163.9981229761675
 20
122.9124999317158
 30
0.0
 11
-159.598122976159
 21
122.9124999317155
 31
0.0
  0
LINE
  5
24D
330
63
100
AcDbEntity
  8
0
  6
Continuous
 62
     7
100
AcDbLine
 10
-158.9481229761589
 20
123.5124999317131
 30
0.0
 11
-158.9481229761592
 21
138.4124999315083
 31
0.0
  0
LINE
  5
24E
330
63
100
AcDbEntity
  8
0
  6
Continuous
 62
     7
100
AcDbLine
 10
-162.4481229761595
 20
138.5124999315592
 30
0.0
 11
-162.4481229761595
 21
136.112499931559
 31
0.0
  0
LINE
  5
24F
330
63
100
AcDbEntity
  8
0
  6
Continuous
 62
     7
100
AcDbLine
 10
-162.4481229761595
 20
136.112499931559
 30
0.0
 11
-162.4481229761591
 21
124.412499931548
 31
0.0
  0
LINE
  5
250
330
63
100
AcDbEntity
  8
0
  6
Continuous
 62
     7
100
AcDbLine
 10
-162.4481229761591
 20
124.412499931548
 30
0.0
 11
-162.4481229761591
 21
123.512499931713
 31
0.0
  0
LINE
  5
251
330
63
100
AcDbEntity
  8
0
  6
Continuous
 62
     7
100
AcDbLine
 10
-157.9981229749168
 20
162.488651732014
 30
0.0
 11
-164.1481229759393
 21
162.4886517320144
 31
0.0
  0
LINE
  5
252
330
63
100
AcDbEntity
  8
0
  6
Continuous
 62
     7
100
AcDbLine
 10
-164.1481229759583
 20
138.5124999315593
 30
0.0
 11
-162.4481229761595
 21
138.5124999315592
 31
0.0
  0
LINE
  5
253
330
63
100
AcDbEntity
  8
0
  6
Continuous
 62
     7
100
AcDbLine
 10
-164.1481229759388
 20
153.5173222299405
 30
0.0
 11
-164.1481229759388
 21
152.9311427881006
 31
0.0
  0
LINE
  5
254
330
63
100
AcDbEntity
  8
0
  6
Continuous
 62
     7
100
AcDbLine
 10
-163.5481229759388
 20
152.9311427880891
 30
0.0
 11
-164.1481229759388
 21
152.9311427881006
 31
0.0
  0
LINE
  5
255
330
63
100
AcDbEntity
  8
0
  6
Continuous
 62
     7
100
AcDbLine
 10
-164.1481229759388
 20
153.5173222299405
 30
0.0
 11
-158.9981229761601
 21
153.5173222299406
 31
0.0
  0
LINE
  5
256
330
63
100
AcDbEntity
  8
0
  6
Continuous
 62
     7
100
AcDbLine
 10
-163.5481229759342
 20
151.5583479884913
 30
0.0
 11
-163.5481229759389
 21
150.9616774669711
 31
0.0
  0
LINE
  5
257
330
63
100
AcDbEntity
  8
0
  6
Continuous
 62
     7
100
AcDbLine
 10
-164.1481229759342
 20
151.5583479884956
 30
0.0
 11
-164.1481229759307
 21
145.461705206887
 31
0.0
  0
LINE
  5
258
330
63
100
AcDbEntity
  8
0
  6
Continuous
 62
     7
100
AcDbLine
 10
-157.9981229749687
 20
156.3862911358843
 30
0.0
 11
-164.1481229759302
 21
156.3862911358847
 31
0.0
  0
LINE
  5
259
330
63
100
AcDbEntity
  8
0
  6
Continuous
 62
     7
100
AcDbLine
 10
-157.9981229749836
 20
156.7513530857226
 30
0.0
 11
-164.1481229759353
 21
156.7513530857229
 31
0.0
  0
LINE
  5
25A
330
63
100
AcDbEntity
  8
0
  6
Continuous
 62
     7
100
AcDbLine
 10
-157.9981229749687
 20
156.3862911358843
 30
0.0
 11
-157.9981229749836
 21
156.7513530857226
 31
0.0
  0
LINE
  5
25B
330
63
100
AcDbEntity
  8
0
  6
Continuous
 62
     7
100
AcDbLine
 10
-164.1481229759303
 20
154.3374999315597
 30
0.0
 11
-158.9981229761602
 21
154.3374999315598
 31
0.0
  0
LINE
  5
25C
330
63
100
AcDbEntity
  8
0
  6
Continuous
 62
     7
100
AcDbLine
 10
-164.1481229759303
 20
154.3374999315597
 30
0.0
 11
-164.1481229759388
 21
153.5173222299405
 31
0.0
  0
LINE
  5
25D
330
63
100
AcDbEntity
  8
0
  6
Continuous
 62
     7
100
AcDbLine
 10
-164.1481229759302
 20
156.3862911358847
 30
0.0
 11
-164.1481229759353
 21
156.7513530857229
 31
0.0
  0
LINE
  5
25E
330
63
100
AcDbEntity
  8
0
  6
Continuous
 62
     7
100
AcDbLine
 10
-164.1481229759303
 20
154.3374999315597
 30
0.0
 11
-164.1481229759302
 21
156.3862911358847
 31
0.0
  0
LINE
  5
25F
330
63
100
AcDbEntity
  8
0
  6
Continuous
 62
     7
100
AcDbLine
 10
-157.9981229749
 20
162.856957295028
 30
0.0
 11
-164.1481229759364
 21
162.8569572950283
 31
0.0
  0
LINE
  5
260
330
63
100
AcDbEntity
  8
0
  6
Continuous
 62
     7
100
AcDbLine
 10
-157.9981229749168
 20
162.488651732014
 30
0.0
 11
-157.9981229749
 21
162.856957295028
 31
0.0
  0
LINE
  5
261
330
63
100
AcDbEntity
  8
0
  6
Continuous
 62
     7
100
AcDbLine
 10
-157.9981229752339
 20
139.5124999315527
 30
0.0
 11
-157.9981229753538
 21
138.4124999314945
 31
0.0
  0
LINE
  5
262
330
63
100
AcDbEntity
  8
0
  6
Continuous
 62
     7
100
AcDbLine
 10
-158.5981229761598
 20
143.2124999315587
 30
0.0
 11
-163.5481229759399
 21
143.2124999315586
 31
0.0
  0
LINE
  5
263
330
63
100
AcDbEntity
  8
0
  6
Continuous
 62
     7
100
AcDbLine
 10
-158.5981229761599
 20
140.6624999315612
 30
0.0
 11
-163.5481229759309
 21
140.6624999315449
 31
0.0
  0
LINE
  5
264
330
63
100
AcDbEntity
  8
0
  6
Continuous
 62
     7
100
AcDbLine
 10
-157.9981229752102
 20
139.7504499963887
 30
0.0
 11
-164.148122975931
 21
139.750449996389
 31
0.0
  0
LINE
  5
265
330
63
100
AcDbEntity
  8
0
  6
Continuous
 62
     7
100
AcDbLine
 10
-157.9981229752102
 20
139.7504499963887
 30
0.0
 11
-157.9981229752339
 21
139.5124999315527
 31
0.0
  0
LINE
  5
266
330
63
100
AcDbEntity
  8
0
  6
Continuous
 62
     7
100
AcDbLine
 10
-158.5981229761598
 20
141.4124999315587
 30
0.0
 11
-158.5981229761595
 21
142.6214840986327
 31
0.0
  0
LINE
  5
267
330
63
100
AcDbEntity
  8
0
  6
Continuous
 62
     7
100
AcDbLine
 10
-158.5981229761598
 20
143.2124999315587
 30
0.0
 11
-158.5981229761599
 21
143.7124999315579
 31
0.0
  0
LINE
  5
268
330
63
100
AcDbEntity
  8
0
  6
Continuous
 62
     7
100
AcDbLine
 10
-158.5981229761595
 20
142.6214840986327
 30
0.0
 11
-158.5981229761598
 21
143.2124999315587
 31
0.0
  0
LINE
  5
269
330
63
100
AcDbEntity
  8
0
  6
Continuous
 62
     7
100
AcDbLine
 10
-158.5981229761599
 20
140.6624999315612
 30
0.0
 11
-158.5981229761598
 21
141.4124999315587
 31
0.0
  0
LINE
  5
26A
330
63
100
AcDbEntity
  8
0
  6
Continuous
 62
     7
100
AcDbLine
 10
-163.5481229759308
 20
143.7124999315679
 30
0.0
 11
-158.5981229761599
 21
143.7124999315579
 31
0.0
  0
LINE
  5
26B
330
63
100
AcDbEntity
  8
0
  6
Continuous
 62
     7
100
AcDbLine
 10
-163.5481229759355
 20
141.4124999315586
 30
0.0
 11
-163.548122975958
 21
142.6214840986208
 31
0.0
  0
LINE
  5
26C
330
63
100
AcDbEntity
  8
0
  6
Continuous
 62
     7
100
AcDbLine
 10
-163.5481229759399
 20
143.2124999315586
 30
0.0
 11
-163.5481229759308
 21
143.7124999315679
 31
0.0
  0
LINE
  5
26D
330
63
100
AcDbEntity
  8
0
  6
Continuous
 62
     7
100
AcDbLine
 10
-163.548122975958
 20
142.6214840986208
 30
0.0
 11
-163.5481229759399
 21
143.2124999315586
 31
0.0
  0
LINE
  5
26E
330
63
100
AcDbEntity
  8
0
  6
Continuous
 62
     7
100
AcDbLine
 10
-163.5481229759309
 20
140.6624999315449
 30
0.0
 11
-163.5481229759355
 21
141.4124999315586
 31
0.0
  0
LINE
  5
26F
330
63
100
AcDbEntity
  8
0
  6
Continuous
 62
     2
100
AcDbLine
 10
-158.5981229761595
 20
142.6214840986327
 30
0.0
 11
-163.548122975958
 21
142.6214840986208
 31
0.0
  0
LINE
  5
270
330
63
100
AcDbEntity
  8
0
  6
Continuous
 62
     7
100
AcDbLine
 10
-158.5981229761598
 20
141.4124999315587
 30
0.0
 11
-163.5481229759355
 21
141.4124999315586
 31
0.0
  0
LINE
  5
271
330
63
100
AcDbEntity
  8
0
  6
Continuous
 62
     7
100
AcDbLine
 10
-158.99812297616
 20
144.2374999315587
 30
0.0
 11
-163.5481229759308
 21
144.2374999315533
 31
0.0
  0
LINE
  5
272
330
63
100
AcDbEntity
  8
0
  6
Continuous
 62
     7
100
AcDbLine
 10
-158.9481229761592
 20
138.4124999315083
 30
0.0
 11
-157.9981229753538
 21
138.4124999314945
 31
0.0
  0
LINE
  5
273
330
63
100
AcDbEntity
  8
0
  6
Continuous
 62
     7
100
AcDbLine
 10
-163.9981229761675
 20
122.9124999317158
 30
0.0
 11
-163.9981229761644
 21
124.4124999315481
 31
0.0
  0
LINE
  5
274
330
63
100
AcDbEntity
  8
0
  6
Continuous
 62
     7
100
AcDbLine
 10
-163.5481229759308
 20
144.2374999315533
 30
0.0
 11
-163.5481229759307
 21
145.461705206887
 31
0.0
  0
LINE
  5
275
330
63
100
AcDbEntity
  8
0
  6
Continuous
 62
     7
100
AcDbLine
 10
-163.9981229761607
 20
136.1124999315591
 30
0.0
 11
-163.9981229761606
 21
138.4124999315586
 31
0.0
  0
LINE
  5
276
330
63
100
AcDbEntity
  8
0
  6
Continuous
 62
     7
100
AcDbLine
 10
-164.1481229759353
 20
156.7513530857229
 30
0.0
 11
-164.1481229760182
 21
158.4874999317917
 31
0.0
  0
LINE
  5
277
330
63
100
AcDbEntity
  8
0
  6
Continuous
 62
     7
100
AcDbLine
 10
-164.1481229760251
 20
159.5874999317918
 30
0.0
 11
-164.1481229759393
 21
162.4886517320144
 31
0.0
  0
LINE
  5
278
330
63
100
AcDbEntity
  8
0
  6
Continuous
 62
     7
100
AcDbLine
 10
-163.5481229759307
 20
145.461705206887
 30
0.0
 11
-164.1481229759307
 21
145.461705206887
 31
0.0
  0
LINE
  5
279
330
63
100
AcDbEntity
  8
0
  6
Continuous
 62
     7
100
AcDbLine
 10
-164.1481229759307
 20
145.461705206887
 30
0.0
 11
-164.148122975931
 21
139.750449996389
 31
0.0
  0
LINE
  5
27A
330
63
100
AcDbEntity
  8
0
  6
Continuous
 62
     7
100
AcDbLine
 10
-164.148122975931
 20
139.750449996389
 30
0.0
 11
-164.1481229759583
 21
138.5124999315593
 31
0.0
  0
LINE
  5
27B
330
63
100
AcDbEntity
  8
0
  6
Continuous
 62
     7
100
AcDbLine
 10
-164.1481229759583
 20
138.5124999315593
 30
0.0
 11
-164.1481229759583
 21
138.4124999315586
 31
0.0
  0
LINE
  5
27C
330
63
100
AcDbEntity
  8
0
  6
Continuous
 62
     2
100
AcDbLine
 10
-163.5481229759342
 20
151.5583479884913
 30
0.0
 11
-164.1481229759342
 21
151.5583479884956
 31
0.0
  0
LINE
  5
27D
330
63
100
AcDbEntity
  8
0
  6
Continuous
 62
     7
100
AcDbLine
 10
-163.5481229759342
 20
151.5583479884913
 30
0.0
 11
-163.5481229759388
 21
152.9311427880891
 31
0.0
  0
LINE
  5
27E
330
63
100
AcDbEntity
  8
0
  6
Continuous
 62
     7
100
AcDbLine
 10
-164.1481229759342
 20
151.5583479884956
 30
0.0
 11
-164.1481229759388
 21
152.9311427881006
 31
0.0
  0
LINE
  5
27F
330
63
100
AcDbEntity
  8
0
  6
Continuous
 62
     7
100
AcDbLine
 10
-157.9981229748857
 20
164.0874999317331
 30
0.0
 11
-164.1481229760249
 21
164.0874999317383
 31
0.0
  0
LINE
  5
280
330
63
100
AcDbEntity
  8
0
  6
Continuous
 62
     7
100
AcDbLine
 10
-164.1481229759364
 20
162.8569572950283
 30
0.0
 11
-164.1481229760249
 21
164.0874999317383
 31
0.0
  0
LINE
  5
281
330
63
100
AcDbEntity
  8
0
  6
Continuous
 62
     7
100
AcDbLine
 10
-164.1481229759393
 20
162.4886517320144
 30
0.0
 11
-164.1481229759364
 21
162.8569572950283
 31
0.0
  0
LINE
  5
282
330
63
100
AcDbEntity
  8
0
  6
Continuous
 62
     7
100
AcDbLine
 10
-164.1481229760182
 20
158.4874999317917
 30
0.0
 11
-164.1481229760251
 21
159.5874999317918
 31
0.0
  0
LINE
  5
283
330
63
100
AcDbEntity
  8
0
  6
Continuous
 62
     7
100
AcDbLine
 10
-162.4481229761591
 20
124.412499931548
 30
0.0
 11
-163.9981229761644
 21
124.4124999315481
 31
0.0
  0
LINE
  5
284
330
63
100
AcDbEntity
  8
0
  6
Continuous
 62
     7
100
AcDbLine
 10
-163.9981229761644
 20
124.4124999315481
 30
0.0
 11
-163.9981229761607
 21
136.1124999315591
 31
0.0
  0
LINE
  5
285
330
63
100
AcDbEntity
  8
0
  6
Continuous
 62
     7
100
AcDbLine
 10
-163.9981229761606
 20
138.4124999315586
 30
0.0
 11
-164.1481229759583
 21
138.4124999315586
 31
0.0
  0
LINE
  5
286
330
63
100
AcDbEntity
  8
0
  6
Continuous
 62
     7
100
AcDbLine
 10
-157.9981229750017
 20
154.1132946561423
 30
0.0
 11
-157.9981229755398
 21
149.9124999315181
 31
0.0
  0
LINE
  5
287
330
63
100
AcDbEntity
  8
0
  6
Continuous
 62
     7
100
AcDbLine
 10
-157.9981229755437
 20
149.6401923103621
 30
0.0
 11
-157.9981229751273
 21
145.4617052068867
 31
0.0
  0
LINE
  5
288
330
63
100
AcDbEntity
  8
0
  6
Continuous
 62
     7
100
AcDbLine
 10
-163.5481229759389
 20
150.9616774669711
 30
0.0
 11
-163.5481229759307
 21
145.461705206887
 31
0.0
  0
LINE
  5
289
330
63
100
AcDbEntity
  8
0
  6
Continuous
 62
     7
100
AcDbLine
 10
-162.4481229761598
 20
139.5124999315593
 30
0.0
 11
-162.4481229761595
 21
138.5124999315592
 31
0.0
  0
LINE
  5
28A
330
63
100
AcDbEntity
  8
0
  6
Continuous
 62
     7
100
AcDbLine
 10
-158.99812297616
 20
144.2374999315587
 30
0.0
 11
-158.99812297616
 21
145.4617052068868
 31
0.0
  0
LINE
  5
28B
330
63
100
AcDbEntity
  8
0
  6
Continuous
 62
     7
100
AcDbLine
 10
-158.99812297616
 20
150.9616774669712
 30
0.0
 11
-163.5481229759389
 21
150.9616774669711
 31
0.0
  0
ENDBLK
  5
65
330
63
100
AcDbEntity
  8
0
100
AcDbBlockEnd
  0
BLOCK
  5
68
330
66
100
AcDbEntity
  8
0
100
AcDbBlockBegin
  2
SA_Rechts1
 70
     0
 10
-161.073123
 20
143.0
 30
0.0
  3
SA_Rechts1
  1

  0
INSERT
  5
67
330
66
100
AcDbEntity
  8
0
100
AcDbBlockReference
  2
PP_H_4_1_R_GNYE-select__5
 10
-164.1481229760251
 20
121.9124999315587
 30
0.0
  0
MTEXT
  5
28C
330
66
100
AcDbEntity
  8
1
 62
     6
100
AcDbMText
 10
-161.0731231203116
 20
116.5259742962605
 30
0.0
 40
5.0
 41
0.0
 71
     2
 72
     1
  1
 
  7
CONVERTER_11
 73
     1
 44
1.32052821128451
  0
ENDBLK
  5
69
330
66
100
AcDbEntity
  8
0
100
AcDbBlockEnd
  0
BLOCK
  5
6B
330
6A
100
AcDbEntity
  8
0
100
AcDbBlockBegin
  2
PP_H_4_1_R_GNYE-select__6
 70
     0
 10
-113.8625429283098
 20
121.9124999315587
 30
0.0
  3
PP_H_4_1_R_GNYE-select__6
  1

  0
LINE
  5
28D
330
6A
100
AcDbEntity
  8
0
  6
Continuous
 62
     7
100
AcDbLine
 10
-92.86254292809778
 20
139.750449996389
 30
0.0
 11
-97.36254292812676
 21
138.5124999315593
 31
0.0
  0
LINE
  5
28E
330
6A
100
AcDbEntity
  8
0
  6
Continuous
 62
     7
100
AcDbLine
 10
-112.6357252897671
 20
164.0874999317397
 30
0.0
 11
-108.5625427002193
 21
164.0874999317383
 31
0.0
  0
LINE
  5
28F
330
6A
100
AcDbEntity
  8
0
  6
Continuous
 62
     7
100
AcDbLine
 10
-106.7307745404047
 20
164.0874999317374
 30
0.0
 11
-107.3625429275486
 21
164.0874999317375
 31
0.0
  0
LINE
  5
290
330
6A
100
AcDbEntity
  8
0
  6
Continuous
 62
     7
100
AcDbLine
 10
-94.0893603285115
 20
164.0874999317334
 30
0.0
 11
-93.93826869121008
 21
162.8569572950283
 31
0.0
  0
LINE
  5
291
330
6A
100
AcDbEntity
  8
0
  6
Continuous
 62
     7
100
AcDbLine
 10
-105.5625429278463
 20
164.0874999317373
 30
0.0
 11
-106.7307745404047
 21
164.0874999317374
 31
0.0
  0
LINE
  5
292
330
6A
100
AcDbEntity
  8
0
  6
Continuous
 62
     7
100
AcDbLine
 10
-107.3625429275486
 20
164.0874999317375
 30
0.0
 11
-108.5625427002193
 21
164.0874999317383
 31
0.0
  0
LINE
  5
293
330
6A
100
AcDbEntity
  8
0
  6
Continuous
 62
     7
100
AcDbLine
 10
-105.5625429278463
 20
164.0874999317373
 30
0.0
 11
-94.0893603285115
 21
164.0874999317334
 31
0.0
  0
LINE
  5
294
330
6A
100
AcDbEntity
  8
0
  6
Continuous
 62
     7
100
AcDbLine
 10
-105.8625429281409
 20
136.1124999315591
 30
0.0
 11
-105.862542928144
 21
131.6124999315586
 31
0.0
  0
LINE
  5
295
330
6A
100
AcDbEntity
  8
0
  6
Continuous
 62
     7
100
AcDbLine
 10
-113.8625429283098
 20
139.5124999315561
 30
0.0
 11
-108.7625429281767
 21
139.5124999315559
 31
0.0
  0
LINE
  5
296
330
6A
100
AcDbEntity
  8
0
  6
Continuous
 62
     7
100
AcDbLine
 10
-112.1625429283093
 20
143.587499931513
 30
0.0
 11
-113.2325429283082
 21
143.5874999315129
 31
0.0
  0
LINE
  5
297
330
6A
100
AcDbEntity
  8
0
  6
Continuous
 62
     7
100
AcDbLine
 10
-113.2325429283073
 20
149.9124999315184
 30
0.0
 11
-112.1625429283054
 21
149.9124999315181
 31
0.0
  0
LINE
  5
298
330
6A
100
AcDbEntity
  8
0
  6
Continuous
 62
     7
100
AcDbLine
 10
-113.0356966024657
 20
156.4810752042648
 30
0.0
 11
-111.9736722204052
 21
156.3506750068453
 31
0.0
  0
LINE
  5
299
330
6A
100
AcDbEntity
  8
0
  6
Continuous
 62
     7
100
AcDbLine
 10
-107.3625429281411
 20
139.5124999315559
 30
0.0
 11
-106.3625429281304
 21
139.512499931556
 31
0.0
  0
LINE
  5
29A
330
6A
100
AcDbEntity
  8
0
  6
Continuous
 62
     7
100
AcDbLine
 10
-106.3625429281304
 20
139.512499931556
 30
0.0
 11
-105.8625429281296
 21
139.5124999315561
 31
0.0
  0
LINE
  5
29B
330
6A
100
AcDbEntity
  8
0
  6
Continuous
 62
     7
100
AcDbLine
 10
-108.7625429281767
 20
139.5124999315559
 30
0.0
 11
-107.3625429281411
 21
139.5124999315559
 31
0.0
  0
LINE
  5
29C
330
6A
100
AcDbEntity
  8
0
  6
Continuous
 62
     7
100
AcDbLine
 10
-105.8625429281416
 20
124.412499931559
 30
0.0
 11
-105.950430168572
 21
124.6761616528503
 31
0.0
  0
LINE
  5
29D
330
6A
100
AcDbEntity
  8
0
  6
Continuous
 62
     7
100
AcDbLine
 10
-106.8625429281412
 20
130.4124999315591
 30
0.0
 11
-105.862542928144
 21
130.4124999315591
 31
0.0
  0
LINE
  5
29E
330
6A
100
AcDbEntity
  8
0
  6
Continuous
 62
     7
100
AcDbLine
 10
-105.862542928144
 20
130.4124999315591
 30
0.0
 11
-105.8625429281416
 21
128.4828292404076
 31
0.0
  0
LINE
  5
29F
330
6A
100
AcDbEntity
  8
0
  6
Continuous
 62
     7
100
AcDbLine
 10
-105.862542928144
 20
131.6124999315586
 30
0.0
 11
-105.862542928144
 21
130.4124999315591
 31
0.0
  0
LINE
  5
2A0
330
6A
100
AcDbEntity
  8
0
  6
Continuous
 62
     7
100
AcDbLine
 10
-105.862542928144
 20
131.6124999315586
 30
0.0
 11
-106.8625429281411
 21
131.4124999315591
 31
0.0
  0
LINE
  5
2A1
330
6A
100
AcDbEntity
  8
0
  6
Continuous
 62
     7
100
AcDbLine
 10
-106.8625429281412
 20
134.2464745277748
 30
0.0
 11
-106.8625429281411
 21
131.4124999315591
 31
0.0
  0
LINE
  5
2A2
330
6A
100
AcDbEntity
  8
0
  6
Continuous
 62
     7
100
AcDbLine
 10
-106.3625429281304
 20
139.512499931556
 30
0.0
 11
-106.3625429281304
 21
136.1124999315591
 31
0.0
  0
LINE
  5
2A3
330
6A
100
AcDbEntity
  8
0
  6
Continuous
 62
     7
100
AcDbLine
 10
-105.8625429281296
 20
138.4124999315586
 30
0.0
 11
-105.8625429281409
 21
136.1124999315591
 31
0.0
  0
LINE
  5
2A4
330
6A
100
AcDbEntity
  8
0
  6
Continuous
 62
     7
100
AcDbLine
 10
-105.8625429281409
 20
136.1124999315591
 30
0.0
 11
-106.3625429281304
 21
136.1124999315591
 31
0.0
  0
LINE
  5
2A5
330
6A
100
AcDbEntity
  8
0
  6
Continuous
 62
     7
100
AcDbLine
 10
-105.3625429282093
 20
122.9124999317152
 30
0.0
 11
-105.0292095948238
 21
121.9124999315587
 31
0.0
  0
LINE
  5
2A6
330
6A
100
AcDbEntity
  8
0
  6
Continuous
 62
     7
100
AcDbLine
 10
-105.8625429281416
 20
128.4828292404076
 30
0.0
 11
-105.8625429281416
 21
124.412499931559
 31
0.0
  0
LINE
  5
2A7
330
6A
100
AcDbEntity
  8
0
  6
Continuous
 62
     7
100
AcDbLine
 10
-105.8625429281416
 20
124.412499931559
 30
0.0
 11
-105.3625429282093
 21
122.9124999317152
 31
0.0
  0
LINE
  5
2A8
330
6A
100
AcDbEntity
  8
0
  6
Continuous
 62
     7
100
AcDbLine
 10
-94.42702668138246
 20
162.4886517320143
 30
0.0
 11
-93.93826869121008
 21
162.8569572950283
 31
0.0
  0
LINE
  5
2A9
330
6A
100
AcDbEntity
  8
0
  6
Continuous
 62
     7
100
AcDbLine
 10
-94.46021263237421
 20
162.7589296134346
 30
0.0
 11
-94.42702668138246
 21
162.4886517320143
 31
0.0
  0
LINE
  5
2AA
330
6A
100
AcDbEntity
  8
0
  6
Continuous
 62
     7
100
AcDbLine
 10
-95.52223701394965
 20
162.6285294160752
 30
0.0
 11
-94.46021263237421
 21
162.7589296134346
 31
0.0
  0
LINE
  5
2AB
330
6A
100
AcDbEntity
  8
0
  6
Continuous
 62
     7
100
AcDbLine
 10
-112.78681692873
 20
162.856957281511
 30
0.0
 11
-112.2980589564211
 21
162.4886517319578
 31
0.0
  0
LINE
  5
2AC
330
6A
100
AcDbEntity
  8
0
  6
Continuous
 62
     7
100
AcDbLine
 10
-113.2325429283075
 20
143.8598075526536
 30
0.0
 11
-113.8625429283082
 21
143.4960768830653
 31
0.0
  0
LINE
  5
2AD
330
6A
100
AcDbEntity
  8
0
  6
Continuous
 62
     7
100
AcDbLine
 10
-113.2325429283082
 20
143.5874999315129
 30
0.0
 11
-113.2325429283075
 21
143.8598075526536
 31
0.0
  0
LINE
  5
2AE
330
6A
100
AcDbEntity
  8
0
  6
Continuous
 62
     7
100
AcDbLine
 10
-113.2325429282697
 20
149.6401923103624
 30
0.0
 11
-113.2325429283073
 21
149.9124999315184
 31
0.0
  0
LINE
  5
2AF
330
6A
100
AcDbEntity
  8
0
  6
Continuous
 62
     7
100
AcDbLine
 10
-112.78681692873
 20
162.856957281511
 30
0.0
 11
-112.6357252897671
 21
164.0874999317397
 31
0.0
  0
LINE
  5
2B0
330
6A
100
AcDbEntity
  8
0
  6
Continuous
 62
     7
100
AcDbLine
 10
-94.7514134171806
 20
156.3506750069026
 30
0.0
 11
-95.52223701394965
 21
162.6285294160752
 31
0.0
  0
LINE
  5
2B1
330
6A
100
AcDbEntity
  8
0
  6
Continuous
 62
     7
100
AcDbLine
 10
-108.5625427002209
 20
159.5874999317918
 30
0.0
 11
-108.5625427002193
 21
164.0874999317383
 31
0.0
  0
LINE
  5
2B2
330
6A
100
AcDbEntity
  8
0
  6
Continuous
 62
     7
100
AcDbLine
 10
-106.6821324172913
 20
158.4878013097307
 30
0.0
 11
-106.7307745403895
 21
158.4878013089468
 31
0.0
  0
LINE
  5
2B3
330
6A
100
AcDbEntity
  8
0
  6
Continuous
 62
     7
100
AcDbLine
 10
-106.7625429274818
 20
158.4874999316464
 30
0.0
 11
-107.3625435086065
 21
158.4874999329006
 31
0.0
  0
LINE
  5
2B4
330
6A
100
AcDbEntity
  8
0
  6
Continuous
 62
     7
100
AcDbLine
 10
-109.2625429281414
 20
138.5124999315591
 30
0.0
 11
-109.2625429281413
 21
130.4124999315591
 31
0.0
  0
LINE
  5
2B5
330
6A
100
AcDbEntity
  8
0
  6
Continuous
 62
     7
100
AcDbLine
 10
-112.1625429283093
 20
143.587499931513
 30
0.0
 11
-112.1625429283054
 21
149.9124999315181
 31
0.0
  0
LINE
  5
2B6
330
6A
100
AcDbEntity
  8
0
  6
Continuous
 62
     7
100
AcDbLine
 10
-112.2648730054268
 20
162.7589296133979
 30
0.0
 11
-112.2980589564211
 21
162.4886517319578
 31
0.0
  0
LINE
  5
2B7
330
6A
100
AcDbEntity
  8
0
  6
Continuous
 62
     7
100
AcDbLine
 10
-97.86254292813044
 20
124.4124999315481
 30
0.0
 11
-97.86254292813044
 21
136.1124999315591
 31
0.0
  0
LINE
  5
2B8
330
6A
100
AcDbEntity
  8
0
  6
Continuous
 62
     7
100
AcDbLine
 10
-105.8625429281296
 20
138.4124999315586
 30
0.0
 11
-97.36254292812676
 21
138.4124999315586
 31
0.0
  0
LINE
  5
2B9
330
6A
100
AcDbEntity
  8
0
  6
Continuous
 62
     7
100
AcDbLine
 10
-105.8625429281296
 20
139.5124999315561
 30
0.0
 11
-105.8625429281296
 21
138.4124999315586
 31
0.0
  0
LINE
  5
2BA
330
6A
100
AcDbEntity
  8
0
  6
Continuous
 62
     7
100
AcDbLine
 10
-107.362542928141
 20
139.0124999315591
 30
0.0
 11
-107.3625429281411
 21
139.5124999315559
 31
0.0
  0
LINE
  5
2BB
330
6A
100
AcDbEntity
  8
0
  6
Continuous
 62
     7
100
AcDbLine
 10
-97.36254292812676
 20
138.5124999315593
 30
0.0
 11
-97.36254292812676
 21
138.4124999315586
 31
0.0
  0
LINE
  5
2BC
330
6A
100
AcDbEntity
  8
0
  6
Continuous
 62
     7
100
AcDbLine
 10
-98.36254292810119
 20
122.9124999317155
 30
0.0
 11
-97.86254292813044
 21
124.4124999315481
 31
0.0
  0
LINE
  5
2BD
330
6A
100
AcDbEntity
  8
0
  6
Continuous
 62
     7
100
AcDbLine
 10
-98.6958762614868
 20
121.9124999315587
 30
0.0
 11
-98.36254292810119
 21
122.9124999317155
 31
0.0
  0
LINE
  5
2BE
330
6A
100
AcDbEntity
  8
0
  6
Continuous
 62
     7
100
AcDbLine
 10
-105.0292095948238
 20
121.9124999315587
 30
0.0
 11
-98.6958762614868
 21
121.9124999315587
 31
0.0
  0
LINE
  5
2BF
330
6A
100
AcDbEntity
  8
0
  6
Continuous
 62
     7
100
AcDbLine
 10
-98.36254292810119
 20
122.9124999317155
 30
0.0
 11
-105.3625429282093
 21
122.9124999317152
 31
0.0
  0
LINE
  5
2C0
330
6A
100
AcDbEntity
  8
0
  6
Continuous
 62
     7
100
AcDbLine
 10
-106.8625429281412
 20
134.2464745277748
 30
0.0
 11
-107.3625429281411
 21
136.1124999315591
 31
0.0
  0
LINE
  5
2C1
330
6A
100
AcDbEntity
  8
0
  6
Continuous
 62
     7
100
AcDbLine
 10
-106.8625429281412
 20
138.5124999315591
 30
0.0
 11
-109.2625429281414
 21
138.5124999315591
 31
0.0
  0
LINE
  5
2C2
330
6A
100
AcDbEntity
  8
0
  6
Continuous
 62
     2
100
AcDbLine
 10
-107.362542928141
 20
139.0124999315591
 30
0.0
 11
-108.7625429281767
 21
139.0124999315591
 31
0.0
  0
LINE
  5
2C3
330
6A
100
AcDbEntity
  8
0
  6
Continuous
 62
     7
100
AcDbLine
 10
-108.7625429281767
 20
139.5124999315559
 30
0.0
 11
-108.7625429281767
 21
139.0124999315591
 31
0.0
  0
LINE
  5
2C4
330
6A
100
AcDbEntity
  8
0
  6
Continuous
 62
     7
100
AcDbLine
 10
-113.8625429283098
 20
139.5124999315561
 30
0.0
 11
-113.8625429283082
 21
143.4960768830653
 31
0.0
  0
LINE
  5
2C5
330
6A
100
AcDbEntity
  8
0
  6
Continuous
 62
     7
100
AcDbLine
 10
-113.8625429282686
 20
150.0039229799512
 30
0.0
 11
-113.2325429282697
 21
149.6401923103624
 31
0.0
  0
LINE
  5
2C6
330
6A
100
AcDbEntity
  8
0
  6
Continuous
 62
     7
100
AcDbLine
 10
-113.8625429282686
 20
150.0039229799512
 30
0.0
 11
-113.8625429282661
 21
156.386291043004
 31
0.0
  0
LINE
  5
2C7
330
6A
100
AcDbEntity
  8
0
  6
Continuous
 62
     7
100
AcDbLine
 10
-113.8625429282661
 20
156.386291043004
 30
0.0
 11
-113.0025106514799
 21
156.7513530856253
 31
0.0
  0
LINE
  5
2C8
330
6A
100
AcDbEntity
  8
0
  6
Continuous
 62
     7
100
AcDbLine
 10
-113.0025106514799
 20
156.7513530856253
 30
0.0
 11
-113.0356966024657
 21
156.4810752042648
 31
0.0
  0
LINE
  5
2C9
330
6A
100
AcDbEntity
  8
0
  6
Continuous
 62
     7
100
AcDbLine
 10
-106.8625429281412
 20
130.4124999315591
 30
0.0
 11
-109.2625429281413
 21
130.4124999315591
 31
0.0
  0
LINE
  5
2CA
330
6A
100
AcDbEntity
  8
0
  6
Continuous
 62
     7
100
AcDbLine
 10
-106.8625429281411
 20
131.4124999315591
 30
0.0
 11
-106.8625429281412
 21
130.4124999315591
 31
0.0
  0
LINE
  5
2CB
330
6A
100
AcDbEntity
  8
0
  6
Continuous
 62
     7
100
AcDbLine
 10
-107.3625429281411
 20
136.1124999315591
 30
0.0
 11
-107.3625429281411
 21
136.7124999315591
 31
0.0
  0
LINE
  5
2CC
330
6A
100
AcDbEntity
  8
0
  6
Continuous
 62
     7
100
AcDbLine
 10
-106.8625429281412
 20
138.5124999315591
 30
0.0
 11
-106.8625429281412
 21
137.2124999315591
 31
0.0
  0
LINE
  5
2CD
330
6A
100
AcDbEntity
  8
0
  6
Continuous
 62
     7
100
AcDbLine
 10
-111.9736722204052
 20
156.3506750068453
 30
0.0
 11
-111.202848623632
 21
162.6285294160111
 31
0.0
  0
LINE
  5
2CE
330
6A
100
AcDbEntity
  8
0
  6
Continuous
 62
     7
100
AcDbLine
 10
-112.2648730054268
 20
162.7589296133979
 30
0.0
 11
-111.202848623632
 21
162.6285294160111
 31
0.0
  0
LINE
  5
2CF
330
6A
100
AcDbEntity
  8
0
  6
Continuous
 62
     7
100
AcDbLine
 10
-105.5625429278463
 20
164.0874999317373
 30
0.0
 11
-105.5625429277754
 21
159.5874999348964
 31
0.0
  0
LINE
  5
2D0
330
6A
100
AcDbEntity
  8
0
  6
Continuous
 62
     7
100
AcDbLine
 10
-106.7307745403895
 20
158.4878013089468
 30
0.0
 11
-106.7307745404047
 21
164.0874999317374
 31
0.0
  0
LINE
  5
2D1
330
6A
100
AcDbEntity
  8
0
  6
Continuous
 62
     2
100
AcDbLine
 10
-107.3625435086065
 20
158.4874999329006
 30
0.0
 11
-107.3625429275486
 21
164.0874999317375
 31
0.0
  0
LINE
  5
2D2
330
6A
100
AcDbEntity
  8
0
  6
Continuous
 62
     7
100
AcDbLine
 10
-92.86254292809778
 20
145.461705206887
 30
0.0
 11
-92.86254292809778
 21
139.750449996389
 31
0.0
  0
LINE
  5
2D3
330
6A
100
AcDbEntity
  8
0
  6
Continuous
 62
     7
100
AcDbLine
 10
-94.26254292812938
 20
153.5173222299405
 30
0.0
 11
-94.26254292812442
 21
152.9311427881006
 31
0.0
  0
LINE
  5
2D4
330
6A
100
AcDbEntity
  8
0
  6
Continuous
 62
     7
100
AcDbLine
 10
-94.75213964684498
 20
154.9861123860868
 30
0.0
 11
-94.26254292812938
 21
153.5173222299405
 31
0.0
  0
LINE
  5
2D5
330
6A
100
AcDbEntity
  8
0
  6
Continuous
 62
     7
100
AcDbLine
 10
-93.72257498633104
 20
156.7513530857229
 30
0.0
 11
-93.68938903533747
 21
156.4810752042945
 31
0.0
  0
LINE
  5
2D6
330
6A
100
AcDbEntity
  8
0
  6
Continuous
 62
     7
100
AcDbLine
 10
-94.16254292812937
 20
155.6442262690952
 30
0.0
 11
-94.27779799781973
 21
155.6442262690952
 31
0.0
  0
LINE
  5
2D7
330
6A
100
AcDbEntity
  8
0
  6
Continuous
 62
     7
100
AcDbLine
 10
-92.86254292812936
 20
156.3862911358847
 30
0.0
 11
-93.72257498633104
 21
156.7513530857229
 31
0.0
  0
LINE
  5
2D8
330
6A
100
AcDbEntity
  8
0
  6
Continuous
 62
     7
100
AcDbLine
 10
-93.66254292812937
 20
154.8374999315597
 30
0.0
 11
-93.66254292812937
 21
155.1442262690952
 31
0.0
  0
LINE
  5
2D9
330
6A
100
AcDbEntity
  8
0
  6
Continuous
 62
     7
100
AcDbLine
 10
-92.86254292812936
 20
154.3374999315597
 30
0.0
 11
-92.86254292812936
 21
156.3862911358847
 31
0.0
  0
LINE
  5
2DA
330
6A
100
AcDbEntity
  8
0
  6
Continuous
 62
     7
100
AcDbLine
 10
-92.86254292812936
 20
154.3374999315597
 30
0.0
 11
-93.16254292812937
 21
154.3374999315597
 31
0.0
  0
LINE
  5
2DB
330
6A
100
AcDbEntity
  8
0
  6
Continuous
 62
     7
100
AcDbLine
 10
-93.68938903533747
 20
156.4810752042945
 30
0.0
 11
-94.7514134171806
 21
156.3506750069026
 31
0.0
  0
LINE
  5
2DC
330
6A
100
AcDbEntity
  8
0
  6
Continuous
 62
     7
100
AcDbLine
 10
-92.86254292816056
 20
154.1132946561423
 30
0.0
 11
-92.86254292812936
 21
154.3374999315597
 31
0.0
  0
LINE
  5
2DD
330
6A
100
AcDbEntity
  8
0
  6
Continuous
 62
     7
100
AcDbLine
 10
-97.86254292813044
 20
136.1124999315591
 30
0.0
 11
-97.36254292812767
 21
136.1124999315591
 31
0.0
  0
LINE
  5
2DE
330
6A
100
AcDbEntity
  8
0
  6
Continuous
 62
     7
100
AcDbLine
 10
-97.36254292812767
 20
136.1124999315591
 30
0.0
 11
-97.36254292812676
 21
138.4124999315586
 31
0.0
  0
ARC
  5
2DF
330
6A
100
AcDbEntity
  8
0
  6
Continuous
 62
     7
100
AcDbCircle
 10
-104.7625429281293
 20
126.812499931563
 30
0.0
 40
2.000000000003078
100
AcDbArc
 50
123.3670129695952
 51
212.07765443201
  0
ARC
  5
2E0
330
6A
100
AcDbEntity
  8
0
  6
Continuous
 62
     7
100
AcDbCircle
 10
-110.6938466588336
 20
123.0950228228101
 30
0.0
 40
4.999999999994666
100
AcDbArc
 50
18.43494882241107
 51
32.07765443141033
  0
ARC
  5
2E1
330
6A
100
AcDbEntity
  8
0
  6
Continuous
 62
     7
100
AcDbCircle
 10
-109.262542928159
 20
139.0124999315414
 30
0.0
 40
0.4999999999823217
100
AcDbArc
 50
270.000000002016
 51
0.00000000202578
  0
ARC
  5
2E2
330
6A
100
AcDbEntity
  8
0
  6
Continuous
 62
     7
100
AcDbCircle
 10
-106.8625429281411
 20
139.0124999315591
 30
0.0
 40
0.4999999999999005
100
AcDbArc
 50
180.0
 51
269.9999999999886
  0
ARC
  5
2E3
330
6A
100
AcDbEntity
  8
0
  6
Continuous
 62
     7
100
AcDbCircle
 10
-106.8625429281412
 20
136.7124999315591
 30
0.0
 40
0.5
100
AcDbArc
 50
90.0
 51
180.0
  0
ARC
  5
2E4
330
6A
100
AcDbEntity
  8
0
  6
Continuous
 62
     7
100
AcDbCircle
 10
-80.76254292810435
 20
149.7874999316231
 30
0.0
 40
12.85000000001537
100
AcDbArc
 50
172.0789068751113
 51
199.6721577695167
  0
ARC
  5
2E5
330
6A
100
AcDbEntity
  8
0
  6
Continuous
 62
     7
100
AcDbCircle
 10
-80.76254292809944
 20
149.7874999315521
 30
0.0
 40
12.85000000003003
100
AcDbArc
 50
160.3278422311976
 51
172.0789068748008
  0
ARC
  5
2E6
330
6A
100
AcDbEntity
  8
0
  6
Continuous
 62
     7
100
AcDbCircle
 10
-94.77753490095154
 20
151.7374999319985
 30
0.0
 40
1.300000000000004
100
AcDbArc
 50
352.0789068748309
 51
66.66242937118611
  0
ARC
  5
2E7
330
6A
100
AcDbEntity
  8
0
  6
Continuous
 62
     7
100
AcDbCircle
 10
-94.16254292812937
 20
155.1442262690952
 30
0.0
 40
0.5
100
AcDbArc
 50
0.0
 51
90.0
  0
ARC
  5
2E8
330
6A
100
AcDbEntity
  8
0
  6
Continuous
 62
     7
100
AcDbCircle
 10
-94.27779799781973
 20
155.1442262690952
 30
0.0
 40
0.5
100
AcDbArc
 50
90.0
 51
198.4349488229215
  0
ARC
  5
2E9
330
6A
100
AcDbEntity
  8
0
  6
Continuous
 62
     7
100
AcDbCircle
 10
-93.16254292812937
 20
154.8374999315597
 30
0.0
 40
0.5
100
AcDbArc
 50
180.0
 51
270.0
  0
SPLINE
  5
2EA
330
6A
100
AcDbEntity
  8
0
  6
Continuous
 62
     7
100
AcDbSpline
210
0.0
220
0.0
230
1.0
 70
     8
 71
     3
 72
    23
 73
    19
 74
    17
 42
0.000000001
 43
0.0000000001
 44
0.00000001
 40
0.0
 40
0.0
 40
0.0
 40
0.0
 40
0.1006696874793022
 40
0.2197717471711128
 40
0.3386805055625938
 40
0.4401035306025414
 40
0.6585863883036238
 40
0.8791923194184307
 40
0.9989000462028594
 40
1.099115936641316
 40
1.208764095395305
 40
1.318721639775887
 40
1.438185273755785
 40
1.538841647915183
 40
1.648764535502243
 40
1.758507941364821
 40
1.785578938920915
 40
1.812649936013141
 40
1.812649936013141
 40
1.812649936013141
 40
1.812649936013141
 10
-105.5625429277754
 20
159.5874999348964
 30
0.0
 10
-105.5635212037026
 20
159.5539306821775
 30
0.0
 10
-105.5656568906884
 20
159.480645729891
 30
0.0
 10
-105.5841748562431
 20
159.3689046076928
 30
0.0
 10
-105.6146353451873
 20
159.2597228656828
 30
0.0
 10
-105.6687244237698
 20
159.1236070232403
 30
0.0
 10
-105.7597637241223
 20
158.9666698958802
 30
0.0
 10
-105.8834269417706
 20
158.8257700563897
 30
0.0
 10
-105.9955088821835
 20
158.7305490242911
 30
0.0
 10
-106.0856420997309
 20
158.6675094766302
 30
0.0
 10
-106.1782508877793
 20
158.6143820032945
 30
0.0
 10
-106.2812657722151
 20
158.567493706056
 30
0.0
 10
-106.3855813864149
 20
158.5318714789251
 30
0.0
 10
-106.4927166385185
 20
158.5063228848167
 30
0.0
 10
-106.5985519319343
 20
158.4909215100525
 30
0.0
 10
-106.6808460639626
 20
158.4873055199335
 30
0.0
 10
-106.7354716441396
 20
158.4875213345384
 30
0.0
 10
-106.7535191664193
 20
158.4875070611417
 30
0.0
 10
-106.7625429274818
 20
158.4874999316464
 30
0.0
 11
-105.5625429277754
 21
159.5874999348964
 31
0.0
 11
-105.567550966997
 21
159.4869548902281
 31
0.0
 11
-105.5862751089479
 21
159.3693338560314
 31
0.0
 11
-105.6183557340453
 21
159.2548343945276
 31
0.0
 11
-105.6557478571964
 21
159.1605557684769
 31
0.0
 11
-105.7651539152122
 21
158.9714392058274
 31
0.0
 11
-105.9104927429818
 21
158.8054765519581
 31
0.0
 11
-106.0017100472017
 21
158.7279565972509
 31
0.0
 11
-106.0838319328923
 21
158.6705177544354
 31
0.0
 11
-106.1789415863456
 21
158.6159570301766
 31
0.0
 11
-106.2790215104377
 21
158.5704084796104
 31
0.0
 11
-106.392081167031
 21
158.5318199576955
 31
0.0
 11
-106.4899873087238
 21
158.5084513210335
 31
0.0
 11
-106.5987832492362
 21
158.4927514903083
 31
0.0
 11
-106.7084009322196
 21
158.4874999317916
 31
0.0
 11
-106.7354719298511
 21
158.4874999318078
 31
0.0
 11
-106.7625429274818
 21
158.4874999316464
 31
0.0
  0
SPLINE
  5
2EB
330
6A
100
AcDbEntity
  8
0
  6
Continuous
 62
     7
100
AcDbSpline
210
0.0
220
0.0
230
1.0
 70
     8
 71
     3
 72
    11
 73
     7
 74
     5
 42
0.000000001
 43
0.0000000001
 44
0.00000001
 40
0.0
 40
0.0
 40
0.0
 40
0.0
 40
0.007945796771521
 40
0.0158880184538948
 40
0.0238270455507323
 40
0.031770263096938
 40
0.031770263096938
 40
0.031770263096938
 40
0.031770263096938
 10
-106.7307745403895
 20
158.4878013089468
 30
0.0
 10
-106.7334227340036
 20
158.4877546545003
 30
0.0
 10
-106.7387179299616
 20
158.4876613815947
 30
0.0
 10
-106.7466597902816
 20
158.4875698962062
 30
0.0
 10
-106.7546010972179
 20
158.487510711831
 30
0.0
 10
-106.7598951851076
 20
158.4875035206734
 30
0.0
 10
-106.7625429274818
 20
158.4874999316464
 30
0.0
 11
-106.7307745403895
 21
158.4878013089468
 31
0.0
 11
-106.7387192425521
 21
158.4876694217121
 31
0.0
 11
-106.746660906049
 21
158.4875752573719
 31
0.0
 11
-106.7545997322607
 21
158.4875187738032
 31
0.0
 11
-106.7625429274818
 21
158.4874999316464
 31
0.0
  0
SPLINE
  5
2EC
330
6A
100
AcDbEntity
  8
0
  6
Continuous
 62
     7
100
AcDbSpline
210
0.0
220
0.0
230
1.0
 70
     8
 71
     3
 72
    25
 73
    21
 74
    19
 42
0.000000001
 43
0.0000000001
 44
0.00000001
 40
0.0
 40
0.0
 40
0.0
 40
0.0
 40
0.0270706202241528
 40
0.0541416772623095
 40
0.1644411164204168
 40
0.2812800479712334
 40
0.3893157504769875
 40
0.5077232133450457
 40
0.6107575395800698
 40
0.73435105268254
 40
0.8348427256111056
 40
0.9623346945703305
 40
1.063947944593715
 40
1.189575500754295
 40
1.314746375070858
 40
1.416800247859549
 40
1.536002776875488
 40
1.643961133825545
 40
1.76136464196571
 40
1.872220591361879
 40
1.872220591361879
 40
1.872220591361879
 40
1.872220591361879
 10
-107.3625435086065
 20
158.4874999329006
 30
0.0
 10
-107.3715670583415
 20
158.4875000274518
 30
0.0
 10
-107.3896143034166
 20
158.4875002309003
 30
0.0
 10
-107.4444277154771
 20
158.4874973374105
 30
0.0
 10
-107.5291692618769
 20
158.4875471791878
 30
0.0
 10
-107.6408464099581
 20
158.4931963297867
 30
0.0
 10
-107.7544026029788
 20
158.5084465324812
 30
0.0
 10
-107.8614383484818
 20
158.5341156036863
 30
0.0
 10
-107.9698773980382
 20
158.5730020187753
 30
0.0
 10
-108.0679324078749
 20
158.6213947141865
 30
0.0
 10
-108.1666546912342
 20
158.6848714387586
 30
0.0
 10
-108.2519302326895
 20
158.7546657839503
 30
0.0
 10
-108.3342997868958
 20
158.839764105629
 30
0.0
 10
-108.4058120729713
 20
158.9333995335484
 30
0.0
 10
-108.4642811700687
 20
159.0358842956546
 30
0.0
 10
-108.5086480944416
 20
159.1427471890389
 30
0.0
 10
-108.5381739223818
 20
159.2487689457776
 30
0.0
 10
-108.555903683487
 20
159.3624463029407
 30
0.0
 10
-108.5624955827911
 20
159.4744557246495
 30
0.0
 10
-108.5625273023362
 20
159.5505460728214
 30
0.0
 10
-108.5625427002209
 20
159.5874999317918
 30
0.0
 11
-107.3625435086065
 21
158.4874999329006
 31
0.0
 11
-107.3896141298967
 21
158.4874999319303
 31
0.0
 11
-107.4166851869921
 21
158.4874999317917
 31
0.0
 11
-107.526980636244
 21
158.4884381382528
 31
0.0
 11
-107.6436341246684
 21
158.4950183884562
 31
0.0
 11
-107.7506659968081
 21
158.5097116348065
 31
0.0
 11
-107.8657626116585
 21
158.5375162509091
 31
0.0
 11
-107.9627352919597
 21
158.5723353805189
 31
0.0
 11
-108.0735651706384
 21
158.6270354231652
 31
0.0
 11
-108.1580953938143
 21
158.6813789400597
 31
0.0
 11
-108.2567438961729
 21
158.7621420216706
 31
0.0
 11
-108.3273932604593
 21
158.8351757128798
 31
0.0
 11
-108.4035626652847
 21
158.9350781896751
 31
0.0
 11
-108.4655167825207
 21
159.0438413975121
 31
0.0
 11
-108.5046450456366
 21
159.1380962230806
 31
0.0
 11
-108.5367910276102
 21
159.2528824548138
 31
0.0
 11
-108.5537705287406
 21
159.3594971984382
 31
0.0
 11
-108.5614484329888
 21
159.4766493802821
 31
0.0
 11
-108.5625427002209
 21
159.5874999317918
 31
0.0
  0
ENDBLK
  5
6C
330
6A
100
AcDbEntity
  8
0
100
AcDbBlockEnd
  0
BLOCK
  5
6F
330
6D
100
AcDbEntity
  8
0
100
AcDbBlockBegin
  2
Vordans1
 70
     0
 10
-103.362543
 20
143.0
 30
0.0
  3
Vordans1
  1

  0
INSERT
  5
6E
330
6D
100
AcDbEntity
  8
0
100
AcDbBlockReference
  2
PP_H_4_1_R_GNYE-select__6
 10
-113.8625429283098
 20
121.9124999315587
 30
0.0
  0
MTEXT
  5
2ED
330
6D
100
AcDbEntity
  8
1
 62
     6
100
AcDbMText
 10
-103.5365625601556
 20
116.5259742962603
 30
0.0
 40
5.0
 41
0.0
 71
     2
 72
     1
  1
 
  7
CONVERTER_11
 73
     1
 44
1.32052821128451
  0
DIMENSION
  5
2F8
330
6D
100
AcDbEntity
  8
1
100
AcDbDimension
  2
*D18
 10
-130.862314767661
 20
164.0874999317383
 30
0.0
 11
-134.287314767661
 21
142.7419247646799
 31
0.0
 70
    32
  1
<>
 71
     5
 42
-1.0
 53
90.0
  3
ME10_DIM_11
100
AcDbAlignedDimension
 13
-105.0292095948238
 23
121.9124999315587
 33
0.0
 14
-108.5625427002193
 24
164.0874999317383
 34
0.0
 50
90.0
100
AcDbRotatedDimension
  0
DIMENSION
  5
303
330
6D
100
AcDbEntity
  8
1
100
AcDbDimension
  2
*D19
 10
-123.8625429283098
 20
164.0874999317384
 30
0.0
 11
-127.2875429283098
 21
151.897337912547
 31
0.0
 70
    32
  1
<>
 71
     5
 42
-1.0
 53
90.0
  3
ME10_DIM_12
100
AcDbAlignedDimension
 13
-113.8625429283098
 23
139.5124999315561
 33
0.0
 14
-108.5625427002193
 24
164.0874999317383
 34
0.0
 50
90.0
100
AcDbRotatedDimension
  0
DIMENSION
  5
30E
330
6D
100
AcDbEntity
  8
1
100
AcDbDimension
  2
*D20
 10
-113.8625429283097
 20
113.2759742962602
 30
0.0
 11
-103.5365625601556
 21
116.5259742962602
 31
0.0
 70
    32
  1
<>
 71
     5
 42
-1.0
 53
0.00013888888889
  3
ME10_DIM_13
100
AcDbAlignedDimension
 13
-92.86254292809778
 23
139.750449996389
 33
0.0
 14
-113.8625429283098
 24
139.5124999315561
 34
0.0
100
AcDbRotatedDimension
  0
ENDBLK
  5
70
330
6D
100
AcDbEntity
  8
0
100
AcDbBlockEnd
  0
BLOCK
  5
72
330
71
100
AcDbEntity
  8
0
100
AcDbBlockBegin
  2
_rahmen
 70
     0
 10
62.76012341105597
 20
-1.60347261104414
 30
0.0
  3
_rahmen
  1

  0
LINE
  5
30F
330
71
100
AcDbEntity
  8
1
  6
DOT_CENTER
 62
     2
100
AcDbLine
 10
-62.79802622913144
 20
24.52152738895589
 30
0.0
 11
-57.29802622913144
 21
24.52152738895589
 31
0.0
  0
LINE
  5
310
330
71
100
AcDbEntity
  8
1
  6
PHANTOM
 62
     2
100
AcDbLine
 10
-54.04802622913144
 20
27.27152738895589
 30
0.0
 11
-54.04802622913144
 21
21.77152738895589
 31
0.0
  0
LINE
  5
311
330
71
100
AcDbEntity
  8
1
  6
PHANTOM
 62
     2
100
AcDbLine
 10
-51.29802622913144
 20
24.52152738895589
 30
0.0
 11
-56.79802622913144
 21
24.52152738895589
 31
0.0
  0
LINE
  5
312
330
71
100
AcDbEntity
  8
1
  6
Continuous
 62
     7
100
AcDbLine
 10
-2.48468111569403
 20
11.89652738895589
 30
0.0
 11
-2.48468111569403
 21
20.39652738895597
 31
0.0
  0
LINE
  5
313
330
71
100
AcDbEntity
  8
1
  6
Continuous
 62
     6
100
AcDbLine
 10
-30.38468111569412
 20
20.39652738895597
 30
0.0
 11
62.76012341105766
 21
20.39652738895597
 31
0.0
  0
LINE
  5
314
330
71
100
AcDbEntity
  8
1
  6
Continuous
 62
     7
100
AcDbLine
 10
-66.78468111569404
 20
20.39652738895597
 30
0.0
 11
-66.78468111569404
 21
28.89652738895597
 31
0.0
  0
LINE
  5
315
330
71
100
AcDbEntity
  8
1
  6
Continuous
 62
     7
100
AcDbLine
 10
-30.38468111569412
 20
20.39652738895597
 30
0.0
 11
-30.38468111569412
 21
28.89652738895597
 31
0.0
  0
LINE
  5
316
330
71
100
AcDbEntity
  8
1
  6
Continuous
 62
     7
100
AcDbLine
 10
27.34171512937886
 20
28.89652738895597
 30
0.0
 11
27.34171512937886
 21
20.39652738895597
 31
0.0
  0
LINE
  5
317
330
71
100
AcDbEntity
  8
1
  6
Continuous
 62
     7
100
AcDbLine
 10
53.84171512937846
 20
28.89652738895597
 30
0.0
 11
53.84171512937846
 21
20.39652738895597
 31
0.0
  0
LINE
  5
318
330
71
100
AcDbEntity
  8
1
  6
Continuous
 62
     6
100
AcDbLine
 10
-135.784681115694
 20
3.39652738895597
 30
0.0
 11
-180.739876588944
 21
3.39652738895597
 31
0.0
  0
LINE
  5
319
330
71
100
AcDbEntity
  8
1
  6
Continuous
 62
     7
100
AcDbLine
 10
62.76012341105727
 20
11.89652738895597
 30
0.0
 11
-30.38468111569412
 21
11.89652738895597
 31
0.0
  0
LINE
  5
31A
102
{ACAD_REACTORS
330
42C
330
42D
102
}
330
71
100
AcDbEntity
  8
0
  6
Continuous
 62
     2
100
AcDbLine
 10
-53.07725217392664
 20
12.69681650461928
 30
0.0
 11
-53.07725217392664
 21
13.56933351142257
 31
0.0
  0
LINE
  5
31B
102
{ACAD_REACTORS
330
42C
330
42D
102
}
330
71
100
AcDbEntity
  8
0
  6
Continuous
 62
     2
100
AcDbLine
 10
-53.07725217392664
 20
11.73704779713637
 30
0.0
 11
-53.07725217392664
 21
10.86453079033316
 31
0.0
  0
LINE
  5
31C
102
{ACAD_REACTORS
330
42E
330
42F
102
}
330
71
100
AcDbEntity
  8
0
  6
Continuous
 62
     2
100
AcDbLine
 10
-37.74420803763613
 20
12.95857160665977
 30
0.0
 11
-36.64056873806803
 21
12.95857160665977
 31
0.0
  0
LINE
  5
31D
102
{ACAD_REACTORS
330
42E
330
42F
102
}
330
71
100
AcDbEntity
  8
0
  6
Continuous
 62
     2
100
AcDbLine
 10
-36.97455069467472
 20
11.73704779713589
 30
0.0
 11
-36.97455069467472
 21
10.86453079033257
 31
0.0
  0
LINE
  5
31E
102
{ACAD_REACTORS
330
438
330
439
102
}
330
71
100
AcDbEntity
  8
0
  6
Continuous
 62
     2
100
AcDbLine
 10
-38.83530731005465
 20
14.04921786514657
 30
0.0
 11
-37.43735426311434
 21
15.63007685892157
 31
0.0
  0
LINE
  5
31F
102
{ACAD_REACTORS
330
438
330
439
102
}
330
71
100
AcDbEntity
  8
0
  6
Continuous
 62
     2
100
AcDbLine
 10
-38.73988389388182
 20
17.10302738895777
 30
0.0
 11
-37.43735426311434
 21
15.63007685892157
 31
0.0
  0
LINE
  5
320
102
{ACAD_REACTORS
330
438
330
439
102
}
330
71
100
AcDbEntity
  8
0
  6
Continuous
 62
     2
100
AcDbLine
 10
-36.13482463234794
 20
17.10302738895777
 30
0.0
 11
-34.73210041460072
 21
17.10302738895777
 31
0.0
  0
LINE
  5
321
102
{ACAD_REACTORS
330
438
330
439
102
}
330
71
100
AcDbEntity
  8
0
  6
Continuous
 62
     2
100
AcDbLine
 10
-37.43258309230643
 20
14.04921786514657
 30
0.0
 11
-36.73599215424073
 21
14.83694965044029
 31
0.0
  0
LINE
  5
322
102
{ACAD_REACTORS
330
438
330
439
102
}
330
71
100
AcDbEntity
  8
0
  6
Continuous
 62
     2
100
AcDbLine
 10
-37.43258309230643
 20
14.04921786514657
 30
0.0
 11
-38.83530731005465
 21
14.04921786514657
 31
0.0
  0
LINE
  5
323
102
{ACAD_REACTORS
330
43A
330
43B
102
}
330
71
100
AcDbEntity
  8
0
  6
Continuous
 62
     2
100
AcDbLine
 10
-38.95458658027152
 20
14.04921786514657
 30
0.0
 11
-40.19509099052442
 21
14.04921786514657
 31
0.0
  0
LINE
  5
324
102
{ACAD_REACTORS
330
43C
330
43D
102
}
330
71
100
AcDbEntity
  8
0
  6
Continuous
 62
     2
100
AcDbLine
 10
-41.06307059867953
 20
11.91155119849677
 30
0.0
 11
-41.36323583586963
 21
12.67936616448347
 31
0.0
  0
LINE
  5
325
102
{ACAD_REACTORS
330
43C
330
43D
102
}
330
71
100
AcDbEntity
  8
0
  6
Continuous
 62
     2
100
AcDbLine
 10
-41.66340107306203
 20
11.91155119849677
 30
0.0
 11
-41.06307059867953
 21
11.91155119849677
 31
0.0
  0
LINE
  5
326
102
{ACAD_REACTORS
330
43C
330
43D
102
}
330
71
100
AcDbEntity
  8
0
  6
Continuous
 62
     2
100
AcDbLine
 10
-43.38144108793583
 20
10.69002738897228
 30
0.0
 11
-42.14093667768285
 21
10.69002738897228
 31
0.0
  0
LINE
  5
327
102
{ACAD_REACTORS
330
43C
330
43D
102
}
330
71
100
AcDbEntity
  8
0
  6
Continuous
 62
     2
100
AcDbLine
 10
-41.98348804099652
 20
13.74383691278337
 30
0.0
 11
-40.74298363074382
 21
13.74383691278337
 31
0.0
  0
LINE
  5
328
102
{ACAD_REACTORS
330
43C
330
43D
102
}
330
71
100
AcDbEntity
  8
0
  6
Continuous
 62
     2
100
AcDbLine
 10
-40.74298363074382
 20
13.74383691278337
 30
0.0
 11
-39.34503058380352
 21
10.69002738897228
 31
0.0
  0
LINE
  5
329
102
{ACAD_REACTORS
330
43C
330
43D
102
}
330
71
100
AcDbEntity
  8
0
  6
Continuous
 62
     2
100
AcDbLine
 10
-40.58553499405744
 20
10.69002738897228
 30
0.0
 11
-40.79701504753322
 21
11.23098793319016
 31
0.0
  0
LINE
  5
32A
102
{ACAD_REACTORS
330
43E
330
43F
102
}
330
71
100
AcDbEntity
  8
0
  6
Continuous
 62
     2
100
AcDbLine
 10
-44.72785418964344
 20
10.69002738897228
 30
0.0
 11
-43.53506148747692
 21
10.69002738897228
 31
0.0
  0
LINE
  5
32B
102
{ACAD_REACTORS
330
43E
330
43F
102
}
330
71
100
AcDbEntity
  8
0
  6
Continuous
 62
     2
100
AcDbLine
 10
-44.72785418964344
 20
12.95857160665977
 30
0.0
 11
-44.72785418964344
 21
10.69002738897228
 31
0.0
  0
LINE
  5
32C
102
{ACAD_REACTORS
330
43E
330
43F
102
}
330
71
100
AcDbEntity
  8
0
  6
Continuous
 62
     2
100
AcDbLine
 10
-45.53895322711804
 20
13.74383691278337
 30
0.0
 11
-45.53895322711804
 21
12.95857160665977
 31
0.0
  0
LINE
  5
32D
102
{ACAD_REACTORS
330
440
330
441
102
}
330
71
100
AcDbEntity
  8
0
  6
Continuous
 62
     2
100
AcDbLine
 10
-44.05973934554544
 20
14.04921786514657
 30
0.0
 11
-42.86694664337892
 21
14.04921786514657
 31
0.0
  0
LINE
  5
32E
102
{ACAD_REACTORS
330
440
330
441
102
}
330
71
100
AcDbEntity
  8
0
  6
Continuous
 62
     2
100
AcDbLine
 10
-41.62644223312492
 20
15.79425187875259
 30
0.0
 11
-42.86694664337892
 21
17.10302738895777
 31
0.0
  0
LINE
  5
32F
102
{ACAD_REACTORS
330
440
330
441
102
}
330
71
100
AcDbEntity
  8
0
  6
Continuous
 62
     2
100
AcDbLine
 10
-40.43364953095832
 20
17.10302738895777
 30
0.0
 11
-41.62644223312492
 21
17.10302738895777
 31
0.0
  0
LINE
  5
330
102
{ACAD_REACTORS
330
440
330
441
102
}
330
71
100
AcDbEntity
  8
0
  6
Continuous
 62
     2
100
AcDbLine
 10
-40.43364953095832
 20
14.04921786514657
 30
0.0
 11
-40.43364953095832
 21
17.10302738895777
 31
0.0
  0
LINE
  5
331
102
{ACAD_REACTORS
330
440
330
441
102
}
330
71
100
AcDbEntity
  8
0
  6
Continuous
 62
     2
100
AcDbLine
 10
-41.62644223312492
 20
14.04921786514657
 30
0.0
 11
-40.43364953095832
 21
14.04921786514657
 31
0.0
  0
LINE
  5
332
102
{ACAD_REACTORS
330
440
330
441
102
}
330
71
100
AcDbEntity
  8
0
  6
Continuous
 62
     2
100
AcDbLine
 10
-42.86694664337892
 20
15.35799337535127
 30
0.0
 11
-41.62644223312492
 21
14.04921786514657
 31
0.0
  0
LINE
  5
333
102
{ACAD_REACTORS
330
442
330
443
102
}
330
71
100
AcDbEntity
  8
0
  6
Continuous
 62
     2
100
AcDbLine
 10
-46.87488105354464
 20
12.43506140257827
 30
0.0
 11
-48.11538546379754
 21
13.74383691278337
 31
0.0
  0
LINE
  5
334
102
{ACAD_REACTORS
330
442
330
443
102
}
330
71
100
AcDbEntity
  8
0
  6
Continuous
 62
     2
100
AcDbLine
 10
-46.87488105354464
 20
13.74383691278337
 30
0.0
 11
-46.87488105354464
 21
12.43506140257827
 31
0.0
  0
LINE
  5
335
102
{ACAD_REACTORS
330
442
330
443
102
}
330
71
100
AcDbEntity
  8
0
  6
Continuous
 62
     2
100
AcDbLine
 10
-45.68208835137824
 20
13.74383691278337
 30
0.0
 11
-46.87488105354464
 21
13.74383691278337
 31
0.0
  0
LINE
  5
336
102
{ACAD_REACTORS
330
442
330
443
102
}
330
71
100
AcDbEntity
  8
0
  6
Continuous
 62
     2
100
AcDbLine
 10
-45.68208835137824
 20
10.69002738897228
 30
0.0
 11
-45.68208835137824
 21
13.74383691278337
 31
0.0
  0
LINE
  5
337
102
{ACAD_REACTORS
330
442
330
443
102
}
330
71
100
AcDbEntity
  8
0
  6
Continuous
 62
     2
100
AcDbLine
 10
-48.11538546379754
 20
11.99880289917687
 30
0.0
 11
-46.87488105354464
 21
10.69002738897228
 31
0.0
  0
LINE
  5
338
102
{ACAD_REACTORS
330
442
330
443
102
}
330
71
100
AcDbEntity
  8
0
  6
Continuous
 62
     2
100
AcDbLine
 10
-48.11538546379754
 20
10.69002738897228
 30
0.0
 11
-48.11538546379754
 21
11.99880289917687
 31
0.0
  0
LINE
  5
339
102
{ACAD_REACTORS
330
432
330
433
102
}
330
71
100
AcDbEntity
  8
0
  6
Continuous
 62
     2
100
AcDbLine
 10
-45.63422571240602
 20
16.40501378351479
 30
0.0
 11
-44.29829788597834
 21
16.40501378351479
 31
0.0
  0
LINE
  5
33A
102
{ACAD_REACTORS
330
432
330
433
102
}
330
71
100
AcDbEntity
  8
0
  6
Continuous
 62
     2
100
AcDbLine
 10
-45.63422571240602
 20
14.74723147058907
 30
0.0
 11
-45.63422571240602
 21
15.22711582433078
 31
0.0
  0
LINE
  5
33B
102
{ACAD_REACTORS
330
432
330
433
102
}
330
71
100
AcDbEntity
  8
0
  6
Continuous
 62
     2
100
AcDbLine
 10
-44.29829788597834
 20
14.74723147058907
 30
0.0
 11
-45.63422571240602
 21
14.74723147058907
 31
0.0
  0
LINE
  5
33C
102
{ACAD_REACTORS
330
432
330
433
102
}
330
71
100
AcDbEntity
  8
0
  6
Continuous
 62
     2
100
AcDbLine
 10
-44.29829788597834
 20
14.04921786514657
 30
0.0
 11
-44.29829788597834
 21
14.74723147058907
 31
0.0
  0
LINE
  5
33D
102
{ACAD_REACTORS
330
432
330
433
102
}
330
71
100
AcDbEntity
  8
0
  6
Continuous
 62
     2
100
AcDbLine
 10
-47.44861760975934
 20
14.04921786514657
 30
0.0
 11
-44.29829788597834
 21
14.04921786514657
 31
0.0
  0
LINE
  5
33E
102
{ACAD_REACTORS
330
432
330
433
102
}
330
71
100
AcDbEntity
  8
0
  6
Continuous
 62
     2
100
AcDbLine
 10
-47.44861760975934
 20
17.10302738895777
 30
0.0
 11
-44.29829788597834
 21
17.10302738895777
 31
0.0
  0
LINE
  5
33F
102
{ACAD_REACTORS
330
432
330
433
102
}
330
71
100
AcDbEntity
  8
0
  6
Continuous
 62
     2
100
AcDbLine
 10
-44.29829788597834
 20
16.40501378351479
 30
0.0
 11
-44.29829788597834
 21
17.10302738895777
 31
0.0
  0
LINE
  5
340
102
{ACAD_REACTORS
330
444
330
445
102
}
330
71
100
AcDbEntity
  8
0
  6
Continuous
 62
     2
100
AcDbLine
 10
-50.30997310489934
 20
16.03419405562318
 30
0.0
 11
-50.30997310489934
 21
17.10302738895777
 31
0.0
  0
LINE
  5
341
102
{ACAD_REACTORS
330
444
330
445
102
}
330
71
100
AcDbEntity
  8
0
  6
Continuous
 62
     2
100
AcDbLine
 10
-50.30997310489934
 20
17.10302738895777
 30
0.0
 11
-49.11718040273294
 21
17.10302738895777
 31
0.0
  0
LINE
  5
342
102
{ACAD_REACTORS
330
444
330
445
102
}
330
71
100
AcDbEntity
  8
0
  6
Continuous
 62
     2
100
AcDbLine
 10
-50.30997310489934
 20
15.18348997399039
 30
0.0
 11
-51.35963068280682
 21
15.18348997399039
 31
0.0
  0
LINE
  5
343
102
{ACAD_REACTORS
330
444
330
445
102
}
330
71
100
AcDbEntity
  8
0
  6
Continuous
 62
     2
100
AcDbLine
 10
-51.35963068280682
 20
15.18348997399039
 30
0.0
 11
-51.35963068280682
 21
14.04921786514657
 31
0.0
  0
LINE
  5
344
102
{ACAD_REACTORS
330
444
330
445
102
}
330
71
100
AcDbEntity
  8
0
  6
Continuous
 62
     2
100
AcDbLine
 10
-52.55242338497342
 20
17.10302738895777
 30
0.0
 11
-52.55242338497342
 21
14.04921786514657
 31
0.0
  0
LINE
  5
345
102
{ACAD_REACTORS
330
436
330
437
102
}
330
71
100
AcDbEntity
  8
0
  6
Continuous
 62
     2
100
AcDbLine
 10
-54.50860341652702
 20
15.73419389417546
 30
0.0
 11
-54.50860341652702
 21
16.43992154351767
 31
0.0
  0
LINE
  5
346
102
{ACAD_REACTORS
330
436
330
437
102
}
330
71
100
AcDbEntity
  8
0
  6
Continuous
 62
     2
100
AcDbLine
 10
-55.74910782678114
 20
14.04921786514657
 30
0.0
 11
-54.50860341652702
 21
14.04921786514657
 31
0.0
  0
LINE
  5
347
102
{ACAD_REACTORS
330
436
330
437
102
}
330
71
100
AcDbEntity
  8
0
  6
Continuous
 62
     2
100
AcDbLine
 10
-54.50860341652702
 20
14.04921786514657
 30
0.0
 11
-54.50860341652702
 21
14.99229610629038
 31
0.0
  0
LINE
  5
348
102
{ACAD_REACTORS
330
430
330
431
102
}
330
71
100
AcDbEntity
  8
0
  6
Continuous
 62
     2
100
AcDbLine
 10
-60.05405367599252
 20
11.40258294452917
 30
0.0
 11
-61.52988693700215
 21
11.40258294452917
 31
0.0
  0
LINE
  5
349
102
{ACAD_REACTORS
330
430
330
431
102
}
330
71
100
AcDbEntity
  8
0
  6
Continuous
 62
     2
100
AcDbLine
 10
-62.54802622913144
 20
16.67878277355578
 30
0.0
 11
-62.54802622913144
 21
11.11427200435557
 31
0.0
  0
LINE
  5
34A
102
{ACAD_REACTORS
330
430
330
431
102
}
330
71
100
AcDbEntity
  8
0
  6
Continuous
 62
     2
100
AcDbLine
 10
-62.12378161374863
 20
17.10302738893958
 30
0.0
 11
-56.65046952303183
 21
17.10302738893958
 31
0.0
  0
LINE
  5
34B
102
{ACAD_REACTORS
330
430
330
431
102
}
330
71
100
AcDbEntity
  8
0
  6
Continuous
 62
     2
100
AcDbLine
 10
-56.22622490764795
 20
16.67878277355578
 30
0.0
 11
-56.22622490764795
 21
11.11427200435557
 31
0.0
  0
LINE
  5
34C
102
{ACAD_REACTORS
330
430
330
431
102
}
330
71
100
AcDbEntity
  8
0
  6
Continuous
 62
     2
100
AcDbLine
 10
-56.65046952303183
 20
10.69002738897228
 30
0.0
 11
-62.12378161374863
 21
10.69002738897228
 31
0.0
  0
LINE
  5
34D
102
{ACAD_REACTORS
330
430
330
431
102
}
330
71
100
AcDbEntity
  8
0
  6
Continuous
 62
     2
100
AcDbLine
 10
-59.73833675291593
 20
11.71829986760588
 30
0.0
 11
-59.73833675291593
 21
13.24907079913749
 31
0.0
  0
LINE
  5
34E
102
{ACAD_REACTORS
330
430
330
431
102
}
330
71
100
AcDbEntity
  8
0
  6
Continuous
 62
     2
100
AcDbLine
 10
-59.73833675291593
 20
15.47073029126247
 30
0.0
 11
-59.73833675291593
 21
16.07475491032298
 31
0.0
  0
LINE
  5
34F
102
{ACAD_REACTORS
330
430
330
431
102
}
330
71
100
AcDbEntity
  8
0
  6
Continuous
 62
     2
100
AcDbLine
 10
-61.52988693700215
 20
16.39047183339918
 30
0.0
 11
-60.05405367599252
 21
16.39047183339918
 31
0.0
  0
LINE
  5
350
102
{ACAD_REACTORS
330
430
330
431
102
}
330
71
100
AcDbEntity
  8
0
  6
Continuous
 62
     2
100
AcDbLine
 10
-61.84560386007783
 20
16.07475491032298
 30
0.0
 11
-61.84560386007783
 21
11.71829986760588
 31
0.0
  0
LINE
  5
351
102
{ACAD_REACTORS
330
436
330
437
102
}
330
71
100
AcDbEntity
  8
0
  6
Continuous
 62
     2
100
AcDbLine
 10
-54.50860341652702
 20
14.99229610629038
 30
0.0
 11
-53.74983582874674
 21
14.99229610629038
 31
0.0
  0
LINE
  5
352
102
{ACAD_REACTORS
330
436
330
437
102
}
330
71
100
AcDbEntity
  8
0
  6
Continuous
 62
     2
100
AcDbLine
 10
-55.74910782678114
 20
17.10302738895777
 30
0.0
 11
-53.74983582874674
 21
17.10302738895777
 31
0.0
  0
LINE
  5
353
102
{ACAD_REACTORS
330
436
330
437
102
}
330
71
100
AcDbEntity
  8
0
  6
Continuous
 62
     2
100
AcDbLine
 10
-55.74910782678114
 20
17.10302738895777
 30
0.0
 11
-55.74910782678114
 21
14.04921786514657
 31
0.0
  0
LINE
  5
354
102
{ACAD_REACTORS
330
436
330
437
102
}
330
71
100
AcDbEntity
  8
0
  6
Continuous
 62
     2
100
AcDbLine
 10
-54.50860341652702
 20
15.73419389417546
 30
0.0
 11
-54.19130835498513
 21
15.73419389417546
 31
0.0
  0
LINE
  5
355
102
{ACAD_REACTORS
330
436
330
437
102
}
330
71
100
AcDbEntity
  8
0
  6
Continuous
 62
     2
100
AcDbLine
 10
-54.50860341652702
 20
16.43992154351767
 30
0.0
 11
-54.19130835498513
 21
16.43992154351767
 31
0.0
  0
LINE
  5
356
102
{ACAD_REACTORS
330
444
330
445
102
}
330
71
100
AcDbEntity
  8
0
  6
Continuous
 62
     2
100
AcDbLine
 10
-51.35963068280682
 20
16.03419405562318
 30
0.0
 11
-50.30997310489934
 21
16.03419405562318
 31
0.0
  0
LINE
  5
357
102
{ACAD_REACTORS
330
444
330
445
102
}
330
71
100
AcDbEntity
  8
0
  6
Continuous
 62
     2
100
AcDbLine
 10
-51.35963068280682
 20
17.10302738895777
 30
0.0
 11
-51.35963068280682
 21
16.03419405562318
 31
0.0
  0
LINE
  5
358
102
{ACAD_REACTORS
330
444
330
445
102
}
330
71
100
AcDbEntity
  8
0
  6
Continuous
 62
     2
100
AcDbLine
 10
-52.55242338497342
 20
17.10302738895777
 30
0.0
 11
-51.35963068280682
 21
17.10302738895777
 31
0.0
  0
LINE
  5
359
102
{ACAD_REACTORS
330
444
330
445
102
}
330
71
100
AcDbEntity
  8
0
  6
Continuous
 62
     2
100
AcDbLine
 10
-51.35963068280682
 20
14.04921786514657
 30
0.0
 11
-52.55242338497342
 21
14.04921786514657
 31
0.0
  0
LINE
  5
35A
102
{ACAD_REACTORS
330
444
330
445
102
}
330
71
100
AcDbEntity
  8
0
  6
Continuous
 62
     2
100
AcDbLine
 10
-50.30997310489934
 20
14.04921786514657
 30
0.0
 11
-50.30997310489934
 21
15.18348997399039
 31
0.0
  0
LINE
  5
35B
102
{ACAD_REACTORS
330
444
330
445
102
}
330
71
100
AcDbEntity
  8
0
  6
Continuous
 62
     2
100
AcDbLine
 10
-49.11718040273294
 20
14.04921786514657
 30
0.0
 11
-50.30997310489934
 21
14.04921786514657
 31
0.0
  0
LINE
  5
35C
102
{ACAD_REACTORS
330
444
330
445
102
}
330
71
100
AcDbEntity
  8
0
  6
Continuous
 62
     2
100
AcDbLine
 10
-49.11718040273294
 20
17.10302738895777
 30
0.0
 11
-49.11718040273294
 21
14.04921786514657
 31
0.0
  0
LINE
  5
35D
102
{ACAD_REACTORS
330
432
330
433
102
}
330
71
100
AcDbEntity
  8
0
  6
Continuous
 62
     2
100
AcDbLine
 10
-45.63422571240602
 20
15.22711582433078
 30
0.0
 11
-44.29829788597834
 21
15.22711582433078
 31
0.0
  0
LINE
  5
35E
102
{ACAD_REACTORS
330
432
330
433
102
}
330
71
100
AcDbEntity
  8
0
  6
Continuous
 62
     2
100
AcDbLine
 10
-44.29829788597834
 20
15.22711582433078
 30
0.0
 11
-44.29829788597834
 21
15.92512942977308
 31
0.0
  0
LINE
  5
35F
102
{ACAD_REACTORS
330
432
330
433
102
}
330
71
100
AcDbEntity
  8
0
  6
Continuous
 62
     2
100
AcDbLine
 10
-44.29829788597834
 20
15.92512942977308
 30
0.0
 11
-45.63422571240602
 21
15.92512942977308
 31
0.0
  0
LINE
  5
360
102
{ACAD_REACTORS
330
432
330
433
102
}
330
71
100
AcDbEntity
  8
0
  6
Continuous
 62
     2
100
AcDbLine
 10
-45.63422571240602
 20
15.92512942977308
 30
0.0
 11
-45.63422571240602
 21
16.40501378351479
 31
0.0
  0
LINE
  5
361
102
{ACAD_REACTORS
330
442
330
443
102
}
330
71
100
AcDbEntity
  8
0
  6
Continuous
 62
     2
100
AcDbLine
 10
-49.30817816596513
 20
10.69002738897228
 30
0.0
 11
-48.11538546379754
 21
10.69002738897228
 31
0.0
  0
LINE
  5
362
102
{ACAD_REACTORS
330
442
330
443
102
}
330
71
100
AcDbEntity
  8
0
  6
Continuous
 62
     2
100
AcDbLine
 10
-46.87488105354464
 20
10.69002738897228
 30
0.0
 11
-45.68208835137824
 21
10.69002738897228
 31
0.0
  0
LINE
  5
363
102
{ACAD_REACTORS
330
442
330
443
102
}
330
71
100
AcDbEntity
  8
0
  6
Continuous
 62
     2
100
AcDbLine
 10
-48.11538546379754
 20
13.74383691278337
 30
0.0
 11
-49.30817816596513
 21
13.74383691278337
 31
0.0
  0
LINE
  5
364
102
{ACAD_REACTORS
330
442
330
443
102
}
330
71
100
AcDbEntity
  8
0
  6
Continuous
 62
     2
100
AcDbLine
 10
-49.30817816596513
 20
13.74383691278337
 30
0.0
 11
-49.30817816596513
 21
10.69002738897228
 31
0.0
  0
LINE
  5
365
102
{ACAD_REACTORS
330
440
330
441
102
}
330
71
100
AcDbEntity
  8
0
  6
Continuous
 62
     2
100
AcDbLine
 10
-41.62644223312492
 20
17.10302738895777
 30
0.0
 11
-41.62644223312492
 21
15.79425187875259
 31
0.0
  0
LINE
  5
366
102
{ACAD_REACTORS
330
440
330
441
102
}
330
71
100
AcDbEntity
  8
0
  6
Continuous
 62
     2
100
AcDbLine
 10
-42.86694664337892
 20
17.10302738895777
 30
0.0
 11
-44.05973934554544
 21
17.10302738895777
 31
0.0
  0
LINE
  5
367
102
{ACAD_REACTORS
330
440
330
441
102
}
330
71
100
AcDbEntity
  8
0
  6
Continuous
 62
     2
100
AcDbLine
 10
-44.05973934554544
 20
17.10302738895777
 30
0.0
 11
-44.05973934554544
 21
14.04921786514657
 31
0.0
  0
LINE
  5
368
102
{ACAD_REACTORS
330
440
330
441
102
}
330
71
100
AcDbEntity
  8
0
  6
Continuous
 62
     2
100
AcDbLine
 10
-42.86694664337892
 20
14.04921786514657
 30
0.0
 11
-42.86694664337892
 21
15.35799337535127
 31
0.0
  0
LINE
  5
369
102
{ACAD_REACTORS
330
43E
330
43F
102
}
330
71
100
AcDbEntity
  8
0
  6
Continuous
 62
     2
100
AcDbLine
 10
-43.53506148747692
 20
10.69002738897228
 30
0.0
 11
-43.53506148747692
 21
12.95857160665977
 31
0.0
  0
LINE
  5
36A
102
{ACAD_REACTORS
330
43E
330
43F
102
}
330
71
100
AcDbEntity
  8
0
  6
Continuous
 62
     2
100
AcDbLine
 10
-43.53506148747692
 20
12.95857160665977
 30
0.0
 11
-42.72396245000442
 21
12.95857160665977
 31
0.0
  0
LINE
  5
36B
102
{ACAD_REACTORS
330
43E
330
43F
102
}
330
71
100
AcDbEntity
  8
0
  6
Continuous
 62
     2
100
AcDbLine
 10
-42.72396245000442
 20
12.95857160665977
 30
0.0
 11
-42.72396245000442
 21
13.74383691278337
 31
0.0
  0
LINE
  5
36C
102
{ACAD_REACTORS
330
43E
330
43F
102
}
330
71
100
AcDbEntity
  8
0
  6
Continuous
 62
     2
100
AcDbLine
 10
-42.72396245000442
 20
13.74383691278337
 30
0.0
 11
-45.53895322711804
 21
13.74383691278337
 31
0.0
  0
LINE
  5
36D
102
{ACAD_REACTORS
330
43E
330
43F
102
}
330
71
100
AcDbEntity
  8
0
  6
Continuous
 62
     2
100
AcDbLine
 10
-45.53895322711804
 20
12.95857160665977
 30
0.0
 11
-44.72785418964344
 21
12.95857160665977
 31
0.0
  0
LINE
  5
36E
102
{ACAD_REACTORS
330
43C
330
43D
102
}
330
71
100
AcDbEntity
  8
0
  6
Continuous
 62
     2
100
AcDbLine
 10
-41.92945662420704
 20
11.23098793319016
 30
0.0
 11
-40.79701504753322
 21
11.23098793319016
 31
0.0
  0
LINE
  5
36F
102
{ACAD_REACTORS
330
43C
330
43D
102
}
330
71
100
AcDbEntity
  8
0
  6
Continuous
 62
     2
100
AcDbLine
 10
-39.34503058380352
 20
10.69002738897228
 30
0.0
 11
-40.58553499405744
 21
10.69002738897228
 31
0.0
  0
LINE
  5
370
102
{ACAD_REACTORS
330
43C
330
43D
102
}
330
71
100
AcDbEntity
  8
0
  6
Continuous
 62
     2
100
AcDbLine
 10
-41.98348804099652
 20
13.74383691278337
 30
0.0
 11
-43.38144108793583
 21
10.69002738897228
 31
0.0
  0
LINE
  5
371
102
{ACAD_REACTORS
330
43C
330
43D
102
}
330
71
100
AcDbEntity
  8
0
  6
Continuous
 62
     2
100
AcDbLine
 10
-42.14093667768285
 20
10.69002738897228
 30
0.0
 11
-41.92945662420704
 21
11.23098793319016
 31
0.0
  0
LINE
  5
372
102
{ACAD_REACTORS
330
43C
330
43D
102
}
330
71
100
AcDbEntity
  8
0
  6
Continuous
 62
     2
100
AcDbLine
 10
-41.66340107306203
 20
11.91155119849677
 30
0.0
 11
-41.36323583586963
 21
12.67936616448347
 31
0.0
  0
LINE
  5
373
102
{ACAD_REACTORS
330
43A
330
43B
102
}
330
71
100
AcDbEntity
  8
0
  6
Continuous
 62
     2
100
AcDbLine
 10
-40.19509099052442
 20
14.04921786514657
 30
0.0
 11
-40.19509099052442
 21
17.10302738895777
 31
0.0
  0
LINE
  5
374
102
{ACAD_REACTORS
330
43A
330
43B
102
}
330
71
100
AcDbEntity
  8
0
  6
Continuous
 62
     2
100
AcDbLine
 10
-38.95458658027152
 20
17.10302738895777
 30
0.0
 11
-38.95458658027152
 21
14.04921786514657
 31
0.0
  0
LINE
  5
375
102
{ACAD_REACTORS
330
43A
330
43B
102
}
330
71
100
AcDbEntity
  8
0
  6
Continuous
 62
     2
100
AcDbLine
 10
-40.19509099052442
 20
17.10302738895777
 30
0.0
 11
-38.95458658027152
 21
17.10302738895777
 31
0.0
  0
LINE
  5
376
102
{ACAD_REACTORS
330
438
330
439
102
}
330
71
100
AcDbEntity
  8
0
  6
Continuous
 62
     2
100
AcDbLine
 10
-36.73599215424073
 20
14.83694965044029
 30
0.0
 11
-36.03940121617524
 21
14.04921786514657
 31
0.0
  0
LINE
  5
377
102
{ACAD_REACTORS
330
438
330
439
102
}
330
71
100
AcDbEntity
  8
0
  6
Continuous
 62
     2
100
AcDbLine
 10
-36.03940121617524
 20
14.04921786514657
 30
0.0
 11
-34.63667699842694
 21
14.04921786514657
 31
0.0
  0
LINE
  5
378
102
{ACAD_REACTORS
330
438
330
439
102
}
330
71
100
AcDbEntity
  8
0
  6
Continuous
 62
     2
100
AcDbLine
 10
-36.03463004536724
 20
15.63007685892157
 30
0.0
 11
-34.63667699842694
 21
14.04921786514657
 31
0.0
  0
LINE
  5
379
102
{ACAD_REACTORS
330
438
330
439
102
}
330
71
100
AcDbEntity
  8
0
  6
Continuous
 62
     2
100
AcDbLine
 10
-36.03463004536724
 20
15.63007685892157
 30
0.0
 11
-34.73210041460072
 21
17.10302738895777
 31
0.0
  0
LINE
  5
37A
102
{ACAD_REACTORS
330
438
330
439
102
}
330
71
100
AcDbEntity
  8
0
  6
Continuous
 62
     2
100
AcDbLine
 10
-36.73599215424073
 20
16.42320406740228
 30
0.0
 11
-36.13482463234794
 21
17.10302738895777
 31
0.0
  0
LINE
  5
37B
102
{ACAD_REACTORS
330
438
330
439
102
}
330
71
100
AcDbEntity
  8
0
  6
Continuous
 62
     2
100
AcDbLine
 10
-37.33715967613253
 20
17.10302738895777
 30
0.0
 11
-36.73599215424073
 21
16.42320406740228
 31
0.0
  0
LINE
  5
37C
102
{ACAD_REACTORS
330
438
330
439
102
}
330
71
100
AcDbEntity
  8
0
  6
Continuous
 62
     2
100
AcDbLine
 10
-37.33715967613253
 20
17.10302738895777
 30
0.0
 11
-38.73988389388182
 21
17.10302738895777
 31
0.0
  0
LINE
  5
37D
102
{ACAD_REACTORS
330
42E
330
42F
102
}
330
71
100
AcDbEntity
  8
0
  6
Continuous
 62
     2
100
AcDbLine
 10
-36.64056873806803
 20
10.69002738897228
 30
0.0
 11
-35.44777603590032
 21
10.69002738897228
 31
0.0
  0
LINE
  5
37E
102
{ACAD_REACTORS
330
42E
330
42F
102
}
330
71
100
AcDbEntity
  8
0
  6
Continuous
 62
     2
100
AcDbLine
 10
-35.44777603590032
 20
10.69002738897228
 30
0.0
 11
-35.44777603590032
 21
12.95857160665977
 31
0.0
  0
LINE
  5
37F
102
{ACAD_REACTORS
330
42E
330
42F
102
}
330
71
100
AcDbEntity
  8
0
  6
Continuous
 62
     2
100
AcDbLine
 10
-35.44777603590032
 20
12.95857160665977
 30
0.0
 11
-34.63667699842694
 21
12.95857160665977
 31
0.0
  0
LINE
  5
380
102
{ACAD_REACTORS
330
42E
330
42F
102
}
330
71
100
AcDbEntity
  8
0
  6
Continuous
 62
     2
100
AcDbLine
 10
-34.63667699842694
 20
12.95857160665977
 30
0.0
 11
-34.63667699842694
 21
13.74383691278337
 31
0.0
  0
LINE
  5
381
102
{ACAD_REACTORS
330
42E
330
42F
102
}
330
71
100
AcDbEntity
  8
0
  6
Continuous
 62
     2
100
AcDbLine
 10
-38.02162251705562
 20
13.74383691278288
 30
0.0
 11
-34.63667699842694
 21
13.74383691278337
 31
0.0
  0
LINE
  5
382
102
{ACAD_REACTORS
330
42E
330
42F
102
}
330
71
100
AcDbEntity
  8
0
  6
Continuous
 62
     2
100
AcDbLine
 10
-36.64056873806803
 20
12.95857160665977
 30
0.0
 11
-36.64056873806803
 21
10.69002738897228
 31
0.0
  0
LINE
  5
383
102
{ACAD_REACTORS
330
430
330
431
102
}
330
71
100
AcDbEntity
  8
0
  6
Continuous
 62
     2
100
AcDbLine
 10
-59.27005517354724
 20
12.66890753853679
 30
0.0
 11
-59.27005517354724
 21
13.25075894523187
 31
0.0
  0
LINE
  5
384
102
{ACAD_REACTORS
330
430
330
431
102
}
330
71
100
AcDbEntity
  8
0
  6
Continuous
 62
     2
100
AcDbLine
 10
-59.27005517354724
 20
15.46904214516809
 30
0.0
 11
-59.27005517354724
 21
16.07457743367488
 31
0.0
  0
LINE
  5
385
330
71
100
AcDbEntity
  8
1
  6
Continuous
 62
     6
100
AcDbLine
 10
-80.73987658894401
 20
3.39652738895597
 30
0.0
 11
-66.78468111569404
 21
3.39652738895586
 31
0.0
  0
LINE
  5
386
330
71
100
AcDbEntity
  8
1
  6
Continuous
 62
     6
100
AcDbLine
 10
-130.7398765889442
 20
3.39652738895597
 30
0.0
 11
-135.784681115694
 21
3.39652738895597
 31
0.0
  0
LINE
  5
387
330
71
100
AcDbEntity
  8
1
  6
Continuous
 62
     6
100
AcDbLine
 10
19.26012341105596
 20
3.39652738895597
 30
0.0
 11
62.76012341105597
 21
3.39652738895597
 31
0.0
  0
LINE
  5
388
330
71
100
AcDbEntity
  8
1
  6
Continuous
 62
     6
100
AcDbLine
 10
-30.73987658894404
 20
3.39652738895597
 30
0.0
 11
-48.58468111569403
 21
3.39652738895597
 31
0.0
  0
LINE
  5
389
330
71
100
AcDbEntity
  8
1
  6
Continuous
 62
     2
100
AcDbLine
 10
62.76012341105597
 20
3.39652738895597
 30
0.0
 11
67.76012341105496
 21
3.39652738895597
 31
0.0
  0
LINE
  5
38A
330
71
100
AcDbEntity
  8
1
  6
Continuous
 62
     2
100
AcDbLine
 10
62.76012341105597
 20
3.39652738895597
 30
0.0
 11
62.76012341105597
 21
-1.60347261104414
 31
0.0
  0
LINE
  5
38B
330
71
100
AcDbEntity
  8
1
  6
Continuous
 62
     6
100
AcDbLine
 10
-66.78468111569404
 20
20.39652738895597
 30
0.0
 11
-30.38468111569412
 21
20.39652738895597
 31
0.0
  0
LINE
  5
38C
330
71
100
AcDbEntity
  8
1
  6
Continuous
 62
     2
100
AcDbLine
 10
67.76012341105496
 20
-1.60347261104414
 30
0.0
 11
67.76012341105496
 21
3.39652738895597
 31
0.0
  0
LINE
  5
38D
330
71
100
AcDbEntity
  8
1
  6
Continuous
 62
     2
100
AcDbLine
 10
67.76012341105496
 20
-1.60347261104414
 30
0.0
 11
62.76012341105597
 21
-1.60347261104414
 31
0.0
  0
LINE
  5
38E
330
71
100
AcDbEntity
  8
1
  6
Continuous
 62
     2
100
AcDbLine
 10
62.76012341105597
 20
-1.60347261104414
 30
0.0
 11
19.26012341105596
 21
-1.60347261104414
 31
0.0
  0
LINE
  5
38F
330
71
100
AcDbEntity
  8
1
  6
Continuous
 62
     6
100
AcDbLine
 10
62.76012341105766
 20
20.39652738895597
 30
0.0
 11
62.76012341105687
 21
53.39652738895609
 31
0.0
  0
LINE
  5
390
330
71
100
AcDbEntity
  8
1
  6
Continuous
 62
     2
100
AcDbLine
 10
67.76012341105496
 20
208.396527388956
 30
0.0
 11
-80.73987658894401
 21
208.396527388956
 31
0.0
  0
LINE
  5
391
330
71
100
AcDbEntity
  8
1
  6
Continuous
 62
     6
100
AcDbLine
 10
62.76012341105496
 20
188.396527388956
 30
0.0
 11
-224.2398765889431
 21
188.396527388956
 31
0.0
  0
LINE
  5
392
330
71
100
AcDbEntity
  8
1
  6
Continuous
 62
     2
100
AcDbLine
 10
62.76012341105687
 20
53.39652738895609
 30
0.0
 11
67.76012341105496
 21
53.39652738895609
 31
0.0
  0
LINE
  5
393
330
71
100
AcDbEntity
  8
1
  6
Continuous
 62
     6
100
AcDbLine
 10
62.76012341105687
 20
53.39652738895609
 30
0.0
 11
62.76012341105637
 21
103.3965273889559
 31
0.0
  0
LINE
  5
394
330
71
100
AcDbEntity
  8
1
  6
Continuous
 62
     2
100
AcDbLine
 10
67.76012341105496
 20
53.39652738895609
 30
0.0
 11
67.76012341105496
 21
103.3965273889559
 31
0.0
  0
LINE
  5
395
330
71
100
AcDbEntity
  8
1
  6
Continuous
 62
     2
100
AcDbLine
 10
62.76012341105637
 20
103.3965273889559
 30
0.0
 11
67.76012341105496
 21
103.3965273889559
 31
0.0
  0
LINE
  5
396
330
71
100
AcDbEntity
  8
1
  6
Continuous
 62
     6
100
AcDbLine
 10
62.76012341105637
 20
103.3965273889559
 30
0.0
 11
62.76012341105516
 21
153.396527388956
 31
0.0
  0
LINE
  5
397
330
71
100
AcDbEntity
  8
1
  6
Continuous
 62
     2
100
AcDbLine
 10
67.76012341105496
 20
103.3965273889559
 30
0.0
 11
67.76012341105496
 21
153.396527388956
 31
0.0
  0
LINE
  5
398
330
71
100
AcDbEntity
  8
1
  6
Continuous
 62
     2
100
AcDbLine
 10
62.76012341105516
 20
153.396527388956
 30
0.0
 11
67.76012341105496
 21
153.396527388956
 31
0.0
  0
LINE
  5
399
330
71
100
AcDbEntity
  8
1
  6
Continuous
 62
     6
100
AcDbLine
 10
62.76012341105516
 20
153.396527388956
 30
0.0
 11
62.76012341105496
 21
188.396527388956
 31
0.0
  0
LINE
  5
39A
330
71
100
AcDbEntity
  8
1
  6
Continuous
 62
     2
100
AcDbLine
 10
67.76012341105496
 20
153.396527388956
 30
0.0
 11
67.76012341105496
 21
208.396527388956
 31
0.0
  0
LINE
  5
39B
330
71
100
AcDbEntity
  8
1
  6
Continuous
 62
     2
100
AcDbLine
 10
67.76012341105496
 20
3.39652738895597
 30
0.0
 11
67.76012341105496
 21
53.39652738895609
 31
0.0
  0
LINE
  5
39C
330
71
100
AcDbEntity
  8
1
  6
Continuous
 62
     2
100
AcDbLine
 10
-80.73987658894401
 20
208.396527388956
 30
0.0
 11
-229.2398765889431
 21
208.396527388956
 31
0.0
  0
LINE
  5
39D
330
71
100
AcDbEntity
  8
1
  6
Continuous
 62
     2
100
AcDbLine
 10
-80.73987658894401
 20
208.396527388956
 30
0.0
 11
-80.73987658894401
 21
199.1878355442547
 31
0.0
  0
LINE
  5
39E
330
71
100
AcDbEntity
  8
1
  6
Continuous
 62
     2
100
AcDbLine
 10
-229.2398765889431
 20
-1.60347261104414
 30
0.0
 11
-224.2398765889421
 21
-1.60347261104414
 31
0.0
  0
LINE
  5
39F
330
71
100
AcDbEntity
  8
1
  6
Continuous
 62
     2
100
AcDbLine
 10
-229.2398765889431
 20
208.396527388956
 30
0.0
 11
-229.2398765889431
 21
153.396527388956
 31
0.0
  0
LINE
  5
3A0
330
71
100
AcDbEntity
  8
1
  6
Continuous
 62
     6
100
AcDbLine
 10
-224.2398765889431
 20
188.396527388956
 30
0.0
 11
-224.2398765889431
 21
153.396527388956
 31
0.0
  0
LINE
  5
3A1
330
71
100
AcDbEntity
  8
1
  6
Continuous
 62
     2
100
AcDbLine
 10
-229.2398765889431
 20
153.396527388956
 30
0.0
 11
-224.2398765889431
 21
153.396527388956
 31
0.0
  0
LINE
  5
3A2
330
71
100
AcDbEntity
  8
1
  6
Continuous
 62
     2
100
AcDbLine
 10
-229.2398765889431
 20
153.396527388956
 30
0.0
 11
-229.2398765889431
 21
103.3965273889559
 31
0.0
  0
LINE
  5
3A3
330
71
100
AcDbEntity
  8
1
  6
Continuous
 62
     6
100
AcDbLine
 10
-224.2398765889431
 20
153.396527388956
 30
0.0
 11
-224.2398765889425
 21
103.3965273889559
 31
0.0
  0
LINE
  5
3A4
330
71
100
AcDbEntity
  8
1
  6
Continuous
 62
     2
100
AcDbLine
 10
-229.2398765889431
 20
103.3965273889559
 30
0.0
 11
-224.2398765889425
 21
103.3965273889559
 31
0.0
  0
LINE
  5
3A5
330
71
100
AcDbEntity
  8
1
  6
Continuous
 62
     2
100
AcDbLine
 10
-229.2398765889431
 20
103.3965273889559
 30
0.0
 11
-229.2398765889431
 21
53.39652738895609
 31
0.0
  0
LINE
  5
3A6
330
71
100
AcDbEntity
  8
1
  6
Continuous
 62
     6
100
AcDbLine
 10
-224.2398765889425
 20
103.3965273889559
 30
0.0
 11
-224.2398765889423
 21
53.39652738895609
 31
0.0
  0
LINE
  5
3A7
330
71
100
AcDbEntity
  8
1
  6
Continuous
 62
     2
100
AcDbLine
 10
-229.2398765889431
 20
53.39652738895609
 30
0.0
 11
-224.2398765889423
 21
53.39652738895609
 31
0.0
  0
LINE
  5
3A8
330
71
100
AcDbEntity
  8
1
  6
Continuous
 62
     2
100
AcDbLine
 10
-229.2398765889431
 20
53.39652738895609
 30
0.0
 11
-229.2398765889431
 21
3.39652738895597
 31
0.0
  0
LINE
  5
3A9
330
71
100
AcDbEntity
  8
1
  6
Continuous
 62
     6
100
AcDbLine
 10
-224.2398765889423
 20
53.39652738895609
 30
0.0
 11
-224.2398765889421
 21
3.39652738895597
 31
0.0
  0
LINE
  5
3AA
330
71
100
AcDbEntity
  8
1
  6
Continuous
 62
     2
100
AcDbLine
 10
-180.739876588944
 20
-1.60347261104414
 30
0.0
 11
-180.739876588944
 21
3.39652738895597
 31
0.0
  0
LINE
  5
3AB
330
71
100
AcDbEntity
  8
1
  6
Continuous
 62
     2
100
AcDbLine
 10
-180.739876588944
 20
-1.60347261104414
 30
0.0
 11
-130.7398765889442
 21
-1.60347261104414
 31
0.0
  0
LINE
  5
3AC
330
71
100
AcDbEntity
  8
1
  6
Continuous
 62
     2
100
AcDbLine
 10
-130.7398765889442
 20
-1.60347261104414
 30
0.0
 11
-130.7398765889442
 21
3.39652738895597
 31
0.0
  0
LINE
  5
3AD
330
71
100
AcDbEntity
  8
1
  6
Continuous
 62
     2
100
AcDbLine
 10
-130.7398765889442
 20
-1.60347261104414
 30
0.0
 11
-80.73987658894401
 21
-1.60347261104414
 31
0.0
  0
LINE
  5
3AE
330
71
100
AcDbEntity
  8
1
  6
Continuous
 62
     2
100
AcDbLine
 10
-80.73987658894401
 20
-1.60347261104414
 30
0.0
 11
-80.73987658894401
 21
3.39652738895597
 31
0.0
  0
LINE
  5
3AF
330
71
100
AcDbEntity
  8
1
  6
Continuous
 62
     2
100
AcDbLine
 10
-80.73987658894401
 20
-1.60347261104414
 30
0.0
 11
-30.73987658894404
 21
-1.60347261104414
 31
0.0
  0
LINE
  5
3B0
330
71
100
AcDbEntity
  8
1
  6
Continuous
 62
     2
100
AcDbLine
 10
-30.73987658894404
 20
-1.60347261104414
 30
0.0
 11
-30.73987658894404
 21
3.39652738895597
 31
0.0
  0
LINE
  5
3B1
330
71
100
AcDbEntity
  8
1
  6
Continuous
 62
     2
100
AcDbLine
 10
19.26012341105596
 20
-1.60347261104414
 30
0.0
 11
19.26012341105596
 21
3.39652738895597
 31
0.0
  0
LINE
  5
3B2
330
71
100
AcDbEntity
  8
1
  6
Continuous
 62
     2
100
AcDbLine
 10
19.26012341105596
 20
-1.60347261104414
 30
0.0
 11
-30.73987658894404
 21
-1.60347261104414
 31
0.0
  0
LINE
  5
3B3
330
71
100
AcDbEntity
  8
1
  6
Continuous
 62
     2
100
AcDbLine
 10
-224.2398765889421
 20
3.39652738895597
 30
0.0
 11
-224.2398765889421
 21
-1.60347261104414
 31
0.0
  0
LINE
  5
3B4
330
71
100
AcDbEntity
  8
1
  6
Continuous
 62
     2
100
AcDbLine
 10
-224.2398765889421
 20
-1.60347261104414
 30
0.0
 11
-180.739876588944
 21
-1.60347261104414
 31
0.0
  0
LINE
  5
3B5
330
71
100
AcDbEntity
  8
1
  6
Continuous
 62
     2
100
AcDbLine
 10
-224.2398765889421
 20
3.39652738895597
 30
0.0
 11
-229.2398765889431
 21
3.39652738895597
 31
0.0
  0
LINE
  5
3B6
330
71
100
AcDbEntity
  8
1
  6
Continuous
 62
     2
100
AcDbLine
 10
-229.2398765889431
 20
3.39652738895597
 30
0.0
 11
-229.2398765889431
 21
-1.60347261104414
 31
0.0
  0
LINE
  5
3B7
330
71
100
AcDbEntity
  8
1
  6
Continuous
 62
     6
100
AcDbLine
 10
62.76012341105597
 20
3.39652738895597
 30
0.0
 11
62.76012341105727
 21
11.89652738895597
 31
0.0
  0
LINE
  5
3B8
330
71
100
AcDbEntity
  8
1
  6
Continuous
 62
     6
100
AcDbLine
 10
-30.38468111569412
 20
3.39652738895586
 30
0.0
 11
19.26012341105596
 21
3.39652738895597
 31
0.0
  0
LINE
  5
3B9
330
71
100
AcDbEntity
  8
1
  6
Continuous
 62
     6
100
AcDbLine
 10
-183.0398765889443
 20
3.39652738895586
 30
0.0
 11
-180.739876588944
 21
3.39652738895597
 31
0.0
  0
LINE
  5
3BA
330
71
100
AcDbEntity
  8
1
  6
Continuous
 62
     6
100
AcDbLine
 10
-80.73987658894401
 20
3.39652738895597
 30
0.0
 11
-130.7398765889442
 21
3.39652738895597
 31
0.0
  0
LINE
  5
3BB
330
71
100
AcDbEntity
  8
1
  6
Continuous
 62
     7
100
AcDbLine
 10
-66.78468111569404
 20
20.39652738895597
 30
0.0
 11
-66.78468111569404
 21
7.64652738895586
 31
0.0
  0
LINE
  5
3BC
330
71
100
AcDbEntity
  8
1
  6
Continuous
 62
     7
100
AcDbLine
 10
-30.38468111569412
 20
20.39652738895597
 30
0.0
 11
-30.38468111569412
 21
7.64652738895597
 31
0.0
  0
LINE
  5
3BD
330
71
100
AcDbEntity
  8
1
  6
Continuous
 62
     6
100
AcDbLine
 10
-183.0398765889443
 20
3.39652738895586
 30
0.0
 11
-189.2398765889423
 21
3.39652738895597
 31
0.0
  0
LINE
  5
3BE
330
71
100
AcDbEntity
  8
1
  6
Continuous
 62
     6
100
AcDbLine
 10
-30.38468111569412
 20
3.39652738895586
 30
0.0
 11
-30.73987658894404
 21
3.39652738895597
 31
0.0
  0
LINE
  5
3BF
330
71
100
AcDbEntity
  8
1
  6
Continuous
 62
     6
100
AcDbLine
 10
62.76012341105766
 20
20.39652738895597
 30
0.0
 11
62.76012341105727
 21
11.89652738895597
 31
0.0
  0
LINE
  5
3C0
330
71
100
AcDbEntity
  8
1
  6
Continuous
 62
     6
100
AcDbLine
 10
-189.2398765889423
 20
3.39652738895597
 30
0.0
 11
-224.2398765889421
 21
3.39652738895597
 31
0.0
  0
LINE
  5
3C1
330
71
100
AcDbEntity
  8
1
  6
Continuous
 62
     2
100
AcDbLine
 10
-62.54802622913144
 20
25.77152738895589
 30
0.0
 11
-57.54802622913144
 21
27.02152738895589
 31
0.0
  0
LINE
  5
3C2
330
71
100
AcDbEntity
  8
1
  6
Continuous
 62
     2
100
AcDbLine
 10
-62.54802622913144
 20
23.27152738895589
 30
0.0
 11
-62.54802622913144
 21
25.77152738895589
 31
0.0
  0
LINE
  5
3C3
330
71
100
AcDbEntity
  8
1
  6
Continuous
 62
     2
100
AcDbLine
 10
-57.54802622913144
 20
22.02152738895589
 30
0.0
 11
-62.54802622913144
 21
23.27152738895589
 31
0.0
  0
LINE
  5
3C4
330
71
100
AcDbEntity
  8
1
  6
Continuous
 62
     2
100
AcDbLine
 10
-57.54802622913144
 20
27.02152738895589
 30
0.0
 11
-57.54802622913144
 21
22.02152738895589
 31
0.0
  0
LINE
  5
3C5
330
71
100
AcDbEntity
  8
1
  6
Continuous
 62
     7
100
AcDbLine
 10
-66.78468111569404
 20
7.64652738895586
 30
0.0
 11
-48.58468111569403
 21
7.64652738895597
 31
0.0
  0
LINE
  5
3C6
330
71
100
AcDbEntity
  8
1
  6
Continuous
 62
     7
100
AcDbLine
 10
-66.78468111569404
 20
7.64652738895586
 30
0.0
 11
-66.78468111569404
 21
3.39652738895586
 31
0.0
  0
LINE
  5
3C7
330
71
100
AcDbEntity
  8
1
  6
Continuous
 62
     7
100
AcDbLine
 10
-30.38468111569412
 20
7.64652738895597
 30
0.0
 11
-30.38468111569412
 21
3.39652738895586
 31
0.0
  0
LINE
  5
3C8
330
71
100
AcDbEntity
  8
1
  6
Continuous
 62
     7
100
AcDbLine
 10
-48.58468111569403
 20
7.64652738895597
 30
0.0
 11
-48.58468111569403
 21
3.39652738895597
 31
0.0
  0
LINE
  5
3C9
330
71
100
AcDbEntity
  8
1
  6
Continuous
 62
     6
100
AcDbLine
 10
-48.58468111569403
 20
3.39652738895597
 30
0.0
 11
-66.78468111569404
 21
3.39652738895586
 31
0.0
  0
LINE
  5
3CA
330
71
100
AcDbEntity
  8
1
  6
Continuous
 62
     7
100
AcDbLine
 10
-48.58468111569403
 20
7.64652738895597
 30
0.0
 11
-30.38468111569412
 21
7.64652738895597
 31
0.0
  0
LINE
  5
3CB
330
71
100
AcDbEntity
  8
1
  6
Continuous
 62
     6
100
AcDbLine
 10
-66.78468111569404
 20
28.89652738895597
 30
0.0
 11
62.76012341105766
 21
28.89652738895597
 31
0.0
  0
ARC
  5
3CC
102
{ACAD_REACTORS
330
434
330
435
102
}
330
71
100
AcDbEntity
  8
0
  6
Continuous
 62
     2
100
AcDbCircle
 10
-51.39303311673405
 20
12.21693215087757
 30
0.0
 40
0.7717997786797003
100
AcDbArc
 50
321.879580202842
 51
38.12041979715276
  0
ARC
  5
3CD
102
{ACAD_REACTORS
330
434
330
435
102
}
330
71
100
AcDbEntity
  8
0
  6
Continuous
 62
     2
100
AcDbCircle
 10
-51.19329308038763
 20
12.06020097275757
 30
0.0
 40
0.5179085730137398
100
AcDbArc
 50
218.1204197971925
 51
321.8795802028012
  0
ARC
  5
3CE
102
{ACAD_REACTORS
330
434
330
435
102
}
330
71
100
AcDbEntity
  8
0
  6
Continuous
 62
     2
100
AcDbCircle
 10
-50.99355304404153
 20
12.21693215087757
 30
0.0
 40
0.7717997786794666
100
AcDbArc
 50
141.8795802028368
 51
218.1204197971684
  0
ARC
  5
3CF
102
{ACAD_REACTORS
330
434
330
435
102
}
330
71
100
AcDbEntity
  8
0
  6
Continuous
 62
     2
100
AcDbCircle
 10
-51.19329308038763
 20
12.37366332899808
 30
0.0
 40
0.5179085730132965
100
AcDbArc
 50
38.12041979714657
 51
141.8795802028597
  0
ARC
  5
3D0
102
{ACAD_REACTORS
330
42C
330
42D
102
}
330
71
100
AcDbEntity
  8
0
  6
Continuous
 62
     2
100
AcDbCircle
 10
-54.25530721595152
 20
10.80646578546939
 30
0.0
 40
2.227384008973474
100
AcDbArc
 50
58.06909105004068
 51
71.55192388186732
  0
ARC
  5
3D1
102
{ACAD_REACTORS
330
42C
330
42D
102
}
330
71
100
AcDbEntity
  8
0
  6
Continuous
 62
     2
100
AcDbCircle
 10
-53.99357951499275
 20
12.42200358021657
 30
0.0
 40
0.5115800601948767
100
AcDbArc
 50
113.3722778881983
 51
151.4785267423037
  0
ARC
  5
3D2
102
{ACAD_REACTORS
330
42C
330
42D
102
}
330
71
100
AcDbEntity
  8
0
  6
Continuous
 62
     2
100
AcDbCircle
 10
-53.61622225691244
 20
12.21693215087757
 30
0.0
 40
0.9410597353332483
100
AcDbArc
 50
151.4785267422667
 51
208.521473257706
  0
ARC
  5
3D3
102
{ACAD_REACTORS
330
42C
330
42D
102
}
330
71
100
AcDbEntity
  8
0
  6
Continuous
 62
     2
100
AcDbCircle
 10
-54.41318009104444
 20
15.52961309613397
 30
0.0
 40
4.852596863498134
100
AcDbArc
 50
275.1581447696249
 51
285.9799912583529
  0
ARC
  5
3D4
102
{ACAD_REACTORS
330
42C
330
42D
102
}
330
71
100
AcDbEntity
  8
0
  6
Continuous
 62
     2
100
AcDbCircle
 10
-54.12432399630853
 20
12.32972251291238
 30
0.0
 40
1.639695123939387
100
AcDbArc
 50
195.0618917770895
 51
275.1581447696393
  0
ARC
  5
3D5
102
{ACAD_REACTORS
330
42C
330
42D
102
}
330
71
100
AcDbEntity
  8
0
  6
Continuous
 62
     2
100
AcDbCircle
 10
-54.54345183977134
 20
12.21693215087757
 30
0.0
 40
1.205656168390937
100
AcDbArc
 50
164.9381082228765
 51
195.0618917770951
  0
ARC
  5
3D6
102
{ACAD_REACTORS
330
42C
330
42D
102
}
330
71
100
AcDbEntity
  8
0
  6
Continuous
 62
     2
100
AcDbCircle
 10
-54.12432399630853
 20
12.10414178884267
 30
0.0
 40
1.639695123940504
100
AcDbArc
 50
84.8418552303626
 51
164.9381082228865
  0
ARC
  5
3D7
102
{ACAD_REACTORS
330
430
330
431
102
}
330
71
100
AcDbEntity
  8
0
  6
Continuous
 62
     2
100
AcDbCircle
 10
-58.95433825047044
 20
13.25075894523187
 30
0.0
 40
0.3157169230765248
100
AcDbArc
 50
115.3740086783525
 51
180.0
  0
ARC
  5
3D8
102
{ACAD_REACTORS
330
430
330
431
102
}
330
71
100
AcDbEntity
  8
0
  6
Continuous
 62
     2
100
AcDbCircle
 10
-58.95433825047044
 20
15.46904214516809
 30
0.0
 40
0.3157169230767991
100
AcDbArc
 50
180.0
 51
244.6259913216483
  0
ARC
  5
3D9
102
{ACAD_REACTORS
330
430
330
431
102
}
330
71
100
AcDbEntity
  8
0
  6
Continuous
 62
     2
100
AcDbCircle
 10
-58.94872211516042
 20
14.37174248610577
 30
0.0
 40
2.018561131933257
100
AcDbArc
 50
269.8110329575858
 51
90.18896704241416
  0
ARC
  5
3DA
102
{ACAD_REACTORS
330
430
330
431
102
}
330
71
100
AcDbEntity
  8
0
  6
Continuous
 62
     2
100
AcDbCircle
 10
-58.95433825047044
 20
12.66890753853679
 30
0.0
 40
0.3157169230767991
100
AcDbArc
 50
180.0
 51
269.8110329574542
  0
ARC
  5
3DB
102
{ACAD_REACTORS
330
42E
330
42F
102
}
330
71
100
AcDbEntity
  8
0
  6
Continuous
 62
     2
100
AcDbCircle
 10
-37.89087803573983
 20
12.42200358021657
 30
0.0
 40
0.5115800601944093
100
AcDbArc
 50
109.3371432194855
 51
151.4785267424228
  0
ARC
  5
3DC
102
{ACAD_REACTORS
330
42E
330
42F
102
}
330
71
100
AcDbEntity
  8
0
  6
Continuous
 62
     2
100
AcDbCircle
 10
-37.89087803573983
 20
12.01186072153908
 30
0.0
 40
0.5115800601960208
100
AcDbArc
 50
208.5214732576864
 51
246.6277221118443
  0
ARC
  5
3DD
102
{ACAD_REACTORS
330
42E
330
42F
102
}
330
71
100
AcDbEntity
  8
0
  6
Continuous
 62
     2
100
AcDbCircle
 10
-38.44075036051723
 20
12.21693215087757
 30
0.0
 40
1.205656168393002
100
AcDbArc
 50
164.9381082229029
 51
195.0618917770962
  0
ARC
  5
3DE
102
{ACAD_REACTORS
330
42E
330
42F
102
}
330
71
100
AcDbEntity
  8
0
  6
Continuous
 62
     2
100
AcDbCircle
 10
-38.02162251705562
 20
12.10414178884267
 30
0.0
 40
1.639695123940211
100
AcDbArc
 50
90.0
 51
164.938108222895
  0
ARC
  5
3DF
102
{ACAD_REACTORS
330
432
330
433
102
}
330
71
100
AcDbEntity
  8
0
  6
Continuous
 62
     2
100
AcDbCircle
 10
-47.44861760975934
 20
15.57612262705189
 30
0.0
 40
1.526904761905881
100
AcDbArc
 50
90.0
 51
270.0
  0
ARC
  5
3E0
102
{ACAD_REACTORS
330
436
330
437
102
}
330
71
100
AcDbEntity
  8
0
  6
Continuous
 62
     2
100
AcDbCircle
 10
-54.19130835498513
 20
16.08705771884658
 30
0.0
 40
0.35286382467112
100
AcDbArc
 50
270.0
 51
90.0
  0
ARC
  5
3E1
102
{ACAD_REACTORS
330
430
330
431
102
}
330
71
100
AcDbEntity
  8
0
  6
Continuous
 62
     2
100
AcDbCircle
 10
-61.52988693700215
 20
16.07475491032298
 30
0.0
 40
0.3157169230761987
100
AcDbArc
 50
90.0
 51
180.0
  0
ARC
  5
3E2
102
{ACAD_REACTORS
330
430
330
431
102
}
330
71
100
AcDbEntity
  8
0
  6
Continuous
 62
     2
100
AcDbCircle
 10
-59.53146922841754
 20
14.35990054520028
 30
0.0
 40
0.9118975235576084
100
AcDbArc
 50
115.1944106485279
 51
244.8055893514881
  0
ARC
  5
3E3
102
{ACAD_REACTORS
330
430
330
431
102
}
330
71
100
AcDbEntity
  8
0
  6
Continuous
 62
     2
100
AcDbCircle
 10
-60.05405367599252
 20
13.24907079913749
 30
0.0
 40
0.315716923076593
100
AcDbArc
 50
0.0
 51
64.80558935146027
  0
ARC
  5
3E4
102
{ACAD_REACTORS
330
430
330
431
102
}
330
71
100
AcDbEntity
  8
0
  6
Continuous
 62
     2
100
AcDbCircle
 10
-62.12378161374863
 20
11.11427200435557
 30
0.0
 40
0.4242446153828041
100
AcDbArc
 50
180.0
 51
270.0
  0
ARC
  5
3E5
102
{ACAD_REACTORS
330
432
330
433
102
}
330
71
100
AcDbEntity
  8
0
  6
Continuous
 62
     2
100
AcDbCircle
 10
-47.23234559959414
 20
15.73285380517237
 30
0.0
 40
0.517908573013522
100
AcDbArc
 50
38.12041979714398
 51
141.8795802028488
  0
ARC
  5
3E6
102
{ACAD_REACTORS
330
432
330
433
102
}
330
71
100
AcDbEntity
  8
0
  6
Continuous
 62
     2
100
AcDbCircle
 10
-47.03260556324784
 20
15.57612262705189
 30
0.0
 40
0.7717997786796735
100
AcDbArc
 50
141.8795802028403
 51
218.120419797156
  0
ARC
  5
3E7
102
{ACAD_REACTORS
330
434
330
435
102
}
330
71
100
AcDbEntity
  8
0
  6
Continuous
 62
     2
100
AcDbCircle
 10
-51.19329308038763
 20
12.75550716118087
 30
0.0
 40
2.065479772208505
100
AcDbArc
 50
242.4518518243401
 51
297.5481481756871
  0
ARC
  5
3E8
102
{ACAD_REACTORS
330
434
330
435
102
}
330
71
100
AcDbEntity
  8
0
  6
Continuous
 62
     2
100
AcDbCircle
 10
-51.19329308038763
 20
11.67835714057478
 30
0.0
 40
2.065479772208566
100
AcDbArc
 50
62.45185182430634
 51
117.5481481756664
  0
ARC
  5
3E9
102
{ACAD_REACTORS
330
434
330
435
102
}
330
71
100
AcDbEntity
  8
0
  6
Continuous
 62
     2
100
AcDbCircle
 10
-51.47423297222093
 20
12.21693215087757
 30
0.0
 40
1.458034083651492
100
AcDbArc
 50
117.5481481756624
 51
242.4518518243376
  0
ARC
  5
3EA
102
{ACAD_REACTORS
330
434
330
435
102
}
330
71
100
AcDbEntity
  8
0
  6
Continuous
 62
     2
100
AcDbCircle
 10
-50.91235318855433
 20
12.21693215087757
 30
0.0
 40
1.458034083652001
100
AcDbArc
 50
297.5481481757008
 51
62.45185182429923
  0
ARC
  5
3EB
102
{ACAD_REACTORS
330
432
330
433
102
}
330
71
100
AcDbEntity
  8
0
  6
Continuous
 62
     2
100
AcDbCircle
 10
-47.23234559959414
 20
15.41939144893146
 30
0.0
 40
0.5179085730134316
100
AcDbArc
 50
218.1204197971503
 51
321.8795802028569
  0
ARC
  5
3EC
102
{ACAD_REACTORS
330
432
330
433
102
}
330
71
100
AcDbEntity
  8
0
  6
Continuous
 62
     2
100
AcDbCircle
 10
-47.43208563594033
 20
15.57612262705189
 30
0.0
 40
0.7717997786796351
100
AcDbArc
 50
321.879580202844
 51
38.12041979715967
  0
ARC
  5
3ED
102
{ACAD_REACTORS
330
430
330
431
102
}
330
71
100
AcDbEntity
  8
0
  6
Continuous
 62
     2
100
AcDbCircle
 10
-56.65046952303183
 20
11.11427200435557
 30
0.0
 40
0.4242446153832891
100
AcDbArc
 50
270.0
 51
0.0
  0
ARC
  5
3EE
102
{ACAD_REACTORS
330
430
330
431
102
}
330
71
100
AcDbEntity
  8
0
  6
Continuous
 62
     2
100
AcDbCircle
 10
-56.65046952303183
 20
16.67878277355578
 30
0.0
 40
0.424244615383877
100
AcDbArc
 50
0.0
 51
90.0
  0
ARC
  5
3EF
102
{ACAD_REACTORS
330
430
330
431
102
}
330
71
100
AcDbEntity
  8
0
  6
Continuous
 62
     2
100
AcDbCircle
 10
-62.12378161374863
 20
16.67878277355578
 30
0.0
 40
0.4242446153837989
100
AcDbArc
 50
90.0
 51
180.0
  0
ARC
  5
3F0
102
{ACAD_REACTORS
330
430
330
431
102
}
330
71
100
AcDbEntity
  8
0
  6
Continuous
 62
     2
100
AcDbCircle
 10
-60.05405367599252
 20
11.71829986760588
 30
0.0
 40
0.3157169230767103
100
AcDbArc
 50
270.0
 51
0.0
  0
ARC
  5
3F1
102
{ACAD_REACTORS
330
430
330
431
102
}
330
71
100
AcDbEntity
  8
0
  6
Continuous
 62
     2
100
AcDbCircle
 10
-60.05405367599252
 20
15.47073029126247
 30
0.0
 40
0.3157169230761203
100
AcDbArc
 50
295.1944106485397
 51
0.0
  0
ARC
  5
3F2
102
{ACAD_REACTORS
330
430
330
431
102
}
330
71
100
AcDbEntity
  8
0
  6
Continuous
 62
     2
100
AcDbCircle
 10
-60.05405367599252
 20
16.07475491032298
 30
0.0
 40
0.315716923076593
100
AcDbArc
 50
0.0
 51
90.0
  0
ARC
  5
3F3
102
{ACAD_REACTORS
330
430
330
431
102
}
330
71
100
AcDbEntity
  8
0
  6
Continuous
 62
     2
100
AcDbCircle
 10
-61.52988693700215
 20
11.71829986760588
 30
0.0
 40
0.3157169230756764
100
AcDbArc
 50
180.0
 51
270.0
  0
ARC
  5
3F4
102
{ACAD_REACTORS
330
436
330
437
102
}
330
71
100
AcDbEntity
  8
0
  6
Continuous
 62
     2
100
AcDbCircle
 10
-53.74983582874674
 20
16.04766174762409
 30
0.0
 40
1.05536564133371
100
AcDbArc
 50
270.0
 51
90.0
  0
ARC
  5
3F5
102
{ACAD_REACTORS
330
42E
330
42F
102
}
330
71
100
AcDbEntity
  8
0
  6
Continuous
 62
     2
100
AcDbCircle
 10
-38.02162251705562
 20
12.32972251291238
 30
0.0
 40
1.639695123940448
100
AcDbArc
 50
195.0618917771012
 51
275.1581447696762
  0
ARC
  5
3F6
102
{ACAD_REACTORS
330
42E
330
42F
102
}
330
71
100
AcDbEntity
  8
0
  6
Continuous
 62
     2
100
AcDbCircle
 10
-38.31047861179144
 20
15.52961309613397
 30
0.0
 40
4.852596863498825
100
AcDbArc
 50
275.1581447696364
 51
285.9799912583387
  0
ARC
  5
3F7
102
{ACAD_REACTORS
330
42E
330
42F
102
}
330
71
100
AcDbEntity
  8
0
  6
Continuous
 62
     2
100
AcDbCircle
 10
-38.15260573669863
 20
13.62739851628567
 30
0.0
 40
2.227384008972746
100
AcDbArc
 50
288.4480761181335
 51
301.9309089499397
  0
ARC
  5
3F8
102
{ACAD_REACTORS
330
42E
330
42F
102
}
330
71
100
AcDbEntity
  8
0
  6
Continuous
 62
     2
100
AcDbCircle
 10
-37.73443800303673
 20
12.37385274024908
 30
0.0
 40
0.9059297849852878
100
AcDbArc
 50
246.6277221118179
 51
288.4480761180818
  0
ARC
  5
3F9
102
{ACAD_REACTORS
330
42E
330
42F
102
}
330
71
100
AcDbEntity
  8
0
  6
Continuous
 62
     2
100
AcDbCircle
 10
-37.51352077765844
 20
12.21693215087757
 30
0.0
 40
0.9410597353348907
100
AcDbArc
 50
151.4785267423626
 51
208.5214732576695
  0
ARC
  5
3FA
102
{ACAD_REACTORS
330
42E
330
42F
102
}
330
71
100
AcDbEntity
  8
0
  6
Continuous
 62
     2
100
AcDbCircle
 10
-37.74420803763613
 20
12.00404859983368
 30
0.0
 40
0.9545230068260899
100
AcDbArc
 50
90.0
 51
109.3371432194321
  0
ARC
  5
3FB
102
{ACAD_REACTORS
330
430
330
431
102
}
330
71
100
AcDbEntity
  8
0
  6
Continuous
 62
     2
100
AcDbCircle
 10
-58.95433825047044
 20
16.07457743367488
 30
0.0
 40
0.315716923076064
100
AcDbArc
 50
90.18896704254594
 51
180.0
  0
ARC
  5
3FC
102
{ACAD_REACTORS
330
430
330
431
102
}
330
71
100
AcDbEntity
  8
0
  6
Continuous
 62
     2
100
AcDbCircle
 10
-59.48038094855832
 20
14.35990054520028
 30
0.0
 40
0.9118481501444653
100
AcDbArc
 50
295.3740086781763
 51
64.62599132180736
  0
ARC
  5
3FD
102
{ACAD_REACTORS
330
42C
330
42D
102
}
330
71
100
AcDbEntity
  8
0
  6
Continuous
 62
     2
100
AcDbCircle
 10
-54.25530721595152
 20
13.62739851628626
 30
0.0
 40
2.227384008972734
100
AcDbArc
 50
288.4480761181326
 51
301.9309089499593
  0
ARC
  5
3FE
102
{ACAD_REACTORS
330
42C
330
42D
102
}
330
71
100
AcDbEntity
  8
0
  6
Continuous
 62
     2
100
AcDbCircle
 10
-53.83713948229072
 20
12.37385274024908
 30
0.0
 40
0.9059297849849242
100
AcDbArc
 50
246.6277221118712
 51
288.4480761181579
  0
ARC
  5
3FF
102
{ACAD_REACTORS
330
42C
330
42D
102
}
330
71
100
AcDbEntity
  8
0
  6
Continuous
 62
     2
100
AcDbCircle
 10
-53.99357951499275
 20
12.01186072153908
 30
0.0
 40
0.511580060194791
100
AcDbArc
 50
208.5214732576963
 51
246.6277221118283
  0
ARC
  5
400
102
{ACAD_REACTORS
330
42C
330
42D
102
}
330
71
100
AcDbEntity
  8
0
  6
Continuous
 62
     2
100
AcDbCircle
 10
-53.83713948229072
 20
12.06001156150597
 30
0.0
 40
0.9059297849853205
100
AcDbArc
 50
71.55192388185391
 51
113.3722778881288
  0
ARC
  5
401
102
{ACAD_REACTORS
330
42C
330
42D
102
}
330
71
100
AcDbEntity
  8
0
  6
Continuous
 62
     2
100
AcDbCircle
 10
-54.41318009104444
 20
8.90425120562168
 30
0.0
 40
4.852596863498068
100
AcDbArc
 50
74.02000874164739
 51
84.84185523037515
  0
CIRCLE
  5
402
102
{ACAD_REACTORS
330
430
330
431
102
}
330
71
100
AcDbEntity
  8
0
  6
Continuous
 62
     2
100
AcDbCircle
 10
-59.50419596323113
 20
14.35990054520028
 30
0.0
 40
0.4709789327785145
  0
CIRCLE
  5
403
330
71
100
AcDbEntity
  8
1
  6
Continuous
 62
     2
100
AcDbCircle
 10
-54.04802622913144
 20
24.52152738895589
 30
0.0
 40
1.249999999999915
  0
CIRCLE
  5
404
330
71
100
AcDbEntity
  8
1
  6
Continuous
 62
     2
100
AcDbCircle
 10
-54.04802622913144
 20
24.52152738895589
 30
0.0
 40
2.5
  0
TEXT
  5
405
330
71
100
AcDbEntity
  8
1
 62
     7
100
AcDbText
 10
-11.41113339368025
 20
21.69652738895587
 30
0.0
 40
2.5
  1
/
 41
0.9
  7
CONVERTER_11
100
AcDbText
  0
TEXT
  5
407
330
71
100
AcDbEntity
  8
1
 62
     7
100
AcDbText
 10
-9.25476889663824
 20
21.69652738895587
 30
0.0
 40
2.5
  1
01
 41
0.81
  7
CONVERTER_12
100
AcDbText
  0
TEXT
  5
408
330
71
100
AcDbEntity
  8
1
 62
     3
100
AcDbText
 10
28.34171512937886
 20
21.69652738895587
 30
0.0
 40
2.5
  1
09.01.2018
 41
0.81
  7
CONVERTER_12
100
AcDbText
  0
MTEXT
  5
409
330
71
100
AcDbEntity
  8
1
 62
     2
100
AcDbMText
 10
28.34171512937886
 20
27.89652738895589
 30
0.0
 40
1.8
 41
0.0
 71
     1
 72
     1
  1
date
  7
CONVERTER_11
 73
     1
 44
1.32052821128451
  0
MTEXT
  5
40A
330
71
100
AcDbEntity
  8
1
 62
     2
100
AcDbMText
 10
-1.48468111569403
 20
19.39652738895589
 30
0.0
 40
1.8
 41
0.0
 71
     1
 72
     1
  1
document-type
  7
CONVERTER_11
 73
     1
 44
1.20048019207683
  0
TEXT
  5
40B
330
71
100
AcDbEntity
  8
1
 62
     3
100
AcDbText
 10
-1.48468111569403
 20
13.19652738895587
 30
0.0
 40
2.5
  1
 
 41
0.81
  7
CONVERTER_12
100
AcDbText
  0
MTEXT
  5
40D
330
71
100
AcDbEntity
  8
1
 62
     2
100
AcDbMText
 10
-29.28468111569404
 20
27.89652738895597
 30
0.0
 40
1.8
 41
0.0
 71
     1
 72
     1
  1
document-No. / RI
  7
CONVERTER_13
 73
     1
 44
1.32052821128451
  0
TEXT
  5
40E
330
71
100
AcDbEntity
  8
1
 62
     7
100
AcDbText
 10
-29.28468111569404
 20
21.69652738895587
 30
0.0
 40
2.5
  1
00697801
 41
0.81
  7
CONVERTER_12
100
AcDbText
  0
MTEXT
  5
410
330
71
100
AcDbEntity
  8
1
 62
     3
100
AcDbMText
 10
58.30091927021827
 20
21.69652738895607
 30
0.0
 40
2.5
 41
0.0
 71
     8
 72
     1
  1
1:1
  7
CONVERTER_14
 73
     1
 44
1.32052821128451
  0
MTEXT
  5
411
330
71
100
AcDbEntity
  8
1
 62
     2
100
AcDbMText
 10
54.94171512937868
 20
27.89652738895597
 30
0.0
 40
1.8
 41
0.0
 71
     1
 72
     1
  1
scale
  7
CONVERTER_11
 73
     1
 44
1.20048019207683
  0
MTEXT
  5
412
330
71
100
AcDbEntity
  8
1
 62
     2
100
AcDbMText
 10
-29.28468111569404
 20
19.39652738895597
 30
0.0
 40
1.8
 41
0.0
 71
     1
 72
     1
  1
ident.-No.
  7
CONVERTER_11
 73
     1
 44
1.20048019207683
  0
TEXT
  5
413
330
71
100
AcDbEntity
  8
1
 62
     7
100
AcDbText
 10
-28.88468111569432
 20
13.19652738895587
 30
0.0
 40
2.5
  1
3211987
 41
0.81
  7
CONVERTER_12
100
AcDbText
  0
MTEXT
  5
414
330
71
100
AcDbEntity
  8
1
 62
     2
100
AcDbMText
 10
-101.2226958407416
 20
16.14652738895589
 30
0.0
 40
2.0
 41
0.0
 71
     5
 72
     1
  1
General Information\P- Simplified representation\P- Document excluded from change process\P- Linear dimensions [mm]
  7
CONVERTER_11
 73
     1
 44
1.20048019207683
  0
MTEXT
  5
415
330
71
100
AcDbEntity
  8
1
 62
     7
100
AcDbMText
 10
65.26012341105496
 20
78.39652738895788
 30
0.0
 40
3.5
 41
0.0
 71
     5
 72
     1
  1
C
  7
CONVERTER_11
 73
     1
 44
1.20048019207683
  0
MTEXT
  5
416
330
71
100
AcDbEntity
  8
1
 62
     7
100
AcDbMText
 10
65.26012341105496
 20
180.896527388956
 30
0.0
 40
3.5
 41
0.0
 71
     5
 72
     1
  1
A
  7
CONVERTER_11
 73
     1
 44
1.20048019207683
  0
MTEXT
  5
417
330
71
100
AcDbEntity
  8
1
 62
     7
100
AcDbMText
 10
65.26012341105496
 20
128.3965273889579
 30
0.0
 40
3.5
 41
0.0
 71
     5
 72
     1
  1
B
  7
CONVERTER_11
 73
     1
 44
1.20048019207683
  0
MTEXT
  5
418
330
71
100
AcDbEntity
  8
1
 62
     7
100
AcDbMText
 10
65.26012341105496
 20
25.89652738895597
 30
0.0
 40
3.5
 41
0.0
 71
     5
 72
     1
  1
D
  7
CONVERTER_11
 73
     1
 44
1.20048019207683
  0
MTEXT
  5
419
330
71
100
AcDbEntity
  8
1
 62
     7
100
AcDbMText
 10
-204.9898765889436
 20
0.89652738895586
 30
0.0
 40
3.5
 41
0.0
 71
     5
 72
     1
  1
1
  7
CONVERTER_11
 73
     1
 44
1.20048019207683
  0
MTEXT
  5
41A
330
71
100
AcDbEntity
  8
1
 62
     7
100
AcDbMText
 10
-155.739876588944
 20
0.89652738895586
 30
0.0
 40
3.5
 41
0.0
 71
     5
 72
     1
  1
2
  7
CONVERTER_11
 73
     1
 44
1.20048019207683
  0
MTEXT
  5
41B
330
71
100
AcDbEntity
  8
1
 62
     7
100
AcDbMText
 10
-105.739876588944
 20
0.89652738895586
 30
0.0
 40
3.5
 41
0.0
 71
     5
 72
     1
  1
3
  7
CONVERTER_11
 73
     1
 44
1.20048019207683
  0
MTEXT
  5
41C
330
71
100
AcDbEntity
  8
1
 62
     7
100
AcDbMText
 10
-55.73987658894413
 20
0.89652738895586
 30
0.0
 40
3.5
 41
0.0
 71
     5
 72
     1
  1
4
  7
CONVERTER_11
 73
     1
 44
1.20048019207683
  0
MTEXT
  5
41D
330
71
100
AcDbEntity
  8
1
 62
     7
100
AcDbMText
 10
-5.73987658894404
 20
0.89652738895586
 30
0.0
 40
3.5
 41
0.0
 71
     5
 72
     1
  1
5
  7
CONVERTER_11
 73
     1
 44
1.20048019207683
  0
MTEXT
  5
41E
330
71
100
AcDbEntity
  8
1
 62
     7
100
AcDbMText
 10
43.51012341105516
 20
0.89652738895586
 30
0.0
 40
3.5
 41
0.0
 71
     5
 72
     1
  1
6
  7
CONVERTER_11
 73
     1
 44
1.20048019207683
  0
MTEXT
  5
41F
330
71
100
AcDbEntity
  8
1
 62
     7
100
AcDbMText
 10
-226.7398765889431
 20
180.896527388956
 30
0.0
 40
3.5
 41
0.0
 71
     5
 72
     1
  1
A
  7
CONVERTER_11
 73
     1
 44
1.20048019207683
  0
MTEXT
  5
420
330
71
100
AcDbEntity
  8
1
 62
     7
100
AcDbMText
 10
-226.7398765889431
 20
128.396527388956
 30
0.0
 40
3.5
 41
0.0
 71
     5
 72
     1
  1
B
  7
CONVERTER_11
 73
     1
 44
1.20048019207683
  0
MTEXT
  5
421
330
71
100
AcDbEntity
  8
1
 62
     7
100
AcDbMText
 10
-226.7398765889431
 20
78.39652738895597
 30
0.0
 40
3.5
 41
0.0
 71
     5
 72
     1
  1
C
  7
CONVERTER_11
 73
     1
 44
1.20048019207683
  0
MTEXT
  5
422
330
71
100
AcDbEntity
  8
1
 62
     7
100
AcDbMText
 10
-226.7398765889431
 20
25.89652738895597
 30
0.0
 40
3.5
 41
0.0
 71
     5
 72
     1
  1
D
  7
CONVERTER_11
 73
     1
 44
1.20048019207683
  0
MTEXT
  5
423
330
71
100
AcDbEntity
  8
1
 62
     3
100
AcDbMText
 10
-40.58468111569414
 20
24.52152738895597
 30
0.0
 40
2.5
 41
0.0
 71
     5
 72
     1
  1
DIN A4
  7
CONVERTER_11
 73
     1
 44
1.20048019207683
  0
MTEXT
  5
424
330
71
100
AcDbEntity
  8
1
 62
     2
100
AcDbMText
 10
-29.38468111569412
 20
10.89652738895597
 30
0.0
 40
1.8
 41
0.0
 71
     1
 72
     1
  1
description
  7
CONVERTER_11
 73
     1
 44
1.20048019207683
  0
MTEXT
  5
425
330
71
100
AcDbEntity
  8
1
 62
     7
100
AcDbMText
 10
16.18772114768146
 20
6.6465273889562
 30
0.0
 40
3.0
 41
0.0
 71
     5
 72
     1
  1
PP-H 4/ 1-R GNYE
  7
CONVERTER_12
 73
     1
 44
1.20048019207683
  0
TEXT
  5
426
330
71
100
AcDbEntity
  8
1
 62
     2
100
AcDbText
 10
-42.34937230588054
 20
4.64652738895586
 30
0.0
 40
1.8
  1
1
 41
0.9
  7
CONVERTER_11
100
AcDbText
  0
TEXT
  5
427
330
71
100
AcDbEntity
  8
1
 62
     2
100
AcDbText
 10
-57.13841614535204
 20
4.59727873515396
 30
0.0
 40
1.8
  1
1
 41
0.9
  7
CONVERTER_11
100
AcDbText
  0
TEXT
  5
428
330
71
100
AcDbEntity
  8
1
 62
     2
100
AcDbText
 10
-65.78468111569404
 20
4.6375101739643
 30
0.0
 40
1.8
  1
page
 41
0.9
  7
CONVERTER_11
100
AcDbText
  0
TEXT
  5
429
330
71
100
AcDbEntity
  8
1
 62
     2
100
AcDbText
 10
-47.58468111569422
 20
4.63751017396436
 30
0.0
 40
1.8
  1
of
 41
0.9
  7
CONVERTER_11
100
AcDbText
  0
MTEXT
  5
42A
330
71
100
AcDbEntity
  8
1
 62
     3
100
AcDbMText
 10
-41.38169896408414
 20
190.1878355442548
 30
0.0
 40
1.8
 41
0.0
 71
     7
 72
     1
  3
Transfer or duplication of this document as well as the utilisation or\Pcommunication of its content are not permitted unless express consent\Pis granted. Violations give rise to claims for damages. All rights reserved\Pin case of patent, utility mo
  1
del or design patent registrations.
  7
CONVERTER_11
 73
     1
 44
0.99639855942377
  0
MTEXT
  5
42B
330
71
100
AcDbEntity
  8
1
 62
     3
100
AcDbMText
 10
-224.2348088028722
 20
190.1878355442548
 30
0.0
 40
1.8
 41
0.0
 71
     7
 72
     1
  3
Weitergabe sowie Vervielf\U+00e4ltigung dieses Dokuments, Verwertung und \PMitteilung seines Inhalts sind verboten, soweit nicht ausdr\U+00fccklich gestattet. \PZuwiderhandlungen verpflichten zu Schadenersatz. Alle Rechte f\U+00fcr den Fall\Pder Pat
  1
ent-, Gebrauchsmuster- oder Designeintragung vorbehalten.
  7
CONVERTER_11
 73
     1
 44
0.99639855942377
  0
HATCH
  5
42C
330
71
100
AcDbEntity
  8
1
  6
Continuous
 62
     2
100
AcDbHatch
 10
0.0
 20
0.0
 30
0.0
210
0.0
220
0.0
230
1.0
  2
_USER
 70
     0
 71
     1
 91
        1
 92
        1
 93
       14
 72
     2
 10
-54.54345183977134
 20
12.21693215087757
 40
1.205656168390937
 50
164.9381082228765
 51
195.0618917770951
 73
     1
 72
     2
 10
-54.12432399630853
 20
12.32972251291238
 40
1.639695123939387
 50
195.0618917770895
 51
275.1581447696393
 73
     1
 72
     2
 10
-54.41318009104444
 20
15.52961309613397
 40
4.852596863498134
 50
275.1581447696249
 51
285.9799912583529
 73
     1
 72
     1
 10
-53.07725217392664
 20
10.86453079033316
 11
-53.07725217392664
 21
11.73704779713637
 72
     2
 10
-54.25530721595152
 20
13.62739851628626
 40
2.227384008972734
 50
58.06909105004065
 51
71.55192388186738
 73
     0
 72
     2
 10
-53.83713948229072
 20
12.37385274024908
 40
0.9059297849849242
 50
71.55192388184209
 51
113.3722778881288
 73
     0
 72
     2
 10
-53.99357951499275
 20
12.01186072153908
 40
0.511580060194791
 50
113.3722778881717
 51
151.4785267423037
 73
     0
 72
     2
 10
-53.61622225691244
 20
12.21693215087757
 40
0.9410597353332483
 50
151.478526742294
 51
208.5214732577333
 73
     0
 72
     2
 10
-53.99357951499275
 20
12.42200358021657
 40
0.5115800601948767
 50
208.5214732576963
 51
246.6277221118017
 73
     0
 72
     2
 10
-53.83713948229072
 20
12.06001156150597
 40
0.9059297849853205
 50
246.6277221118712
 51
288.4480761181461
 73
     0
 72
     2
 10
-54.25530721595152
 20
10.80646578546939
 40
2.227384008973474
 50
288.4480761181327
 51
301.9309089499593
 73
     0
 72
     1
 10
-53.07725217392664
 20
12.69681650461928
 11
-53.07725217392664
 21
13.56933351142257
 72
     2
 10
-54.41318009104444
 20
8.904251205621676
 40
4.852596863498068
 50
74.02000874164739
 51
84.84185523037515
 73
     1
 72
     2
 10
-54.12432399630853
 20
12.10414178884267
 40
1.639695123940504
 50
84.8418552303626
 51
164.9381082228865
 73
     1
 97
       14
330
401
330
31A
330
3D0
330
400
330
3D1
330
3D2
330
3FF
330
3FE
330
3FD
330
31B
330
3D3
330
3D4
330
3D5
330
3D6
 75
     1
 76
     0
 52
45.0
 41
0.1
 77
     0
 78
     1
 53
45.0
 43
0.0
 44
0.0
 45
-0.0707106781186548
 46
0.0707106781186548
 79
     0
 98
        1
 10
0.0
 20
0.0
  0
HATCH
  5
42D
330
71
100
AcDbEntity
  8
1
  6
Continuous
 62
     2
100
AcDbHatch
 10
0.0
 20
0.0
 30
0.0
210
0.0
220
0.0
230
1.0
  2
_USER
 70
     0
 71
     1
 91
        1
 92
        1
 93
       14
 72
     2
 10
-54.54345183977134
 20
12.21693215087757
 40
1.205656168390937
 50
164.9381082228765
 51
195.0618917770951
 73
     1
 72
     2
 10
-54.12432399630853
 20
12.32972251291238
 40
1.639695123939387
 50
195.0618917770895
 51
275.1581447696393
 73
     1
 72
     2
 10
-54.41318009104444
 20
15.52961309613397
 40
4.852596863498134
 50
275.1581447696249
 51
285.9799912583529
 73
     1
 72
     1
 10
-53.07725217392664
 20
10.86453079033316
 11
-53.07725217392664
 21
11.73704779713637
 72
     2
 10
-54.25530721595152
 20
13.62739851628626
 40
2.227384008972734
 50
58.06909105004065
 51
71.55192388186738
 73
     0
 72
     2
 10
-53.83713948229072
 20
12.37385274024908
 40
0.9059297849849242
 50
71.55192388184209
 51
113.3722778881288
 73
     0
 72
     2
 10
-53.99357951499275
 20
12.01186072153908
 40
0.511580060194791
 50
113.3722778881717
 51
151.4785267423037
 73
     0
 72
     2
 10
-53.61622225691244
 20
12.21693215087757
 40
0.9410597353332483
 50
151.478526742294
 51
208.5214732577333
 73
     0
 72
     2
 10
-53.99357951499275
 20
12.42200358021657
 40
0.5115800601948767
 50
208.5214732576963
 51
246.6277221118017
 73
     0
 72
     2
 10
-53.83713948229072
 20
12.06001156150597
 40
0.9059297849853205
 50
246.6277221118712
 51
288.4480761181461
 73
     0
 72
     2
 10
-54.25530721595152
 20
10.80646578546939
 40
2.227384008973474
 50
288.4480761181327
 51
301.9309089499593
 73
     0
 72
     1
 10
-53.07725217392664
 20
12.69681650461928
 11
-53.07725217392664
 21
13.56933351142257
 72
     2
 10
-54.41318009104444
 20
8.904251205621676
 40
4.852596863498068
 50
74.02000874164739
 51
84.84185523037515
 73
     1
 72
     2
 10
-54.12432399630853
 20
12.10414178884267
 40
1.639695123940504
 50
84.8418552303626
 51
164.9381082228865
 73
     1
 97
       14
330
401
330
31A
330
3D0
330
400
330
3D1
330
3D2
330
3FF
330
3FE
330
3FD
330
31B
330
3D3
330
3D4
330
3D5
330
3D6
 75
     1
 76
     0
 52
45.0
 41
0.1
 77
     0
 78
     1
 53
45.0
 43
0.0
 44
0.0
 45
-0.0707106781186548
 46
0.0707106781186548
 79
     0
 98
        1
 10
0.0
 20
0.0
  0
HATCH
  5
42E
330
71
100
AcDbEntity
  8
1
  6
Continuous
 62
     2
100
AcDbHatch
 10
0.0
 20
0.0
 30
0.0
210
0.0
220
0.0
230
1.0
  2
_USER
 70
     0
 71
     1
 91
        1
 92
        1
 93
       18
 72
     2
 10
-38.02162251705562
 20
12.10414178884267
 40
1.639695123940211
 50
90.0
 51
164.938108222895
 73
     1
 72
     2
 10
-38.44075036051723
 20
12.21693215087757
 40
1.205656168393002
 50
164.9381082229029
 51
195.0618917770962
 73
     1
 72
     2
 10
-38.02162251705562
 20
12.32972251291238
 40
1.639695123940448
 50
195.0618917771012
 51
275.1581447696762
 73
     1
 72
     2
 10
-38.31047861179144
 20
15.52961309613397
 40
4.852596863498825
 50
275.1581447696364
 51
285.9799912583387
 73
     1
 72
     1
 10
-36.97455069467472
 20
10.86453079033257
 11
-36.97455069467472
 21
11.73704779713589
 72
     2
 10
-38.15260573669863
 20
13.62739851628567
 40
2.227384008972746
 50
58.06909105006029
 51
71.55192388186651
 73
     0
 72
     2
 10
-37.73443800303673
 20
12.37385274024908
 40
0.9059297849852878
 50
71.55192388191821
 51
113.372277888182
 73
     0
 72
     2
 10
-37.89087803573983
 20
12.01186072153908
 40
0.5115800601960208
 50
113.3722778881557
 51
151.4785267423136
 73
     0
 72
     2
 10
-37.51352077765844
 20
12.21693215087757
 40
0.9410597353348907
 50
151.4785267423305
 51
208.5214732576374
 73
     0
 72
     2
 10
-37.89087803573983
 20
12.42200358021657
 40
0.5115800601944093
 50
208.5214732575772
 51
250.6628567805145
 73
     0
 72
     2
 10
-37.74420803763613
 20
12.00404859983368
 40
0.9545230068260899
 50
250.6628567805679
 51
270.0
 73
     0
 72
     1
 10
-37.74420803763613
 20
12.95857160665977
 11
-36.64056873806803
 21
12.95857160665977
 72
     1
 10
-36.64056873806803
 20
12.95857160665977
 11
-36.64056873806803
 21
10.69002738897228
 72
     1
 10
-36.64056873806803
 20
10.69002738897228
 11
-35.44777603590032
 21
10.69002738897228
 72
     1
 10
-35.44777603590032
 20
10.69002738897228
 11
-35.44777603590032
 21
12.95857160665977
 72
     1
 10
-35.44777603590032
 20
12.95857160665977
 11
-34.63667699842694
 21
12.95857160665977
 72
     1
 10
-34.63667699842694
 20
12.95857160665977
 11
-34.63667699842694
 21
13.74383691278337
 72
     1
 10
-34.63667699842694
 20
13.74383691278337
 11
-38.02162251705562
 21
13.74383691278288
 97
       18
330
380
330
37F
330
37E
330
37D
330
382
330
31C
330
3FA
330
3DB
330
3F9
330
3DC
330
3F8
330
3F7
330
31D
330
3F6
330
3F5
330
3DD
330
3DE
330
381
 75
     1
 76
     0
 52
45.0
 41
0.1
 77
     0
 78
     1
 53
45.0
 43
0.0
 44
0.0
 45
-0.0707106781186548
 46
0.0707106781186548
 79
     0
 98
        1
 10
0.0
 20
0.0
  0
HATCH
  5
42F
330
71
100
AcDbEntity
  8
1
  6
Continuous
 62
     2
100
AcDbHatch
 10
0.0
 20
0.0
 30
0.0
210
0.0
220
0.0
230
1.0
  2
_USER
 70
     0
 71
     1
 91
        1
 92
        1
 93
       18
 72
     2
 10
-38.02162251705562
 20
12.10414178884267
 40
1.639695123940211
 50
90.0
 51
164.938108222895
 73
     1
 72
     2
 10
-38.44075036051723
 20
12.21693215087757
 40
1.205656168393002
 50
164.9381082229029
 51
195.0618917770962
 73
     1
 72
     2
 10
-38.02162251705562
 20
12.32972251291238
 40
1.639695123940448
 50
195.0618917771012
 51
275.1581447696762
 73
     1
 72
     2
 10
-38.31047861179144
 20
15.52961309613397
 40
4.852596863498825
 50
275.1581447696364
 51
285.9799912583387
 73
     1
 72
     1
 10
-36.97455069467472
 20
10.86453079033257
 11
-36.97455069467472
 21
11.73704779713589
 72
     2
 10
-38.15260573669863
 20
13.62739851628567
 40
2.227384008972746
 50
58.06909105006029
 51
71.55192388186651
 73
     0
 72
     2
 10
-37.73443800303673
 20
12.37385274024908
 40
0.9059297849852878
 50
71.55192388191821
 51
113.372277888182
 73
     0
 72
     2
 10
-37.89087803573983
 20
12.01186072153908
 40
0.5115800601960208
 50
113.3722778881557
 51
151.4785267423136
 73
     0
 72
     2
 10
-37.51352077765844
 20
12.21693215087757
 40
0.9410597353348907
 50
151.4785267423305
 51
208.5214732576374
 73
     0
 72
     2
 10
-37.89087803573983
 20
12.42200358021657
 40
0.5115800601944093
 50
208.5214732575772
 51
250.6628567805145
 73
     0
 72
     2
 10
-37.74420803763613
 20
12.00404859983368
 40
0.9545230068260899
 50
250.6628567805679
 51
270.0
 73
     0
 72
     1
 10
-37.74420803763613
 20
12.95857160665977
 11
-36.64056873806803
 21
12.95857160665977
 72
     1
 10
-36.64056873806803
 20
12.95857160665977
 11
-36.64056873806803
 21
10.69002738897228
 72
     1
 10
-36.64056873806803
 20
10.69002738897228
 11
-35.44777603590032
 21
10.69002738897228
 72
     1
 10
-35.44777603590032
 20
10.69002738897228
 11
-35.44777603590032
 21
12.95857160665977
 72
     1
 10
-35.44777603590032
 20
12.95857160665977
 11
-34.63667699842694
 21
12.95857160665977
 72
     1
 10
-34.63667699842694
 20
12.95857160665977
 11
-34.63667699842694
 21
13.74383691278337
 72
     1
 10
-34.63667699842694
 20
13.74383691278337
 11
-38.02162251705562
 21
13.74383691278288
 97
       18
330
380
330
37F
330
37E
330
37D
330
382
330
31C
330
3FA
330
3DB
330
3F9
330
3DC
330
3F8
330
3F7
330
31D
330
3F6
330
3F5
330
3DD
330
3DE
330
381
 75
     1
 76
     0
 52
45.0
 41
0.1
 77
     0
 78
     1
 53
45.0
 43
0.0
 44
0.0
 45
-0.0707106781186548
 46
0.0707106781186548
 79
     0
 98
        1
 10
0.0
 20
0.0
  0
HATCH
  5
430
330
71
100
AcDbEntity
  8
1
  6
Continuous
 62
     2
100
AcDbHatch
 10
0.0
 20
0.0
 30
0.0
210
0.0
220
0.0
230
1.0
  2
_USER
 70
     0
 71
     1
 91
        4
 92
        1
 93
        8
 72
     2
 10
-62.12378161374863
 20
16.67878277355578
 40
0.4242446153837989
 50
90.0
 51
180.0
 73
     1
 72
     1
 10
-62.54802622913144
 20
16.67878277355578
 11
-62.54802622913144
 21
11.11427200435557
 72
     2
 10
-62.12378161374863
 20
11.11427200435557
 40
0.4242446153828041
 50
180.0
 51
270.0
 73
     1
 72
     1
 10
-62.12378161374863
 20
10.69002738897228
 11
-56.65046952303183
 21
10.69002738897228
 72
     2
 10
-56.65046952303183
 20
11.11427200435557
 40
0.4242446153832891
 50
270.0
 51
360.0
 73
     1
 72
     1
 10
-56.22622490764795
 20
11.11427200435557
 11
-56.22622490764795
 21
16.67878277355578
 72
     2
 10
-56.65046952303183
 20
16.67878277355578
 40
0.424244615383877
 50
0.0
 51
90.0
 73
     1
 72
     1
 10
-56.65046952303183
 20
17.10302738893958
 11
-62.12378161374863
 21
17.10302738893958
 97
        8
330
3EE
330
34B
330
3ED
330
34C
330
3E4
330
349
330
3EF
330
34A
 92
       16
 93
        1
 72
     2
 10
-59.50419596323113
 20
14.35990054520028
 40
0.4709789327785145
 50
0.0
 51
360.0
 73
     1
 97
        1
330
402
 92
       16
 93
        8
 72
     2
 10
-59.48038094855832
 20
14.35990054520028
 40
0.9118481501444653
 50
295.3740086781763
 51
424.6259913218074
 73
     1
 72
     2
 10
-58.95433825047044
 20
15.46904214516809
 40
0.3157169230767991
 50
115.3740086783517
 51
180.0
 73
     0
 72
     1
 10
-59.27005517354724
 20
15.46904214516809
 11
-59.27005517354724
 21
16.07457743367488
 72
     2
 10
-58.95433825047044
 20
16.07457743367488
 40
0.315716923076064
 50
180.0
 51
269.8110329574541
 73
     0
 72
     2
 10
-58.94872211516042
 20
14.37174248610577
 40
2.018561131933257
 50
269.8110329575858
 51
450.1889670424142
 73
     0
 72
     2
 10
-58.95433825047044
 20
12.66890753853679
 40
0.3157169230767991
 50
90.18896704254585
 51
180.0
 73
     0
 72
     1
 10
-59.27005517354724
 20
12.66890753853679
 11
-59.27005517354724
 21
13.25075894523187
 72
     2
 10
-58.95433825047044
 20
13.25075894523187
 40
0.3157169230765248
 50
180.0
 51
244.6259913216474
 73
     0
 97
        8
330
3FC
330
3D8
330
384
330
3FB
330
3D9
330
3DA
330
383
330
3D7
 92
       16
 93
       12
 72
     1
 10
-61.52988693700215
 20
11.40258294452917
 11
-60.05405367599252
 21
11.40258294452917
 72
     2
 10
-60.05405367599252
 20
11.71829986760588
 40
0.3157169230767103
 50
270.0
 51
360.0
 73
     1
 72
     1
 10
-59.73833675291593
 20
11.71829986760588
 11
-59.73833675291593
 21
13.24907079913749
 72
     2
 10
-60.05405367599252
 20
13.24907079913749
 40
0.315716923076593
 50
0.0
 51
64.80558935146027
 73
     1
 72
     2
 10
-59.53146922841754
 20
14.35990054520028
 40
0.9118975235576084
 50
115.1944106485119
 51
244.8055893514721
 73
     0
 72
     2
 10
-60.05405367599252
 20
15.47073029126247
 40
0.3157169230761203
 50
295.1944106485397
 51
360.0
 73
     1
 72
     1
 10
-59.73833675291593
 20
15.47073029126247
 11
-59.73833675291593
 21
16.07475491032298
 72
     2
 10
-60.05405367599252
 20
16.07475491032298
 40
0.315716923076593
 50
0.0
 51
90.0
 73
     1
 72
     1
 10
-60.05405367599252
 20
16.39047183339918
 11
-61.52988693700215
 21
16.39047183339918
 72
     2
 10
-61.52988693700215
 20
16.07475491032298
 40
0.3157169230761987
 50
90.0
 51
180.0
 73
     1
 72
     1
 10
-61.84560386007783
 20
16.07475491032298
 11
-61.84560386007783
 21
11.71829986760588
 72
     2
 10
-61.52988693700215
 20
11.71829986760588
 40
0.3157169230756764
 50
180.0
 51
270.0
 73
     1
 97
       12
330
350
330
3E1
330
34F
330
3F2
330
34E
330
3F1
330
3E2
330
3E3
330
34D
330
3F0
330
348
330
3F3
 75
     1
 76
     0
 52
45.0
 41
0.1
 77
     0
 78
     1
 53
45.0
 43
0.0
 44
0.0
 45
-0.0707106781186548
 46
0.0707106781186548
 79
     0
 98
        1
 10
0.0
 20
0.0
  0
HATCH
  5
431
330
71
100
AcDbEntity
  8
1
  6
Continuous
 62
     2
100
AcDbHatch
 10
0.0
 20
0.0
 30
0.0
210
0.0
220
0.0
230
1.0
  2
_USER
 70
     0
 71
     1
 91
        4
 92
        1
 93
        8
 72
     2
 10
-62.12378161374863
 20
16.67878277355578
 40
0.4242446153837989
 50
90.0
 51
180.0
 73
     1
 72
     1
 10
-62.54802622913144
 20
16.67878277355578
 11
-62.54802622913144
 21
11.11427200435557
 72
     2
 10
-62.12378161374863
 20
11.11427200435557
 40
0.4242446153828041
 50
180.0
 51
270.0
 73
     1
 72
     1
 10
-62.12378161374863
 20
10.69002738897228
 11
-56.65046952303183
 21
10.69002738897228
 72
     2
 10
-56.65046952303183
 20
11.11427200435557
 40
0.4242446153832891
 50
270.0
 51
360.0
 73
     1
 72
     1
 10
-56.22622490764795
 20
11.11427200435557
 11
-56.22622490764795
 21
16.67878277355578
 72
     2
 10
-56.65046952303183
 20
16.67878277355578
 40
0.424244615383877
 50
0.0
 51
90.0
 73
     1
 72
     1
 10
-56.65046952303183
 20
17.10302738893958
 11
-62.12378161374863
 21
17.10302738893958
 97
        8
330
3EE
330
34B
330
3ED
330
34C
330
3E4
330
349
330
3EF
330
34A
 92
       16
 93
        1
 72
     2
 10
-59.50419596323113
 20
14.35990054520028
 40
0.4709789327785145
 50
0.0
 51
360.0
 73
     1
 97
        1
330
402
 92
       16
 93
        8
 72
     2
 10
-59.48038094855832
 20
14.35990054520028
 40
0.9118481501444653
 50
295.3740086781763
 51
424.6259913218074
 73
     1
 72
     2
 10
-58.95433825047044
 20
15.46904214516809
 40
0.3157169230767991
 50
115.3740086783517
 51
180.0
 73
     0
 72
     1
 10
-59.27005517354724
 20
15.46904214516809
 11
-59.27005517354724
 21
16.07457743367488
 72
     2
 10
-58.95433825047044
 20
16.07457743367488
 40
0.315716923076064
 50
180.0
 51
269.8110329574541
 73
     0
 72
     2
 10
-58.94872211516042
 20
14.37174248610577
 40
2.018561131933257
 50
269.8110329575858
 51
450.1889670424142
 73
     0
 72
     2
 10
-58.95433825047044
 20
12.66890753853679
 40
0.3157169230767991
 50
90.18896704254585
 51
180.0
 73
     0
 72
     1
 10
-59.27005517354724
 20
12.66890753853679
 11
-59.27005517354724
 21
13.25075894523187
 72
     2
 10
-58.95433825047044
 20
13.25075894523187
 40
0.3157169230765248
 50
180.0
 51
244.6259913216474
 73
     0
 97
        8
330
3FC
330
3D8
330
384
330
3FB
330
3D9
330
3DA
330
383
330
3D7
 92
       16
 93
       12
 72
     1
 10
-61.52988693700215
 20
11.40258294452917
 11
-60.05405367599252
 21
11.40258294452917
 72
     2
 10
-60.05405367599252
 20
11.71829986760588
 40
0.3157169230767103
 50
270.0
 51
360.0
 73
     1
 72
     1
 10
-59.73833675291593
 20
11.71829986760588
 11
-59.73833675291593
 21
13.24907079913749
 72
     2
 10
-60.05405367599252
 20
13.24907079913749
 40
0.315716923076593
 50
0.0
 51
64.80558935146027
 73
     1
 72
     2
 10
-59.53146922841754
 20
14.35990054520028
 40
0.9118975235576084
 50
115.1944106485119
 51
244.8055893514721
 73
     0
 72
     2
 10
-60.05405367599252
 20
15.47073029126247
 40
0.3157169230761203
 50
295.1944106485397
 51
360.0
 73
     1
 72
     1
 10
-59.73833675291593
 20
15.47073029126247
 11
-59.73833675291593
 21
16.07475491032298
 72
     2
 10
-60.05405367599252
 20
16.07475491032298
 40
0.315716923076593
 50
0.0
 51
90.0
 73
     1
 72
     1
 10
-60.05405367599252
 20
16.39047183339918
 11
-61.52988693700215
 21
16.39047183339918
 72
     2
 10
-61.52988693700215
 20
16.07475491032298
 40
0.3157169230761987
 50
90.0
 51
180.0
 73
     1
 72
     1
 10
-61.84560386007783
 20
16.07475491032298
 11
-61.84560386007783
 21
11.71829986760588
 72
     2
 10
-61.52988693700215
 20
11.71829986760588
 40
0.3157169230756764
 50
180.0
 51
270.0
 73
     1
 97
       12
330
350
330
3E1
330
34F
330
3F2
330
34E
330
3F1
330
3E2
330
3E3
330
34D
330
3F0
330
348
330
3F3
 75
     1
 76
     0
 52
45.0
 41
0.1
 77
     0
 78
     1
 53
45.0
 43
0.0
 44
0.0
 45
-0.0707106781186548
 46
0.0707106781186548
 79
     0
 98
        1
 10
0.0
 20
0.0
  0
HATCH
  5
432
330
71
100
AcDbEntity
  8
1
  6
Continuous
 62
     2
100
AcDbHatch
 10
0.0
 20
0.0
 30
0.0
210
0.0
220
0.0
230
1.0
  2
_USER
 70
     0
 71
     1
 91
        2
 92
        1
 93
       12
 72
     2
 10
-47.44861760975934
 20
15.57612262705189
 40
1.526904761905881
 50
90.0
 51
270.0
 73
     1
 72
     1
 10
-47.44861760975934
 20
14.04921786514657
 11
-44.29829788597834
 21
14.04921786514657
 72
     1
 10
-44.29829788597834
 20
14.04921786514657
 11
-44.29829788597834
 21
14.74723147058907
 72
     1
 10
-44.29829788597834
 20
14.74723147058907
 11
-45.63422571240602
 21
14.74723147058907
 72
     1
 10
-45.63422571240602
 20
14.74723147058907
 11
-45.63422571240602
 21
15.22711582433078
 72
     1
 10
-45.63422571240602
 20
15.22711582433078
 11
-44.29829788597834
 21
15.22711582433078
 72
     1
 10
-44.29829788597834
 20
15.22711582433078
 11
-44.29829788597834
 21
15.92512942977308
 72
     1
 10
-44.29829788597834
 20
15.92512942977308
 11
-45.63422571240602
 21
15.92512942977308
 72
     1
 10
-45.63422571240602
 20
15.92512942977308
 11
-45.63422571240602
 21
16.40501378351479
 72
     1
 10
-45.63422571240602
 20
16.40501378351479
 11
-44.29829788597834
 21
16.40501378351479
 72
     1
 10
-44.29829788597834
 20
16.40501378351479
 11
-44.29829788597834
 21
17.10302738895777
 72
     1
 10
-44.29829788597834
 20
17.10302738895777
 11
-47.44861760975934
 21
17.10302738895777
 97
       12
330
33F
330
339
330
360
330
35F
330
35E
330
35D
330
33A
330
33B
330
33C
330
33D
330
3DF
330
33E
 92
       16
 93
        4
 72
     2
 10
-47.03260556324784
 20
15.57612262705189
 40
0.7717997786796735
 50
141.8795802028403
 51
218.120419797156
 73
     1
 72
     2
 10
-47.23234559959414
 20
15.41939144893146
 40
0.5179085730134316
 50
218.1204197971503
 51
321.8795802028569
 73
     1
 72
     2
 10
-47.43208563594033
 20
15.57612262705189
 40
0.7717997786796351
 50
321.879580202844
 51
398.1204197971597
 73
     1
 72
     2
 10
-47.23234559959414
 20
15.73285380517237
 40
0.517908573013522
 50
38.12041979714398
 51
141.8795802028488
 73
     1
 97
        4
330
3EC
330
3EB
330
3E6
330
3E5
 75
     1
 76
     0
 52
45.0
 41
0.1
 77
     0
 78
     1
 53
45.0
 43
0.0
 44
0.0
 45
-0.0707106781186548
 46
0.0707106781186548
 79
     0
 98
        1
 10
0.0
 20
0.0
  0
HATCH
  5
433
330
71
100
AcDbEntity
  8
1
  6
Continuous
 62
     2
100
AcDbHatch
 10
0.0
 20
0.0
 30
0.0
210
0.0
220
0.0
230
1.0
  2
_USER
 70
     0
 71
     1
 91
        2
 92
        1
 93
       12
 72
     2
 10
-47.44861760975934
 20
15.57612262705189
 40
1.526904761905881
 50
90.0
 51
270.0
 73
     1
 72
     1
 10
-47.44861760975934
 20
14.04921786514657
 11
-44.29829788597834
 21
14.04921786514657
 72
     1
 10
-44.29829788597834
 20
14.04921786514657
 11
-44.29829788597834
 21
14.74723147058907
 72
     1
 10
-44.29829788597834
 20
14.74723147058907
 11
-45.63422571240602
 21
14.74723147058907
 72
     1
 10
-45.63422571240602
 20
14.74723147058907
 11
-45.63422571240602
 21
15.22711582433078
 72
     1
 10
-45.63422571240602
 20
15.22711582433078
 11
-44.29829788597834
 21
15.22711582433078
 72
     1
 10
-44.29829788597834
 20
15.22711582433078
 11
-44.29829788597834
 21
15.92512942977308
 72
     1
 10
-44.29829788597834
 20
15.92512942977308
 11
-45.63422571240602
 21
15.92512942977308
 72
     1
 10
-45.63422571240602
 20
15.92512942977308
 11
-45.63422571240602
 21
16.40501378351479
 72
     1
 10
-45.63422571240602
 20
16.40501378351479
 11
-44.29829788597834
 21
16.40501378351479
 72
     1
 10
-44.29829788597834
 20
16.40501378351479
 11
-44.29829788597834
 21
17.10302738895777
 72
     1
 10
-44.29829788597834
 20
17.10302738895777
 11
-47.44861760975934
 21
17.10302738895777
 97
       12
330
33F
330
339
330
360
330
35F
330
35E
330
35D
330
33A
330
33B
330
33C
330
33D
330
3DF
330
33E
 92
       16
 93
        4
 72
     2
 10
-47.03260556324784
 20
15.57612262705189
 40
0.7717997786796735
 50
141.8795802028403
 51
218.120419797156
 73
     1
 72
     2
 10
-47.23234559959414
 20
15.41939144893146
 40
0.5179085730134316
 50
218.1204197971503
 51
321.8795802028569
 73
     1
 72
     2
 10
-47.43208563594033
 20
15.57612262705189
 40
0.7717997786796351
 50
321.879580202844
 51
398.1204197971597
 73
     1
 72
     2
 10
-47.23234559959414
 20
15.73285380517237
 40
0.517908573013522
 50
38.12041979714398
 51
141.8795802028488
 73
     1
 97
        4
330
3EC
330
3EB
330
3E6
330
3E5
 75
     1
 76
     0
 52
45.0
 41
0.1
 77
     0
 78
     1
 53
45.0
 43
0.0
 44
0.0
 45
-0.0707106781186548
 46
0.0707106781186548
 79
     0
 98
        1
 10
0.0
 20
0.0
  0
HATCH
  5
434
330
71
100
AcDbEntity
  8
1
  6
Continuous
 62
     2
100
AcDbHatch
 10
0.0
 20
0.0
 30
0.0
210
0.0
220
0.0
230
1.0
  2
_USER
 70
     0
 71
     1
 91
        2
 92
        1
 93
        4
 72
     2
 10
-51.47423297222093
 20
12.21693215087757
 40
1.458034083651492
 50
117.5481481756624
 51
242.4518518243376
 73
     1
 72
     2
 10
-51.19329308038763
 20
12.75550716118087
 40
2.065479772208505
 50
242.4518518243401
 51
297.5481481756871
 73
     1
 72
     2
 10
-50.91235318855433
 20
12.21693215087757
 40
1.458034083652001
 50
297.5481481757008
 51
422.4518518242992
 73
     1
 72
     2
 10
-51.19329308038763
 20
11.67835714057478
 40
2.065479772208566
 50
62.45185182430634
 51
117.5481481756664
 73
     1
 97
        4
330
3EA
330
3E7
330
3E9
330
3E8
 92
       16
 93
        4
 72
     2
 10
-51.19329308038763
 20
12.37366332899808
 40
0.5179085730132965
 50
38.12041979714657
 51
141.8795802028597
 73
     1
 72
     2
 10
-50.99355304404153
 20
12.21693215087757
 40
0.7717997786794666
 50
141.8795802028368
 51
218.1204197971684
 73
     1
 72
     2
 10
-51.19329308038763
 20
12.06020097275757
 40
0.5179085730137398
 50
218.1204197971925
 51
321.8795802028012
 73
     1
 72
     2
 10
-51.39303311673405
 20
12.21693215087757
 40
0.7717997786797003
 50
321.879580202842
 51
398.1204197971528
 73
     1
 97
        4
330
3CD
330
3CE
330
3CF
330
3CC
 75
     1
 76
     0
 52
45.0
 41
0.1
 77
     0
 78
     1
 53
45.0
 43
0.0
 44
0.0
 45
-0.0707106781186548
 46
0.0707106781186548
 79
     0
 98
        1
 10
0.0
 20
0.0
  0
HATCH
  5
435
330
71
100
AcDbEntity
  8
1
  6
Continuous
 62
     2
100
AcDbHatch
 10
0.0
 20
0.0
 30
0.0
210
0.0
220
0.0
230
1.0
  2
_USER
 70
     0
 71
     1
 91
        2
 92
        1
 93
        4
 72
     2
 10
-51.47423297222093
 20
12.21693215087757
 40
1.458034083651492
 50
117.5481481756624
 51
242.4518518243376
 73
     1
 72
     2
 10
-51.19329308038763
 20
12.75550716118087
 40
2.065479772208505
 50
242.4518518243401
 51
297.5481481756871
 73
     1
 72
     2
 10
-50.91235318855433
 20
12.21693215087757
 40
1.458034083652001
 50
297.5481481757008
 51
422.4518518242992
 73
     1
 72
     2
 10
-51.19329308038763
 20
11.67835714057478
 40
2.065479772208566
 50
62.45185182430634
 51
117.5481481756664
 73
     1
 97
        4
330
3EA
330
3E7
330
3E9
330
3E8
 92
       16
 93
        4
 72
     2
 10
-51.19329308038763
 20
12.37366332899808
 40
0.5179085730132965
 50
38.12041979714657
 51
141.8795802028597
 73
     1
 72
     2
 10
-50.99355304404153
 20
12.21693215087757
 40
0.7717997786794666
 50
141.8795802028368
 51
218.1204197971684
 73
     1
 72
     2
 10
-51.19329308038763
 20
12.06020097275757
 40
0.5179085730137398
 50
218.1204197971925
 51
321.8795802028012
 73
     1
 72
     2
 10
-51.39303311673405
 20
12.21693215087757
 40
0.7717997786797003
 50
321.879580202842
 51
398.1204197971528
 73
     1
 97
        4
330
3CD
330
3CE
330
3CF
330
3CC
 75
     1
 76
     0
 52
45.0
 41
0.1
 77
     0
 78
     1
 53
45.0
 43
0.0
 44
0.0
 45
-0.0707106781186548
 46
0.0707106781186548
 79
     0
 98
        1
 10
0.0
 20
0.0
  0
HATCH
  5
436
330
71
100
AcDbEntity
  8
1
  6
Continuous
 62
     2
100
AcDbHatch
 10
0.0
 20
0.0
 30
0.0
210
0.0
220
0.0
230
1.0
  2
_USER
 70
     0
 71
     1
 91
        2
 92
        1
 93
        6
 72
     1
 10
-55.74910782678114
 20
17.10302738895777
 11
-55.74910782678114
 21
14.04921786514657
 72
     1
 10
-55.74910782678114
 20
14.04921786514657
 11
-54.50860341652702
 21
14.04921786514657
 72
     1
 10
-54.50860341652702
 20
14.04921786514657
 11
-54.50860341652702
 21
14.99229610629038
 72
     1
 10
-54.50860341652702
 20
14.99229610629038
 11
-53.74983582874674
 21
14.99229610629038
 72
     2
 10
-53.74983582874674
 20
16.04766174762409
 40
1.05536564133371
 50
270.0
 51
450.0
 73
     1
 72
     1
 10
-53.74983582874674
 20
17.10302738895777
 11
-55.74910782678114
 21
17.10302738895777
 97
        6
330
3F4
330
351
330
347
330
346
330
353
330
352
 92
       16
 93
        4
 72
     1
 10
-54.19130835498513
 20
16.43992154351767
 11
-54.50860341652702
 21
16.43992154351767
 72
     1
 10
-54.50860341652702
 20
16.43992154351767
 11
-54.50860341652702
 21
15.73419389417546
 72
     1
 10
-54.50860341652702
 20
15.73419389417546
 11
-54.19130835498513
 21
15.73419389417546
 72
     2
 10
-54.19130835498513
 20
16.08705771884658
 40
0.35286382467112
 50
270.0
 51
450.0
 73
     1
 97
        4
330
354
330
345
330
355
330
3E0
 75
     1
 76
     0
 52
45.0
 41
0.1
 77
     0
 78
     1
 53
45.0
 43
0.0
 44
0.0
 45
-0.0707106781186548
 46
0.0707106781186548
 79
     0
 98
        1
 10
0.0
 20
0.0
  0
HATCH
  5
437
330
71
100
AcDbEntity
  8
1
  6
Continuous
 62
     2
100
AcDbHatch
 10
0.0
 20
0.0
 30
0.0
210
0.0
220
0.0
230
1.0
  2
_USER
 70
     0
 71
     1
 91
        2
 92
        1
 93
        6
 72
     1
 10
-55.74910782678114
 20
17.10302738895777
 11
-55.74910782678114
 21
14.04921786514657
 72
     1
 10
-55.74910782678114
 20
14.04921786514657
 11
-54.50860341652702
 21
14.04921786514657
 72
     1
 10
-54.50860341652702
 20
14.04921786514657
 11
-54.50860341652702
 21
14.99229610629038
 72
     1
 10
-54.50860341652702
 20
14.99229610629038
 11
-53.74983582874674
 21
14.99229610629038
 72
     2
 10
-53.74983582874674
 20
16.04766174762409
 40
1.05536564133371
 50
270.0
 51
450.0
 73
     1
 72
     1
 10
-53.74983582874674
 20
17.10302738895777
 11
-55.74910782678114
 21
17.10302738895777
 97
        6
330
3F4
330
351
330
347
330
346
330
353
330
352
 92
       16
 93
        4
 72
     1
 10
-54.19130835498513
 20
16.43992154351767
 11
-54.50860341652702
 21
16.43992154351767
 72
     1
 10
-54.50860341652702
 20
16.43992154351767
 11
-54.50860341652702
 21
15.73419389417546
 72
     1
 10
-54.50860341652702
 20
15.73419389417546
 11
-54.19130835498513
 21
15.73419389417546
 72
     2
 10
-54.19130835498513
 20
16.08705771884658
 40
0.35286382467112
 50
270.0
 51
450.0
 73
     1
 97
        4
330
354
330
345
330
355
330
3E0
 75
     1
 76
     0
 52
45.0
 41
0.1
 77
     0
 78
     1
 53
45.0
 43
0.0
 44
0.0
 45
-0.0707106781186548
 46
0.0707106781186548
 79
     0
 98
        1
 10
0.0
 20
0.0
  0
HATCH
  5
438
330
71
100
AcDbEntity
  8
1
  6
Continuous
 62
     2
100
AcDbHatch
 10
0.0
 20
0.0
 30
0.0
210
0.0
220
0.0
230
1.0
  2
_USER
 70
     0
 71
     1
 91
        1
 92
        1
 93
       12
 72
     1
 10
-36.13482463234794
 20
17.10302738895777
 11
-34.73210041460072
 21
17.10302738895777
 72
     1
 10
-34.73210041460072
 20
17.10302738895777
 11
-36.03463004536724
 21
15.63007685892157
 72
     1
 10
-36.03463004536724
 20
15.63007685892157
 11
-34.63667699842694
 21
14.04921786514657
 72
     1
 10
-34.63667699842694
 20
14.04921786514657
 11
-36.03940121617524
 21
14.04921786514657
 72
     1
 10
-36.03940121617524
 20
14.04921786514657
 11
-36.73599215424073
 21
14.83694965044029
 72
     1
 10
-36.73599215424073
 20
14.83694965044029
 11
-37.43258309230643
 21
14.04921786514657
 72
     1
 10
-37.43258309230643
 20
14.04921786514657
 11
-38.83530731005465
 21
14.04921786514657
 72
     1
 10
-38.83530731005465
 20
14.04921786514657
 11
-37.43735426311434
 21
15.63007685892157
 72
     1
 10
-37.43735426311434
 20
15.63007685892157
 11
-38.73988389388182
 21
17.10302738895777
 72
     1
 10
-38.73988389388182
 20
17.10302738895777
 11
-37.33715967613253
 21
17.10302738895777
 72
     1
 10
-37.33715967613253
 20
17.10302738895777
 11
-36.73599215424073
 21
16.42320406740228
 72
     1
 10
-36.73599215424073
 20
16.42320406740228
 11
-36.13482463234794
 21
17.10302738895777
 97
       12
330
320
330
379
330
378
330
377
330
376
330
321
330
322
330
31E
330
31F
330
37C
330
37B
330
37A
 75
     1
 76
     0
 52
45.0
 41
0.1
 77
     0
 78
     1
 53
45.0
 43
0.0
 44
0.0
 45
-0.0707106781186548
 46
0.0707106781186548
 79
     0
 98
        1
 10
0.0
 20
0.0
  0
HATCH
  5
439
330
71
100
AcDbEntity
  8
1
  6
Continuous
 62
     2
100
AcDbHatch
 10
0.0
 20
0.0
 30
0.0
210
0.0
220
0.0
230
1.0
  2
_USER
 70
     0
 71
     1
 91
        1
 92
        1
 93
       12
 72
     1
 10
-36.13482463234794
 20
17.10302738895777
 11
-34.73210041460072
 21
17.10302738895777
 72
     1
 10
-34.73210041460072
 20
17.10302738895777
 11
-36.03463004536724
 21
15.63007685892157
 72
     1
 10
-36.03463004536724
 20
15.63007685892157
 11
-34.63667699842694
 21
14.04921786514657
 72
     1
 10
-34.63667699842694
 20
14.04921786514657
 11
-36.03940121617524
 21
14.04921786514657
 72
     1
 10
-36.03940121617524
 20
14.04921786514657
 11
-36.73599215424073
 21
14.83694965044029
 72
     1
 10
-36.73599215424073
 20
14.83694965044029
 11
-37.43258309230643
 21
14.04921786514657
 72
     1
 10
-37.43258309230643
 20
14.04921786514657
 11
-38.83530731005465
 21
14.04921786514657
 72
     1
 10
-38.83530731005465
 20
14.04921786514657
 11
-37.43735426311434
 21
15.63007685892157
 72
     1
 10
-37.43735426311434
 20
15.63007685892157
 11
-38.73988389388182
 21
17.10302738895777
 72
     1
 10
-38.73988389388182
 20
17.10302738895777
 11
-37.33715967613253
 21
17.10302738895777
 72
     1
 10
-37.33715967613253
 20
17.10302738895777
 11
-36.73599215424073
 21
16.42320406740228
 72
     1
 10
-36.73599215424073
 20
16.42320406740228
 11
-36.13482463234794
 21
17.10302738895777
 97
       12
330
320
330
379
330
378
330
377
330
376
330
321
330
322
330
31E
330
31F
330
37C
330
37B
330
37A
 75
     1
 76
     0
 52
45.0
 41
0.1
 77
     0
 78
     1
 53
45.0
 43
0.0
 44
0.0
 45
-0.0707106781186548
 46
0.0707106781186548
 79
     0
 98
        1
 10
0.0
 20
0.0
  0
HATCH
  5
43A
330
71
100
AcDbEntity
  8
1
  6
Continuous
 62
     2
100
AcDbHatch
 10
0.0
 20
0.0
 30
0.0
210
0.0
220
0.0
230
1.0
  2
_USER
 70
     0
 71
     1
 91
        1
 92
        1
 93
        4
 72
     1
 10
-38.95458658027152
 20
17.10302738895777
 11
-38.95458658027152
 21
14.04921786514657
 72
     1
 10
-38.95458658027152
 20
14.04921786514657
 11
-40.19509099052442
 21
14.04921786514657
 72
     1
 10
-40.19509099052442
 20
14.04921786514657
 11
-40.19509099052442
 21
17.10302738895777
 72
     1
 10
-40.19509099052442
 20
17.10302738895777
 11
-38.95458658027152
 21
17.10302738895777
 97
        4
330
374
330
323
330
373
330
375
 75
     1
 76
     0
 52
45.0
 41
0.1
 77
     0
 78
     1
 53
45.0
 43
0.0
 44
0.0
 45
-0.0707106781186548
 46
0.0707106781186548
 79
     0
 98
        1
 10
0.0
 20
0.0
  0
HATCH
  5
43B
330
71
100
AcDbEntity
  8
1
  6
Continuous
 62
     2
100
AcDbHatch
 10
0.0
 20
0.0
 30
0.0
210
0.0
220
0.0
230
1.0
  2
_USER
 70
     0
 71
     1
 91
        1
 92
        1
 93
        4
 72
     1
 10
-38.95458658027152
 20
17.10302738895777
 11
-38.95458658027152
 21
14.04921786514657
 72
     1
 10
-38.95458658027152
 20
14.04921786514657
 11
-40.19509099052442
 21
14.04921786514657
 72
     1
 10
-40.19509099052442
 20
14.04921786514657
 11
-40.19509099052442
 21
17.10302738895777
 72
     1
 10
-40.19509099052442
 20
17.10302738895777
 11
-38.95458658027152
 21
17.10302738895777
 97
        4
330
374
330
323
330
373
330
375
 75
     1
 76
     0
 52
45.0
 41
0.1
 77
     0
 78
     1
 53
45.0
 43
0.0
 44
0.0
 45
-0.0707106781186548
 46
0.0707106781186548
 79
     0
 98
        1
 10
0.0
 20
0.0
  0
HATCH
  5
43C
330
71
100
AcDbEntity
  8
1
  6
Continuous
 62
     2
100
AcDbHatch
 10
0.0
 20
0.0
 30
0.0
210
0.0
220
0.0
230
1.0
  2
_USER
 70
     0
 71
     1
 91
        2
 92
        1
 93
        8
 72
     1
 10
-39.34503058380352
 20
10.69002738897228
 11
-40.58553499405744
 21
10.69002738897228
 72
     1
 10
-40.58553499405744
 20
10.69002738897228
 11
-40.79701504753322
 21
11.23098793319016
 72
     1
 10
-40.79701504753322
 20
11.23098793319016
 11
-41.92945662420704
 21
11.23098793319016
 72
     1
 10
-41.92945662420704
 20
11.23098793319016
 11
-42.14093667768285
 21
10.69002738897228
 72
     1
 10
-42.14093667768285
 20
10.69002738897228
 11
-43.38144108793583
 21
10.69002738897228
 72
     1
 10
-43.38144108793583
 20
10.69002738897228
 11
-41.98348804099652
 21
13.74383691278337
 72
     1
 10
-41.98348804099652
 20
13.74383691278337
 11
-40.74298363074382
 21
13.74383691278337
 72
     1
 10
-40.74298363074382
 20
13.74383691278337
 11
-39.34503058380352
 21
10.69002738897228
 97
        8
330
36F
330
329
330
36E
330
371
330
326
330
370
330
327
330
328
 92
       16
 93
        3
 72
     1
 10
-41.66340107306203
 20
11.91155119849677
 11
-41.06307059867953
 21
11.91155119849677
 72
     1
 10
-41.06307059867953
 20
11.91155119849677
 11
-41.36323583586963
 21
12.67936616448347
 72
     1
 10
-41.36323583586963
 20
12.67936616448347
 11
-41.66340107306203
 21
11.91155119849677
 97
        3
330
325
330
324
330
372
 75
     1
 76
     0
 52
45.0
 41
0.1
 77
     0
 78
     1
 53
45.0
 43
0.0
 44
0.0
 45
-0.0707106781186548
 46
0.0707106781186548
 79
     0
 98
        1
 10
0.0
 20
0.0
  0
HATCH
  5
43D
330
71
100
AcDbEntity
  8
1
  6
Continuous
 62
     2
100
AcDbHatch
 10
0.0
 20
0.0
 30
0.0
210
0.0
220
0.0
230
1.0
  2
_USER
 70
     0
 71
     1
 91
        2
 92
        1
 93
        8
 72
     1
 10
-39.34503058380352
 20
10.69002738897228
 11
-40.58553499405744
 21
10.69002738897228
 72
     1
 10
-40.58553499405744
 20
10.69002738897228
 11
-40.79701504753322
 21
11.23098793319016
 72
     1
 10
-40.79701504753322
 20
11.23098793319016
 11
-41.92945662420704
 21
11.23098793319016
 72
     1
 10
-41.92945662420704
 20
11.23098793319016
 11
-42.14093667768285
 21
10.69002738897228
 72
     1
 10
-42.14093667768285
 20
10.69002738897228
 11
-43.38144108793583
 21
10.69002738897228
 72
     1
 10
-43.38144108793583
 20
10.69002738897228
 11
-41.98348804099652
 21
13.74383691278337
 72
     1
 10
-41.98348804099652
 20
13.74383691278337
 11
-40.74298363074382
 21
13.74383691278337
 72
     1
 10
-40.74298363074382
 20
13.74383691278337
 11
-39.34503058380352
 21
10.69002738897228
 97
        8
330
36F
330
329
330
36E
330
371
330
326
330
370
330
327
330
328
 92
       16
 93
        3
 72
     1
 10
-41.66340107306203
 20
11.91155119849677
 11
-41.06307059867953
 21
11.91155119849677
 72
     1
 10
-41.06307059867953
 20
11.91155119849677
 11
-41.36323583586963
 21
12.67936616448347
 72
     1
 10
-41.36323583586963
 20
12.67936616448347
 11
-41.66340107306203
 21
11.91155119849677
 97
        3
330
325
330
324
330
372
 75
     1
 76
     0
 52
45.0
 41
0.1
 77
     0
 78
     1
 53
45.0
 43
0.0
 44
0.0
 45
-0.0707106781186548
 46
0.0707106781186548
 79
     0
 98
        1
 10
0.0
 20
0.0
  0
HATCH
  5
43E
330
71
100
AcDbEntity
  8
1
  6
Continuous
 62
     2
100
AcDbHatch
 10
0.0
 20
0.0
 30
0.0
210
0.0
220
0.0
230
1.0
  2
_USER
 70
     0
 71
     1
 91
        1
 92
        1
 93
        8
 72
     1
 10
-45.53895322711804
 20
13.74383691278337
 11
-45.53895322711804
 21
12.95857160665977
 72
     1
 10
-45.53895322711804
 20
12.95857160665977
 11
-44.72785418964344
 21
12.95857160665977
 72
     1
 10
-44.72785418964344
 20
12.95857160665977
 11
-44.72785418964344
 21
10.69002738897228
 72
     1
 10
-44.72785418964344
 20
10.69002738897228
 11
-43.53506148747692
 21
10.69002738897228
 72
     1
 10
-43.53506148747692
 20
10.69002738897228
 11
-43.53506148747692
 21
12.95857160665977
 72
     1
 10
-43.53506148747692
 20
12.95857160665977
 11
-42.72396245000442
 21
12.95857160665977
 72
     1
 10
-42.72396245000442
 20
12.95857160665977
 11
-42.72396245000442
 21
13.74383691278337
 72
     1
 10
-42.72396245000442
 20
13.74383691278337
 11
-45.53895322711804
 21
13.74383691278337
 97
        8
330
36B
330
36A
330
369
330
32A
330
32B
330
36D
330
32C
330
36C
 75
     1
 76
     0
 52
45.0
 41
0.1
 77
     0
 78
     1
 53
45.0
 43
0.0
 44
0.0
 45
-0.0707106781186548
 46
0.0707106781186548
 79
     0
 98
        1
 10
0.0
 20
0.0
  0
HATCH
  5
43F
330
71
100
AcDbEntity
  8
1
  6
Continuous
 62
     2
100
AcDbHatch
 10
0.0
 20
0.0
 30
0.0
210
0.0
220
0.0
230
1.0
  2
_USER
 70
     0
 71
     1
 91
        1
 92
        1
 93
        8
 72
     1
 10
-45.53895322711804
 20
13.74383691278337
 11
-45.53895322711804
 21
12.95857160665977
 72
     1
 10
-45.53895322711804
 20
12.95857160665977
 11
-44.72785418964344
 21
12.95857160665977
 72
     1
 10
-44.72785418964344
 20
12.95857160665977
 11
-44.72785418964344
 21
10.69002738897228
 72
     1
 10
-44.72785418964344
 20
10.69002738897228
 11
-43.53506148747692
 21
10.69002738897228
 72
     1
 10
-43.53506148747692
 20
10.69002738897228
 11
-43.53506148747692
 21
12.95857160665977
 72
     1
 10
-43.53506148747692
 20
12.95857160665977
 11
-42.72396245000442
 21
12.95857160665977
 72
     1
 10
-42.72396245000442
 20
12.95857160665977
 11
-42.72396245000442
 21
13.74383691278337
 72
     1
 10
-42.72396245000442
 20
13.74383691278337
 11
-45.53895322711804
 21
13.74383691278337
 97
        8
330
36B
330
36A
330
369
330
32A
330
32B
330
36D
330
32C
330
36C
 75
     1
 76
     0
 52
45.0
 41
0.1
 77
     0
 78
     1
 53
45.0
 43
0.0
 44
0.0
 45
-0.0707106781186548
 46
0.0707106781186548
 79
     0
 98
        1
 10
0.0
 20
0.0
  0
HATCH
  5
440
330
71
100
AcDbEntity
  8
1
  6
Continuous
 62
     2
100
AcDbHatch
 10
0.0
 20
0.0
 30
0.0
210
0.0
220
0.0
230
1.0
  2
_USER
 70
     0
 71
     1
 91
        1
 92
        1
 93
       10
 72
     1
 10
-42.86694664337892
 20
17.10302738895777
 11
-44.05973934554544
 21
17.10302738895777
 72
     1
 10
-44.05973934554544
 20
17.10302738895777
 11
-44.05973934554544
 21
14.04921786514657
 72
     1
 10
-44.05973934554544
 20
14.04921786514657
 11
-42.86694664337892
 21
14.04921786514657
 72
     1
 10
-42.86694664337892
 20
14.04921786514657
 11
-42.86694664337892
 21
15.35799337535127
 72
     1
 10
-42.86694664337892
 20
15.35799337535127
 11
-41.62644223312492
 21
14.04921786514657
 72
     1
 10
-41.62644223312492
 20
14.04921786514657
 11
-40.43364953095832
 21
14.04921786514657
 72
     1
 10
-40.43364953095832
 20
14.04921786514657
 11
-40.43364953095832
 21
17.10302738895777
 72
     1
 10
-40.43364953095832
 20
17.10302738895777
 11
-41.62644223312492
 21
17.10302738895777
 72
     1
 10
-41.62644223312492
 20
17.10302738895777
 11
-41.62644223312492
 21
15.79425187875259
 72
     1
 10
-41.62644223312492
 20
15.79425187875259
 11
-42.86694664337892
 21
17.10302738895777
 97
       10
330
365
330
32F
330
330
330
331
330
332
330
368
330
32D
330
367
330
366
330
32E
 75
     1
 76
     0
 52
45.0
 41
0.1
 77
     0
 78
     1
 53
45.0
 43
0.0
 44
0.0
 45
-0.0707106781186548
 46
0.0707106781186548
 79
     0
 98
        1
 10
0.0
 20
0.0
  0
HATCH
  5
441
330
71
100
AcDbEntity
  8
1
  6
Continuous
 62
     2
100
AcDbHatch
 10
0.0
 20
0.0
 30
0.0
210
0.0
220
0.0
230
1.0
  2
_USER
 70
     0
 71
     1
 91
        1
 92
        1
 93
       10
 72
     1
 10
-42.86694664337892
 20
17.10302738895777
 11
-44.05973934554544
 21
17.10302738895777
 72
     1
 10
-44.05973934554544
 20
17.10302738895777
 11
-44.05973934554544
 21
14.04921786514657
 72
     1
 10
-44.05973934554544
 20
14.04921786514657
 11
-42.86694664337892
 21
14.04921786514657
 72
     1
 10
-42.86694664337892
 20
14.04921786514657
 11
-42.86694664337892
 21
15.35799337535127
 72
     1
 10
-42.86694664337892
 20
15.35799337535127
 11
-41.62644223312492
 21
14.04921786514657
 72
     1
 10
-41.62644223312492
 20
14.04921786514657
 11
-40.43364953095832
 21
14.04921786514657
 72
     1
 10
-40.43364953095832
 20
14.04921786514657
 11
-40.43364953095832
 21
17.10302738895777
 72
     1
 10
-40.43364953095832
 20
17.10302738895777
 11
-41.62644223312492
 21
17.10302738895777
 72
     1
 10
-41.62644223312492
 20
17.10302738895777
 11
-41.62644223312492
 21
15.79425187875259
 72
     1
 10
-41.62644223312492
 20
15.79425187875259
 11
-42.86694664337892
 21
17.10302738895777
 97
       10
330
365
330
32F
330
330
330
331
330
332
330
368
330
32D
330
367
330
366
330
32E
 75
     1
 76
     0
 52
45.0
 41
0.1
 77
     0
 78
     1
 53
45.0
 43
0.0
 44
0.0
 45
-0.0707106781186548
 46
0.0707106781186548
 79
     0
 98
        1
 10
0.0
 20
0.0
  0
HATCH
  5
442
330
71
100
AcDbEntity
  8
1
  6
Continuous
 62
     2
100
AcDbHatch
 10
0.0
 20
0.0
 30
0.0
210
0.0
220
0.0
230
1.0
  2
_USER
 70
     0
 71
     1
 91
        1
 92
        1
 93
       10
 72
     1
 10
-48.11538546379754
 20
13.74383691278337
 11
-49.30817816596513
 21
13.74383691278337
 72
     1
 10
-49.30817816596513
 20
13.74383691278337
 11
-49.30817816596513
 21
10.69002738897228
 72
     1
 10
-49.30817816596513
 20
10.69002738897228
 11
-48.11538546379754
 21
10.69002738897228
 72
     1
 10
-48.11538546379754
 20
10.69002738897228
 11
-48.11538546379754
 21
11.99880289917687
 72
     1
 10
-48.11538546379754
 20
11.99880289917687
 11
-46.87488105354464
 21
10.69002738897228
 72
     1
 10
-46.87488105354464
 20
10.69002738897228
 11
-45.68208835137824
 21
10.69002738897228
 72
     1
 10
-45.68208835137824
 20
10.69002738897228
 11
-45.68208835137824
 21
13.74383691278337
 72
     1
 10
-45.68208835137824
 20
13.74383691278337
 11
-46.87488105354464
 21
13.74383691278337
 72
     1
 10
-46.87488105354464
 20
13.74383691278337
 11
-46.87488105354464
 21
12.43506140257827
 72
     1
 10
-46.87488105354464
 20
12.43506140257827
 11
-48.11538546379754
 21
13.74383691278337
 97
       10
330
334
330
335
330
336
330
362
330
337
330
338
330
361
330
364
330
363
330
333
 75
     1
 76
     0
 52
45.0
 41
0.1
 77
     0
 78
     1
 53
45.0
 43
0.0
 44
0.0
 45
-0.0707106781186548
 46
0.0707106781186548
 79
     0
 98
        1
 10
0.0
 20
0.0
  0
HATCH
  5
443
330
71
100
AcDbEntity
  8
1
  6
Continuous
 62
     2
100
AcDbHatch
 10
0.0
 20
0.0
 30
0.0
210
0.0
220
0.0
230
1.0
  2
_USER
 70
     0
 71
     1
 91
        1
 92
        1
 93
       10
 72
     1
 10
-48.11538546379754
 20
13.74383691278337
 11
-49.30817816596513
 21
13.74383691278337
 72
     1
 10
-49.30817816596513
 20
13.74383691278337
 11
-49.30817816596513
 21
10.69002738897228
 72
     1
 10
-49.30817816596513
 20
10.69002738897228
 11
-48.11538546379754
 21
10.69002738897228
 72
     1
 10
-48.11538546379754
 20
10.69002738897228
 11
-48.11538546379754
 21
11.99880289917687
 72
     1
 10
-48.11538546379754
 20
11.99880289917687
 11
-46.87488105354464
 21
10.69002738897228
 72
     1
 10
-46.87488105354464
 20
10.69002738897228
 11
-45.68208835137824
 21
10.69002738897228
 72
     1
 10
-45.68208835137824
 20
10.69002738897228
 11
-45.68208835137824
 21
13.74383691278337
 72
     1
 10
-45.68208835137824
 20
13.74383691278337
 11
-46.87488105354464
 21
13.74383691278337
 72
     1
 10
-46.87488105354464
 20
13.74383691278337
 11
-46.87488105354464
 21
12.43506140257827
 72
     1
 10
-46.87488105354464
 20
12.43506140257827
 11
-48.11538546379754
 21
13.74383691278337
 97
       10
330
334
330
335
330
336
330
362
330
337
330
338
330
361
330
364
330
363
330
333
 75
     1
 76
     0
 52
45.0
 41
0.1
 77
     0
 78
     1
 53
45.0
 43
0.0
 44
0.0
 45
-0.0707106781186548
 46
0.0707106781186548
 79
     0
 98
        1
 10
0.0
 20
0.0
  0
HATCH
  5
444
330
71
100
AcDbEntity
  8
1
  6
Continuous
 62
     2
100
AcDbHatch
 10
0.0
 20
0.0
 30
0.0
210
0.0
220
0.0
230
1.0
  2
_USER
 70
     0
 71
     1
 91
        1
 92
        1
 93
       12
 72
     1
 10
-49.11718040273294
 20
17.10302738895777
 11
-49.11718040273294
 21
14.04921786514657
 72
     1
 10
-49.11718040273294
 20
14.04921786514657
 11
-50.30997310489934
 21
14.04921786514657
 72
     1
 10
-50.30997310489934
 20
14.04921786514657
 11
-50.30997310489934
 21
15.18348997399039
 72
     1
 10
-50.30997310489934
 20
15.18348997399039
 11
-51.35963068280682
 21
15.18348997399039
 72
     1
 10
-51.35963068280682
 20
15.18348997399039
 11
-51.35963068280682
 21
14.04921786514657
 72
     1
 10
-51.35963068280682
 20
14.04921786514657
 11
-52.55242338497342
 21
14.04921786514657
 72
     1
 10
-52.55242338497342
 20
14.04921786514657
 11
-52.55242338497342
 21
17.10302738895777
 72
     1
 10
-52.55242338497342
 20
17.10302738895777
 11
-51.35963068280682
 21
17.10302738895777
 72
     1
 10
-51.35963068280682
 20
17.10302738895777
 11
-51.35963068280682
 21
16.03419405562318
 72
     1
 10
-51.35963068280682
 20
16.03419405562318
 11
-50.30997310489934
 21
16.03419405562318
 72
     1
 10
-50.30997310489934
 20
16.03419405562318
 11
-50.30997310489934
 21
17.10302738895777
 72
     1
 10
-50.30997310489934
 20
17.10302738895777
 11
-49.11718040273294
 21
17.10302738895777
 97
       12
330
35C
330
35B
330
35A
330
342
330
343
330
359
330
344
330
358
330
357
330
356
330
340
330
341
 75
     1
 76
     0
 52
45.0
 41
0.1
 77
     0
 78
     1
 53
45.0
 43
0.0
 44
0.0
 45
-0.0707106781186548
 46
0.0707106781186548
 79
     0
 98
        1
 10
0.0
 20
0.0
  0
HATCH
  5
445
330
71
100
AcDbEntity
  8
1
  6
Continuous
 62
     2
100
AcDbHatch
 10
0.0
 20
0.0
 30
0.0
210
0.0
220
0.0
230
1.0
  2
_USER
 70
     0
 71
     1
 91
        1
 92
        1
 93
       12
 72
     1
 10
-49.11718040273294
 20
17.10302738895777
 11
-49.11718040273294
 21
14.04921786514657
 72
     1
 10
-49.11718040273294
 20
14.04921786514657
 11
-50.30997310489934
 21
14.04921786514657
 72
     1
 10
-50.30997310489934
 20
14.04921786514657
 11
-50.30997310489934
 21
15.18348997399039
 72
     1
 10
-50.30997310489934
 20
15.18348997399039
 11
-51.35963068280682
 21
15.18348997399039
 72
     1
 10
-51.35963068280682
 20
15.18348997399039
 11
-51.35963068280682
 21
14.04921786514657
 72
     1
 10
-51.35963068280682
 20
14.04921786514657
 11
-52.55242338497342
 21
14.04921786514657
 72
     1
 10
-52.55242338497342
 20
14.04921786514657
 11
-52.55242338497342
 21
17.10302738895777
 72
     1
 10
-52.55242338497342
 20
17.10302738895777
 11
-51.35963068280682
 21
17.10302738895777
 72
     1
 10
-51.35963068280682
 20
17.10302738895777
 11
-51.35963068280682
 21
16.03419405562318
 72
     1
 10
-51.35963068280682
 20
16.03419405562318
 11
-50.30997310489934
 21
16.03419405562318
 72
     1
 10
-50.30997310489934
 20
16.03419405562318
 11
-50.30997310489934
 21
17.10302738895777
 72
     1
 10
-50.30997310489934
 20
17.10302738895777
 11
-49.11718040273294
 21
17.10302738895777
 97
       12
330
35C
330
35B
330
35A
330
342
330
343
330
359
330
344
330
358
330
357
330
356
330
340
330
341
 75
     1
 76
     0
 52
45.0
 41
0.1
 77
     0
 78
     1
 53
45.0
 43
0.0
 44
0.0
 45
-0.0707106781186548
 46
0.0707106781186548
 79
     0
 98
        1
 10
0.0
 20
0.0
  0
ENDBLK
  5
73
330
71
100
AcDbEntity
  8
0
100
AcDbBlockEnd
  0
BLOCK
  5
75
330
74
100
AcDbEntity
  8
0
100
AcDbBlockBegin
  2
_punkt
 70
     0
 10
62.76012341105597
 20
3.39652738895597
 30
0.0
  3
_punkt
  1

  0
LINE
  5
446
330
74
100
AcDbEntity
  8
1
  6
Continuous
 62
     2
100
AcDbLine
 10
62.76012341105597
 20
3.39652738895597
 30
0.0
 11
62.76012341105597
 21
-1.60347261104414
 31
0.0
  0
LINE
  5
447
330
74
100
AcDbEntity
  8
1
  6
Continuous
 62
     2
100
AcDbLine
 10
62.76012341105597
 20
3.39652738895597
 30
0.0
 11
67.76012341105496
 21
3.39652738895597
 31
0.0
  0
ENDBLK
  5
76
330
74
100
AcDbEntity
  8
0
100
AcDbBlockEnd
  0
BLOCK
  5
7A
330
77
100
AcDbEntity
  8
0
100
AcDbBlockBegin
  2
A4I_CS
 70
     0
 10
62.76012341105597
 20
-1.60347261104414
 30
0.0
  3
A4I_CS
  1

  0
INSERT
  5
78
330
77
100
AcDbEntity
  8
1
100
AcDbBlockReference
  2
_rahmen
 10
62.76012341105597
 20
-1.60347261104414
 30
0.0
  0
INSERT
  5
79
330
77
100
AcDbEntity
  8
1
100
AcDbBlockReference
  2
_punkt
 10
62.76012341105597
 20
3.39652738895597
 30
0.0
  0
ENDBLK
  5
7B
330
77
100
AcDbEntity
  8
0
100
AcDbBlockEnd
  0
BLOCK
  5
84
330
7C
100
AcDbEntity
  8
0
100
AcDbBlockBegin
  2
1
 70
     0
 10
0.0
 20
0.0
 30
0.0
  3
1
  1

  0
INSERT
  5
7D
330
7C
100
AcDbEntity
  8
0
100
AcDbBlockReference
  2
Allg1
 10
-7.99999999999979
 20
75.0
 30
0.0
  0
INSERT
  5
7E
330
7C
100
AcDbEntity
  8
0
100
AcDbBlockReference
  2
Drfsicht1
 10
-103.362543
 20
88.45097499999991
 30
0.0
  0
INSERT
  5
7F
330
7C
100
AcDbEntity
  8
0
100
AcDbBlockReference
  2
Rckans1
 10
-28.63745699999996
 20
143.0000000000001
 30
0.0
  0
INSERT
  5
80
330
7C
100
AcDbEntity
  8
0
100
AcDbBlockReference
  2
SA_Links1
 10
-70.0
 20
143.0
 30
0.0
  0
INSERT
  5
81
330
7C
100
AcDbEntity
  8
0
100
AcDbBlockReference
  2
SA_Rechts1
 10
-161.073123
 20
143.0
 30
0.0
  0
INSERT
  5
82
330
7C
100
AcDbEntity
  8
0
100
AcDbBlockReference
  2
Vordans1
 10
-103.362543
 20
143.0
 30
0.0
  0
INSERT
  5
83
330
7C
100
AcDbEntity
  8
0
100
AcDbBlockReference
  2
A4I_CS
 10
62.76012341105597
 20
-1.60347261104414
 30
0.0
  0
ENDBLK
  5
85
330
7C
100
AcDbEntity
  8
0
100
AcDbBlockEnd
  0
BLOCK
  5
1A1
330
198
100
AcDbEntity
  8
0
100
AcDbBlockBegin
  2
*D17
 70
     1
 10
0.0
 20
0.0
 30
0.0
  3
*D17
  1

  0
LINE
  5
199
330
198
100
AcDbEntity
  8
1
  6
Continuous
 62
     2
100
AcDbLine
 10
-123.8625429283034
 20
85.37597502394269
 30
0.0
 11
-123.8625429283034
 21
78.37597502394269
 31
0.0
  0
LINE
  5
19A
330
198
100
AcDbEntity
  8
1
  6
Continuous
 62
     2
100
AcDbLine
 10
-123.8625429283034
 20
91.52597502453949
 30
0.0
 11
-123.8625429283034
 21
85.37597502394269
 31
0.0
  0
LINE
  5
19B
330
198
100
AcDbEntity
  8
1
  6
Continuous
 62
     2
100
AcDbLine
 10
-123.8625429283034
 20
104.533245995232
 30
0.0
 11
-123.8625429283034
 21
91.52597502453949
 31
0.0
  0
LINE
  5
19C
330
198
100
AcDbEntity
  8
1
  6
Continuous
 62
     2
100
AcDbLine
 10
-113.862542928266
 20
85.37597502394269
 30
0.0
 11
-125.3625429283034
 21
85.37597502394269
 31
0.0
  0
LINE
  5
19D
330
198
100
AcDbEntity
  8
1
  6
Continuous
 62
     2
100
AcDbLine
 10
-113.8625429283034
 20
91.52597502453949
 30
0.0
 11
-125.3625429283034
 21
91.52597502453949
 31
0.0
  0
SOLID
  5
19E
330
198
100
AcDbEntity
  8
1
 62
     2
100
AcDbTrace
 10
-124.3233266698593
 20
95.02597502453949
 30
0.0
 11
-123.4017591867475
 21
95.02597502453949
 31
0.0
 12
-123.8625429283034
 22
91.52597502453949
 32
0.0
 13
-123.8625429283034
 23
91.52597502453949
 33
0.0
  0
SOLID
  5
19F
330
198
100
AcDbEntity
  8
1
 62
     2
100
AcDbTrace
 10
-123.4017591867475
 20
81.87597502394269
 30
0.0
 11
-124.3233266698593
 21
81.87597502394269
 31
0.0
 12
-123.8625429283034
 22
85.37597502394269
 32
0.0
 13
-123.8625429283034
 23
85.37597502394269
 33
0.0
  0
MTEXT
  5
1A0
330
198
100
AcDbEntity
  8
1
 62
     3
100
AcDbMText
 10
-125.7125429283034
 20
95.958245995232
 30
0.0
 40
3.5
 41
0.0
 71
     7
 72
     1
  1
6,15
  7
CONVERTER_11
 11
0.0
 21
1.0
 31
0.0
 73
     1
 44
0.60024009603842
  0
ENDBLK
  5
1A2
330
198
100
AcDbEntity
  8
0
100
AcDbBlockEnd
  0
BLOCK
  5
2F5
330
2EE
100
AcDbEntity
  8
0
100
AcDbBlockBegin
  2
*D18
 70
     1
 10
0.0
 20
0.0
 30
0.0
  3
*D18
  1

  0
LINE
  5
2EF
330
2EE
100
AcDbEntity
  8
1
  6
Continuous
 62
     2
100
AcDbLine
 10
-130.862314767661
 20
164.0874999317383
 30
0.0
 11
-130.862314767661
 21
121.9124999315587
 31
0.0
  0
LINE
  5
2F0
330
2EE
100
AcDbEntity
  8
1
  6
Continuous
 62
     2
100
AcDbLine
 10
-105.0292095948239
 20
121.9124999315587
 30
0.0
 11
-132.362314767661
 21
121.9124999315587
 31
0.0
  0
LINE
  5
2F1
330
2EE
100
AcDbEntity
  8
1
  6
Continuous
 62
     2
100
AcDbLine
 10
-108.5625427002192
 20
164.0874999317383
 30
0.0
 11
-132.362314767661
 21
164.0874999317383
 31
0.0
  0
SOLID
  5
2F2
330
2EE
100
AcDbEntity
  8
1
 62
     2
100
AcDbTrace
 10
-130.4015310261051
 20
160.5874999317383
 30
0.0
 11
-131.3230985092169
 21
160.5874999317383
 31
0.0
 12
-130.862314767661
 22
164.0874999317383
 32
0.0
 13
-130.862314767661
 23
164.0874999317383
 33
0.0
  0
SOLID
  5
2F3
330
2EE
100
AcDbEntity
  8
1
 62
     2
100
AcDbTrace
 10
-131.3230985092169
 20
125.4124999315587
 30
0.0
 11
-130.4015310261051
 21
125.4124999315587
 31
0.0
 12
-130.862314767661
 22
121.9124999315587
 32
0.0
 13
-130.862314767661
 23
121.9124999315587
 33
0.0
  0
MTEXT
  5
2F4
330
2EE
100
AcDbEntity
  8
1
 62
     3
100
AcDbMText
 10
-132.712314767661
 20
136.8794247646799
 30
0.0
 40
3.5
 41
0.0
 71
     7
 72
     1
  1
42,18
  7
CONVERTER_11
 11
0.0
 21
1.0
 31
0.0
 73
     1
 44
0.60024009603842
  0
ENDBLK
  5
2F6
330
2EE
100
AcDbEntity
  8
0
100
AcDbBlockEnd
  0
BLOCK
  5
300
330
2F9
100
AcDbEntity
  8
0
100
AcDbBlockBegin
  2
*D19
 70
     1
 10
0.0
 20
0.0
 30
0.0
  3
*D19
  1

  0
LINE
  5
2FA
330
2F9
100
AcDbEntity
  8
1
  6
Continuous
 62
     2
100
AcDbLine
 10
-123.8625429283098
 20
164.0874999317384
 30
0.0
 11
-123.8625429283098
 21
139.5124999315559
 31
0.0
  0
LINE
  5
2FB
330
2F9
100
AcDbEntity
  8
1
  6
Continuous
 62
     2
100
AcDbLine
 10
-113.8625429283097
 20
139.5124999315559
 30
0.0
 11
-125.3625429283098
 21
139.5124999315559
 31
0.0
  0
LINE
  5
2FC
330
2F9
100
AcDbEntity
  8
1
  6
Continuous
 62
     2
100
AcDbLine
 10
-108.5625427002193
 20
164.0874999317384
 30
0.0
 11
-125.3625429283098
 21
164.0874999317384
 31
0.0
  0
SOLID
  5
2FD
330
2F9
100
AcDbEntity
  8
1
 62
     2
100
AcDbTrace
 10
-123.4017591867539
 20
160.5874999317384
 30
0.0
 11
-124.3233266698657
 21
160.5874999317384
 31
0.0
 12
-123.8625429283098
 22
164.0874999317384
 32
0.0
 13
-123.8625429283098
 23
164.0874999317384
 33
0.0
  0
SOLID
  5
2FE
330
2F9
100
AcDbEntity
  8
1
 62
     2
100
AcDbTrace
 10
-124.3233266698657
 20
143.0124999315559
 30
0.0
 11
-123.4017591867539
 21
143.0124999315559
 31
0.0
 12
-123.8625429283098
 22
139.5124999315559
 32
0.0
 13
-123.8625429283098
 23
139.5124999315559
 33
0.0
  0
MTEXT
  5
2FF
330
2F9
100
AcDbEntity
  8
1
 62
     3
100
AcDbMText
 10
-125.7125429283098
 20
145.509837912547
 30
0.0
 40
3.5
 41
0.0
 71
     7
 72
     1
  1
24,58
  7
CONVERTER_11
 11
0.0
 21
1.0
 31
0.0
 73
     1
 44
0.60024009603842
  0
ENDBLK
  5
301
330
2F9
100
AcDbEntity
  8
0
100
AcDbBlockEnd
  0
BLOCK
  5
30B
330
304
100
AcDbEntity
  8
0
100
AcDbBlockBegin
  2
*D20
 70
     1
 10
0.0
 20
0.0
 30
0.0
  3
*D20
  1

  0
LINE
  5
305
330
304
100
AcDbEntity
  8
1
  6
Continuous
 62
     2
100
AcDbLine
 10
-113.8625429283097
 20
113.2759742962602
 30
0.0
 11
-92.86254292809784
 21
113.2759742962602
 31
0.0
  0
LINE
  5
306
330
304
100
AcDbEntity
  8
1
  6
Continuous
 62
     2
100
AcDbLine
 10
-92.86254292809784
 20
139.7504499963891
 30
0.0
 11
-92.86254292809784
 21
111.7759742962602
 31
0.0
  0
LINE
  5
307
330
304
100
AcDbEntity
  8
1
  6
Continuous
 62
     2
100
AcDbLine
 10
-113.8625429283097
 20
139.512499931556
 30
0.0
 11
-113.8625429283097
 21
111.7759742962602
 31
0.0
  0
SOLID
  5
308
330
304
100
AcDbEntity
  8
1
 62
     2
100
AcDbTrace
 10
-110.3625429283097
 20
113.7367580378161
 30
0.0
 11
-110.3625429283097
 21
112.8151905547043
 31
0.0
 12
-113.8625429283097
 22
113.2759742962602
 32
0.0
 13
-113.8625429283097
 23
113.2759742962602
 33
0.0
  0
SOLID
  5
309
330
304
100
AcDbEntity
  8
1
 62
     2
100
AcDbTrace
 10
-96.36254292809784
 20
112.8151905547043
 30
0.0
 11
-96.36254292809784
 21
113.7367580378161
 31
0.0
 12
-92.86254292809784
 22
113.2759742962602
 32
0.0
 13
-92.86254292809784
 23
113.2759742962602
 33
0.0
  0
MTEXT
  5
30A
330
304
100
AcDbEntity
  8
1
 62
     3
100
AcDbMText
 10
-105.6365625601556
 20
114.7759742962602
 30
0.0
 40
3.5
 41
0.0
 71
     7
 72
     1
  1
21
  7
CONVERTER_11
 11
0.9999999999970619
 21
2.424068405545306E-6
 31
0.0
 73
     1
 44
0.60024009603842
  0
ENDBLK
  5
30C
330
304
100
AcDbEntity
  8
0
100
AcDbBlockEnd
  0
ENDSEC
  0
SECTION
  2
ENTITIES
  0
INSERT
  5
86
330
1F
100
AcDbEntity
  8
1
100
AcDbBlockReference
  2
1
 10
0.0
 20
0.0
 30
0.0
  0
ENDSEC
  0
SECTION
  2
OBJECTS
  0
DICTIONARY
  5
C
330
0
100
AcDbDictionary
281
     1
  3
ACAD_GROUP
350
D
  3
ACAD_LAYOUT
350
1A
  3
ACAD_MATERIAL
350
3B
  3
ACAD_MLEADERSTYLE
350
46F
  3
ACAD_MLINESTYLE
350
17
  3
ACAD_PLOTSETTINGS
350
19
  3
ACAD_PLOTSTYLENAME
350
E
  3
ACAD_TABLESTYLE
350
46E
  3
ACAD_VISUALSTYLE
350
2A
  0
DICTIONARY
  5
D
102
{ACAD_REACTORS
330
C
102
}
330
C
100
AcDbDictionary
281
     1
  0
DICTIONARY
  5
1A
102
{ACAD_REACTORS
330
C
102
}
330
C
100
AcDbDictionary
281
     1
  3
Layout1
350
1E
  3
Layout2
350
26
  3
Model
350
22
  0
DICTIONARY
  5
3B
102
{ACAD_REACTORS
330
C
102
}
330
C
100
AcDbDictionary
281
     1
  3
ByBlock
350
3D
  3
ByLayer
350
3C
  3
Global
350
3E
  0
DICTIONARY
  5
46F
102
{ACAD_REACTORS
330
C
102
}
330
C
100
AcDbDictionary
281
     1
  0
DICTIONARY
  5
17
102
{ACAD_REACTORS
330
C
102
}
330
C
100
AcDbDictionary
281
     1
  3
Standard
350
18
  0
DICTIONARY
  5
19
102
{ACAD_REACTORS
330
C
102
}
330
C
100
AcDbDictionary
281
     1
  0
ACDBDICTIONARYWDFLT
  5
E
102
{ACAD_REACTORS
330
C
102
}
330
C
100
AcDbDictionary
281
     1
  3
Normal
350
F
100
AcDbDictionaryWithDefault
340
F
  0
DICTIONARY
  5
46E
102
{ACAD_REACTORS
330
C
102
}
330
C
100
AcDbDictionary
281
     1
  0
DICTIONARY
  5
2A
102
{ACAD_REACTORS
330
C
102
}
330
C
100
AcDbDictionary
281
     1
  3
2dWireframe
350
2F
  3
3D Hidden
350
31
  3
3dWireframe
350
30
  3
Basic
350
32
  3
Brighten
350
36
  3
ColorChange
350
3A
  3
Conceptual
350
34
  3
Dim
350
35
  3
Facepattern
350
39
  3
Flat
350
2B
  3
FlatWithEdges
350
2C
  3
Gouraud
350
2D
  3
GouraudWithEdges
350
2E
  3
Linepattern
350
38
  3
Realistic
350
33
  3
Thicken
350
37
  0
LAYOUT
  5
1E
102
{ACAD_REACTORS
330
1A
102
}
330
1A
100
AcDbPlotSettings
  1

  2
none_device
  4

  6

 40
0.0
 41
0.0
 42
0.0
 43
0.0
 44
0.0
 45
0.0
 46
0.0
 47
0.0
 48
0.0
 49
0.0
140
0.0
141
0.0
142
1.0
143
1.0
 70
   688
 72
     0
 73
     0
 74
     5
  7

 75
    16
 76
     0
 77
     2
 78
   300
147
1.0
148
0.0
149
0.0
100
AcDbLayout
  1
Layout1
 70
     1
 71
     1
 10
0.0
 20
0.0
 11
12.0
 21
9.0
 12
0.0
 22
0.0
 32
0.0
 14
1.00000000000000E+20
 24
1.00000000000000E+20
 34
1.00000000000000E+20
 15
-1.00000000000000E+20
 25
-1.00000000000000E+20
 35
-1.00000000000000E+20
146
0.0
 13
0.0
 23
0.0
 33
0.0
 16
1.0
 26
0.0
 36
0.0
 17
0.0
 27
1.0
 37
0.0
 76
     0
330
1B
  0
LAYOUT
  5
26
102
{ACAD_REACTORS
330
1A
102
}
330
1A
100
AcDbPlotSettings
  1

  2
none_device
  4

  6

 40
0.0
 41
0.0
 42
0.0
 43
0.0
 44
0.0
 45
0.0
 46
0.0
 47
0.0
 48
0.0
 49
0.0
140
0.0
141
0.0
142
1.0
143
1.0
 70
   688
 72
     0
 73
     0
 74
     5
  7

 75
    16
 76
     0
 77
     2
 78
   300
147
1.0
148
0.0
149
0.0
100
AcDbLayout
  1
Layout2
 70
     1
 71
     2
 10
0.0
 20
0.0
 11
0.0
 21
0.0
 12
0.0
 22
0.0
 32
0.0
 14
0.0
 24
0.0
 34
0.0
 15
0.0
 25
0.0
 35
0.0
146
0.0
 13
0.0
 23
0.0
 33
0.0
 16
1.0
 26
0.0
 36
0.0
 17
0.0
 27
1.0
 37
0.0
 76
     0
330
23
  0
LAYOUT
  5
22
102
{ACAD_REACTORS
330
1A
102
}
330
1A
100
AcDbPlotSettings
  1

  2
none_device
  4

  6

 40
0.0
 41
0.0
 42
0.0
 43
0.0
 44
0.0
 45
0.0
 46
0.0
 47
0.0
 48
0.0
 49
0.0
140
0.0
141
0.0
142
1.0
143
1.0
 70
  1712
 72
     0
 73
     0
 74
     0
  7

 75
     0
 76
     0
 77
     2
 78
   300
147
1.0
148
0.0
149
0.0
100
AcDbLayout
  1
Model
 70
     1
 71
     0
 10
0.0
 20
0.0
 11
12.0
 21
9.0
 12
0.0
 22
0.0
 32
0.0
 14
-229.2398765889431
 24
-1.60347261104414
 34
0.0
 15
67.76012341105496
 25
208.396527388956
 35
0.0
146
0.0
 13
0.0
 23
0.0
 33
0.0
 16
1.0
 26
0.0
 36
0.0
 17
0.0
 27
1.0
 37
0.0
 76
     0
330
1F
331
29
  0
MATERIAL
  5
3D
102
{ACAD_REACTORS
330
3B
102
}
102
{ACAD_XDICTIONARY
360
46A
102
}
330
3B
100
AcDbMaterial
  1
ByBlock
  0
MATERIAL
  5
3C
102
{ACAD_REACTORS
330
3B
102
}
102
{ACAD_XDICTIONARY
360
468
102
}
330
3B
100
AcDbMaterial
  1
ByLayer
  0
MATERIAL
  5
3E
102
{ACAD_REACTORS
330
3B
102
}
102
{ACAD_XDICTIONARY
360
46C
102
}
330
3B
100
AcDbMaterial
  1
Global
  0
MLINESTYLE
  5
18
102
{ACAD_REACTORS
330
17
102
}
330
17
100
AcDbMlineStyle
  2
Standard
 70
     0
  3

 62
   256
 51
90.0
 52
90.0
 71
     2
 49
0.5
 62
   256
  6
BYLAYER
 49
-0.5
 62
   256
  6
BYLAYER
  0
ACDBPLACEHOLDER
  5
F
102
{ACAD_REACTORS
330
E
102
}
330
E
  0
VISUALSTYLE
  5
2F
102
{ACAD_REACTORS
330
2A
102
}
102
{ACAD_XDICTIONARY
360
450
102
}
330
2A
100
AcDbVisualStyle
  2
2dWireframe
 70
     4
 71
     0
 72
     2
 73
     0
 90
        0
 40
-0.6
 41
-30.0
 62
     5
 63
     7
421
 16777215
 74
     1
 91
        4
 64
     7
 65
   257
 75
     1
175
     1
 42
1.0
 92
        0
 66
   257
 43
1.0
 76
     1
 77
     6
 78
     2
 67
     7
 79
     5
170
     0
171
     0
290
     0
174
     0
 93
        1
 44
0.0
173
     0
291
     0
 45
0.0
1001
ACAD
1000
AcDbSavedByObjectVersion
1070
     0
  0
VISUALSTYLE
  5
31
102
{ACAD_REACTORS
330
2A
102
}
102
{ACAD_XDICTIONARY
360
454
102
}
330
2A
100
AcDbVisualStyle
  2
3D Hidden
 70
     6
 71
     1
 72
     2
 73
     2
 90
        0
 40
-0.6
 41
-30.0
 62
     5
 63
     7
421
 16777215
 74
     2
 91
        2
 64
     7
 65
   257
 75
     2
175
     1
 42
40.0
 92
        0
 66
   257
 43
1.0
 76
     1
 77
     6
 78
     2
 67
     7
 79
     3
170
     0
171
     0
290
     0
174
     0
 93
        1
 44
0.0
173
     0
291
     0
 45
0.0
1001
ACAD
1000
AcDbSavedByObjectVersion
1070
     0
  0
VISUALSTYLE
  5
30
102
{ACAD_REACTORS
330
2A
102
}
102
{ACAD_XDICTIONARY
360
452
102
}
330
2A
100
AcDbVisualStyle
  2
3dWireframe
 70
     5
 71
     0
 72
     2
 73
     0
 90
        0
 40
-0.6
 41
-30.0
 62
     5
 63
     7
421
 16777215
 74
     1
 91
        4
 64
     7
 65
   257
 75
     1
175
     1
 42
1.0
 92
        0
 66
   257
 43
1.0
 76
     1
 77
     6
 78
     2
 67
     7
 79
     5
170
     0
171
     0
290
     0
174
     0
 93
        1
 44
0.0
173
     0
291
     0
 45
0.0
1001
ACAD
1000
AcDbSavedByObjectVersion
1070
     0
  0
VISUALSTYLE
  5
32
102
{ACAD_REACTORS
330
2A
102
}
102
{ACAD_XDICTIONARY
360
456
102
}
330
2A
100
AcDbVisualStyle
  2
Basic
 70
     7
 71
     1
 72
     0
 73
     1
 90
        0
 40
-0.6
 41
-30.0
 62
     5
 63
     7
421
 16777215
 74
     0
 91
        4
 64
     7
 65
   257
 75
     1
175
     1
 42
1.0
 92
        8
 66
     7
 43
1.0
 76
     1
 77
     6
 78
     2
 67
     7
 79
     5
170
     0
171
     0
290
     0
174
     0
 93
        1
 44
0.0
173
     0
291
     1
 45
0.0
1001
ACAD
1000
AcDbSavedByObjectVersion
1070
     0
  0
VISUALSTYLE
  5
36
102
{ACAD_REACTORS
330
2A
102
}
102
{ACAD_XDICTIONARY
360
45E
102
}
330
2A
100
AcDbVisualStyle
  2
Brighten
 70
    12
 71
     2
 72
     2
 73
     0
 90
        0
 40
-0.6
 41
-30.0
 62
     5
 63
     7
421
 16777215
 74
     1
 91
        4
 64
     7
 65
   257
 75
     1
175
     1
 42
1.0
 92
        8
 66
     7
 43
1.0
 76
     1
 77
     6
 78
     2
 67
     7
 79
     5
170
     0
171
     0
290
     0
174
     0
 93
        1
 44
50.0
173
     0
291
     1
 45
0.0
1001
ACAD
1000
AcDbSavedByObjectVersion
1070
     0
  0
VISUALSTYLE
  5
3A
102
{ACAD_REACTORS
330
2A
102
}
102
{ACAD_XDICTIONARY
360
466
102
}
330
2A
100
AcDbVisualStyle
  2
ColorChange
 70
    16
 71
     2
 72
     2
 73
     3
 90
        0
 40
-0.6
 41
-30.0
 62
     5
 63
     8
421
  8421504
 74
     1
 91
        4
 64
     7
 65
   257
 75
     1
175
     1
 42
1.0
 92
        8
 66
     8
424
  8421504
 43
1.0
 76
     1
 77
     6
 78
     2
 67
     7
 79
     5
170
     0
171
     0
290
     0
174
     0
 93
        1
 44
0.0
173
     0
291
     1
 45
0.0
1001
ACAD
1000
AcDbSavedByObjectVersion
1070
     0
  0
VISUALSTYLE
  5
34
102
{ACAD_REACTORS
330
2A
102
}
102
{ACAD_XDICTIONARY
360
45A
102
}
330
2A
100
AcDbVisualStyle
  2
Conceptual
 70
     9
 71
     3
 72
     2
 73
     0
 90
        0
 40
-0.6
 41
-30.0
 62
     5
 63
     7
421
 16777215
 74
     2
 91
        2
 64
     7
 65
   257
 75
     1
175
     1
 42
40.0
 92
        8
 66
     7
 43
1.0
 76
     1
 77
     6
 78
     2
 67
     7
 79
     3
170
     0
171
     0
290
     0
174
     0
 93
        1
 44
0.0
173
     0
291
     0
 45
0.0
1001
ACAD
1000
AcDbSavedByObjectVersion
1070
     0
  0
VISUALSTYLE
  5
35
102
{ACAD_REACTORS
330
2A
102
}
102
{ACAD_XDICTIONARY
360
45C
102
}
330
2A
100
AcDbVisualStyle
  2
Dim
 70
    11
 71
     2
 72
     2
 73
     0
 90
        0
 40
-0.6
 41
-30.0
 62
     5
 63
     7
421
 16777215
 74
     1
 91
        4
 64
     7
 65
   257
 75
     1
175
     1
 42
1.0
 92
        8
 66
     7
 43
1.0
 76
     1
 77
     6
 78
     2
 67
     7
 79
     5
170
     0
171
     0
290
     0
174
     0
 93
        1
 44
-50.0
173
     0
291
     1
 45
0.0
1001
ACAD
1000
AcDbSavedByObjectVersion
1070
     0
  0
VISUALSTYLE
  5
39
102
{ACAD_REACTORS
330
2A
102
}
102
{ACAD_XDICTIONARY
360
464
102
}
330
2A
100
AcDbVisualStyle
  2
Facepattern
 70
    15
 71
     2
 72
     2
 73
     0
 90
        0
 40
-0.6
 41
-30.0
 62
     5
 63
     7
421
 16777215
 74
     1
 91
        4
 64
     7
 65
   257
 75
     1
175
     1
 42
1.0
 92
        8
 66
     7
 43
1.0
 76
     1
 77
     6
 78
     2
 67
     7
 79
     5
170
     0
171
     0
290
     0
174
     0
 93
        1
 44
0.0
173
     0
291
     1
 45
0.0
1001
ACAD
1000
AcDbSavedByObjectVersion
1070
     0
  0
VISUALSTYLE
  5
2B
102
{ACAD_REACTORS
330
2A
102
}
102
{ACAD_XDICTIONARY
360
448
102
}
330
2A
100
AcDbVisualStyle
  2
Flat
 70
     0
 71
     2
 72
     1
 73
     1
 90
        2
 40
-0.6
 41
30.0
 62
     5
 63
     7
421
 16777215
 74
     0
 91
        4
 64
     7
 65
   257
 75
     1
175
     1
 42
1.0
 92
        8
 66
     7
 43
1.0
 76
     1
 77
     6
 78
     2
 67
     7
 79
     5
170
     0
171
     0
290
     0
174
     0
 93
       13
 44
0.0
173
     0
291
     1
 45
0.0
1001
ACAD
1000
AcDbSavedByObjectVersion
1070
     0
  0
VISUALSTYLE
  5
2C
102
{ACAD_REACTORS
330
2A
102
}
102
{ACAD_XDICTIONARY
360
44A
102
}
330
2A
100
AcDbVisualStyle
  2
FlatWithEdges
 70
     1
 71
     2
 72
     1
 73
     1
 90
        2
 40
-0.6
 41
30.0
 62
     5
 63
     7
421
 16777215
 74
     1
 91
        4
 64
     7
 65
   257
 75
     1
175
     1
 42
1.0
 92
        0
 66
   257
 43
1.0
 76
     1
 77
     6
 78
     2
 67
     7
 79
     5
170
     0
171
     0
290
     0
174
     0
 93
       13
 44
0.0
173
     0
291
     1
 45
0.0
1001
ACAD
1000
AcDbSavedByObjectVersion
1070
     0
  0
VISUALSTYLE
  5
2D
102
{ACAD_REACTORS
330
2A
102
}
102
{ACAD_XDICTIONARY
360
44C
102
}
330
2A
100
AcDbVisualStyle
  2
Gouraud
 70
     2
 71
     2
 72
     2
 73
     1
 90
        2
 40
-0.6
 41
30.0
 62
     5
 63
     7
421
 16777215
 74
     0
 91
        4
 64
     7
 65
   257
 75
     1
175
     1
 42
1.0
 92
        0
 66
     7
 43
1.0
 76
     1
 77
     6
 78
     2
 67
     7
 79
     5
170
     0
171
     0
290
     0
174
     0
 93
       13
 44
0.0
173
     0
291
     1
 45
0.0
1001
ACAD
1000
AcDbSavedByObjectVersion
1070
     0
  0
VISUALSTYLE
  5
2E
102
{ACAD_REACTORS
330
2A
102
}
102
{ACAD_XDICTIONARY
360
44E
102
}
330
2A
100
AcDbVisualStyle
  2
GouraudWithEdges
 70
     3
 71
     2
 72
     2
 73
     1
 90
        2
 40
-0.6
 41
30.0
 62
     5
 63
     7
421
 16777215
 74
     1
 91
        4
 64
     7
 65
   257
 75
     1
175
     1
 42
1.0
 92
        0
 66
   257
 43
1.0
 76
     1
 77
     6
 78
     2
 67
     7
 79
     5
170
     0
171
     0
290
     0
174
     0
 93
       13
 44
0.0
173
     0
291
     1
 45
0.0
1001
ACAD
1000
AcDbSavedByObjectVersion
1070
     0
  0
VISUALSTYLE
  5
38
102
{ACAD_REACTORS
330
2A
102
}
102
{ACAD_XDICTIONARY
360
462
102
}
330
2A
100
AcDbVisualStyle
  2
Linepattern
 70
    14
 71
     2
 72
     2
 73
     0
 90
        0
 40
-0.6
 41
-30.0
 62
     5
 63
     7
421
 16777215
 74
     1
 91
        4
 64
     7
 65
   257
 75
     7
175
     7
 42
1.0
 92
        8
 66
     7
 43
1.0
 76
     1
 77
     6
 78
     2
 67
     7
 79
     5
170
     0
171
     0
290
     0
174
     0
 93
        1
 44
0.0
173
     0
291
     1
 45
0.0
1001
ACAD
1000
AcDbSavedByObjectVersion
1070
     0
  0
VISUALSTYLE
  5
33
102
{ACAD_REACTORS
330
2A
102
}
102
{ACAD_XDICTIONARY
360
458
102
}
330
2A
100
AcDbVisualStyle
  2
Realistic
 70
     8
 71
     2
 72
     2
 73
     0
 90
        0
 40
-0.6
 41
-30.0
 62
     5
 63
     7
421
 16777215
 74
     1
 91
        0
 64
     7
 65
   257
 75
     1
175
     1
 42
1.0
 92
        8
 66
     8
424
  7895160
 43
1.0
 76
     1
 77
     6
 78
     2
 67
     7
 79
     5
170
     0
171
     0
290
     0
174
     0
 93
       13
 44
0.0
173
     0
291
     0
 45
0.0
1001
ACAD
1000
AcDbSavedByObjectVersion
1070
     0
  0
VISUALSTYLE
  5
37
102
{ACAD_REACTORS
330
2A
102
}
102
{ACAD_XDICTIONARY
360
460
102
}
330
2A
100
AcDbVisualStyle
  2
Thicken
 70
    13
 71
     2
 72
     2
 73
     0
 90
        0
 40
-0.6
 41
-30.0
 62
     5
 63
     7
421
 16777215
 74
     1
 91
        4
 64
     7
 65
   257
 75
     1
175
     1
 42
1.0
 92
       12
 66
     7
 43
1.0
 76
     1
 77
     6
 78
     2
 67
     7
 79
     5
170
     0
171
     0
290
     0
174
     0
 93
        1
 44
0.0
173
     0
291
     1
 45
0.0
1001
ACAD
1000
AcDbSavedByObjectVersion
1070
     0
  0
DICTIONARY
  5
46A
330
3D
100
AcDbDictionary
280
     1
281
     1
  3
ACAD_XREC_ROUNDTRIP
360
46B
  0
DICTIONARY
  5
468
330
3C
100
AcDbDictionary
280
     1
281
     1
  3
ACAD_XREC_ROUNDTRIP
360
469
  0
DICTIONARY
  5
46C
330
3E
100
AcDbDictionary
280
     1
281
     1
  3
ACAD_XREC_ROUNDTRIP
360
46D
  0
DICTIONARY
  5
450
330
2F
100
AcDbDictionary
280
     1
281
     1
  3
ACAD_XREC_ROUNDTRIP
360
451
  0
DICTIONARY
  5
454
330
31
100
AcDbDictionary
280
     1
281
     1
  3
ACAD_XREC_ROUNDTRIP
360
455
  0
DICTIONARY
  5
452
330
30
100
AcDbDictionary
280
     1
281
     1
  3
ACAD_XREC_ROUNDTRIP
360
453
  0
DICTIONARY
  5
456
330
32
100
AcDbDictionary
280
     1
281
     1
  3
ACAD_XREC_ROUNDTRIP
360
457
  0
DICTIONARY
  5
45E
330
36
100
AcDbDictionary
280
     1
281
     1
  3
ACAD_XREC_ROUNDTRIP
360
45F
  0
DICTIONARY
  5
466
330
3A
100
AcDbDictionary
280
     1
281
     1
  3
ACAD_XREC_ROUNDTRIP
360
467
  0
DICTIONARY
  5
45A
330
34
100
AcDbDictionary
280
     1
281
     1
  3
ACAD_XREC_ROUNDTRIP
360
45B
  0
DICTIONARY
  5
45C
330
35
100
AcDbDictionary
280
     1
281
     1
  3
ACAD_XREC_ROUNDTRIP
360
45D
  0
DICTIONARY
  5
464
330
39
100
AcDbDictionary
280
     1
281
     1
  3
ACAD_XREC_ROUNDTRIP
360
465
  0
DICTIONARY
  5
448
330
2B
100
AcDbDictionary
280
     1
281
     1
  3
ACAD_XREC_ROUNDTRIP
360
449
  0
DICTIONARY
  5
44A
330
2C
100
AcDbDictionary
280
     1
281
     1
  3
ACAD_XREC_ROUNDTRIP
360
44B
  0
DICTIONARY
  5
44C
330
2D
100
AcDbDictionary
280
     1
281
     1
  3
ACAD_XREC_ROUNDTRIP
360
44D
  0
DICTIONARY
  5
44E
330
2E
100
AcDbDictionary
280
     1
281
     1
  3
ACAD_XREC_ROUNDTRIP
360
44F
  0
DICTIONARY
  5
462
330
38
100
AcDbDictionary
280
     1
281
     1
  3
ACAD_XREC_ROUNDTRIP
360
463
  0
DICTIONARY
  5
458
330
33
100
AcDbDictionary
280
     1
281
     1
  3
ACAD_XREC_ROUNDTRIP
360
459
  0
DICTIONARY
  5
460
330
37
100
AcDbDictionary
280
     1
281
     1
  3
ACAD_XREC_ROUNDTRIP
360
461
  0
XRECORD
  5
46B
102
{ACAD_REACTORS
330
46A
102
}
330
46A
100
AcDbXrecord
280
     1
102
MATERIAL
148
0.0
149
0.0
149
0.0
 93
        0
 94
      127
282
     0
 72
     1
 77
     1
171
     1
175
     1
179
     1
273
     0
  0
XRECORD
  5
469
102
{ACAD_REACTORS
330
468
102
}
330
468
100
AcDbXrecord
280
     1
102
MATERIAL
148
0.0
149
0.0
149
0.0
 93
        0
 94
      127
282
     0
 72
     1
 77
     1
171
     1
175
     1
179
     1
273
     0
  0
XRECORD
  5
46D
102
{ACAD_REACTORS
330
46C
102
}
330
46C
100
AcDbXrecord
280
     1
102
MATERIAL
148
0.0
149
0.0
149
0.0
 93
        0
 94
      127
282
     0
 72
     1
 77
     1
171
     1
175
     1
179
     1
273
     0
  0
XRECORD
  5
451
102
{ACAD_REACTORS
330
450
102
}
330
450
100
AcDbXrecord
280
     1
102
RTVSPropertyOp0
 70
     1
102
RTVSPropertyOp1
 70
     1
102
RTVSPropertyOp2
 70
     1
102
RTVSPropertyOp3
 70
     1
102
RTVSPropertyOp4
 70
     1
102
RTVSPropertyOp5
 70
     1
102
RTVSPropertyOp6
 70
     1
102
RTVSPropertyOp7
 70
     1
102
RTVSPropertyOp8
 70
     1
102
RTVSPropertyOp9
 70
     1
102
RTVSPropertyOp10
 70
     1
102
RTVSPropertyOp11
 70
     1
102
RTVSPropertyOp12
 70
     1
102
RTVSPropertyOp13
 70
     1
102
RTVSPropertyOp14
 70
     1
102
RTVSPropertyOp15
 70
     1
102
RTVSPropertyOp16
 70
     1
102
RTVSPropertyOp17
 70
     1
102
RTVSPropertyOp18
 70
     1
102
RTVSPropertyOp19
 70
     1
102
RTVSPropertyOp20
 70
     1
102
RTVSPropertyOp21
 70
     1
102
RTVSPropertyOp22
 70
     1
102
RTVSPropertyOp23
 70
     1
102
RTVSPropertyOp24
 70
     1
102
RTVSPropertyOp25
 70
     1
102
RTVSPropertyOp26
 70
     1
102
RTVSPropertyOp27
 70
     1
102
RTVSPropertyOp28
 70
     1
102
RTVSPropertyOp29
 70
     1
102
RTVSPropertyOp30
 70
     1
102
RTVSPropertyOp31
 70
     1
102
RTVSPropertyOp32
 70
     1
  0
XRECORD
  5
455
102
{ACAD_REACTORS
330
454
102
}
330
454
100
AcDbXrecord
280
     1
102
RTVSPropertyOp0
 70
     1
102
RTVSPropertyOp1
 70
     1
102
RTVSPropertyOp2
 70
     1
102
RTVSPropertyOp3
 70
     1
102
RTVSPropertyOp4
 70
     1
102
RTVSPropertyOp5
 70
     1
102
RTVSPropertyOp6
 70
     1
102
RTVSPropertyOp7
 70
     1
102
RTVSPropertyOp8
 70
     1
102
RTVSPropertyOp9
 70
     1
102
RTVSPropertyOp10
 70
     1
102
RTVSPropertyOp11
 70
     1
102
RTVSPropertyOp12
 70
     1
102
RTVSPropertyOp13
 70
     1
102
RTVSPropertyOp14
 70
     1
102
RTVSPropertyOp15
 70
     1
102
RTVSPropertyOp16
 70
     1
102
RTVSPropertyOp17
 70
     1
102
RTVSPropertyOp18
 70
     1
102
RTVSPropertyOp19
 70
     1
102
RTVSPropertyOp20
 70
     1
102
RTVSPropertyOp21
 70
     1
102
RTVSPropertyOp22
 70
     1
102
RTVSPropertyOp23
 70
     1
102
RTVSPropertyOp24
 70
     1
102
RTVSPropertyOp25
 70
     1
102
RTVSPropertyOp26
 70
     1
102
RTVSPropertyOp27
 70
     1
102
RTVSPropertyOp28
 70
     1
102
RTVSPropertyOp29
 70
     1
102
RTVSPropertyOp30
 70
     1
102
RTVSPropertyOp31
 70
     1
102
RTVSPropertyOp32
 70
     1
  0
XRECORD
  5
453
102
{ACAD_REACTORS
330
452
102
}
330
452
100
AcDbXrecord
280
     1
102
RTVSPropertyOp0
 70
     1
102
RTVSPropertyOp1
 70
     1
102
RTVSPropertyOp2
 70
     1
102
RTVSPropertyOp3
 70
     1
102
RTVSPropertyOp4
 70
     1
102
RTVSPropertyOp5
 70
     1
102
RTVSPropertyOp6
 70
     1
102
RTVSPropertyOp7
 70
     1
102
RTVSPropertyOp8
 70
     1
102
RTVSPropertyOp9
 70
     1
102
RTVSPropertyOp10
 70
     1
102
RTVSPropertyOp11
 70
     1
102
RTVSPropertyOp12
 70
     1
102
RTVSPropertyOp13
 70
     1
102
RTVSPropertyOp14
 70
     1
102
RTVSPropertyOp15
 70
     1
102
RTVSPropertyOp16
 70
     1
102
RTVSPropertyOp17
 70
     1
102
RTVSPropertyOp18
 70
     1
102
RTVSPropertyOp19
 70
     1
102
RTVSPropertyOp20
 70
     1
102
RTVSPropertyOp21
 70
     1
102
RTVSPropertyOp22
 70
     1
102
RTVSPropertyOp23
 70
     1
102
RTVSPropertyOp24
 70
     1
102
RTVSPropertyOp25
 70
     1
102
RTVSPropertyOp26
 70
     1
102
RTVSPropertyOp27
 70
     1
102
RTVSPropertyOp28
 70
     1
102
RTVSPropertyOp29
 70
     1
102
RTVSPropertyOp30
 70
     1
102
RTVSPropertyOp31
 70
     1
102
RTVSPropertyOp32
 70
     1
  0
XRECORD
  5
457
102
{ACAD_REACTORS
330
456
102
}
330
456
100
AcDbXrecord
280
     1
102
RTVSPropertyOp0
 70
     1
102
RTVSPropertyOp1
 70
     1
102
RTVSPropertyOp2
 70
     1
102
RTVSPropertyOp3
 70
     1
102
RTVSPropertyOp4
 70
     1
102
RTVSPropertyOp5
 70
     1
102
RTVSPropertyOp6
 70
     1
102
RTVSPropertyOp7
 70
     1
102
RTVSPropertyOp8
 70
     1
102
RTVSPropertyOp9
 70
     1
102
RTVSPropertyOp10
 70
     1
102
RTVSPropertyOp11
 70
     1
102
RTVSPropertyOp12
 70
     1
102
RTVSPropertyOp13
 70
     1
102
RTVSPropertyOp14
 70
     1
102
RTVSPropertyOp15
 70
     1
102
RTVSPropertyOp16
 70
     1
102
RTVSPropertyOp17
 70
     1
102
RTVSPropertyOp18
 70
     1
102
RTVSPropertyOp19
 70
     1
102
RTVSPropertyOp20
 70
     1
102
RTVSPropertyOp21
 70
     1
102
RTVSPropertyOp22
 70
     1
102
RTVSPropertyOp23
 70
     1
102
RTVSPropertyOp24
 70
     1
102
RTVSPropertyOp25
 70
     1
102
RTVSPropertyOp26
 70
     1
102
RTVSPropertyOp27
 70
     1
102
RTVSPropertyOp28
 70
     1
102
RTVSPropertyOp29
 70
     1
102
RTVSPropertyOp30
 70
     1
102
RTVSPropertyOp31
 70
     1
102
RTVSPropertyOp32
 70
     1
  0
XRECORD
  5
45F
102
{ACAD_REACTORS
330
45E
102
}
330
45E
100
AcDbXrecord
280
     1
102
RTVSPropertyOp0
 70
     1
102
RTVSPropertyOp1
 70
     1
102
RTVSPropertyOp2
 70
     1
102
RTVSPropertyOp3
 70
     1
102
RTVSPropertyOp4
 70
     1
102
RTVSPropertyOp5
 70
     1
102
RTVSPropertyOp6
 70
     1
102
RTVSPropertyOp7
 70
     1
102
RTVSPropertyOp8
 70
     1
102
RTVSPropertyOp9
 70
     1
102
RTVSPropertyOp10
 70
     1
102
RTVSPropertyOp11
 70
     1
102
RTVSPropertyOp12
 70
     1
102
RTVSPropertyOp13
 70
     1
102
RTVSPropertyOp14
 70
     1
102
RTVSPropertyOp15
 70
     1
102
RTVSPropertyOp16
 70
     1
102
RTVSPropertyOp17
 70
     1
102
RTVSPropertyOp18
 70
     1
102
RTVSPropertyOp19
 70
     1
102
RTVSPropertyOp20
 70
     1
102
RTVSPropertyOp21
 70
     1
102
RTVSPropertyOp22
 70
     1
102
RTVSPropertyOp23
 70
     1
102
RTVSPropertyOp24
 70
     1
102
RTVSPropertyOp25
 70
     1
102
RTVSPropertyOp26
 70
     1
102
RTVSPropertyOp27
 70
     1
102
RTVSPropertyOp28
 70
     1
102
RTVSPropertyOp29
 70
     1
102
RTVSPropertyOp30
 70
     1
102
RTVSPropertyOp31
 70
     1
102
RTVSPropertyOp32
 70
     1
  0
XRECORD
  5
467
102
{ACAD_REACTORS
330
466
102
}
330
466
100
AcDbXrecord
280
     1
102
RTVSPropertyOp0
 70
     1
102
RTVSPropertyOp1
 70
     1
102
RTVSPropertyOp2
 70
     1
102
RTVSPropertyOp3
 70
     1
102
RTVSPropertyOp4
 70
     1
102
RTVSPropertyOp5
 70
     1
102
RTVSPropertyOp6
 70
     1
102
RTVSPropertyOp7
 70
     1
102
RTVSPropertyOp8
 70
     1
102
RTVSPropertyOp9
 70
     1
102
RTVSPropertyOp10
 70
     1
102
RTVSPropertyOp11
 70
     1
102
RTVSPropertyOp12
 70
     1
102
RTVSPropertyOp13
 70
     1
102
RTVSPropertyOp14
 70
     1
102
RTVSPropertyOp15
 70
     1
102
RTVSPropertyOp16
 70
     1
102
RTVSPropertyOp17
 70
     1
102
RTVSPropertyOp18
 70
     1
102
RTVSPropertyOp19
 70
     1
102
RTVSPropertyOp20
 70
     1
102
RTVSPropertyOp21
 70
     1
102
RTVSPropertyOp22
 70
     1
102
RTVSPropertyOp23
 70
     1
102
RTVSPropertyOp24
 70
     1
102
RTVSPropertyOp25
 70
     1
102
RTVSPropertyOp26
 70
     1
102
RTVSPropertyOp27
 70
     1
102
RTVSPropertyOp28
 70
     1
102
RTVSPropertyOp29
 70
     1
102
RTVSPropertyOp30
 70
     1
102
RTVSPropertyOp31
 70
     1
102
RTVSPropertyOp32
 70
     1
  0
XRECORD
  5
45B
102
{ACAD_REACTORS
330
45A
102
}
330
45A
100
AcDbXrecord
280
     1
102
RTVSPropertyOp0
 70
     1
102
RTVSPropertyOp1
 70
     1
102
RTVSPropertyOp2
 70
     1
102
RTVSPropertyOp3
 70
     1
102
RTVSPropertyOp4
 70
     1
102
RTVSPropertyOp5
 70
     1
102
RTVSPropertyOp6
 70
     1
102
RTVSPropertyOp7
 70
     1
102
RTVSPropertyOp8
 70
     1
102
RTVSPropertyOp9
 70
     1
102
RTVSPropertyOp10
 70
     1
102
RTVSPropertyOp11
 70
     1
102
RTVSPropertyOp12
 70
     1
102
RTVSPropertyOp13
 70
     1
102
RTVSPropertyOp14
 70
     1
102
RTVSPropertyOp15
 70
     1
102
RTVSPropertyOp16
 70
     1
102
RTVSPropertyOp17
 70
     1
102
RTVSPropertyOp18
 70
     1
102
RTVSPropertyOp19
 70
     1
102
RTVSPropertyOp20
 70
     1
102
RTVSPropertyOp21
 70
     1
102
RTVSPropertyOp22
 70
     1
102
RTVSPropertyOp23
 70
     1
102
RTVSPropertyOp24
 70
     1
102
RTVSPropertyOp25
 70
     1
102
RTVSPropertyOp26
 70
     1
102
RTVSPropertyOp27
 70
     1
102
RTVSPropertyOp28
 70
     1
102
RTVSPropertyOp29
 70
     1
102
RTVSPropertyOp30
 70
     1
102
RTVSPropertyOp31
 70
     1
102
RTVSPropertyOp32
 70
     1
  0
XRECORD
  5
45D
102
{ACAD_REACTORS
330
45C
102
}
330
45C
100
AcDbXrecord
280
     1
102
RTVSPropertyOp0
 70
     1
102
RTVSPropertyOp1
 70
     1
102
RTVSPropertyOp2
 70
     1
102
RTVSPropertyOp3
 70
     1
102
RTVSPropertyOp4
 70
     1
102
RTVSPropertyOp5
 70
     1
102
RTVSPropertyOp6
 70
     1
102
RTVSPropertyOp7
 70
     1
102
RTVSPropertyOp8
 70
     1
102
RTVSPropertyOp9
 70
     1
102
RTVSPropertyOp10
 70
     1
102
RTVSPropertyOp11
 70
     1
102
RTVSPropertyOp12
 70
     1
102
RTVSPropertyOp13
 70
     1
102
RTVSPropertyOp14
 70
     1
102
RTVSPropertyOp15
 70
     1
102
RTVSPropertyOp16
 70
     1
102
RTVSPropertyOp17
 70
     1
102
RTVSPropertyOp18
 70
     1
102
RTVSPropertyOp19
 70
     1
102
RTVSPropertyOp20
 70
     1
102
RTVSPropertyOp21
 70
     1
102
RTVSPropertyOp22
 70
     1
102
RTVSPropertyOp23
 70
     1
102
RTVSPropertyOp24
 70
     1
102
RTVSPropertyOp25
 70
     1
102
RTVSPropertyOp26
 70
     1
102
RTVSPropertyOp27
 70
     1
102
RTVSPropertyOp28
 70
     1
102
RTVSPropertyOp29
 70
     1
102
RTVSPropertyOp30
 70
     1
102
RTVSPropertyOp31
 70
     1
102
RTVSPropertyOp32
 70
     1
  0
XRECORD
  5
465
102
{ACAD_REACTORS
330
464
102
}
330
464
100
AcDbXrecord
280
     1
102
RTVSPropertyOp0
 70
     1
102
RTVSPropertyOp1
 70
     1
102
RTVSPropertyOp2
 70
     1
102
RTVSPropertyOp3
 70
     1
102
RTVSPropertyOp4
 70
     1
102
RTVSPropertyOp5
 70
     1
102
RTVSPropertyOp6
 70
     1
102
RTVSPropertyOp7
 70
     1
102
RTVSPropertyOp8
 70
     1
102
RTVSPropertyOp9
 70
     1
102
RTVSPropertyOp10
 70
     1
102
RTVSPropertyOp11
 70
     1
102
RTVSPropertyOp12
 70
     1
102
RTVSPropertyOp13
 70
     1
102
RTVSPropertyOp14
 70
     1
102
RTVSPropertyOp15
 70
     1
102
RTVSPropertyOp16
 70
     1
102
RTVSPropertyOp17
 70
     1
102
RTVSPropertyOp18
 70
     1
102
RTVSPropertyOp19
 70
     1
102
RTVSPropertyOp20
 70
     1
102
RTVSPropertyOp21
 70
     1
102
RTVSPropertyOp22
 70
     1
102
RTVSPropertyOp23
 70
     1
102
RTVSPropertyOp24
 70
     1
102
RTVSPropertyOp25
 70
     1
102
RTVSPropertyOp26
 70
     1
102
RTVSPropertyOp27
 70
     1
102
RTVSPropertyOp28
 70
     1
102
RTVSPropertyOp29
 70
     1
102
RTVSPropertyOp30
 70
     1
102
RTVSPropertyOp31
 70
     1
102
RTVSPropertyOp32
 70
     1
  0
XRECORD
  5
449
102
{ACAD_REACTORS
330
448
102
}
330
448
100
AcDbXrecord
280
     1
102
RTVSPropertyOp0
 70
     1
102
RTVSPropertyOp1
 70
     1
102
RTVSPropertyOp2
 70
     1
102
RTVSPropertyOp3
 70
     1
102
RTVSPropertyOp4
 70
     1
102
RTVSPropertyOp5
 70
     1
102
RTVSPropertyOp6
 70
     1
102
RTVSPropertyOp7
 70
     1
102
RTVSPropertyOp8
 70
     1
102
RTVSPropertyOp9
 70
     1
102
RTVSPropertyOp10
 70
     1
102
RTVSPropertyOp11
 70
     1
102
RTVSPropertyOp12
 70
     1
102
RTVSPropertyOp13
 70
     1
102
RTVSPropertyOp14
 70
     1
102
RTVSPropertyOp15
 70
     1
102
RTVSPropertyOp16
 70
     1
102
RTVSPropertyOp17
 70
     1
102
RTVSPropertyOp18
 70
     1
102
RTVSPropertyOp19
 70
     1
102
RTVSPropertyOp20
 70
     1
102
RTVSPropertyOp21
 70
     1
102
RTVSPropertyOp22
 70
     1
102
RTVSPropertyOp23
 70
     1
102
RTVSPropertyOp24
 70
     1
102
RTVSPropertyOp25
 70
     1
102
RTVSPropertyOp26
 70
     1
102
RTVSPropertyOp27
 70
     1
102
RTVSPropertyOp28
 70
     1
102
RTVSPropertyOp29
 70
     1
102
RTVSPropertyOp30
 70
     1
102
RTVSPropertyOp31
 70
     1
102
RTVSPropertyOp32
 70
     1
  0
XRECORD
  5
44B
102
{ACAD_REACTORS
330
44A
102
}
330
44A
100
AcDbXrecord
280
     1
102
RTVSPropertyOp0
 70
     1
102
RTVSPropertyOp1
 70
     1
102
RTVSPropertyOp2
 70
     1
102
RTVSPropertyOp3
 70
     1
102
RTVSPropertyOp4
 70
     1
102
RTVSPropertyOp5
 70
     1
102
RTVSPropertyOp6
 70
     1
102
RTVSPropertyOp7
 70
     1
102
RTVSPropertyOp8
 70
     1
102
RTVSPropertyOp9
 70
     1
102
RTVSPropertyOp10
 70
     1
102
RTVSPropertyOp11
 70
     1
102
RTVSPropertyOp12
 70
     1
102
RTVSPropertyOp13
 70
     1
102
RTVSPropertyOp14
 70
     1
102
RTVSPropertyOp15
 70
     1
102
RTVSPropertyOp16
 70
     1
102
RTVSPropertyOp17
 70
     1
102
RTVSPropertyOp18
 70
     1
102
RTVSPropertyOp19
 70
     1
102
RTVSPropertyOp20
 70
     1
102
RTVSPropertyOp21
 70
     1
102
RTVSPropertyOp22
 70
     1
102
RTVSPropertyOp23
 70
     1
102
RTVSPropertyOp24
 70
     1
102
RTVSPropertyOp25
 70
     1
102
RTVSPropertyOp26
 70
     1
102
RTVSPropertyOp27
 70
     1
102
RTVSPropertyOp28
 70
     1
102
RTVSPropertyOp29
 70
     1
102
RTVSPropertyOp30
 70
     1
102
RTVSPropertyOp31
 70
     1
102
RTVSPropertyOp32
 70
     1
  0
XRECORD
  5
44D
102
{ACAD_REACTORS
330
44C
102
}
330
44C
100
AcDbXrecord
280
     1
102
RTVSPropertyOp0
 70
     1
102
RTVSPropertyOp1
 70
     1
102
RTVSPropertyOp2
 70
     1
102
RTVSPropertyOp3
 70
     1
102
RTVSPropertyOp4
 70
     1
102
RTVSPropertyOp5
 70
     1
102
RTVSPropertyOp6
 70
     1
102
RTVSPropertyOp7
 70
     1
102
RTVSPropertyOp8
 70
     1
102
RTVSPropertyOp9
 70
     1
102
RTVSPropertyOp10
 70
     1
102
RTVSPropertyOp11
 70
     1
102
RTVSPropertyOp12
 70
     1
102
RTVSPropertyOp13
 70
     1
102
RTVSPropertyOp14
 70
     1
102
RTVSPropertyOp15
 70
     1
102
RTVSPropertyOp16
 70
     1
102
RTVSPropertyOp17
 70
     1
102
RTVSPropertyOp18
 70
     1
102
RTVSPropertyOp19
 70
     1
102
RTVSPropertyOp20
 70
     1
102
RTVSPropertyOp21
 70
     1
102
RTVSPropertyOp22
 70
     1
102
RTVSPropertyOp23
 70
     1
102
RTVSPropertyOp24
 70
     1
102
RTVSPropertyOp25
 70
     1
102
RTVSPropertyOp26
 70
     1
102
RTVSPropertyOp27
 70
     1
102
RTVSPropertyOp28
 70
     1
102
RTVSPropertyOp29
 70
     1
102
RTVSPropertyOp30
 70
     1
102
RTVSPropertyOp31
 70
     1
102
RTVSPropertyOp32
 70
     1
  0
XRECORD
  5
44F
102
{ACAD_REACTORS
330
44E
102
}
330
44E
100
AcDbXrecord
280
     1
102
RTVSPropertyOp0
 70
     1
102
RTVSPropertyOp1
 70
     1
102
RTVSPropertyOp2
 70
     1
102
RTVSPropertyOp3
 70
     1
102
RTVSPropertyOp4
 70
     1
102
RTVSPropertyOp5
 70
     1
102
RTVSPropertyOp6
 70
     1
102
RTVSPropertyOp7
 70
     1
102
RTVSPropertyOp8
 70
     1
102
RTVSPropertyOp9
 70
     1
102
RTVSPropertyOp10
 70
     1
102
RTVSPropertyOp11
 70
     1
102
RTVSPropertyOp12
 70
     1
102
RTVSPropertyOp13
 70
     1
102
RTVSPropertyOp14
 70
     1
102
RTVSPropertyOp15
 70
     1
102
RTVSPropertyOp16
 70
     1
102
RTVSPropertyOp17
 70
     1
102
RTVSPropertyOp18
 70
     1
102
RTVSPropertyOp19
 70
     1
102
RTVSPropertyOp20
 70
     1
102
RTVSPropertyOp21
 70
     1
102
RTVSPropertyOp22
 70
     1
102
RTVSPropertyOp23
 70
     1
102
RTVSPropertyOp24
 70
     1
102
RTVSPropertyOp25
 70
     1
102
RTVSPropertyOp26
 70
     1
102
RTVSPropertyOp27
 70
     1
102
RTVSPropertyOp28
 70
     1
102
RTVSPropertyOp29
 70
     1
102
RTVSPropertyOp30
 70
     1
102
RTVSPropertyOp31
 70
     1
102
RTVSPropertyOp32
 70
     1
  0
XRECORD
  5
463
102
{ACAD_REACTORS
330
462
102
}
330
462
100
AcDbXrecord
280
     1
102
RTVSPropertyOp0
 70
     1
102
RTVSPropertyOp1
 70
     1
102
RTVSPropertyOp2
 70
     1
102
RTVSPropertyOp3
 70
     1
102
RTVSPropertyOp4
 70
     1
102
RTVSPropertyOp5
 70
     1
102
RTVSPropertyOp6
 70
     1
102
RTVSPropertyOp7
 70
     1
102
RTVSPropertyOp8
 70
     1
102
RTVSPropertyOp9
 70
     1
102
RTVSPropertyOp10
 70
     1
102
RTVSPropertyOp11
 70
     1
102
RTVSPropertyOp12
 70
     1
102
RTVSPropertyOp13
 70
     1
102
RTVSPropertyOp14
 70
     1
102
RTVSPropertyOp15
 70
     1
102
RTVSPropertyOp16
 70
     1
102
RTVSPropertyOp17
 70
     1
102
RTVSPropertyOp18
 70
     1
102
RTVSPropertyOp19
 70
     1
102
RTVSPropertyOp20
 70
     1
102
RTVSPropertyOp21
 70
     1
102
RTVSPropertyOp22
 70
     1
102
RTVSPropertyOp23
 70
     1
102
RTVSPropertyOp24
 70
     1
102
RTVSPropertyOp25
 70
     1
102
RTVSPropertyOp26
 70
     1
102
RTVSPropertyOp27
 70
     1
102
RTVSPropertyOp28
 70
     1
102
RTVSPropertyOp29
 70
     1
102
RTVSPropertyOp30
 70
     1
102
RTVSPropertyOp31
 70
     1
102
RTVSPropertyOp32
 70
     1
  0
XRECORD
  5
459
102
{ACAD_REACTORS
330
458
102
}
330
458
100
AcDbXrecord
280
     1
102
RTVSPropertyOp0
 70
     1
102
RTVSPropertyOp1
 70
     1
102
RTVSPropertyOp2
 70
     1
102
RTVSPropertyOp3
 70
     1
102
RTVSPropertyOp4
 70
     1
102
RTVSPropertyOp5
 70
     1
102
RTVSPropertyOp6
 70
     1
102
RTVSPropertyOp7
 70
     1
102
RTVSPropertyOp8
 70
     1
102
RTVSPropertyOp9
 70
     1
102
RTVSPropertyOp10
 70
     1
102
RTVSPropertyOp11
 70
     1
102
RTVSPropertyOp12
 70
     1
102
RTVSPropertyOp13
 70
     1
102
RTVSPropertyOp14
 70
     1
102
RTVSPropertyOp15
 70
     1
102
RTVSPropertyOp16
 70
     1
102
RTVSPropertyOp17
 70
     1
102
RTVSPropertyOp18
 70
     1
102
RTVSPropertyOp19
 70
     1
102
RTVSPropertyOp20
 70
     1
102
RTVSPropertyOp21
 70
     1
102
RTVSPropertyOp22
 70
     1
102
RTVSPropertyOp23
 70
     1
102
RTVSPropertyOp24
 70
     1
102
RTVSPropertyOp25
 70
     1
102
RTVSPropertyOp26
 70
     1
102
RTVSPropertyOp27
 70
     1
102
RTVSPropertyOp28
 70
     1
102
RTVSPropertyOp29
 70
     1
102
RTVSPropertyOp30
 70
     1
102
RTVSPropertyOp31
 70
     1
102
RTVSPropertyOp32
 70
     1
  0
XRECORD
  5
461
102
{ACAD_REACTORS
330
460
102
}
330
460
100
AcDbXrecord
280
     1
102
RTVSPropertyOp0
 70
     1
102
RTVSPropertyOp1
 70
     1
102
RTVSPropertyOp2
 70
     1
102
RTVSPropertyOp3
 70
     1
102
RTVSPropertyOp4
 70
     1
102
RTVSPropertyOp5
 70
     1
102
RTVSPropertyOp6
 70
     1
102
RTVSPropertyOp7
 70
     1
102
RTVSPropertyOp8
 70
     1
102
RTVSPropertyOp9
 70
     1
102
RTVSPropertyOp10
 70
     1
102
RTVSPropertyOp11
 70
     1
102
RTVSPropertyOp12
 70
     1
102
RTVSPropertyOp13
 70
     1
102
RTVSPropertyOp14
 70
     1
102
RTVSPropertyOp15
 70
     1
102
RTVSPropertyOp16
 70
     1
102
RTVSPropertyOp17
 70
     1
102
RTVSPropertyOp18
 70
     1
102
RTVSPropertyOp19
 70
     1
102
RTVSPropertyOp20
 70
     1
102
RTVSPropertyOp21
 70
     1
102
RTVSPropertyOp22
 70
     1
102
RTVSPropertyOp23
 70
     1
102
RTVSPropertyOp24
 70
     1
102
RTVSPropertyOp25
 70
     1
102
RTVSPropertyOp26
 70
     1
102
RTVSPropertyOp27
 70
     1
102
RTVSPropertyOp28
 70
     1
102
RTVSPropertyOp29
 70
     1
102
RTVSPropertyOp30
 70
     1
102
RTVSPropertyOp31
 70
     1
102
RTVSPropertyOp32
 70
     1
  0
ENDSEC
  0
EOF
