  0
SECTION
  2
HEADER
  9
$ACADVER
  1
AC1018
  9
$ACADMAINTVER
 70
     0
  9
$DWGCODEPAGE
  3
ANSI_1252
  9
$INSBASE
 10
0.0
 20
0.0
 30
0.0
  9
$EXTMIN
 10
-230.2398765889432
 20
-1.10347261104408
 30
0.0
  9
$EXTMAX
 10
66.7601234110549
 20
208.896527388956
 30
0.0
  9
$LIMMIN
 10
0.0
 20
0.0
  9
$LIMMAX
 10
12.0
 20
9.0
  9
$ORTHOMODE
 70
     0
  9
$REGENMODE
 70
     1
  9
$FILLMODE
 70
     1
  9
$QTEXTMODE
 70
     0
  9
$MIRRTEXT
 70
     1
  9
$LTSCALE
 40
1.0
  9
$ATTMODE
 70
     1
  9
$TEXTSIZE
 40
0.2
  9
$TRACEWID
 40
0.05
  9
$TEXTSTYLE
  7
Standard
  9
$CLAYER
  8
0
  9
$CELTYPE
  6
ByLayer
  9
$CECOLOR
 62
   256
  9
$CELTSCALE
 40
1.0
  9
$DISPSILH
 70
     0
  9
$DIMSCALE
 40
1.0
  9
$DIMASZ
 40
0.18
  9
$DIMEXO
 40
0.0625
  9
$DIMDLI
 40
0.38
  9
$DIMRND
 40
0.0
  9
$DIMDLE
 40
0.0
  9
$DIMEXE
 40
0.18
  9
$DIMTP
 40
0.0
  9
$DIMTM
 40
0.0
  9
$DIMTXT
 40
0.18
  9
$DIMCEN
 40
0.09
  9
$DIMTSZ
 40
0.0
  9
$DIMTOL
 70
     0
  9
$DIMLIM
 70
     0
  9
$DIMTIH
 70
     1
  9
$DIMTOH
 70
     1
  9
$DIMSE1
 70
     0
  9
$DIMSE2
 70
     0
  9
$DIMTAD
 70
     0
  9
$DIMZIN
 70
     0
  9
$DIMBLK
  1

  9
$DIMASO
 70
     1
  9
$DIMSHO
 70
     1
  9
$DIMPOST
  1

  9
$DIMAPOST
  1

  9
$DIMALT
 70
     0
  9
$DIMALTD
 70
     2
  9
$DIMALTF
 40
25.4
  9
$DIMLFAC
 40
1.0
  9
$DIMTOFL
 70
     0
  9
$DIMTVP
 40
0.0
  9
$DIMTIX
 70
     0
  9
$DIMSOXD
 70
     0
  9
$DIMSAH
 70
     0
  9
$DIMBLK1
  1

  9
$DIMBLK2
  1

  9
$DIMSTYLE
  2
Standard
  9
$DIMCLRD
 70
     0
  9
$DIMCLRE
 70
     0
  9
$DIMCLRT
 70
     0
  9
$DIMTFAC
 40
1.0
  9
$DIMGAP
 40
0.09
  9
$DIMJUST
 70
     0
  9
$DIMSD1
 70
     0
  9
$DIMSD2
 70
     0
  9
$DIMTOLJ
 70
     1
  9
$DIMTZIN
 70
     0
  9
$DIMALTZ
 70
     0
  9
$DIMALTTZ
 70
     0
  9
$DIMUPT
 70
     0
  9
$DIMDEC
 70
     4
  9
$DIMTDEC
 70
     4
  9
$DIMALTU
 70
     2
  9
$DIMALTTD
 70
     2
  9
$DIMTXSTY
  7
Standard
  9
$DIMAUNIT
 70
     0
  9
$DIMADEC
 70
     0
  9
$DIMALTRND
 40
0.0
  9
$DIMAZIN
 70
     0
  9
$DIMDSEP
 70
    46
  9
$DIMATFIT
 70
     3
  9
$DIMFRAC
 70
     0
  9
$DIMLDRBLK
  1

  9
$DIMLUNIT
 70
     2
  9
$DIMLWD
 70
    -2
  9
$DIMLWE
 70
    -2
  9
$DIMTMOVE
 70
     0
  9
$LUNITS
 70
     2
  9
$LUPREC
 70
     4
  9
$SKETCHINC
 40
0.1
  9
$FILLETRAD
 40
0.5
  9
$AUNITS
 70
     0
  9
$AUPREC
 70
     0
  9
$MENU
  1
.
  9
$ELEVATION
 40
0.0
  9
$PELEVATION
 40
0.0
  9
$THICKNESS
 40
0.0
  9
$LIMCHECK
 70
     0
  9
$CHAMFERA
 40
0.5
  9
$CHAMFERB
 40
0.5
  9
$CHAMFERC
 40
1.0
  9
$CHAMFERD
 40
0.0
  9
$SKPOLY
 70
     0
  9
$TDCREATE
 40
2458128.512454572
  9
$TDUCREATE
 40
2458128.470787905
  9
$TDUPDATE
 40
2458128.512455208
  9
$TDUUPDATE
 40
2458128.470788542
  9
$TDINDWG
 40
0.0000000116
  9
$TDUSRTIMER
 40
0.0000000116
  9
$USRTIMER
 70
     1
  9
$ANGBASE
 50
0.0
  9
$ANGDIR
 70
     0
  9
$PDMODE
 70
     0
  9
$PDSIZE
 40
0.0
  9
$PLINEWID
 40
0.0
  9
$SPLFRAME
 70
     0
  9
$SPLINETYPE
 70
     6
  9
$SPLINESEGS
 70
     8
  9
$HANDSEED
  5
4D9
  9
$SURFTAB1
 70
     6
  9
$SURFTAB2
 70
     6
  9
$SURFTYPE
 70
     6
  9
$SURFU
 70
     6
  9
$SURFV
 70
     6
  9
$UCSBASE
  2

  9
$UCSNAME
  2

  9
$UCSORG
 10
0.0
 20
0.0
 30
0.0
  9
$UCSXDIR
 10
1.0
 20
0.0
 30
0.0
  9
$UCSYDIR
 10
0.0
 20
1.0
 30
0.0
  9
$UCSORTHOREF
  2

  9
$UCSORTHOVIEW
 70
     0
  9
$UCSORGTOP
 10
0.0
 20
0.0
 30
0.0
  9
$UCSORGBOTTOM
 10
0.0
 20
0.0
 30
0.0
  9
$UCSORGLEFT
 10
0.0
 20
0.0
 30
0.0
  9
$UCSORGRIGHT
 10
0.0
 20
0.0
 30
0.0
  9
$UCSORGFRONT
 10
0.0
 20
0.0
 30
0.0
  9
$UCSORGBACK
 10
0.0
 20
0.0
 30
0.0
  9
$PUCSBASE
  2

  9
$PUCSNAME
  2

  9
$PUCSORG
 10
0.0
 20
0.0
 30
0.0
  9
$PUCSXDIR
 10
1.0
 20
0.0
 30
0.0
  9
$PUCSYDIR
 10
0.0
 20
1.0
 30
0.0
  9
$PUCSORTHOREF
  2

  9
$PUCSORTHOVIEW
 70
     0
  9
$PUCSORGTOP
 10
0.0
 20
0.0
 30
0.0
  9
$PUCSORGBOTTOM
 10
0.0
 20
0.0
 30
0.0
  9
$PUCSORGLEFT
 10
0.0
 20
0.0
 30
0.0
  9
$PUCSORGRIGHT
 10
0.0
 20
0.0
 30
0.0
  9
$PUCSORGFRONT
 10
0.0
 20
0.0
 30
0.0
  9
$PUCSORGBACK
 10
0.0
 20
0.0
 30
0.0
  9
$USERI1
 70
     0
  9
$USERI2
 70
     0
  9
$USERI3
 70
     0
  9
$USERI4
 70
     0
  9
$USERI5
 70
     0
  9
$USERR1
 40
18.1
  9
$USERR2
 40
0.0
  9
$USERR3
 40
0.0
  9
$USERR4
 40
0.0
  9
$USERR5
 40
0.0
  9
$WORLDVIEW
 70
     1
  9
$SHADEDGE
 70
     3
  9
$SHADEDIF
 70
    70
  9
$TILEMODE
 70
     1
  9
$MAXACTVP
 70
    64
  9
$PINSBASE
 10
0.0
 20
0.0
 30
0.0
  9
$PLIMCHECK
 70
     0
  9
$PEXTMIN
 10
1.00000000000000E+20
 20
1.00000000000000E+20
 30
1.00000000000000E+20
  9
$PEXTMAX
 10
-1.00000000000000E+20
 20
-1.00000000000000E+20
 30
-1.00000000000000E+20
  9
$PLIMMIN
 10
0.0
 20
0.0
  9
$PLIMMAX
 10
12.0
 20
9.0
  9
$UNITMODE
 70
     0
  9
$VISRETAIN
 70
     1
  9
$PLINEGEN
 70
     0
  9
$PSLTSCALE
 70
     1
  9
$TREEDEPTH
 70
  3020
  9
$CMLSTYLE
  2
Standard
  9
$CMLJUST
 70
     0
  9
$CMLSCALE
 40
1.0
  9
$PROXYGRAPHICS
 70
     1
  9
$MEASUREMENT
 70
     1
  9
$CELWEIGHT
370
    -1
  9
$ENDCAPS
280
     0
  9
$JOINSTYLE
280
     0
  9
$LWDISPLAY
290
     0
  9
$INSUNITS
 70
     4
  9
$HYPERLINKBASE
  1

  9
$STYLESHEET
  1

  9
$XEDIT
290
     1
  9
$CEPSNTYPE
380
     0
  9
$PSTYLEMODE
290
     1
  9
$FINGERPRINTGUID
  2
{9A5387FF-7C26-453B-B14E-2226CFB6C143}
  9
$VERSIONGUID
  2
{FAEB1C32-E019-11D5-929B-00C0DF256EC4}
  9
$EXTNAMES
290
     1
  9
$PSVPSCALE
 40
0.0
  9
$OLESTARTUP
290
     0
  9
$SORTENTS
280
   127
  9
$INDEXCTL
280
     0
  9
$HIDETEXT
280
     1
  9
$XCLIPFRAME
290
     0
  9
$HALOGAP
280
     0
  9
$OBSCOLOR
 70
   257
  9
$OBSLTYPE
280
     0
  9
$INTERSECTIONDISPLAY
280
     0
  9
$INTERSECTIONCOLOR
 70
   257
  9
$DIMASSOC
280
     2
  9
$PROJECTNAME
  1

  0
ENDSEC
  0
SECTION
  2
CLASSES
  0
CLASS
  1
ACDBDICTIONARYWDFLT
  2
AcDbDictionaryWithDefault
  3
ObjectDBX Classes
 90
        0
 91
        4
280
     0
281
     0
  0
CLASS
  1
VISUALSTYLE
  2
AcDbVisualStyle
  3
ObjectDBX Classes
 90
     4095
 91
        4
280
     0
281
     0
  0
CLASS
  1
MATERIAL
  2
AcDbMaterial
  3
ObjectDBX Classes
 90
     1153
 91
        4
280
     0
281
     0
  0
ENDSEC
  0
SECTION
  2
TABLES
  0
TABLE
  2
VPORT
  5
8
330
0
100
AcDbSymbolTable
 70
     1
  0
VPORT
  5
29
330
8
100
AcDbSymbolTableRecord
100
AcDbViewportTableRecord
  2
*Active
 70
     0
 10
0.0
 20
0.0
 11
1.0
 21
1.0
 12
-81.73987658894414
 22
103.896527388956
 13
0.0
 23
0.0
 14
0.5
 24
0.5
 15
0.5
 25
0.5
 16
0.0
 26
0.0
 36
1.0
 17
0.0
 27
0.0
 37
0.0
 40
231.0000000000001
 41
1.60267857142857
 42
50.0
 43
0.0
 44
0.0
 50
0.0
 51
0.0
 71
     0
 72
   100
 73
     1
 74
     3
 75
     0
 76
     0
 77
     0
 78
     0
281
     0
 65
     1
110
0.0
120
0.0
130
0.0
111
1.0
121
0.0
131
0.0
112
0.0
122
1.0
132
0.0
 79
     0
146
0.0
  0
ENDTAB
  0
TABLE
  2
LTYPE
  5
5
330
0
100
AcDbSymbolTable
 70
     8
  0
LTYPE
  5
14
330
5
100
AcDbSymbolTableRecord
100
AcDbLinetypeTableRecord
  2
ByBlock
 70
     0
  3

 72
    65
 73
     0
 40
0.0
  0
LTYPE
  5
15
330
5
100
AcDbSymbolTableRecord
100
AcDbLinetypeTableRecord
  2
ByLayer
 70
     0
  3

 72
    65
 73
     0
 40
0.0
  0
LTYPE
  5
16
330
5
100
AcDbSymbolTableRecord
100
AcDbLinetypeTableRecord
  2
Continuous
 70
     0
  3
Solid line
 72
    65
 73
     0
 40
0.0
  0
LTYPE
  5
3F
330
5
100
AcDbSymbolTableRecord
100
AcDbLinetypeTableRecord
  2
DASHED
 70
     0
  3
Dashed
 72
    65
 73
     2
 40
15.0
 49
7.0
 74
     0
 49
-8.0
 74
     0
  0
LTYPE
  5
40
330
5
100
AcDbSymbolTableRecord
100
AcDbLinetypeTableRecord
  2
DOTTED
 70
     0
  3
Dotted
 72
    65
 73
     2
 40
1.0
 49
0.0
 74
     0
 49
-1.0
 74
     0
  0
LTYPE
  5
41
330
5
100
AcDbSymbolTableRecord
100
AcDbLinetypeTableRecord
  2
DOT_CENTER
 70
     0
  3
Dot_Center
 72
    65
 73
     4
 40
14.0
 49
12.0
 74
     0
 49
-1.0
 74
     0
 49
0.0
 74
     0
 49
-1.0
 74
     0
  0
LTYPE
  5
42
330
5
100
AcDbSymbolTableRecord
100
AcDbLinetypeTableRecord
  2
LONG_DASHED
 70
     0
  3
Long_Dashed
 72
    65
 73
     2
 40
15.0
 49
10.0
 74
     0
 49
-5.0
 74
     0
  0
LTYPE
  5
43
330
5
100
AcDbSymbolTableRecord
100
AcDbLinetypeTableRecord
  2
DASH_CENTER
 70
     0
  3
Dash_Center
 72
    65
 73
     4
 40
14.0
 49
11.0
 74
     0
 49
-1.0
 74
     0
 49
1.0
 74
     0
 49
-1.0
 74
     0
  0
LTYPE
  5
44
330
5
100
AcDbSymbolTableRecord
100
AcDbLinetypeTableRecord
  2
PHANTOM
 70
     0
  3
Phantom
 72
    65
 73
     6
 40
13.0
 49
10.0
 74
     0
 49
-1.0
 74
     0
 49
0.0
 74
     0
 49
-1.0
 74
     0
 49
0.0
 74
     0
 49
-1.0
 74
     0
  0
LTYPE
  5
45
330
5
100
AcDbSymbolTableRecord
100
AcDbLinetypeTableRecord
  2
CENTER_DASH_DASH
 70
     0
  3
Center_Dash_Dash
 72
    65
 73
     6
 40
14.0
 49
9.0
 74
     0
 49
-1.0
 74
     0
 49
1.0
 74
     0
 49
-1.0
 74
     0
 49
1.0
 74
     0
 49
-1.0
 74
     0
  0
ENDTAB
  0
TABLE
  2
LAYER
  5
2
330
0
100
AcDbSymbolTable
 70
     2
  0
LAYER
  5
10
330
2
100
AcDbSymbolTableRecord
100
AcDbLayerTableRecord
  2
0
 70
     0
 62
     7
  6
Continuous
370
    -3
390
F
  0
LAYER
  5
46
330
2
100
AcDbSymbolTableRecord
100
AcDbLayerTableRecord
  2
1
 70
     0
 62
     7
  6
Continuous
370
    -3
390
F
  0
ENDTAB
  0
TABLE
  2
STYLE
  5
3
330
0
100
AcDbSymbolTable
 70
     5
  0
STYLE
  5
11
330
3
100
AcDbSymbolTableRecord
100
AcDbTextStyleTableRecord
  2
Standard
 70
     0
 40
0.0
 41
1.0
 50
0.0
 71
     0
 42
0.2
  3
txt
  4

  0
STYLE
  5
17E
330
3
100
AcDbSymbolTableRecord
100
AcDbTextStyleTableRecord
  2
CONVERTER_11
 70
     0
 40
0.0
 41
0.9
 50
0.0
 71
     0
 42
0.2
  3
txt.shx
  4

  0
STYLE
  5
474
330
3
100
AcDbSymbolTableRecord
100
AcDbTextStyleTableRecord
  2
CONVERTER_12
 70
     0
 40
0.0
 41
0.81
 50
0.0
 71
     0
 42
0.2
  3
txt.shx
  4

  0
STYLE
  5
48A
330
3
100
AcDbSymbolTableRecord
100
AcDbTextStyleTableRecord
  2
CONVERTER_13
 70
     0
 40
0.0
 41
0.72
 50
0.0
 71
     0
 42
0.2
  3
txt.shx
  4

  0
STYLE
  5
48D
330
3
100
AcDbSymbolTableRecord
100
AcDbTextStyleTableRecord
  2
CONVERTER_14
 70
     0
 40
0.0
 41
0.855
 50
0.0
 71
     0
 42
0.2
  3
txt.shx
  4

  0
ENDTAB
  0
TABLE
  2
VIEW
  5
6
330
0
100
AcDbSymbolTable
 70
     0
  0
ENDTAB
  0
TABLE
  2
UCS
  5
7
330
0
100
AcDbSymbolTable
 70
     0
  0
ENDTAB
  0
TABLE
  2
APPID
  5
9
330
0
100
AcDbSymbolTable
 70
     1
  0
APPID
  5
12
330
9
100
AcDbSymbolTableRecord
100
AcDbRegAppTableRecord
  2
ACAD
 70
     0
  0
ENDTAB
  0
TABLE
  2
DIMSTYLE
  5
A
330
0
100
AcDbSymbolTable
 70
     5
100
AcDbDimStyleTable
  0
DIMSTYLE
105
27
330
A
100
AcDbSymbolTableRecord
100
AcDbDimStyleTableRecord
  2
Standard
 70
     0
178
     0
340
11
  0
DIMSTYLE
105
1DC
102
{ACAD_REACTORS
330
1DD
102
}
330
A
100
AcDbSymbolTableRecord
100
AcDbDimStyleTableRecord
  2
ME10_DIM_10
 70
     0
 41
3.5
 42
0.0
 44
1.5
 73
     0
 74
     0
 77
     1
 78
     8
140
3.5
147
1.5
172
     1
173
     1
174
     1
175
     1
176
     2
177
     2
178
     3
340
17E
  0
DIMSTYLE
105
360
102
{ACAD_REACTORS
330
361
102
}
330
A
100
AcDbSymbolTableRecord
100
AcDbDimStyleTableRecord
  2
ME10_DIM_11
 70
     0
 41
3.5
 42
0.0
 44
1.5
 73
     0
 74
     0
 77
     1
 78
     8
140
3.5
147
1.5
172
     1
173
     1
174
     1
175
     1
176
     2
177
     2
178
     3
340
17E
  0
DIMSTYLE
105
36B
102
{ACAD_REACTORS
330
36C
102
}
330
A
100
AcDbSymbolTableRecord
100
AcDbDimStyleTableRecord
  2
ME10_DIM_12
 70
     0
 41
3.5
 42
0.0
 44
1.5
 73
     0
 74
     0
 77
     1
 78
     8
140
3.5
147
1.5
172
     1
173
     1
174
     1
175
     1
176
     2
177
     2
271
     2
178
     3
271
     2
340
17E
  0
DIMSTYLE
105
376
102
{ACAD_REACTORS
330
377
102
}
330
A
100
AcDbSymbolTableRecord
100
AcDbDimStyleTableRecord
  2
ME10_DIM_13
 70
     0
 41
3.5
 42
0.0
 44
1.5
 73
     0
 74
     0
 77
     1
 78
     8
140
3.5
147
1.5
172
     1
173
     1
174
     1
175
     1
176
     2
177
     2
271
     2
178
     3
271
     2
340
17E
  0
ENDTAB
  0
TABLE
  2
BLOCK_RECORD
  5
1
330
0
100
AcDbSymbolTable
 70
    21
  0
BLOCK_RECORD
  5
1F
330
1
100
AcDbSymbolTableRecord
100
AcDbBlockTableRecord
  2
*Model_Space
340
22
  0
BLOCK_RECORD
  5
1B
330
1
100
AcDbSymbolTableRecord
100
AcDbBlockTableRecord
  2
*Paper_Space
340
1E
  0
BLOCK_RECORD
  5
23
330
1
100
AcDbSymbolTableRecord
100
AcDbBlockTableRecord
  2
*Paper_Space0
340
26
  0
BLOCK_RECORD
  5
47
330
1
100
AcDbSymbolTableRecord
100
AcDbBlockTableRecord
  2
PP_H_4_1_L_GNYE-select__1
340
0
102
{BLKREFS
331
4B
102
}
  0
BLOCK_RECORD
  5
4A
330
1
100
AcDbSymbolTableRecord
100
AcDbBlockTableRecord
  2
Allg1
340
0
102
{BLKREFS
331
7D
102
}
  0
BLOCK_RECORD
  5
4E
330
1
100
AcDbSymbolTableRecord
100
AcDbBlockTableRecord
  2
PP_H_4_1_L_GNYE-select__2
340
0
102
{BLKREFS
331
52
102
}
  0
BLOCK_RECORD
  5
51
330
1
100
AcDbSymbolTableRecord
100
AcDbBlockTableRecord
  2
Drfsicht1
340
0
102
{BLKREFS
331
7E
102
}
  0
BLOCK_RECORD
  5
55
330
1
100
AcDbSymbolTableRecord
100
AcDbBlockTableRecord
  2
PP_H_4_1_L_GNYE-select__3
340
0
102
{BLKREFS
331
59
102
}
  0
BLOCK_RECORD
  5
58
330
1
100
AcDbSymbolTableRecord
100
AcDbBlockTableRecord
  2
Rckans1
340
0
102
{BLKREFS
331
7F
102
}
  0
BLOCK_RECORD
  5
5C
330
1
100
AcDbSymbolTableRecord
100
AcDbBlockTableRecord
  2
PP_H_4_1_L_GNYE-select__4
340
0
102
{BLKREFS
331
60
102
}
  0
BLOCK_RECORD
  5
5F
330
1
100
AcDbSymbolTableRecord
100
AcDbBlockTableRecord
  2
SA_Links1
340
0
102
{BLKREFS
331
80
102
}
  0
BLOCK_RECORD
  5
63
330
1
100
AcDbSymbolTableRecord
100
AcDbBlockTableRecord
  2
PP_H_4_1_L_GNYE-select__5
340
0
102
{BLKREFS
331
67
102
}
  0
BLOCK_RECORD
  5
66
330
1
100
AcDbSymbolTableRecord
100
AcDbBlockTableRecord
  2
SA_Rechts1
340
0
102
{BLKREFS
331
81
102
}
  0
BLOCK_RECORD
  5
6A
330
1
100
AcDbSymbolTableRecord
100
AcDbBlockTableRecord
  2
PP_H_4_1_L_GNYE-select__6
340
0
102
{BLKREFS
331
6E
102
}
  0
BLOCK_RECORD
  5
6D
330
1
100
AcDbSymbolTableRecord
100
AcDbBlockTableRecord
  2
Vordans1
340
0
102
{BLKREFS
331
82
102
}
  0
BLOCK_RECORD
  5
71
330
1
100
AcDbSymbolTableRecord
100
AcDbBlockTableRecord
  2
_rahmen
340
0
102
{BLKREFS
331
78
102
}
  0
BLOCK_RECORD
  5
74
330
1
100
AcDbSymbolTableRecord
100
AcDbBlockTableRecord
  2
_punkt
340
0
102
{BLKREFS
331
79
102
}
  0
BLOCK_RECORD
  5
77
330
1
100
AcDbSymbolTableRecord
100
AcDbBlockTableRecord
  2
A4I_CS
340
0
102
{BLKREFS
331
83
102
}
  0
BLOCK_RECORD
  5
7C
330
1
100
AcDbSymbolTableRecord
100
AcDbBlockTableRecord
  2
1
340
0
102
{BLKREFS
331
86
102
}
  0
BLOCK_RECORD
  5
1D1
330
1
100
AcDbSymbolTableRecord
100
AcDbBlockTableRecord
  2
*D17
340
0
  0
BLOCK_RECORD
  5
357
330
1
100
AcDbSymbolTableRecord
100
AcDbBlockTableRecord
  2
*D18
340
0
  0
BLOCK_RECORD
  5
362
330
1
100
AcDbSymbolTableRecord
100
AcDbBlockTableRecord
  2
*D19
340
0
  0
BLOCK_RECORD
  5
36D
330
1
100
AcDbSymbolTableRecord
100
AcDbBlockTableRecord
  2
*D20
340
0
  0
ENDTAB
  0
ENDSEC
  0
SECTION
  2
BLOCKS
  0
BLOCK
  5
20
330
1F
100
AcDbEntity
  8
0
100
AcDbBlockBegin
  2
*Model_Space
 70
     0
 10
0.0
 20
0.0
 30
0.0
  3
*Model_Space
  1

  0
ENDBLK
  5
21
330
1F
100
AcDbEntity
  8
0
100
AcDbBlockEnd
  0
BLOCK
  5
1C
330
1B
100
AcDbEntity
 67
     1
  8
0
100
AcDbBlockBegin
  2
*Paper_Space
 70
     0
 10
0.0
 20
0.0
 30
0.0
  3
*Paper_Space
  1

  0
ENDBLK
  5
1D
330
1B
100
AcDbEntity
 67
     1
  8
0
100
AcDbBlockEnd
  0
BLOCK
  5
24
330
23
100
AcDbEntity
  8
0
100
AcDbBlockBegin
  2
*Paper_Space0
 70
     0
 10
0.0
 20
0.0
 30
0.0
  3
*Paper_Space0
  1

  0
ENDBLK
  5
25
330
23
100
AcDbEntity
  8
0
100
AcDbBlockEnd
  0
BLOCK
  5
48
330
47
100
AcDbEntity
  8
0
100
AcDbBlockBegin
  2
PP_H_4_1_L_GNYE-select__1
 70
     0
 10
-15.63076666568001
 20
56.08715248152592
 30
0.0
  3
PP_H_4_1_L_GNYE-select__1
  1

  0
LINE
  5
87
330
47
100
AcDbEntity
  8
0
  6
Continuous
 62
     7
100
AcDbLine
 10
4.56831177996804
 20
93.27552904451431
 30
0.0
 11
-11.49331142455407
 21
97.91212028464554
 31
0.0
  0
LINE
  5
88
330
47
100
AcDbEntity
  8
0
  6
Continuous
 62
     7
100
AcDbLine
 10
-8.44275581384174
 20
93.48079657721988
 30
0.0
 11
1.49331177947455
 21
90.61250092741292
 31
0.0
  0
LINE
  5
89
330
47
100
AcDbEntity
  8
0
  6
Continuous
 62
     2
100
AcDbLine
 10
-0.33663824313307
 20
74.01510963637399
 30
0.0
 11
-1.3049001178065
 21
73.1765702553563
 31
0.0
  0
LINE
  5
8A
330
47
100
AcDbEntity
  8
0
  6
Continuous
 62
     7
100
AcDbLine
 10
2.8557668139235
 20
72.92033659609831
 30
0.0
 11
2.85576681390028
 21
73.37499993307924
 31
0.0
  0
LINE
  5
8B
330
47
100
AcDbEntity
  8
0
  6
Continuous
 62
     7
100
AcDbLine
 10
0.86390838519508
 20
73.66854167685406
 30
0.0
 11
0.86390838519508
 21
73.06232389420495
 31
0.0
  0
LINE
  5
8C
330
47
100
AcDbEntity
  8
0
  6
Continuous
 62
     2
100
AcDbLine
 10
-1.27641154130075
 20
74.28195754639036
 30
0.0
 11
-1.64756528577986
 21
73.96052897496178
 31
0.0
  0
LINE
  5
8D
330
47
100
AcDbEntity
  8
0
  6
Continuous
 62
     7
100
AcDbLine
 10
-1.21455258388763
 20
74.26854167685401
 30
0.0
 11
0.86390838519508
 21
73.66854167685406
 31
0.0
  0
LINE
  5
8E
330
47
100
AcDbEntity
  8
0
  6
Continuous
 62
     2
100
AcDbLine
 10
-1.15209302017671
 20
74.25051115389303
 30
0.0
 11
-1.64756528577982
 21
73.82141958501018
 31
0.0
  0
LINE
  5
8F
330
47
100
AcDbEntity
  8
0
  6
Continuous
 62
     7
100
AcDbLine
 10
-1.5145525805961
 20
81.99781840519088
 30
0.0
 11
1.34333124871111
 21
81.17281840612013
 31
0.0
  0
LINE
  5
90
330
47
100
AcDbEntity
  8
0
  6
Continuous
 62
     7
100
AcDbLine
 10
1.8396970801487
 20
83.92515105818396
 30
0.0
 11
0.91995698603087
 21
84.07772727004206
 31
0.0
  0
LINE
  5
91
330
47
100
AcDbEntity
  8
0
  6
Continuous
 62
     7
100
AcDbLine
 10
0.91932805269394
 20
82.89616293277818
 30
0.0
 11
1.34333124871112
 21
81.50175416504804
 31
0.0
  0
LINE
  5
92
330
47
100
AcDbEntity
  8
0
  6
Continuous
 62
     7
100
AcDbLine
 10
1.42993378908996
 20
83.31870709436812
 30
0.0
 11
1.33011997082245
 21
83.34752086179012
 31
0.0
  0
LINE
  5
93
330
47
100
AcDbEntity
  8
0
  6
Continuous
 62
     7
100
AcDbLine
 10
-8.52073583585607
 20
89.38852163653756
 30
0.0
 11
-8.52073583585803
 21
89.24255824255616
 31
0.0
  0
LINE
  5
94
330
47
100
AcDbEntity
  8
0
  6
Continuous
 62
     7
100
AcDbLine
 10
-8.52073583585607
 20
89.38852163653756
 30
0.0
 11
-9.09412595933557
 21
88.89195122331847
 31
0.0
  0
LINE
  5
95
330
47
100
AcDbEntity
  8
0
  6
Continuous
 62
     7
100
AcDbLine
 10
1.49331177947455
 20
90.61250092741292
 30
0.0
 11
1.62416097567737
 21
89.5090468342614
 31
0.0
  0
LINE
  5
96
330
47
100
AcDbEntity
  8
0
  6
Continuous
 62
     7
100
AcDbLine
 10
-8.52073583585607
 20
89.38852163653756
 30
0.0
 11
-8.76138875918797
 21
89.87481524177215
 31
0.0
  0
LINE
  5
97
330
47
100
AcDbEntity
  8
0
  6
Continuous
 62
     7
100
AcDbLine
 10
0.25240416939028
 20
89.70721456883614
 30
0.0
 11
1.17214426327628
 21
89.55463835701678
 31
0.0
  0
LINE
  5
98
330
47
100
AcDbEntity
  8
0
  6
Continuous
 62
     7
100
AcDbLine
 10
1.20088413988398
 20
89.31227435787797
 30
0.0
 11
1.62416097567737
 21
89.5090468342614
 31
0.0
  0
LINE
  5
99
330
47
100
AcDbEntity
  8
0
  6
Continuous
 62
     7
100
AcDbLine
 10
1.17214426327628
 20
89.55463835701678
 30
0.0
 11
1.20088413988398
 21
89.31227435787797
 31
0.0
  0
LINE
  5
9A
330
47
100
AcDbEntity
  8
0
  6
Continuous
 62
     7
100
AcDbLine
 10
-4.26884657531315
 20
86.86323399138247
 30
0.0
 11
-2.51538560458793
 21
86.3570534096522
 31
0.0
  0
LINE
  5
9B
330
47
100
AcDbEntity
  8
0
  6
Continuous
 62
     7
100
AcDbLine
 10
-3.76394276694749
 20
92.9961649949813
 30
0.0
 11
-3.34720033647828
 21
93.3570745266094
 31
0.0
  0
LINE
  5
9C
330
47
100
AcDbEntity
  8
0
  6
Continuous
 62
     7
100
AcDbLine
 10
-4.64384657421829
 20
86.7549808162274
 30
0.0
 11
-4.26884657531315
 21
86.86323399138247
 31
0.0
  0
LINE
  5
9D
330
47
100
AcDbEntity
  8
0
  6
Continuous
 62
     7
100
AcDbLine
 10
-7.01381389803377
 20
87.43913145241437
 30
0.0
 11
-4.64384657421829
 21
86.7549808162274
 31
0.0
  0
LINE
  5
9E
330
47
100
AcDbEntity
  8
0
  6
Continuous
 62
     7
100
AcDbLine
 10
-7.0138138980549
 20
84.84105524147513
 30
0.0
 11
-7.01381389803377
 21
87.43913145241437
 31
0.0
  0
LINE
  5
9F
330
47
100
AcDbEntity
  8
0
  6
Continuous
 62
     7
100
AcDbLine
 10
-6.71381389812095
 20
87.35252891206119
 30
0.0
 11
-6.71381389813917
 21
85.10086286254108
 31
0.0
  0
LINE
  5
A0
330
47
100
AcDbEntity
  8
0
  6
Continuous
 62
     7
100
AcDbLine
 10
-7.0138138980549
 20
84.84105524147513
 30
0.0
 11
-6.71381389813917
 21
85.10086286254108
 31
0.0
  0
LINE
  5
A1
330
47
100
AcDbEntity
  8
0
  6
Continuous
 62
     7
100
AcDbLine
 10
-4.04002065957136
 20
93.12406182472313
 30
0.0
 11
-4.08176309003524
 21
93.087911819525
 31
0.0
  0
LINE
  5
A2
330
47
100
AcDbEntity
  8
0
  6
Continuous
 62
     7
100
AcDbLine
 10
-8.76138875918927
 20
91.03299215018421
 30
0.0
 11
-8.44275581384215
 21
90.94101074179797
 31
0.0
  0
LINE
  5
A3
330
47
100
AcDbEntity
  8
0
  6
Continuous
 62
     7
100
AcDbLine
 10
-8.76138875918797
 20
89.87481524177215
 30
0.0
 11
-8.76138875918927
 21
91.03299215018421
 31
0.0
  0
LINE
  5
A4
330
47
100
AcDbEntity
  8
0
  6
Continuous
 62
     7
100
AcDbLine
 10
-2.51538560458793
 20
86.3570534096522
 30
0.0
 11
-1.51455258059544
 21
84.33464415430537
 31
0.0
  0
LINE
  5
A5
330
47
100
AcDbEntity
  8
0
  6
Continuous
 62
     7
100
AcDbLine
 10
0.91995698603087
 20
84.07772727004206
 30
0.0
 11
0.25240416939028
 21
89.70721456883614
 31
0.0
  0
LINE
  5
A6
330
47
100
AcDbEntity
  8
0
  6
Continuous
 62
     7
100
AcDbLine
 10
1.34333124871112
 20
81.50175416504804
 30
0.0
 11
2.03452572469443
 21
82.10034614020495
 31
0.0
  0
LINE
  5
A7
330
47
100
AcDbEntity
  8
0
  6
Continuous
 62
     7
100
AcDbLine
 10
2.55576681401362
 20
81.86204889027152
 30
0.0
 11
2.29595919287706
 21
81.93704889027046
 31
0.0
  0
LINE
  5
A8
330
47
100
AcDbEntity
  8
0
  6
Continuous
 62
     7
100
AcDbLine
 10
2.55576681401371
 20
83.63635412026713
 30
0.0
 11
1.81095720353944
 21
84.16751505733035
 31
0.0
  0
LINE
  5
A9
330
47
100
AcDbEntity
  8
0
  6
Continuous
 62
     7
100
AcDbLine
 10
1.81095720353944
 20
84.16751505733035
 30
0.0
 11
1.8396970801487
 21
83.92515105818396
 31
0.0
  0
LINE
  5
AA
330
47
100
AcDbEntity
  8
0
  6
Continuous
 62
     7
100
AcDbLine
 10
1.86294649098485
 20
82.49506159216268
 30
0.0
 11
1.86294649098367
 21
82.7606943924772
 31
0.0
  0
LINE
  5
AB
330
47
100
AcDbEntity
  8
0
  6
Continuous
 62
     7
100
AcDbLine
 10
2.55576681401362
 20
81.86204889027152
 30
0.0
 11
2.55576681401371
 21
83.63635412026713
 31
0.0
  0
LINE
  5
AC
330
47
100
AcDbEntity
  8
0
  6
Continuous
 62
     7
100
AcDbLine
 10
-1.51455258059544
 20
84.33464415430537
 30
0.0
 11
-1.5145525805961
 21
81.99781840519088
 31
0.0
  0
LINE
  5
AD
330
47
100
AcDbEntity
  8
0
  6
Continuous
 62
     7
100
AcDbLine
 10
-3.15366974610631
 20
57.16139834744996
 30
0.0
 11
-1.73416782615746
 21
56.75162343965461
 31
0.0
  0
LINE
  5
AE
330
47
100
AcDbEntity
  8
0
  6
Continuous
 62
     7
100
AcDbLine
 10
-3.37866974611279
 20
56.96654263159015
 30
0.0
 11
-3.68407703544607
 21
58.78675692951241
 31
0.0
  0
LINE
  5
AF
330
47
100
AcDbEntity
  8
0
  6
Continuous
 62
     7
100
AcDbLine
 10
-1.9591678261487
 20
56.55676772379266
 30
0.0
 11
-3.37866974611279
 21
56.96654263159015
 31
0.0
  0
LINE
  5
B0
330
47
100
AcDbEntity
  8
0
  6
Continuous
 62
     7
100
AcDbLine
 10
0.06762709306391
 20
57.99240836986174
 30
0.0
 11
-2.13237290691725
 21
56.08715248152592
 31
0.0
  0
LINE
  5
B1
330
47
100
AcDbEntity
  8
0
  6
Continuous
 62
     7
100
AcDbLine
 10
-0.22104804153125
 20
57.20971629940975
 30
0.0
 11
0.06762709306391
 21
57.99240836986174
 31
0.0
  0
LINE
  5
B2
330
47
100
AcDbEntity
  8
0
  6
Continuous
 62
     7
100
AcDbLine
 10
-0.22104804153125
 20
57.20971629940975
 30
0.0
 11
0.10395195846544
 21
57.49117455564072
 31
0.0
  0
LINE
  5
B3
330
47
100
AcDbEntity
  8
0
  6
Continuous
 62
     7
100
AcDbLine
 10
-1.73416782615746
 20
56.75162343965461
 30
0.0
 11
-1.4743602050263
 21
57.45604630301492
 31
0.0
  0
LINE
  5
B4
330
47
100
AcDbEntity
  8
0
  6
Continuous
 62
     7
100
AcDbLine
 10
0.5658321738802
 20
58.74348186847795
 30
0.0
 11
-1.18416782612012
 21
57.22793741185516
 31
0.0
  0
LINE
  5
B5
330
47
100
AcDbEntity
  8
0
  6
Continuous
 62
     7
100
AcDbLine
 10
0.5658321738802
 20
58.74348186847795
 30
0.0
 11
0.10395195846544
 21
57.49117455564072
 31
0.0
  0
LINE
  5
B6
330
47
100
AcDbEntity
  8
0
  6
Continuous
 62
     7
100
AcDbLine
 10
-0.92436020503244
 20
57.932360275132
 30
0.0
 11
-1.4743602050263
 21
57.45604630301492
 31
0.0
  0
LINE
  5
B7
330
47
100
AcDbEntity
  8
0
  6
Continuous
 62
     7
100
AcDbLine
 10
-1.4743602050263
 20
67.58854352733678
 30
0.0
 11
-1.04134750313168
 21
67.4635435273361
 31
0.0
  0
LINE
  5
B8
330
47
100
AcDbEntity
  8
0
  6
Continuous
 62
     7
100
AcDbLine
 10
-1.69936020502682
 20
59.59945917742177
 30
0.0
 11
-1.69936020502639
 21
69.38554624018629
 31
0.0
  0
LINE
  5
B9
330
47
100
AcDbEntity
  8
0
  6
Continuous
 62
     7
100
AcDbLine
 10
-0.92436020503244
 20
67.56485749941156
 30
0.0
 11
-0.92436020503244
 21
57.932360275132
 31
0.0
  0
LINE
  5
BA
330
47
100
AcDbEntity
  8
0
  6
Continuous
 62
     7
100
AcDbLine
 10
-0.49134750313785
 20
67.9398574994188
 30
0.0
 11
-1.04134750313168
 21
67.4635435273361
 31
0.0
  0
LINE
  5
BB
330
47
100
AcDbEntity
  8
0
  6
Continuous
 62
     7
100
AcDbLine
 10
-1.4743602050263
 20
59.79431489327641
 30
0.0
 11
-1.69936020502682
 21
59.59945917742177
 31
0.0
  0
LINE
  5
BC
330
47
100
AcDbEntity
  8
0
  6
Continuous
 62
     7
100
AcDbLine
 10
-1.4743602050263
 20
57.45604630301492
 30
0.0
 11
-1.4743602050263
 21
59.79431489327641
 31
0.0
  0
LINE
  5
BD
330
47
100
AcDbEntity
  8
0
  6
Continuous
 62
     7
100
AcDbLine
 10
-0.92436020503244
 20
57.932360275132
 30
0.0
 11
-1.18416782612012
 21
57.22793741185516
 31
0.0
  0
LINE
  5
BE
330
47
100
AcDbEntity
  8
0
  6
Continuous
 62
     7
100
AcDbLine
 10
-0.68237290692914
 20
57.34288931702045
 30
0.0
 11
-0.22104804153125
 21
57.20971629940975
 31
0.0
  0
LINE
  5
BF
330
47
100
AcDbEntity
  8
0
  6
Continuous
 62
     7
100
AcDbLine
 10
-1.9591678261487
 20
56.55676772379266
 30
0.0
 11
-1.73416782615746
 21
56.75162343965461
 31
0.0
  0
LINE
  5
C0
330
47
100
AcDbEntity
  8
0
  6
Continuous
 62
     7
100
AcDbLine
 10
-2.13237290691725
 20
56.08715248152592
 30
0.0
 11
-1.9591678261487
 21
56.55676772379266
 31
0.0
  0
LINE
  5
C1
330
47
100
AcDbEntity
  8
0
  6
Continuous
 62
     7
100
AcDbLine
 10
-2.30557798769993
 20
59.77445917742625
 30
0.0
 11
-1.69936020502682
 21
59.59945917742177
 31
0.0
  0
LINE
  5
C2
330
47
100
AcDbEntity
  8
0
  6
Continuous
 62
     7
100
AcDbLine
 10
-3.37866974611279
 20
56.96654263159015
 30
0.0
 11
-3.15366974610631
 21
57.16139834744996
 31
0.0
  0
LINE
  5
C3
330
47
100
AcDbEntity
  8
0
  6
Continuous
 62
     7
100
AcDbLine
 10
-3.4590770354386
 20
58.98161264537307
 30
0.0
 11
-3.15366974610631
 21
57.16139834744996
 31
0.0
  0
LINE
  5
C4
330
47
100
AcDbEntity
  8
0
  6
Continuous
 62
     7
100
AcDbLine
 10
-3.68407703544607
 20
58.78675692951241
 30
0.0
 11
-3.4590770354386
 21
58.98161264537307
 31
0.0
  0
LINE
  5
C5
330
47
100
AcDbEntity
  8
0
  6
Continuous
 62
     7
100
AcDbLine
 10
-8.62756343532672
 20
59.26119058718309
 30
0.0
 11
-8.19455073343283
 21
57.83715248150702
 31
0.0
  0
LINE
  5
C6
330
47
100
AcDbEntity
  8
0
  6
Continuous
 62
     7
100
AcDbLine
 10
-8.63108883909306
 20
68.77460931846709
 30
0.0
 11
-8.63108883909307
 21
65.45428992068015
 31
0.0
  0
LINE
  5
C7
330
47
100
AcDbEntity
  8
0
  6
Continuous
 62
     7
100
AcDbLine
 10
-8.63108883909307
 20
65.45428992068015
 30
0.0
 11
-8.62756343532645
 21
65.45734300990064
 31
0.0
  0
LINE
  5
C8
330
47
100
AcDbEntity
  8
0
  6
Continuous
 62
     7
100
AcDbLine
 10
-8.63108883909306
 20
68.77460931846709
 30
0.0
 11
-8.62756343532631
 21
68.77766240768771
 31
0.0
  0
LINE
  5
C9
330
47
100
AcDbEntity
  8
0
  6
Continuous
 62
     7
100
AcDbLine
 10
-8.02134565268678
 20
60.0388185313507
 30
0.0
 11
-8.02134565268629
 21
71.21054624017042
 31
0.0
  0
LINE
  5
CA
330
47
100
AcDbEntity
  8
0
  6
Continuous
 62
     7
100
AcDbLine
 10
-8.02134565268678
 20
60.0388185313507
 30
0.0
 11
-7.79634565266426
 21
60.2336742472244
 31
0.0
  0
LINE
  5
CB
330
47
100
AcDbEntity
  8
0
  6
Continuous
 62
     7
100
AcDbLine
 10
-7.79634565266426
 20
73.05085022323465
 30
0.0
 11
-7.79634565266426
 21
60.2336742472244
 31
0.0
  0
LINE
  5
CC
330
47
100
AcDbEntity
  8
0
  6
Continuous
 62
     7
100
AcDbLine
 10
-13.99495664816402
 20
88.38329197075343
 30
0.0
 11
-13.32740383151931
 21
93.62736747116004
 31
0.0
  0
LINE
  5
CD
330
47
100
AcDbEntity
  8
0
  6
Continuous
 62
     7
100
AcDbLine
 10
-11.49331142455407
 20
97.91212028464554
 30
0.0
 11
-14.56831142488656
 21
95.24909216768359
 31
0.0
  0
LINE
  5
CE
330
47
100
AcDbEntity
  8
0
  6
Continuous
 62
     7
100
AcDbLine
 10
-9.06410154098526
 20
70.51563472225146
 30
0.0
 11
-8.62756343532622
 21
70.89368781147213
 31
0.0
  0
LINE
  5
CF
330
47
100
AcDbEntity
  8
0
  6
Continuous
 62
     2
100
AcDbLine
 10
-9.06410154098526
 20
71.03524996452214
 30
0.0
 11
-8.70256343522539
 21
71.34835114854629
 31
0.0
  0
LINE
  5
D0
330
47
100
AcDbEntity
  8
0
  6
Continuous
 62
     7
100
AcDbLine
 10
-8.63108883909306
 20
68.77460931846709
 30
0.0
 11
-9.06410154098526
 21
70.51563472225146
 31
0.0
  0
LINE
  5
D1
330
47
100
AcDbEntity
  8
0
  6
Continuous
 62
     7
100
AcDbLine
 10
-9.06410154098526
 20
70.51563472225146
 30
0.0
 11
-9.06410154098526
 21
71.03524996452214
 31
0.0
  0
LINE
  5
D2
330
47
100
AcDbEntity
  8
0
  6
Continuous
 62
     7
100
AcDbLine
 10
-8.70256343522421
 20
72.27322227912957
 30
0.0
 11
-8.70256343522425
 21
71.32059433496886
 31
0.0
  0
LINE
  5
D3
330
47
100
AcDbEntity
  8
0
  6
Continuous
 62
     7
100
AcDbLine
 10
-8.6275634353262
 20
71.29894369990399
 30
0.0
 11
-8.62756343532672
 21
59.26119058718309
 31
0.0
  0
LINE
  5
D4
330
47
100
AcDbEntity
  8
0
  6
Continuous
 62
     7
100
AcDbLine
 10
-10.9108697577545
 20
90.44623265775014
 30
0.0
 11
-10.91086975775318
 21
94.34334697473325
 31
0.0
  0
LINE
  5
D5
330
47
100
AcDbEntity
  8
0
  6
Continuous
 62
     7
100
AcDbLine
 10
-10.60781932356183
 20
73.51604260215561
 30
0.0
 11
-10.60781932356176
 21
75.16149086938668
 31
0.0
  0
LINE
  5
D6
330
47
100
AcDbEntity
  8
0
  6
Continuous
 62
     7
100
AcDbLine
 10
-10.3078193236331
 20
75.42129849046384
 30
0.0
 11
-10.3078193236331
 21
73.77585022323282
 31
0.0
  0
LINE
  5
D7
330
47
100
AcDbEntity
  8
0
  6
Continuous
 62
     7
100
AcDbLine
 10
-10.60781932356176
 20
75.16149086938668
 30
0.0
 11
-10.3078193236331
 21
75.42129849046384
 31
0.0
  0
LINE
  5
D8
330
47
100
AcDbEntity
  8
0
  6
Continuous
 62
     7
100
AcDbLine
 10
-10.60781932356183
 20
73.51604260215561
 30
0.0
 11
-10.3078193236331
 21
73.77585022323282
 31
0.0
  0
LINE
  5
D9
330
47
100
AcDbEntity
  8
0
  6
Continuous
 62
     7
100
AcDbLine
 10
-8.44275581384174
 20
93.48079657721988
 30
0.0
 11
-8.44275581378046
 21
89.5836822629079
 31
0.0
  0
LINE
  5
DA
330
47
100
AcDbEntity
  8
0
  6
Continuous
 62
     7
100
AcDbLine
 10
-8.44275581384174
 20
93.48079657721988
 30
0.0
 11
-8.31279369185232
 21
93.59334707639321
 31
0.0
  0
LINE
  5
DB
330
47
100
AcDbEntity
  8
0
  6
Continuous
 62
     7
100
AcDbLine
 10
-10.91086975775318
 20
94.34334697473325
 30
0.0
 11
-11.04083182807332
 21
94.23079652030613
 31
0.0
  0
LINE
  5
DC
330
47
100
AcDbEntity
  8
0
  6
Continuous
 62
     7
100
AcDbLine
 10
-10.91092821411876
 20
86.5289717536513
 30
0.0
 11
-10.91092821411892
 21
85.96605524124271
 31
0.0
  0
LINE
  5
DD
330
47
100
AcDbEntity
  8
0
  6
Continuous
 62
     7
100
AcDbLine
 10
-11.04083182807489
 20
90.33368220332274
 30
0.0
 11
-11.04083182807332
 21
94.23079652030613
 31
0.0
  0
LINE
  5
DE
330
47
100
AcDbEntity
  8
0
  6
Continuous
 62
     2
100
AcDbLine
 10
-10.9108697577545
 20
90.44623265775014
 30
0.0
 11
-11.04083182807489
 21
90.33368220332274
 31
0.0
  0
LINE
  5
DF
330
47
100
AcDbEntity
  8
0
  6
Continuous
 62
     7
100
AcDbLine
 10
-11.95326759059771
 20
75.89629849039859
 30
0.0
 11
-10.3078193236331
 21
75.42129849046384
 31
0.0
  0
LINE
  5
E0
330
47
100
AcDbEntity
  8
0
  6
Continuous
 62
     7
100
AcDbLine
 10
-12.25326759053208
 20
75.63649086931649
 30
0.0
 11
-11.95326759059771
 21
75.89629849039859
 31
0.0
  0
LINE
  5
E1
330
47
100
AcDbEntity
  8
0
  6
Continuous
 62
     7
100
AcDbLine
 10
-12.25326759053208
 20
75.63649086931649
 30
0.0
 11
-12.2532675904036
 21
86.9164717537895
 31
0.0
  0
LINE
  5
E2
330
47
100
AcDbEntity
  8
0
  6
Continuous
 62
     7
100
AcDbLine
 10
-14.15852347924074
 20
77.37727579954233
 30
0.0
 11
-14.15852347923713
 21
82.85488647848257
 31
0.0
  0
LINE
  5
E3
330
47
100
AcDbEntity
  8
0
  6
Continuous
 62
     7
100
AcDbLine
 10
-14.24714392559528
 20
94.00580345020146
 30
0.0
 11
-13.32740383151931
 21
93.62736747116004
 31
0.0
  0
LINE
  5
E4
330
47
100
AcDbEntity
  8
0
  6
Continuous
 62
     7
100
AcDbLine
 10
-14.24714392559528
 20
94.00580345020146
 30
0.0
 11
-14.27588380220523
 21
93.78003242654177
 31
0.0
  0
LINE
  5
E5
330
47
100
AcDbEntity
  8
0
  6
Continuous
 62
     7
100
AcDbLine
 10
-11.95326759047364
 20
86.82986921342741
 30
0.0
 11
-11.95326759059771
 21
75.89629849039859
 31
0.0
  0
LINE
  5
E6
330
47
100
AcDbEntity
  8
0
  6
Continuous
 62
     7
100
AcDbLine
 10
-14.56831142488656
 20
95.24909216768359
 30
0.0
 11
-11.04083182807332
 21
94.23079652030613
 31
0.0
  0
LINE
  5
E7
330
47
100
AcDbEntity
  8
0
  6
Continuous
 62
     7
100
AcDbLine
 10
-14.08989625162488
 20
93.94110237013422
 30
0.0
 11
-14.27588380220523
 21
93.78003242654177
 31
0.0
  0
LINE
  5
E8
330
47
100
AcDbEntity
  8
0
  6
Continuous
 62
     7
100
AcDbLine
 10
-10.60781932356176
 20
75.16149086938668
 30
0.0
 11
-12.25326759053208
 21
75.63649086931649
 31
0.0
  0
LINE
  5
E9
330
47
100
AcDbEntity
  8
0
  6
Continuous
 62
     7
100
AcDbLine
 10
-12.2532675904036
 20
86.9164717537895
 30
0.0
 11
-10.91092821411876
 21
86.5289717536513
 31
0.0
  0
LINE
  5
EA
330
47
100
AcDbEntity
  8
0
  6
Continuous
 62
     7
100
AcDbLine
 10
-14.69916062252835
 20
94.22118388188558
 30
0.0
 11
-14.56831142488656
 21
95.24909216768359
 31
0.0
  0
LINE
  5
EB
330
47
100
AcDbEntity
  8
0
  6
Continuous
 62
     7
100
AcDbLine
 10
-14.69916062252835
 20
94.22118388188558
 30
0.0
 11
-14.27588380220523
 21
93.78003242654177
 31
0.0
  0
LINE
  5
EC
330
47
100
AcDbEntity
  8
0
  6
Continuous
 62
     7
100
AcDbLine
 10
-14.91469674247011
 20
88.76172794988953
 30
0.0
 11
-13.8268573933833
 21
89.70382446144755
 31
0.0
  0
LINE
  5
ED
330
47
100
AcDbEntity
  8
0
  6
Continuous
 62
     7
100
AcDbLine
 10
-13.79811751679353
 20
89.92959548502982
 30
0.0
 11
-14.88595686586751
 21
88.98749897348239
 31
0.0
  0
LINE
  5
EE
330
47
100
AcDbEntity
  8
0
  6
Continuous
 62
     7
100
AcDbLine
 10
-14.91469674247011
 20
88.76172794988953
 30
0.0
 11
-13.99495664816402
 21
88.38329197075343
 31
0.0
  0
LINE
  5
EF
330
47
100
AcDbEntity
  8
0
  6
Continuous
 62
     7
100
AcDbLine
 10
-14.88595686586751
 20
88.98749897348239
 30
0.0
 11
-14.91469674247011
 21
88.76172794988953
 31
0.0
  0
LINE
  5
F0
330
47
100
AcDbEntity
  8
0
  6
Continuous
 62
     7
100
AcDbLine
 10
-13.72030538120029
 20
90.5408620451049
 30
0.0
 11
-15.63076666564156
 21
88.88635403980923
 31
0.0
  0
LINE
  5
F1
330
47
100
AcDbEntity
  8
0
  6
Continuous
 62
     7
100
AcDbLine
 10
-15.63076666564156
 20
88.88635403980923
 30
0.0
 11
-14.88595686586751
 21
88.98749897348239
 31
0.0
  0
LINE
  5
F2
330
47
100
AcDbEntity
  8
0
  6
Continuous
 62
     7
100
AcDbLine
 10
-14.88093994539363
 20
83.06343014908072
 30
0.0
 11
-15.08517066125881
 21
82.88656116090594
 31
0.0
  0
LINE
  5
F3
330
47
100
AcDbEntity
  8
0
  6
Continuous
 62
     7
100
AcDbLine
 10
-15.08517066129137
 20
83.12238647848052
 30
0.0
 11
-14.15852347923713
 21
82.85488647848257
 31
0.0
  0
LINE
  5
F4
330
47
100
AcDbEntity
  8
0
  6
Continuous
 62
     7
100
AcDbLine
 10
-15.08517066125881
 20
82.88656116090594
 30
0.0
 11
-15.08517066129137
 21
83.12238647848052
 31
0.0
  0
LINE
  5
F5
330
47
100
AcDbEntity
  8
0
  6
Continuous
 62
     7
100
AcDbLine
 10
-15.08517066129242
 20
77.64477579953925
 30
0.0
 11
-14.15852347924036
 21
78.44727579955271
 31
0.0
  0
LINE
  5
F6
330
47
100
AcDbEntity
  8
0
  6
Continuous
 62
     7
100
AcDbLine
 10
-15.63076666564399
 20
83.35906116090347
 30
0.0
 11
-15.63076666564156
 21
88.88635403980923
 31
0.0
  0
LINE
  5
F7
330
47
100
AcDbEntity
  8
0
  6
Continuous
 62
     7
100
AcDbLine
 10
4.56831177996804
 20
93.27552904451431
 30
0.0
 11
1.49331177947455
 21
90.61250092741292
 31
0.0
  0
LINE
  5
F8
330
47
100
AcDbEntity
  8
0
  6
Continuous
 62
     7
100
AcDbLine
 10
3.91833124860079
 20
81.51851629191692
 30
0.0
 11
1.64333124860108
 21
79.5483084983079
 31
0.0
  0
LINE
  5
F9
330
47
100
AcDbEntity
  8
0
  6
Continuous
 62
     7
100
AcDbLine
 10
5.13076681389897
 20
75.34520772669299
 30
0.0
 11
3.91833124860079
 21
81.51851629191692
 31
0.0
  0
LINE
  5
FA
330
47
100
AcDbEntity
  8
0
  6
Continuous
 62
     7
100
AcDbLine
 10
2.85576681390028
 20
73.37499993307924
 30
0.0
 11
1.64333124860108
 21
79.5483084983079
 31
0.0
  0
LINE
  5
FB
330
47
100
AcDbEntity
  8
0
  6
Continuous
 62
     7
100
AcDbLine
 10
2.48060991768709
 20
72.90358276486805
 30
0.0
 11
0.8639083851951
 21
71.50347816739298
 31
0.0
  0
LINE
  5
FC
330
47
100
AcDbEntity
  8
0
  6
Continuous
 62
     7
100
AcDbLine
 10
4.6812477610607
 20
73.2593910417589
 30
0.0
 11
2.20624776106099
 21
71.11597816739304
 31
0.0
  0
LINE
  5
FD
330
47
100
AcDbEntity
  8
0
  6
Continuous
 62
     7
100
AcDbLine
 10
5.63076681436853
 20
71.89232119709136
 30
0.0
 11
2.8557668139235
 21
69.48910070117087
 31
0.0
  0
LINE
  5
FE
330
47
100
AcDbEntity
  8
0
  6
Continuous
 62
     7
100
AcDbLine
 10
5.13076681389897
 20
75.34520772669299
 30
0.0
 11
2.85576681390028
 21
73.37499993307924
 31
0.0
  0
LINE
  5
FF
330
47
100
AcDbEntity
  8
0
  6
Continuous
 62
     7
100
AcDbLine
 10
5.33076681389687
 20
72.42237198892329
 30
0.0
 11
4.6812477610607
 21
73.2593910417589
 31
0.0
  0
LINE
  5
100
330
47
100
AcDbEntity
  8
0
  6
Continuous
 62
     7
100
AcDbLine
 10
5.33076681389687
 20
72.42237198892329
 30
0.0
 11
2.8557668139235
 21
70.27895911453582
 31
0.0
  0
LINE
  5
101
330
47
100
AcDbEntity
  8
0
  6
Continuous
 62
     7
100
AcDbLine
 10
2.8557668139235
 20
72.92033659609831
 30
0.0
 11
5.33076681389687
 21
75.06374947046297
 31
0.0
  0
LINE
  5
102
330
47
100
AcDbEntity
  8
0
  6
Continuous
 62
     7
100
AcDbLine
 10
5.33076681389687
 20
72.42237198892329
 30
0.0
 11
5.33076681389687
 21
75.06374947046297
 31
0.0
  0
LINE
  5
103
330
47
100
AcDbEntity
  8
0
  6
Continuous
 62
     7
100
AcDbLine
 10
3.60576681391041
 20
73.56985564893172
 30
0.0
 11
4.6812477610607
 21
73.2593910417589
 31
0.0
  0
LINE
  5
104
330
47
100
AcDbEntity
  8
0
  6
Continuous
 62
     7
100
AcDbLine
 10
5.13076681389897
 20
75.34520772669299
 30
0.0
 11
5.13076681389897
 21
76.40540059457405
 31
0.0
  0
LINE
  5
105
330
47
100
AcDbEntity
  8
0
  6
Continuous
 62
     7
100
AcDbLine
 10
5.63076681436853
 20
71.89232119709136
 30
0.0
 11
5.63076681454638
 21
76.83841329703296
 31
0.0
  0
LINE
  5
106
330
47
100
AcDbEntity
  8
0
  6
Continuous
 62
     7
100
AcDbLine
 10
5.63076681454638
 20
76.83841329703296
 30
0.0
 11
5.13076681389897
 21
76.40540059457405
 31
0.0
  0
LINE
  5
107
330
47
100
AcDbEntity
  8
0
  6
Continuous
 62
     7
100
AcDbLine
 10
2.20624776106099
 20
71.11597816739304
 30
0.0
 11
0.8639083851951
 21
71.50347816739298
 31
0.0
  0
LINE
  5
108
330
47
100
AcDbEntity
  8
0
  6
Continuous
 62
     7
100
AcDbLine
 10
0.86390838519508
 20
73.06232389420495
 30
0.0
 11
1.55672870822265
 21
72.86232389420498
 31
0.0
  0
LINE
  5
109
330
47
100
AcDbEntity
  8
0
  6
Continuous
 62
     7
100
AcDbLine
 10
1.55672870822265
 20
72.86232389420498
 30
0.0
 11
2.8557668139235
 21
72.92033659609831
 31
0.0
  0
LINE
  5
10A
330
47
100
AcDbEntity
  8
0
  6
Continuous
 62
     7
100
AcDbLine
 10
1.34333124871112
 20
81.50175416504804
 30
0.0
 11
1.34333124871111
 21
81.17281840612013
 31
0.0
  0
LINE
  5
10B
330
47
100
AcDbEntity
  8
0
  6
Continuous
 62
     7
100
AcDbLine
 10
1.64333124860108
 20
81.43262602716008
 30
0.0
 11
1.34333124871111
 21
81.17281840612013
 31
0.0
  0
LINE
  5
10C
330
47
100
AcDbEntity
  8
0
  6
Continuous
 62
     7
100
AcDbLine
 10
1.64333124860108
 20
79.5483084983079
 30
0.0
 11
1.64333124860108
 21
81.43262602716008
 31
0.0
  0
LINE
  5
10D
330
47
100
AcDbEntity
  8
0
  6
Continuous
 62
     7
100
AcDbLine
 10
3.91833124860079
 20
81.51851629191692
 30
0.0
 11
3.91833124860079
 21
83.0420643049337
 31
0.0
  0
LINE
  5
10E
330
47
100
AcDbEntity
  8
0
  6
Continuous
 62
     2
100
AcDbLine
 10
1.4129134649503
 20
83.32362043872953
 30
0.0
 11
0.91932805269394
 21
82.89616293277818
 31
0.0
  0
LINE
  5
10F
330
47
100
AcDbEntity
  8
0
  6
Continuous
 62
     7
100
AcDbLine
 10
2.55576681401362
 20
81.86204889027152
 30
0.0
 11
5.13076681387163
 21
84.09206430492469
 31
0.0
  0
LINE
  5
110
330
47
100
AcDbEntity
  8
0
  6
Continuous
 62
     7
100
AcDbLine
 10
3.99495698646264
 20
86.74075538709
 30
0.0
 11
3.47646718472205
 21
91.11319106690394
 31
0.0
  0
LINE
  5
111
330
47
100
AcDbEntity
  8
0
  6
Continuous
 62
     7
100
AcDbLine
 10
4.88595720398305
 20
86.83054317438855
 30
0.0
 11
1.81095720353944
 21
84.16751505733035
 31
0.0
  0
LINE
  5
112
330
47
100
AcDbEntity
  8
0
  6
Continuous
 62
     7
100
AcDbLine
 10
0.91995698603087
 20
84.07772727004206
 30
0.0
 11
3.99495698646264
 21
86.74075538709
 31
0.0
  0
LINE
  5
113
330
47
100
AcDbEntity
  8
0
  6
Continuous
 62
     7
100
AcDbLine
 10
5.63076681446213
 20
86.29938223732951
 30
0.0
 11
4.88595720398305
 21
86.83054317438855
 31
0.0
  0
LINE
  5
114
330
47
100
AcDbEntity
  8
0
  6
Continuous
 62
     7
100
AcDbLine
 10
5.63076681446213
 20
86.29938223732951
 30
0.0
 11
2.55576681401371
 21
83.63635412026713
 31
0.0
  0
LINE
  5
115
330
47
100
AcDbEntity
  8
0
  6
Continuous
 62
     7
100
AcDbLine
 10
5.13076681387163
 20
83.89789684075066
 30
0.0
 11
5.13076681387163
 21
84.09206430492469
 31
0.0
  0
LINE
  5
116
330
47
100
AcDbEntity
  8
0
  6
Continuous
 62
     7
100
AcDbLine
 10
4.65570946122443
 20
86.63114277999281
 30
0.0
 11
3.99495698646264
 21
86.74075538709
 31
0.0
  0
LINE
  5
117
330
47
100
AcDbEntity
  8
0
  6
Continuous
 62
     7
100
AcDbLine
 10
5.63076681451936
 20
84.33090954320984
 30
0.0
 11
5.63076681446213
 21
86.29938223732951
 31
0.0
  0
LINE
  5
118
330
47
100
AcDbEntity
  8
0
  6
Continuous
 62
     7
100
AcDbLine
 10
4.69916097616327
 20
92.1720749513562
 30
0.0
 11
1.62416097567737
 21
89.5090468342614
 31
0.0
  0
LINE
  5
119
330
47
100
AcDbEntity
  8
0
  6
Continuous
 62
     7
100
AcDbLine
 10
4.69916097616327
 20
92.1720749513562
 30
0.0
 11
4.56831177996804
 21
93.27552904451431
 31
0.0
  0
LINE
  5
11A
330
47
100
AcDbEntity
  8
0
  6
Continuous
 62
     7
100
AcDbLine
 10
-1.04134750313168
 20
69.5420044964189
 30
0.0
 11
2.8557668139235
 21
69.48910070117087
 31
0.0
  0
LINE
  5
11B
330
47
100
AcDbEntity
  8
0
  6
Continuous
 62
     7
100
AcDbLine
 10
5.63076681451936
 20
84.33090954320984
 30
0.0
 11
5.13076681387163
 21
83.89789684075066
 31
0.0
  0
LINE
  5
11C
330
47
100
AcDbEntity
  8
0
  6
Continuous
 62
     7
100
AcDbLine
 10
-8.19455073343283
 20
57.83715248150702
 30
0.0
 11
-2.13237290691725
 21
56.08715248152592
 31
0.0
  0
LINE
  5
11D
330
47
100
AcDbEntity
  8
0
  6
Continuous
 62
     7
100
AcDbLine
 10
-3.68407703544607
 20
58.78675692951241
 30
0.0
 11
-8.02134565268678
 21
60.0388185313507
 31
0.0
  0
LINE
  5
11E
330
47
100
AcDbEntity
  8
0
  6
Continuous
 62
     7
100
AcDbLine
 10
-8.63108883909307
 20
65.45428992068015
 30
0.0
 11
-10.70954980817584
 21
66.05428992068019
 31
0.0
  0
LINE
  5
11F
330
47
100
AcDbEntity
  8
0
  6
Continuous
 62
     7
100
AcDbLine
 10
-7.79634565266426
 20
60.2336742472244
 30
0.0
 11
-3.4590770354386
 21
58.98161264537307
 31
0.0
  0
LINE
  5
120
330
47
100
AcDbEntity
  8
0
  6
Continuous
 62
     7
100
AcDbLine
 10
-2.08057798769731
 20
70.62142735983167
 30
0.0
 11
-1.4743602050263
 21
70.44642735982536
 31
0.0
  0
LINE
  5
121
330
47
100
AcDbEntity
  8
0
  6
Continuous
 62
     7
100
AcDbLine
 10
2.8557668139235
 20
70.27895911453582
 30
0.0
 11
2.20624776106099
 21
71.11597816739304
 31
0.0
  0
LINE
  5
122
330
47
100
AcDbEntity
  8
0
  6
Continuous
 62
     7
100
AcDbLine
 10
2.8557668139235
 20
69.48910070117087
 30
0.0
 11
2.8557668139235
 21
70.27895911453582
 31
0.0
  0
LINE
  5
123
330
47
100
AcDbEntity
  8
0
  6
Continuous
 62
     7
100
AcDbLine
 10
-0.49134750313785
 20
69.53453818031451
 30
0.0
 11
-0.49134750313785
 21
67.9398574994188
 31
0.0
  0
LINE
  5
124
330
47
100
AcDbEntity
  8
0
  6
Continuous
 62
     7
100
AcDbLine
 10
-1.77436020492442
 20
70.18661973877468
 30
0.0
 11
-2.38057798759753
 21
70.36161973877915
 31
0.0
  0
LINE
  5
125
330
47
100
AcDbEntity
  8
0
  6
Continuous
 62
     7
100
AcDbLine
 10
-2.38057798759753
 20
70.36161973877915
 30
0.0
 11
-2.08057798769731
 21
70.62142735983167
 31
0.0
  0
LINE
  5
126
330
47
100
AcDbEntity
  8
0
  6
Continuous
 62
     7
100
AcDbLine
 10
-2.38057798759757
 20
69.49559433499432
 30
0.0
 11
-1.77436020492446
 21
69.32059433498983
 31
0.0
  0
LINE
  5
127
330
47
100
AcDbEntity
  8
0
  6
Continuous
 62
     7
100
AcDbLine
 10
-2.38057798759753
 20
70.36161973877915
 30
0.0
 11
-2.38057798759757
 21
69.49559433499432
 31
0.0
  0
LINE
  5
128
330
47
100
AcDbEntity
  8
0
  6
Continuous
 62
     7
100
AcDbLine
 10
-2.30557798769951
 20
69.47394369992945
 30
0.0
 11
-2.30557798769993
 21
59.77445917742625
 31
0.0
  0
LINE
  5
129
330
47
100
AcDbEntity
  8
0
  6
Continuous
 62
     7
100
AcDbLine
 10
0.5658321738802
 20
58.74348186847795
 30
0.0
 11
0.56583217387662
 21
69.52018683913666
 31
0.0
  0
LINE
  5
12A
330
47
100
AcDbEntity
  8
0
  6
Continuous
 62
     7
100
AcDbLine
 10
-5.6691986555017
 20
93.54616499504357
 30
0.0
 11
-3.84419865566819
 21
95.12666135681059
 31
0.0
  0
LINE
  5
12B
330
47
100
AcDbEntity
  8
0
  6
Continuous
 62
     7
100
AcDbLine
 10
-0.55330212075246
 20
94.26326389711272
 30
0.0
 11
-3.84419865566857
 21
95.2132638972738
 31
0.0
  0
LINE
  5
12C
330
47
100
AcDbEntity
  8
0
  6
Continuous
 62
     7
100
AcDbLine
 10
-3.84419865566857
 20
95.2132638972738
 30
0.0
 11
-5.74419865556616
 21
93.56781563016247
 31
0.0
  0
LINE
  5
12D
330
47
100
AcDbEntity
  8
0
  6
Continuous
 62
     7
100
AcDbLine
 10
-5.74419865556616
 20
93.56781563016247
 30
0.0
 11
-2.45330212063853
 21
92.61781563001033
 31
0.0
  0
LINE
  5
12E
330
47
100
AcDbEntity
  8
0
  6
Continuous
 62
     7
100
AcDbLine
 10
-1.77436020492442
 20
70.18661973877468
 30
0.0
 11
-1.4743602050263
 21
70.44642735982536
 31
0.0
  0
LINE
  5
12F
330
47
100
AcDbEntity
  8
0
  6
Continuous
 62
     7
100
AcDbLine
 10
-1.69936020502639
 20
69.38554624018629
 30
0.0
 11
-1.77436020492446
 21
69.32059433498983
 31
0.0
  0
LINE
  5
130
330
47
100
AcDbEntity
  8
0
  6
Continuous
 62
     7
100
AcDbLine
 10
-1.04134750313168
 20
67.4635435273361
 30
0.0
 11
-1.04134750313168
 21
69.5420044964189
 31
0.0
  0
LINE
  5
131
330
47
100
AcDbEntity
  8
0
  6
Continuous
 62
     7
100
AcDbLine
 10
-2.03990466108097
 20
92.9892257915757
 30
0.0
 11
-2.03500085047487
 21
92.98007515640946
 31
0.0
  0
LINE
  5
132
330
47
100
AcDbEntity
  8
0
  6
Continuous
 62
     7
100
AcDbLine
 10
-1.4743602050263
 20
70.44642735982536
 30
0.0
 11
-1.4743602050263
 21
67.58854352733678
 31
0.0
  0
LINE
  5
133
330
47
100
AcDbEntity
  8
0
  6
Continuous
 62
     7
100
AcDbLine
 10
-1.77436020492446
 20
69.32059433498983
 30
0.0
 11
-1.77436020492442
 21
70.18661973877468
 31
0.0
  0
LINE
  5
134
330
47
100
AcDbEntity
  8
0
  6
Continuous
 62
     7
100
AcDbLine
 10
-2.00330212064142
 20
93.00752706171309
 30
0.0
 11
-2.03990466108134
 21
93.07582833201742
 31
0.0
  0
LINE
  5
135
330
47
100
AcDbEntity
  8
0
  6
Continuous
 62
     7
100
AcDbLine
 10
-1.64756528577982
 20
73.82141958501018
 30
0.0
 11
-1.64756528577986
 21
73.96052897496178
 31
0.0
  0
LINE
  5
136
330
47
100
AcDbEntity
  8
0
  6
Continuous
 62
     7
100
AcDbLine
 10
-2.14971228213604
 20
93.19412960198417
 30
0.0
 11
-2.03990466108097
 21
92.9892257915757
 31
0.0
  0
LINE
  5
137
330
47
100
AcDbEntity
  8
0
  6
Continuous
 62
     7
100
AcDbLine
 10
-2.03990466108134
 20
93.07582833201742
 30
0.0
 11
-2.14971228213642
 21
93.28073214242772
 31
0.0
  0
LINE
  5
138
330
47
100
AcDbEntity
  8
0
  6
Continuous
 62
     7
100
AcDbLine
 10
-2.14971228213642
 20
93.28073214242772
 30
0.0
 11
-2.14971228213604
 21
93.19412960198417
 31
0.0
  0
LINE
  5
139
330
47
100
AcDbEntity
  8
0
  6
Continuous
 62
     7
100
AcDbLine
 10
-2.45330212063853
 20
92.61781563001033
 30
0.0
 11
-2.00330212064142
 21
93.00752706171309
 31
0.0
  0
LINE
  5
13A
330
47
100
AcDbEntity
  8
0
  6
Continuous
 62
     7
100
AcDbLine
 10
-4.04002065957326
 20
93.55707452661636
 30
0.0
 11
-4.45676309003284
 21
93.19616499499665
 31
0.0
  0
LINE
  5
13B
330
47
100
AcDbEntity
  8
0
  6
Continuous
 62
     7
100
AcDbLine
 10
-4.04002065957136
 20
93.12406182472313
 30
0.0
 11
-4.04002065957326
 21
93.55707452661636
 31
0.0
  0
LINE
  5
13C
330
47
100
AcDbEntity
  8
0
  6
Continuous
 62
     7
100
AcDbLine
 10
-2.43068520792448
 20
94.15079992696405
 30
0.0
 11
-1.93894276555891
 21
94.57666135629975
 31
0.0
  0
LINE
  5
13D
330
47
100
AcDbEntity
  8
0
  6
Continuous
 62
     7
100
AcDbLine
 10
-2.3139427773637
 20
94.25190183328634
 30
0.0
 11
-2.63176309015689
 21
94.34364865485722
 31
0.0
  0
LINE
  5
13E
330
47
100
AcDbEntity
  8
0
  6
Continuous
 62
     7
100
AcDbLine
 10
-3.84419865566819
 20
95.12666135681059
 30
0.0
 11
-2.63176309015398
 21
94.77666135675463
 31
0.0
  0
LINE
  5
13F
330
47
100
AcDbEntity
  8
0
  6
Continuous
 62
     7
100
AcDbLine
 10
-3.84419865566857
 20
95.2132638972738
 30
0.0
 11
-3.84419865566819
 21
95.12666135681059
 31
0.0
  0
LINE
  5
140
330
47
100
AcDbEntity
  8
0
  6
Continuous
 62
     7
100
AcDbLine
 10
-2.63176309015398
 20
94.77666135675463
 30
0.0
 11
-3.1235055205498
 21
94.35079991992465
 31
0.0
  0
LINE
  5
141
330
47
100
AcDbEntity
  8
0
  6
Continuous
 62
     7
100
AcDbLine
 10
-2.63176309015689
 20
94.34364865485722
 30
0.0
 11
-2.63176309015398
 21
94.77666135675463
 31
0.0
  0
LINE
  5
142
330
47
100
AcDbEntity
  8
0
  6
Continuous
 62
     7
100
AcDbLine
 10
-2.14971228213642
 20
93.28073214242772
 30
0.0
 11
-1.54971228216016
 21
93.80034738468407
 31
0.0
  0
LINE
  5
143
330
47
100
AcDbEntity
  8
0
  6
Continuous
 62
     7
100
AcDbLine
 10
-2.63176309015689
 20
94.34364865485722
 30
0.0
 11
-3.12350552054791
 21
93.9177872180314
 31
0.0
  0
LINE
  5
144
330
47
100
AcDbEntity
  8
0
  6
Continuous
 62
     7
100
AcDbLine
 10
-3.12350552054791
 20
93.9177872180314
 30
0.0
 11
-3.1235055205498
 21
94.35079991992465
 31
0.0
  0
LINE
  5
145
330
47
100
AcDbEntity
  8
0
  6
Continuous
 62
     7
100
AcDbLine
 10
-2.43068520792259
 20
93.71778722507082
 30
0.0
 11
-2.43068520792448
 21
94.15079992696405
 31
0.0
  0
LINE
  5
146
330
47
100
AcDbEntity
  8
0
  6
Continuous
 62
     7
100
AcDbLine
 10
-1.54971228216016
 20
93.80034738468407
 30
0.0
 11
-1.00330212072578
 21
93.87355246543059
 31
0.0
  0
LINE
  5
147
330
47
100
AcDbEntity
  8
0
  6
Continuous
 62
     7
100
AcDbLine
 10
-1.93894276555891
 20
94.57666135629975
 30
0.0
 11
-0.62830212080981
 21
94.19831199177884
 31
0.0
  0
LINE
  5
148
330
47
100
AcDbEntity
  8
0
  6
Continuous
 62
     7
100
AcDbLine
 10
-1.00330212072578
 20
93.87355246543059
 30
0.0
 11
-0.55330212075246
 21
94.26326389711272
 31
0.0
  0
LINE
  5
149
330
47
100
AcDbEntity
  8
0
  6
Continuous
 62
     7
100
AcDbLine
 10
-8.70256343522425
 20
71.32059433496886
 30
0.0
 11
-8.09634565258435
 21
71.14559433497396
 31
0.0
  0
LINE
  5
14A
330
47
100
AcDbEntity
  8
0
  6
Continuous
 62
     7
100
AcDbLine
 10
-10.70954980817584
 20
72.85258934046558
 30
0.0
 11
-10.70954980817584
 21
66.05428992068019
 31
0.0
  0
LINE
  5
14B
330
47
100
AcDbEntity
  8
0
  6
Continuous
 62
     7
100
AcDbLine
 10
-8.09634565258435
 20
71.14559433497396
 30
0.0
 11
-8.09634565258428
 21
72.79104260216498
 31
0.0
  0
LINE
  5
14C
330
47
100
AcDbEntity
  8
0
  6
Continuous
 62
     7
100
AcDbLine
 10
-8.02134565268629
 20
71.21054624017042
 30
0.0
 11
-8.09634565258435
 21
71.14559433497396
 31
0.0
  0
LINE
  5
14D
330
47
100
AcDbEntity
  8
0
  6
Continuous
 62
     7
100
AcDbLine
 10
-6.58198629795546
 20
96.29227024826842
 30
0.0
 11
-7.10160154017511
 21
96.44227024831186
 31
0.0
  0
LINE
  5
14E
330
47
100
AcDbEntity
  8
0
  6
Continuous
 62
     2
100
AcDbLine
 10
-7.10160154017606
 20
93.66318129102837
 30
0.0
 11
-7.10160154017511
 21
96.44227024831186
 31
0.0
  0
LINE
  5
14F
330
47
100
AcDbEntity
  8
0
  6
Continuous
 62
     7
100
AcDbLine
 10
-10.3078193236331
 20
73.77585022323282
 30
0.0
 11
-7.79634565266426
 21
73.05085022323465
 31
0.0
  0
LINE
  5
150
330
47
100
AcDbEntity
  8
0
  6
Continuous
 62
     2
100
AcDbLine
 10
-6.58198629795631
 20
93.78079657740133
 30
0.0
 11
-6.58198629795546
 21
96.29227024826842
 31
0.0
  0
LINE
  5
151
330
47
100
AcDbEntity
  8
0
  6
Continuous
 62
     7
100
AcDbLine
 10
-10.91092821411892
 20
85.96605524124271
 30
0.0
 11
-7.0138138980549
 21
84.84105524147513
 31
0.0
  0
LINE
  5
152
330
47
100
AcDbEntity
  8
0
  6
Continuous
 62
     7
100
AcDbLine
 10
-15.63076666568001
 20
74.27322227915361
 30
0.0
 11
-8.70256343522421
 21
72.27322227912957
 31
0.0
  0
LINE
  5
153
330
47
100
AcDbEntity
  8
0
  6
Continuous
 62
     7
100
AcDbLine
 10
-15.63076666564399
 20
83.35906116090347
 30
0.0
 11
-15.08517066125881
 21
82.88656116090594
 31
0.0
  0
LINE
  5
154
330
47
100
AcDbEntity
  8
0
  6
Continuous
 62
     7
100
AcDbLine
 10
-15.08517066129174
 20
77.880601117091
 30
0.0
 11
-15.63076666567849
 21
77.7231011170905
 31
0.0
  0
LINE
  5
155
330
47
100
AcDbEntity
  8
0
  6
Continuous
 62
     7
100
AcDbLine
 10
-14.15852347923999
 20
78.99810111711244
 30
0.0
 11
-15.63076666567849
 21
77.7231011170905
 31
0.0
  0
LINE
  5
156
330
47
100
AcDbEntity
  8
0
  6
Continuous
 62
     7
100
AcDbLine
 10
-14.1585234792402
 20
78.683101117104
 30
0.0
 11
-15.08517066129174
 21
77.880601117091
 31
0.0
  0
LINE
  5
157
330
47
100
AcDbEntity
  8
0
  6
Continuous
 62
     7
100
AcDbLine
 10
0.8639083851951
 20
71.50347816739298
 30
0.0
 11
-1.3049001178065
 21
73.1765702553563
 31
0.0
  0
LINE
  5
158
330
47
100
AcDbEntity
  8
0
  6
Continuous
 62
     7
100
AcDbLine
 10
-8.09634565258428
 20
72.79104260216498
 30
0.0
 11
-10.60781932356183
 21
73.51604260215561
 31
0.0
  0
LINE
  5
159
330
47
100
AcDbEntity
  8
0
  6
Continuous
 62
     7
100
AcDbLine
 10
-8.09634565258428
 20
72.79104260216498
 30
0.0
 11
-7.79634565266426
 21
73.05085022323465
 31
0.0
  0
LINE
  5
15A
330
47
100
AcDbEntity
  8
0
  6
Continuous
 62
     7
100
AcDbLine
 10
-15.08517066129242
 20
77.64477579953925
 30
0.0
 11
-15.08517066129174
 21
77.880601117091
 31
0.0
  0
LINE
  5
15B
330
47
100
AcDbEntity
  8
0
  6
Continuous
 62
     7
100
AcDbLine
 10
-14.15852347924074
 20
77.37727579954233
 30
0.0
 11
-15.08517066129242
 21
77.64477579953925
 31
0.0
  0
LINE
  5
15C
330
47
100
AcDbEntity
  8
0
  6
Continuous
 62
     7
100
AcDbLine
 10
-15.63076666568001
 20
74.27322227915361
 30
0.0
 11
-15.63076666567849
 21
77.7231011170905
 31
0.0
  0
SPLINE
  5
15D
330
47
100
AcDbEntity
  8
0
  6
Continuous
 62
     7
100
AcDbSpline
210
0.0
220
0.0
230
1.0
 70
     8
 71
     3
 72
    11
 73
     7
 74
     5
 42
0.000000001
 43
0.0000000001
 44
0.00000001
 40
0.0
 40
0.0
 40
0.0
 40
0.0
 40
0.1948862861186325
 40
0.3893853872236573
 40
0.5771181846498221
 40
0.7532243231807706
 40
0.7532243231807706
 40
0.7532243231807706
 40
0.7532243231807706
 10
-1.304900117806497
 20
73.1765702553563
 30
0.0
 10
-1.353982219253461
 20
73.21955268337857
 30
0.0
 10
-1.452048899153994
 20
73.30543215582294
 30
0.0
 10
-1.558805030850568
 20
73.46748564288828
 30
0.0
 10
-1.632441209222061
 20
73.64104730906352
 30
0.0
 10
-1.642632487559659
 20
73.76259014678392
 30
0.0
 10
-1.64756528577982
 20
73.82141958501018
 30
0.0
 11
-1.304900117806497
 21
73.1765702553563
 31
0.0
 11
-1.445624061089602
 21
73.31139397907369
 31
0.0
 11
-1.554801630429399
 21
73.47236030947303
 31
0.0
 11
-1.623912725984125
 21
73.64690904388779
 31
0.0
 11
-1.64756528577982
 21
73.82141958501018
 31
0.0
  0
SPLINE
  5
15E
330
47
100
AcDbEntity
  8
0
  6
Continuous
 62
     7
100
AcDbSpline
210
0.0
220
0.0
230
1.0
 70
     8
 71
     3
 72
     9
 73
     5
 74
     3
 42
0.000000001
 43
0.0000000001
 44
0.00000001
 40
0.0
 40
0.0
 40
0.0
 40
0.0
 40
0.1459633086347228
 40
0.2806984683898485
 40
0.2806984683898485
 40
0.2806984683898485
 40
0.2806984683898485
 10
-1.647565285779862
 20
73.96052897496178
 30
0.0
 10
-1.64346834839713
 20
74.01046549665035
 30
0.0
 10
-1.635589610016333
 20
74.10649719425703
 30
0.0
 10
-1.572271902942728
 20
74.17879198168094
 30
0.0
 10
-1.541879419241589
 20
74.21349344797105
 30
0.0
 11
-1.647565285779862
 21
73.96052897496178
 31
0.0
 11
-1.620283745058789
 21
74.10392006823703
 31
0.0
 11
-1.541879419241589
 21
74.21349344797105
 31
0.0
  0
SPLINE
  5
15F
330
47
100
AcDbEntity
  8
0
  6
Continuous
 62
     7
100
AcDbSpline
210
0.0
220
0.0
230
1.0
 70
     8
 71
     3
 72
    11
 73
     7
 74
     5
 42
0.000000001
 43
0.0000000001
 44
0.00000001
 40
0.0
 40
0.0
 40
0.0
 40
0.0
 40
0.0805526799810095
 40
0.1638036380530207
 40
0.2517511792396854
 40
0.3453217744505973
 40
0.3453217744505973
 40
0.3453217744505973
 40
0.3453217744505973
 10
-1.541879419241589
 20
74.21349344797105
 30
0.0
 10
-1.520023097418652
 20
74.22941838078391
 30
0.0
 10
-1.475578323414676
 20
74.26180167235279
 30
0.0
 10
-1.393341087897986
 20
74.28476628681616
 30
0.0
 10
-1.304308812291507
 20
74.28923977589065
 30
0.0
 10
-1.24508289114399
 20
74.27558207717053
 30
0.0
 10
-1.214552583887631
 20
74.26854167685401
 30
0.0
 11
-1.541879419241589
 21
74.21349344797105
 31
0.0
 11
-1.474118621995782
 21
74.25705040984253
 31
0.0
 11
-1.394486511680917
 21
74.2813289909395
 31
0.0
 11
-1.306625025029673
 21
74.28521866513469
 31
0.0
 11
-1.214552583887631
 21
74.26854167685401
 31
0.0
  0
SPLINE
  5
160
330
47
100
AcDbEntity
  8
0
  6
Continuous
 62
     7
100
AcDbSpline
210
0.0
220
0.0
230
1.0
 70
     8
 71
     3
 72
    11
 73
     7
 74
     5
 42
0.000000001
 43
0.0000000001
 44
0.00000001
 40
0.0
 40
0.0
 40
0.0
 40
0.0
 40
0.0974301069696527
 40
0.1994891075958262
 40
0.3091287353647671
 40
0.4269691443370979
 40
0.4269691443370979
 40
0.4269691443370979
 40
0.4269691443370979
 10
1.002793135468494
 20
83.29247263290715
 30
0.0
 10
0.9803256013852851
 20
83.26856495049935
 30
0.0
 10
0.934323114626801
 20
83.21961372523911
 30
0.0
 10
0.9003504493246604
 20
83.11962909245601
 30
0.0
 10
0.8923542293545899
 20
83.00873474847855
 30
0.0
 10
0.9101232456920525
 20
82.93457800114345
 30
0.0
 10
0.9193280526939418
 20
82.89616293277818
 30
0.0
 11
1.002793135468494
 21
83.29247263290715
 31
0.0
 11
0.9411341673935376
 21
83.21703525569423
 31
0.0
 11
0.905396880878488
 21
83.12143773132078
 31
0.0
 11
0.8979631873970209
 21
83.01205039774034
 31
0.0
 11
0.9193280526939418
 21
82.89616293277818
 31
0.0
  0
SPLINE
  5
161
330
47
100
AcDbEntity
  8
0
  6
Continuous
 62
     7
100
AcDbSpline
210
0.0
220
0.0
230
1.0
 70
     8
 71
     3
 72
    11
 73
     7
 74
     5
 42
0.000000001
 43
0.0000000001
 44
0.00000001
 40
0.0
 40
0.0
 40
0.0
 40
0.0
 40
0.093570595210906
 40
0.1815181363975707
 40
0.2647690944695807
 40
0.3453217744505931
 40
0.3453217744505931
 40
0.3453217744505931
 40
0.3453217744505931
 10
1.330119970822452
 20
83.34752086179012
 30
0.0
 10
1.299589663566094
 20
83.35456126210661
 30
0.0
 10
1.240363742418579
 20
83.36821896082677
 30
0.0
 10
1.151331466812106
 20
83.36374547175222
 30
0.0
 10
1.069094231295408
 20
83.3407808572889
 30
0.0
 10
1.024649457291432
 20
83.30839756572003
 30
0.0
 10
1.002793135468494
 20
83.29247263290715
 30
0.0
 11
1.330119970822452
 21
83.34752086179012
 31
0.0
 11
1.238047529680416
 21
83.3641978500708
 31
0.0
 11
1.150186043029173
 21
83.36030817587559
 31
0.0
 11
1.070553932714305
 21
83.33602959477864
 31
0.0
 11
1.002793135468494
 21
83.29247263290715
 31
0.0
  0
SPLINE
  5
162
330
47
100
AcDbEntity
  8
0
  6
Continuous
 62
     7
100
AcDbSpline
210
0.0
220
0.0
230
1.0
 70
     8
 71
     3
 72
    19
 73
    15
 74
    13
 42
0.000000001
 43
0.0000000001
 44
0.00000001
 40
0.0
 40
0.0
 40
0.0
 40
0.0
 40
0.0438316919206869
 40
0.0879008711392266
 40
0.1784855787136743
 40
0.2553712330448473
 40
0.3410181393634397
 40
0.4288822912086794
 40
0.5269303675120747
 40
0.6118254554721623
 40
0.7070223371342071
 40
0.8046668139156252
 40
1.099484888263295
 40
1.394302973316443
 40
1.394302973316443
 40
1.394302973316443
 40
1.394302973316443
 10
-8.673946007723963
 20
89.04631120709632
 30
0.0
 10
-8.685181345397378
 20
89.03696185915035
 30
0.0
 10
-8.707712903756704
 20
89.01821251705402
 30
0.0
 10
-8.756562885397962
 20
88.98415013647293
 30
0.0
 10
-8.818231929488345
 20
88.94950569297005
 30
0.0
 10
-8.89646538305536
 20
88.91748251417269
 30
0.0
 10
-8.976941384589523
 20
88.89464137069602
 30
0.0
 10
-9.066428068431648
 20
88.87987412630372
 30
0.0
 10
-9.156790605581001
 20
88.87523616401579
 30
0.0
 10
-9.249480935255871
 20
88.88005426123125
 30
0.0
 10
-9.341331261113488
 20
88.89308268023524
 30
0.0
 10
-9.498915565783113
 20
88.9335424328406
 30
0.0
 10
-9.718117254847296
 20
89.000050873649
 30
0.0
 10
-9.907107112448822
 20
89.05405326716713
 30
0.0
 10
-10.00160204361355
 20
89.0810544622199
 30
0.0
 11
-8.673946007723963
 21
89.04631120709632
 31
0.0
 11
-8.70803150910905
 21
89.01875406124876
 31
0.0
 11
-8.74408919299239
 21
88.99341760073048
 31
0.0
 11
-8.82308569571187
 21
88.94908767670859
 31
0.0
 11
-8.894205334926887
 21
88.91987465108883
 31
0.0
 11
-8.976572710962813
 21
88.89640109119495
 31
0.0
 11
-9.063244467635727
 21
88.8819748703218
 31
0.0
 11
-9.161157002389011
 21
88.87682114419698
 31
0.0
 11
-9.245946208281772
 21
88.88105984661887
 31
0.0
 11
-9.34016625659445
 21
88.89466237950347
 31
0.0
 11
-9.43509795476242
 21
88.91751881716414
 31
0.0
 11
-9.718349999187984
 21
88.99928663969202
 31
0.0
 11
-10.00160204361355
 21
89.0810544622199
 31
0.0
  0
SPLINE
  5
163
330
47
100
AcDbEntity
  8
0
  6
Continuous
 62
     7
100
AcDbSpline
210
0.0
220
0.0
230
1.0
 70
     8
 71
     3
 72
    11
 73
     7
 74
     5
 42
0.000000001
 43
0.0000000001
 44
0.00000001
 40
0.0
 40
0.0
 40
0.0
 40
0.0
 40
0.2282083122721998
 40
0.4500476154991766
 40
0.6462545636883209
 40
0.8384549698856161
 40
0.8384549698856161
 40
0.8384549698856161
 40
0.8384549698856161
 10
-9.434755939412312
 20
88.91771301263176
 30
0.0
 10
-9.35967818105539
 20
88.9028265076146
 30
0.0
 10
-9.211617989049238
 20
88.87346897597554
 30
0.0
 10
-8.994956579437126
 20
88.90221449596116
 30
0.0
 10
-8.80092697293461
 20
88.9690170385812
 30
0.0
 10
-8.693272011164344
 20
89.04186771945767
 30
0.0
 10
-8.639999781161059
 20
89.07791732753539
 30
0.0
 11
-9.434755939412312
 21
88.91771301263176
 31
0.0
 11
-9.208797194258608
 21
88.88574928648103
 31
0.0
 11
-8.98840022393022
 21
88.91100503813524
 31
0.0
 11
-8.803695254216851
 21
88.97719598566935
 31
0.0
 11
-8.639999781161059
 21
89.07791732753539
 31
0.0
  0
SPLINE
  5
164
330
47
100
AcDbEntity
  8
0
  6
Continuous
 62
     7
100
AcDbSpline
210
0.0
220
0.0
230
1.0
 70
     8
 71
     3
 72
    11
 73
     7
 74
     5
 42
0.000000001
 43
0.0000000001
 44
0.00000001
 40
0.0
 40
0.0
 40
0.0
 40
0.0
 40
0.000045985299671
 40
0.0000919711875513
 40
0.295001463166819
 40
0.5899109551465831
 40
0.5899109551465831
 40
0.5899109551465831
 40
0.5899109551465831
 10
-9.434755939412312
 20
88.91771301263176
 30
0.0
 10
-9.434770668826745
 20
88.9177172558871
 30
0.0
 10
-9.434800127843882
 20
88.91772574245243
 30
0.0
 10
-9.5292911673758
 20
88.94494676021763
 30
0.0
 10
-9.718222225446171
 20
88.99939978050699
 30
0.0
 10
-9.907142382320249
 20
89.05383526972227
 30
0.0
 10
-10.00160204361355
 20
89.0810544622199
 30
0.0
 11
-9.434755939412312
 21
88.91771301263176
 31
0.0
 11
-9.434800127524582
 21
88.91772574285238
 31
0.0
 11
-9.434844315678076
 21
88.91773847505458
 31
0.0
 11
-9.718223179645808
 21
88.99939646863724
 31
0.0
 11
-10.00160204361355
 21
89.0810544622199
 31
0.0
  0
SPLINE
  5
165
330
47
100
AcDbEntity
  8
0
  6
Continuous
 62
     7
100
AcDbSpline
210
0.0
220
0.0
230
1.0
 70
     8
 71
     3
 72
    13
 73
     9
 74
     7
 42
0.000000001
 43
0.0000000001
 44
0.00000001
 40
0.0
 40
0.0
 40
0.0
 40
0.0
 40
0.0859320711570267
 40
0.184457402560814
 40
0.2797372226733627
 40
0.358957598968928
 40
0.4816229539470212
 40
0.6031447745287619
 40
0.6031447745287619
 40
0.6031447745287619
 40
0.6031447745287619
 10
-8.442755813780458
 20
89.5836822629079
 30
0.0
 10
-8.443575554942125
 20
89.55502484530382
 30
0.0
 10
-8.445335184842188
 20
89.49351029460418
 30
0.0
 10
-8.461125714135221
 20
89.40126701664664
 30
0.0
 10
-8.487437005122864
 20
89.31385955877613
 30
0.0
 10
-8.528107033835695
 20
89.22341018150436
 30
0.0
 10
-8.58602319218648
 20
89.13127086458296
 30
0.0
 10
-8.644730040872961
 20
89.07454253619062
 30
0.0
 10
-8.673946007723963
 20
89.04631120709632
 30
0.0
 11
-8.442755813780458
 21
89.5836822629079
 31
0.0
 11
-8.447092902969509
 21
89.49785970980585
 31
0.0
 11
-8.463308485563168
 21
89.40067794165981
 31
0.0
 11
-8.491091121866948
 21
89.30953865555216
 31
0.0
 11
-8.523473650417266
 21
89.237239001146
 31
0.0
 11
-8.590007511075296
 21
89.13418544638537
 31
0.0
 11
-8.673946007723963
 21
89.04631120709632
 31
0.0
  0
SPLINE
  5
166
330
47
100
AcDbEntity
  8
0
  6
Continuous
 62
     7
100
AcDbSpline
210
0.0
220
0.0
230
1.0
 70
     8
 71
     3
 72
     9
 73
     5
 74
     3
 42
0.000000001
 43
0.0000000001
 44
0.00000001
 40
0.0
 40
0.0
 40
0.0
 40
0.0
 40
0.2070324927178006
 40
0.4045568790693012
 40
0.4045568790693012
 40
0.4045568790693012
 40
0.4045568790693012
 10
-8.761388759189266
 20
91.03299215018421
 30
0.0
 10
-8.708976155981011
 20
91.0779498207472
 30
0.0
 10
-8.60655802106281
 20
91.16580043505601
 30
0.0
 10
-8.49649429517606
 20
91.2438515130272
 30
0.0
 10
-8.442755813842098
 20
91.28195984568801
 30
0.0
 11
-8.761388759189266
 21
91.03299215018421
 31
0.0
 11
-8.602148644025469
 21
91.16529875958368
 31
0.0
 11
-8.442755813842098
 21
91.28195984568801
 31
0.0
  0
SPLINE
  5
167
330
47
100
AcDbEntity
  8
0
  6
Continuous
 62
     7
100
AcDbSpline
210
0.0
220
0.0
230
1.0
 70
     8
 71
     3
 72
    13
 73
     9
 74
     7
 42
0.000000001
 43
0.0000000001
 44
0.00000001
 40
0.0
 40
0.0
 40
0.0
 40
0.0
 40
0.1172631642635196
 40
0.2419307378212666
 40
0.3712960139461153
 40
0.5017221147109558
 40
0.6293737711447686
 40
0.7509434390751868
 40
0.7509434390751868
 40
0.7509434390751868
 40
0.7509434390751868
 10
1.862946490984854
 20
82.49506159216268
 30
0.0
 10
1.866020865239029
 20
82.45591122963826
 30
0.0
 10
1.872363755257126
 20
82.37513841466244
 30
0.0
 10
1.918233788358314
 20
82.25849050035256
 30
0.0
 10
1.986503267840095
 20
82.14928274961802
 30
0.0
 10
2.07610168802812
 20
82.05534434401575
 30
0.0
 10
2.179503622570555
 20
81.97994131415086
 30
0.0
 10
2.257777397729358
 20
81.95111184265413
 30
0.0
 10
2.295959192877064
 20
81.93704889027046
 30
0.0
 11
1.862946490984854
 21
82.49506159216268
 31
0.0
 11
1.877701152518204
 21
82.37873038411668
 31
0.0
 11
1.920959192877071
 21
82.26180841668963
 31
0.0
 11
1.989773056660183
 21
82.15226378002927
 31
0.0
 11
2.079452841930959
 21
82.05756159216267
 31
0.0
 11
2.183887288735083
 21
81.9841559238163
 31
0.0
 11
2.295959192877064
 21
81.93704889027046
 31
0.0
  0
SPLINE
  5
168
330
47
100
AcDbEntity
  8
0
  6
Continuous
 62
     7
100
AcDbSpline
210
0.0
220
0.0
230
1.0
 70
     8
 71
     3
 72
    13
 73
     9
 74
     7
 42
0.000000001
 43
0.0000000001
 44
0.00000001
 40
0.0
 40
0.0
 40
0.0
 40
0.0
 40
0.1172631642623431
 40
0.2419307378199587
 40
0.3712960139448072
 40
0.5017221147096352
 40
0.6293737711434539
 40
0.7509434390736827
 40
0.7509434390736827
 40
0.7509434390736827
 40
0.7509434390736827
 10
1.862946490983674
 20
82.7606943924772
 30
0.0
 10
1.859872116728805
 20
82.7998447550012
 30
0.0
 10
1.853529226709244
 20
82.8806175699763
 30
0.0
 10
1.807659193608358
 20
82.99726548428576
 30
0.0
 10
1.739389714126564
 20
83.1064732350202
 30
0.0
 10
1.649791293938535
 20
83.20041164062252
 30
0.0
 10
1.546389359396185
 20
83.27581467048739
 30
0.0
 10
1.46811558423755
 20
83.30464414198433
 30
0.0
 10
1.429933789089958
 20
83.31870709436812
 30
0.0
 11
1.862946490983674
 21
82.7606943924772
 31
0.0
 11
1.848191829448694
 21
82.87702560052182
 31
0.0
 11
1.804933789089592
 21
82.99394756794864
 31
0.0
 11
1.73611992530648
 21
83.103492204609
 31
0.0
 11
1.646440140035708
 21
83.19819439247559
 31
0.0
 11
1.542005693231626
 21
83.27160006082202
 31
0.0
 11
1.429933789089958
 21
83.31870709436812
 31
0.0
  0
SPLINE
  5
169
330
47
100
AcDbEntity
  8
0
  6
Continuous
 62
     7
100
AcDbSpline
210
0.0
220
0.0
230
1.0
 70
     8
 71
     3
 72
    11
 73
     7
 74
     5
 42
0.000000001
 43
0.0000000001
 44
0.00000001
 40
0.0
 40
0.0
 40
0.0
 40
0.0
 40
0.4256828263361321
 40
0.9829204242059184
 40
1.72011802473367
 40
2.634384778531809
 40
2.634384778531809
 40
2.634384778531809
 40
2.634384778531809
 10
-10.91086975775426
 20
91.15953656305432
 30
0.0
 10
-10.76821626034167
 20
91.18715303462143
 30
0.0
 10
-10.43882304149091
 20
91.25092066893131
 30
0.0
 10
-9.902140872608653
 20
90.97246192328767
 30
0.0
 10
-9.326635771969473
 20
90.52233608540378
 30
0.0
 10
-8.962807586979848
 20
90.10555133830623
 30
0.0
 10
-8.761388759187966
 20
89.87481524177215
 30
0.0
 11
-10.91086975775426
 21
91.15953656305432
 31
0.0
 11
-10.48717038986308
 21
91.20058187956056
 31
0.0
 11
-9.97062867882545
 21
90.99154022657952
 31
0.0
 11
-9.386020778315507
 21
90.54243678089765
 31
0.0
 11
-8.761388759187966
 21
89.87481524177215
 31
0.0
  0
SPLINE
  5
16A
330
47
100
AcDbEntity
  8
0
  6
Continuous
 62
     7
100
AcDbSpline
210
0.0
220
0.0
230
1.0
 70
     8
 71
     3
 72
     9
 73
     5
 74
     3
 42
0.000000001
 43
0.0000000001
 44
0.00000001
 40
0.0
 40
0.0
 40
0.0
 40
0.0
 40
0.1407419043314298
 40
0.2711815176448923
 40
0.2711815176448923
 40
0.2711815176448923
 40
0.2711815176448923
 10
-8.702563435225386
 20
71.35795594389828
 30
0.0
 10
-8.750762786601085
 20
71.35988578357644
 30
0.0
 10
-8.843633299076298
 20
71.36360417995272
 30
0.0
 10
-8.921136341884278
 20
71.31269973080727
 30
0.0
 10
-8.95841567444704
 20
71.28821443753137
 30
0.0
 11
-8.702563435225386
 21
71.35795594389828
 31
0.0
 11
-8.843022168234963
 21
71.34903246110437
 31
0.0
 11
-8.95841567444704
 21
71.28821443753137
 31
0.0
  0
SPLINE
  5
16B
330
47
100
AcDbEntity
  8
0
  6
Continuous
 62
     7
100
AcDbSpline
210
0.0
220
0.0
230
1.0
 70
     8
 71
     3
 72
     9
 73
     5
 74
     3
 42
0.000000001
 43
0.0000000001
 44
0.00000001
 40
0.0
 40
0.0
 40
0.0
 40
0.0
 40
0.134735159755119
 40
0.2806984683897916
 40
0.2806984683897916
 40
0.2806984683897916
 40
0.2806984683897916
 10
-8.95841567444704
 20
71.28821443753137
 30
0.0
 10
-8.98880815814818
 20
71.25351297124128
 30
0.0
 10
-9.052125865221768
 20
71.18121818381736
 30
0.0
 10
-9.06000460360254
 20
71.08518648621072
 30
0.0
 10
-9.064101540985256
 20
71.03524996452214
 30
0.0
 11
-8.95841567444704
 21
71.28821443753137
 31
0.0
 11
-9.036820000264228
 21
71.17864105779735
 31
0.0
 11
-9.064101540985256
 21
71.03524996452214
 31
0.0
  0
SPLINE
  5
16C
330
47
100
AcDbEntity
  8
0
  6
Continuous
 62
     7
100
AcDbSpline
210
0.0
220
0.0
230
1.0
 70
     8
 71
     3
 72
    11
 73
     7
 74
     5
 42
0.000000001
 43
0.0000000001
 44
0.00000001
 40
0.0
 40
0.0
 40
0.0
 40
0.0
 40
0.012129897958505
 40
0.024264617864048
 40
0.0364347557004349
 40
0.0486216022194635
 40
0.0486216022194635
 40
0.0486216022194635
 40
0.0486216022194635
 10
-10.04823738470751
 20
89.09480874954242
 30
0.0
 10
-10.04436497543979
 20
89.09364567519152
 30
0.0
 10
-10.03661861321926
 20
89.09131907850633
 30
0.0
 10
-10.0249740097158
 20
89.08786903550447
 30
0.0
 10
-10.01330266835683
 20
89.08444254742395
 30
0.0
 10
-10.00550403652144
 20
89.08218433552229
 30
0.0
 10
-10.00160204361355
 20
89.0810544622199
 30
0.0
 11
-10.04823738470751
 21
89.09480874954242
 31
0.0
 11
-10.03661799465242
 21
89.09132676740917
 31
0.0
 11
-10.02498391481613
 21
89.08787718565652
 31
0.0
 11
-10.01330591698997
 21
89.08445131022891
 31
0.0
 11
-10.00160204361355
 21
89.0810544622199
 31
0.0
  0
SPLINE
  5
16D
330
47
100
AcDbEntity
  8
0
  6
Continuous
 62
     7
100
AcDbSpline
210
0.0
220
0.0
230
1.0
 70
     8
 71
     3
 72
    23
 73
    19
 74
    17
 42
0.000000001
 43
0.0000000001
 44
0.00000001
 40
0.0
 40
0.0
 40
0.0
 40
0.0
 40
0.0972183112984547
 40
0.2030570940425148
 40
0.303766133644246
 40
0.4210999959513281
 40
0.5381087288853702
 40
0.649713499566612
 40
0.7643147923531693
 40
0.8792727428539009
 40
1.004918619905865
 40
1.103863520678425
 40
1.222027872050663
 40
1.320466450003377
 40
1.430253197559413
 40
1.528384549180436
 40
1.633434397355908
 40
1.73277600767635
 40
1.73277600767635
 40
1.73277600767635
 40
1.73277600767635
 10
-10.9108697577545
 20
90.44623265775014
 30
0.0
 10
-10.9108561017722
 20
90.41382532373761
 30
0.0
 10
-10.9108275638944
 20
90.34613705625343
 30
0.0
 10
-10.90638939257945
 20
90.24491905547639
 30
0.0
 10
-10.89462536824595
 20
90.13752062353527
 30
0.0
 10
-10.87421410142914
 20
90.02759286955695
 30
0.0
 10
-10.84422478319638
 20
89.9161234504363
 30
0.0
 10
-10.80623996331684
 20
89.80810214541033
 30
0.0
 10
-10.76060057861405
 20
89.70381858077575
 30
0.0
 10
-10.70479045431173
 20
89.59925953057304
 30
0.0
 10
-10.64294544601095
 20
89.50424872846412
 30
0.0
 10
-10.57224669665953
 20
89.41435153759824
 30
0.0
 10
-10.49952148988859
 20
89.33804863232454
 30
0.0
 10
-10.41640694251488
 20
89.2675784802571
 30
0.0
 10
-10.33151276751511
 20
89.21036229747675
 30
0.0
 10
-10.23879431469343
 20
89.1621592219032
 30
0.0
 10
-10.14498320249177
 20
89.12472199935624
 30
0.0
 10
-10.07987992468682
 20
89.10459243576103
 30
0.0
 10
-10.04823738470751
 20
89.09480874954242
 30
0.0
 11
-10.9108697577545
 21
90.44623265775014
 31
0.0
 11
-10.9101552740743
 21
90.34901697276798
 31
0.0
 11
-10.90513696039358
 21
90.24329722776513
 31
0.0
 11
-10.89408505371131
 21
90.14319644837768
 31
0.0
 11
-10.87268049229505
 21
90.02783146225471
 31
0.0
 11
-10.84231987509889
 21
89.91483023857275
 31
0.0
 11
-10.80529954593239
 21
89.80954434140936
 31
0.0
 11
-10.75931267602346
 21
89.70457451609902
 31
0.0
 11
-10.70509562941432
 21
89.60320468621978
 31
0.0
 11
-10.63638622522138
 21
89.49801008343735
 31
0.0
 11
-10.57511947115841
 21
89.4203153061213
 31
0.0
 11
-10.49341683380417
 21
89.33494849009045
 31
0.0
 11
-10.41825148978463
 21
89.27138493998139
 31
0.0
 11
-10.32717302795077
 21
89.21008368386458
 31
0.0
 11
-10.2401879903587
 21
89.1646593993787
 31
0.0
 11
-10.14275814407658
 21
89.12537968567153
 31
0.0
 11
-10.04823738470751
 21
89.09480874954242
 31
0.0
  0
SPLINE
  5
16E
330
47
100
AcDbEntity
  8
0
  6
Continuous
 62
     7
100
AcDbSpline
210
0.0
220
0.0
230
1.0
 70
     8
 71
     3
 72
    25
 73
    21
 74
    19
 42
0.000000001
 43
0.0000000001
 44
0.00000001
 40
0.0
 40
0.0
 40
0.0
 40
0.0
 40
0.024401324410322
 40
0.0488026490141274
 40
0.1484500308627966
 40
0.2553209284104604
 40
0.3560718548668668
 40
0.4688944239075254
 40
0.5689536806522344
 40
0.6908114545772942
 40
0.7908596152603362
 40
0.9183302088849032
 40
1.019770583756731
 40
1.144246841213674
 40
1.266347157111411
 40
1.363835085976687
 40
1.47482741878416
 40
1.572516424595128
 40
1.676106288040304
 40
1.772383910063055
 40
1.772383910063055
 40
1.772383910063055
 40
1.772383910063055
 10
-10.00160204361355
 20
89.0810544622199
 30
0.0
 10
-10.0094167052615
 20
89.08331045341536
 30
0.0
 10
-10.02504602461874
 20
89.08782244968278
 30
0.0
 10
-10.07258858797506
 20
89.10154396540898
 30
0.0
 10
-10.14653330108019
 20
89.12293928022744
 30
0.0
 10
-10.24357539999364
 20
89.15592206274316
 30
0.0
 10
-10.34201411075935
 20
89.19765474716003
 30
0.0
 10
-10.43453431657582
 20
89.24667225571092
 30
0.0
 10
-10.52826003579825
 20
89.30742861288786
 30
0.0
 10
-10.61289125156441
 20
89.37371623646158
 30
0.0
 10
-10.69815329519568
 20
89.45319008833843
 30
0.0
 10
-10.77177098500731
 20
89.53470695329675
 30
0.0
 10
-10.84291976098444
 20
89.62872075968441
 30
0.0
 10
-10.90461760758537
 20
89.7271936035703
 30
0.0
 10
-10.9552784840031
 20
89.83033842862815
 30
0.0
 10
-10.99374062875208
 20
89.93375902766515
 30
0.0
 10
-11.01943300092844
 20
90.03275656789961
 30
0.0
 10
-11.03495680626853
 20
90.13583746721815
 30
0.0
 10
-11.04078357549889
 20
90.23496108396155
 30
0.0
 10
-11.0408161457789
 20
90.30158768482765
 30
0.0
 10
-11.04083182807489
 20
90.33368220332274
 30
0.0
 11
-10.00160204361355
 21
89.0810544622199
 31
0.0
 11
-10.02504607805583
 21
89.08782217117758
 31
0.0
 11
-10.04849011249811
 21
89.0945898808555
 31
0.0
 11
-10.14400877347236
 21
89.12297625379753
 31
0.0
 11
-10.24503365788833
 21
89.15783828974264
 31
0.0
 11
-10.33772597817631
 21
89.19732098238082
 31
0.0
 11
-10.43740257052666
 21
89.25017463998036
 31
0.0
 11
-10.52138337514086
 21
89.3045720608352
 31
0.0
 11
-10.6173648655753
 21
89.37965115702436
 31
0.0
 11
-10.69057018623343
 21
89.44784657897976
 31
0.0
 11
-10.77600229532156
 21
89.5424515849321
 31
0.0
 11
-10.83718643955503
 21
89.62336295792288
 31
0.0
 11
-10.90315107912518
 21
89.72892339193471
 31
0.0
 11
-10.95680491852073
 21
89.83860362222745
 31
0.0
 11
-10.99069098838525
 21
89.93001276137791
 31
0.0
 11
-11.01853022540406
 21
90.03745704955689
 31
0.0
 11
-11.03323490472663
 21
90.13403300123613
 31
0.0
 11
-11.03988416485336
 21
90.23740924288377
 31
0.0
 11
-11.04083182807489
 21
90.33368220332274
 31
0.0
  0
SPLINE
  5
16F
330
47
100
AcDbEntity
  8
0
  6
Continuous
 62
     7
100
AcDbSpline
210
0.0
220
0.0
230
1.0
 70
     8
 71
     3
 72
    11
 73
     7
 74
     5
 42
0.000000001
 43
0.0000000001
 44
0.00000001
 40
0.0
 40
0.0
 40
0.0
 40
0.0
 40
0.2267504624627535
 40
0.4687516795135938
 40
0.7374140423507827
 40
1.039009786640317
 40
1.039009786640317
 40
1.039009786640317
 40
1.039009786640317
 10
-11.4516015401751
 20
95.18653341282541
 30
0.0
 10
-11.44451361585733
 20
95.1106740805435
 30
0.0
 10
-11.42986103390879
 20
94.95385328082989
 30
0.0
 10
-11.3155947183643
 20
94.73080805855564
 30
0.0
 10
-11.14288468684769
 20
94.5200067950181
 30
0.0
 10
-10.99112944569946
 20
94.40445795869387
 30
0.0
 10
-10.91086975775318
 20
94.34334697473325
 30
0.0
 11
-11.4516015401751
 21
95.18653341282541
 31
0.0
 11
-11.41676989253537
 21
94.96247420272564
 31
0.0
 11
-11.31311180006706
 21
94.74379729375647
 31
0.0
 11
-11.14311718875305
 21
94.53575571478507
 31
0.0
 11
-10.91086975775318
 21
94.34334697473325
 31
0.0
  0
SPLINE
  5
170
330
47
100
AcDbEntity
  8
0
  6
Continuous
 62
     7
100
AcDbSpline
210
0.0
220
0.0
230
1.0
 70
     8
 71
     3
 72
    11
 73
     7
 74
     5
 42
0.000000001
 43
0.0000000001
 44
0.00000001
 40
0.0
 40
0.0
 40
0.0
 40
0.0
 40
1.772801100347828
 40
3.633850905040385
 40
5.588997060627967
 40
7.63305553085539
 40
7.63305553085539
 40
7.63305553085539
 40
7.63305553085539
 10
5.630766814519362
 20
84.33090954320984
 30
0.0
 10
5.445410393160969
 20
83.7676644609211
 30
0.0
 10
5.065470661790297
 20
82.61313637614307
 30
0.0
 10
4.934320058683463
 20
80.73942187588666
 30
0.0
 10
5.085559263978014
 20
78.78247583958125
 30
0.0
 10
5.446357146545733
 20
77.49596823661386
 30
0.0
 10
5.630766814546377
 20
76.83841329703296
 30
0.0
 11
5.630766814519362
 21
84.33090954320984
 31
0.0
 11
5.144830042472618
 21
82.62600802124867
 31
0.0
 11
4.981247761705959
 21
80.77216142011311
 31
0.0
 11
5.144830042486333
 21
78.8238705451408
 31
0.0
 11
5.630766814546377
 21
76.83841329703296
 31
0.0
  0
SPLINE
  5
171
330
47
100
AcDbEntity
  8
0
  6
Continuous
 62
     7
100
AcDbSpline
210
0.0
220
0.0
230
1.0
 70
     8
 71
     3
 72
    15
 73
    11
 74
     9
 42
0.000000001
 43
0.0000000001
 44
0.00000001
 40
0.0
 40
0.0
 40
0.0
 40
0.0
 40
0.1569776550871618
 40
0.3456862717534642
 40
0.5779295168936173
 40
0.849193274111831
 40
1.145980603244163
 40
1.450377820892106
 40
1.743298286986005
 40
2.007447478457839
 40
2.007447478457839
 40
2.007447478457839
 40
2.007447478457839
 10
0.4560245533786329
 20
93.17803976352458
 30
0.0
 10
0.4458821128930307
 20
93.23054220547483
 30
0.0
 10
0.4235470591921795
 20
93.34615975939484
 30
0.0
 10
0.2749295781362699
 20
93.48377990186657
 30
0.0
 10
0.072409705117496
 20
93.59329000988323
 30
0.0
 10
-0.185671614458018
 20
93.66935379534667
 30
0.0
 10
-0.4749575422770378
 20
93.70707596905697
 30
0.0
 10
-0.7736009201658515
 20
93.7017006045273
 30
0.0
 10
-1.059787386316331
 20
93.65963140432014
 30
0.0
 10
-1.233156574255527
 20
93.5917190513258
 30
0.0
 10
-1.31536412141228
 20
93.55951662385999
 30
0.0
 11
0.4560245533786329
 21
93.17803976352458
 31
0.0
 11
0.4118718516992841
 21
93.32868014897659
 31
0.0
 11
0.2831289452517822
 21
93.46665191059974
 31
0.0
 11
0.0806212225070193
 21
93.58035127978319
 31
0.0
 11
-0.1786190385392992
 21
93.66021687161523
 31
0.0
 11
-0.4727909330649918
 21
93.69953118342798
 31
0.0
 11
-0.7771542580728052
 21
93.69498887200567
 31
0.0
 11
-1.066112174669188
 21
93.64697094197349
 31
0.0
 11
-1.31536412141228
 21
93.55951662385999
 31
0.0
  0
SPLINE
  5
172
330
47
100
AcDbEntity
  8
0
  6
Continuous
 62
     7
100
AcDbSpline
210
0.0
220
0.0
230
1.0
 70
     8
 71
     3
 72
    11
 73
     7
 74
     5
 42
0.000000001
 43
0.0000000001
 44
0.00000001
 40
0.0
 40
0.0
 40
0.0
 40
0.0
 40
1.7728011003836
 40
3.633850905080553
 40
5.588997060664504
 40
7.633055530872268
 40
7.633055530872268
 40
7.633055530872268
 40
7.633055530872268
 10
5.130766813871631
 20
83.89789684075066
 30
0.0
 10
4.945410392500223
 20
83.33465175845322
 30
0.0
 10
4.565470661106337
 20
82.18012367366792
 30
0.0
 10
4.434320057999541
 20
80.30640917339827
 30
0.0
 10
4.585559263289657
 20
78.34946313709733
 30
0.0
 10
4.946357145884941
 20
77.06295553414486
 30
0.0
 10
5.130766813898973
 20
76.40540059457405
 30
0.0
 11
5.130766813871631
 21
83.89789684075066
 31
0.0
 11
4.644830041792558
 21
82.1929953187615
 31
0.0
 11
4.48124776102128
 21
80.33914871762194
 31
0.0
 11
4.644830041806314
 21
78.39085784265367
 31
0.0
 11
5.130766813898973
 21
76.40540059457405
 31
0.0
  0
SPLINE
  5
173
330
47
100
AcDbEntity
  8
0
  6
Continuous
 62
     7
100
AcDbSpline
210
0.0
220
0.0
230
1.0
 70
     8
 71
     3
 72
    13
 73
     9
 74
     7
 42
0.000000001
 43
0.0000000001
 44
0.00000001
 40
0.0
 40
0.0
 40
0.0
 40
0.0
 40
0.2794780709293206
 40
0.5491926934644124
 40
0.794260827281052
 40
1.003866458939165
 40
1.175085468476047
 40
1.318904477963074
 40
1.318904477963074
 40
1.318904477963074
 40
1.318904477963074
 10
-3.123505520549799
 20
94.35079991992465
 30
0.0
 10
-3.216820566823404
 20
94.35228708154948
 30
0.0
 10
-3.400190737329709
 20
94.35520944717742
 30
0.0
 10
-3.662623657571704
 20
94.31254142109415
 30
0.0
 10
-3.89448734137668
 20
94.23870400290701
 30
0.0
 10
-4.07542046413948
 20
94.13533759087218
 30
0.0
 10
-4.206987473171114
 20
94.00748477933233
 30
0.0
 10
-4.226462382296094
 20
93.90206345184653
 30
0.0
 10
-4.235352928552921
 20
93.85393722326484
 30
0.0
 11
-3.123505520549799
 21
94.35079991992465
 31
0.0
 11
-3.402955869778568
 21
94.34686430907004
 31
0.0
 11
-3.669307427272106
 21
94.30440461749023
 31
0.0
 11
-3.901743157991207
 21
94.22673852949092
 31
0.0
 11
-4.082098019687539
 21
94.11993663615843
 31
0.0
 11
-4.196275298439611
 21
93.99234548949113
 31
0.0
 11
-4.235352928552921
 21
93.85393722326484
 31
0.0
  0
SPLINE
  5
174
330
47
100
AcDbEntity
  8
0
  6
Continuous
 62
     7
100
AcDbSpline
210
0.0
220
0.0
230
1.0
 70
     8
 71
     3
 72
    11
 73
     7
 74
     5
 42
0.000000001
 43
0.0000000001
 44
0.00000001
 40
0.0
 40
0.0
 40
0.0
 40
0.0
 40
0.1609147873547869
 40
0.3003106167260616
 40
0.4204401833311627
 40
0.5286485643086541
 40
0.5286485643086541
 40
0.5286485643086541
 40
0.5286485643086541
 10
-1.31536412141228
 20
93.55951662385999
 30
0.0
 10
-1.3630840442911
 20
93.53454581034931
 30
0.0
 10
-1.452142350028312
 20
93.4879434914016
 30
0.0
 10
-1.557588546452465
 20
93.39446756547544
 30
0.0
 10
-1.629723765197981
 20
93.29077424435508
 30
0.0
 10
-1.639393165708739
 20
93.21428682657896
 30
0.0
 10
-1.643975446621383
 20
93.1780397635253
 30
0.0
 11
-1.31536412141228
 21
93.55951662385999
 31
0.0
 11
-1.454578816271639
 21
93.47881447618393
 31
0.0
 11
-1.558329662801903
 21
93.38571796756628
 31
0.0
 11
-1.622341062397569
 21
93.28406338264173
 31
0.0
 11
-1.643975446621383
 21
93.1780397635253
 31
0.0
  0
SPLINE
  5
175
330
47
100
AcDbEntity
  8
0
  6
Continuous
 62
     7
100
AcDbSpline
210
0.0
220
0.0
230
1.0
 70
     8
 71
     3
 72
    11
 73
     7
 74
     5
 42
0.000000001
 43
0.0000000001
 44
0.00000001
 40
0.0
 40
0.0
 40
0.0
 40
0.0
 40
0.3073300356402288
 40
0.6009111281972334
 40
0.8615368120529872
 40
1.076958460878548
 40
1.076958460878548
 40
1.076958460878548
 40
1.076958460878548
 10
-3.123505520547909
 20
93.9177872180314
 30
0.0
 10
-3.226240548575131
 20
93.91914115463418
 30
0.0
 10
-3.427114574039632
 20
93.92178844285661
 30
0.0
 10
-3.709937780404519
 20
93.86767836593971
 30
0.0
 10
-3.956601384054219
 20
93.78369217273477
 30
0.0
 10
-4.080619767647997
 20
93.6829974184412
 30
0.0
 10
-4.136740747416049
 20
93.63743087231865
 30
0.0
 11
-3.123505520547909
 21
93.9177872180314
 31
0.0
 11
-3.430766753386916
 21
93.9112845935671
 31
0.0
 11
-3.719546273896273
 21
93.85840503645844
 31
0.0
 11
-3.962530769812413
 21
93.76414855597847
 31
0.0
 11
-4.136740747416049
 21
93.63743087231865
 31
0.0
  0
SPLINE
  5
176
330
47
100
AcDbEntity
  8
0
  6
Continuous
 62
     7
100
AcDbSpline
210
0.0
220
0.0
230
1.0
 70
     8
 71
     3
 72
     9
 73
     5
 74
     3
 42
0.000000001
 43
0.0000000001
 44
0.00000001
 40
0.0
 40
0.0
 40
0.0
 40
0.0
 40
0.1640893791784834
 40
0.3662417153925374
 40
0.3662417153925374
 40
0.3662417153925374
 40
0.3662417153925374
 10
-4.235352928552921
 20
93.85393722326484
 30
0.0
 10
-4.223720244031276
 20
93.79870555545105
 30
0.0
 10
-4.197756484170714
 20
93.67543042568033
 30
0.0
 10
-4.096120241226376
 20
93.59916842096109
 30
0.0
 10
-4.040020659573258
 20
93.55707452661636
 30
0.0
 11
-4.235352928552921
 21
93.85393722326484
 31
0.0
 11
-4.185264674002855
 21
93.69767944933473
 31
0.0
 11
-4.040020659573258
 21
93.55707452661636
 31
0.0
  0
SPLINE
  5
177
330
47
100
AcDbEntity
  8
0
  6
Continuous
 62
     7
100
AcDbSpline
210
0.0
220
0.0
230
1.0
 70
     8
 71
     3
 72
     9
 73
     5
 74
     3
 42
0.000000001
 43
0.0000000001
 44
0.00000001
 40
0.0
 40
0.0
 40
0.0
 40
0.0
 40
0.1640893839715079
 40
0.3662417276938386
 40
0.3662417276938386
 40
0.3662417276938386
 40
0.3662417276938386
 10
-2.235352928552921
 20
93.85393722327359
 30
0.0
 10
-2.246985613818397
 20
93.90916889266214
 30
0.0
 10
-2.27294937545284
 20
94.03244402648758
 30
0.0
 10
-2.374585623342406
 20
94.10870603202056
 30
0.0
 10
-2.430685207924476
 20
94.15079992696405
 30
0.0
 11
-2.235352928552921
 21
93.85393722327359
 31
0.0
 11
-2.28544118583808
 21
94.01019500136022
 31
0.0
 11
-2.430685207924476
 21
94.15079992696405
 31
0.0
  0
SPLINE
  5
178
330
47
100
AcDbEntity
  8
0
  6
Continuous
 62
     7
100
AcDbSpline
210
0.0
220
0.0
230
1.0
 70
     8
 71
     3
 72
    13
 73
     9
 74
     7
 42
0.000000001
 43
0.0000000001
 44
0.00000001
 40
0.0
 40
0.0
 40
0.0
 40
0.0
 40
0.2794780709159864
 40
0.5491926934349274
 40
0.7942608272352014
 40
1.003866458879147
 40
1.175085468405613
 40
1.318904477885641
 40
1.318904477885641
 40
1.318904477885641
 40
1.318904477885641
 10
-3.347200336478281
 20
93.3570745266094
 30
0.0
 10
-3.253885290209086
 20
93.35558736498805
 30
0.0
 10
-3.070515119712542
 20
93.35266499936701
 30
0.0
 10
-2.808082199487059
 20
93.39533302545584
 30
0.0
 10
-2.576218515699252
 20
93.46917044364497
 30
0.0
 10
-2.395285392951135
 20
93.57253685567841
 30
0.0
 10
-2.263718383931632
 20
93.70038966721417
 30
0.0
 10
-2.244243474808816
 20
93.80581099469421
 30
0.0
 10
-2.235352928552921
 20
93.85393722327359
 30
0.0
 11
-3.347200336478281
 21
93.3570745266094
 31
0.0
 11
-3.067749987262986
 21
93.36101013747384
 31
0.0
 11
-2.801398429786737
 21
93.4034698290595
 31
0.0
 11
-2.568962699085461
 21
93.48113591706053
 31
0.0
 11
-2.388607837404425
 21
93.58793781039104
 31
0.0
 11
-2.274430558662619
 21
93.71552895705355
 31
0.0
 11
-2.235352928552921
 21
93.85393722327359
 31
0.0
  0
SPLINE
  5
179
330
47
100
AcDbEntity
  8
0
  6
Continuous
 62
     7
100
AcDbSpline
210
0.0
220
0.0
230
1.0
 70
     8
 71
     3
 72
     9
 73
     5
 74
     3
 42
0.000000001
 43
0.0000000001
 44
0.00000001
 40
0.0
 40
0.0
 40
0.0
 40
0.0
 40
0.0607831169940097
 40
0.1259174340423965
 40
0.1259174340423965
 40
0.1259174340423965
 40
0.1259174340423965
 10
-2.333965109687902
 20
93.63743087232653
 30
0.0
 10
-2.348498849293644
 20
93.65159507621203
 30
0.0
 10
-2.378606749186295
 20
93.68093742300528
 30
0.0
 10
-2.412930355470196
 20
93.7052242118662
 30
0.0
 10
-2.430685207922586
 20
93.71778722507082
 30
0.0
 11
-2.333965109687902
 21
93.63743087232653
 31
0.0
 11
-2.378548681041733
 21
93.67874542836188
 31
0.0
 11
-2.430685207922586
 21
93.71778722507082
 31
0.0
  0
SPLINE
  5
17A
330
47
100
AcDbEntity
  8
0
  6
Continuous
 62
     7
100
AcDbSpline
210
0.0
220
0.0
230
1.0
 70
     8
 71
     3
 72
    17
 73
    13
 74
    11
 42
0.000000001
 43
0.0000000001
 44
0.00000001
 40
0.0
 40
0.0
 40
0.0
 40
0.0
 40
0.1701789767108704
 40
0.3791341961317241
 40
0.6388463247443045
 40
0.9409022076529439
 40
1.266385867528393
 40
1.59186952740384
 40
1.89392541031248
 40
2.153637538925071
 40
2.362592758345917
 40
2.532771735056782
 40
2.532771735056782
 40
2.532771735056782
 40
2.532771735056782
 10
-1.643975446621383
 20
93.1780397635253
 30
0.0
 10
-1.631922650885016
 20
93.12120672180026
 30
0.0
 10
-1.605070743224534
 20
92.9945909169151
 30
0.0
 10
-1.432426316937436
 20
92.85036696034442
 30
0.0
 10
-1.201808060586122
 20
92.73946663942594
 30
0.0
 10
-0.9117232584467716
 20
92.66904324438448
 30
0.0
 10
-0.5939754466215629
 20
92.64473991591359
 30
0.0
 10
-0.2762276347963425
 20
92.66904324438431
 30
0.0
 10
0.0138571673430687
 20
92.73946663942547
 30
0.0
 10
0.2444754236944466
 20
92.85036696034388
 30
0.0
 10
0.4171198499816511
 20
92.9945909169144
 30
0.0
 10
0.443971757642225
 20
93.12120672179954
 30
0.0
 10
0.4560245533786329
 20
93.17803976352458
 30
0.0
 11
-1.643975446621383
 21
93.1780397635253
 31
0.0
 11
-1.592583993423827
 21
93.01580597068393
 31
0.0
 11
-1.443443290715181
 21
92.86945250607158
 31
0.0
 11
-1.211149470001544
 21
92.75330617974267
 31
0.0
 11
-0.9184432907152457
 21
92.67873509246995
 31
0.0
 11
-0.5939754466215605
 21
92.65304018164268
 31
0.0
 11
-0.2695076025278596
 21
92.67873509246974
 31
0.0
 11
0.0231985767584937
 21
92.75330617974224
 31
0.0
 11
0.2554923974722136
 21
92.86945250607101
 31
0.0
 11
0.4046331001809596
 21
93.01580597068325
 31
0.0
 11
0.4560245533786329
 21
93.17803976352458
 31
0.0
  0
SPLINE
  5
17B
330
47
100
AcDbEntity
  8
0
  6
Continuous
 62
     7
100
AcDbSpline
210
0.0
220
0.0
230
1.0
 70
     8
 71
     3
 72
    15
 73
    11
 74
     9
 42
0.000000001
 43
0.0000000001
 44
0.00000001
 40
0.0
 40
0.0
 40
0.0
 40
0.0
 40
0.7142676959365869
 40
1.466467150908207
 40
2.218666605603297
 40
2.932934292283199
 40
3.576230762042669
 40
4.126302543944899
 40
4.580429156803067
 40
4.968508124450435
 40
4.968508124450435
 40
4.968508124450435
 40
4.968508124450435
 10
-7.101601540175111
 20
96.44227024831186
 30
0.0
 10
-7.333635572636098
 20
96.49737847160665
 30
0.0
 10
-7.810025992071792
 20
96.61052147877574
 30
0.0
 10
-8.551964074908033
 20
96.6511579402231
 30
0.0
 10
-9.291763567772055
 20
96.60552221107775
 30
0.0
 10
-9.983028343348991
 20
96.46579689166619
 30
0.0
 10
-10.58430684181732
 20
96.24389275829046
 30
0.0
 10
-11.04904875369684
 20
95.95148026086277
 30
0.0
 10
-11.38154854670601
 20
95.59847094829107
 30
0.0
 10
-11.42950414113989
 20
95.31647432427991
 30
0.0
 10
-11.4516015401751
 20
95.18653341282541
 30
0.0
 11
-7.101601540175111
 21
96.44227024831186
 31
0.0
 11
-7.801026509485427
 21
96.58712548753776
 31
0.0
 11
-8.551601540174982
 21
96.63653341282486
 31
0.0
 11
-9.302176570864551
 21
96.58712548753816
 31
0.0
 11
-10.00160154017489
 21
96.44227024831265
 31
0.0
 11
-10.6022106589115
 21
96.21183797219366
 31
0.0
 11
-11.06307521114979
 21
95.91153341282543
 31
0.0
 11
-11.35278568960123
 21
95.56182092817025
 31
0.0
 11
-11.4516015401751
 21
95.18653341282541
 31
0.0
  0
SPLINE
  5
17C
330
47
100
AcDbEntity
  8
0
  6
Continuous
 62
     7
100
AcDbSpline
210
0.0
220
0.0
230
1.0
 70
     8
 71
     3
 72
    11
 73
     7
 74
     5
 42
0.000000001
 43
0.0000000001
 44
0.00000001
 40
0.0
 40
0.0
 40
0.0
 40
0.0
 40
0.3880789720121806
 40
0.8422055809169383
 40
1.392277358289034
 40
2.035573833200315
 40
2.035573833200315
 40
2.035573833200315
 40
2.035573833200315
 10
-5.131986298018262
 20
95.03653341283439
 30
0.0
 10
-5.154073232389617
 20
95.16651641841332
 30
0.0
 10
-5.202006117863165
 20
95.448604392859
 30
0.0
 10
-5.534712812637954
 20
95.80078152827778
 30
0.0
 10
-5.998420355240593
 20
96.09735451764858
 30
0.0
 10
-6.377590846182297
 20
96.2240005232423
 30
0.0
 10
-6.58198629795546
 20
96.29227024826842
 30
0.0
 11
-5.131986298018262
 21
95.03653341283439
 31
0.0
 11
-5.230802148587641
 21
95.41182092816312
 31
0.0
 11
-5.520512627026442
 21
95.76153341280343
 31
0.0
 11
-5.981377179244766
 21
96.06183797215901
 31
0.0
 11
-6.58198629795546
 21
96.29227024826842
 31
0.0
  0
SPLINE
  5
17D
330
47
100
AcDbEntity
  8
0
  6
Continuous
 62
     7
100
AcDbSpline
210
0.0
220
0.0
230
1.0
 70
     8
 71
     3
 72
    15
 73
    11
 74
     9
 42
0.000000001
 43
0.0000000001
 44
0.00000001
 40
0.0
 40
0.0
 40
0.0
 40
0.0
 40
0.6034635587912864
 40
1.196479089654633
 40
1.760315321002731
 40
2.278662694673607
 40
2.739552627362524
 40
3.137998120881375
 40
3.479897821724797
 40
3.786496288032387
 40
3.786496288032387
 40
3.786496288032387
 40
3.786496288032387
 10
-8.31279369185232
 20
93.59334707639321
 30
0.0
 10
-8.111492582082748
 20
93.58962099292816
 30
0.0
 10
-7.712375576594062
 20
93.58223334122809
 30
0.0
 10
-7.127742584651325
 20
93.648673691619
 30
0.0
 10
-6.581269257185888
 20
93.7689375716246
 30
0.0
 10
-6.095901508419049
 20
93.94334821065434
 30
0.0
 10
-5.689448470043079
 20
94.16379981570911
 30
0.0
 10
-5.383041751747292
 20
94.423371895316
 30
0.0
 10
-5.17364780529925
 20
94.71667605254581
 30
0.0
 10
-5.145360180454457
 20
94.93385503038826
 30
0.0
 10
-5.131986298018262
 20
95.03653341283439
 30
0.0
 11
-8.31279369185232
 21
93.59334707639321
 31
0.0
 11
-7.709334112638846
 21
93.59553597844443
 31
0.0
 11
-7.119846467819233
 21
93.66012495877165
 31
0.0
 11
-6.569857815128707
 21
93.7843174613891
 31
0.0
 11
-6.083184286807327
 21
93.96273516352728
 31
0.0
 11
-5.680901016162755
 21
94.18765225884988
 31
0.0
 11
-5.380427715551594
 21
94.44932878843068
 31
0.0
 11
-5.194776603513743
 21
94.73643342680892
 31
0.0
 11
-5.131986298018262
 21
95.03653341283439
 31
0.0
  0
ENDBLK
  5
49
330
47
100
AcDbEntity
  8
0
100
AcDbBlockEnd
  0
BLOCK
  5
4C
330
4A
100
AcDbEntity
  8
0
100
AcDbBlockBegin
  2
Allg1
 70
     0
 10
-4.99999999999972
 20
76.0
 30
0.0
  3
Allg1
  1

  0
INSERT
  5
4B
330
4A
100
AcDbEntity
  8
0
100
AcDbBlockReference
  2
PP_H_4_1_L_GNYE-select__1
 10
-15.63076666568001
 20
56.08715248152592
 30
0.0
  0
MTEXT
  5
17F
330
4A
100
AcDbEntity
  8
1
 62
     6
100
AcDbMText
 10
-5.150706129176
 20
48.60555484624751
 30
0.0
 40
5.0
 41
0.0
 71
     2
 72
     1
  1
 
  7
CONVERTER_11
 73
     1
 44
1.32052821128451
  0
ENDBLK
  5
4D
330
4A
100
AcDbEntity
  8
0
100
AcDbBlockEnd
  0
BLOCK
  5
4F
330
4E
100
AcDbEntity
  8
0
100
AcDbBlockBegin
  2
PP_H_4_1_L_GNYE-select__2
 70
     0
 10
-114.8625429283034
 20
85.37597502394252
 30
0.0
  3
PP_H_4_1_L_GNYE-select__2
  1

  0
LINE
  5
180
330
4E
100
AcDbEntity
  8
0
  6
Continuous
 62
     7
100
AcDbLine
 10
-109.5625429277499
 20
86.87597502512554
 30
0.0
 11
-109.5625429530748
 21
90.67597502385695
 31
0.0
  0
LINE
  5
181
330
4E
100
AcDbEntity
  8
0
  6
Continuous
 62
     7
100
AcDbLine
 10
-107.7625429275625
 20
85.37644031581488
 30
0.0
 11
-108.3625435086078
 21
85.37597502443495
 31
0.0
  0
LINE
  5
182
330
4E
100
AcDbEntity
  8
0
  6
Continuous
 62
     7
100
AcDbLine
 10
-108.3625435086078
 20
85.37597502443495
 30
0.0
 11
-109.562542700221
 21
85.37597502397477
 31
0.0
  0
LINE
  5
183
330
4E
100
AcDbEntity
  8
0
  6
Continuous
 62
     7
100
AcDbLine
 10
-106.5625429278464
 20
85.37597502399316
 30
0.0
 11
-106.5625429278474
 21
85.63589926797367
 31
0.0
  0
LINE
  5
184
330
4E
100
AcDbEntity
  8
0
  6
Continuous
 62
     7
100
AcDbLine
 10
-106.5625429278464
 20
85.37597502399316
 30
0.0
 11
-108.3625435086078
 21
85.37597502443495
 31
0.0
  0
LINE
  5
185
330
4E
100
AcDbEntity
  8
0
  6
Continuous
 62
     7
100
AcDbLine
 10
-109.7125429278755
 20
90.67597502385703
 30
0.0
 11
-109.7125429278664
 21
86.87597502512772
 31
0.0
  0
LINE
  5
186
330
4E
100
AcDbEntity
  8
0
  6
Continuous
 62
     7
100
AcDbLine
 10
-109.3125429311937
 20
86.87597502512222
 30
0.0
 11
-109.3125429541867
 21
90.67597502385686
 31
0.0
  0
LINE
  5
187
330
4E
100
AcDbEntity
  8
0
  6
Continuous
 62
     7
100
AcDbLine
 10
-109.5625427002226
 20
85.63589916461825
 30
0.0
 11
-109.562542700221
 21
85.37597502397477
 31
0.0
  0
LINE
  5
188
330
4E
100
AcDbEntity
  8
0
  6
Continuous
 62
     7
100
AcDbLine
 10
-109.7625429268791
 20
86.87597502512827
 30
0.0
 11
-110.4131525930022
 21
86.22536535900406
 31
0.0
  0
LINE
  5
189
330
4E
100
AcDbEntity
  8
0
  6
Continuous
 62
     7
100
AcDbLine
 10
-114.00251065148
 20
85.37597502394775
 30
0.0
 11
-113.7868169287301
 21
85.37597502394935
 31
0.0
  0
LINE
  5
18A
330
4E
100
AcDbEntity
  8
0
  6
Continuous
 62
     7
100
AcDbLine
 10
-113.7868169287301
 20
85.37597502394935
 30
0.0
 11
-113.6357252897672
 21
85.37597502395033
 31
0.0
  0
LINE
  5
18B
330
4E
100
AcDbEntity
  8
0
  6
Continuous
 62
     7
100
AcDbLine
 10
-104.3125429281588
 20
86.87597502405535
 30
0.0
 11
-102.9125429279561
 21
86.87597502405995
 31
0.0
  0
LINE
  5
18C
330
4E
100
AcDbEntity
  8
0
  6
Continuous
 62
     7
100
AcDbLine
 10
-102.9125429279561
 20
86.87597502405995
 30
0.0
 11
-102.112542927887
 21
86.87597502405276
 31
0.0
  0
LINE
  5
18D
330
4E
100
AcDbEntity
  8
0
  6
Continuous
 62
     7
100
AcDbLine
 10
-107.7625429273779
 20
86.87597502510691
 30
0.0
 11
-109.3125429311937
 21
86.87597502512222
 31
0.0
  0
LINE
  5
18E
330
4E
100
AcDbEntity
  8
0
  6
Continuous
 62
     7
100
AcDbLine
 10
-109.7125429278664
 20
86.87597502512772
 30
0.0
 11
-109.7625429268791
 21
86.87597502512827
 31
0.0
  0
LINE
  5
18F
330
4E
100
AcDbEntity
  8
0
  6
Continuous
 62
     7
100
AcDbLine
 10
-109.5625429277499
 20
86.87597502512554
 30
0.0
 11
-109.7125429278664
 21
86.87597502512772
 31
0.0
  0
LINE
  5
190
330
4E
100
AcDbEntity
  8
0
  6
Continuous
 62
     7
100
AcDbLine
 10
-109.3125429311937
 20
86.87597502512222
 30
0.0
 11
-109.5625429277499
 21
86.87597502512554
 31
0.0
  0
LINE
  5
191
330
4E
100
AcDbEntity
  8
0
  6
Continuous
 62
     7
100
AcDbLine
 10
-107.2625429283369
 20
86.87597502510167
 30
0.0
 11
-107.7625429273779
 21
86.87597502510691
 31
0.0
  0
LINE
  5
192
330
4E
100
AcDbEntity
  8
0
  6
Continuous
 62
     7
100
AcDbLine
 10
-99.1593010867997
 20
87.77071665611749
 30
0.0
 11
-99.15930108680477
 21
89.78123339178451
 31
0.0
  0
LINE
  5
193
330
4E
100
AcDbEntity
  8
0
  6
Continuous
 62
     7
100
AcDbLine
 10
-102.9125429279187
 20
90.67597502386745
 30
0.0
 11
-102.9125429279289
 21
89.69249016309345
 31
0.0
  0
LINE
  5
194
330
4E
100
AcDbEntity
  8
0
  6
Continuous
 62
     7
100
AcDbLine
 10
-102.1125429439732
 20
89.69249017007864
 30
0.0
 11
-102.1125429261026
 21
90.67597502385703
 31
0.0
  0
LINE
  5
195
330
4E
100
AcDbEntity
  8
0
  6
Continuous
 62
     7
100
AcDbLine
 10
-102.1125429261026
 20
90.67597502385703
 30
0.0
 11
-102.9125429279187
 21
90.67597502386745
 31
0.0
  0
LINE
  5
196
330
4E
100
AcDbEntity
  8
0
  6
Continuous
 62
     7
100
AcDbLine
 10
-100.5125429275451
 20
90.67597502385813
 30
0.0
 11
-102.1125429261026
 21
90.67597502385703
 31
0.0
  0
LINE
  5
197
330
4E
100
AcDbEntity
  8
0
  6
Continuous
 62
     7
100
AcDbLine
 10
-107.7625429275662
 20
90.67597502385718
 30
0.0
 11
-107.2625429283286
 21
90.6759750238572
 31
0.0
  0
LINE
  5
198
330
4E
100
AcDbEntity
  8
0
  6
Continuous
 62
     7
100
AcDbLine
 10
-102.9125429279655
 20
87.85945988510994
 30
0.0
 11
-102.9125429279561
 21
86.87597502405995
 31
0.0
  0
LINE
  5
199
330
4E
100
AcDbEntity
  8
0
  6
Continuous
 62
     7
100
AcDbLine
 10
-102.112542927887
 20
86.87597502405276
 30
0.0
 11
-102.1125429278965
 21
87.85945988512528
 31
0.0
  0
LINE
  5
19A
330
4E
100
AcDbEntity
  8
0
  6
Continuous
 62
     2
100
AcDbLine
 10
-107.7625429273779
 20
86.87597502510691
 30
0.0
 11
-107.7625429275625
 21
85.37644031581488
 31
0.0
  0
LINE
  5
19B
330
4E
100
AcDbEntity
  8
0
  6
Continuous
 62
     7
100
AcDbLine
 10
-107.708298929769
 20
85.37648238125912
 30
0.0
 11
-107.7625429275625
 21
85.37644031581488
 31
0.0
  0
LINE
  5
19C
330
4E
100
AcDbEntity
  8
0
  6
Continuous
 62
     2
100
AcDbLine
 10
-107.7625429275662
 20
90.67597502385718
 30
0.0
 11
-107.7625429275496
 21
91.17597502433429
 31
0.0
  0
LINE
  5
19D
330
4E
100
AcDbEntity
  8
0
  6
Continuous
 62
     7
100
AcDbLine
 10
-113.7868169287673
 20
91.52597502465844
 30
0.0
 11
-113.7868169287301
 21
85.37597502394935
 31
0.0
  0
LINE
  5
19E
330
4E
100
AcDbEntity
  8
0
  6
Continuous
 62
     7
100
AcDbLine
 10
-114.0025106515172
 20
91.52597502456476
 30
0.0
 11
-114.00251065148
 21
85.37597502394775
 31
0.0
  0
LINE
  5
19F
330
4E
100
AcDbEntity
  8
0
  6
Continuous
 62
     7
100
AcDbLine
 10
-113.7868169287673
 20
91.52597502465844
 30
0.0
 11
-114.0025106515172
 21
91.52597502456476
 31
0.0
  0
LINE
  5
1A0
330
4E
100
AcDbEntity
  8
0
  6
Continuous
 62
     7
100
AcDbLine
 10
-113.6357252898044
 20
91.52597502467984
 30
0.0
 11
-113.6357252897672
 21
85.37597502395033
 31
0.0
  0
LINE
  5
1A1
330
4E
100
AcDbEntity
  8
0
  6
Continuous
 62
     7
100
AcDbLine
 10
-113.6357252897672
 20
85.37597502395033
 30
0.0
 11
-109.562542700221
 21
85.37597502397477
 31
0.0
  0
LINE
  5
1A2
330
4E
100
AcDbEntity
  8
0
  6
Continuous
 62
     7
100
AcDbLine
 10
-114.0025106515172
 20
91.52597502456476
 30
0.0
 11
-114.0356966025026
 21
91.52597502456005
 31
0.0
  0
LINE
  5
1A3
330
4E
100
AcDbEntity
  8
0
  6
Continuous
 62
     7
100
AcDbLine
 10
-113.6357252898044
 20
91.52597502467984
 30
0.0
 11
-113.7868169287673
 21
91.52597502465844
 31
0.0
  0
LINE
  5
1A4
330
4E
100
AcDbEntity
  8
0
  6
Continuous
 62
     7
100
AcDbLine
 10
-114.0356966025026
 20
91.52597502456005
 30
0.0
 11
-114.8625429283034
 21
91.52597502453932
 31
0.0
  0
LINE
  5
1A5
330
4E
100
AcDbEntity
  8
0
  6
Continuous
 62
     7
100
AcDbLine
 10
-114.8625429282662
 20
85.37597502394252
 30
0.0
 11
-114.00251065148
 21
85.37597502394775
 31
0.0
  0
LINE
  5
1A6
330
4E
100
AcDbEntity
  8
0
  6
Continuous
 62
     7
100
AcDbLine
 10
-114.8625429283034
 20
91.52597502453932
 30
0.0
 11
-114.8625429282662
 21
85.37597502394252
 31
0.0
  0
LINE
  5
1A7
330
4E
100
AcDbEntity
  8
0
  6
Continuous
 62
     7
100
AcDbLine
 10
-94.93826869124744
 20
91.52597502509988
 30
0.0
 11
-94.9382686912102
 21
85.37597502406351
 31
0.0
  0
LINE
  5
1A8
330
4E
100
AcDbEntity
  8
0
  6
Continuous
 62
     7
100
AcDbLine
 10
-102.112542927887
 20
86.87597502405276
 30
0.0
 11
-100.5125429275342
 21
86.87597502406715
 31
0.0
  0
LINE
  5
1A9
330
4E
100
AcDbEntity
  8
0
  6
Continuous
 62
     7
100
AcDbLine
 10
-104.3125429281686
 20
90.67597502386758
 30
0.0
 11
-104.3125429281588
 21
86.87597502405535
 31
0.0
  0
LINE
  5
1AA
330
4E
100
AcDbEntity
  8
0
  6
Continuous
 62
     7
100
AcDbLine
 10
-102.9125429279187
 20
90.67597502386745
 30
0.0
 11
-104.3125429281686
 21
90.67597502386758
 31
0.0
  0
LINE
  5
1AB
330
4E
100
AcDbEntity
  8
0
  6
Continuous
 62
     7
100
AcDbLine
 10
-100.5125429275342
 20
86.87597502406715
 30
0.0
 11
-100.5125429275366
 21
87.77597502406542
 31
0.0
  0
LINE
  5
1AC
330
4E
100
AcDbEntity
  8
0
  6
Continuous
 62
     7
100
AcDbLine
 10
-100.5125429275366
 20
87.77597502406542
 30
0.0
 11
-100.6125429277049
 21
87.875975024234
 31
0.0
  0
LINE
  5
1AD
330
4E
100
AcDbEntity
  8
0
  6
Continuous
 62
     7
100
AcDbLine
 10
-100.5125429275428
 20
89.7759750239075
 30
0.0
 11
-100.5125429275451
 21
90.67597502385813
 31
0.0
  0
LINE
  5
1AE
330
4E
100
AcDbEntity
  8
0
  6
Continuous
 62
     7
100
AcDbLine
 10
-100.9125429274843
 20
89.37597502396491
 30
0.0
 11
-100.5125429275428
 21
89.7759750239075
 31
0.0
  0
LINE
  5
1AF
330
4E
100
AcDbEntity
  8
0
  6
Continuous
 62
     7
100
AcDbLine
 10
-100.6125429277049
 20
87.875975024234
 30
0.0
 11
-100.9125429274779
 21
88.17597502400145
 31
0.0
  0
LINE
  5
1B0
330
4E
100
AcDbEntity
  8
0
  6
Continuous
 62
     7
100
AcDbLine
 10
-100.9125429274779
 20
88.17597502400145
 30
0.0
 11
-100.9125429274843
 21
89.37597502396491
 31
0.0
  0
LINE
  5
1B1
330
4E
100
AcDbEntity
  8
0
  6
Continuous
 62
     7
100
AcDbLine
 10
-95.08936032854885
 20
91.5259750251142
 30
0.0
 11
-95.08936032851162
 21
85.37597502406265
 31
0.0
  0
LINE
  5
1B2
330
4E
100
AcDbEntity
  8
0
  6
Continuous
 62
     7
100
AcDbLine
 10
-94.7225749863684
 20
91.52597502501628
 30
0.0
 11
-94.72257498633114
 21
85.3759750240645
 31
0.0
  0
LINE
  5
1B3
330
4E
100
AcDbEntity
  8
0
  6
Continuous
 62
     7
100
AcDbLine
 10
-107.7625429275496
 20
91.17597502433429
 30
0.0
 11
-108.3625429275487
 21
91.17597502443475
 31
0.0
  0
LINE
  5
1B4
330
4E
100
AcDbEntity
  8
0
  6
Continuous
 62
     7
100
AcDbLine
 10
-109.7125429278755
 20
90.67597502385703
 30
0.0
 11
-109.5625429530748
 21
90.67597502385695
 31
0.0
  0
LINE
  5
1B5
330
4E
100
AcDbEntity
  8
0
  6
Continuous
 62
     7
100
AcDbLine
 10
-109.9904249880124
 20
90.67597502385712
 30
0.0
 11
-109.7125429278755
 21
90.67597502385703
 31
0.0
  0
LINE
  5
1B6
330
4E
100
AcDbEntity
  8
0
  6
Continuous
 62
     7
100
AcDbLine
 10
-109.3125429541867
 20
90.67597502385686
 30
0.0
 11
-107.7625429275662
 21
90.67597502385718
 31
0.0
  0
LINE
  5
1B7
330
4E
100
AcDbEntity
  8
0
  6
Continuous
 62
     7
100
AcDbLine
 10
-109.5625429530748
 20
90.67597502385695
 30
0.0
 11
-109.3125429541867
 21
90.67597502385686
 31
0.0
  0
LINE
  5
1B8
330
4E
100
AcDbEntity
  8
0
  6
Continuous
 62
     7
100
AcDbLine
 10
-95.08936032854885
 20
91.5259750251142
 30
0.0
 11
-113.6357252898044
 21
91.52597502467984
 31
0.0
  0
LINE
  5
1B9
330
4E
100
AcDbEntity
  8
0
  6
Continuous
 62
     7
100
AcDbLine
 10
-94.7225749863684
 20
91.52597502501628
 30
0.0
 11
-94.93826869124744
 21
91.52597502509988
 31
0.0
  0
LINE
  5
1BA
330
4E
100
AcDbEntity
  8
0
  6
Continuous
 62
     7
100
AcDbLine
 10
-94.93826869124744
 20
91.52597502509988
 30
0.0
 11
-95.08936032854885
 21
91.5259750251142
 31
0.0
  0
LINE
  5
1BB
330
4E
100
AcDbEntity
  8
0
  6
Continuous
 62
     7
100
AcDbLine
 10
-93.8625429281667
 20
91.52597502503113
 30
0.0
 11
-94.7225749863684
 21
91.52597502501628
 31
0.0
  0
LINE
  5
1BC
330
4E
100
AcDbEntity
  8
0
  6
Continuous
 62
     7
100
AcDbLine
 10
-93.8625429281667
 20
91.52597502503113
 30
0.0
 11
-93.86254292812946
 21
85.3759750240697
 31
0.0
  0
LINE
  5
1BD
330
4E
100
AcDbEntity
  8
0
  6
Continuous
 62
     7
100
AcDbLine
 10
-93.86254292812946
 20
85.3759750240697
 30
0.0
 11
-94.72257498633114
 21
85.3759750240645
 31
0.0
  0
LINE
  5
1BE
330
4E
100
AcDbEntity
  8
0
  6
Continuous
 62
     7
100
AcDbLine
 10
-94.72257498633114
 20
85.3759750240645
 30
0.0
 11
-94.9382686912102
 21
85.37597502406351
 31
0.0
  0
LINE
  5
1BF
330
4E
100
AcDbEntity
  8
0
  6
Continuous
 62
     7
100
AcDbLine
 10
-94.9382686912102
 20
85.37597502406351
 30
0.0
 11
-95.08936032851162
 21
85.37597502406265
 31
0.0
  0
LINE
  5
1C0
330
4E
100
AcDbEntity
  8
0
  6
Continuous
 62
     7
100
AcDbLine
 10
-106.5625429278464
 20
85.37597502399316
 30
0.0
 11
-95.08936032851162
 21
85.37597502406265
 31
0.0
  0
ARC
  5
1C1
330
4E
100
AcDbEntity
  8
0
  6
Continuous
 62
     7
100
AcDbCircle
 10
-108.3625429275487
 20
88.27597502443476
 30
0.0
 40
2.90000000000119
100
AcDbArc
 50
124.1484243653125
 51
224.9999999996815
  0
ARC
  5
1C2
330
4E
100
AcDbEntity
  8
0
  6
Continuous
 62
     7
100
AcDbCircle
 10
-108.3625429275506
 20
88.27597502443416
 30
0.0
 40
2.899999999999229
100
AcDbArc
 50
245.5566695058418
 51
268.93024027589
  0
ARC
  5
1C3
330
4E
100
AcDbEntity
  8
0
  6
Continuous
 62
     7
100
AcDbCircle
 10
-108.3625429275518
 20
88.27597502443479
 30
0.0
 40
2.899999999999909
100
AcDbArc
 50
268.9302402759138
 51
269.9999885199805
  0
ARC
  5
1C4
330
4E
100
AcDbEntity
  8
0
  6
Continuous
 62
     7
100
AcDbCircle
 10
-108.3625429275511
 20
88.2759750244364
 30
0.0
 40
2.900000000001034
100
AcDbArc
 50
224.9999999997381
 51
245.5566695058691
  0
ARC
  5
1C5
330
4E
100
AcDbEntity
  8
0
  6
Continuous
 62
     7
100
AcDbCircle
 10
-102.5125429279485
 20
88.77597502409373
 30
0.0
 40
0.9999999999999795
100
AcDbArc
 50
293.5781784814533
 51
66.42182252357902
  0
ARC
  5
1C6
330
4E
100
AcDbEntity
  8
0
  6
Continuous
 62
     7
100
AcDbCircle
 10
-99.4625429274164
 20
88.77597502395002
 30
0.0
 40
1.05000000000004
100
AcDbArc
 50
163.3960038231644
 51
286.7862323174362
  0
ARC
  5
1C7
330
4E
100
AcDbEntity
  8
0
  6
Continuous
 62
     7
100
AcDbCircle
 10
-107.2625429283534
 20
87.87597502512959
 30
0.0
 40
1.000000000027924
100
AcDbArc
 50
270.0000000009453
 51
359.9999999990905
  0
ARC
  5
1C8
330
4E
100
AcDbEntity
  8
0
  6
Continuous
 62
     7
100
AcDbCircle
 10
-107.2625429283736
 20
89.67597502383975
 30
0.0
 40
1.000000000017508
100
AcDbArc
 50
359.9999999996515
 51
89.99999999742137
  0
ARC
  5
1C9
330
4E
100
AcDbEntity
  8
0
  6
Continuous
 62
     7
100
AcDbCircle
 10
-102.5125429279485
 20
88.77597502409373
 30
0.0
 40
1.000000000000003
100
AcDbArc
 50
113.5781784769761
 51
246.4218215207361
  0
ARC
  5
1CA
330
4E
100
AcDbEntity
  8
0
  6
Continuous
 62
     7
100
AcDbCircle
 10
-107.7625429275496
 20
88.27597502445988
 30
0.0
 40
2.899999999874232
100
AcDbArc
 50
271.071770136404
 51
294.4433354223623
  0
ARC
  5
1CB
330
4E
100
AcDbEntity
  8
0
  6
Continuous
 62
     7
100
AcDbCircle
 10
-107.7625429275496
 20
88.27597502445988
 30
0.0
 40
2.8999999998744
100
AcDbArc
 50
294.4433354223623
 51
90.0
  0
ARC
  5
1CC
330
4E
100
AcDbEntity
  8
0
  6
Continuous
 62
     7
100
AcDbCircle
 10
-99.4625429274164
 20
88.77597502395002
 30
0.0
 40
1.049999999999019
100
AcDbArc
 50
286.7862323174362
 51
73.21376768285948
  0
ARC
  5
1CD
330
4E
100
AcDbEntity
  8
0
  6
Continuous
 62
     7
100
AcDbCircle
 10
-99.4625429274164
 20
88.77597502395002
 30
0.0
 40
1.049999999999418
100
AcDbArc
 50
73.21376768285948
 51
163.3960038231644
  0
ARC
  5
1CE
330
4E
100
AcDbEntity
  8
0
  6
Continuous
 62
     7
100
AcDbCircle
 10
-108.3625429275506
 20
88.27597502443416
 30
0.0
 40
2.900000000000588
100
AcDbArc
 50
89.99999999996238
 51
124.1484243652748
  0
SPLINE
  5
1CF
330
4E
100
AcDbEntity
  8
0
  6
Continuous
 62
     7
100
AcDbSpline
210
0.0
220
0.0
230
1.0
 70
    24
 71
     3
 72
    17
 73
    13
 74
    11
 42
0.000000001
 43
0.0000000001
 44
0.00000001
 40
0.0
 40
0.0
 40
0.0
 40
0.0
 40
0.1259943820444533
 40
0.2569530429694851
 40
0.3917005197559433
 40
0.5266379665769279
 40
0.7841945662731291
 40
1.020672600510125
 40
1.235624732959494
 40
1.434304499059238
 40
1.621689325661421
 40
1.799999998719954
 40
1.799999998719954
 40
1.799999998719954
 40
1.799999998719954
 10
-106.2625429283255
 20
87.87597502511372
 30
0.0
 10
-106.2625429283311
 20
87.91797315246187
 30
0.0
 10
-106.262542928341
 20
88.00362416678506
 30
0.0
 10
-106.2625429283518
 20
88.13419100670369
 30
0.0
 10
-106.2625429283592
 20
88.26773886821451
 30
0.0
 10
-106.2625429283645
 20
88.44348604264907
 30
0.0
 10
-106.2625429283647
 20
88.65314340290044
 30
0.0
 10
-106.2625429283603
 20
88.88947232502797
 30
0.0
 10
-106.262542928355
 20
89.10617563595665
 30
0.0
 10
-106.2625429283515
 20
89.30651454434044
 30
0.0
 10
-106.2625429283512
 20
89.49463963292723
 30
0.0
 10
-106.2625429283539
 20
89.61653813281418
 30
0.0
 10
-106.2625429283561
 20
89.67597502383367
 30
0.0
 11
-106.2625429283255
 21
87.87597502511372
 31
0.0
 11
-106.2625429283393
 21
88.00196940715814
 31
0.0
 11
-106.2625429283417
 21
88.13292806808317
 31
0.0
 11
-106.262542928342
 21
88.2676755448696
 31
0.0
 11
-106.2625429283423
 21
88.40261299169056
 31
0.0
 11
-106.2625429283426
 21
88.66016959138673
 31
0.0
 11
-106.2625429283425
 21
88.8966476256237
 31
0.0
 11
-106.2625429283421
 21
89.11159975807308
 31
0.0
 11
-106.2625429283417
 21
89.31027952417284
 31
0.0
 11
-106.2625429283489
 21
89.49766435077507
 31
0.0
 11
-106.2625429283561
 21
89.67597502383367
 31
0.0
  0
ENDBLK
  5
50
330
4E
100
AcDbEntity
  8
0
100
AcDbBlockEnd
  0
BLOCK
  5
53
330
51
100
AcDbEntity
  8
0
100
AcDbBlockBegin
  2
Drfsicht1
 70
     0
 10
-104.362543
 20
88.45097499999986
 30
0.0
  3
Drfsicht1
  1

  0
INSERT
  5
52
330
51
100
AcDbEntity
  8
0
100
AcDbBlockReference
  2
PP_H_4_1_L_GNYE-select__2
 10
-114.8625429283034
 20
85.37597502394252
 30
0.0
  0
MTEXT
  5
1D0
330
51
100
AcDbEntity
  8
1
 62
     6
100
AcDbMText
 10
-104.5365625601556
 20
80.37597462084295
 30
0.0
 40
5.0
 41
0.0
 71
     2
 72
     1
  1
 
  7
CONVERTER_11
 73
     1
 44
1.32052821128451
  0
DIMENSION
  5
1DD
330
51
100
AcDbEntity
  8
1
100
AcDbDimension
  2
*D17
 10
-124.862542928304
 20
91.52597502453949
 30
0.0
 11
-128.287542928304
 21
100.323257269305
 31
0.0
 70
    32
  1
<>
 71
     5
 42
-1.0
 53
90.0
  3
ME10_DIM_10
100
AcDbAlignedDimension
 13
-114.8625429282662
 23
85.37597502394252
 33
0.0
 14
-114.8625429283034
 24
91.52597502453932
 34
0.0
 50
90.0
100
AcDbRotatedDimension
  0
ENDBLK
  5
54
330
51
100
AcDbEntity
  8
0
100
AcDbBlockEnd
  0
BLOCK
  5
56
330
55
100
AcDbEntity
  8
0
100
AcDbBlockBegin
  2
PP_H_4_1_L_GNYE-select__3
 70
     0
 10
-32.13745707186472
 20
121.9124999315588
 30
0.0
  3
PP_H_4_1_L_GNYE-select__3
  1

  0
LINE
  5
1DE
330
55
100
AcDbEntity
  8
0
  6
Continuous
 62
     7
100
AcDbLine
 10
-13.79715137633055
 20
162.6285294160109
 30
0.0
 11
-13.02632777955728
 21
156.3506750068452
 31
0.0
  0
LINE
  5
1DF
330
55
100
AcDbEntity
  8
0
  6
Continuous
 62
     7
100
AcDbLine
 10
-12.73512699453576
 20
162.7589296133978
 30
0.0
 11
-13.79715137633055
 21
162.6285294160109
 31
0.0
  0
LINE
  5
1E0
330
55
100
AcDbEntity
  8
0
  6
Continuous
 62
     7
100
AcDbLine
 10
-12.83745707165713
 20
149.9124999315179
 30
0.0
 11
-12.83745707165323
 21
143.5874999315128
 31
0.0
  0
LINE
  5
1E1
330
55
100
AcDbEntity
  8
0
  6
Continuous
 62
     7
100
AcDbLine
 10
-26.83745707191494
 20
123.5124999317131
 30
0.0
 11
-26.30412373850903
 21
121.9124999315588
 31
0.0
  0
LINE
  5
1E2
330
55
100
AcDbEntity
  8
0
  6
Continuous
 62
     7
100
AcDbLine
 10
-26.83745707191494
 20
123.5124999317131
 30
0.0
 11
-26.83745707191113
 21
138.4124999314946
 31
0.0
  0
LINE
  5
1E3
330
55
100
AcDbEntity
  8
0
  6
Continuous
 62
     7
100
AcDbLine
 10
-27.13745707185994
 20
124.4124999315481
 30
0.0
 11
-26.83745707191494
 21
123.5124999317131
 31
0.0
  0
LINE
  5
1E4
330
55
100
AcDbEntity
  8
0
  6
Continuous
 62
     7
100
AcDbLine
 10
-27.13745707185994
 20
136.1124999317161
 30
0.0
 11
-27.13745707185994
 21
124.4124999315481
 31
0.0
  0
LINE
  5
1E5
330
55
100
AcDbEntity
  8
0
  6
Continuous
 62
     7
100
AcDbLine
 10
-30.2485865827819
 20
156.3506750069024
 30
0.0
 11
-29.47776298601287
 21
162.628529416075
 31
0.0
  0
LINE
  5
1E6
330
55
100
AcDbEntity
  8
0
  6
Continuous
 62
     7
100
AcDbLine
 10
-26.83745707191113
 20
139.5124999315595
 30
0.0
 11
-26.83745707191113
 21
138.4124999314946
 31
0.0
  0
LINE
  5
1E7
330
55
100
AcDbEntity
  8
0
  6
Continuous
 62
     7
100
AcDbLine
 10
-30.57297331858005
 20
162.4886517320142
 30
0.0
 11
-31.06173130875241
 21
162.8569572950281
 31
0.0
  0
LINE
  5
1E8
330
55
100
AcDbEntity
  8
0
  6
Continuous
 62
     7
100
AcDbLine
 10
-30.53978736758829
 20
162.7589296134344
 30
0.0
 11
-30.57297331858005
 21
162.4886517320142
 31
0.0
  0
LINE
  5
1E9
330
55
100
AcDbEntity
  8
0
  6
Continuous
 62
     7
100
AcDbLine
 10
-29.47776298601287
 20
162.628529416075
 30
0.0
 11
-30.53978736758829
 21
162.7589296134344
 31
0.0
  0
LINE
  5
1EA
330
55
100
AcDbEntity
  8
0
  6
Continuous
 62
     7
100
AcDbLine
 10
-31.06173130875241
 20
162.8569572950281
 30
0.0
 11
-30.910639671451
 21
164.0874999317333
 31
0.0
  0
LINE
  5
1EB
330
55
100
AcDbEntity
  8
0
  6
Continuous
 62
     7
100
AcDbLine
 10
-12.36427471019545
 20
164.0874999317396
 30
0.0
 11
-12.21318307123255
 21
162.8569572815109
 31
0.0
  0
LINE
  5
1EC
330
55
100
AcDbEntity
  8
0
  6
Continuous
 62
     7
100
AcDbLine
 10
-12.21318307123255
 20
162.8569572815109
 30
0.0
 11
-12.70194104354142
 21
162.4886517319577
 31
0.0
  0
LINE
  5
1ED
330
55
100
AcDbEntity
  8
0
  6
Continuous
 62
     7
100
AcDbLine
 10
-12.70194104354142
 20
162.4886517319577
 30
0.0
 11
-12.73512699453576
 21
162.7589296133978
 31
0.0
  0
LINE
  5
1EE
330
55
100
AcDbEntity
  8
0
  6
Continuous
 62
     7
100
AcDbLine
 10
-11.96430339749725
 20
156.4810752042646
 30
0.0
 11
-11.99748934848262
 21
156.7513530856251
 31
0.0
  0
LINE
  5
1EF
330
55
100
AcDbEntity
  8
0
  6
Continuous
 62
     7
100
AcDbLine
 10
-11.76745707165426
 20
143.5874999315128
 30
0.0
 11
-11.76745707165505
 21
143.8598075526535
 31
0.0
  0
LINE
  5
1F0
330
55
100
AcDbEntity
  8
0
  6
Continuous
 62
     7
100
AcDbLine
 10
-32.13745707186472
 20
139.7504499963888
 30
0.0
 11
-32.13745707186472
 21
145.4617052068869
 31
0.0
  0
LINE
  5
1F1
330
55
100
AcDbEntity
  8
0
  6
Continuous
 62
     7
100
AcDbLine
 10
-32.13745707183315
 20
154.1132946561424
 30
0.0
 11
-32.13745707183315
 21
156.3862911358845
 31
0.0
  0
LINE
  5
1F2
330
55
100
AcDbEntity
  8
0
  6
Continuous
 62
     7
100
AcDbLine
 10
-32.13745707183315
 20
156.3862911358845
 30
0.0
 11
-31.27742501363147
 21
156.7513530857228
 31
0.0
  0
LINE
  5
1F3
330
55
100
AcDbEntity
  8
0
  6
Continuous
 62
     7
100
AcDbLine
 10
-31.27742501363147
 20
156.7513530857228
 30
0.0
 11
-31.31061096462503
 21
156.4810752042943
 31
0.0
  0
LINE
  5
1F4
330
55
100
AcDbEntity
  8
0
  6
Continuous
 62
     7
100
AcDbLine
 10
-31.31061096462503
 20
156.4810752042943
 30
0.0
 11
-30.2485865827819
 21
156.3506750069024
 31
0.0
  0
LINE
  5
1F5
330
55
100
AcDbEntity
  8
0
  6
Continuous
 62
     7
100
AcDbLine
 10
-31.27249868448114
 20
139.5124999315528
 30
0.0
 11
-26.83745707191113
 21
139.5124999315595
 31
0.0
  0
LINE
  5
1F6
330
55
100
AcDbEntity
  8
0
  6
Continuous
 62
     7
100
AcDbLine
 10
-11.13745707169642
 20
156.3862910430038
 30
0.0
 11
-11.13745707169387
 21
150.0039229799511
 31
0.0
  0
LINE
  5
1F7
330
55
100
AcDbEntity
  8
0
  6
Continuous
 62
     7
100
AcDbLine
 10
-11.13745707165433
 20
143.4960768830651
 30
0.0
 11
-11.13745707165275
 21
139.5124999315559
 31
0.0
  0
LINE
  5
1F8
330
55
100
AcDbEntity
  8
0
  6
Continuous
 62
     7
100
AcDbLine
 10
-11.76745707165505
 20
143.8598075526535
 30
0.0
 11
-11.13745707165433
 21
143.4960768830651
 31
0.0
  0
LINE
  5
1F9
330
55
100
AcDbEntity
  8
0
  6
Continuous
 62
     7
100
AcDbLine
 10
-19.43745707180685
 20
138.4124999314946
 30
0.0
 11
-19.43745707182904
 21
123.5124999315879
 31
0.0
  0
LINE
  5
1FA
330
55
100
AcDbEntity
  8
0
  6
Continuous
 62
     7
100
AcDbLine
 10
-15.73745707185846
 20
138.5124999315593
 30
0.0
 11
-15.73745707185846
 21
130.4124999315593
 31
0.0
  0
LINE
  5
1FB
330
55
100
AcDbEntity
  8
0
  6
Continuous
 62
     7
100
AcDbLine
 10
-19.13745707185216
 20
131.612499931558
 30
0.0
 11
-19.13745707185216
 21
136.1124999315593
 31
0.0
  0
LINE
  5
1FC
330
55
100
AcDbEntity
  8
0
  6
Continuous
 62
     7
100
AcDbLine
 10
-18.13745707185861
 20
134.246474527775
 30
0.0
 11
-17.63745707185863
 21
136.1124999315593
 31
0.0
  0
LINE
  5
1FD
330
55
100
AcDbEntity
  8
0
  6
Continuous
 62
     7
100
AcDbLine
 10
-18.63745707186948
 20
139.5124999315561
 30
0.0
 11
-18.63745707186948
 21
136.1124999315593
 31
0.0
  0
LINE
  5
1FE
330
55
100
AcDbEntity
  8
0
  6
Continuous
 62
     7
100
AcDbLine
 10
-18.13745707185859
 20
137.2124999315593
 30
0.0
 11
-18.1374570718587
 21
138.5124999315593
 31
0.0
  0
LINE
  5
1FF
330
55
100
AcDbEntity
  8
0
  6
Continuous
 62
     7
100
AcDbLine
 10
-15.73745707185846
 20
138.5124999315593
 30
0.0
 11
-18.1374570718587
 21
138.5124999315593
 31
0.0
  0
LINE
  5
200
330
55
100
AcDbEntity
  8
0
  6
Continuous
 62
     7
100
AcDbLine
 10
-11.13745707165275
 20
139.5124999315559
 30
0.0
 11
-16.23745707182306
 21
139.5124999315561
 31
0.0
  0
LINE
  5
201
330
55
100
AcDbEntity
  8
0
  6
Continuous
 62
     7
100
AcDbLine
 10
-19.43745707180685
 20
138.4124999314946
 30
0.0
 11
-19.43745707180685
 21
139.5124999315559
 31
0.0
  0
LINE
  5
202
330
55
100
AcDbEntity
  8
0
  6
Continuous
 62
     7
100
AcDbLine
 10
-16.23745707182306
 20
139.0124999315593
 30
0.0
 11
-16.23745707182306
 21
139.5124999315561
 31
0.0
  0
LINE
  5
203
330
55
100
AcDbEntity
  8
0
  6
Continuous
 62
     7
100
AcDbLine
 10
-17.63745707185868
 20
139.5124999315561
 30
0.0
 11
-18.63745707186948
 21
139.5124999315561
 31
0.0
  0
LINE
  5
204
330
55
100
AcDbEntity
  8
0
  6
Continuous
 62
     7
100
AcDbLine
 10
-16.23745707182306
 20
139.5124999315561
 30
0.0
 11
-17.63745707185868
 21
139.5124999315561
 31
0.0
  0
LINE
  5
205
330
55
100
AcDbEntity
  8
0
  6
Continuous
 62
     7
100
AcDbLine
 10
-18.63745707186948
 20
139.5124999315561
 30
0.0
 11
-19.43745707180685
 21
139.5124999315559
 31
0.0
  0
LINE
  5
206
330
55
100
AcDbEntity
  8
0
  6
Continuous
 62
     7
100
AcDbLine
 10
-17.63745707185868
 20
139.5124999315561
 30
0.0
 11
-17.63745707185869
 21
139.0124999315593
 31
0.0
  0
LINE
  5
207
330
55
100
AcDbEntity
  8
0
  6
Continuous
 62
     2
100
AcDbLine
 10
-17.63745707185869
 20
139.0124999315593
 30
0.0
 11
-16.23745707182306
 21
139.0124999315593
 31
0.0
  0
LINE
  5
208
330
55
100
AcDbEntity
  8
0
  6
Continuous
 62
     7
100
AcDbLine
 10
-18.63745707186948
 20
136.1124999315593
 30
0.0
 11
-19.13745707185216
 21
136.1124999315593
 31
0.0
  0
LINE
  5
209
330
55
100
AcDbEntity
  8
0
  6
Continuous
 62
     7
100
AcDbLine
 10
-17.63745707185863
 20
136.1124999315593
 30
0.0
 11
-17.63745707185863
 21
136.7124999315593
 31
0.0
  0
LINE
  5
20A
330
55
100
AcDbEntity
  8
0
  6
Continuous
 62
     7
100
AcDbLine
 10
-18.13745707185861
 20
131.4124999315593
 30
0.0
 11
-19.13745707185216
 21
131.612499931558
 31
0.0
  0
LINE
  5
20B
330
55
100
AcDbEntity
  8
0
  6
Continuous
 62
     7
100
AcDbLine
 10
-18.13745707185872
 20
130.4124999315593
 30
0.0
 11
-18.13745707185861
 21
131.4124999315593
 31
0.0
  0
LINE
  5
20C
330
55
100
AcDbEntity
  8
0
  6
Continuous
 62
     7
100
AcDbLine
 10
-18.13745707185861
 20
131.4124999315593
 30
0.0
 11
-18.13745707185861
 21
134.246474527775
 31
0.0
  0
LINE
  5
20D
330
55
100
AcDbEntity
  8
0
  6
Continuous
 62
     7
100
AcDbLine
 10
-15.73745707185846
 20
130.4124999315593
 30
0.0
 11
-18.13745707185872
 21
130.4124999315593
 31
0.0
  0
LINE
  5
20E
330
55
100
AcDbEntity
  8
0
  6
Continuous
 62
     7
100
AcDbLine
 10
-19.13745707185216
 20
130.4124999315593
 30
0.0
 11
-18.13745707185872
 21
130.4124999315593
 31
0.0
  0
LINE
  5
20F
330
55
100
AcDbEntity
  8
0
  6
Continuous
 62
     7
100
AcDbLine
 10
-19.13745707185216
 20
128.4828292404078
 30
0.0
 11
-19.13745707185216
 21
130.4124999315593
 31
0.0
  0
LINE
  5
210
330
55
100
AcDbEntity
  8
0
  6
Continuous
 62
     7
100
AcDbLine
 10
-19.0495698314223
 20
124.6761616528487
 30
0.0
 11
-19.43745707182904
 21
123.5124999315879
 31
0.0
  0
LINE
  5
211
330
55
100
AcDbEntity
  8
0
  6
Continuous
 62
     7
100
AcDbLine
 10
-19.97079040517205
 20
121.9124999315588
 30
0.0
 11
-19.43745707182904
 21
123.5124999315879
 31
0.0
  0
LINE
  5
212
330
55
100
AcDbEntity
  8
0
  6
Continuous
 62
     7
100
AcDbLine
 10
-12.83745707165323
 20
143.5874999315128
 30
0.0
 11
-11.76745707165426
 21
143.5874999315128
 31
0.0
  0
LINE
  5
213
330
55
100
AcDbEntity
  8
0
  6
Continuous
 62
     7
100
AcDbLine
 10
-26.30412373850903
 20
121.9124999315588
 30
0.0
 11
-19.97079040517205
 21
121.9124999315588
 31
0.0
  0
LINE
  5
214
330
55
100
AcDbEntity
  8
0
  6
Continuous
 62
     7
100
AcDbLine
 10
-27.63745707186271
 20
136.1124999315592
 30
0.0
 11
-27.13745707185994
 21
136.1124999317161
 31
0.0
  0
LINE
  5
215
330
55
100
AcDbEntity
  8
0
  6
Continuous
 62
     7
100
AcDbLine
 10
-27.63745707186271
 20
138.5124999315594
 30
0.0
 11
-27.63745707186271
 21
136.1124999315592
 31
0.0
  0
LINE
  5
216
330
55
100
AcDbEntity
  8
0
  6
Continuous
 62
     7
100
AcDbLine
 10
-31.27249868448114
 20
139.5124999315528
 30
0.0
 11
-27.63745707186271
 21
138.5124999315594
 31
0.0
  0
LINE
  5
217
330
55
100
AcDbEntity
  8
0
  6
Continuous
 62
     7
100
AcDbLine
 10
-19.43745707180685
 20
138.4124999314946
 30
0.0
 11
-26.83745707191113
 21
138.4124999314946
 31
0.0
  0
LINE
  5
218
330
55
100
AcDbEntity
  8
0
  6
Continuous
 62
     7
100
AcDbLine
 10
-32.13745707186472
 20
139.7504499963888
 30
0.0
 11
-31.27249868448114
 21
139.5124999315528
 31
0.0
  0
LINE
  5
219
330
55
100
AcDbEntity
  8
0
  6
Continuous
 62
     7
100
AcDbLine
 10
-11.99748934848262
 20
156.7513530856251
 30
0.0
 11
-11.13745707169642
 21
156.3862910430038
 31
0.0
  0
LINE
  5
21A
330
55
100
AcDbEntity
  8
0
  6
Continuous
 62
     7
100
AcDbLine
 10
-11.13745707169387
 20
150.0039229799511
 30
0.0
 11
-11.76745707169282
 21
149.6401923103623
 31
0.0
  0
LINE
  5
21B
330
55
100
AcDbEntity
  8
0
  6
Continuous
 62
     7
100
AcDbLine
 10
-11.76745707169282
 20
149.6401923103623
 30
0.0
 11
-11.76745707165522
 21
149.9124999315182
 31
0.0
  0
LINE
  5
21C
330
55
100
AcDbEntity
  8
0
  6
Continuous
 62
     7
100
AcDbLine
 10
-11.76745707165522
 20
149.9124999315182
 30
0.0
 11
-12.83745707165713
 21
149.9124999315179
 31
0.0
  0
LINE
  5
21D
330
55
100
AcDbEntity
  8
0
  6
Continuous
 62
     7
100
AcDbLine
 10
-13.02632777955728
 20
156.3506750068452
 30
0.0
 11
-11.96430339749725
 21
156.4810752042646
 31
0.0
  0
LINE
  5
21E
330
55
100
AcDbEntity
  8
0
  6
Continuous
 62
     7
100
AcDbLine
 10
-30.910639671451
 20
164.0874999317333
 30
0.0
 11
-12.36427471019545
 21
164.0874999317396
 31
0.0
  0
ARC
  5
21F
330
55
100
AcDbEntity
  8
0
  6
Continuous
 62
     7
100
AcDbCircle
 10
-44.23745707186474
 20
149.7874999315588
 30
0.0
 40
12.84999999999999
100
AcDbArc
 50
340.3278422307628
 51
19.67215776881895
  0
ARC
  5
220
330
55
100
AcDbEntity
  8
0
  6
Continuous
 62
     7
100
AcDbCircle
 10
-20.23745707187104
 20
126.8124999315655
 30
0.0
 40
2.000000000004718
100
AcDbArc
 50
327.9223455679411
 51
56.63298703021082
  0
ARC
  5
221
330
55
100
AcDbEntity
  8
0
  6
Continuous
 62
     7
100
AcDbCircle
 10
-18.13745707185862
 20
136.7124999315593
 30
0.0
 40
0.4999999999999893
100
AcDbArc
 50
0.0
 51
89.99999999999675
  0
ARC
  5
222
330
55
100
AcDbEntity
  8
0
  6
Continuous
 62
     7
100
AcDbCircle
 10
-15.73745707184076
 20
139.0124999315416
 30
0.0
 40
0.4999999999822986
100
AcDbArc
 50
179.9999999979742
 51
269.9999999979718
  0
ARC
  5
223
330
55
100
AcDbEntity
  8
0
  6
Continuous
 62
     7
100
AcDbCircle
 10
-18.13745707185864
 20
139.0124999315593
 30
0.0
 40
0.5
100
AcDbArc
 50
269.9999999999931
 51
0.0
  0
ARC
  5
224
330
55
100
AcDbEntity
  8
0
  6
Continuous
 62
     7
100
AcDbCircle
 10
-14.30615334115575
 20
123.0950228228326
 30
0.0
 40
4.999999999991725
100
AcDbArc
 50
147.9223455688704
 51
161.5650511778689
  0
ENDBLK
  5
57
330
55
100
AcDbEntity
  8
0
100
AcDbBlockEnd
  0
BLOCK
  5
5A
330
58
100
AcDbEntity
  8
0
100
AcDbBlockBegin
  2
Rckans1
 70
     0
 10
-21.63745699999993
 20
143.0000000000001
 30
0.0
  3
Rckans1
  1

  0
INSERT
  5
59
330
58
100
AcDbEntity
  8
0
100
AcDbBlockReference
  2
PP_H_4_1_L_GNYE-select__3
 10
-32.13745707186472
 20
121.9124999315588
 30
0.0
  0
MTEXT
  5
225
330
58
100
AcDbEntity
  8
1
 62
     6
100
AcDbMText
 10
-21.46343743984392
 20
116.5259742962605
 30
0.0
 40
5.0
 41
0.0
 71
     2
 72
     1
  1
 
  7
CONVERTER_11
 73
     1
 44
1.32052821128451
  0
ENDBLK
  5
5B
330
58
100
AcDbEntity
  8
0
100
AcDbBlockEnd
  0
BLOCK
  5
5D
330
5C
100
AcDbEntity
  8
0
100
AcDbBlockBegin
  2
PP_H_4_1_L_GNYE-select__4
 70
     0
 10
-69.07500002508637
 20
121.9124999315587
 30
0.0
  3
PP_H_4_1_L_GNYE-select__4
  1

  0
LINE
  5
226
330
5C
100
AcDbEntity
  8
0
  6
Continuous
 62
     7
100
AcDbLine
 10
-68.12500002384172
 20
121.9124999315587
 30
0.0
 11
-68.12500002384172
 21
123.5124999315878
 31
0.0
  0
LINE
  5
227
330
5C
100
AcDbEntity
  8
0
  6
Continuous
 62
     7
100
AcDbLine
 10
-68.12500002384135
 20
138.4124999315083
 30
0.0
 11
-68.12500002384172
 21
123.5124999315878
 31
0.0
  0
LINE
  5
228
330
5C
100
AcDbEntity
  8
0
  6
Continuous
 62
     7
100
AcDbLine
 10
-69.07500002447291
 20
138.4124999314945
 30
0.0
 11
-68.12500002384135
 21
138.4124999315083
 31
0.0
  0
LINE
  5
229
330
5C
100
AcDbEntity
  8
0
  6
Continuous
 62
     7
100
AcDbLine
 10
-67.47500002384136
 20
121.9124999315588
 30
0.0
 11
-68.12500002384172
 21
121.9124999315587
 31
0.0
  0
LINE
  5
22A
330
5C
100
AcDbEntity
  8
0
  6
Continuous
 62
     7
100
AcDbLine
 10
-67.47500002384142
 20
122.9124999315582
 30
0.0
 11
-67.47500002384136
 21
121.9124999315588
 31
0.0
  0
LINE
  5
22B
330
5C
100
AcDbEntity
  8
0
  6
Continuous
 62
     7
100
AcDbLine
 10
-69.07500002437236
 20
143.8598075526533
 30
0.0
 11
-62.92500002394584
 21
143.8598075526536
 31
0.0
  0
LINE
  5
22C
330
5C
100
AcDbEntity
  8
0
  6
Continuous
 62
     7
100
AcDbLine
 10
-64.80000002384118
 20
139.512499931556
 30
0.0
 11
-64.8000000238416
 21
138.5124999315591
 31
0.0
  0
LINE
  5
22D
330
5C
100
AcDbEntity
  8
0
  6
Continuous
 62
     7
100
AcDbLine
 10
-62.92500002399027
 20
139.5124999315561
 30
0.0
 11
-62.92500002399022
 21
138.4124999315587
 31
0.0
  0
LINE
  5
22E
330
5C
100
AcDbEntity
  8
0
  6
Continuous
 62
     7
100
AcDbLine
 10
-65.30000002384135
 20
139.512499931556
 30
0.0
 11
-64.80000002384118
 21
139.512499931556
 31
0.0
  0
LINE
  5
22F
330
5C
100
AcDbEntity
  8
0
  6
Continuous
 62
     7
100
AcDbLine
 10
-65.9000000238416
 20
139.0124999315592
 30
0.0
 11
-65.9000000238416
 21
139.512499931556
 31
0.0
  0
LINE
  5
230
330
5C
100
AcDbEntity
  8
0
  6
Continuous
 62
     7
100
AcDbLine
 10
-69.07500002501644
 20
156.7513530857227
 30
0.0
 11
-62.92500002406466
 21
156.751353085723
 31
0.0
  0
LINE
  5
231
330
5C
100
AcDbEntity
  8
0
  6
Continuous
 62
     7
100
AcDbLine
 10
-69.07500002437236
 20
143.8598075526533
 30
0.0
 11
-69.07500002439347
 21
143.5874999315127
 31
0.0
  0
LINE
  5
232
330
5C
100
AcDbEntity
  8
0
  6
Continuous
 62
     7
100
AcDbLine
 10
-69.07500002445627
 20
149.6401923103622
 30
0.0
 11
-69.07500002437236
 21
143.8598075526533
 31
0.0
  0
LINE
  5
233
330
5C
100
AcDbEntity
  8
0
  6
Continuous
 62
     7
100
AcDbLine
 10
-69.07500002439347
 20
143.5874999315127
 30
0.0
 11
-69.07500002435233
 21
143.496076883065
 31
0.0
  0
LINE
  5
234
330
5C
100
AcDbEntity
  8
0
  6
Continuous
 62
     7
100
AcDbLine
 10
-62.92500002406485
 20
156.4810752042945
 30
0.0
 11
-62.92500002394266
 21
156.386291043004
 31
0.0
  0
LINE
  5
235
330
5C
100
AcDbEntity
  8
0
  6
Continuous
 62
     7
100
AcDbLine
 10
-62.92500002394266
 20
156.386291043004
 30
0.0
 11
-62.92500002405841
 21
156.3506750069026
 31
0.0
  0
LINE
  5
236
330
5C
100
AcDbEntity
  8
0
  6
Continuous
 62
     7
100
AcDbLine
 10
-62.92500002406466
 20
156.751353085723
 30
0.0
 11
-62.92500002406485
 21
156.4810752042945
 31
0.0
  0
LINE
  5
237
330
5C
100
AcDbEntity
  8
0
  6
Continuous
 62
     7
100
AcDbLine
 10
-69.07500002508323
 20
162.4886517320141
 30
0.0
 11
-62.92500002406068
 21
162.4886517320144
 31
0.0
  0
LINE
  5
238
330
5C
100
AcDbEntity
  8
0
  6
Continuous
 62
     7
100
AcDbLine
 10
-69.07500002453946
 20
156.3862910430037
 30
0.0
 11
-62.92500002394266
 21
156.386291043004
 31
0.0
  0
LINE
  5
239
330
5C
100
AcDbEntity
  8
0
  6
Continuous
 62
     7
100
AcDbLine
 10
-62.92500002395232
 20
143.587499931513
 30
0.0
 11
-62.92500002394584
 21
143.8598075526536
 31
0.0
  0
LINE
  5
23A
330
5C
100
AcDbEntity
  8
0
  6
Continuous
 62
     7
100
AcDbLine
 10
-62.92500002399022
 20
138.4124999315587
 30
0.0
 11
-63.0750000237879
 21
138.4124999315586
 31
0.0
  0
LINE
  5
23B
330
5C
100
AcDbEntity
  8
0
  6
Continuous
 62
     7
100
AcDbLine
 10
-64.8000000238416
 20
138.5124999315591
 30
0.0
 11
-66.40000002384166
 21
138.5124999315592
 31
0.0
  0
LINE
  5
23C
330
5C
100
AcDbEntity
  8
0
  6
Continuous
 62
     7
100
AcDbLine
 10
-65.9000000238416
 20
139.512499931556
 30
0.0
 11
-65.30000002384135
 21
139.512499931556
 31
0.0
  0
LINE
  5
23D
330
5C
100
AcDbEntity
  8
0
  6
Continuous
 62
     7
100
AcDbLine
 10
-69.07500002498652
 20
156.3506750069023
 30
0.0
 11
-69.07500002444681
 21
150.0039229799509
 31
0.0
  0
LINE
  5
23E
330
5C
100
AcDbEntity
  8
0
  6
Continuous
 62
     7
100
AcDbLine
 10
-69.07500002448529
 20
149.9124999315178
 30
0.0
 11
-69.07500002445627
 21
149.6401923103622
 31
0.0
  0
LINE
  5
23F
330
5C
100
AcDbEntity
  8
0
  6
Continuous
 62
     7
100
AcDbLine
 10
-69.07500002444681
 20
150.0039229799509
 30
0.0
 11
-69.07500002448529
 21
149.9124999315178
 31
0.0
  0
LINE
  5
240
330
5C
100
AcDbEntity
  8
0
  6
Continuous
 62
     7
100
AcDbLine
 10
-69.07500002435233
 20
143.496076883065
 30
0.0
 11
-69.07500002448889
 21
139.5124999315558
 31
0.0
  0
LINE
  5
241
330
5C
100
AcDbEntity
  8
0
  6
Continuous
 62
     7
100
AcDbLine
 10
-69.07500002448889
 20
139.5124999315558
 30
0.0
 11
-65.9000000238416
 21
139.512499931556
 31
0.0
  0
LINE
  5
242
330
5C
100
AcDbEntity
  8
0
  6
Continuous
 62
     7
100
AcDbLine
 10
-69.07500002465859
 20
162.8569572815107
 30
0.0
 11
-62.92500002394949
 21
162.856957281511
 31
0.0
  0
LINE
  5
243
330
5C
100
AcDbEntity
  8
0
  6
Continuous
 62
     7
100
AcDbLine
 10
-62.92500002394584
 20
143.8598075526536
 30
0.0
 11
-62.92500002394613
 21
149.6401923103625
 31
0.0
  0
LINE
  5
244
330
5C
100
AcDbEntity
  8
0
  6
Continuous
 62
     7
100
AcDbLine
 10
-62.92500002394613
 20
149.6401923103625
 30
0.0
 11
-62.92500002395263
 21
149.9124999315181
 31
0.0
  0
LINE
  5
245
330
5C
100
AcDbEntity
  8
0
  6
Continuous
 62
     7
100
AcDbLine
 10
-69.07500002508323
 20
162.4886517320141
 30
0.0
 11
-69.07500002501644
 21
156.7513530857227
 31
0.0
  0
LINE
  5
246
330
5C
100
AcDbEntity
  8
0
  6
Continuous
 62
     7
100
AcDbLine
 10
-69.07500002501644
 20
156.7513530857227
 30
0.0
 11
-69.07500002501328
 21
156.4810752042942
 31
0.0
  0
LINE
  5
247
330
5C
100
AcDbEntity
  8
0
  6
Continuous
 62
     7
100
AcDbLine
 10
-69.07500002447291
 20
138.4124999314945
 30
0.0
 11
-69.07500002448889
 21
139.5124999315558
 31
0.0
  0
LINE
  5
248
330
5C
100
AcDbEntity
  8
0
  6
Continuous
 62
     7
100
AcDbLine
 10
-69.07500002465859
 20
162.8569572815107
 30
0.0
 11
-69.07500002508637
 21
162.7589296134343
 31
0.0
  0
LINE
  5
249
330
5C
100
AcDbEntity
  8
0
  6
Continuous
 62
     7
100
AcDbLine
 10
-69.07500002501328
 20
156.4810752042942
 30
0.0
 11
-69.07500002453946
 21
156.3862910430037
 31
0.0
  0
LINE
  5
24A
330
5C
100
AcDbEntity
  8
0
  6
Continuous
 62
     7
100
AcDbLine
 10
-69.07500002453946
 20
156.3862910430037
 30
0.0
 11
-69.07500002498652
 21
156.3506750069023
 31
0.0
  0
LINE
  5
24B
330
5C
100
AcDbEntity
  8
0
  6
Continuous
 62
     7
100
AcDbLine
 10
-69.07500002508637
 20
162.7589296134343
 30
0.0
 11
-69.07500002508323
 21
162.4886517320141
 31
0.0
  0
LINE
  5
24C
330
5C
100
AcDbEntity
  8
0
  6
Continuous
 62
     7
100
AcDbLine
 10
-69.07500002468
 20
164.0874999317394
 30
0.0
 11
-69.07500002465859
 21
162.8569572815107
 31
0.0
  0
LINE
  5
24D
330
5C
100
AcDbEntity
  8
0
  6
Continuous
 62
     7
100
AcDbLine
 10
-69.07500002444681
 20
150.0039229799509
 30
0.0
 11
-62.92500002394234
 21
150.0039229799513
 31
0.0
  0
LINE
  5
24E
330
5C
100
AcDbEntity
  8
0
  6
Continuous
 62
     7
100
AcDbLine
 10
-69.07500002435233
 20
143.496076883065
 30
0.0
 11
-62.92500002394201
 21
143.4960768830653
 31
0.0
  0
LINE
  5
24F
330
5C
100
AcDbEntity
  8
0
  6
Continuous
 62
     7
100
AcDbLine
 10
-66.40000002384166
 20
138.5124999315592
 30
0.0
 11
-66.40000002384186
 21
130.4124999315592
 31
0.0
  0
LINE
  5
250
330
5C
100
AcDbEntity
  8
0
  6
Continuous
 62
     7
100
AcDbLine
 10
-69.07500002445627
 20
149.6401923103622
 30
0.0
 11
-62.92500002394613
 21
149.6401923103625
 31
0.0
  0
LINE
  5
251
330
5C
100
AcDbEntity
  8
0
  6
Continuous
 62
     7
100
AcDbLine
 10
-62.92500002395232
 20
143.587499931513
 30
0.0
 11
-62.92500002394201
 21
143.4960768830653
 31
0.0
  0
LINE
  5
252
330
5C
100
AcDbEntity
  8
0
  6
Continuous
 62
     7
100
AcDbLine
 10
-62.92500002399027
 20
139.5124999315561
 30
0.0
 11
-62.92500002394201
 21
143.4960768830653
 31
0.0
  0
LINE
  5
253
330
5C
100
AcDbEntity
  8
0
  6
Continuous
 62
     7
100
AcDbLine
 10
-64.80000002384118
 20
139.512499931556
 30
0.0
 11
-62.92500002399027
 21
139.5124999315561
 31
0.0
  0
LINE
  5
254
330
5C
100
AcDbEntity
  8
0
  6
Continuous
 62
     7
100
AcDbLine
 10
-64.8000000238416
 20
138.5124999315591
 30
0.0
 11
-64.80000002384175
 21
130.4124999315591
 31
0.0
  0
LINE
  5
255
330
5C
100
AcDbEntity
  8
0
  6
Continuous
 62
     7
100
AcDbLine
 10
-63.0750000237872
 20
124.4124999315591
 30
0.0
 11
-63.07500002379015
 21
122.9124999315584
 31
0.0
  0
LINE
  5
256
330
5C
100
AcDbEntity
  8
0
  6
Continuous
 62
     7
100
AcDbLine
 10
-63.0750000237879
 20
138.4124999315586
 30
0.0
 11
-63.0750000237872
 21
124.4124999315591
 31
0.0
  0
LINE
  5
257
330
5C
100
AcDbEntity
  8
0
  6
Continuous
 62
     7
100
AcDbLine
 10
-64.90000002384149
 20
124.412499931559
 30
0.0
 11
-63.0750000237872
 21
124.4124999315591
 31
0.0
  0
LINE
  5
258
330
5C
100
AcDbEntity
  8
0
  6
Continuous
 62
     7
100
AcDbLine
 10
-62.92500002394234
 20
150.0039229799513
 30
0.0
 11
-62.92500002395263
 21
149.9124999315181
 31
0.0
  0
LINE
  5
259
330
5C
100
AcDbEntity
  8
0
  6
Continuous
 62
     2
100
AcDbLine
 10
-65.3000000238416
 20
139.0124999315592
 30
0.0
 11
-65.9000000238416
 21
139.0124999315592
 31
0.0
  0
LINE
  5
25A
330
5C
100
AcDbEntity
  8
0
  6
Continuous
 62
     7
100
AcDbLine
 10
-64.80000002384175
 20
130.4124999315591
 30
0.0
 11
-65.9000000238416
 21
130.4124999315592
 31
0.0
  0
LINE
  5
25B
330
5C
100
AcDbEntity
  8
0
  6
Continuous
 62
     7
100
AcDbLine
 10
-65.9000000238416
 20
130.4124999315592
 30
0.0
 11
-66.40000002384186
 21
130.4124999315592
 31
0.0
  0
LINE
  5
25C
330
5C
100
AcDbEntity
  8
0
  6
Continuous
 62
     2
100
AcDbLine
 10
-64.90000002384149
 20
124.6761616528504
 30
0.0
 11
-65.90000002384176
 21
124.6761616528486
 31
0.0
  0
LINE
  5
25D
330
5C
100
AcDbEntity
  8
0
  6
Continuous
 62
     7
100
AcDbLine
 10
-65.90000002384177
 20
125.7503636147618
 30
0.0
 11
-65.90000002384166
 21
128.4828292404077
 31
0.0
  0
LINE
  5
25E
330
5C
100
AcDbEntity
  8
0
  6
Continuous
 62
     7
100
AcDbLine
 10
-65.90000002384177
 20
125.7503636147618
 30
0.0
 11
-65.90000002384176
 21
124.6761616528486
 31
0.0
  0
LINE
  5
25F
330
5C
100
AcDbEntity
  8
0
  6
Continuous
 62
     7
100
AcDbLine
 10
-65.90000002384176
 20
123.5124999314562
 30
0.0
 11
-68.12500002384172
 21
123.5124999315878
 31
0.0
  0
LINE
  5
260
330
5C
100
AcDbEntity
  8
0
  6
Continuous
 62
     2
100
AcDbLine
 10
-64.90000002384149
 20
125.7503636147618
 30
0.0
 11
-65.90000002384177
 21
125.7503636147618
 31
0.0
  0
LINE
  5
261
330
5C
100
AcDbEntity
  8
0
  6
Continuous
 62
     7
100
AcDbLine
 10
-64.90000002384149
 20
125.7503636147618
 30
0.0
 11
-64.90000002384139
 21
128.4828292404076
 31
0.0
  0
LINE
  5
262
330
5C
100
AcDbEntity
  8
0
  6
Continuous
 62
     7
100
AcDbLine
 10
-64.90000002384149
 20
125.7503636147618
 30
0.0
 11
-64.90000002384149
 21
124.6761616528504
 31
0.0
  0
LINE
  5
263
330
5C
100
AcDbEntity
  8
0
  6
Continuous
 62
     7
100
AcDbLine
 10
-64.90000002384149
 20
124.412499931559
 30
0.0
 11
-64.90000002384149
 21
124.6761616528504
 31
0.0
  0
LINE
  5
264
330
5C
100
AcDbEntity
  8
0
  6
Continuous
 62
     7
100
AcDbLine
 10
-65.90000002384166
 20
128.4828292404077
 30
0.0
 11
-65.9000000238416
 21
130.4124999315592
 31
0.0
  0
LINE
  5
265
330
5C
100
AcDbEntity
  8
0
  6
Continuous
 62
     7
100
AcDbLine
 10
-64.90000002384139
 20
128.4828292404076
 30
0.0
 11
-65.90000002384166
 21
128.4828292404077
 31
0.0
  0
LINE
  5
266
330
5C
100
AcDbEntity
  8
0
  6
Continuous
 62
     7
100
AcDbLine
 10
-65.90000002384176
 20
124.6761616528486
 30
0.0
 11
-65.90000002384176
 21
123.5124999314562
 31
0.0
  0
LINE
  5
267
330
5C
100
AcDbEntity
  8
0
  6
Continuous
 62
     7
100
AcDbLine
 10
-63.07500002379015
 20
122.9124999315584
 30
0.0
 11
-67.47500002384142
 21
122.9124999315582
 31
0.0
  0
LINE
  5
268
330
5C
100
AcDbEntity
  8
0
  6
Continuous
 62
     7
100
AcDbLine
 10
-62.92500002406068
 20
162.4886517320144
 30
0.0
 11
-62.92500002406466
 21
156.751353085723
 31
0.0
  0
LINE
  5
269
330
5C
100
AcDbEntity
  8
0
  6
Continuous
 62
     7
100
AcDbLine
 10
-65.30000002384135
 20
139.512499931556
 30
0.0
 11
-65.3000000238416
 21
139.0124999315592
 31
0.0
  0
LINE
  5
26A
330
5C
100
AcDbEntity
  8
0
  6
Continuous
 62
     7
100
AcDbLine
 10
-62.92500002394949
 20
162.856957281511
 30
0.0
 11
-62.92500002406068
 21
162.4886517320144
 31
0.0
  0
LINE
  5
26B
330
5C
100
AcDbEntity
  8
0
  6
Continuous
 62
     7
100
AcDbLine
 10
-62.92500002399331
 20
164.0874999317373
 30
0.0
 11
-62.92500002394949
 21
162.856957281511
 31
0.0
  0
LINE
  5
26C
330
5C
100
AcDbEntity
  8
0
  6
Continuous
 62
     7
100
AcDbLine
 10
-62.92500002399331
 20
164.0874999317373
 30
0.0
 11
-69.07500002468
 21
164.0874999317394
 31
0.0
  0
LINE
  5
26D
330
5C
100
AcDbEntity
  8
0
  6
Continuous
 62
     7
100
AcDbLine
 10
-62.92500002394234
 20
150.0039229799513
 30
0.0
 11
-62.92500002405841
 21
156.3506750069026
 31
0.0
  0
ARC
  5
26E
330
5C
100
AcDbEntity
  8
0
  6
Continuous
 62
     7
100
AcDbCircle
 10
-64.80000002384165
 20
139.0124999315592
 30
0.0
 40
0.4999999999999574
100
AcDbArc
 50
180.0
 51
270.0000000000049
  0
ARC
  5
26F
330
5C
100
AcDbEntity
  8
0
  6
Continuous
 62
     7
100
AcDbCircle
 10
-66.40000002384164
 20
139.0124999315592
 30
0.0
 40
0.5
100
AcDbArc
 50
269.9999999999984
 51
0.0
  0
CIRCLE
  5
270
330
5C
100
AcDbEntity
  8
0
  6
Continuous
 62
     7
100
AcDbCircle
 10
-66.00000002382556
 20
153.1874999315814
 30
0.0
 40
1.050000000000011
  0
ENDBLK
  5
5E
330
5C
100
AcDbEntity
  8
0
100
AcDbBlockEnd
  0
BLOCK
  5
61
330
5F
100
AcDbEntity
  8
0
100
AcDbBlockBegin
  2
SA_Links1
 70
     0
 10
-66.0
 20
143.0
 30
0.0
  3
SA_Links1
  1

  0
INSERT
  5
60
330
5F
100
AcDbEntity
  8
0
100
AcDbBlockReference
  2
PP_H_4_1_L_GNYE-select__4
 10
-69.07500002508637
 20
121.9124999315587
 30
0.0
  0
MTEXT
  5
271
330
5F
100
AcDbEntity
  8
1
 62
     6
100
AcDbMText
 10
-66.0
 20
116.5259742962605
 30
0.0
 40
5.0
 41
0.0
 71
     2
 72
     1
  1
 
  7
CONVERTER_11
 73
     1
 44
1.32052821128451
  0
ENDBLK
  5
62
330
5F
100
AcDbEntity
  8
0
100
AcDbBlockEnd
  0
BLOCK
  5
64
330
63
100
AcDbEntity
  8
0
100
AcDbBlockBegin
  2
PP_H_4_1_L_GNYE-select__5
 70
     0
 10
-169.1481229760344
 20
121.9124999315587
 30
0.0
  3
PP_H_4_1_L_GNYE-select__5
  1

  0
LINE
  5
272
330
63
100
AcDbEntity
  8
0
  6
Continuous
 62
     7
100
AcDbLine
 10
-163.9481229761589
 20
123.5124999317131
 30
0.0
 11
-167.4481229761591
 21
123.512499931713
 31
0.0
  0
LINE
  5
273
330
63
100
AcDbEntity
  8
0
  6
Continuous
 62
     7
100
AcDbLine
 10
-167.4481229761594
 20
136.1124999315591
 30
0.0
 11
-168.5481229761587
 21
136.1124999315591
 31
0.0
  0
LINE
  5
274
330
63
100
AcDbEntity
  8
0
  6
Continuous
 62
     7
100
AcDbLine
 10
-164.598122976159
 20
122.9124999315599
 30
0.0
 11
-168.9981229761675
 21
122.9124999315601
 31
0.0
  0
LINE
  5
275
330
63
100
AcDbEntity
  8
0
  6
Continuous
 62
     7
100
AcDbLine
 10
-168.5481229761584
 20
124.4124999315084
 30
0.0
 11
-168.5481229761585
 21
125.5124999315586
 31
0.0
  0
LINE
  5
276
330
63
100
AcDbEntity
  8
0
  6
Continuous
 62
     7
100
AcDbLine
 10
-163.99812297616
 20
150.9616774669712
 30
0.0
 11
-163.99812297616
 21
145.4617052068868
 31
0.0
  0
LINE
  5
277
330
63
100
AcDbEntity
  8
0
  6
Continuous
 62
     7
100
AcDbLine
 10
-163.99812297616
 20
150.9616774669712
 30
0.0
 11
-168.5481229761589
 21
150.9616774669711
 31
0.0
  0
LINE
  5
278
330
63
100
AcDbEntity
  8
0
  6
Continuous
 62
     7
100
AcDbLine
 10
-163.99812297616
 20
144.2374999315587
 30
0.0
 11
-168.5481229761587
 21
144.2374999315533
 31
0.0
  0
LINE
  5
279
330
63
100
AcDbEntity
  8
0
  6
Continuous
 62
     7
100
AcDbLine
 10
-168.5481229761591
 20
140.3124999315592
 30
0.0
 11
-168.5481229761586
 21
140.6624999315449
 31
0.0
  0
LINE
  5
27A
330
63
100
AcDbEntity
  8
0
  6
Continuous
 62
     7
100
AcDbLine
 10
-168.5481229761587
 20
138.5124999315593
 30
0.0
 11
-168.5481229761588
 21
139.412499931559
 31
0.0
  0
LINE
  5
27B
330
63
100
AcDbEntity
  8
0
  6
Continuous
 62
     7
100
AcDbLine
 10
-168.5481229761588
 20
139.412499931559
 30
0.0
 11
-168.5481229761585
 21
139.750449996389
 31
0.0
  0
LINE
  5
27C
330
63
100
AcDbEntity
  8
0
  6
Continuous
 62
     7
100
AcDbLine
 10
-168.5481229761587
 20
143.7124999315679
 30
0.0
 11
-168.5481229761587
 21
144.2374999315533
 31
0.0
  0
LINE
  5
27D
330
63
100
AcDbEntity
  8
0
  6
Continuous
 62
     7
100
AcDbLine
 10
-168.5481229761589
 20
153.1374999320142
 30
0.0
 11
-169.1481229759388
 21
153.1374999320142
 31
0.0
  0
LINE
  5
27E
330
63
100
AcDbEntity
  8
0
  6
Continuous
 62
     7
100
AcDbLine
 10
-168.5481229761589
 20
150.9616774669711
 30
0.0
 11
-168.5481229761589
 21
153.1374999320142
 31
0.0
  0
LINE
  5
27F
330
63
100
AcDbEntity
  8
0
  6
Continuous
 62
     7
100
AcDbLine
 10
-168.5481229761588
 20
142.6214840986208
 30
0.0
 11
-168.5481229761587
 21
143.2124999315586
 31
0.0
  0
LINE
  5
280
330
63
100
AcDbEntity
  8
0
  6
Continuous
 62
     7
100
AcDbLine
 10
-169.1481229759388
 20
153.5173222299405
 30
0.0
 11
-163.9981229761601
 21
153.5173222299406
 31
0.0
  0
LINE
  5
281
330
63
100
AcDbEntity
  8
0
  6
Continuous
 62
     7
100
AcDbLine
 10
-163.9981229761601
 20
153.5173222299406
 30
0.0
 11
-163.99812297616
 21
150.9616774669712
 31
0.0
  0
LINE
  5
282
330
63
100
AcDbEntity
  8
0
  6
Continuous
 62
     7
100
AcDbLine
 10
-162.9981229755437
 20
149.6401923103622
 30
0.0
 11
-162.9981229755398
 21
149.9124999315181
 31
0.0
  0
LINE
  5
283
330
63
100
AcDbEntity
  8
0
  6
Continuous
 62
     7
100
AcDbLine
 10
-169.1481229759303
 20
154.3374999315597
 30
0.0
 11
-163.9981229761602
 21
154.3374999315598
 31
0.0
  0
LINE
  5
284
330
63
100
AcDbEntity
  8
0
  6
Continuous
 62
     7
100
AcDbLine
 10
-169.1481229759388
 20
153.5173222299405
 30
0.0
 11
-169.1481229759303
 21
154.3374999315597
 31
0.0
  0
LINE
  5
285
330
63
100
AcDbEntity
  8
0
  6
Continuous
 62
     7
100
AcDbLine
 10
-163.9981229761602
 20
154.1132946561423
 30
0.0
 11
-163.9981229761601
 21
153.5173222299406
 31
0.0
  0
LINE
  5
286
330
63
100
AcDbEntity
  8
0
  6
Continuous
 62
     7
100
AcDbLine
 10
-163.9981229761602
 20
154.1132946561423
 30
0.0
 11
-163.9981229761602
 21
154.3374999315598
 31
0.0
  0
LINE
  5
287
330
63
100
AcDbEntity
  8
0
  6
Continuous
 62
     7
100
AcDbLine
 10
-169.1481229759303
 20
154.3374999315597
 30
0.0
 11
-169.1481229759302
 21
156.3862911358847
 31
0.0
  0
LINE
  5
288
330
63
100
AcDbEntity
  8
0
  6
Continuous
 62
     7
100
AcDbLine
 10
-163.9481229761589
 20
123.5124999317131
 30
0.0
 11
-163.9481229761592
 21
138.4124999315083
 31
0.0
  0
LINE
  5
289
330
63
100
AcDbEntity
  8
0
  6
Continuous
 62
     7
100
AcDbLine
 10
-164.598122976159
 20
121.9124999315588
 30
0.0
 11
-163.9481229761588
 21
121.9124999315587
 31
0.0
  0
LINE
  5
28A
330
63
100
AcDbEntity
  8
0
  6
Continuous
 62
     7
100
AcDbLine
 10
-163.9481229761589
 20
123.5124999317131
 30
0.0
 11
-163.9481229761588
 21
121.9124999315587
 31
0.0
  0
LINE
  5
28B
330
63
100
AcDbEntity
  8
0
  6
Continuous
 62
     7
100
AcDbLine
 10
-164.598122976159
 20
121.9124999315588
 30
0.0
 11
-164.598122976159
 21
122.9124999315599
 31
0.0
  0
LINE
  5
28C
330
63
100
AcDbEntity
  8
0
  6
Continuous
 62
     7
100
AcDbLine
 10
-167.4481229761591
 20
124.412499931548
 30
0.0
 11
-167.4481229761591
 21
123.512499931713
 31
0.0
  0
LINE
  5
28D
330
63
100
AcDbEntity
  8
0
  6
Continuous
 62
     7
100
AcDbLine
 10
-167.4481229761591
 20
124.412499931548
 30
0.0
 11
-168.5481229761584
 21
124.4124999315084
 31
0.0
  0
LINE
  5
28E
330
63
100
AcDbEntity
  8
0
  6
Continuous
 62
     7
100
AcDbLine
 10
-167.4481229761594
 20
136.1124999315591
 30
0.0
 11
-167.4481229761591
 21
124.412499931548
 31
0.0
  0
LINE
  5
28F
330
63
100
AcDbEntity
  8
0
  6
Continuous
 62
     7
100
AcDbLine
 10
-167.4481229761595
 20
138.5124999315592
 30
0.0
 11
-167.4481229761594
 21
136.1124999315591
 31
0.0
  0
LINE
  5
290
330
63
100
AcDbEntity
  8
0
  6
Continuous
 62
     7
100
AcDbLine
 10
-162.9981229749168
 20
162.4886517320141
 30
0.0
 11
-169.1481229759393
 21
162.4886517320144
 31
0.0
  0
LINE
  5
291
330
63
100
AcDbEntity
  8
0
  6
Continuous
 62
     7
100
AcDbLine
 10
-162.9981229749
 20
162.856957295028
 30
0.0
 11
-169.1481229759364
 21
162.8569572950283
 31
0.0
  0
LINE
  5
292
330
63
100
AcDbEntity
  8
0
  6
Continuous
 62
     7
100
AcDbLine
 10
-162.9981229749836
 20
156.7513530857227
 30
0.0
 11
-169.1481229759353
 21
156.751353085723
 31
0.0
  0
LINE
  5
293
330
63
100
AcDbEntity
  8
0
  6
Continuous
 62
     7
100
AcDbLine
 10
-168.5481229761587
 20
143.7124999315679
 30
0.0
 11
-163.5981229761599
 21
143.7124999315579
 31
0.0
  0
LINE
  5
294
330
63
100
AcDbEntity
  8
0
  6
Continuous
 62
     7
100
AcDbLine
 10
-167.4481229761598
 20
139.5124999315593
 30
0.0
 11
-162.9981229752339
 21
139.5124999315527
 31
0.0
  0
LINE
  5
295
330
63
100
AcDbEntity
  8
0
  6
Continuous
 62
     7
100
AcDbLine
 10
-162.9981229749687
 20
156.3862911358844
 30
0.0
 11
-169.1481229759302
 21
156.3862911358847
 31
0.0
  0
LINE
  5
296
330
63
100
AcDbEntity
  8
0
  6
Continuous
 62
     7
100
AcDbLine
 10
-162.9981229750017
 20
154.1132946561423
 30
0.0
 11
-163.9981229761602
 21
154.1132946561423
 31
0.0
  0
LINE
  5
297
330
63
100
AcDbEntity
  8
0
  6
Continuous
 62
     7
100
AcDbLine
 10
-162.9981229749687
 20
156.3862911358844
 30
0.0
 11
-162.9981229749836
 21
156.7513530857227
 31
0.0
  0
LINE
  5
298
330
63
100
AcDbEntity
  8
0
  6
Continuous
 62
     7
100
AcDbLine
 10
-162.9981229750017
 20
154.1132946561423
 30
0.0
 11
-162.9981229749687
 21
156.3862911358844
 31
0.0
  0
LINE
  5
299
330
63
100
AcDbEntity
  8
0
  6
Continuous
 62
     7
100
AcDbLine
 10
-169.1481229759302
 20
156.3862911358847
 30
0.0
 11
-169.1481229759353
 21
156.751353085723
 31
0.0
  0
LINE
  5
29A
330
63
100
AcDbEntity
  8
0
  6
Continuous
 62
     7
100
AcDbLine
 10
-168.9981229761642
 20
127.1124999315587
 30
0.0
 11
-168.9981229761636
 21
138.4124999315586
 31
0.0
  0
LINE
  5
29B
330
63
100
AcDbEntity
  8
0
  6
Continuous
 62
     7
100
AcDbLine
 10
-169.1481229759353
 20
156.751353085723
 30
0.0
 11
-169.1481229760182
 21
158.4874999317917
 31
0.0
  0
LINE
  5
29C
330
63
100
AcDbEntity
  8
0
  6
Continuous
 62
     7
100
AcDbLine
 10
-169.1481229760251
 20
159.5874999317919
 30
0.0
 11
-169.1481229759393
 21
162.4886517320144
 31
0.0
  0
LINE
  5
29D
330
63
100
AcDbEntity
  8
0
  6
Continuous
 62
     7
100
AcDbLine
 10
-168.9981229761662
 20
123.5124999315586
 30
0.0
 11
-168.9981229762085
 21
125.5124999315586
 31
0.0
  0
LINE
  5
29E
330
63
100
AcDbEntity
  8
0
  6
Continuous
 62
     7
100
AcDbLine
 10
-168.9981229762085
 20
125.5124999315586
 30
0.0
 11
-168.9981229761642
 21
127.1124999315587
 31
0.0
  0
LINE
  5
29F
330
63
100
AcDbEntity
  8
0
  6
Continuous
 62
     7
100
AcDbLine
 10
-169.1481229759613
 20
138.4124999315586
 30
0.0
 11
-169.1481229759613
 21
139.4124999315591
 31
0.0
  0
LINE
  5
2A0
330
63
100
AcDbEntity
  8
0
  6
Continuous
 62
     7
100
AcDbLine
 10
-168.5481229761587
 20
144.2374999315533
 30
0.0
 11
-168.5481229761589
 21
150.9616774669711
 31
0.0
  0
LINE
  5
2A1
330
63
100
AcDbEntity
  8
0
  6
Continuous
 62
     7
100
AcDbLine
 10
-168.5481229761586
 20
141.4124999315586
 30
0.0
 11
-168.5481229761593
 21
142.2124999316061
 31
0.0
  0
LINE
  5
2A2
330
63
100
AcDbEntity
  8
0
  6
Continuous
 62
     7
100
AcDbLine
 10
-168.9981229761675
 20
122.9124999315601
 30
0.0
 11
-168.9981229761662
 21
123.5124999315586
 31
0.0
  0
LINE
  5
2A3
330
63
100
AcDbEntity
  8
0
  6
Continuous
 62
     7
100
AcDbLine
 10
-168.9981229762085
 20
125.5124999315586
 30
0.0
 11
-168.5481229761585
 21
125.5124999315586
 31
0.0
  0
LINE
  5
2A4
330
63
100
AcDbEntity
  8
0
  6
Continuous
 62
     7
100
AcDbLine
 10
-168.5481229761584
 20
123.5124999315626
 30
0.0
 11
-168.5481229761584
 21
124.4124999315084
 31
0.0
  0
LINE
  5
2A5
330
63
100
AcDbEntity
  8
0
  6
Continuous
 62
     7
100
AcDbLine
 10
-168.5481229761585
 20
125.5124999315586
 30
0.0
 11
-168.5481229761585
 21
127.1124999315586
 31
0.0
  0
LINE
  5
2A6
330
63
100
AcDbEntity
  8
0
  6
Continuous
 62
     7
100
AcDbLine
 10
-168.5481229761585
 20
127.1124999315586
 30
0.0
 11
-168.9981229761642
 21
127.1124999315587
 31
0.0
  0
LINE
  5
2A7
330
63
100
AcDbEntity
  8
0
  6
Continuous
 62
     7
100
AcDbLine
 10
-168.9981229761636
 20
138.4124999315586
 30
0.0
 11
-169.1481229759613
 21
138.4124999315586
 31
0.0
  0
LINE
  5
2A8
330
63
100
AcDbEntity
  8
0
  6
Continuous
 62
     7
100
AcDbLine
 10
-169.1481229759613
 20
139.4124999315591
 30
0.0
 11
-168.5481229761588
 21
139.412499931559
 31
0.0
  0
LINE
  5
2A9
330
63
100
AcDbEntity
  8
0
  6
Continuous
 62
     7
100
AcDbLine
 10
-168.5481229761587
 20
136.1124999315591
 30
0.0
 11
-168.5481229761587
 21
138.5124999315593
 31
0.0
  0
LINE
  5
2AA
330
63
100
AcDbEntity
  8
0
  6
Continuous
 62
     7
100
AcDbLine
 10
-168.9981229761662
 20
123.5124999315586
 30
0.0
 11
-168.5481229761584
 21
123.5124999315626
 31
0.0
  0
LINE
  5
2AB
330
63
100
AcDbEntity
  8
0
  6
Continuous
 62
     7
100
AcDbLine
 10
-168.5481229761587
 20
143.2124999315586
 30
0.0
 11
-168.5481229761587
 21
143.7124999315679
 31
0.0
  0
LINE
  5
2AC
330
63
100
AcDbEntity
  8
0
  6
Continuous
 62
     7
100
AcDbLine
 10
-168.5481229761586
 20
140.6624999315449
 30
0.0
 11
-168.5481229761586
 21
141.4124999315586
 31
0.0
  0
LINE
  5
2AD
330
63
100
AcDbEntity
  8
0
  6
Continuous
 62
     7
100
AcDbLine
 10
-168.5481229761593
 20
142.2124999316061
 30
0.0
 11
-168.5481229761588
 21
142.6214840986208
 31
0.0
  0
LINE
  5
2AE
330
63
100
AcDbEntity
  8
0
  6
Continuous
 62
     7
100
AcDbLine
 10
-169.1481229759388
 20
153.5173222299405
 30
0.0
 11
-169.1481229759388
 21
153.1374999320142
 31
0.0
  0
LINE
  5
2AF
330
63
100
AcDbEntity
  8
0
  6
Continuous
 62
     7
100
AcDbLine
 10
-169.1481229760055
 20
140.3124999315592
 30
0.0
 11
-168.5481229761591
 21
140.3124999315592
 31
0.0
  0
LINE
  5
2B0
330
63
100
AcDbEntity
  8
0
  6
Continuous
 62
     7
100
AcDbLine
 10
-169.1481229759613
 20
139.4124999315591
 30
0.0
 11
-169.1481229760055
 21
140.3124999315592
 31
0.0
  0
LINE
  5
2B1
330
63
100
AcDbEntity
  8
0
  6
Continuous
 62
     7
100
AcDbLine
 10
-169.1481229760344
 20
142.2124999316061
 30
0.0
 11
-168.5481229761593
 21
142.2124999316061
 31
0.0
  0
LINE
  5
2B2
330
63
100
AcDbEntity
  8
0
  6
Continuous
 62
     7
100
AcDbLine
 10
-169.1481229760055
 20
140.3124999315592
 30
0.0
 11
-169.1481229760344
 21
142.2124999316061
 31
0.0
  0
LINE
  5
2B3
330
63
100
AcDbEntity
  8
0
  6
Continuous
 62
     7
100
AcDbLine
 10
-169.1481229759364
 20
162.8569572950283
 30
0.0
 11
-169.1481229760249
 21
164.0874999317384
 31
0.0
  0
LINE
  5
2B4
330
63
100
AcDbEntity
  8
0
  6
Continuous
 62
     7
100
AcDbLine
 10
-169.1481229759393
 20
162.4886517320144
 30
0.0
 11
-169.1481229759364
 21
162.8569572950283
 31
0.0
  0
LINE
  5
2B5
330
63
100
AcDbEntity
  8
0
  6
Continuous
 62
     7
100
AcDbLine
 10
-169.1481229760182
 20
158.4874999317917
 30
0.0
 11
-169.1481229760251
 21
159.5874999317919
 31
0.0
  0
LINE
  5
2B6
330
63
100
AcDbEntity
  8
0
  6
Continuous
 62
     7
100
AcDbLine
 10
-169.1481229760344
 20
142.2124999316061
 30
0.0
 11
-169.1481229759388
 21
153.1374999320142
 31
0.0
  0
LINE
  5
2B7
330
63
100
AcDbEntity
  8
0
  6
Continuous
 62
     7
100
AcDbLine
 10
-168.5481229761587
 20
138.5124999315593
 30
0.0
 11
-167.4481229761595
 21
138.5124999315592
 31
0.0
  0
LINE
  5
2B8
330
63
100
AcDbEntity
  8
0
  6
Continuous
 62
     7
100
AcDbLine
 10
-168.5481229761585
 20
139.750449996389
 30
0.0
 11
-168.5481229761591
 21
140.3124999315592
 31
0.0
  0
LINE
  5
2B9
330
63
100
AcDbEntity
  8
0
  6
Continuous
 62
     7
100
AcDbLine
 10
-162.9981229749
 20
162.856957295028
 30
0.0
 11
-162.9981229748857
 21
164.0874999317331
 31
0.0
  0
LINE
  5
2BA
330
63
100
AcDbEntity
  8
0
  6
Continuous
 62
     7
100
AcDbLine
 10
-163.5981229761598
 20
141.4124999315588
 30
0.0
 11
-163.5981229761595
 21
142.6214840986328
 31
0.0
  0
LINE
  5
2BB
330
63
100
AcDbEntity
  8
0
  6
Continuous
 62
     7
100
AcDbLine
 10
-162.9981229751273
 20
145.4617052068868
 30
0.0
 11
-163.99812297616
 21
145.4617052068868
 31
0.0
  0
LINE
  5
2BC
330
63
100
AcDbEntity
  8
0
  6
Continuous
 62
     7
100
AcDbLine
 10
-162.9981229752102
 20
139.7504499963887
 30
0.0
 11
-162.9981229751273
 21
145.4617052068868
 31
0.0
  0
LINE
  5
2BD
330
63
100
AcDbEntity
  8
0
  6
Continuous
 62
     7
100
AcDbLine
 10
-167.4481229761598
 20
139.5124999315593
 30
0.0
 11
-167.4481229761595
 21
138.5124999315592
 31
0.0
  0
LINE
  5
2BE
330
63
100
AcDbEntity
  8
0
  6
Continuous
 62
     7
100
AcDbLine
 10
-163.5981229761599
 20
140.6624999315612
 30
0.0
 11
-163.5981229761598
 21
141.4124999315588
 31
0.0
  0
LINE
  5
2BF
330
63
100
AcDbEntity
  8
0
  6
Continuous
 62
     7
100
AcDbLine
 10
-163.5981229761595
 20
142.6214840986328
 30
0.0
 11
-163.5981229761598
 21
143.2124999315587
 31
0.0
  0
LINE
  5
2C0
330
63
100
AcDbEntity
  8
0
  6
Continuous
 62
     7
100
AcDbLine
 10
-163.5981229761598
 20
143.2124999315587
 30
0.0
 11
-163.5981229761599
 21
143.7124999315579
 31
0.0
  0
LINE
  5
2C1
330
63
100
AcDbEntity
  8
0
  6
Continuous
 62
     7
100
AcDbLine
 10
-163.99812297616
 20
144.2374999315587
 30
0.0
 11
-163.99812297616
 21
145.4617052068868
 31
0.0
  0
LINE
  5
2C2
330
63
100
AcDbEntity
  8
0
  6
Continuous
 62
     7
100
AcDbLine
 10
-162.9981229749168
 20
162.4886517320141
 30
0.0
 11
-162.9981229749
 21
162.856957295028
 31
0.0
  0
LINE
  5
2C3
330
63
100
AcDbEntity
  8
0
  6
Continuous
 62
     7
100
AcDbLine
 10
-162.9981229749836
 20
156.7513530857227
 30
0.0
 11
-162.9981229749168
 21
162.4886517320141
 31
0.0
  0
LINE
  5
2C4
330
63
100
AcDbEntity
  8
0
  6
Continuous
 62
     7
100
AcDbLine
 10
-162.9981229748857
 20
164.0874999317331
 30
0.0
 11
-169.1481229760249
 21
164.0874999317384
 31
0.0
  0
LINE
  5
2C5
330
63
100
AcDbEntity
  8
0
  6
Continuous
 62
     7
100
AcDbLine
 10
-162.9981229750017
 20
154.1132946561423
 30
0.0
 11
-162.9981229755398
 21
149.9124999315181
 31
0.0
  0
LINE
  5
2C6
330
63
100
AcDbEntity
  8
0
  6
Continuous
 62
     7
100
AcDbLine
 10
-162.9981229755437
 20
149.6401923103622
 30
0.0
 11
-162.9981229751273
 21
145.4617052068868
 31
0.0
  0
LINE
  5
2C7
330
63
100
AcDbEntity
  8
0
  6
Continuous
 62
     7
100
AcDbLine
 10
-162.9981229752339
 20
139.5124999315527
 30
0.0
 11
-162.9981229753538
 21
138.4124999314945
 31
0.0
  0
LINE
  5
2C8
330
63
100
AcDbEntity
  8
0
  6
Continuous
 62
     7
100
AcDbLine
 10
-163.5981229761598
 20
141.4124999315588
 30
0.0
 11
-168.5481229761586
 21
141.4124999315586
 31
0.0
  0
LINE
  5
2C9
330
63
100
AcDbEntity
  8
0
  6
Continuous
 62
     7
100
AcDbLine
 10
-163.5981229761599
 20
140.6624999315612
 30
0.0
 11
-168.5481229761586
 21
140.6624999315449
 31
0.0
  0
LINE
  5
2CA
330
63
100
AcDbEntity
  8
0
  6
Continuous
 62
     7
100
AcDbLine
 10
-162.9981229752102
 20
139.7504499963887
 30
0.0
 11
-168.5481229761585
 21
139.750449996389
 31
0.0
  0
LINE
  5
2CB
330
63
100
AcDbEntity
  8
0
  6
Continuous
 62
     7
100
AcDbLine
 10
-162.9981229752102
 20
139.7504499963887
 30
0.0
 11
-162.9981229752339
 21
139.5124999315527
 31
0.0
  0
LINE
  5
2CC
330
63
100
AcDbEntity
  8
0
  6
Continuous
 62
     7
100
AcDbLine
 10
-163.5981229761598
 20
143.2124999315587
 30
0.0
 11
-168.5481229761587
 21
143.2124999315586
 31
0.0
  0
LINE
  5
2CD
330
63
100
AcDbEntity
  8
0
  6
Continuous
 62
     2
100
AcDbLine
 10
-163.5981229761595
 20
142.6214840986328
 30
0.0
 11
-168.5481229761588
 21
142.6214840986208
 31
0.0
  0
LINE
  5
2CE
330
63
100
AcDbEntity
  8
0
  6
Continuous
 62
     7
100
AcDbLine
 10
-163.9481229761592
 20
138.4124999315083
 30
0.0
 11
-162.9981229753538
 21
138.4124999314945
 31
0.0
  0
ENDBLK
  5
65
330
63
100
AcDbEntity
  8
0
100
AcDbBlockEnd
  0
BLOCK
  5
68
330
66
100
AcDbEntity
  8
0
100
AcDbBlockBegin
  2
SA_Rechts1
 70
     0
 10
-166.073123
 20
143.0
 30
0.0
  3
SA_Rechts1
  1

  0
INSERT
  5
67
330
66
100
AcDbEntity
  8
0
100
AcDbBlockReference
  2
PP_H_4_1_L_GNYE-select__5
 10
-169.1481229760344
 20
121.9124999315587
 30
0.0
  0
MTEXT
  5
2CF
330
66
100
AcDbEntity
  8
1
 62
     6
100
AcDbMText
 10
-166.0731231203116
 20
116.5259742962605
 30
0.0
 40
5.0
 41
0.0
 71
     2
 72
     1
  1
 
  7
CONVERTER_11
 73
     1
 44
1.32052821128451
  0
ENDBLK
  5
69
330
66
100
AcDbEntity
  8
0
100
AcDbBlockEnd
  0
BLOCK
  5
6B
330
6A
100
AcDbEntity
  8
0
100
AcDbBlockBegin
  2
PP_H_4_1_L_GNYE-select__6
 70
     0
 10
-114.8625429283098
 20
121.9124999315588
 30
0.0
  3
PP_H_4_1_L_GNYE-select__6
  1

  0
LINE
  5
2D0
330
6A
100
AcDbEntity
  8
0
  6
Continuous
 62
     7
100
AcDbLine
 10
-93.86254292812902
 20
144.2374999315587
 30
0.0
 11
-95.26254292812936
 21
150.9616774669711
 31
0.0
  0
LINE
  5
2D1
330
6A
100
AcDbEntity
  8
0
  6
Continuous
 62
     7
100
AcDbLine
 10
-99.16254292811374
 20
123.5124999315586
 30
0.0
 11
-98.8625429281332
 21
124.4124999315084
 31
0.0
  0
LINE
  5
2D2
330
6A
100
AcDbEntity
  8
0
  6
Continuous
 62
     7
100
AcDbLine
 10
-99.56254292815574
 20
127.1124999315587
 30
0.0
 11
-98.86254292813047
 21
127.1124999315587
 31
0.0
  0
LINE
  5
2D3
330
6A
100
AcDbEntity
  8
0
  6
Continuous
 62
     7
100
AcDbLine
 10
-106.0292095948238
 20
121.9124999315588
 30
0.0
 11
-99.69587626148683
 21
121.9124999315588
 31
0.0
  0
LINE
  5
2D4
330
6A
100
AcDbEntity
  8
0
  6
Continuous
 62
     7
100
AcDbLine
 10
-101.1542965207378
 20
125.5124999315586
 30
0.0
 11
-106.1625429281436
 21
125.5124999315586
 31
0.0
  0
LINE
  5
2D5
330
6A
100
AcDbEntity
  8
0
  6
Continuous
 62
     7
100
AcDbLine
 10
-100.8016425593209
 20
123.5124999315586
 30
0.0
 11
-101.1542965207378
 21
125.5124999315586
 31
0.0
  0
LINE
  5
2D6
330
6A
100
AcDbEntity
  8
0
  6
Continuous
 62
     7
100
AcDbLine
 10
-107.8625429281412
 20
130.4124999315591
 30
0.0
 11
-110.2625429281413
 21
130.4124999315591
 31
0.0
  0
LINE
  5
2D7
330
6A
100
AcDbEntity
  8
0
  6
Continuous
 62
     7
100
AcDbLine
 10
-106.3625429281303
 20
122.9124999315584
 30
0.0
 11
-99.36254292812647
 21
122.9124999315601
 31
0.0
  0
LINE
  5
2D8
330
6A
100
AcDbEntity
  8
0
  6
Continuous
 62
     7
100
AcDbLine
 10
-106.8625429281416
 20
128.4828292404076
 30
0.0
 11
-106.8625429281416
 21
124.412499931559
 31
0.0
  0
LINE
  5
2D9
330
6A
100
AcDbEntity
  8
0
  6
Continuous
 62
     7
100
AcDbLine
 10
-99.36254292812647
 20
122.9124999315601
 30
0.0
 11
-99.16254292811374
 21
123.5124999315586
 31
0.0
  0
LINE
  5
2DA
330
6A
100
AcDbEntity
  8
0
  6
Continuous
 62
     7
100
AcDbLine
 10
-99.16254292811374
 20
123.5124999315586
 30
0.0
 11
-100.8016425593209
 21
123.5124999315586
 31
0.0
  0
LINE
  5
2DB
330
6A
100
AcDbEntity
  8
0
  6
Continuous
 62
     7
100
AcDbLine
 10
-99.69587626148683
 20
121.9124999315588
 30
0.0
 11
-99.36254292812647
 21
122.9124999315601
 31
0.0
  0
LINE
  5
2DC
330
6A
100
AcDbEntity
  8
0
  6
Continuous
 62
     7
100
AcDbLine
 10
-106.3625429281303
 20
122.9124999315584
 30
0.0
 11
-106.0292095948238
 21
121.9124999315588
 31
0.0
  0
LINE
  5
2DD
330
6A
100
AcDbEntity
  8
0
  6
Continuous
 62
     7
100
AcDbLine
 10
-98.8625429281332
 20
124.4124999315084
 30
0.0
 11
-98.86254292813047
 21
127.1124999315587
 31
0.0
  0
LINE
  5
2DE
330
6A
100
AcDbEntity
  8
0
  6
Continuous
 62
     7
100
AcDbLine
 10
-98.56254292444362
 20
155.8358338826161
 30
0.0
 11
-98.56254292444427
 21
153.137499932015
 31
0.0
  0
LINE
  5
2DF
330
6A
100
AcDbEntity
  8
0
  6
Continuous
 62
     7
100
AcDbLine
 10
-106.8625429281305
 20
138.4124999315586
 30
0.0
 11
-106.862542928141
 21
136.1124999315591
 31
0.0
  0
LINE
  5
2E0
330
6A
100
AcDbEntity
  8
0
  6
Continuous
 62
     7
100
AcDbLine
 10
-107.8625429281412
 20
138.5124999315592
 30
0.0
 11
-107.8625429281412
 21
137.2124999315591
 31
0.0
  0
LINE
  5
2E1
330
6A
100
AcDbEntity
  8
0
  6
Continuous
 62
     7
100
AcDbLine
 10
-99.56254292815483
 20
139.4124999315591
 30
0.0
 11
-99.56254292815574
 21
138.4124999315586
 31
0.0
  0
LINE
  5
2E2
330
6A
100
AcDbEntity
  8
0
  6
Continuous
 62
     7
100
AcDbLine
 10
-99.06254292812935
 20
143.2518702440878
 30
0.0
 11
-99.06254292812935
 21
143.4124999315586
 31
0.0
  0
LINE
  5
2E3
330
6A
100
AcDbEntity
  8
0
  6
Continuous
 62
     7
100
AcDbLine
 10
-96.16254292812933
 20
141.4124999315586
 30
0.0
 11
-98.6668672741867
 21
142.6214840986208
 31
0.0
  0
LINE
  5
2E4
330
6A
100
AcDbEntity
  8
0
  6
Continuous
 62
     7
100
AcDbLine
 10
-106.5625429278464
 20
164.0874999317373
 30
0.0
 11
-106.5625429277754
 21
159.5874999348965
 31
0.0
  0
LINE
  5
2E5
330
6A
100
AcDbEntity
  8
0
  6
Continuous
 62
     7
100
AcDbLine
 10
-95.75141341718063
 20
156.3506750069026
 30
0.0
 11
-96.52223701394969
 21
162.6285294160752
 31
0.0
  0
LINE
  5
2E6
330
6A
100
AcDbEntity
  8
0
  6
Continuous
 62
     7
100
AcDbLine
 10
-99.71820535607152
 20
157.8374999305954
 30
0.0
 11
-98.56254292444362
 21
155.8358338826161
 31
0.0
  0
LINE
  5
2E7
330
6A
100
AcDbEntity
  8
0
  6
Continuous
 62
     7
100
AcDbLine
 10
-101.7429276829878
 20
157.8374999306029
 30
0.0
 11
-99.71820535607152
 21
157.8374999305954
 31
0.0
  0
LINE
  5
2E8
330
6A
100
AcDbEntity
  8
0
  6
Continuous
 62
     7
100
AcDbLine
 10
-108.3625429281411
 20
139.0124999315592
 30
0.0
 11
-108.3625429281411
 21
139.512499931556
 31
0.0
  0
LINE
  5
2E9
330
6A
100
AcDbEntity
  8
0
  6
Continuous
 62
     7
100
AcDbLine
 10
-104.91254292838
 20
154.5874999318182
 30
0.0
 11
-104.9125429283557
 21
157.5874999313469
 31
0.0
  0
LINE
  5
2EA
330
6A
100
AcDbEntity
  8
0
  6
Continuous
 62
     7
100
AcDbLine
 10
-104.9125429283557
 20
157.5874999313469
 30
0.0
 11
-102.1759403836143
 21
157.5874999313368
 31
0.0
  0
LINE
  5
2EB
330
6A
100
AcDbEntity
  8
0
  6
Continuous
 62
     7
100
AcDbLine
 10
-102.1759403836143
 20
157.5874999313368
 30
0.0
 11
-101.7429276829878
 21
157.8374999306029
 31
0.0
  0
LINE
  5
2EC
330
6A
100
AcDbEntity
  8
0
  6
Continuous
 62
     7
100
AcDbLine
 10
-96.52223701394969
 20
162.6285294160752
 30
0.0
 11
-95.46021263237427
 21
162.7589296134346
 31
0.0
  0
LINE
  5
2ED
330
6A
100
AcDbEntity
  8
0
  6
Continuous
 62
     7
100
AcDbLine
 10
-98.56254292812935
 20
143.9124999315586
 30
0.0
 11
-96.16254292812934
 21
143.9124999315586
 31
0.0
  0
LINE
  5
2EE
330
6A
100
AcDbEntity
  8
0
  6
Continuous
 62
     7
100
AcDbLine
 10
-96.16254292812934
 20
143.9124999315586
 30
0.0
 11
-96.16254292812934
 21
143.2124999315586
 31
0.0
  0
LINE
  5
2EF
330
6A
100
AcDbEntity
  8
0
  6
Continuous
 62
     7
100
AcDbLine
 10
-95.46021263237427
 20
162.7589296134346
 30
0.0
 11
-95.4270266813825
 21
162.4886517320144
 31
0.0
  0
LINE
  5
2F0
330
6A
100
AcDbEntity
  8
0
  6
Continuous
 62
     7
100
AcDbLine
 10
-95.4270266813825
 20
162.4886517320144
 30
0.0
 11
-94.93826869121014
 21
162.8569572950283
 31
0.0
  0
LINE
  5
2F1
330
6A
100
AcDbEntity
  8
0
  6
Continuous
 62
     7
100
AcDbLine
 10
-95.08936032851155
 20
164.0874999317335
 30
0.0
 11
-94.93826869121014
 21
162.8569572950283
 31
0.0
  0
LINE
  5
2F2
330
6A
100
AcDbEntity
  8
0
  6
Continuous
 62
     7
100
AcDbLine
 10
-106.5625429278464
 20
164.0874999317373
 30
0.0
 11
-95.08936032851155
 21
164.0874999317335
 31
0.0
  0
LINE
  5
2F3
330
6A
100
AcDbEntity
  8
0
  6
Continuous
 62
     7
100
AcDbLine
 10
-98.86254292813047
 20
138.4124999315586
 30
0.0
 11
-98.86254292812957
 21
139.4124999315591
 31
0.0
  0
LINE
  5
2F4
330
6A
100
AcDbEntity
  8
0
  6
Continuous
 62
     7
100
AcDbLine
 10
-99.56254292815574
 20
138.4124999315586
 30
0.0
 11
-98.86254292813047
 21
138.4124999315586
 31
0.0
  0
LINE
  5
2F5
330
6A
100
AcDbEntity
  8
0
  6
Continuous
 62
     7
100
AcDbLine
 10
-99.56254292815574
 20
138.4124999315586
 30
0.0
 11
-99.56254292815574
 21
127.1124999315587
 31
0.0
  0
LINE
  5
2F6
330
6A
100
AcDbEntity
  8
0
  6
Continuous
 62
     7
100
AcDbLine
 10
-106.862542928141
 20
136.1124999315591
 30
0.0
 11
-106.862542928144
 21
131.6124999315586
 31
0.0
  0
LINE
  5
2F7
330
6A
100
AcDbEntity
  8
0
  6
Continuous
 62
     7
100
AcDbLine
 10
-108.3625429281412
 20
136.1124999315591
 30
0.0
 11
-108.3625429281412
 21
136.7124999315591
 31
0.0
  0
LINE
  5
2F8
330
6A
100
AcDbEntity
  8
0
  6
Continuous
 62
     7
100
AcDbLine
 10
-106.862542928141
 20
136.1124999315591
 30
0.0
 11
-107.3625429281304
 21
136.1124999315591
 31
0.0
  0
LINE
  5
2F9
330
6A
100
AcDbEntity
  8
0
  6
Continuous
 62
     7
100
AcDbLine
 10
-107.8625429281412
 20
130.4124999315591
 30
0.0
 11
-106.862542928144
 21
130.4124999315592
 31
0.0
  0
LINE
  5
2FA
330
6A
100
AcDbEntity
  8
0
  6
Continuous
 62
     7
100
AcDbLine
 10
-106.862542928144
 20
131.6124999315586
 30
0.0
 11
-106.862542928144
 21
130.4124999315592
 31
0.0
  0
LINE
  5
2FB
330
6A
100
AcDbEntity
  8
0
  6
Continuous
 62
     7
100
AcDbLine
 10
-106.862542928144
 20
131.6124999315586
 30
0.0
 11
-107.8625429281412
 21
131.4124999315592
 31
0.0
  0
LINE
  5
2FC
330
6A
100
AcDbEntity
  8
0
  6
Continuous
 62
     7
100
AcDbLine
 10
-107.8625429281412
 20
134.2464745277748
 30
0.0
 11
-107.8625429281412
 21
131.4124999315592
 31
0.0
  0
LINE
  5
2FD
330
6A
100
AcDbEntity
  8
0
  6
Continuous
 62
     7
100
AcDbLine
 10
-93.86254292813145
 20
140.6624999315612
 30
0.0
 11
-94.61254292812934
 21
141.4124999315586
 31
0.0
  0
LINE
  5
2FE
330
6A
100
AcDbEntity
  8
0
  6
Continuous
 62
     7
100
AcDbLine
 10
-93.86254292810145
 20
139.750449996389
 30
0.0
 11
-93.86254292813145
 21
140.6624999315612
 31
0.0
  0
LINE
  5
2FF
330
6A
100
AcDbEntity
  8
0
  6
Continuous
 62
     7
100
AcDbLine
 10
-98.36254292813044
 20
138.5124999315593
 30
0.0
 11
-93.86254292810145
 21
139.750449996389
 31
0.0
  0
LINE
  5
300
330
6A
100
AcDbEntity
  8
0
  6
Continuous
 62
     7
100
AcDbLine
 10
-98.36254292813044
 20
136.1124999315591
 30
0.0
 11
-98.36254292813044
 21
138.5124999315593
 31
0.0
  0
LINE
  5
301
330
6A
100
AcDbEntity
  8
0
  6
Continuous
 62
     7
100
AcDbLine
 10
-98.86254292813047
 20
127.1124999315587
 30
0.0
 11
-98.8625429281332
 21
136.1124999315591
 31
0.0
  0
LINE
  5
302
330
6A
100
AcDbEntity
  8
0
  6
Continuous
 62
     7
100
AcDbLine
 10
-98.8625429281332
 20
136.1124999315591
 30
0.0
 11
-98.86254292813047
 21
138.4124999315586
 31
0.0
  0
LINE
  5
303
330
6A
100
AcDbEntity
  8
0
  6
Continuous
 62
     7
100
AcDbLine
 10
-106.862542928144
 20
130.4124999315592
 30
0.0
 11
-106.8625429281416
 21
128.4828292404076
 31
0.0
  0
LINE
  5
304
330
6A
100
AcDbEntity
  8
0
  6
Continuous
 62
     7
100
AcDbLine
 10
-107.8625429281412
 20
134.2464745277748
 30
0.0
 11
-108.3625429281412
 21
136.1124999315591
 31
0.0
  0
LINE
  5
305
330
6A
100
AcDbEntity
  8
0
  6
Continuous
 62
     7
100
AcDbLine
 10
-106.8625429281305
 20
138.4124999315586
 30
0.0
 11
-106.1625429281436
 21
138.4124999315586
 31
0.0
  0
LINE
  5
306
330
6A
100
AcDbEntity
  8
0
  6
Continuous
 62
     7
100
AcDbLine
 10
-98.8625429281332
 20
136.1124999315591
 30
0.0
 11
-98.36254292813044
 21
136.1124999315591
 31
0.0
  0
LINE
  5
307
330
6A
100
AcDbEntity
  8
0
  6
Continuous
 62
     7
100
AcDbLine
 10
-95.36254292812934
 20
143.2124999315586
 30
0.0
 11
-93.86254292813145
 21
143.7124999315579
 31
0.0
  0
LINE
  5
308
330
6A
100
AcDbEntity
  8
0
  6
Continuous
 62
     7
100
AcDbLine
 10
-95.26254292812936
 20
150.9616774669711
 30
0.0
 11
-95.26254292812942
 21
153.1374999320142
 31
0.0
  0
LINE
  5
309
330
6A
100
AcDbEntity
  8
0
  6
Continuous
 62
     7
100
AcDbLine
 10
-95.75213964684502
 20
154.9861123860868
 30
0.0
 11
-95.26254292812942
 21
153.5173222299405
 31
0.0
  0
LINE
  5
30A
330
6A
100
AcDbEntity
  8
0
  6
Continuous
 62
     7
100
AcDbLine
 10
-106.1625429281427
 20
140.3124999315592
 30
0.0
 11
-109.0625429281356
 21
140.3124999315592
 31
0.0
  0
LINE
  5
30B
330
6A
100
AcDbEntity
  8
0
  6
Continuous
 62
     7
100
AcDbLine
 10
-93.86254292813145
 20
140.6624999315612
 30
0.0
 11
-93.86254292813145
 21
143.7124999315579
 31
0.0
  0
LINE
  5
30C
330
6A
100
AcDbEntity
  8
0
  6
Continuous
 62
     2
100
AcDbLine
 10
-108.3625429281411
 20
139.0124999315592
 30
0.0
 11
-109.7625429281767
 21
139.0124999315592
 31
0.0
  0
LINE
  5
30D
330
6A
100
AcDbEntity
  8
0
  6
Continuous
 62
     7
100
AcDbLine
 10
-107.3625429281304
 20
139.512499931556
 30
0.0
 11
-106.8625429281296
 21
139.5124999315561
 31
0.0
  0
LINE
  5
30E
330
6A
100
AcDbEntity
  8
0
  6
Continuous
 62
     7
100
AcDbLine
 10
-108.3625429281411
 20
139.512499931556
 30
0.0
 11
-107.3625429281304
 21
139.512499931556
 31
0.0
  0
LINE
  5
30F
330
6A
100
AcDbEntity
  8
0
  6
Continuous
 62
     7
100
AcDbLine
 10
-109.0625429281356
 20
140.3124999315592
 30
0.0
 11
-109.0625429281356
 21
142.2124999316061
 31
0.0
  0
LINE
  5
310
330
6A
100
AcDbEntity
  8
0
  6
Continuous
 62
     7
100
AcDbLine
 10
-98.86254292812957
 20
139.4124999315591
 30
0.0
 11
-99.56254292815483
 21
139.4124999315591
 31
0.0
  0
LINE
  5
311
330
6A
100
AcDbEntity
  8
0
  6
Continuous
 62
     7
100
AcDbLine
 10
-96.16254292812934
 20
143.2124999315586
 30
0.0
 11
-95.36254292812934
 21
143.2124999315586
 31
0.0
  0
LINE
  5
312
330
6A
100
AcDbEntity
  8
0
  6
Continuous
 62
     7
100
AcDbLine
 10
-94.61254292812934
 20
141.4124999315586
 30
0.0
 11
-96.16254292812933
 21
141.4124999315586
 31
0.0
  0
LINE
  5
313
330
6A
100
AcDbEntity
  8
0
  6
Continuous
 62
     7
100
AcDbLine
 10
-93.86254292812902
 20
144.2374999315587
 30
0.0
 11
-93.86254292812902
 21
145.4617052068868
 31
0.0
  0
LINE
  5
314
330
6A
100
AcDbEntity
  8
0
  6
Continuous
 62
     7
100
AcDbLine
 10
-93.86254292813145
 20
143.7124999315579
 30
0.0
 11
-93.86254292812902
 21
144.2374999315587
 31
0.0
  0
LINE
  5
315
330
6A
100
AcDbEntity
  8
0
  6
Continuous
 62
     7
100
AcDbLine
 10
-93.8625429281606
 20
154.1132946561423
 30
0.0
 11
-93.8625429281606
 21
154.3374999315598
 31
0.0
  0
LINE
  5
316
330
6A
100
AcDbEntity
  8
0
  6
Continuous
 62
     7
100
AcDbLine
 10
-98.56254292444427
 20
153.137499932015
 30
0.0
 11
-95.26254292812942
 21
153.1374999320142
 31
0.0
  0
LINE
  5
317
330
6A
100
AcDbEntity
  8
0
  6
Continuous
 62
     7
100
AcDbLine
 10
-95.26254292812942
 20
153.5173222299405
 30
0.0
 11
-95.26254292812942
 21
153.1374999320142
 31
0.0
  0
LINE
  5
318
330
6A
100
AcDbEntity
  8
0
  6
Continuous
 62
     7
100
AcDbLine
 10
-93.8625429281606
 20
154.3374999315598
 30
0.0
 11
-94.1625429281294
 21
154.3374999315597
 31
0.0
  0
LINE
  5
319
330
6A
100
AcDbEntity
  8
0
  6
Continuous
 62
     7
100
AcDbLine
 10
-94.6625429281294
 20
154.8374999315597
 30
0.0
 11
-94.6625429281294
 21
155.1442262690952
 31
0.0
  0
LINE
  5
31A
330
6A
100
AcDbEntity
  8
0
  6
Continuous
 62
     7
100
AcDbLine
 10
-95.1625429281294
 20
155.6442262690952
 30
0.0
 11
-95.27779799781976
 21
155.6442262690952
 31
0.0
  0
LINE
  5
31B
330
6A
100
AcDbEntity
  8
0
  6
Continuous
 62
     7
100
AcDbLine
 10
-93.8625429281606
 20
154.3374999315598
 30
0.0
 11
-93.8625429281294
 21
156.3862911358847
 31
0.0
  0
LINE
  5
31C
330
6A
100
AcDbEntity
  8
0
  6
Continuous
 62
     7
100
AcDbLine
 10
-94.68938903533751
 20
156.4810752042945
 30
0.0
 11
-95.75141341718063
 21
156.3506750069026
 31
0.0
  0
LINE
  5
31D
330
6A
100
AcDbEntity
  8
0
  6
Continuous
 62
     7
100
AcDbLine
 10
-93.8625429281294
 20
156.3862911358847
 30
0.0
 11
-94.72257498633107
 21
156.751353085723
 31
0.0
  0
LINE
  5
31E
330
6A
100
AcDbEntity
  8
0
  6
Continuous
 62
     7
100
AcDbLine
 10
-94.72257498633107
 20
156.751353085723
 30
0.0
 11
-94.68938903533751
 21
156.4810752042945
 31
0.0
  0
LINE
  5
31F
330
6A
100
AcDbEntity
  8
0
  6
Continuous
 62
     7
100
AcDbLine
 10
-110.9625429278748
 20
142.2124999316061
 30
0.0
 11
-110.962542927727
 21
155.2374999318569
 31
0.0
  0
LINE
  5
320
330
6A
100
AcDbEntity
  8
0
  6
Continuous
 62
     7
100
AcDbLine
 10
-112.9736722204053
 20
156.3506750068453
 30
0.0
 11
-112.202848623632
 21
162.6285294160111
 31
0.0
  0
LINE
  5
321
330
6A
100
AcDbEntity
  8
0
  6
Continuous
 62
     7
100
AcDbLine
 10
-109.7625429281767
 20
139.512499931556
 30
0.0
 11
-108.3625429281411
 21
139.512499931556
 31
0.0
  0
LINE
  5
322
330
6A
100
AcDbEntity
  8
0
  6
Continuous
 62
     7
100
AcDbLine
 10
-109.7625429281767
 20
139.512499931556
 30
0.0
 11
-109.7625429281767
 21
139.0124999315592
 31
0.0
  0
LINE
  5
323
330
6A
100
AcDbEntity
  8
0
  6
Continuous
 62
     7
100
AcDbLine
 10
-113.2648730054268
 20
162.7589296133979
 30
0.0
 11
-113.2980589564211
 21
162.4886517319578
 31
0.0
  0
LINE
  5
324
330
6A
100
AcDbEntity
  8
0
  6
Continuous
 62
     7
100
AcDbLine
 10
-113.2648730054268
 20
162.7589296133979
 30
0.0
 11
-112.202848623632
 21
162.6285294160111
 31
0.0
  0
LINE
  5
325
330
6A
100
AcDbEntity
  8
0
  6
Continuous
 62
     7
100
AcDbLine
 10
-113.6357252897671
 20
164.0874999317398
 30
0.0
 11
-109.5625427002193
 21
164.0874999317384
 31
0.0
  0
LINE
  5
326
330
6A
100
AcDbEntity
  8
0
  6
Continuous
 62
     7
100
AcDbLine
 10
-113.1625429283093
 20
143.587499931513
 30
0.0
 11
-114.2325429283083
 21
143.587499931513
 31
0.0
  0
LINE
  5
327
330
6A
100
AcDbEntity
  8
0
  6
Continuous
 62
     7
100
AcDbLine
 10
-114.2325429283083
 20
143.587499931513
 30
0.0
 11
-114.2325429283075
 21
143.8598075526536
 31
0.0
  0
LINE
  5
328
330
6A
100
AcDbEntity
  8
0
  6
Continuous
 62
     7
100
AcDbLine
 10
-109.0625429281356
 20
142.2124999316061
 30
0.0
 11
-110.9625429278748
 21
142.2124999316061
 31
0.0
  0
LINE
  5
329
330
6A
100
AcDbEntity
  8
0
  6
Continuous
 62
     7
100
AcDbLine
 10
-113.1625429283093
 20
143.587499931513
 30
0.0
 11
-113.1625429283054
 21
149.9124999315181
 31
0.0
  0
LINE
  5
32A
330
6A
100
AcDbEntity
  8
0
  6
Continuous
 62
     7
100
AcDbLine
 10
-110.962542927727
 20
155.2374999318569
 30
0.0
 11
-109.4125429272487
 21
155.2374999318308
 31
0.0
  0
LINE
  5
32B
330
6A
100
AcDbEntity
  8
0
  6
Continuous
 62
     7
100
AcDbLine
 10
-113.78681692873
 20
162.856957281511
 30
0.0
 11
-113.6357252897671
 21
164.0874999317398
 31
0.0
  0
LINE
  5
32C
330
6A
100
AcDbEntity
  8
0
  6
Continuous
 62
     7
100
AcDbLine
 10
-113.78681692873
 20
162.856957281511
 30
0.0
 11
-113.2980589564211
 21
162.4886517319578
 31
0.0
  0
LINE
  5
32D
330
6A
100
AcDbEntity
  8
0
  6
Continuous
 62
     7
100
AcDbLine
 10
-109.4125429272488
 20
154.58749993189
 30
0.0
 11
-104.91254292838
 21
154.5874999318182
 31
0.0
  0
LINE
  5
32E
330
6A
100
AcDbEntity
  8
0
  6
Continuous
 62
     7
100
AcDbLine
 10
-107.3625429281304
 20
139.512499931556
 30
0.0
 11
-107.3625429281304
 21
136.1124999315591
 31
0.0
  0
LINE
  5
32F
330
6A
100
AcDbEntity
  8
0
  6
Continuous
 62
     7
100
AcDbLine
 10
-106.1625429281436
 20
125.5124999315586
 30
0.0
 11
-106.1625429281436
 21
138.4124999315586
 31
0.0
  0
LINE
  5
330
330
6A
100
AcDbEntity
  8
0
  6
Continuous
 62
     7
100
AcDbLine
 10
-106.8625429281416
 20
124.412499931559
 30
0.0
 11
-106.3625429281303
 21
122.9124999315584
 31
0.0
  0
LINE
  5
331
330
6A
100
AcDbEntity
  8
0
  6
Continuous
 62
     7
100
AcDbLine
 10
-107.8625429281412
 20
131.4124999315592
 30
0.0
 11
-107.8625429281412
 21
130.4124999315591
 31
0.0
  0
LINE
  5
332
330
6A
100
AcDbEntity
  8
0
  6
Continuous
 62
     7
100
AcDbLine
 10
-106.8625429281416
 20
124.412499931559
 30
0.0
 11
-106.950430168572
 21
124.6761616528504
 31
0.0
  0
LINE
  5
333
330
6A
100
AcDbEntity
  8
0
  6
Continuous
 62
     7
100
AcDbLine
 10
-114.8625429282687
 20
150.0039229799513
 30
0.0
 11
-114.8625429282661
 21
156.386291043004
 31
0.0
  0
LINE
  5
334
330
6A
100
AcDbEntity
  8
0
  6
Continuous
 62
     7
100
AcDbLine
 10
-106.1625429281436
 20
138.4124999315586
 30
0.0
 11
-106.1625429281427
 21
140.3124999315592
 31
0.0
  0
LINE
  5
335
330
6A
100
AcDbEntity
  8
0
  6
Continuous
 62
     7
100
AcDbLine
 10
-107.8625429281412
 20
138.5124999315592
 30
0.0
 11
-110.2625429281414
 21
138.5124999315592
 31
0.0
  0
LINE
  5
336
330
6A
100
AcDbEntity
  8
0
  6
Continuous
 62
     7
100
AcDbLine
 10
-106.8625429281296
 20
139.5124999315561
 30
0.0
 11
-106.8625429281305
 21
138.4124999315586
 31
0.0
  0
LINE
  5
337
330
6A
100
AcDbEntity
  8
0
  6
Continuous
 62
     7
100
AcDbLine
 10
-114.0025106514799
 20
156.7513530856253
 30
0.0
 11
-114.0356966024658
 21
156.4810752042648
 31
0.0
  0
LINE
  5
338
330
6A
100
AcDbEntity
  8
0
  6
Continuous
 62
     7
100
AcDbLine
 10
-114.2325429282697
 20
149.6401923103625
 30
0.0
 11
-114.2325429283073
 21
149.9124999315184
 31
0.0
  0
LINE
  5
339
330
6A
100
AcDbEntity
  8
0
  6
Continuous
 62
     7
100
AcDbLine
 10
-114.2325429283073
 20
149.9124999315184
 30
0.0
 11
-113.1625429283054
 21
149.9124999315181
 31
0.0
  0
LINE
  5
33A
330
6A
100
AcDbEntity
  8
0
  6
Continuous
 62
     7
100
AcDbLine
 10
-114.0356966024658
 20
156.4810752042648
 30
0.0
 11
-112.9736722204053
 21
156.3506750068453
 31
0.0
  0
LINE
  5
33B
330
6A
100
AcDbEntity
  8
0
  6
Continuous
 62
     7
100
AcDbLine
 10
-114.8625429282661
 20
156.386291043004
 30
0.0
 11
-114.0025106514799
 21
156.7513530856253
 31
0.0
  0
LINE
  5
33C
330
6A
100
AcDbEntity
  8
0
  6
Continuous
 62
     7
100
AcDbLine
 10
-114.8625429282687
 20
150.0039229799513
 30
0.0
 11
-114.2325429282697
 21
149.6401923103625
 31
0.0
  0
LINE
  5
33D
330
6A
100
AcDbEntity
  8
0
  6
Continuous
 62
     7
100
AcDbLine
 10
-114.2325429283075
 20
143.8598075526536
 30
0.0
 11
-114.8625429283082
 21
143.4960768830653
 31
0.0
  0
LINE
  5
33E
330
6A
100
AcDbEntity
  8
0
  6
Continuous
 62
     7
100
AcDbLine
 10
-114.8625429283098
 20
139.5124999315561
 30
0.0
 11
-114.8625429283082
 21
143.4960768830653
 31
0.0
  0
LINE
  5
33F
330
6A
100
AcDbEntity
  8
0
  6
Continuous
 62
     7
100
AcDbLine
 10
-114.8625429283098
 20
139.5124999315561
 30
0.0
 11
-109.7625429281767
 21
139.512499931556
 31
0.0
  0
LINE
  5
340
330
6A
100
AcDbEntity
  8
0
  6
Continuous
 62
     7
100
AcDbLine
 10
-106.5625429278464
 20
164.0874999317373
 30
0.0
 11
-107.7625429275495
 21
164.0874999317377
 31
0.0
  0
LINE
  5
341
330
6A
100
AcDbEntity
  8
0
  6
Continuous
 62
     7
100
AcDbLine
 10
-109.5625427002209
 20
159.5874999317919
 30
0.0
 11
-109.5625427002193
 21
164.0874999317384
 31
0.0
  0
LINE
  5
342
330
6A
100
AcDbEntity
  8
0
  6
Continuous
 62
     2
100
AcDbLine
 10
-108.3625435086078
 20
158.4874999317918
 30
0.0
 11
-108.3625429275486
 21
164.0874999317379
 31
0.0
  0
LINE
  5
343
330
6A
100
AcDbEntity
  8
0
  6
Continuous
 62
     2
100
AcDbLine
 10
-107.7625429275514
 20
158.4874999326727
 30
0.0
 11
-107.7625429275495
 21
164.0874999317377
 31
0.0
  0
LINE
  5
344
330
6A
100
AcDbEntity
  8
0
  6
Continuous
 62
     7
100
AcDbLine
 10
-110.2625429281414
 20
138.5124999315592
 30
0.0
 11
-110.2625429281413
 21
130.4124999315591
 31
0.0
  0
LINE
  5
345
330
6A
100
AcDbEntity
  8
0
  6
Continuous
 62
     7
100
AcDbLine
 10
-108.3625435086078
 20
158.4874999317918
 30
0.0
 11
-107.7625429275514
 21
158.4874999326727
 31
0.0
  0
LINE
  5
346
330
6A
100
AcDbEntity
  8
0
  6
Continuous
 62
     7
100
AcDbLine
 10
-109.4125429272487
 20
155.2374999318308
 30
0.0
 11
-109.4125429272488
 21
154.58749993189
 31
0.0
  0
LINE
  5
347
330
6A
100
AcDbEntity
  8
0
  6
Continuous
 62
     7
100
AcDbLine
 10
-107.7625429275495
 20
164.0874999317377
 30
0.0
 11
-108.3625429275486
 21
164.0874999317379
 31
0.0
  0
LINE
  5
348
330
6A
100
AcDbEntity
  8
0
  6
Continuous
 62
     7
100
AcDbLine
 10
-108.3625429275486
 20
164.0874999317379
 30
0.0
 11
-109.5625427002193
 21
164.0874999317384
 31
0.0
  0
ARC
  5
349
330
6A
100
AcDbEntity
  8
0
  6
Continuous
 62
     7
100
AcDbCircle
 10
-107.8625429281412
 20
139.0124999315592
 30
0.0
 40
0.4999999999999005
100
AcDbArc
 50
180.0
 51
270.0
  0
ARC
  5
34A
330
6A
100
AcDbEntity
  8
0
  6
Continuous
 62
     7
100
AcDbCircle
 10
-98.36254292812934
 20
143.2518702440878
 30
0.0
 40
0.7000000000000028
100
AcDbArc
 50
180.0
 51
244.2306723778839
  0
ARC
  5
34B
330
6A
100
AcDbEntity
  8
0
  6
Continuous
 62
     7
100
AcDbCircle
 10
-98.56254292812935
 20
143.4124999315586
 30
0.0
 40
0.5
100
AcDbArc
 50
90.0
 51
180.0
  0
ARC
  5
34C
330
6A
100
AcDbEntity
  8
0
  6
Continuous
 62
     7
100
AcDbCircle
 10
-107.8625429281412
 20
136.7124999315591
 30
0.0
 40
0.5
100
AcDbArc
 50
90.0
 51
180.0
  0
ARC
  5
34D
330
6A
100
AcDbEntity
  8
0
  6
Continuous
 62
     7
100
AcDbCircle
 10
-81.76254292812901
 20
149.7874999315587
 30
0.0
 40
12.84999999999999
100
AcDbArc
 50
160.3278422311809
 51
199.6721577692372
  0
ARC
  5
34E
330
6A
100
AcDbEntity
  8
0
  6
Continuous
 62
     7
100
AcDbCircle
 10
-94.1625429281294
 20
154.8374999315597
 30
0.0
 40
0.5
100
AcDbArc
 50
180.0
 51
270.0
  0
ARC
  5
34F
330
6A
100
AcDbEntity
  8
0
  6
Continuous
 62
     7
100
AcDbCircle
 10
-95.27779799781977
 20
155.1442262690952
 30
0.0
 40
0.5
100
AcDbArc
 50
89.99999999999837
 51
198.4349488229215
  0
ARC
  5
350
330
6A
100
AcDbEntity
  8
0
  6
Continuous
 62
     7
100
AcDbCircle
 10
-95.1625429281294
 20
155.1442262690952
 30
0.0
 40
0.5
100
AcDbArc
 50
0.0
 51
90.0
  0
ARC
  5
351
330
6A
100
AcDbEntity
  8
0
  6
Continuous
 62
     7
100
AcDbCircle
 10
-105.7625429281293
 20
126.812499931563
 30
0.0
 40
2.000000000003078
100
AcDbArc
 50
123.3670129695952
 51
212.07765443201
  0
ARC
  5
352
330
6A
100
AcDbEntity
  8
0
  6
Continuous
 62
     7
100
AcDbCircle
 10
-111.6938466588336
 20
123.0950228228101
 30
0.0
 40
4.999999999994698
100
AcDbArc
 50
18.43494882241215
 51
32.07765443141033
  0
ARC
  5
353
330
6A
100
AcDbEntity
  8
0
  6
Continuous
 62
     7
100
AcDbCircle
 10
-110.262542928159
 20
139.0124999315415
 30
0.0
 40
0.4999999999822933
100
AcDbArc
 50
270.000000002016
 51
0.00000000202904
  0
SPLINE
  5
354
330
6A
100
AcDbEntity
  8
0
  6
Continuous
 62
     7
100
AcDbSpline
210
0.0
220
0.0
230
1.0
 70
     8
 71
     3
 72
    23
 73
    19
 74
    17
 42
0.000000001
 43
0.0000000001
 44
0.00000001
 40
0.0
 40
0.0
 40
0.0
 40
0.0
 40
0.1006696874793306
 40
0.2197717471711973
 40
0.3386805055626313
 40
0.4401035306026213
 40
0.6585863883037036
 40
0.8791923194185198
 40
0.9989000462029518
 40
1.099115936641472
 40
1.208764095395395
 40
1.318721639775914
 40
1.438185273755867
 40
1.53884164791521
 40
1.648764535502339
 40
1.75850794136493
 40
1.78557893895543
 40
1.81264993608277
 40
1.81264993608277
 40
1.81264993608277
 40
1.81264993608277
 10
-106.5625429277754
 20
159.5874999348965
 30
0.0
 10
-106.5635212037027
 20
159.5539306821776
 30
0.0
 10
-106.5656568906883
 20
159.480645729891
 30
0.0
 10
-106.5841748562431
 20
159.3689046076928
 30
0.0
 10
-106.6146353451874
 20
159.2597228656829
 30
0.0
 10
-106.6687244237697
 20
159.1236070232402
 30
0.0
 10
-106.7597637241223
 20
158.9666698958802
 30
0.0
 10
-106.8834269417705
 20
158.8257700563897
 30
0.0
 10
-106.9955088821836
 20
158.7305490242912
 30
0.0
 10
-107.085642099731
 20
158.6675094766302
 30
0.0
 10
-107.1782508877793
 20
158.6143820032943
 30
0.0
 10
-107.2812657722152
 20
158.5674937060568
 30
0.0
 10
-107.3855813864149
 20
158.5318714789227
 30
0.0
 10
-107.4927166385186
 20
158.5063228848247
 30
0.0
 10
-107.5985519319343
 20
158.49092151002
 30
0.0
 10
-107.6808460639742
 20
158.4873055200151
 30
0.0
 10
-107.7354716441743
 20
158.4875213344725
 30
0.0
 10
-107.7535191664772
 20
158.487507061804
 30
0.0
 10
-107.7625429275514
 20
158.4874999326727
 30
0.0
 11
-106.5625429277754
 21
159.5874999348965
 31
0.0
 11
-106.567550966997
 21
159.4869548902282
 31
0.0
 11
-106.5862751089479
 21
159.3693338560314
 31
0.0
 11
-106.6183557340454
 21
159.2548343945277
 31
0.0
 11
-106.6557478571964
 21
159.1605557684769
 31
0.0
 11
-106.7651539152122
 21
158.9714392058274
 31
0.0
 11
-106.9104927429818
 21
158.8054765519581
 31
0.0
 11
-107.0017100472017
 21
158.7279565972509
 31
0.0
 11
-107.0838319328924
 21
158.6705177544354
 31
0.0
 11
-107.1789415863456
 21
158.6159570301767
 31
0.0
 11
-107.2790215104377
 21
158.5704084796105
 31
0.0
 11
-107.392081167031
 21
158.5318199576955
 31
0.0
 11
-107.4899873087238
 21
158.5084513210336
 31
0.0
 11
-107.5987832492362
 21
158.4927514903083
 31
0.0
 11
-107.7084009322196
 21
158.4874999317916
 31
0.0
 11
-107.7354719298855
 21
158.4874999319362
 31
0.0
 11
-107.7625429275514
 21
158.4874999326727
 31
0.0
  0
SPLINE
  5
355
330
6A
100
AcDbEntity
  8
0
  6
Continuous
 62
     7
100
AcDbSpline
210
0.0
220
0.0
230
1.0
 70
     8
 71
     3
 72
    25
 73
    21
 74
    19
 42
0.000000001
 43
0.0000000001
 44
0.00000001
 40
0.0
 40
0.0
 40
0.0
 40
0.0
 40
0.0270708381261234
 40
0.0541416772611019
 40
0.164441116419167
 40
0.2812800479699396
 40
0.389315750475782
 40
0.5077232133438406
 40
0.6107575395788477
 40
0.7343510526813307
 40
0.8348427256098913
 40
0.9623346945691241
 40
1.06394794459251
 40
1.189575500753101
 40
1.314746375069635
 40
1.416800247858301
 40
1.536002776874225
 40
1.643961133824288
 40
1.761364641964476
 40
1.87222059136073
 40
1.87222059136073
 40
1.87222059136073
 40
1.87222059136073
 10
-108.3625435086078
 20
158.4874999317918
 30
0.0
 10
-108.371567130977
 20
158.4875000267373
 30
0.0
 10
-108.3896143760515
 20
158.4875002309727
 30
0.0
 10
-108.4444277881141
 20
158.4874973373467
 30
0.0
 10
-108.5291692618776
 20
158.4875471792325
 30
0.0
 10
-108.640846409958
 20
158.4931963297756
 30
0.0
 10
-108.7544026029789
 20
158.5084465324845
 30
0.0
 10
-108.8614383484818
 20
158.5341156036855
 30
0.0
 10
-108.9698773980383
 20
158.5730020187756
 30
0.0
 10
-109.0679324078751
 20
158.6213947141864
 30
0.0
 10
-109.1666546912343
 20
158.6848714387587
 30
0.0
 10
-109.2519302326897
 20
158.7546657839502
 30
0.0
 10
-109.3342997868958
 20
158.8397641056291
 30
0.0
 10
-109.4058120729713
 20
158.9333995335485
 30
0.0
 10
-109.4642811700688
 20
159.0358842956547
 30
0.0
 10
-109.5086480944418
 20
159.1427471890388
 30
0.0
 10
-109.5381739223818
 20
159.2487689457776
 30
0.0
 10
-109.5559036834871
 20
159.3624463029406
 30
0.0
 10
-109.5624955827911
 20
159.4744557246495
 30
0.0
 10
-109.5625273023362
 20
159.5505460728215
 30
0.0
 10
-109.5625427002209
 20
159.5874999317919
 30
0.0
 11
-108.3625435086078
 21
158.4874999317918
 31
0.0
 11
-108.3896143478
 21
158.4874999317917
 31
0.0
 11
-108.4166851869922
 21
158.4874999317917
 31
0.0
 11
-108.526980636244
 21
158.4884381382529
 31
0.0
 11
-108.6436341246684
 21
158.4950183884562
 31
0.0
 11
-108.7506659968082
 21
158.5097116348065
 31
0.0
 11
-108.8657626116586
 21
158.5375162509091
 31
0.0
 11
-108.9627352919598
 21
158.5723353805189
 31
0.0
 11
-109.0735651706385
 21
158.6270354231652
 31
0.0
 11
-109.1580953938143
 21
158.6813789400597
 31
0.0
 11
-109.256743896173
 21
158.7621420216706
 31
0.0
 11
-109.3273932604594
 21
158.8351757128799
 31
0.0
 11
-109.4035626652847
 21
158.9350781896752
 31
0.0
 11
-109.4655167825207
 21
159.0438413975121
 31
0.0
 11
-109.5046450456367
 21
159.1380962230806
 31
0.0
 11
-109.5367910276102
 21
159.2528824548138
 31
0.0
 11
-109.5537705287407
 21
159.3594971984382
 31
0.0
 11
-109.5614484329888
 21
159.4766493802821
 31
0.0
 11
-109.5625427002209
 21
159.5874999317919
 31
0.0
  0
ENDBLK
  5
6C
330
6A
100
AcDbEntity
  8
0
100
AcDbBlockEnd
  0
BLOCK
  5
6F
330
6D
100
AcDbEntity
  8
0
100
AcDbBlockBegin
  2
Vordans1
 70
     0
 10
-104.362543
 20
143.0
 30
0.0
  3
Vordans1
  1

  0
INSERT
  5
6E
330
6D
100
AcDbEntity
  8
0
100
AcDbBlockReference
  2
PP_H_4_1_L_GNYE-select__6
 10
-114.8625429283098
 20
121.9124999315588
 30
0.0
  0
MTEXT
  5
356
330
6D
100
AcDbEntity
  8
1
 62
     6
100
AcDbMText
 10
-104.5365625601556
 20
116.5259742962603
 30
0.0
 40
5.0
 41
0.0
 71
     2
 72
     1
  1
 
  7
CONVERTER_11
 73
     1
 44
1.32052821128451
  0
DIMENSION
  5
361
330
6D
100
AcDbEntity
  8
1
100
AcDbDimension
  2
*D18
 10
-114.8625429283098
 20
113.2759742962603
 30
0.0
 11
-104.536562560171
 21
116.5259742962603
 31
0.0
 70
    32
  1
<>
 71
     5
 42
-1.0
 53
0.00013888888889
  3
ME10_DIM_11
100
AcDbAlignedDimension
 13
-93.86254292812902
 23
144.2374999315587
 33
0.0
 14
-114.8625429283098
 24
139.5124999315561
 34
0.0
100
AcDbRotatedDimension
  0
DIMENSION
  5
36C
330
6D
100
AcDbEntity
  8
1
100
AcDbDimension
  2
*D19
 10
-124.8625429283098
 20
164.0874999317397
 30
0.0
 11
-128.2875429283098
 21
152.013029948988
 31
0.0
 70
    32
  1
<>
 71
     5
 42
-1.0
 53
90.0
  3
ME10_DIM_12
100
AcDbAlignedDimension
 13
-114.8625429283098
 23
139.5124999315561
 33
0.0
 14
-113.6357252897671
 24
164.0874999317398
 34
0.0
 50
90.0
100
AcDbRotatedDimension
  0
DIMENSION
  5
377
330
6D
100
AcDbEntity
  8
1
100
AcDbDimension
  2
*D20
 10
-132.8625429283098
 20
164.0874999317397
 30
0.0
 11
-136.2875429283098
 21
144.3915889837928
 31
0.0
 70
    32
  1
<>
 71
     5
 42
-1.0
 53
90.0
  3
ME10_DIM_13
100
AcDbAlignedDimension
 13
-106.0292095948238
 23
121.9124999315588
 33
0.0
 14
-113.6357252897671
 24
164.0874999317398
 34
0.0
 50
90.0
100
AcDbRotatedDimension
  0
ENDBLK
  5
70
330
6D
100
AcDbEntity
  8
0
100
AcDbBlockEnd
  0
BLOCK
  5
72
330
71
100
AcDbEntity
  8
0
100
AcDbBlockBegin
  2
_rahmen
 70
     0
 10
61.76012341105592
 20
-1.10347261104408
 30
0.0
  3
_rahmen
  1

  0
LINE
  5
378
330
71
100
AcDbEntity
  8
1
  6
Continuous
 62
     6
100
AcDbLine
 10
-67.7846811156941
 20
29.39652738895603
 30
0.0
 11
61.76012341105761
 21
29.39652738895603
 31
0.0
  0
LINE
  5
379
330
71
100
AcDbEntity
  8
1
  6
Continuous
 62
     7
100
AcDbLine
 10
-49.58468111569408
 20
8.14652738895603
 30
0.0
 11
-31.38468111569418
 21
8.14652738895603
 31
0.0
  0
LINE
  5
37A
330
71
100
AcDbEntity
  8
1
  6
Continuous
 62
     6
100
AcDbLine
 10
-49.58468111569408
 20
3.89652738895603
 30
0.0
 11
-67.7846811156941
 21
3.89652738895592
 31
0.0
  0
LINE
  5
37B
330
71
100
AcDbEntity
  8
1
  6
Continuous
 62
     7
100
AcDbLine
 10
-49.58468111569408
 20
8.14652738895603
 30
0.0
 11
-49.58468111569408
 21
3.89652738895603
 31
0.0
  0
LINE
  5
37C
330
71
100
AcDbEntity
  8
1
  6
Continuous
 62
     7
100
AcDbLine
 10
-31.38468111569418
 20
8.14652738895603
 30
0.0
 11
-31.38468111569418
 21
3.89652738895592
 31
0.0
  0
LINE
  5
37D
330
71
100
AcDbEntity
  8
1
  6
Continuous
 62
     7
100
AcDbLine
 10
-67.7846811156941
 20
8.14652738895592
 30
0.0
 11
-67.7846811156941
 21
3.89652738895592
 31
0.0
  0
LINE
  5
37E
330
71
100
AcDbEntity
  8
1
  6
Continuous
 62
     7
100
AcDbLine
 10
-67.7846811156941
 20
8.14652738895592
 30
0.0
 11
-49.58468111569408
 21
8.14652738895603
 31
0.0
  0
LINE
  5
37F
330
71
100
AcDbEntity
  8
1
  6
Continuous
 62
     2
100
AcDbLine
 10
-58.54802622913149
 20
27.52152738895595
 30
0.0
 11
-58.54802622913149
 21
22.52152738895595
 31
0.0
  0
LINE
  5
380
330
71
100
AcDbEntity
  8
1
  6
Continuous
 62
     2
100
AcDbLine
 10
-58.54802622913149
 20
22.52152738895595
 30
0.0
 11
-63.54802622913149
 21
23.77152738895595
 31
0.0
  0
LINE
  5
381
330
71
100
AcDbEntity
  8
1
  6
Continuous
 62
     2
100
AcDbLine
 10
-63.54802622913149
 20
23.77152738895595
 30
0.0
 11
-63.54802622913149
 21
26.27152738895595
 31
0.0
  0
LINE
  5
382
330
71
100
AcDbEntity
  8
1
  6
Continuous
 62
     2
100
AcDbLine
 10
-63.54802622913149
 20
26.27152738895595
 30
0.0
 11
-58.54802622913149
 21
27.52152738895595
 31
0.0
  0
LINE
  5
383
330
71
100
AcDbEntity
  8
1
  6
Continuous
 62
     6
100
AcDbLine
 10
-190.2398765889423
 20
3.89652738895603
 30
0.0
 11
-225.2398765889422
 21
3.89652738895603
 31
0.0
  0
LINE
  5
384
330
71
100
AcDbEntity
  8
1
  6
Continuous
 62
     6
100
AcDbLine
 10
61.76012341105761
 20
20.89652738895603
 30
0.0
 11
61.76012341105721
 21
12.39652738895603
 31
0.0
  0
LINE
  5
385
330
71
100
AcDbEntity
  8
1
  6
Continuous
 62
     6
100
AcDbLine
 10
-31.38468111569418
 20
3.89652738895592
 30
0.0
 11
-31.7398765889441
 21
3.89652738895603
 31
0.0
  0
LINE
  5
386
330
71
100
AcDbEntity
  8
1
  6
Continuous
 62
     6
100
AcDbLine
 10
-184.0398765889443
 20
3.89652738895592
 30
0.0
 11
-190.2398765889423
 21
3.89652738895603
 31
0.0
  0
LINE
  5
387
330
71
100
AcDbEntity
  8
1
  6
Continuous
 62
     7
100
AcDbLine
 10
-31.38468111569418
 20
20.89652738895603
 30
0.0
 11
-31.38468111569418
 21
8.14652738895603
 31
0.0
  0
LINE
  5
388
330
71
100
AcDbEntity
  8
1
  6
Continuous
 62
     7
100
AcDbLine
 10
-67.7846811156941
 20
20.89652738895603
 30
0.0
 11
-67.7846811156941
 21
8.14652738895592
 31
0.0
  0
LINE
  5
389
330
71
100
AcDbEntity
  8
1
  6
Continuous
 62
     6
100
AcDbLine
 10
-81.73987658894407
 20
3.89652738895603
 30
0.0
 11
-131.7398765889443
 21
3.89652738895603
 31
0.0
  0
LINE
  5
38A
330
71
100
AcDbEntity
  8
1
  6
Continuous
 62
     6
100
AcDbLine
 10
-184.0398765889443
 20
3.89652738895592
 30
0.0
 11
-181.7398765889441
 21
3.89652738895603
 31
0.0
  0
LINE
  5
38B
330
71
100
AcDbEntity
  8
1
  6
Continuous
 62
     6
100
AcDbLine
 10
-31.38468111569418
 20
3.89652738895592
 30
0.0
 11
18.2601234110559
 21
3.89652738895603
 31
0.0
  0
LINE
  5
38C
330
71
100
AcDbEntity
  8
1
  6
Continuous
 62
     6
100
AcDbLine
 10
61.76012341105592
 20
3.89652738895603
 30
0.0
 11
61.76012341105721
 21
12.39652738895603
 31
0.0
  0
LINE
  5
38D
330
71
100
AcDbEntity
  8
1
  6
Continuous
 62
     2
100
AcDbLine
 10
-230.2398765889432
 20
3.89652738895603
 30
0.0
 11
-230.2398765889432
 21
-1.10347261104408
 31
0.0
  0
LINE
  5
38E
330
71
100
AcDbEntity
  8
1
  6
Continuous
 62
     2
100
AcDbLine
 10
-225.2398765889422
 20
3.89652738895603
 30
0.0
 11
-230.2398765889432
 21
3.89652738895603
 31
0.0
  0
LINE
  5
38F
330
71
100
AcDbEntity
  8
1
  6
Continuous
 62
     2
100
AcDbLine
 10
-225.2398765889422
 20
-1.10347261104408
 30
0.0
 11
-181.7398765889441
 21
-1.10347261104408
 31
0.0
  0
LINE
  5
390
330
71
100
AcDbEntity
  8
1
  6
Continuous
 62
     2
100
AcDbLine
 10
-225.2398765889422
 20
3.89652738895603
 30
0.0
 11
-225.2398765889422
 21
-1.10347261104408
 31
0.0
  0
LINE
  5
391
330
71
100
AcDbEntity
  8
1
  6
Continuous
 62
     2
100
AcDbLine
 10
18.2601234110559
 20
-1.10347261104408
 30
0.0
 11
-31.7398765889441
 21
-1.10347261104408
 31
0.0
  0
LINE
  5
392
330
71
100
AcDbEntity
  8
1
  6
Continuous
 62
     2
100
AcDbLine
 10
18.2601234110559
 20
-1.10347261104408
 30
0.0
 11
18.2601234110559
 21
3.89652738895603
 31
0.0
  0
LINE
  5
393
330
71
100
AcDbEntity
  8
1
  6
Continuous
 62
     2
100
AcDbLine
 10
-31.7398765889441
 20
-1.10347261104408
 30
0.0
 11
-31.7398765889441
 21
3.89652738895603
 31
0.0
  0
LINE
  5
394
330
71
100
AcDbEntity
  8
1
  6
Continuous
 62
     2
100
AcDbLine
 10
-81.73987658894407
 20
-1.10347261104408
 30
0.0
 11
-31.7398765889441
 21
-1.10347261104408
 31
0.0
  0
LINE
  5
395
330
71
100
AcDbEntity
  8
1
  6
Continuous
 62
     2
100
AcDbLine
 10
-81.73987658894407
 20
-1.10347261104408
 30
0.0
 11
-81.73987658894407
 21
3.89652738895603
 31
0.0
  0
LINE
  5
396
330
71
100
AcDbEntity
  8
1
  6
Continuous
 62
     2
100
AcDbLine
 10
-131.7398765889443
 20
-1.10347261104408
 30
0.0
 11
-81.73987658894407
 21
-1.10347261104408
 31
0.0
  0
LINE
  5
397
330
71
100
AcDbEntity
  8
1
  6
Continuous
 62
     2
100
AcDbLine
 10
-131.7398765889443
 20
-1.10347261104408
 30
0.0
 11
-131.7398765889443
 21
3.89652738895603
 31
0.0
  0
LINE
  5
398
330
71
100
AcDbEntity
  8
1
  6
Continuous
 62
     2
100
AcDbLine
 10
-181.7398765889441
 20
-1.10347261104408
 30
0.0
 11
-131.7398765889443
 21
-1.10347261104408
 31
0.0
  0
LINE
  5
399
330
71
100
AcDbEntity
  8
1
  6
Continuous
 62
     2
100
AcDbLine
 10
-181.7398765889441
 20
-1.10347261104408
 30
0.0
 11
-181.7398765889441
 21
3.89652738895603
 31
0.0
  0
LINE
  5
39A
330
71
100
AcDbEntity
  8
1
  6
Continuous
 62
     6
100
AcDbLine
 10
-225.2398765889424
 20
53.89652738895614
 30
0.0
 11
-225.2398765889422
 21
3.89652738895603
 31
0.0
  0
LINE
  5
39B
330
71
100
AcDbEntity
  8
1
  6
Continuous
 62
     2
100
AcDbLine
 10
-230.2398765889432
 20
53.89652738895614
 30
0.0
 11
-230.2398765889432
 21
3.89652738895603
 31
0.0
  0
LINE
  5
39C
330
71
100
AcDbEntity
  8
1
  6
Continuous
 62
     2
100
AcDbLine
 10
-230.2398765889432
 20
53.89652738895614
 30
0.0
 11
-225.2398765889424
 21
53.89652738895614
 31
0.0
  0
LINE
  5
39D
330
71
100
AcDbEntity
  8
1
  6
Continuous
 62
     6
100
AcDbLine
 10
-225.2398765889426
 20
103.896527388956
 30
0.0
 11
-225.2398765889424
 21
53.89652738895614
 31
0.0
  0
LINE
  5
39E
330
71
100
AcDbEntity
  8
1
  6
Continuous
 62
     2
100
AcDbLine
 10
-230.2398765889432
 20
103.896527388956
 30
0.0
 11
-230.2398765889432
 21
53.89652738895614
 31
0.0
  0
LINE
  5
39F
330
71
100
AcDbEntity
  8
1
  6
Continuous
 62
     2
100
AcDbLine
 10
-230.2398765889432
 20
103.896527388956
 30
0.0
 11
-225.2398765889426
 21
103.896527388956
 31
0.0
  0
LINE
  5
3A0
330
71
100
AcDbEntity
  8
1
  6
Continuous
 62
     6
100
AcDbLine
 10
-225.2398765889431
 20
153.896527388956
 30
0.0
 11
-225.2398765889426
 21
103.896527388956
 31
0.0
  0
LINE
  5
3A1
330
71
100
AcDbEntity
  8
1
  6
Continuous
 62
     2
100
AcDbLine
 10
-230.2398765889432
 20
153.896527388956
 30
0.0
 11
-230.2398765889432
 21
103.896527388956
 31
0.0
  0
LINE
  5
3A2
330
71
100
AcDbEntity
  8
1
  6
Continuous
 62
     2
100
AcDbLine
 10
-230.2398765889432
 20
153.896527388956
 30
0.0
 11
-225.2398765889431
 21
153.896527388956
 31
0.0
  0
LINE
  5
3A3
330
71
100
AcDbEntity
  8
1
  6
Continuous
 62
     6
100
AcDbLine
 10
-225.2398765889432
 20
188.896527388956
 30
0.0
 11
-225.2398765889431
 21
153.896527388956
 31
0.0
  0
LINE
  5
3A4
330
71
100
AcDbEntity
  8
1
  6
Continuous
 62
     2
100
AcDbLine
 10
-230.2398765889432
 20
208.896527388956
 30
0.0
 11
-230.2398765889432
 21
153.896527388956
 31
0.0
  0
LINE
  5
3A5
330
71
100
AcDbEntity
  8
1
  6
Continuous
 62
     2
100
AcDbLine
 10
-230.2398765889432
 20
-1.10347261104408
 30
0.0
 11
-225.2398765889422
 21
-1.10347261104408
 31
0.0
  0
LINE
  5
3A6
330
71
100
AcDbEntity
  8
1
  6
Continuous
 62
     2
100
AcDbLine
 10
-81.73987658894407
 20
208.896527388956
 30
0.0
 11
-81.73987658894407
 21
199.6878355442547
 31
0.0
  0
LINE
  5
3A7
330
71
100
AcDbEntity
  8
1
  6
Continuous
 62
     2
100
AcDbLine
 10
-81.73987658894407
 20
208.896527388956
 30
0.0
 11
-230.2398765889432
 21
208.896527388956
 31
0.0
  0
LINE
  5
3A8
330
71
100
AcDbEntity
  8
1
  6
Continuous
 62
     2
100
AcDbLine
 10
66.7601234110549
 20
3.89652738895603
 30
0.0
 11
66.7601234110549
 21
53.89652738895614
 31
0.0
  0
LINE
  5
3A9
330
71
100
AcDbEntity
  8
1
  6
Continuous
 62
     2
100
AcDbLine
 10
66.7601234110549
 20
153.896527388956
 30
0.0
 11
66.7601234110549
 21
208.896527388956
 31
0.0
  0
LINE
  5
3AA
330
71
100
AcDbEntity
  8
1
  6
Continuous
 62
     6
100
AcDbLine
 10
61.76012341105511
 20
153.896527388956
 30
0.0
 11
61.76012341105491
 21
188.896527388956
 31
0.0
  0
LINE
  5
3AB
330
71
100
AcDbEntity
  8
1
  6
Continuous
 62
     2
100
AcDbLine
 10
61.76012341105511
 20
153.896527388956
 30
0.0
 11
66.7601234110549
 21
153.896527388956
 31
0.0
  0
LINE
  5
3AC
330
71
100
AcDbEntity
  8
1
  6
Continuous
 62
     2
100
AcDbLine
 10
66.7601234110549
 20
103.896527388956
 30
0.0
 11
66.7601234110549
 21
153.896527388956
 31
0.0
  0
LINE
  5
3AD
330
71
100
AcDbEntity
  8
1
  6
Continuous
 62
     6
100
AcDbLine
 10
61.76012341105631
 20
103.896527388956
 30
0.0
 11
61.76012341105511
 21
153.896527388956
 31
0.0
  0
LINE
  5
3AE
330
71
100
AcDbEntity
  8
1
  6
Continuous
 62
     2
100
AcDbLine
 10
61.76012341105631
 20
103.896527388956
 30
0.0
 11
66.7601234110549
 21
103.896527388956
 31
0.0
  0
LINE
  5
3AF
330
71
100
AcDbEntity
  8
1
  6
Continuous
 62
     2
100
AcDbLine
 10
66.7601234110549
 20
53.89652738895614
 30
0.0
 11
66.7601234110549
 21
103.896527388956
 31
0.0
  0
LINE
  5
3B0
330
71
100
AcDbEntity
  8
1
  6
Continuous
 62
     6
100
AcDbLine
 10
61.76012341105681
 20
53.89652738895614
 30
0.0
 11
61.76012341105631
 21
103.896527388956
 31
0.0
  0
LINE
  5
3B1
330
71
100
AcDbEntity
  8
1
  6
Continuous
 62
     2
100
AcDbLine
 10
61.76012341105681
 20
53.89652738895614
 30
0.0
 11
66.7601234110549
 21
53.89652738895614
 31
0.0
  0
LINE
  5
3B2
330
71
100
AcDbEntity
  8
1
  6
Continuous
 62
     6
100
AcDbLine
 10
61.76012341105491
 20
188.896527388956
 30
0.0
 11
-225.2398765889432
 21
188.896527388956
 31
0.0
  0
LINE
  5
3B3
330
71
100
AcDbEntity
  8
1
  6
Continuous
 62
     2
100
AcDbLine
 10
66.7601234110549
 20
208.896527388956
 30
0.0
 11
-81.73987658894407
 21
208.896527388956
 31
0.0
  0
LINE
  5
3B4
330
71
100
AcDbEntity
  8
1
  6
Continuous
 62
     6
100
AcDbLine
 10
61.76012341105761
 20
20.89652738895603
 30
0.0
 11
61.76012341105681
 21
53.89652738895614
 31
0.0
  0
LINE
  5
3B5
330
71
100
AcDbEntity
  8
1
  6
Continuous
 62
     2
100
AcDbLine
 10
61.76012341105592
 20
-1.10347261104408
 30
0.0
 11
18.2601234110559
 21
-1.10347261104408
 31
0.0
  0
LINE
  5
3B6
330
71
100
AcDbEntity
  8
1
  6
Continuous
 62
     2
100
AcDbLine
 10
66.7601234110549
 20
-1.10347261104408
 30
0.0
 11
61.76012341105592
 21
-1.10347261104408
 31
0.0
  0
LINE
  5
3B7
330
71
100
AcDbEntity
  8
1
  6
Continuous
 62
     2
100
AcDbLine
 10
66.7601234110549
 20
-1.10347261104408
 30
0.0
 11
66.7601234110549
 21
3.89652738895603
 31
0.0
  0
LINE
  5
3B8
330
71
100
AcDbEntity
  8
1
  6
Continuous
 62
     6
100
AcDbLine
 10
-67.7846811156941
 20
20.89652738895603
 30
0.0
 11
-31.38468111569418
 21
20.89652738895603
 31
0.0
  0
LINE
  5
3B9
330
71
100
AcDbEntity
  8
1
  6
Continuous
 62
     2
100
AcDbLine
 10
61.76012341105592
 20
3.89652738895603
 30
0.0
 11
61.76012341105592
 21
-1.10347261104408
 31
0.0
  0
LINE
  5
3BA
330
71
100
AcDbEntity
  8
1
  6
Continuous
 62
     2
100
AcDbLine
 10
61.76012341105592
 20
3.89652738895603
 30
0.0
 11
66.7601234110549
 21
3.89652738895603
 31
0.0
  0
LINE
  5
3BB
330
71
100
AcDbEntity
  8
1
  6
Continuous
 62
     6
100
AcDbLine
 10
-31.7398765889441
 20
3.89652738895603
 30
0.0
 11
-49.58468111569408
 21
3.89652738895603
 31
0.0
  0
LINE
  5
3BC
330
71
100
AcDbEntity
  8
1
  6
Continuous
 62
     6
100
AcDbLine
 10
18.2601234110559
 20
3.89652738895603
 30
0.0
 11
61.76012341105592
 21
3.89652738895603
 31
0.0
  0
LINE
  5
3BD
330
71
100
AcDbEntity
  8
1
  6
Continuous
 62
     6
100
AcDbLine
 10
-131.7398765889443
 20
3.89652738895603
 30
0.0
 11
-136.7846811156941
 21
3.89652738895603
 31
0.0
  0
LINE
  5
3BE
330
71
100
AcDbEntity
  8
1
  6
Continuous
 62
     6
100
AcDbLine
 10
-81.73987658894407
 20
3.89652738895603
 30
0.0
 11
-67.7846811156941
 21
3.89652738895592
 31
0.0
  0
LINE
  5
3BF
102
{ACAD_REACTORS
330
4A9
330
4AA
102
}
330
71
100
AcDbEntity
  8
0
  6
Continuous
 62
     2
100
AcDbLine
 10
-60.27005517354729
 20
15.96904214516815
 30
0.0
 11
-60.27005517354729
 21
16.57457743367493
 31
0.0
  0
LINE
  5
3C0
102
{ACAD_REACTORS
330
4A9
330
4AA
102
}
330
71
100
AcDbEntity
  8
0
  6
Continuous
 62
     2
100
AcDbLine
 10
-60.27005517354729
 20
13.16890753853684
 30
0.0
 11
-60.27005517354729
 21
13.75075894523192
 31
0.0
  0
LINE
  5
3C1
102
{ACAD_REACTORS
330
4AB
330
4AC
102
}
330
71
100
AcDbEntity
  8
0
  6
Continuous
 62
     2
100
AcDbLine
 10
-37.64056873806808
 20
13.45857160665983
 30
0.0
 11
-37.64056873806808
 21
11.19002738897234
 31
0.0
  0
LINE
  5
3C2
102
{ACAD_REACTORS
330
4AB
330
4AC
102
}
330
71
100
AcDbEntity
  8
0
  6
Continuous
 62
     2
100
AcDbLine
 10
-39.02162251705568
 20
14.24383691278294
 30
0.0
 11
-35.63667699842699
 21
14.24383691278342
 31
0.0
  0
LINE
  5
3C3
102
{ACAD_REACTORS
330
4AB
330
4AC
102
}
330
71
100
AcDbEntity
  8
0
  6
Continuous
 62
     2
100
AcDbLine
 10
-35.63667699842699
 20
13.45857160665983
 30
0.0
 11
-35.63667699842699
 21
14.24383691278342
 31
0.0
  0
LINE
  5
3C4
102
{ACAD_REACTORS
330
4AB
330
4AC
102
}
330
71
100
AcDbEntity
  8
0
  6
Continuous
 62
     2
100
AcDbLine
 10
-36.44777603590038
 20
13.45857160665983
 30
0.0
 11
-35.63667699842699
 21
13.45857160665983
 31
0.0
  0
LINE
  5
3C5
102
{ACAD_REACTORS
330
4AB
330
4AC
102
}
330
71
100
AcDbEntity
  8
0
  6
Continuous
 62
     2
100
AcDbLine
 10
-36.44777603590038
 20
11.19002738897234
 30
0.0
 11
-36.44777603590038
 21
13.45857160665983
 31
0.0
  0
LINE
  5
3C6
102
{ACAD_REACTORS
330
4AB
330
4AC
102
}
330
71
100
AcDbEntity
  8
0
  6
Continuous
 62
     2
100
AcDbLine
 10
-37.64056873806808
 20
11.19002738897234
 30
0.0
 11
-36.44777603590038
 21
11.19002738897234
 31
0.0
  0
LINE
  5
3C7
102
{ACAD_REACTORS
330
4A1
330
4A2
102
}
330
71
100
AcDbEntity
  8
0
  6
Continuous
 62
     2
100
AcDbLine
 10
-38.33715967613259
 20
17.60302738895783
 30
0.0
 11
-39.73988389388188
 21
17.60302738895783
 31
0.0
  0
LINE
  5
3C8
102
{ACAD_REACTORS
330
4A1
330
4A2
102
}
330
71
100
AcDbEntity
  8
0
  6
Continuous
 62
     2
100
AcDbLine
 10
-38.33715967613259
 20
17.60302738895783
 30
0.0
 11
-37.73599215424079
 21
16.92320406740234
 31
0.0
  0
LINE
  5
3C9
102
{ACAD_REACTORS
330
4A1
330
4A2
102
}
330
71
100
AcDbEntity
  8
0
  6
Continuous
 62
     2
100
AcDbLine
 10
-37.73599215424079
 20
16.92320406740234
 30
0.0
 11
-37.134824632348
 21
17.60302738895783
 31
0.0
  0
LINE
  5
3CA
102
{ACAD_REACTORS
330
4A1
330
4A2
102
}
330
71
100
AcDbEntity
  8
0
  6
Continuous
 62
     2
100
AcDbLine
 10
-37.03463004536729
 20
16.13007685892163
 30
0.0
 11
-35.73210041460078
 21
17.60302738895783
 31
0.0
  0
LINE
  5
3CB
102
{ACAD_REACTORS
330
4A1
330
4A2
102
}
330
71
100
AcDbEntity
  8
0
  6
Continuous
 62
     2
100
AcDbLine
 10
-37.03463004536729
 20
16.13007685892163
 30
0.0
 11
-35.63667699842699
 21
14.54921786514663
 31
0.0
  0
LINE
  5
3CC
102
{ACAD_REACTORS
330
4A1
330
4A2
102
}
330
71
100
AcDbEntity
  8
0
  6
Continuous
 62
     2
100
AcDbLine
 10
-37.03940121617529
 20
14.54921786514663
 30
0.0
 11
-35.63667699842699
 21
14.54921786514663
 31
0.0
  0
LINE
  5
3CD
102
{ACAD_REACTORS
330
4A1
330
4A2
102
}
330
71
100
AcDbEntity
  8
0
  6
Continuous
 62
     2
100
AcDbLine
 10
-37.73599215424079
 20
15.33694965044035
 30
0.0
 11
-37.03940121617529
 21
14.54921786514663
 31
0.0
  0
LINE
  5
3CE
102
{ACAD_REACTORS
330
49F
330
4A0
102
}
330
71
100
AcDbEntity
  8
0
  6
Continuous
 62
     2
100
AcDbLine
 10
-41.19509099052448
 20
17.60302738895783
 30
0.0
 11
-39.95458658027158
 21
17.60302738895783
 31
0.0
  0
LINE
  5
3CF
102
{ACAD_REACTORS
330
49F
330
4A0
102
}
330
71
100
AcDbEntity
  8
0
  6
Continuous
 62
     2
100
AcDbLine
 10
-39.95458658027158
 20
17.60302738895783
 30
0.0
 11
-39.95458658027158
 21
14.54921786514663
 31
0.0
  0
LINE
  5
3D0
102
{ACAD_REACTORS
330
49F
330
4A0
102
}
330
71
100
AcDbEntity
  8
0
  6
Continuous
 62
     2
100
AcDbLine
 10
-41.19509099052448
 20
14.54921786514663
 30
0.0
 11
-41.19509099052448
 21
17.60302738895783
 31
0.0
  0
LINE
  5
3D1
102
{ACAD_REACTORS
330
49D
330
49E
102
}
330
71
100
AcDbEntity
  8
0
  6
Continuous
 62
     2
100
AcDbLine
 10
-42.66340107306209
 20
12.41155119849682
 30
0.0
 11
-42.36323583586969
 21
13.17936616448353
 31
0.0
  0
LINE
  5
3D2
102
{ACAD_REACTORS
330
49D
330
49E
102
}
330
71
100
AcDbEntity
  8
0
  6
Continuous
 62
     2
100
AcDbLine
 10
-43.1409366776829
 20
11.19002738897234
 30
0.0
 11
-42.92945662420709
 21
11.73098793319022
 31
0.0
  0
LINE
  5
3D3
102
{ACAD_REACTORS
330
49D
330
49E
102
}
330
71
100
AcDbEntity
  8
0
  6
Continuous
 62
     2
100
AcDbLine
 10
-42.98348804099658
 20
14.24383691278342
 30
0.0
 11
-44.38144108793588
 21
11.19002738897234
 31
0.0
  0
LINE
  5
3D4
102
{ACAD_REACTORS
330
49D
330
49E
102
}
330
71
100
AcDbEntity
  8
0
  6
Continuous
 62
     2
100
AcDbLine
 10
-40.34503058380358
 20
11.19002738897234
 30
0.0
 11
-41.5855349940575
 21
11.19002738897234
 31
0.0
  0
LINE
  5
3D5
102
{ACAD_REACTORS
330
49D
330
49E
102
}
330
71
100
AcDbEntity
  8
0
  6
Continuous
 62
     2
100
AcDbLine
 10
-42.92945662420709
 20
11.73098793319022
 30
0.0
 11
-41.79701504753328
 21
11.73098793319022
 31
0.0
  0
LINE
  5
3D6
102
{ACAD_REACTORS
330
49B
330
49C
102
}
330
71
100
AcDbEntity
  8
0
  6
Continuous
 62
     2
100
AcDbLine
 10
-46.5389532271181
 20
13.45857160665983
 30
0.0
 11
-45.72785418964349
 21
13.45857160665983
 31
0.0
  0
LINE
  5
3D7
102
{ACAD_REACTORS
330
49B
330
49C
102
}
330
71
100
AcDbEntity
  8
0
  6
Continuous
 62
     2
100
AcDbLine
 10
-43.72396245000448
 20
14.24383691278342
 30
0.0
 11
-46.5389532271181
 21
14.24383691278342
 31
0.0
  0
LINE
  5
3D8
102
{ACAD_REACTORS
330
49B
330
49C
102
}
330
71
100
AcDbEntity
  8
0
  6
Continuous
 62
     2
100
AcDbLine
 10
-43.72396245000448
 20
13.45857160665983
 30
0.0
 11
-43.72396245000448
 21
14.24383691278342
 31
0.0
  0
LINE
  5
3D9
102
{ACAD_REACTORS
330
49B
330
49C
102
}
330
71
100
AcDbEntity
  8
0
  6
Continuous
 62
     2
100
AcDbLine
 10
-44.53506148747698
 20
13.45857160665983
 30
0.0
 11
-43.72396245000448
 21
13.45857160665983
 31
0.0
  0
LINE
  5
3DA
102
{ACAD_REACTORS
330
49B
330
49C
102
}
330
71
100
AcDbEntity
  8
0
  6
Continuous
 62
     2
100
AcDbLine
 10
-44.53506148747698
 20
11.19002738897234
 30
0.0
 11
-44.53506148747698
 21
13.45857160665983
 31
0.0
  0
LINE
  5
3DB
102
{ACAD_REACTORS
330
499
330
49A
102
}
330
71
100
AcDbEntity
  8
0
  6
Continuous
 62
     2
100
AcDbLine
 10
-43.86694664337898
 20
14.54921786514663
 30
0.0
 11
-43.86694664337898
 21
15.85799337535133
 31
0.0
  0
LINE
  5
3DC
102
{ACAD_REACTORS
330
499
330
49A
102
}
330
71
100
AcDbEntity
  8
0
  6
Continuous
 62
     2
100
AcDbLine
 10
-45.0597393455455
 20
17.60302738895783
 30
0.0
 11
-45.0597393455455
 21
14.54921786514663
 31
0.0
  0
LINE
  5
3DD
102
{ACAD_REACTORS
330
499
330
49A
102
}
330
71
100
AcDbEntity
  8
0
  6
Continuous
 62
     2
100
AcDbLine
 10
-43.86694664337898
 20
17.60302738895783
 30
0.0
 11
-45.0597393455455
 21
17.60302738895783
 31
0.0
  0
LINE
  5
3DE
102
{ACAD_REACTORS
330
499
330
49A
102
}
330
71
100
AcDbEntity
  8
0
  6
Continuous
 62
     2
100
AcDbLine
 10
-42.62644223312498
 20
17.60302738895783
 30
0.0
 11
-42.62644223312498
 21
16.29425187875265
 31
0.0
  0
LINE
  5
3DF
102
{ACAD_REACTORS
330
497
330
498
102
}
330
71
100
AcDbEntity
  8
0
  6
Continuous
 62
     2
100
AcDbLine
 10
-50.30817816596519
 20
14.24383691278342
 30
0.0
 11
-50.30817816596519
 21
11.19002738897234
 31
0.0
  0
LINE
  5
3E0
102
{ACAD_REACTORS
330
497
330
498
102
}
330
71
100
AcDbEntity
  8
0
  6
Continuous
 62
     2
100
AcDbLine
 10
-49.11538546379759
 20
14.24383691278342
 30
0.0
 11
-50.30817816596519
 21
14.24383691278342
 31
0.0
  0
LINE
  5
3E1
102
{ACAD_REACTORS
330
497
330
498
102
}
330
71
100
AcDbEntity
  8
0
  6
Continuous
 62
     2
100
AcDbLine
 10
-47.8748810535447
 20
11.19002738897234
 30
0.0
 11
-46.6820883513783
 21
11.19002738897234
 31
0.0
  0
LINE
  5
3E2
102
{ACAD_REACTORS
330
497
330
498
102
}
330
71
100
AcDbEntity
  8
0
  6
Continuous
 62
     2
100
AcDbLine
 10
-50.30817816596519
 20
11.19002738897234
 30
0.0
 11
-49.11538546379759
 21
11.19002738897234
 31
0.0
  0
LINE
  5
3E3
102
{ACAD_REACTORS
330
4A7
330
4A8
102
}
330
71
100
AcDbEntity
  8
0
  6
Continuous
 62
     2
100
AcDbLine
 10
-46.63422571240608
 20
16.42512942977314
 30
0.0
 11
-46.63422571240608
 21
16.90501378351485
 31
0.0
  0
LINE
  5
3E4
102
{ACAD_REACTORS
330
4A7
330
4A8
102
}
330
71
100
AcDbEntity
  8
0
  6
Continuous
 62
     2
100
AcDbLine
 10
-45.2982978859784
 20
16.42512942977314
 30
0.0
 11
-46.63422571240608
 21
16.42512942977314
 31
0.0
  0
LINE
  5
3E5
102
{ACAD_REACTORS
330
4A7
330
4A8
102
}
330
71
100
AcDbEntity
  8
0
  6
Continuous
 62
     2
100
AcDbLine
 10
-45.2982978859784
 20
15.72711582433084
 30
0.0
 11
-45.2982978859784
 21
16.42512942977314
 31
0.0
  0
LINE
  5
3E6
102
{ACAD_REACTORS
330
4A7
330
4A8
102
}
330
71
100
AcDbEntity
  8
0
  6
Continuous
 62
     2
100
AcDbLine
 10
-46.63422571240608
 20
15.72711582433084
 30
0.0
 11
-45.2982978859784
 21
15.72711582433084
 31
0.0
  0
LINE
  5
3E7
102
{ACAD_REACTORS
330
495
330
496
102
}
330
71
100
AcDbEntity
  8
0
  6
Continuous
 62
     2
100
AcDbLine
 10
-50.117180402733
 20
17.60302738895783
 30
0.0
 11
-50.117180402733
 21
14.54921786514663
 31
0.0
  0
LINE
  5
3E8
102
{ACAD_REACTORS
330
495
330
496
102
}
330
71
100
AcDbEntity
  8
0
  6
Continuous
 62
     2
100
AcDbLine
 10
-50.117180402733
 20
14.54921786514663
 30
0.0
 11
-51.3099731048994
 21
14.54921786514663
 31
0.0
  0
LINE
  5
3E9
102
{ACAD_REACTORS
330
495
330
496
102
}
330
71
100
AcDbEntity
  8
0
  6
Continuous
 62
     2
100
AcDbLine
 10
-51.3099731048994
 20
14.54921786514663
 30
0.0
 11
-51.3099731048994
 21
15.68348997399045
 31
0.0
  0
LINE
  5
3EA
102
{ACAD_REACTORS
330
495
330
496
102
}
330
71
100
AcDbEntity
  8
0
  6
Continuous
 62
     2
100
AcDbLine
 10
-52.35963068280688
 20
14.54921786514663
 30
0.0
 11
-53.55242338497348
 21
14.54921786514663
 31
0.0
  0
LINE
  5
3EB
102
{ACAD_REACTORS
330
495
330
496
102
}
330
71
100
AcDbEntity
  8
0
  6
Continuous
 62
     2
100
AcDbLine
 10
-53.55242338497348
 20
17.60302738895783
 30
0.0
 11
-52.35963068280688
 21
17.60302738895783
 31
0.0
  0
LINE
  5
3EC
102
{ACAD_REACTORS
330
495
330
496
102
}
330
71
100
AcDbEntity
  8
0
  6
Continuous
 62
     2
100
AcDbLine
 10
-52.35963068280688
 20
17.60302738895783
 30
0.0
 11
-52.35963068280688
 21
16.53419405562323
 31
0.0
  0
LINE
  5
3ED
102
{ACAD_REACTORS
330
495
330
496
102
}
330
71
100
AcDbEntity
  8
0
  6
Continuous
 62
     2
100
AcDbLine
 10
-52.35963068280688
 20
16.53419405562323
 30
0.0
 11
-51.3099731048994
 21
16.53419405562323
 31
0.0
  0
LINE
  5
3EE
102
{ACAD_REACTORS
330
4A3
330
4A4
102
}
330
71
100
AcDbEntity
  8
0
  6
Continuous
 62
     2
100
AcDbLine
 10
-55.50860341652708
 20
16.93992154351773
 30
0.0
 11
-55.19130835498518
 21
16.93992154351773
 31
0.0
  0
LINE
  5
3EF
102
{ACAD_REACTORS
330
4A3
330
4A4
102
}
330
71
100
AcDbEntity
  8
0
  6
Continuous
 62
     2
100
AcDbLine
 10
-55.50860341652708
 20
16.23419389417552
 30
0.0
 11
-55.19130835498518
 21
16.23419389417552
 31
0.0
  0
LINE
  5
3F0
102
{ACAD_REACTORS
330
4A3
330
4A4
102
}
330
71
100
AcDbEntity
  8
0
  6
Continuous
 62
     2
100
AcDbLine
 10
-56.7491078267812
 20
17.60302738895783
 30
0.0
 11
-56.7491078267812
 21
14.54921786514663
 31
0.0
  0
LINE
  5
3F1
102
{ACAD_REACTORS
330
4A3
330
4A4
102
}
330
71
100
AcDbEntity
  8
0
  6
Continuous
 62
     2
100
AcDbLine
 10
-56.7491078267812
 20
17.60302738895783
 30
0.0
 11
-54.7498358287468
 21
17.60302738895783
 31
0.0
  0
LINE
  5
3F2
102
{ACAD_REACTORS
330
4A3
330
4A4
102
}
330
71
100
AcDbEntity
  8
0
  6
Continuous
 62
     2
100
AcDbLine
 10
-55.50860341652708
 20
15.49229610629044
 30
0.0
 11
-54.7498358287468
 21
15.49229610629044
 31
0.0
  0
LINE
  5
3F3
102
{ACAD_REACTORS
330
4A9
330
4AA
102
}
330
71
100
AcDbEntity
  8
0
  6
Continuous
 62
     2
100
AcDbLine
 10
-62.84560386007789
 20
16.57475491032304
 30
0.0
 11
-62.84560386007789
 21
12.21829986760594
 31
0.0
  0
LINE
  5
3F4
102
{ACAD_REACTORS
330
4A9
330
4AA
102
}
330
71
100
AcDbEntity
  8
0
  6
Continuous
 62
     2
100
AcDbLine
 10
-62.5298869370022
 20
16.89047183339923
 30
0.0
 11
-61.05405367599258
 21
16.89047183339923
 31
0.0
  0
LINE
  5
3F5
102
{ACAD_REACTORS
330
4A9
330
4AA
102
}
330
71
100
AcDbEntity
  8
0
  6
Continuous
 62
     2
100
AcDbLine
 10
-60.73833675291598
 20
15.97073029126253
 30
0.0
 11
-60.73833675291598
 21
16.57475491032304
 31
0.0
  0
LINE
  5
3F6
102
{ACAD_REACTORS
330
4A9
330
4AA
102
}
330
71
100
AcDbEntity
  8
0
  6
Continuous
 62
     2
100
AcDbLine
 10
-60.73833675291598
 20
12.21829986760594
 30
0.0
 11
-60.73833675291598
 21
13.74907079913754
 31
0.0
  0
LINE
  5
3F7
102
{ACAD_REACTORS
330
4A9
330
4AA
102
}
330
71
100
AcDbEntity
  8
0
  6
Continuous
 62
     2
100
AcDbLine
 10
-57.65046952303189
 20
11.19002738897234
 30
0.0
 11
-63.12378161374869
 21
11.19002738897234
 31
0.0
  0
LINE
  5
3F8
102
{ACAD_REACTORS
330
4A9
330
4AA
102
}
330
71
100
AcDbEntity
  8
0
  6
Continuous
 62
     2
100
AcDbLine
 10
-57.226224907648
 20
17.17878277355584
 30
0.0
 11
-57.226224907648
 21
11.61427200435563
 31
0.0
  0
LINE
  5
3F9
102
{ACAD_REACTORS
330
4A9
330
4AA
102
}
330
71
100
AcDbEntity
  8
0
  6
Continuous
 62
     2
100
AcDbLine
 10
-63.12378161374869
 20
17.60302738893964
 30
0.0
 11
-57.65046952303189
 21
17.60302738893964
 31
0.0
  0
LINE
  5
3FA
102
{ACAD_REACTORS
330
4A9
330
4AA
102
}
330
71
100
AcDbEntity
  8
0
  6
Continuous
 62
     2
100
AcDbLine
 10
-63.54802622913149
 20
17.17878277355584
 30
0.0
 11
-63.54802622913149
 21
11.61427200435563
 31
0.0
  0
LINE
  5
3FB
102
{ACAD_REACTORS
330
4A9
330
4AA
102
}
330
71
100
AcDbEntity
  8
0
  6
Continuous
 62
     2
100
AcDbLine
 10
-61.05405367599258
 20
11.90258294452923
 30
0.0
 11
-62.5298869370022
 21
11.90258294452923
 31
0.0
  0
LINE
  5
3FC
102
{ACAD_REACTORS
330
4A3
330
4A4
102
}
330
71
100
AcDbEntity
  8
0
  6
Continuous
 62
     2
100
AcDbLine
 10
-55.50860341652708
 20
14.54921786514663
 30
0.0
 11
-55.50860341652708
 21
15.49229610629044
 31
0.0
  0
LINE
  5
3FD
102
{ACAD_REACTORS
330
4A3
330
4A4
102
}
330
71
100
AcDbEntity
  8
0
  6
Continuous
 62
     2
100
AcDbLine
 10
-56.7491078267812
 20
14.54921786514663
 30
0.0
 11
-55.50860341652708
 21
14.54921786514663
 31
0.0
  0
LINE
  5
3FE
102
{ACAD_REACTORS
330
4A3
330
4A4
102
}
330
71
100
AcDbEntity
  8
0
  6
Continuous
 62
     2
100
AcDbLine
 10
-55.50860341652708
 20
16.23419389417552
 30
0.0
 11
-55.50860341652708
 21
16.93992154351773
 31
0.0
  0
LINE
  5
3FF
102
{ACAD_REACTORS
330
495
330
496
102
}
330
71
100
AcDbEntity
  8
0
  6
Continuous
 62
     2
100
AcDbLine
 10
-53.55242338497348
 20
17.60302738895783
 30
0.0
 11
-53.55242338497348
 21
14.54921786514663
 31
0.0
  0
LINE
  5
400
102
{ACAD_REACTORS
330
495
330
496
102
}
330
71
100
AcDbEntity
  8
0
  6
Continuous
 62
     2
100
AcDbLine
 10
-52.35963068280688
 20
15.68348997399045
 30
0.0
 11
-52.35963068280688
 21
14.54921786514663
 31
0.0
  0
LINE
  5
401
102
{ACAD_REACTORS
330
495
330
496
102
}
330
71
100
AcDbEntity
  8
0
  6
Continuous
 62
     2
100
AcDbLine
 10
-51.3099731048994
 20
15.68348997399045
 30
0.0
 11
-52.35963068280688
 21
15.68348997399045
 31
0.0
  0
LINE
  5
402
102
{ACAD_REACTORS
330
495
330
496
102
}
330
71
100
AcDbEntity
  8
0
  6
Continuous
 62
     2
100
AcDbLine
 10
-51.3099731048994
 20
17.60302738895783
 30
0.0
 11
-50.117180402733
 21
17.60302738895783
 31
0.0
  0
LINE
  5
403
102
{ACAD_REACTORS
330
495
330
496
102
}
330
71
100
AcDbEntity
  8
0
  6
Continuous
 62
     2
100
AcDbLine
 10
-51.3099731048994
 20
16.53419405562323
 30
0.0
 11
-51.3099731048994
 21
17.60302738895783
 31
0.0
  0
LINE
  5
404
102
{ACAD_REACTORS
330
4A7
330
4A8
102
}
330
71
100
AcDbEntity
  8
0
  6
Continuous
 62
     2
100
AcDbLine
 10
-45.2982978859784
 20
16.90501378351485
 30
0.0
 11
-45.2982978859784
 21
17.60302738895783
 31
0.0
  0
LINE
  5
405
102
{ACAD_REACTORS
330
4A7
330
4A8
102
}
330
71
100
AcDbEntity
  8
0
  6
Continuous
 62
     2
100
AcDbLine
 10
-48.4486176097594
 20
17.60302738895783
 30
0.0
 11
-45.2982978859784
 21
17.60302738895783
 31
0.0
  0
LINE
  5
406
102
{ACAD_REACTORS
330
4A7
330
4A8
102
}
330
71
100
AcDbEntity
  8
0
  6
Continuous
 62
     2
100
AcDbLine
 10
-48.4486176097594
 20
14.54921786514663
 30
0.0
 11
-45.2982978859784
 21
14.54921786514663
 31
0.0
  0
LINE
  5
407
102
{ACAD_REACTORS
330
4A7
330
4A8
102
}
330
71
100
AcDbEntity
  8
0
  6
Continuous
 62
     2
100
AcDbLine
 10
-45.2982978859784
 20
14.54921786514663
 30
0.0
 11
-45.2982978859784
 21
15.24723147058913
 31
0.0
  0
LINE
  5
408
102
{ACAD_REACTORS
330
4A7
330
4A8
102
}
330
71
100
AcDbEntity
  8
0
  6
Continuous
 62
     2
100
AcDbLine
 10
-45.2982978859784
 20
15.24723147058913
 30
0.0
 11
-46.63422571240608
 21
15.24723147058913
 31
0.0
  0
LINE
  5
409
102
{ACAD_REACTORS
330
4A7
330
4A8
102
}
330
71
100
AcDbEntity
  8
0
  6
Continuous
 62
     2
100
AcDbLine
 10
-46.63422571240608
 20
15.24723147058913
 30
0.0
 11
-46.63422571240608
 21
15.72711582433084
 31
0.0
  0
LINE
  5
40A
102
{ACAD_REACTORS
330
4A7
330
4A8
102
}
330
71
100
AcDbEntity
  8
0
  6
Continuous
 62
     2
100
AcDbLine
 10
-46.63422571240608
 20
16.90501378351485
 30
0.0
 11
-45.2982978859784
 21
16.90501378351485
 31
0.0
  0
LINE
  5
40B
102
{ACAD_REACTORS
330
497
330
498
102
}
330
71
100
AcDbEntity
  8
0
  6
Continuous
 62
     2
100
AcDbLine
 10
-49.11538546379759
 20
11.19002738897234
 30
0.0
 11
-49.11538546379759
 21
12.49880289917692
 31
0.0
  0
LINE
  5
40C
102
{ACAD_REACTORS
330
497
330
498
102
}
330
71
100
AcDbEntity
  8
0
  6
Continuous
 62
     2
100
AcDbLine
 10
-49.11538546379759
 20
12.49880289917692
 30
0.0
 11
-47.8748810535447
 21
11.19002738897234
 31
0.0
  0
LINE
  5
40D
102
{ACAD_REACTORS
330
497
330
498
102
}
330
71
100
AcDbEntity
  8
0
  6
Continuous
 62
     2
100
AcDbLine
 10
-46.6820883513783
 20
11.19002738897234
 30
0.0
 11
-46.6820883513783
 21
14.24383691278342
 31
0.0
  0
LINE
  5
40E
102
{ACAD_REACTORS
330
497
330
498
102
}
330
71
100
AcDbEntity
  8
0
  6
Continuous
 62
     2
100
AcDbLine
 10
-46.6820883513783
 20
14.24383691278342
 30
0.0
 11
-47.8748810535447
 21
14.24383691278342
 31
0.0
  0
LINE
  5
40F
102
{ACAD_REACTORS
330
497
330
498
102
}
330
71
100
AcDbEntity
  8
0
  6
Continuous
 62
     2
100
AcDbLine
 10
-47.8748810535447
 20
14.24383691278342
 30
0.0
 11
-47.8748810535447
 21
12.93506140257833
 31
0.0
  0
LINE
  5
410
102
{ACAD_REACTORS
330
497
330
498
102
}
330
71
100
AcDbEntity
  8
0
  6
Continuous
 62
     2
100
AcDbLine
 10
-47.8748810535447
 20
12.93506140257833
 30
0.0
 11
-49.11538546379759
 21
14.24383691278342
 31
0.0
  0
LINE
  5
411
102
{ACAD_REACTORS
330
499
330
49A
102
}
330
71
100
AcDbEntity
  8
0
  6
Continuous
 62
     2
100
AcDbLine
 10
-43.86694664337898
 20
15.85799337535133
 30
0.0
 11
-42.62644223312498
 21
14.54921786514663
 31
0.0
  0
LINE
  5
412
102
{ACAD_REACTORS
330
499
330
49A
102
}
330
71
100
AcDbEntity
  8
0
  6
Continuous
 62
     2
100
AcDbLine
 10
-42.62644223312498
 20
14.54921786514663
 30
0.0
 11
-41.43364953095838
 21
14.54921786514663
 31
0.0
  0
LINE
  5
413
102
{ACAD_REACTORS
330
499
330
49A
102
}
330
71
100
AcDbEntity
  8
0
  6
Continuous
 62
     2
100
AcDbLine
 10
-41.43364953095838
 20
14.54921786514663
 30
0.0
 11
-41.43364953095838
 21
17.60302738895783
 31
0.0
  0
LINE
  5
414
102
{ACAD_REACTORS
330
499
330
49A
102
}
330
71
100
AcDbEntity
  8
0
  6
Continuous
 62
     2
100
AcDbLine
 10
-41.43364953095838
 20
17.60302738895783
 30
0.0
 11
-42.62644223312498
 21
17.60302738895783
 31
0.0
  0
LINE
  5
415
102
{ACAD_REACTORS
330
499
330
49A
102
}
330
71
100
AcDbEntity
  8
0
  6
Continuous
 62
     2
100
AcDbLine
 10
-42.62644223312498
 20
16.29425187875265
 30
0.0
 11
-43.86694664337898
 21
17.60302738895783
 31
0.0
  0
LINE
  5
416
102
{ACAD_REACTORS
330
499
330
49A
102
}
330
71
100
AcDbEntity
  8
0
  6
Continuous
 62
     2
100
AcDbLine
 10
-45.0597393455455
 20
14.54921786514663
 30
0.0
 11
-43.86694664337898
 21
14.54921786514663
 31
0.0
  0
LINE
  5
417
102
{ACAD_REACTORS
330
49B
330
49C
102
}
330
71
100
AcDbEntity
  8
0
  6
Continuous
 62
     2
100
AcDbLine
 10
-46.5389532271181
 20
14.24383691278342
 30
0.0
 11
-46.5389532271181
 21
13.45857160665983
 31
0.0
  0
LINE
  5
418
102
{ACAD_REACTORS
330
49B
330
49C
102
}
330
71
100
AcDbEntity
  8
0
  6
Continuous
 62
     2
100
AcDbLine
 10
-45.72785418964349
 20
13.45857160665983
 30
0.0
 11
-45.72785418964349
 21
11.19002738897234
 31
0.0
  0
LINE
  5
419
102
{ACAD_REACTORS
330
49B
330
49C
102
}
330
71
100
AcDbEntity
  8
0
  6
Continuous
 62
     2
100
AcDbLine
 10
-45.72785418964349
 20
11.19002738897234
 30
0.0
 11
-44.53506148747698
 21
11.19002738897234
 31
0.0
  0
LINE
  5
41A
102
{ACAD_REACTORS
330
49D
330
49E
102
}
330
71
100
AcDbEntity
  8
0
  6
Continuous
 62
     2
100
AcDbLine
 10
-41.5855349940575
 20
11.19002738897234
 30
0.0
 11
-41.79701504753328
 21
11.73098793319022
 31
0.0
  0
LINE
  5
41B
102
{ACAD_REACTORS
330
49D
330
49E
102
}
330
71
100
AcDbEntity
  8
0
  6
Continuous
 62
     2
100
AcDbLine
 10
-41.74298363074388
 20
14.24383691278342
 30
0.0
 11
-40.34503058380358
 21
11.19002738897234
 31
0.0
  0
LINE
  5
41C
102
{ACAD_REACTORS
330
49D
330
49E
102
}
330
71
100
AcDbEntity
  8
0
  6
Continuous
 62
     2
100
AcDbLine
 10
-42.98348804099658
 20
14.24383691278342
 30
0.0
 11
-41.74298363074388
 21
14.24383691278342
 31
0.0
  0
LINE
  5
41D
102
{ACAD_REACTORS
330
49D
330
49E
102
}
330
71
100
AcDbEntity
  8
0
  6
Continuous
 62
     2
100
AcDbLine
 10
-44.38144108793588
 20
11.19002738897234
 30
0.0
 11
-43.1409366776829
 21
11.19002738897234
 31
0.0
  0
LINE
  5
41E
102
{ACAD_REACTORS
330
49D
330
49E
102
}
330
71
100
AcDbEntity
  8
0
  6
Continuous
 62
     2
100
AcDbLine
 10
-42.66340107306209
 20
12.41155119849682
 30
0.0
 11
-42.06307059867959
 21
12.41155119849682
 31
0.0
  0
LINE
  5
41F
102
{ACAD_REACTORS
330
49D
330
49E
102
}
330
71
100
AcDbEntity
  8
0
  6
Continuous
 62
     2
100
AcDbLine
 10
-42.06307059867959
 20
12.41155119849682
 30
0.0
 11
-42.36323583586969
 21
13.17936616448353
 31
0.0
  0
LINE
  5
420
102
{ACAD_REACTORS
330
49F
330
4A0
102
}
330
71
100
AcDbEntity
  8
0
  6
Continuous
 62
     2
100
AcDbLine
 10
-39.95458658027158
 20
14.54921786514663
 30
0.0
 11
-41.19509099052448
 21
14.54921786514663
 31
0.0
  0
LINE
  5
421
102
{ACAD_REACTORS
330
4A1
330
4A2
102
}
330
71
100
AcDbEntity
  8
0
  6
Continuous
 62
     2
100
AcDbLine
 10
-38.43258309230649
 20
14.54921786514663
 30
0.0
 11
-39.8353073100547
 21
14.54921786514663
 31
0.0
  0
LINE
  5
422
102
{ACAD_REACTORS
330
4A1
330
4A2
102
}
330
71
100
AcDbEntity
  8
0
  6
Continuous
 62
     2
100
AcDbLine
 10
-38.43258309230649
 20
14.54921786514663
 30
0.0
 11
-37.73599215424079
 21
15.33694965044035
 31
0.0
  0
LINE
  5
423
102
{ACAD_REACTORS
330
4A1
330
4A2
102
}
330
71
100
AcDbEntity
  8
0
  6
Continuous
 62
     2
100
AcDbLine
 10
-37.134824632348
 20
17.60302738895783
 30
0.0
 11
-35.73210041460078
 21
17.60302738895783
 31
0.0
  0
LINE
  5
424
102
{ACAD_REACTORS
330
4A1
330
4A2
102
}
330
71
100
AcDbEntity
  8
0
  6
Continuous
 62
     2
100
AcDbLine
 10
-39.73988389388188
 20
17.60302738895783
 30
0.0
 11
-38.4373542631144
 21
16.13007685892163
 31
0.0
  0
LINE
  5
425
102
{ACAD_REACTORS
330
4A1
330
4A2
102
}
330
71
100
AcDbEntity
  8
0
  6
Continuous
 62
     2
100
AcDbLine
 10
-39.8353073100547
 20
14.54921786514663
 30
0.0
 11
-38.4373542631144
 21
16.13007685892163
 31
0.0
  0
LINE
  5
426
102
{ACAD_REACTORS
330
4AB
330
4AC
102
}
330
71
100
AcDbEntity
  8
0
  6
Continuous
 62
     2
100
AcDbLine
 10
-37.97455069467478
 20
12.23704779713594
 30
0.0
 11
-37.97455069467478
 21
11.36453079033262
 31
0.0
  0
LINE
  5
427
102
{ACAD_REACTORS
330
4AB
330
4AC
102
}
330
71
100
AcDbEntity
  8
0
  6
Continuous
 62
     2
100
AcDbLine
 10
-38.74420803763618
 20
13.45857160665983
 30
0.0
 11
-37.64056873806808
 21
13.45857160665983
 31
0.0
  0
LINE
  5
428
102
{ACAD_REACTORS
330
4AD
330
4AE
102
}
330
71
100
AcDbEntity
  8
0
  6
Continuous
 62
     2
100
AcDbLine
 10
-54.0772521739267
 20
12.23704779713643
 30
0.0
 11
-54.0772521739267
 21
11.36453079033322
 31
0.0
  0
LINE
  5
429
102
{ACAD_REACTORS
330
4AD
330
4AE
102
}
330
71
100
AcDbEntity
  8
0
  6
Continuous
 62
     2
100
AcDbLine
 10
-54.0772521739267
 20
13.19681650461934
 30
0.0
 11
-54.0772521739267
 21
14.06933351142263
 31
0.0
  0
LINE
  5
42A
330
71
100
AcDbEntity
  8
1
  6
Continuous
 62
     7
100
AcDbLine
 10
61.76012341105721
 20
12.39652738895603
 30
0.0
 11
-31.38468111569418
 21
12.39652738895603
 31
0.0
  0
LINE
  5
42B
330
71
100
AcDbEntity
  8
1
  6
Continuous
 62
     6
100
AcDbLine
 10
-136.7846811156941
 20
3.89652738895603
 30
0.0
 11
-181.7398765889441
 21
3.89652738895603
 31
0.0
  0
LINE
  5
42C
330
71
100
AcDbEntity
  8
1
  6
Continuous
 62
     7
100
AcDbLine
 10
52.8417151293784
 20
29.39652738895603
 30
0.0
 11
52.8417151293784
 21
20.89652738895603
 31
0.0
  0
LINE
  5
42D
330
71
100
AcDbEntity
  8
1
  6
Continuous
 62
     7
100
AcDbLine
 10
26.3417151293788
 20
29.39652738895603
 30
0.0
 11
26.3417151293788
 21
20.89652738895603
 31
0.0
  0
LINE
  5
42E
330
71
100
AcDbEntity
  8
1
  6
Continuous
 62
     7
100
AcDbLine
 10
-31.38468111569418
 20
20.89652738895603
 30
0.0
 11
-31.38468111569418
 21
29.39652738895603
 31
0.0
  0
LINE
  5
42F
330
71
100
AcDbEntity
  8
1
  6
Continuous
 62
     7
100
AcDbLine
 10
-67.7846811156941
 20
20.89652738895603
 30
0.0
 11
-67.7846811156941
 21
29.39652738895603
 31
0.0
  0
LINE
  5
430
330
71
100
AcDbEntity
  8
1
  6
Continuous
 62
     6
100
AcDbLine
 10
-31.38468111569418
 20
20.89652738895603
 30
0.0
 11
61.76012341105761
 21
20.89652738895603
 31
0.0
  0
LINE
  5
431
330
71
100
AcDbEntity
  8
1
  6
Continuous
 62
     7
100
AcDbLine
 10
-3.48468111569409
 20
12.39652738895595
 30
0.0
 11
-3.48468111569409
 21
20.89652738895603
 31
0.0
  0
LINE
  5
432
330
71
100
AcDbEntity
  8
1
  6
PHANTOM
 62
     2
100
AcDbLine
 10
-52.29802622913149
 20
25.02152738895595
 30
0.0
 11
-57.79802622913149
 21
25.02152738895595
 31
0.0
  0
LINE
  5
433
330
71
100
AcDbEntity
  8
1
  6
PHANTOM
 62
     2
100
AcDbLine
 10
-55.04802622913149
 20
27.77152738895595
 30
0.0
 11
-55.04802622913149
 21
22.27152738895595
 31
0.0
  0
LINE
  5
434
330
71
100
AcDbEntity
  8
1
  6
DOT_CENTER
 62
     2
100
AcDbLine
 10
-63.79802622913149
 20
25.02152738895595
 30
0.0
 11
-58.29802622913149
 21
25.02152738895595
 31
0.0
  0
ARC
  5
435
102
{ACAD_REACTORS
330
4AD
330
4AE
102
}
330
71
100
AcDbEntity
  8
0
  6
Continuous
 62
     2
100
AcDbCircle
 10
-55.4131800910445
 20
9.40425120562173
 30
0.0
 40
4.852596863498071
100
AcDbArc
 50
74.02000874164739
 51
84.84185523037497
  0
ARC
  5
436
102
{ACAD_REACTORS
330
4AD
330
4AE
102
}
330
71
100
AcDbEntity
  8
0
  6
Continuous
 62
     2
100
AcDbCircle
 10
-54.83713948229078
 20
12.56001156150603
 30
0.0
 40
0.9059297849853211
100
AcDbArc
 50
71.55192388185344
 51
113.372277888129
  0
ARC
  5
437
102
{ACAD_REACTORS
330
4AD
330
4AE
102
}
330
71
100
AcDbEntity
  8
0
  6
Continuous
 62
     2
100
AcDbCircle
 10
-54.9935795149928
 20
12.51186072153914
 30
0.0
 40
0.5115800601948034
100
AcDbArc
 50
208.5214732576956
 51
246.6277221118276
  0
ARC
  5
438
102
{ACAD_REACTORS
330
4AD
330
4AE
102
}
330
71
100
AcDbEntity
  8
0
  6
Continuous
 62
     2
100
AcDbCircle
 10
-54.83713948229078
 20
12.87385274024913
 30
0.0
 40
0.9059297849849176
100
AcDbArc
 50
246.627722111871
 51
288.4480761181586
  0
ARC
  5
439
102
{ACAD_REACTORS
330
4AD
330
4AE
102
}
330
71
100
AcDbEntity
  8
0
  6
Continuous
 62
     2
100
AcDbCircle
 10
-55.25530721595158
 20
14.12739851628632
 30
0.0
 40
2.227384008972739
100
AcDbArc
 50
288.448076118133
 51
301.9309089499593
  0
ARC
  5
43A
102
{ACAD_REACTORS
330
4A9
330
4AA
102
}
330
71
100
AcDbEntity
  8
0
  6
Continuous
 62
     2
100
AcDbCircle
 10
-60.48038094855838
 20
14.85990054520033
 30
0.0
 40
0.9118481501444543
100
AcDbArc
 50
295.3740086781761
 51
64.62599132180796
  0
ARC
  5
43B
102
{ACAD_REACTORS
330
4A9
330
4AA
102
}
330
71
100
AcDbEntity
  8
0
  6
Continuous
 62
     2
100
AcDbCircle
 10
-59.9543382504705
 20
16.57457743367493
 30
0.0
 40
0.3157169230760746
100
AcDbArc
 50
90.18896704254594
 51
180.0
  0
ARC
  5
43C
102
{ACAD_REACTORS
330
4AB
330
4AC
102
}
330
71
100
AcDbEntity
  8
0
  6
Continuous
 62
     2
100
AcDbCircle
 10
-38.74420803763618
 20
12.50404859983374
 30
0.0
 40
0.9545230068260917
100
AcDbArc
 50
90.0
 51
109.337143219432
  0
ARC
  5
43D
102
{ACAD_REACTORS
330
4AB
330
4AC
102
}
330
71
100
AcDbEntity
  8
0
  6
Continuous
 62
     2
100
AcDbCircle
 10
-38.5135207776585
 20
12.71693215087763
 30
0.0
 40
0.941059735334897
100
AcDbArc
 50
151.4785267423628
 51
208.5214732576693
  0
ARC
  5
43E
102
{ACAD_REACTORS
330
4AB
330
4AC
102
}
330
71
100
AcDbEntity
  8
0
  6
Continuous
 62
     2
100
AcDbCircle
 10
-38.73443800303679
 20
12.87385274024913
 30
0.0
 40
0.9059297849852755
100
AcDbArc
 50
246.6277221118186
 51
288.4480761180822
  0
ARC
  5
43F
102
{ACAD_REACTORS
330
4AB
330
4AC
102
}
330
71
100
AcDbEntity
  8
0
  6
Continuous
 62
     2
100
AcDbCircle
 10
-39.15260573669869
 20
14.12739851628572
 30
0.0
 40
2.227384008972746
100
AcDbArc
 50
288.4480761181335
 51
301.9309089499396
  0
ARC
  5
440
102
{ACAD_REACTORS
330
4AB
330
4AC
102
}
330
71
100
AcDbEntity
  8
0
  6
Continuous
 62
     2
100
AcDbCircle
 10
-39.3104786117915
 20
16.02961309613403
 30
0.0
 40
4.852596863498826
100
AcDbArc
 50
275.1581447696364
 51
285.9799912583387
  0
ARC
  5
441
102
{ACAD_REACTORS
330
4AB
330
4AC
102
}
330
71
100
AcDbEntity
  8
0
  6
Continuous
 62
     2
100
AcDbCircle
 10
-39.02162251705568
 20
12.82972251291244
 30
0.0
 40
1.639695123940442
100
AcDbArc
 50
195.0618917771014
 51
275.1581447696765
  0
ARC
  5
442
102
{ACAD_REACTORS
330
4A3
330
4A4
102
}
330
71
100
AcDbEntity
  8
0
  6
Continuous
 62
     2
100
AcDbCircle
 10
-54.7498358287468
 20
16.54766174762415
 30
0.0
 40
1.055365641333712
100
AcDbArc
 50
270.0
 51
90.0
  0
ARC
  5
443
102
{ACAD_REACTORS
330
4A9
330
4AA
102
}
330
71
100
AcDbEntity
  8
0
  6
Continuous
 62
     2
100
AcDbCircle
 10
-62.5298869370022
 20
12.21829986760594
 30
0.0
 40
0.3157169230756836
100
AcDbArc
 50
180.0
 51
270.0
  0
ARC
  5
444
102
{ACAD_REACTORS
330
4A9
330
4AA
102
}
330
71
100
AcDbEntity
  8
0
  6
Continuous
 62
     2
100
AcDbCircle
 10
-61.05405367599258
 20
16.57475491032304
 30
0.0
 40
0.3157169230766002
100
AcDbArc
 50
0.0
 51
90.0
  0
ARC
  5
445
102
{ACAD_REACTORS
330
4A9
330
4AA
102
}
330
71
100
AcDbEntity
  8
0
  6
Continuous
 62
     2
100
AcDbCircle
 10
-61.05405367599258
 20
15.97073029126253
 30
0.0
 40
0.3157169230761203
100
AcDbArc
 50
295.1944106485397
 51
0.0
  0
ARC
  5
446
102
{ACAD_REACTORS
330
4A9
330
4AA
102
}
330
71
100
AcDbEntity
  8
0
  6
Continuous
 62
     2
100
AcDbCircle
 10
-61.05405367599258
 20
12.21829986760594
 30
0.0
 40
0.3157169230767085
100
AcDbArc
 50
270.0
 51
0.0
  0
ARC
  5
447
102
{ACAD_REACTORS
330
4A9
330
4AA
102
}
330
71
100
AcDbEntity
  8
0
  6
Continuous
 62
     2
100
AcDbCircle
 10
-63.12378161374869
 20
17.17878277355584
 30
0.0
 40
0.4242446153837989
100
AcDbArc
 50
90.0
 51
180.0
  0
ARC
  5
448
102
{ACAD_REACTORS
330
4A9
330
4AA
102
}
330
71
100
AcDbEntity
  8
0
  6
Continuous
 62
     2
100
AcDbCircle
 10
-57.65046952303189
 20
17.17878277355584
 30
0.0
 40
0.4242446153838841
100
AcDbArc
 50
0.0
 51
90.0
  0
ARC
  5
449
102
{ACAD_REACTORS
330
4A9
330
4AA
102
}
330
71
100
AcDbEntity
  8
0
  6
Continuous
 62
     2
100
AcDbCircle
 10
-57.65046952303189
 20
11.61427200435563
 30
0.0
 40
0.4242446153832908
100
AcDbArc
 50
270.0
 51
0.0
  0
ARC
  5
44A
102
{ACAD_REACTORS
330
4A7
330
4A8
102
}
330
71
100
AcDbEntity
  8
0
  6
Continuous
 62
     2
100
AcDbCircle
 10
-48.43208563594038
 20
16.07612262705194
 30
0.0
 40
0.7717997786796362
100
AcDbArc
 50
321.8795802028439
 51
38.12041979715956
  0
ARC
  5
44B
102
{ACAD_REACTORS
330
4A7
330
4A8
102
}
330
71
100
AcDbEntity
  8
0
  6
Continuous
 62
     2
100
AcDbCircle
 10
-48.2323455995942
 20
15.91939144893152
 30
0.0
 40
0.5179085730134382
100
AcDbArc
 50
218.1204197971512
 51
321.8795802028565
  0
ARC
  5
44C
102
{ACAD_REACTORS
330
4A5
330
4A6
102
}
330
71
100
AcDbEntity
  8
0
  6
Continuous
 62
     2
100
AcDbCircle
 10
-51.91235318855439
 20
12.71693215087763
 30
0.0
 40
1.458034083652008
100
AcDbArc
 50
297.5481481757013
 51
62.45185182429854
  0
ARC
  5
44D
102
{ACAD_REACTORS
330
4A5
330
4A6
102
}
330
71
100
AcDbEntity
  8
0
  6
Continuous
 62
     2
100
AcDbCircle
 10
-52.47423297222099
 20
12.71693215087763
 30
0.0
 40
1.458034083651482
100
AcDbArc
 50
117.5481481756626
 51
242.4518518243376
  0
ARC
  5
44E
102
{ACAD_REACTORS
330
4A5
330
4A6
102
}
330
71
100
AcDbEntity
  8
0
  6
Continuous
 62
     2
100
AcDbCircle
 10
-52.19329308038769
 20
12.17835714057483
 30
0.0
 40
2.065479772208569
100
AcDbArc
 50
62.45185182430616
 51
117.5481481756664
  0
ARC
  5
44F
102
{ACAD_REACTORS
330
4A5
330
4A6
102
}
330
71
100
AcDbEntity
  8
0
  6
Continuous
 62
     2
100
AcDbCircle
 10
-52.19329308038769
 20
13.25550716118093
 30
0.0
 40
2.065479772208505
100
AcDbArc
 50
242.4518518243401
 51
297.5481481756873
  0
ARC
  5
450
102
{ACAD_REACTORS
330
4A7
330
4A8
102
}
330
71
100
AcDbEntity
  8
0
  6
Continuous
 62
     2
100
AcDbCircle
 10
-48.0326055632479
 20
16.07612262705194
 30
0.0
 40
0.7717997786796724
100
AcDbArc
 50
141.8795802028404
 51
218.1204197971561
  0
ARC
  5
451
102
{ACAD_REACTORS
330
4A7
330
4A8
102
}
330
71
100
AcDbEntity
  8
0
  6
Continuous
 62
     2
100
AcDbCircle
 10
-48.2323455995942
 20
16.23285380517243
 30
0.0
 40
0.5179085730135222
100
AcDbArc
 50
38.12041979714272
 51
141.8795802028495
  0
ARC
  5
452
102
{ACAD_REACTORS
330
4A9
330
4AA
102
}
330
71
100
AcDbEntity
  8
0
  6
Continuous
 62
     2
100
AcDbCircle
 10
-63.12378161374869
 20
11.61427200435563
 30
0.0
 40
0.424244615382797
100
AcDbArc
 50
180.0
 51
270.0
  0
ARC
  5
453
102
{ACAD_REACTORS
330
4A9
330
4AA
102
}
330
71
100
AcDbEntity
  8
0
  6
Continuous
 62
     2
100
AcDbCircle
 10
-61.05405367599258
 20
13.74907079913754
 30
0.0
 40
0.3157169230766002
100
AcDbArc
 50
0.0
 51
64.80558935146027
  0
ARC
  5
454
102
{ACAD_REACTORS
330
4A9
330
4AA
102
}
330
71
100
AcDbEntity
  8
0
  6
Continuous
 62
     2
100
AcDbCircle
 10
-60.53146922841759
 20
14.85990054520033
 30
0.0
 40
0.9118975235576194
100
AcDbArc
 50
115.1944106485281
 51
244.8055893514878
  0
ARC
  5
455
102
{ACAD_REACTORS
330
4A9
330
4AA
102
}
330
71
100
AcDbEntity
  8
0
  6
Continuous
 62
     2
100
AcDbCircle
 10
-62.5298869370022
 20
16.57475491032304
 30
0.0
 40
0.315716923076188
100
AcDbArc
 50
90.0
 51
180.0
  0
ARC
  5
456
102
{ACAD_REACTORS
330
4A3
330
4A4
102
}
330
71
100
AcDbEntity
  8
0
  6
Continuous
 62
     2
100
AcDbCircle
 10
-55.19130835498518
 20
16.58705771884664
 30
0.0
 40
0.3528638246711218
100
AcDbArc
 50
270.0
 51
90.0
  0
ARC
  5
457
102
{ACAD_REACTORS
330
4A7
330
4A8
102
}
330
71
100
AcDbEntity
  8
0
  6
Continuous
 62
     2
100
AcDbCircle
 10
-48.4486176097594
 20
16.07612262705194
 30
0.0
 40
1.52690476190589
100
AcDbArc
 50
90.0
 51
270.0
  0
ARC
  5
458
102
{ACAD_REACTORS
330
4AB
330
4AC
102
}
330
71
100
AcDbEntity
  8
0
  6
Continuous
 62
     2
100
AcDbCircle
 10
-39.02162251705568
 20
12.60414178884273
 30
0.0
 40
1.639695123940211
100
AcDbArc
 50
90.0
 51
164.938108222895
  0
ARC
  5
459
102
{ACAD_REACTORS
330
4AB
330
4AC
102
}
330
71
100
AcDbEntity
  8
0
  6
Continuous
 62
     2
100
AcDbCircle
 10
-39.44075036051729
 20
12.71693215087763
 30
0.0
 40
1.205656168392995
100
AcDbArc
 50
164.9381082229028
 51
195.0618917770963
  0
ARC
  5
45A
102
{ACAD_REACTORS
330
4AB
330
4AC
102
}
330
71
100
AcDbEntity
  8
0
  6
Continuous
 62
     2
100
AcDbCircle
 10
-38.89087803573989
 20
12.51186072153914
 30
0.0
 40
0.511580060196027
100
AcDbArc
 50
208.521473257686
 51
246.6277221118451
  0
ARC
  5
45B
102
{ACAD_REACTORS
330
4AB
330
4AC
102
}
330
71
100
AcDbEntity
  8
0
  6
Continuous
 62
     2
100
AcDbCircle
 10
-38.89087803573989
 20
12.92200358021663
 30
0.0
 40
0.5115800601944069
100
AcDbArc
 50
109.3371432194847
 51
151.4785267424232
  0
ARC
  5
45C
102
{ACAD_REACTORS
330
4A9
330
4AA
102
}
330
71
100
AcDbEntity
  8
0
  6
Continuous
 62
     2
100
AcDbCircle
 10
-59.9543382504705
 20
13.16890753853684
 30
0.0
 40
0.315716923076792
100
AcDbArc
 50
180.0
 51
269.8110329574542
  0
ARC
  5
45D
102
{ACAD_REACTORS
330
4A9
330
4AA
102
}
330
71
100
AcDbEntity
  8
0
  6
Continuous
 62
     2
100
AcDbCircle
 10
-59.94872211516048
 20
14.87174248610583
 30
0.0
 40
2.018561131933267
100
AcDbArc
 50
269.8110329575858
 51
90.18896704241416
  0
ARC
  5
45E
102
{ACAD_REACTORS
330
4A9
330
4AA
102
}
330
71
100
AcDbEntity
  8
0
  6
Continuous
 62
     2
100
AcDbCircle
 10
-59.9543382504705
 20
15.96904214516815
 30
0.0
 40
0.315716923076792
100
AcDbArc
 50
180.0
 51
244.6259913216471
  0
ARC
  5
45F
102
{ACAD_REACTORS
330
4A9
330
4AA
102
}
330
71
100
AcDbEntity
  8
0
  6
Continuous
 62
     2
100
AcDbCircle
 10
-59.9543382504705
 20
13.75075894523192
 30
0.0
 40
0.3157169230765374
100
AcDbArc
 50
115.3740086783529
 51
180.0
  0
ARC
  5
460
102
{ACAD_REACTORS
330
4AD
330
4AE
102
}
330
71
100
AcDbEntity
  8
0
  6
Continuous
 62
     2
100
AcDbCircle
 10
-55.12432399630859
 20
12.60414178884273
 30
0.0
 40
1.639695123940505
100
AcDbArc
 50
84.84185523036236
 51
164.9381082228866
  0
ARC
  5
461
102
{ACAD_REACTORS
330
4AD
330
4AE
102
}
330
71
100
AcDbEntity
  8
0
  6
Continuous
 62
     2
100
AcDbCircle
 10
-55.54345183977139
 20
12.71693215087763
 30
0.0
 40
1.205656168390951
100
AcDbArc
 50
164.9381082228766
 51
195.0618917770949
  0
ARC
  5
462
102
{ACAD_REACTORS
330
4AD
330
4AE
102
}
330
71
100
AcDbEntity
  8
0
  6
Continuous
 62
     2
100
AcDbCircle
 10
-55.12432399630859
 20
12.82972251291244
 30
0.0
 40
1.639695123939394
100
AcDbArc
 50
195.0618917770894
 51
275.1581447696395
  0
ARC
  5
463
102
{ACAD_REACTORS
330
4AD
330
4AE
102
}
330
71
100
AcDbEntity
  8
0
  6
Continuous
 62
     2
100
AcDbCircle
 10
-55.4131800910445
 20
16.02961309613403
 30
0.0
 40
4.852596863498137
100
AcDbArc
 50
275.158144769625
 51
285.9799912583529
  0
ARC
  5
464
102
{ACAD_REACTORS
330
4AD
330
4AE
102
}
330
71
100
AcDbEntity
  8
0
  6
Continuous
 62
     2
100
AcDbCircle
 10
-54.61622225691249
 20
12.71693215087763
 30
0.0
 40
0.9410597353332545
100
AcDbArc
 50
151.4785267422669
 51
208.5214732577058
  0
ARC
  5
465
102
{ACAD_REACTORS
330
4AD
330
4AE
102
}
330
71
100
AcDbEntity
  8
0
  6
Continuous
 62
     2
100
AcDbCircle
 10
-54.9935795149928
 20
12.92200358021663
 30
0.0
 40
0.5115800601948697
100
AcDbArc
 50
113.3722778881995
 51
151.4785267423044
  0
ARC
  5
466
102
{ACAD_REACTORS
330
4AD
330
4AE
102
}
330
71
100
AcDbEntity
  8
0
  6
Continuous
 62
     2
100
AcDbCircle
 10
-55.25530721595158
 20
11.30646578546944
 30
0.0
 40
2.227384008973484
100
AcDbArc
 50
58.06909105004083
 51
71.55192388186705
  0
ARC
  5
467
102
{ACAD_REACTORS
330
4A5
330
4A6
102
}
330
71
100
AcDbEntity
  8
0
  6
Continuous
 62
     2
100
AcDbCircle
 10
-52.19329308038769
 20
12.87366332899813
 30
0.0
 40
0.5179085730133021
100
AcDbArc
 50
38.12041979714734
 51
141.8795802028585
  0
ARC
  5
468
102
{ACAD_REACTORS
330
4A5
330
4A6
102
}
330
71
100
AcDbEntity
  8
0
  6
Continuous
 62
     2
100
AcDbCircle
 10
-51.99355304404159
 20
12.71693215087763
 30
0.0
 40
0.7717997786794599
100
AcDbArc
 50
141.8795802028366
 51
218.1204197971687
  0
ARC
  5
469
102
{ACAD_REACTORS
330
4A5
330
4A6
102
}
330
71
100
AcDbEntity
  8
0
  6
Continuous
 62
     2
100
AcDbCircle
 10
-52.19329308038769
 20
12.56020097275763
 30
0.0
 40
0.5179085730137332
100
AcDbArc
 50
218.1204197971929
 51
321.8795802028013
  0
ARC
  5
46A
102
{ACAD_REACTORS
330
4A5
330
4A6
102
}
330
71
100
AcDbEntity
  8
0
  6
Continuous
 62
     2
100
AcDbCircle
 10
-52.3930331167341
 20
12.71693215087763
 30
0.0
 40
0.7717997786796947
100
AcDbArc
 50
321.8795802028417
 51
38.12041979715298
  0
CIRCLE
  5
46B
330
71
100
AcDbEntity
  8
1
  6
Continuous
 62
     2
100
AcDbCircle
 10
-55.04802622913149
 20
25.02152738895595
 30
0.0
 40
2.5
  0
CIRCLE
  5
46C
330
71
100
AcDbEntity
  8
1
  6
Continuous
 62
     2
100
AcDbCircle
 10
-55.04802622913149
 20
25.02152738895595
 30
0.0
 40
1.249999999999908
  0
CIRCLE
  5
46D
102
{ACAD_REACTORS
330
4A9
330
4AA
102
}
330
71
100
AcDbEntity
  8
0
  6
Continuous
 62
     2
100
AcDbCircle
 10
-60.50419596323118
 20
14.85990054520033
 30
0.0
 40
0.4709789327785003
  0
MTEXT
  5
46E
330
71
100
AcDbEntity
  8
1
 62
     3
100
AcDbMText
 10
-225.2348088028723
 20
190.6878355442548
 30
0.0
 40
1.8
 41
0.0
 71
     7
 72
     1
  3
Weitergabe sowie Vervielf\U+00e4ltigung dieses Dokuments, Verwertung und \PMitteilung seines Inhalts sind verboten, soweit nicht ausdr\U+00fccklich gestattet. \PZuwiderhandlungen verpflichten zu Schadenersatz. Alle Rechte f\U+00fcr den Fall\Pder Pat
  1
ent-, Gebrauchsmuster- oder Designeintragung vorbehalten.
  7
CONVERTER_11
 73
     1
 44
0.99639855942377
  0
MTEXT
  5
46F
330
71
100
AcDbEntity
  8
1
 62
     3
100
AcDbMText
 10
-42.38169896408419
 20
190.6878355442548
 30
0.0
 40
1.8
 41
0.0
 71
     7
 72
     1
  3
Transfer or duplication of this document as well as the utilisation or\Pcommunication of its content are not permitted unless express consent\Pis granted. Violations give rise to claims for damages. All rights reserved\Pin case of patent, utility mo
  1
del or design patent registrations.
  7
CONVERTER_11
 73
     1
 44
0.99639855942377
  0
TEXT
  5
470
330
71
100
AcDbEntity
  8
1
 62
     2
100
AcDbText
 10
-48.58468111569428
 20
5.13751017396442
 30
0.0
 40
1.8
  1
of
 41
0.9
  7
CONVERTER_11
100
AcDbText
  0
TEXT
  5
471
330
71
100
AcDbEntity
  8
1
 62
     2
100
AcDbText
 10
-66.7846811156941
 20
5.13751017396436
 30
0.0
 40
1.8
  1
page
 41
0.9
  7
CONVERTER_11
100
AcDbText
  0
TEXT
  5
472
330
71
100
AcDbEntity
  8
1
 62
     2
100
AcDbText
 10
-58.1384161453521
 20
5.09727873515402
 30
0.0
 40
1.8
  1
1
 41
0.9
  7
CONVERTER_11
100
AcDbText
  0
TEXT
  5
473
330
71
100
AcDbEntity
  8
1
 62
     2
100
AcDbText
 10
-43.34937230588059
 20
5.14652738895592
 30
0.0
 40
1.8
  1
1
 41
0.9
  7
CONVERTER_11
100
AcDbText
  0
MTEXT
  5
475
330
71
100
AcDbEntity
  8
1
 62
     7
100
AcDbMText
 10
15.1877211476814
 20
7.14652738895626
 30
0.0
 40
3.0
 41
0.0
 71
     5
 72
     1
  1
PP-H 4/ 1-L GNYE
  7
CONVERTER_12
 73
     1
 44
1.20048019207683
  0
MTEXT
  5
476
330
71
100
AcDbEntity
  8
1
 62
     2
100
AcDbMText
 10
-30.38468111569418
 20
11.39652738895603
 30
0.0
 40
1.8
 41
0.0
 71
     1
 72
     1
  1
description
  7
CONVERTER_11
 73
     1
 44
1.20048019207683
  0
MTEXT
  5
477
330
71
100
AcDbEntity
  8
1
 62
     3
100
AcDbMText
 10
-41.5846811156942
 20
25.02152738895603
 30
0.0
 40
2.5
 41
0.0
 71
     5
 72
     1
  1
DIN A4
  7
CONVERTER_11
 73
     1
 44
1.20048019207683
  0
MTEXT
  5
478
330
71
100
AcDbEntity
  8
1
 62
     7
100
AcDbMText
 10
-227.7398765889432
 20
26.39652738895603
 30
0.0
 40
3.5
 41
0.0
 71
     5
 72
     1
  1
D
  7
CONVERTER_11
 73
     1
 44
1.20048019207683
  0
MTEXT
  5
479
330
71
100
AcDbEntity
  8
1
 62
     7
100
AcDbMText
 10
-227.7398765889432
 20
78.89652738895603
 30
0.0
 40
3.5
 41
0.0
 71
     5
 72
     1
  1
C
  7
CONVERTER_11
 73
     1
 44
1.20048019207683
  0
MTEXT
  5
47A
330
71
100
AcDbEntity
  8
1
 62
     7
100
AcDbMText
 10
-227.7398765889432
 20
128.896527388956
 30
0.0
 40
3.5
 41
0.0
 71
     5
 72
     1
  1
B
  7
CONVERTER_11
 73
     1
 44
1.20048019207683
  0
MTEXT
  5
47B
330
71
100
AcDbEntity
  8
1
 62
     7
100
AcDbMText
 10
-227.7398765889432
 20
181.396527388956
 30
0.0
 40
3.5
 41
0.0
 71
     5
 72
     1
  1
A
  7
CONVERTER_11
 73
     1
 44
1.20048019207683
  0
MTEXT
  5
47C
330
71
100
AcDbEntity
  8
1
 62
     7
100
AcDbMText
 10
42.51012341105511
 20
1.39652738895592
 30
0.0
 40
3.5
 41
0.0
 71
     5
 72
     1
  1
6
  7
CONVERTER_11
 73
     1
 44
1.20048019207683
  0
MTEXT
  5
47D
330
71
100
AcDbEntity
  8
1
 62
     7
100
AcDbMText
 10
-6.7398765889441
 20
1.39652738895592
 30
0.0
 40
3.5
 41
0.0
 71
     5
 72
     1
  1
5
  7
CONVERTER_11
 73
     1
 44
1.20048019207683
  0
MTEXT
  5
47E
330
71
100
AcDbEntity
  8
1
 62
     7
100
AcDbMText
 10
-56.73987658894419
 20
1.39652738895592
 30
0.0
 40
3.5
 41
0.0
 71
     5
 72
     1
  1
4
  7
CONVERTER_11
 73
     1
 44
1.20048019207683
  0
MTEXT
  5
47F
330
71
100
AcDbEntity
  8
1
 62
     7
100
AcDbMText
 10
-106.7398765889441
 20
1.39652738895592
 30
0.0
 40
3.5
 41
0.0
 71
     5
 72
     1
  1
3
  7
CONVERTER_11
 73
     1
 44
1.20048019207683
  0
MTEXT
  5
480
330
71
100
AcDbEntity
  8
1
 62
     7
100
AcDbMText
 10
-156.7398765889441
 20
1.39652738895592
 30
0.0
 40
3.5
 41
0.0
 71
     5
 72
     1
  1
2
  7
CONVERTER_11
 73
     1
 44
1.20048019207683
  0
MTEXT
  5
481
330
71
100
AcDbEntity
  8
1
 62
     7
100
AcDbMText
 10
-205.9898765889437
 20
1.39652738895592
 30
0.0
 40
3.5
 41
0.0
 71
     5
 72
     1
  1
1
  7
CONVERTER_11
 73
     1
 44
1.20048019207683
  0
MTEXT
  5
482
330
71
100
AcDbEntity
  8
1
 62
     7
100
AcDbMText
 10
64.2601234110549
 20
26.39652738895603
 30
0.0
 40
3.5
 41
0.0
 71
     5
 72
     1
  1
D
  7
CONVERTER_11
 73
     1
 44
1.20048019207683
  0
MTEXT
  5
483
330
71
100
AcDbEntity
  8
1
 62
     7
100
AcDbMText
 10
64.2601234110549
 20
128.8965273889579
 30
0.0
 40
3.5
 41
0.0
 71
     5
 72
     1
  1
B
  7
CONVERTER_11
 73
     1
 44
1.20048019207683
  0
MTEXT
  5
484
330
71
100
AcDbEntity
  8
1
 62
     7
100
AcDbMText
 10
64.2601234110549
 20
181.396527388956
 30
0.0
 40
3.5
 41
0.0
 71
     5
 72
     1
  1
A
  7
CONVERTER_11
 73
     1
 44
1.20048019207683
  0
MTEXT
  5
485
330
71
100
AcDbEntity
  8
1
 62
     7
100
AcDbMText
 10
64.2601234110549
 20
78.89652738895794
 30
0.0
 40
3.5
 41
0.0
 71
     5
 72
     1
  1
C
  7
CONVERTER_11
 73
     1
 44
1.20048019207683
  0
MTEXT
  5
486
330
71
100
AcDbEntity
  8
1
 62
     2
100
AcDbMText
 10
-102.2226958407416
 20
16.64652738895595
 30
0.0
 40
2.0
 41
0.0
 71
     5
 72
     1
  1
General Information\P- Simplified representation\P- Document excluded from change process\P- Linear dimensions [mm]
  7
CONVERTER_11
 73
     1
 44
1.20048019207683
  0
TEXT
  5
487
330
71
100
AcDbEntity
  8
1
 62
     7
100
AcDbText
 10
-29.88468111569438
 20
13.69652738895593
 30
0.0
 40
2.5
  1
3211958
 41
0.81
  7
CONVERTER_12
100
AcDbText
  0
MTEXT
  5
488
330
71
100
AcDbEntity
  8
1
 62
     2
100
AcDbMText
 10
-30.2846811156941
 20
19.89652738895603
 30
0.0
 40
1.8
 41
0.0
 71
     1
 72
     1
  1
ident.-No.
  7
CONVERTER_11
 73
     1
 44
1.20048019207683
  0
MTEXT
  5
489
330
71
100
AcDbEntity
  8
1
 62
     2
100
AcDbMText
 10
53.94171512937862
 20
28.39652738895603
 30
0.0
 40
1.8
 41
0.0
 71
     1
 72
     1
  1
scale
  7
CONVERTER_11
 73
     1
 44
1.20048019207683
  0
MTEXT
  5
48B
330
71
100
AcDbEntity
  8
1
 62
     3
100
AcDbMText
 10
57.30091927021822
 20
22.19652738895613
 30
0.0
 40
2.5
 41
0.0
 71
     8
 72
     1
  1
1:1
  7
CONVERTER_13
 73
     1
 44
1.32052821128451
  0
TEXT
  5
48C
330
71
100
AcDbEntity
  8
1
 62
     7
100
AcDbText
 10
-30.2846811156941
 20
22.19652738895593
 30
0.0
 40
2.5
  1
00697752
 41
0.81
  7
CONVERTER_12
100
AcDbText
  0
MTEXT
  5
48E
330
71
100
AcDbEntity
  8
1
 62
     2
100
AcDbMText
 10
-30.2846811156941
 20
28.39652738895603
 30
0.0
 40
1.8
 41
0.0
 71
     1
 72
     1
  1
document-No. / RI
  7
CONVERTER_14
 73
     1
 44
1.32052821128451
  0
TEXT
  5
48F
330
71
100
AcDbEntity
  8
1
 62
     3
100
AcDbText
 10
-2.48468111569409
 20
13.69652738895593
 30
0.0
 40
2.5
  1
 
 41
0.81
  7
CONVERTER_12
100
AcDbText
  0
MTEXT
  5
490
330
71
100
AcDbEntity
  8
1
 62
     2
100
AcDbMText
 10
-2.48468111569409
 20
19.89652738895595
 30
0.0
 40
1.8
 41
0.0
 71
     1
 72
     1
  1
document-type
  7
CONVERTER_11
 73
     1
 44
1.20048019207683
  0
MTEXT
  5
491
330
71
100
AcDbEntity
  8
1
 62
     2
100
AcDbMText
 10
27.3417151293788
 20
28.39652738895595
 30
0.0
 40
1.8
 41
0.0
 71
     1
 72
     1
  1
date
  7
CONVERTER_11
 73
     1
 44
1.32052821128451
  0
TEXT
  5
492
330
71
100
AcDbEntity
  8
1
 62
     3
100
AcDbText
 10
27.3417151293788
 20
22.19652738895593
 30
0.0
 40
2.5
  1
09.01.2018
 41
0.81
  7
CONVERTER_12
100
AcDbText
  0
TEXT
  5
493
330
71
100
AcDbEntity
  8
1
 62
     7
100
AcDbText
 10
-10.2547688966383
 20
22.19652738895593
 30
0.0
 40
2.5
  1
01
 41
0.81
  7
CONVERTER_12
100
AcDbText
  0
TEXT
  5
494
330
71
100
AcDbEntity
  8
1
 62
     7
100
AcDbText
 10
-12.4111333936803
 20
22.19652738895593
 30
0.0
 40
2.5
  1
/
 41
0.9
  7
CONVERTER_11
100
AcDbText
  0
HATCH
  5
495
330
71
100
AcDbEntity
  8
1
  6
Continuous
 62
     2
100
AcDbHatch
 10
0.0
 20
0.0
 30
0.0
210
0.0
220
0.0
230
1.0
  2
_USER
 70
     0
 71
     1
 91
        1
 92
        1
 93
       12
 72
     1
 10
-50.117180402733
 20
14.54921786514663
 11
-51.3099731048994
 21
14.54921786514663
 72
     1
 10
-51.3099731048994
 20
14.54921786514663
 11
-51.3099731048994
 21
15.68348997399045
 72
     1
 10
-51.3099731048994
 20
15.68348997399045
 11
-52.35963068280688
 21
15.68348997399045
 72
     1
 10
-52.35963068280688
 20
15.68348997399045
 11
-52.35963068280688
 21
14.54921786514663
 72
     1
 10
-52.35963068280688
 20
14.54921786514663
 11
-53.55242338497348
 21
14.54921786514663
 72
     1
 10
-53.55242338497348
 20
14.54921786514663
 11
-53.55242338497348
 21
17.60302738895783
 72
     1
 10
-53.55242338497348
 20
17.60302738895783
 11
-52.35963068280688
 21
17.60302738895783
 72
     1
 10
-52.35963068280688
 20
17.60302738895783
 11
-52.35963068280688
 21
16.53419405562323
 72
     1
 10
-52.35963068280688
 20
16.53419405562323
 11
-51.3099731048994
 21
16.53419405562323
 72
     1
 10
-51.3099731048994
 20
16.53419405562323
 11
-51.3099731048994
 21
17.60302738895783
 72
     1
 10
-51.3099731048994
 20
17.60302738895783
 11
-50.117180402733
 21
17.60302738895783
 72
     1
 10
-50.117180402733
 20
17.60302738895783
 11
-50.117180402733
 21
14.54921786514663
 97
       12
330
402
330
403
330
3ED
330
3EC
330
3EB
330
3FF
330
3EA
330
400
330
401
330
3E9
330
3E8
330
3E7
 75
     1
 76
     0
 52
45.0
 41
0.1
 77
     0
 78
     1
 53
45.0
 43
0.0
 44
0.0
 45
-0.0707106781186548
 46
0.0707106781186548
 79
     0
 98
        1
 10
0.0
 20
0.0
  0
HATCH
  5
496
330
71
100
AcDbEntity
  8
1
  6
Continuous
 62
     2
100
AcDbHatch
 10
0.0
 20
0.0
 30
0.0
210
0.0
220
0.0
230
1.0
  2
_USER
 70
     0
 71
     1
 91
        1
 92
        1
 93
       12
 72
     1
 10
-50.117180402733
 20
14.54921786514663
 11
-51.3099731048994
 21
14.54921786514663
 72
     1
 10
-51.3099731048994
 20
14.54921786514663
 11
-51.3099731048994
 21
15.68348997399045
 72
     1
 10
-51.3099731048994
 20
15.68348997399045
 11
-52.35963068280688
 21
15.68348997399045
 72
     1
 10
-52.35963068280688
 20
15.68348997399045
 11
-52.35963068280688
 21
14.54921786514663
 72
     1
 10
-52.35963068280688
 20
14.54921786514663
 11
-53.55242338497348
 21
14.54921786514663
 72
     1
 10
-53.55242338497348
 20
14.54921786514663
 11
-53.55242338497348
 21
17.60302738895783
 72
     1
 10
-53.55242338497348
 20
17.60302738895783
 11
-52.35963068280688
 21
17.60302738895783
 72
     1
 10
-52.35963068280688
 20
17.60302738895783
 11
-52.35963068280688
 21
16.53419405562323
 72
     1
 10
-52.35963068280688
 20
16.53419405562323
 11
-51.3099731048994
 21
16.53419405562323
 72
     1
 10
-51.3099731048994
 20
16.53419405562323
 11
-51.3099731048994
 21
17.60302738895783
 72
     1
 10
-51.3099731048994
 20
17.60302738895783
 11
-50.117180402733
 21
17.60302738895783
 72
     1
 10
-50.117180402733
 20
17.60302738895783
 11
-50.117180402733
 21
14.54921786514663
 97
       12
330
402
330
403
330
3ED
330
3EC
330
3EB
330
3FF
330
3EA
330
400
330
401
330
3E9
330
3E8
330
3E7
 75
     1
 76
     0
 52
45.0
 41
0.1
 77
     0
 78
     1
 53
45.0
 43
0.0
 44
0.0
 45
-0.0707106781186548
 46
0.0707106781186548
 79
     0
 98
        1
 10
0.0
 20
0.0
  0
HATCH
  5
497
330
71
100
AcDbEntity
  8
1
  6
Continuous
 62
     2
100
AcDbHatch
 10
0.0
 20
0.0
 30
0.0
210
0.0
220
0.0
230
1.0
  2
_USER
 70
     0
 71
     1
 91
        1
 92
        1
 93
       10
 72
     1
 10
-47.8748810535447
 20
12.93506140257833
 11
-49.11538546379759
 21
14.24383691278342
 72
     1
 10
-49.11538546379759
 20
14.24383691278342
 11
-50.30817816596519
 21
14.24383691278342
 72
     1
 10
-50.30817816596519
 20
14.24383691278342
 11
-50.30817816596519
 21
11.19002738897234
 72
     1
 10
-50.30817816596519
 20
11.19002738897234
 11
-49.11538546379759
 21
11.19002738897234
 72
     1
 10
-49.11538546379759
 20
11.19002738897234
 11
-49.11538546379759
 21
12.49880289917692
 72
     1
 10
-49.11538546379759
 20
12.49880289917692
 11
-47.8748810535447
 21
11.19002738897234
 72
     1
 10
-47.8748810535447
 20
11.19002738897234
 11
-46.6820883513783
 21
11.19002738897234
 72
     1
 10
-46.6820883513783
 20
11.19002738897234
 11
-46.6820883513783
 21
14.24383691278342
 72
     1
 10
-46.6820883513783
 20
14.24383691278342
 11
-47.8748810535447
 21
14.24383691278342
 72
     1
 10
-47.8748810535447
 20
14.24383691278342
 11
-47.8748810535447
 21
12.93506140257833
 97
       10
330
410
330
3E0
330
3DF
330
3E2
330
40B
330
40C
330
3E1
330
40D
330
40E
330
40F
 75
     1
 76
     0
 52
45.0
 41
0.1
 77
     0
 78
     1
 53
45.0
 43
0.0
 44
0.0
 45
-0.0707106781186548
 46
0.0707106781186548
 79
     0
 98
        1
 10
0.0
 20
0.0
  0
HATCH
  5
498
330
71
100
AcDbEntity
  8
1
  6
Continuous
 62
     2
100
AcDbHatch
 10
0.0
 20
0.0
 30
0.0
210
0.0
220
0.0
230
1.0
  2
_USER
 70
     0
 71
     1
 91
        1
 92
        1
 93
       10
 72
     1
 10
-47.8748810535447
 20
12.93506140257833
 11
-49.11538546379759
 21
14.24383691278342
 72
     1
 10
-49.11538546379759
 20
14.24383691278342
 11
-50.30817816596519
 21
14.24383691278342
 72
     1
 10
-50.30817816596519
 20
14.24383691278342
 11
-50.30817816596519
 21
11.19002738897234
 72
     1
 10
-50.30817816596519
 20
11.19002738897234
 11
-49.11538546379759
 21
11.19002738897234
 72
     1
 10
-49.11538546379759
 20
11.19002738897234
 11
-49.11538546379759
 21
12.49880289917692
 72
     1
 10
-49.11538546379759
 20
12.49880289917692
 11
-47.8748810535447
 21
11.19002738897234
 72
     1
 10
-47.8748810535447
 20
11.19002738897234
 11
-46.6820883513783
 21
11.19002738897234
 72
     1
 10
-46.6820883513783
 20
11.19002738897234
 11
-46.6820883513783
 21
14.24383691278342
 72
     1
 10
-46.6820883513783
 20
14.24383691278342
 11
-47.8748810535447
 21
14.24383691278342
 72
     1
 10
-47.8748810535447
 20
14.24383691278342
 11
-47.8748810535447
 21
12.93506140257833
 97
       10
330
410
330
3E0
330
3DF
330
3E2
330
40B
330
40C
330
3E1
330
40D
330
40E
330
40F
 75
     1
 76
     0
 52
45.0
 41
0.1
 77
     0
 78
     1
 53
45.0
 43
0.0
 44
0.0
 45
-0.0707106781186548
 46
0.0707106781186548
 79
     0
 98
        1
 10
0.0
 20
0.0
  0
HATCH
  5
499
330
71
100
AcDbEntity
  8
1
  6
Continuous
 62
     2
100
AcDbHatch
 10
0.0
 20
0.0
 30
0.0
210
0.0
220
0.0
230
1.0
  2
_USER
 70
     0
 71
     1
 91
        1
 92
        1
 93
       10
 72
     1
 10
-42.62644223312498
 20
16.29425187875265
 11
-43.86694664337898
 21
17.60302738895783
 72
     1
 10
-43.86694664337898
 20
17.60302738895783
 11
-45.0597393455455
 21
17.60302738895783
 72
     1
 10
-45.0597393455455
 20
17.60302738895783
 11
-45.0597393455455
 21
14.54921786514663
 72
     1
 10
-45.0597393455455
 20
14.54921786514663
 11
-43.86694664337898
 21
14.54921786514663
 72
     1
 10
-43.86694664337898
 20
14.54921786514663
 11
-43.86694664337898
 21
15.85799337535133
 72
     1
 10
-43.86694664337898
 20
15.85799337535133
 11
-42.62644223312498
 21
14.54921786514663
 72
     1
 10
-42.62644223312498
 20
14.54921786514663
 11
-41.43364953095838
 21
14.54921786514663
 72
     1
 10
-41.43364953095838
 20
14.54921786514663
 11
-41.43364953095838
 21
17.60302738895783
 72
     1
 10
-41.43364953095838
 20
17.60302738895783
 11
-42.62644223312498
 21
17.60302738895783
 72
     1
 10
-42.62644223312498
 20
17.60302738895783
 11
-42.62644223312498
 21
16.29425187875265
 97
       10
330
415
330
3DD
330
3DC
330
416
330
3DB
330
411
330
412
330
413
330
414
330
3DE
 75
     1
 76
     0
 52
45.0
 41
0.1
 77
     0
 78
     1
 53
45.0
 43
0.0
 44
0.0
 45
-0.0707106781186548
 46
0.0707106781186548
 79
     0
 98
        1
 10
0.0
 20
0.0
  0
HATCH
  5
49A
330
71
100
AcDbEntity
  8
1
  6
Continuous
 62
     2
100
AcDbHatch
 10
0.0
 20
0.0
 30
0.0
210
0.0
220
0.0
230
1.0
  2
_USER
 70
     0
 71
     1
 91
        1
 92
        1
 93
       10
 72
     1
 10
-42.62644223312498
 20
16.29425187875265
 11
-43.86694664337898
 21
17.60302738895783
 72
     1
 10
-43.86694664337898
 20
17.60302738895783
 11
-45.0597393455455
 21
17.60302738895783
 72
     1
 10
-45.0597393455455
 20
17.60302738895783
 11
-45.0597393455455
 21
14.54921786514663
 72
     1
 10
-45.0597393455455
 20
14.54921786514663
 11
-43.86694664337898
 21
14.54921786514663
 72
     1
 10
-43.86694664337898
 20
14.54921786514663
 11
-43.86694664337898
 21
15.85799337535133
 72
     1
 10
-43.86694664337898
 20
15.85799337535133
 11
-42.62644223312498
 21
14.54921786514663
 72
     1
 10
-42.62644223312498
 20
14.54921786514663
 11
-41.43364953095838
 21
14.54921786514663
 72
     1
 10
-41.43364953095838
 20
14.54921786514663
 11
-41.43364953095838
 21
17.60302738895783
 72
     1
 10
-41.43364953095838
 20
17.60302738895783
 11
-42.62644223312498
 21
17.60302738895783
 72
     1
 10
-42.62644223312498
 20
17.60302738895783
 11
-42.62644223312498
 21
16.29425187875265
 97
       10
330
415
330
3DD
330
3DC
330
416
330
3DB
330
411
330
412
330
413
330
414
330
3DE
 75
     1
 76
     0
 52
45.0
 41
0.1
 77
     0
 78
     1
 53
45.0
 43
0.0
 44
0.0
 45
-0.0707106781186548
 46
0.0707106781186548
 79
     0
 98
        1
 10
0.0
 20
0.0
  0
HATCH
  5
49B
330
71
100
AcDbEntity
  8
1
  6
Continuous
 62
     2
100
AcDbHatch
 10
0.0
 20
0.0
 30
0.0
210
0.0
220
0.0
230
1.0
  2
_USER
 70
     0
 71
     1
 91
        1
 92
        1
 93
        8
 72
     1
 10
-43.72396245000448
 20
14.24383691278342
 11
-46.5389532271181
 21
14.24383691278342
 72
     1
 10
-46.5389532271181
 20
14.24383691278342
 11
-46.5389532271181
 21
13.45857160665983
 72
     1
 10
-46.5389532271181
 20
13.45857160665983
 11
-45.72785418964349
 21
13.45857160665983
 72
     1
 10
-45.72785418964349
 20
13.45857160665983
 11
-45.72785418964349
 21
11.19002738897234
 72
     1
 10
-45.72785418964349
 20
11.19002738897234
 11
-44.53506148747698
 21
11.19002738897234
 72
     1
 10
-44.53506148747698
 20
11.19002738897234
 11
-44.53506148747698
 21
13.45857160665983
 72
     1
 10
-44.53506148747698
 20
13.45857160665983
 11
-43.72396245000448
 21
13.45857160665983
 72
     1
 10
-43.72396245000448
 20
13.45857160665983
 11
-43.72396245000448
 21
14.24383691278342
 97
        8
330
3D7
330
417
330
3D6
330
418
330
419
330
3DA
330
3D9
330
3D8
 75
     1
 76
     0
 52
45.0
 41
0.1
 77
     0
 78
     1
 53
45.0
 43
0.0
 44
0.0
 45
-0.0707106781186548
 46
0.0707106781186548
 79
     0
 98
        1
 10
0.0
 20
0.0
  0
HATCH
  5
49C
330
71
100
AcDbEntity
  8
1
  6
Continuous
 62
     2
100
AcDbHatch
 10
0.0
 20
0.0
 30
0.0
210
0.0
220
0.0
230
1.0
  2
_USER
 70
     0
 71
     1
 91
        1
 92
        1
 93
        8
 72
     1
 10
-43.72396245000448
 20
14.24383691278342
 11
-46.5389532271181
 21
14.24383691278342
 72
     1
 10
-46.5389532271181
 20
14.24383691278342
 11
-46.5389532271181
 21
13.45857160665983
 72
     1
 10
-46.5389532271181
 20
13.45857160665983
 11
-45.72785418964349
 21
13.45857160665983
 72
     1
 10
-45.72785418964349
 20
13.45857160665983
 11
-45.72785418964349
 21
11.19002738897234
 72
     1
 10
-45.72785418964349
 20
11.19002738897234
 11
-44.53506148747698
 21
11.19002738897234
 72
     1
 10
-44.53506148747698
 20
11.19002738897234
 11
-44.53506148747698
 21
13.45857160665983
 72
     1
 10
-44.53506148747698
 20
13.45857160665983
 11
-43.72396245000448
 21
13.45857160665983
 72
     1
 10
-43.72396245000448
 20
13.45857160665983
 11
-43.72396245000448
 21
14.24383691278342
 97
        8
330
3D7
330
417
330
3D6
330
418
330
419
330
3DA
330
3D9
330
3D8
 75
     1
 76
     0
 52
45.0
 41
0.1
 77
     0
 78
     1
 53
45.0
 43
0.0
 44
0.0
 45
-0.0707106781186548
 46
0.0707106781186548
 79
     0
 98
        1
 10
0.0
 20
0.0
  0
HATCH
  5
49D
330
71
100
AcDbEntity
  8
1
  6
Continuous
 62
     2
100
AcDbHatch
 10
0.0
 20
0.0
 30
0.0
210
0.0
220
0.0
230
1.0
  2
_USER
 70
     0
 71
     1
 91
        2
 92
        1
 93
        8
 72
     1
 10
-41.5855349940575
 20
11.19002738897234
 11
-41.79701504753328
 21
11.73098793319022
 72
     1
 10
-41.79701504753328
 20
11.73098793319022
 11
-42.92945662420709
 21
11.73098793319022
 72
     1
 10
-42.92945662420709
 20
11.73098793319022
 11
-43.1409366776829
 21
11.19002738897234
 72
     1
 10
-43.1409366776829
 20
11.19002738897234
 11
-44.38144108793588
 21
11.19002738897234
 72
     1
 10
-44.38144108793588
 20
11.19002738897234
 11
-42.98348804099658
 21
14.24383691278342
 72
     1
 10
-42.98348804099658
 20
14.24383691278342
 11
-41.74298363074388
 21
14.24383691278342
 72
     1
 10
-41.74298363074388
 20
14.24383691278342
 11
-40.34503058380358
 21
11.19002738897234
 72
     1
 10
-40.34503058380358
 20
11.19002738897234
 11
-41.5855349940575
 21
11.19002738897234
 97
        8
330
41B
330
41C
330
3D3
330
41D
330
3D2
330
3D5
330
41A
330
3D4
 92
       16
 93
        3
 72
     1
 10
-42.66340107306209
 20
12.41155119849682
 11
-42.36323583586969
 21
13.17936616448353
 72
     1
 10
-42.36323583586969
 20
13.17936616448353
 11
-42.06307059867959
 21
12.41155119849682
 72
     1
 10
-42.06307059867959
 20
12.41155119849682
 11
-42.66340107306209
 21
12.41155119849682
 97
        3
330
3D1
330
41F
330
41E
 75
     1
 76
     0
 52
45.0
 41
0.1
 77
     0
 78
     1
 53
45.0
 43
0.0
 44
0.0
 45
-0.0707106781186548
 46
0.0707106781186548
 79
     0
 98
        1
 10
0.0
 20
0.0
  0
HATCH
  5
49E
330
71
100
AcDbEntity
  8
1
  6
Continuous
 62
     2
100
AcDbHatch
 10
0.0
 20
0.0
 30
0.0
210
0.0
220
0.0
230
1.0
  2
_USER
 70
     0
 71
     1
 91
        2
 92
        1
 93
        8
 72
     1
 10
-41.5855349940575
 20
11.19002738897234
 11
-41.79701504753328
 21
11.73098793319022
 72
     1
 10
-41.79701504753328
 20
11.73098793319022
 11
-42.92945662420709
 21
11.73098793319022
 72
     1
 10
-42.92945662420709
 20
11.73098793319022
 11
-43.1409366776829
 21
11.19002738897234
 72
     1
 10
-43.1409366776829
 20
11.19002738897234
 11
-44.38144108793588
 21
11.19002738897234
 72
     1
 10
-44.38144108793588
 20
11.19002738897234
 11
-42.98348804099658
 21
14.24383691278342
 72
     1
 10
-42.98348804099658
 20
14.24383691278342
 11
-41.74298363074388
 21
14.24383691278342
 72
     1
 10
-41.74298363074388
 20
14.24383691278342
 11
-40.34503058380358
 21
11.19002738897234
 72
     1
 10
-40.34503058380358
 20
11.19002738897234
 11
-41.5855349940575
 21
11.19002738897234
 97
        8
330
41B
330
41C
330
3D3
330
41D
330
3D2
330
3D5
330
41A
330
3D4
 92
       16
 93
        3
 72
     1
 10
-42.66340107306209
 20
12.41155119849682
 11
-42.36323583586969
 21
13.17936616448353
 72
     1
 10
-42.36323583586969
 20
13.17936616448353
 11
-42.06307059867959
 21
12.41155119849682
 72
     1
 10
-42.06307059867959
 20
12.41155119849682
 11
-42.66340107306209
 21
12.41155119849682
 97
        3
330
3D1
330
41F
330
41E
 75
     1
 76
     0
 52
45.0
 41
0.1
 77
     0
 78
     1
 53
45.0
 43
0.0
 44
0.0
 45
-0.0707106781186548
 46
0.0707106781186548
 79
     0
 98
        1
 10
0.0
 20
0.0
  0
HATCH
  5
49F
330
71
100
AcDbEntity
  8
1
  6
Continuous
 62
     2
100
AcDbHatch
 10
0.0
 20
0.0
 30
0.0
210
0.0
220
0.0
230
1.0
  2
_USER
 70
     0
 71
     1
 91
        1
 92
        1
 93
        4
 72
     1
 10
-39.95458658027158
 20
14.54921786514663
 11
-41.19509099052448
 21
14.54921786514663
 72
     1
 10
-41.19509099052448
 20
14.54921786514663
 11
-41.19509099052448
 21
17.60302738895783
 72
     1
 10
-41.19509099052448
 20
17.60302738895783
 11
-39.95458658027158
 21
17.60302738895783
 72
     1
 10
-39.95458658027158
 20
17.60302738895783
 11
-39.95458658027158
 21
14.54921786514663
 97
        4
330
3CE
330
3D0
330
420
330
3CF
 75
     1
 76
     0
 52
45.0
 41
0.1
 77
     0
 78
     1
 53
45.0
 43
0.0
 44
0.0
 45
-0.0707106781186548
 46
0.0707106781186548
 79
     0
 98
        1
 10
0.0
 20
0.0
  0
HATCH
  5
4A0
330
71
100
AcDbEntity
  8
1
  6
Continuous
 62
     2
100
AcDbHatch
 10
0.0
 20
0.0
 30
0.0
210
0.0
220
0.0
230
1.0
  2
_USER
 70
     0
 71
     1
 91
        1
 92
        1
 93
        4
 72
     1
 10
-39.95458658027158
 20
14.54921786514663
 11
-41.19509099052448
 21
14.54921786514663
 72
     1
 10
-41.19509099052448
 20
14.54921786514663
 11
-41.19509099052448
 21
17.60302738895783
 72
     1
 10
-41.19509099052448
 20
17.60302738895783
 11
-39.95458658027158
 21
17.60302738895783
 72
     1
 10
-39.95458658027158
 20
17.60302738895783
 11
-39.95458658027158
 21
14.54921786514663
 97
        4
330
3CE
330
3D0
330
420
330
3CF
 75
     1
 76
     0
 52
45.0
 41
0.1
 77
     0
 78
     1
 53
45.0
 43
0.0
 44
0.0
 45
-0.0707106781186548
 46
0.0707106781186548
 79
     0
 98
        1
 10
0.0
 20
0.0
  0
HATCH
  5
4A1
330
71
100
AcDbEntity
  8
1
  6
Continuous
 62
     2
100
AcDbHatch
 10
0.0
 20
0.0
 30
0.0
210
0.0
220
0.0
230
1.0
  2
_USER
 70
     0
 71
     1
 91
        1
 92
        1
 93
       12
 72
     1
 10
-35.73210041460078
 20
17.60302738895783
 11
-37.03463004536729
 21
16.13007685892163
 72
     1
 10
-37.03463004536729
 20
16.13007685892163
 11
-35.63667699842699
 21
14.54921786514663
 72
     1
 10
-35.63667699842699
 20
14.54921786514663
 11
-37.03940121617529
 21
14.54921786514663
 72
     1
 10
-37.03940121617529
 20
14.54921786514663
 11
-37.73599215424079
 21
15.33694965044035
 72
     1
 10
-37.73599215424079
 20
15.33694965044035
 11
-38.43258309230649
 21
14.54921786514663
 72
     1
 10
-38.43258309230649
 20
14.54921786514663
 11
-39.8353073100547
 21
14.54921786514663
 72
     1
 10
-39.8353073100547
 20
14.54921786514663
 11
-38.4373542631144
 21
16.13007685892163
 72
     1
 10
-38.4373542631144
 20
16.13007685892163
 11
-39.73988389388188
 21
17.60302738895783
 72
     1
 10
-39.73988389388188
 20
17.60302738895783
 11
-38.33715967613259
 21
17.60302738895783
 72
     1
 10
-38.33715967613259
 20
17.60302738895783
 11
-37.73599215424079
 21
16.92320406740234
 72
     1
 10
-37.73599215424079
 20
16.92320406740234
 11
-37.134824632348
 21
17.60302738895783
 72
     1
 10
-37.134824632348
 20
17.60302738895783
 11
-35.73210041460078
 21
17.60302738895783
 97
       12
330
3C9
330
3C8
330
3C7
330
424
330
425
330
421
330
422
330
3CD
330
3CC
330
3CB
330
3CA
330
423
 75
     1
 76
     0
 52
45.0
 41
0.1
 77
     0
 78
     1
 53
45.0
 43
0.0
 44
0.0
 45
-0.0707106781186548
 46
0.0707106781186548
 79
     0
 98
        1
 10
0.0
 20
0.0
  0
HATCH
  5
4A2
330
71
100
AcDbEntity
  8
1
  6
Continuous
 62
     2
100
AcDbHatch
 10
0.0
 20
0.0
 30
0.0
210
0.0
220
0.0
230
1.0
  2
_USER
 70
     0
 71
     1
 91
        1
 92
        1
 93
       12
 72
     1
 10
-35.73210041460078
 20
17.60302738895783
 11
-37.03463004536729
 21
16.13007685892163
 72
     1
 10
-37.03463004536729
 20
16.13007685892163
 11
-35.63667699842699
 21
14.54921786514663
 72
     1
 10
-35.63667699842699
 20
14.54921786514663
 11
-37.03940121617529
 21
14.54921786514663
 72
     1
 10
-37.03940121617529
 20
14.54921786514663
 11
-37.73599215424079
 21
15.33694965044035
 72
     1
 10
-37.73599215424079
 20
15.33694965044035
 11
-38.43258309230649
 21
14.54921786514663
 72
     1
 10
-38.43258309230649
 20
14.54921786514663
 11
-39.8353073100547
 21
14.54921786514663
 72
     1
 10
-39.8353073100547
 20
14.54921786514663
 11
-38.4373542631144
 21
16.13007685892163
 72
     1
 10
-38.4373542631144
 20
16.13007685892163
 11
-39.73988389388188
 21
17.60302738895783
 72
     1
 10
-39.73988389388188
 20
17.60302738895783
 11
-38.33715967613259
 21
17.60302738895783
 72
     1
 10
-38.33715967613259
 20
17.60302738895783
 11
-37.73599215424079
 21
16.92320406740234
 72
     1
 10
-37.73599215424079
 20
16.92320406740234
 11
-37.134824632348
 21
17.60302738895783
 72
     1
 10
-37.134824632348
 20
17.60302738895783
 11
-35.73210041460078
 21
17.60302738895783
 97
       12
330
3C9
330
3C8
330
3C7
330
424
330
425
330
421
330
422
330
3CD
330
3CC
330
3CB
330
3CA
330
423
 75
     1
 76
     0
 52
45.0
 41
0.1
 77
     0
 78
     1
 53
45.0
 43
0.0
 44
0.0
 45
-0.0707106781186548
 46
0.0707106781186548
 79
     0
 98
        1
 10
0.0
 20
0.0
  0
HATCH
  5
4A3
330
71
100
AcDbEntity
  8
1
  6
Continuous
 62
     2
100
AcDbHatch
 10
0.0
 20
0.0
 30
0.0
210
0.0
220
0.0
230
1.0
  2
_USER
 70
     0
 71
     1
 91
        2
 92
        1
 93
        6
 72
     1
 10
-54.7498358287468
 20
15.49229610629044
 11
-55.50860341652708
 21
15.49229610629044
 72
     1
 10
-55.50860341652708
 20
15.49229610629044
 11
-55.50860341652708
 21
14.54921786514663
 72
     1
 10
-55.50860341652708
 20
14.54921786514663
 11
-56.7491078267812
 21
14.54921786514663
 72
     1
 10
-56.7491078267812
 20
14.54921786514663
 11
-56.7491078267812
 21
17.60302738895783
 72
     1
 10
-56.7491078267812
 20
17.60302738895783
 11
-54.7498358287468
 21
17.60302738895783
 72
     2
 10
-54.7498358287468
 20
16.54766174762415
 40
1.055365641333712
 50
270.0
 51
450.0
 73
     0
 97
        6
330
3F1
330
3F0
330
3FD
330
3FC
330
3F2
330
442
 92
       16
 93
        4
 72
     2
 10
-55.19130835498518
 20
16.58705771884664
 40
0.3528638246711218
 50
270.0
 51
450.0
 73
     1
 72
     1
 10
-55.19130835498518
 20
16.93992154351773
 11
-55.50860341652708
 21
16.93992154351773
 72
     1
 10
-55.50860341652708
 20
16.93992154351773
 11
-55.50860341652708
 21
16.23419389417552
 72
     1
 10
-55.50860341652708
 20
16.23419389417552
 11
-55.19130835498518
 21
16.23419389417552
 97
        4
330
456
330
3EE
330
3FE
330
3EF
 75
     1
 76
     0
 52
45.0
 41
0.1
 77
     0
 78
     1
 53
45.0
 43
0.0
 44
0.0
 45
-0.0707106781186548
 46
0.0707106781186548
 79
     0
 98
        1
 10
0.0
 20
0.0
  0
HATCH
  5
4A4
330
71
100
AcDbEntity
  8
1
  6
Continuous
 62
     2
100
AcDbHatch
 10
0.0
 20
0.0
 30
0.0
210
0.0
220
0.0
230
1.0
  2
_USER
 70
     0
 71
     1
 91
        2
 92
        1
 93
        6
 72
     1
 10
-54.7498358287468
 20
15.49229610629044
 11
-55.50860341652708
 21
15.49229610629044
 72
     1
 10
-55.50860341652708
 20
15.49229610629044
 11
-55.50860341652708
 21
14.54921786514663
 72
     1
 10
-55.50860341652708
 20
14.54921786514663
 11
-56.7491078267812
 21
14.54921786514663
 72
     1
 10
-56.7491078267812
 20
14.54921786514663
 11
-56.7491078267812
 21
17.60302738895783
 72
     1
 10
-56.7491078267812
 20
17.60302738895783
 11
-54.7498358287468
 21
17.60302738895783
 72
     2
 10
-54.7498358287468
 20
16.54766174762415
 40
1.055365641333712
 50
270.0
 51
450.0
 73
     0
 97
        6
330
3F1
330
3F0
330
3FD
330
3FC
330
3F2
330
442
 92
       16
 93
        4
 72
     2
 10
-55.19130835498518
 20
16.58705771884664
 40
0.3528638246711218
 50
270.0
 51
450.0
 73
     1
 72
     1
 10
-55.19130835498518
 20
16.93992154351773
 11
-55.50860341652708
 21
16.93992154351773
 72
     1
 10
-55.50860341652708
 20
16.93992154351773
 11
-55.50860341652708
 21
16.23419389417552
 72
     1
 10
-55.50860341652708
 20
16.23419389417552
 11
-55.19130835498518
 21
16.23419389417552
 97
        4
330
456
330
3EE
330
3FE
330
3EF
 75
     1
 76
     0
 52
45.0
 41
0.1
 77
     0
 78
     1
 53
45.0
 43
0.0
 44
0.0
 45
-0.0707106781186548
 46
0.0707106781186548
 79
     0
 98
        1
 10
0.0
 20
0.0
  0
HATCH
  5
4A5
330
71
100
AcDbEntity
  8
1
  6
Continuous
 62
     2
100
AcDbHatch
 10
0.0
 20
0.0
 30
0.0
210
0.0
220
0.0
230
1.0
  2
_USER
 70
     0
 71
     1
 91
        2
 92
        1
 93
        4
 72
     2
 10
-52.19329308038769
 20
12.17835714057483
 40
2.065479772208569
 50
62.45185182430616
 51
117.5481481756664
 73
     1
 72
     2
 10
-52.47423297222099
 20
12.71693215087763
 40
1.458034083651482
 50
117.5481481756626
 51
242.4518518243376
 73
     1
 72
     2
 10
-52.19329308038769
 20
13.25550716118093
 40
2.065479772208505
 50
242.4518518243401
 51
297.5481481756873
 73
     1
 72
     2
 10
-51.91235318855439
 20
12.71693215087763
 40
1.458034083652008
 50
297.5481481757013
 51
422.4518518242986
 73
     1
 97
        4
330
44E
330
44D
330
44F
330
44C
 92
       16
 93
        4
 72
     2
 10
-52.3930331167341
 20
12.71693215087763
 40
0.7717997786796947
 50
321.8795802028417
 51
398.120419797153
 73
     1
 72
     2
 10
-52.19329308038769
 20
12.87366332899813
 40
0.5179085730133021
 50
38.12041979714734
 51
141.8795802028585
 73
     1
 72
     2
 10
-51.99355304404159
 20
12.71693215087763
 40
0.7717997786794599
 50
141.8795802028366
 51
218.1204197971687
 73
     1
 72
     2
 10
-52.19329308038769
 20
12.56020097275763
 40
0.5179085730137332
 50
218.1204197971929
 51
321.8795802028013
 73
     1
 97
        4
330
46A
330
467
330
468
330
469
 75
     1
 76
     0
 52
45.0
 41
0.1
 77
     0
 78
     1
 53
45.0
 43
0.0
 44
0.0
 45
-0.0707106781186548
 46
0.0707106781186548
 79
     0
 98
        1
 10
0.0
 20
0.0
  0
HATCH
  5
4A6
330
71
100
AcDbEntity
  8
1
  6
Continuous
 62
     2
100
AcDbHatch
 10
0.0
 20
0.0
 30
0.0
210
0.0
220
0.0
230
1.0
  2
_USER
 70
     0
 71
     1
 91
        2
 92
        1
 93
        4
 72
     2
 10
-52.19329308038769
 20
12.17835714057483
 40
2.065479772208569
 50
62.45185182430616
 51
117.5481481756664
 73
     1
 72
     2
 10
-52.47423297222099
 20
12.71693215087763
 40
1.458034083651482
 50
117.5481481756626
 51
242.4518518243376
 73
     1
 72
     2
 10
-52.19329308038769
 20
13.25550716118093
 40
2.065479772208505
 50
242.4518518243401
 51
297.5481481756873
 73
     1
 72
     2
 10
-51.91235318855439
 20
12.71693215087763
 40
1.458034083652008
 50
297.5481481757013
 51
422.4518518242986
 73
     1
 97
        4
330
44E
330
44D
330
44F
330
44C
 92
       16
 93
        4
 72
     2
 10
-52.3930331167341
 20
12.71693215087763
 40
0.7717997786796947
 50
321.8795802028417
 51
398.120419797153
 73
     1
 72
     2
 10
-52.19329308038769
 20
12.87366332899813
 40
0.5179085730133021
 50
38.12041979714734
 51
141.8795802028585
 73
     1
 72
     2
 10
-51.99355304404159
 20
12.71693215087763
 40
0.7717997786794599
 50
141.8795802028366
 51
218.1204197971687
 73
     1
 72
     2
 10
-52.19329308038769
 20
12.56020097275763
 40
0.5179085730137332
 50
218.1204197971929
 51
321.8795802028013
 73
     1
 97
        4
330
46A
330
467
330
468
330
469
 75
     1
 76
     0
 52
45.0
 41
0.1
 77
     0
 78
     1
 53
45.0
 43
0.0
 44
0.0
 45
-0.0707106781186548
 46
0.0707106781186548
 79
     0
 98
        1
 10
0.0
 20
0.0
  0
HATCH
  5
4A7
330
71
100
AcDbEntity
  8
1
  6
Continuous
 62
     2
100
AcDbHatch
 10
0.0
 20
0.0
 30
0.0
210
0.0
220
0.0
230
1.0
  2
_USER
 70
     0
 71
     1
 91
        2
 92
        1
 93
       12
 72
     1
 10
-45.2982978859784
 20
16.90501378351485
 11
-46.63422571240608
 21
16.90501378351485
 72
     1
 10
-46.63422571240608
 20
16.90501378351485
 11
-46.63422571240608
 21
16.42512942977314
 72
     1
 10
-46.63422571240608
 20
16.42512942977314
 11
-45.2982978859784
 21
16.42512942977314
 72
     1
 10
-45.2982978859784
 20
16.42512942977314
 11
-45.2982978859784
 21
15.72711582433084
 72
     1
 10
-45.2982978859784
 20
15.72711582433084
 11
-46.63422571240608
 21
15.72711582433084
 72
     1
 10
-46.63422571240608
 20
15.72711582433084
 11
-46.63422571240608
 21
15.24723147058913
 72
     1
 10
-46.63422571240608
 20
15.24723147058913
 11
-45.2982978859784
 21
15.24723147058913
 72
     1
 10
-45.2982978859784
 20
15.24723147058913
 11
-45.2982978859784
 21
14.54921786514663
 72
     1
 10
-45.2982978859784
 20
14.54921786514663
 11
-48.4486176097594
 21
14.54921786514663
 72
     2
 10
-48.4486176097594
 20
16.07612262705194
 40
1.52690476190589
 50
90.0
 51
270.0
 73
     0
 72
     1
 10
-48.4486176097594
 20
17.60302738895783
 11
-45.2982978859784
 21
17.60302738895783
 72
     1
 10
-45.2982978859784
 20
17.60302738895783
 11
-45.2982978859784
 21
16.90501378351485
 97
       12
330
405
330
457
330
406
330
407
330
408
330
409
330
3E6
330
3E5
330
3E4
330
3E3
330
40A
330
404
 92
       16
 93
        4
 72
     2
 10
-48.2323455995942
 20
16.23285380517243
 40
0.5179085730135222
 50
38.12041979714272
 51
141.8795802028495
 73
     1
 72
     2
 10
-48.0326055632479
 20
16.07612262705194
 40
0.7717997786796724
 50
141.8795802028404
 51
218.1204197971561
 73
     1
 72
     2
 10
-48.2323455995942
 20
15.91939144893152
 40
0.5179085730134382
 50
218.1204197971512
 51
321.8795802028565
 73
     1
 72
     2
 10
-48.43208563594038
 20
16.07612262705194
 40
0.7717997786796362
 50
321.8795802028439
 51
398.1204197971596
 73
     1
 97
        4
330
451
330
450
330
44B
330
44A
 75
     1
 76
     0
 52
45.0
 41
0.1
 77
     0
 78
     1
 53
45.0
 43
0.0
 44
0.0
 45
-0.0707106781186548
 46
0.0707106781186548
 79
     0
 98
        1
 10
0.0
 20
0.0
  0
HATCH
  5
4A8
330
71
100
AcDbEntity
  8
1
  6
Continuous
 62
     2
100
AcDbHatch
 10
0.0
 20
0.0
 30
0.0
210
0.0
220
0.0
230
1.0
  2
_USER
 70
     0
 71
     1
 91
        2
 92
        1
 93
       12
 72
     1
 10
-45.2982978859784
 20
16.90501378351485
 11
-46.63422571240608
 21
16.90501378351485
 72
     1
 10
-46.63422571240608
 20
16.90501378351485
 11
-46.63422571240608
 21
16.42512942977314
 72
     1
 10
-46.63422571240608
 20
16.42512942977314
 11
-45.2982978859784
 21
16.42512942977314
 72
     1
 10
-45.2982978859784
 20
16.42512942977314
 11
-45.2982978859784
 21
15.72711582433084
 72
     1
 10
-45.2982978859784
 20
15.72711582433084
 11
-46.63422571240608
 21
15.72711582433084
 72
     1
 10
-46.63422571240608
 20
15.72711582433084
 11
-46.63422571240608
 21
15.24723147058913
 72
     1
 10
-46.63422571240608
 20
15.24723147058913
 11
-45.2982978859784
 21
15.24723147058913
 72
     1
 10
-45.2982978859784
 20
15.24723147058913
 11
-45.2982978859784
 21
14.54921786514663
 72
     1
 10
-45.2982978859784
 20
14.54921786514663
 11
-48.4486176097594
 21
14.54921786514663
 72
     2
 10
-48.4486176097594
 20
16.07612262705194
 40
1.52690476190589
 50
90.0
 51
270.0
 73
     0
 72
     1
 10
-48.4486176097594
 20
17.60302738895783
 11
-45.2982978859784
 21
17.60302738895783
 72
     1
 10
-45.2982978859784
 20
17.60302738895783
 11
-45.2982978859784
 21
16.90501378351485
 97
       12
330
405
330
457
330
406
330
407
330
408
330
409
330
3E6
330
3E5
330
3E4
330
3E3
330
40A
330
404
 92
       16
 93
        4
 72
     2
 10
-48.2323455995942
 20
16.23285380517243
 40
0.5179085730135222
 50
38.12041979714272
 51
141.8795802028495
 73
     1
 72
     2
 10
-48.0326055632479
 20
16.07612262705194
 40
0.7717997786796724
 50
141.8795802028404
 51
218.1204197971561
 73
     1
 72
     2
 10
-48.2323455995942
 20
15.91939144893152
 40
0.5179085730134382
 50
218.1204197971512
 51
321.8795802028565
 73
     1
 72
     2
 10
-48.43208563594038
 20
16.07612262705194
 40
0.7717997786796362
 50
321.8795802028439
 51
398.1204197971596
 73
     1
 97
        4
330
451
330
450
330
44B
330
44A
 75
     1
 76
     0
 52
45.0
 41
0.1
 77
     0
 78
     1
 53
45.0
 43
0.0
 44
0.0
 45
-0.0707106781186548
 46
0.0707106781186548
 79
     0
 98
        1
 10
0.0
 20
0.0
  0
HATCH
  5
4A9
330
71
100
AcDbEntity
  8
1
  6
Continuous
 62
     2
100
AcDbHatch
 10
0.0
 20
0.0
 30
0.0
210
0.0
220
0.0
230
1.0
  2
_USER
 70
     0
 71
     1
 91
        4
 92
        1
 93
        8
 72
     1
 10
-57.226224907648
 20
17.17878277355584
 11
-57.226224907648
 21
11.61427200435563
 72
     2
 10
-57.65046952303189
 20
11.61427200435563
 40
0.4242446153832908
 50
0.0
 51
90.0
 73
     0
 72
     1
 10
-57.65046952303189
 20
11.19002738897234
 11
-63.12378161374869
 21
11.19002738897234
 72
     2
 10
-63.12378161374869
 20
11.61427200435563
 40
0.424244615382797
 50
90.0
 51
180.0
 73
     0
 72
     1
 10
-63.54802622913149
 20
11.61427200435563
 11
-63.54802622913149
 21
17.17878277355584
 72
     2
 10
-63.12378161374869
 20
17.17878277355584
 40
0.4242446153837989
 50
180.0
 51
270.0
 73
     0
 72
     1
 10
-63.12378161374869
 20
17.60302738893964
 11
-57.65046952303189
 21
17.60302738893964
 72
     2
 10
-57.65046952303189
 20
17.17878277355584
 40
0.4242446153838841
 50
270.0
 51
360.0
 73
     0
 97
        8
330
3F9
330
447
330
3FA
330
452
330
3F7
330
449
330
3F8
330
448
 92
       16
 93
        1
 72
     2
 10
-60.50419596323118
 20
14.85990054520033
 40
0.4709789327785003
 50
0.0
 51
360.0
 73
     1
 97
        1
330
46D
 92
       16
 93
        8
 72
     2
 10
-59.9543382504705
 20
13.75075894523192
 40
0.3157169230765374
 50
115.3740086783529
 51
180.0
 73
     1
 72
     1
 10
-60.27005517354729
 20
13.75075894523192
 11
-60.27005517354729
 21
13.16890753853684
 72
     2
 10
-59.9543382504705
 20
13.16890753853684
 40
0.315716923076792
 50
180.0
 51
269.8110329574542
 73
     1
 72
     2
 10
-59.94872211516048
 20
14.87174248610583
 40
2.018561131933267
 50
269.8110329575858
 51
450.1889670424142
 73
     1
 72
     2
 10
-59.9543382504705
 20
16.57457743367493
 40
0.3157169230760746
 50
90.18896704254594
 51
180.0
 73
     1
 72
     1
 10
-60.27005517354729
 20
16.57457743367493
 11
-60.27005517354729
 21
15.96904214516815
 72
     2
 10
-59.9543382504705
 20
15.96904214516815
 40
0.315716923076792
 50
180.0
 51
244.6259913216471
 73
     1
 72
     2
 10
-60.48038094855838
 20
14.85990054520033
 40
0.9118481501444543
 50
295.3740086781921
 51
424.6259913218238
 73
     0
 97
        8
330
45F
330
3C0
330
45C
330
45D
330
43B
330
3BF
330
45E
330
43A
 92
       16
 93
       12
 72
     2
 10
-62.5298869370022
 20
12.21829986760594
 40
0.3157169230756836
 50
180.0
 51
270.0
 73
     1
 72
     1
 10
-62.5298869370022
 20
11.90258294452923
 11
-61.05405367599258
 21
11.90258294452923
 72
     2
 10
-61.05405367599258
 20
12.21829986760594
 40
0.3157169230767085
 50
270.0
 51
360.0
 73
     1
 72
     1
 10
-60.73833675291598
 20
12.21829986760594
 11
-60.73833675291598
 21
13.74907079913754
 72
     2
 10
-61.05405367599258
 20
13.74907079913754
 40
0.3157169230766002
 50
0.0
 51
64.80558935146027
 73
     1
 72
     2
 10
-60.53146922841759
 20
14.85990054520033
 40
0.9118975235576194
 50
115.1944106485122
 51
244.8055893514719
 73
     0
 72
     2
 10
-61.05405367599258
 20
15.97073029126253
 40
0.3157169230761203
 50
295.1944106485397
 51
360.0
 73
     1
 72
     1
 10
-60.73833675291598
 20
15.97073029126253
 11
-60.73833675291598
 21
16.57475491032304
 72
     2
 10
-61.05405367599258
 20
16.57475491032304
 40
0.3157169230766002
 50
0.0
 51
90.0
 73
     1
 72
     1
 10
-61.05405367599258
 20
16.89047183339923
 11
-62.5298869370022
 21
16.89047183339923
 72
     2
 10
-62.5298869370022
 20
16.57475491032304
 40
0.315716923076188
 50
90.0
 51
180.0
 73
     1
 72
     1
 10
-62.84560386007789
 20
16.57475491032304
 11
-62.84560386007789
 21
12.21829986760594
 97
       12
330
443
330
3FB
330
446
330
3F6
330
453
330
454
330
445
330
3F5
330
444
330
3F4
330
455
330
3F3
 75
     1
 76
     0
 52
45.0
 41
0.1
 77
     0
 78
     1
 53
45.0
 43
0.0
 44
0.0
 45
-0.0707106781186548
 46
0.0707106781186548
 79
     0
 98
        1
 10
0.0
 20
0.0
  0
HATCH
  5
4AA
330
71
100
AcDbEntity
  8
1
  6
Continuous
 62
     2
100
AcDbHatch
 10
0.0
 20
0.0
 30
0.0
210
0.0
220
0.0
230
1.0
  2
_USER
 70
     0
 71
     1
 91
        4
 92
        1
 93
        8
 72
     1
 10
-57.226224907648
 20
17.17878277355584
 11
-57.226224907648
 21
11.61427200435563
 72
     2
 10
-57.65046952303189
 20
11.61427200435563
 40
0.4242446153832908
 50
0.0
 51
90.0
 73
     0
 72
     1
 10
-57.65046952303189
 20
11.19002738897234
 11
-63.12378161374869
 21
11.19002738897234
 72
     2
 10
-63.12378161374869
 20
11.61427200435563
 40
0.424244615382797
 50
90.0
 51
180.0
 73
     0
 72
     1
 10
-63.54802622913149
 20
11.61427200435563
 11
-63.54802622913149
 21
17.17878277355584
 72
     2
 10
-63.12378161374869
 20
17.17878277355584
 40
0.4242446153837989
 50
180.0
 51
270.0
 73
     0
 72
     1
 10
-63.12378161374869
 20
17.60302738893964
 11
-57.65046952303189
 21
17.60302738893964
 72
     2
 10
-57.65046952303189
 20
17.17878277355584
 40
0.4242446153838841
 50
270.0
 51
360.0
 73
     0
 97
        8
330
3F9
330
447
330
3FA
330
452
330
3F7
330
449
330
3F8
330
448
 92
       16
 93
        1
 72
     2
 10
-60.50419596323118
 20
14.85990054520033
 40
0.4709789327785003
 50
0.0
 51
360.0
 73
     1
 97
        1
330
46D
 92
       16
 93
        8
 72
     2
 10
-59.9543382504705
 20
13.75075894523192
 40
0.3157169230765374
 50
115.3740086783529
 51
180.0
 73
     1
 72
     1
 10
-60.27005517354729
 20
13.75075894523192
 11
-60.27005517354729
 21
13.16890753853684
 72
     2
 10
-59.9543382504705
 20
13.16890753853684
 40
0.315716923076792
 50
180.0
 51
269.8110329574542
 73
     1
 72
     2
 10
-59.94872211516048
 20
14.87174248610583
 40
2.018561131933267
 50
269.8110329575858
 51
450.1889670424142
 73
     1
 72
     2
 10
-59.9543382504705
 20
16.57457743367493
 40
0.3157169230760746
 50
90.18896704254594
 51
180.0
 73
     1
 72
     1
 10
-60.27005517354729
 20
16.57457743367493
 11
-60.27005517354729
 21
15.96904214516815
 72
     2
 10
-59.9543382504705
 20
15.96904214516815
 40
0.315716923076792
 50
180.0
 51
244.6259913216471
 73
     1
 72
     2
 10
-60.48038094855838
 20
14.85990054520033
 40
0.9118481501444543
 50
295.3740086781921
 51
424.6259913218238
 73
     0
 97
        8
330
45F
330
3C0
330
45C
330
45D
330
43B
330
3BF
330
45E
330
43A
 92
       16
 93
       12
 72
     2
 10
-62.5298869370022
 20
12.21829986760594
 40
0.3157169230756836
 50
180.0
 51
270.0
 73
     1
 72
     1
 10
-62.5298869370022
 20
11.90258294452923
 11
-61.05405367599258
 21
11.90258294452923
 72
     2
 10
-61.05405367599258
 20
12.21829986760594
 40
0.3157169230767085
 50
270.0
 51
360.0
 73
     1
 72
     1
 10
-60.73833675291598
 20
12.21829986760594
 11
-60.73833675291598
 21
13.74907079913754
 72
     2
 10
-61.05405367599258
 20
13.74907079913754
 40
0.3157169230766002
 50
0.0
 51
64.80558935146027
 73
     1
 72
     2
 10
-60.53146922841759
 20
14.85990054520033
 40
0.9118975235576194
 50
115.1944106485122
 51
244.8055893514719
 73
     0
 72
     2
 10
-61.05405367599258
 20
15.97073029126253
 40
0.3157169230761203
 50
295.1944106485397
 51
360.0
 73
     1
 72
     1
 10
-60.73833675291598
 20
15.97073029126253
 11
-60.73833675291598
 21
16.57475491032304
 72
     2
 10
-61.05405367599258
 20
16.57475491032304
 40
0.3157169230766002
 50
0.0
 51
90.0
 73
     1
 72
     1
 10
-61.05405367599258
 20
16.89047183339923
 11
-62.5298869370022
 21
16.89047183339923
 72
     2
 10
-62.5298869370022
 20
16.57475491032304
 40
0.315716923076188
 50
90.0
 51
180.0
 73
     1
 72
     1
 10
-62.84560386007789
 20
16.57475491032304
 11
-62.84560386007789
 21
12.21829986760594
 97
       12
330
443
330
3FB
330
446
330
3F6
330
453
330
454
330
445
330
3F5
330
444
330
3F4
330
455
330
3F3
 75
     1
 76
     0
 52
45.0
 41
0.1
 77
     0
 78
     1
 53
45.0
 43
0.0
 44
0.0
 45
-0.0707106781186548
 46
0.0707106781186548
 79
     0
 98
        1
 10
0.0
 20
0.0
  0
HATCH
  5
4AB
330
71
100
AcDbEntity
  8
1
  6
Continuous
 62
     2
100
AcDbHatch
 10
0.0
 20
0.0
 30
0.0
210
0.0
220
0.0
230
1.0
  2
_USER
 70
     0
 71
     1
 91
        1
 92
        1
 93
       18
 72
     1
 10
-35.63667699842699
 20
13.45857160665983
 11
-36.44777603590038
 21
13.45857160665983
 72
     1
 10
-36.44777603590038
 20
13.45857160665983
 11
-36.44777603590038
 21
11.19002738897234
 72
     1
 10
-36.44777603590038
 20
11.19002738897234
 11
-37.64056873806808
 21
11.19002738897234
 72
     1
 10
-37.64056873806808
 20
11.19002738897234
 11
-37.64056873806808
 21
13.45857160665983
 72
     1
 10
-37.64056873806808
 20
13.45857160665983
 11
-38.74420803763618
 21
13.45857160665983
 72
     2
 10
-38.74420803763618
 20
12.50404859983374
 40
0.9545230068260917
 50
90.0
 51
109.337143219432
 73
     1
 72
     2
 10
-38.89087803573989
 20
12.92200358021663
 40
0.5115800601944069
 50
109.3371432194847
 51
151.4785267424232
 73
     1
 72
     2
 10
-38.5135207776585
 20
12.71693215087763
 40
0.941059735334897
 50
151.4785267423628
 51
208.5214732576693
 73
     1
 72
     2
 10
-38.89087803573989
 20
12.51186072153914
 40
0.511580060196027
 50
208.521473257686
 51
246.6277221118451
 73
     1
 72
     2
 10
-38.73443800303679
 20
12.87385274024913
 40
0.9059297849852755
 50
246.6277221118186
 51
288.4480761180822
 73
     1
 72
     2
 10
-39.15260573669869
 20
14.12739851628572
 40
2.227384008972746
 50
288.4480761181335
 51
301.9309089499396
 73
     1
 72
     1
 10
-37.97455069467478
 20
12.23704779713594
 11
-37.97455069467478
 21
11.36453079033262
 72
     2
 10
-39.3104786117915
 20
16.02961309613403
 40
4.852596863498826
 50
74.02000874166134
 51
84.8418552303636
 73
     0
 72
     2
 10
-39.02162251705568
 20
12.82972251291244
 40
1.639695123940442
 50
84.8418552303235
 51
164.9381082228987
 73
     0
 72
     2
 10
-39.44075036051729
 20
12.71693215087763
 40
1.205656168392995
 50
164.9381082229037
 51
195.0618917770972
 73
     0
 72
     2
 10
-39.02162251705568
 20
12.60414178884273
 40
1.639695123940211
 50
195.0618917771051
 51
270.0
 73
     0
 72
     1
 10
-39.02162251705568
 20
14.24383691278294
 11
-35.63667699842699
 21
14.24383691278342
 72
     1
 10
-35.63667699842699
 20
14.24383691278342
 11
-35.63667699842699
 21
13.45857160665983
 97
       18
330
3C2
330
458
330
459
330
441
330
440
330
426
330
43F
330
43E
330
45A
330
43D
330
45B
330
43C
330
427
330
3C1
330
3C6
330
3C5
330
3C4
330
3C3
 75
     1
 76
     0
 52
45.0
 41
0.1
 77
     0
 78
     1
 53
45.0
 43
0.0
 44
0.0
 45
-0.0707106781186548
 46
0.0707106781186548
 79
     0
 98
        1
 10
0.0
 20
0.0
  0
HATCH
  5
4AC
330
71
100
AcDbEntity
  8
1
  6
Continuous
 62
     2
100
AcDbHatch
 10
0.0
 20
0.0
 30
0.0
210
0.0
220
0.0
230
1.0
  2
_USER
 70
     0
 71
     1
 91
        1
 92
        1
 93
       18
 72
     1
 10
-35.63667699842699
 20
13.45857160665983
 11
-36.44777603590038
 21
13.45857160665983
 72
     1
 10
-36.44777603590038
 20
13.45857160665983
 11
-36.44777603590038
 21
11.19002738897234
 72
     1
 10
-36.44777603590038
 20
11.19002738897234
 11
-37.64056873806808
 21
11.19002738897234
 72
     1
 10
-37.64056873806808
 20
11.19002738897234
 11
-37.64056873806808
 21
13.45857160665983
 72
     1
 10
-37.64056873806808
 20
13.45857160665983
 11
-38.74420803763618
 21
13.45857160665983
 72
     2
 10
-38.74420803763618
 20
12.50404859983374
 40
0.9545230068260917
 50
90.0
 51
109.337143219432
 73
     1
 72
     2
 10
-38.89087803573989
 20
12.92200358021663
 40
0.5115800601944069
 50
109.3371432194847
 51
151.4785267424232
 73
     1
 72
     2
 10
-38.5135207776585
 20
12.71693215087763
 40
0.941059735334897
 50
151.4785267423628
 51
208.5214732576693
 73
     1
 72
     2
 10
-38.89087803573989
 20
12.51186072153914
 40
0.511580060196027
 50
208.521473257686
 51
246.6277221118451
 73
     1
 72
     2
 10
-38.73443800303679
 20
12.87385274024913
 40
0.9059297849852755
 50
246.6277221118186
 51
288.4480761180822
 73
     1
 72
     2
 10
-39.15260573669869
 20
14.12739851628572
 40
2.227384008972746
 50
288.4480761181335
 51
301.9309089499396
 73
     1
 72
     1
 10
-37.97455069467478
 20
12.23704779713594
 11
-37.97455069467478
 21
11.36453079033262
 72
     2
 10
-39.3104786117915
 20
16.02961309613403
 40
4.852596863498826
 50
74.02000874166134
 51
84.8418552303636
 73
     0
 72
     2
 10
-39.02162251705568
 20
12.82972251291244
 40
1.639695123940442
 50
84.8418552303235
 51
164.9381082228987
 73
     0
 72
     2
 10
-39.44075036051729
 20
12.71693215087763
 40
1.205656168392995
 50
164.9381082229037
 51
195.0618917770972
 73
     0
 72
     2
 10
-39.02162251705568
 20
12.60414178884273
 40
1.639695123940211
 50
195.0618917771051
 51
270.0
 73
     0
 72
     1
 10
-39.02162251705568
 20
14.24383691278294
 11
-35.63667699842699
 21
14.24383691278342
 72
     1
 10
-35.63667699842699
 20
14.24383691278342
 11
-35.63667699842699
 21
13.45857160665983
 97
       18
330
3C2
330
458
330
459
330
441
330
440
330
426
330
43F
330
43E
330
45A
330
43D
330
45B
330
43C
330
427
330
3C1
330
3C6
330
3C5
330
3C4
330
3C3
 75
     1
 76
     0
 52
45.0
 41
0.1
 77
     0
 78
     1
 53
45.0
 43
0.0
 44
0.0
 45
-0.0707106781186548
 46
0.0707106781186548
 79
     0
 98
        1
 10
0.0
 20
0.0
  0
HATCH
  5
4AD
330
71
100
AcDbEntity
  8
1
  6
Continuous
 62
     2
100
AcDbHatch
 10
0.0
 20
0.0
 30
0.0
210
0.0
220
0.0
230
1.0
  2
_USER
 70
     0
 71
     1
 91
        1
 92
        1
 93
       14
 72
     2
 10
-55.12432399630859
 20
12.60414178884273
 40
1.639695123940505
 50
84.84185523036236
 51
164.9381082228866
 73
     1
 72
     2
 10
-55.54345183977139
 20
12.71693215087763
 40
1.205656168390951
 50
164.9381082228766
 51
195.0618917770949
 73
     1
 72
     2
 10
-55.12432399630859
 20
12.82972251291244
 40
1.639695123939394
 50
195.0618917770894
 51
275.1581447696395
 73
     1
 72
     2
 10
-55.4131800910445
 20
16.02961309613403
 40
4.852596863498137
 50
275.158144769625
 51
285.9799912583529
 73
     1
 72
     1
 10
-54.0772521739267
 20
11.36453079033322
 11
-54.0772521739267
 21
12.23704779713643
 72
     2
 10
-55.25530721595158
 20
14.12739851628632
 40
2.227384008972739
 50
58.06909105004065
 51
71.55192388186703
 73
     0
 72
     2
 10
-54.83713948229078
 20
12.87385274024913
 40
0.9059297849849176
 50
71.55192388184147
 51
113.372277888129
 73
     0
 72
     2
 10
-54.9935795149928
 20
12.51186072153914
 40
0.5115800601948034
 50
113.3722778881724
 51
151.4785267423044
 73
     0
 72
     2
 10
-54.61622225691249
 20
12.71693215087763
 40
0.9410597353332545
 50
151.4785267422942
 51
208.5214732577331
 73
     0
 72
     2
 10
-54.9935795149928
 20
12.92200358021663
 40
0.5115800601948697
 50
208.5214732576956
 51
246.6277221118004
 73
     0
 72
     2
 10
-54.83713948229078
 20
12.56001156150603
 40
0.9059297849853211
 50
246.6277221118709
 51
288.4480761181465
 73
     0
 72
     2
 10
-55.25530721595158
 20
11.30646578546944
 40
2.227384008973484
 50
288.448076118133
 51
301.9309089499592
 73
     0
 72
     1
 10
-54.0772521739267
 20
13.19681650461934
 11
-54.0772521739267
 21
14.06933351142263
 72
     2
 10
-55.4131800910445
 20
9.404251205621733
 40
4.852596863498071
 50
74.02000874164739
 51
84.84185523037497
 73
     1
 97
       14
330
460
330
461
330
462
330
463
330
428
330
439
330
438
330
437
330
464
330
465
330
436
330
466
330
429
330
435
 75
     1
 76
     0
 52
45.0
 41
0.1
 77
     0
 78
     1
 53
45.0
 43
0.0
 44
0.0
 45
-0.0707106781186548
 46
0.0707106781186548
 79
     0
 98
        1
 10
0.0
 20
0.0
  0
HATCH
  5
4AE
330
71
100
AcDbEntity
  8
1
  6
Continuous
 62
     2
100
AcDbHatch
 10
0.0
 20
0.0
 30
0.0
210
0.0
220
0.0
230
1.0
  2
_USER
 70
     0
 71
     1
 91
        1
 92
        1
 93
       14
 72
     2
 10
-55.12432399630859
 20
12.60414178884273
 40
1.639695123940505
 50
84.84185523036236
 51
164.9381082228866
 73
     1
 72
     2
 10
-55.54345183977139
 20
12.71693215087763
 40
1.205656168390951
 50
164.9381082228766
 51
195.0618917770949
 73
     1
 72
     2
 10
-55.12432399630859
 20
12.82972251291244
 40
1.639695123939394
 50
195.0618917770894
 51
275.1581447696395
 73
     1
 72
     2
 10
-55.4131800910445
 20
16.02961309613403
 40
4.852596863498137
 50
275.158144769625
 51
285.9799912583529
 73
     1
 72
     1
 10
-54.0772521739267
 20
11.36453079033322
 11
-54.0772521739267
 21
12.23704779713643
 72
     2
 10
-55.25530721595158
 20
14.12739851628632
 40
2.227384008972739
 50
58.06909105004065
 51
71.55192388186703
 73
     0
 72
     2
 10
-54.83713948229078
 20
12.87385274024913
 40
0.9059297849849176
 50
71.55192388184147
 51
113.372277888129
 73
     0
 72
     2
 10
-54.9935795149928
 20
12.51186072153914
 40
0.5115800601948034
 50
113.3722778881724
 51
151.4785267423044
 73
     0
 72
     2
 10
-54.61622225691249
 20
12.71693215087763
 40
0.9410597353332545
 50
151.4785267422942
 51
208.5214732577331
 73
     0
 72
     2
 10
-54.9935795149928
 20
12.92200358021663
 40
0.5115800601948697
 50
208.5214732576956
 51
246.6277221118004
 73
     0
 72
     2
 10
-54.83713948229078
 20
12.56001156150603
 40
0.9059297849853211
 50
246.6277221118709
 51
288.4480761181465
 73
     0
 72
     2
 10
-55.25530721595158
 20
11.30646578546944
 40
2.227384008973484
 50
288.448076118133
 51
301.9309089499592
 73
     0
 72
     1
 10
-54.0772521739267
 20
13.19681650461934
 11
-54.0772521739267
 21
14.06933351142263
 72
     2
 10
-55.4131800910445
 20
9.404251205621733
 40
4.852596863498071
 50
74.02000874164739
 51
84.84185523037497
 73
     1
 97
       14
330
460
330
461
330
462
330
463
330
428
330
439
330
438
330
437
330
464
330
465
330
436
330
466
330
429
330
435
 75
     1
 76
     0
 52
45.0
 41
0.1
 77
     0
 78
     1
 53
45.0
 43
0.0
 44
0.0
 45
-0.0707106781186548
 46
0.0707106781186548
 79
     0
 98
        1
 10
0.0
 20
0.0
  0
ENDBLK
  5
73
330
71
100
AcDbEntity
  8
0
100
AcDbBlockEnd
  0
BLOCK
  5
75
330
74
100
AcDbEntity
  8
0
100
AcDbBlockBegin
  2
_punkt
 70
     0
 10
61.76012341105592
 20
3.89652738895603
 30
0.0
  3
_punkt
  1

  0
LINE
  5
4AF
330
74
100
AcDbEntity
  8
1
  6
Continuous
 62
     2
100
AcDbLine
 10
61.76012341105592
 20
3.89652738895603
 30
0.0
 11
66.7601234110549
 21
3.89652738895603
 31
0.0
  0
LINE
  5
4B0
330
74
100
AcDbEntity
  8
1
  6
Continuous
 62
     2
100
AcDbLine
 10
61.76012341105592
 20
3.89652738895603
 30
0.0
 11
61.76012341105592
 21
-1.10347261104408
 31
0.0
  0
ENDBLK
  5
76
330
74
100
AcDbEntity
  8
0
100
AcDbBlockEnd
  0
BLOCK
  5
7A
330
77
100
AcDbEntity
  8
0
100
AcDbBlockBegin
  2
A4I_CS
 70
     0
 10
61.76012341105592
 20
-1.10347261104408
 30
0.0
  3
A4I_CS
  1

  0
INSERT
  5
78
330
77
100
AcDbEntity
  8
1
100
AcDbBlockReference
  2
_rahmen
 10
61.76012341105592
 20
-1.10347261104408
 30
0.0
  0
INSERT
  5
79
330
77
100
AcDbEntity
  8
1
100
AcDbBlockReference
  2
_punkt
 10
61.76012341105592
 20
3.89652738895603
 30
0.0
  0
ENDBLK
  5
7B
330
77
100
AcDbEntity
  8
0
100
AcDbBlockEnd
  0
BLOCK
  5
84
330
7C
100
AcDbEntity
  8
0
100
AcDbBlockBegin
  2
1
 70
     0
 10
0.0
 20
0.0
 30
0.0
  3
1
  1

  0
INSERT
  5
7D
330
7C
100
AcDbEntity
  8
0
100
AcDbBlockReference
  2
Allg1
 10
-4.99999999999972
 20
76.0
 30
0.0
  0
INSERT
  5
7E
330
7C
100
AcDbEntity
  8
0
100
AcDbBlockReference
  2
Drfsicht1
 10
-104.362543
 20
88.45097499999986
 30
0.0
  0
INSERT
  5
7F
330
7C
100
AcDbEntity
  8
0
100
AcDbBlockReference
  2
Rckans1
 10
-21.63745699999993
 20
143.0000000000001
 30
0.0
  0
INSERT
  5
80
330
7C
100
AcDbEntity
  8
0
100
AcDbBlockReference
  2
SA_Links1
 10
-66.0
 20
143.0
 30
0.0
  0
INSERT
  5
81
330
7C
100
AcDbEntity
  8
0
100
AcDbBlockReference
  2
SA_Rechts1
 10
-166.073123
 20
143.0
 30
0.0
  0
INSERT
  5
82
330
7C
100
AcDbEntity
  8
0
100
AcDbBlockReference
  2
Vordans1
 10
-104.362543
 20
143.0
 30
0.0
  0
INSERT
  5
83
330
7C
100
AcDbEntity
  8
0
100
AcDbBlockReference
  2
A4I_CS
 10
61.76012341105592
 20
-1.10347261104408
 30
0.0
  0
ENDBLK
  5
85
330
7C
100
AcDbEntity
  8
0
100
AcDbBlockEnd
  0
BLOCK
  5
1DA
330
1D1
100
AcDbEntity
  8
0
100
AcDbBlockBegin
  2
*D17
 70
     1
 10
0.0
 20
0.0
 30
0.0
  3
*D17
  1

  0
LINE
  5
1D2
330
1D1
100
AcDbEntity
  8
1
  6
Continuous
 62
     2
100
AcDbLine
 10
-124.862542928304
 20
85.37597502394269
 30
0.0
 11
-124.862542928304
 21
78.37597502394269
 31
0.0
  0
LINE
  5
1D3
330
1D1
100
AcDbEntity
  8
1
  6
Continuous
 62
     2
100
AcDbLine
 10
-124.862542928304
 20
91.52597502453949
 30
0.0
 11
-124.862542928304
 21
85.37597502394269
 31
0.0
  0
LINE
  5
1D4
330
1D1
100
AcDbEntity
  8
1
  6
Continuous
 62
     2
100
AcDbLine
 10
-124.862542928304
 20
104.610757269305
 30
0.0
 11
-124.862542928304
 21
91.52597502453949
 31
0.0
  0
LINE
  5
1D5
330
1D1
100
AcDbEntity
  8
1
  6
Continuous
 62
     2
100
AcDbLine
 10
-114.8625429282664
 20
85.37597502394269
 30
0.0
 11
-126.362542928304
 21
85.37597502394269
 31
0.0
  0
LINE
  5
1D6
330
1D1
100
AcDbEntity
  8
1
  6
Continuous
 62
     2
100
AcDbLine
 10
-114.8625429283039
 20
91.52597502453949
 30
0.0
 11
-126.362542928304
 21
91.52597502453949
 31
0.0
  0
SOLID
  5
1D7
330
1D1
100
AcDbEntity
  8
1
 62
     2
100
AcDbTrace
 10
-125.3233266698599
 20
95.02597502453949
 30
0.0
 11
-124.4017591867481
 21
95.02597502453949
 31
0.0
 12
-124.862542928304
 22
91.52597502453949
 32
0.0
 13
-124.862542928304
 23
91.52597502453949
 33
0.0
  0
SOLID
  5
1D8
330
1D1
100
AcDbEntity
  8
1
 62
     2
100
AcDbTrace
 10
-124.4017591867481
 20
81.87597502394269
 30
0.0
 11
-125.3233266698599
 21
81.87597502394269
 31
0.0
 12
-124.862542928304
 22
85.37597502394269
 32
0.0
 13
-124.862542928304
 23
85.37597502394269
 33
0.0
  0
MTEXT
  5
1D9
330
1D1
100
AcDbEntity
  8
1
 62
     3
100
AcDbMText
 10
-126.712542928304
 20
96.03575726930501
 30
0.0
 40
3.5
 41
0.0
 71
     7
 72
     1
  1
6,15
  7
CONVERTER_11
 11
0.0
 21
1.0
 31
0.0
 73
     1
 44
0.60024009603842
  0
ENDBLK
  5
1DB
330
1D1
100
AcDbEntity
  8
0
100
AcDbBlockEnd
  0
BLOCK
  5
35E
330
357
100
AcDbEntity
  8
0
100
AcDbBlockBegin
  2
*D18
 70
     1
 10
0.0
 20
0.0
 30
0.0
  3
*D18
  1

  0
LINE
  5
358
330
357
100
AcDbEntity
  8
1
  6
Continuous
 62
     2
100
AcDbLine
 10
-114.8625429283098
 20
113.2759742962603
 30
0.0
 11
-93.86254292812907
 21
113.2759742962603
 31
0.0
  0
LINE
  5
359
330
357
100
AcDbEntity
  8
1
  6
Continuous
 62
     2
100
AcDbLine
 10
-93.86254292812907
 20
144.2374999315587
 30
0.0
 11
-93.86254292812907
 21
111.7759742962603
 31
0.0
  0
LINE
  5
35A
330
357
100
AcDbEntity
  8
1
  6
Continuous
 62
     2
100
AcDbLine
 10
-114.8625429283098
 20
139.5124999315561
 30
0.0
 11
-114.8625429283098
 21
111.7759742962603
 31
0.0
  0
SOLID
  5
35B
330
357
100
AcDbEntity
  8
1
 62
     2
100
AcDbTrace
 10
-111.3625429283098
 20
113.7367580378162
 30
0.0
 11
-111.3625429283098
 21
112.8151905547044
 31
0.0
 12
-114.8625429283098
 22
113.2759742962603
 32
0.0
 13
-114.8625429283098
 23
113.2759742962603
 33
0.0
  0
SOLID
  5
35C
330
357
100
AcDbEntity
  8
1
 62
     2
100
AcDbTrace
 10
-97.36254292812907
 20
112.8151905547044
 30
0.0
 11
-97.36254292812907
 21
113.7367580378162
 31
0.0
 12
-93.86254292812907
 22
113.2759742962603
 32
0.0
 13
-93.86254292812907
 23
113.2759742962603
 33
0.0
  0
MTEXT
  5
35D
330
357
100
AcDbEntity
  8
1
 62
     3
100
AcDbMText
 10
-106.636562560171
 20
114.7759742962603
 30
0.0
 40
3.5
 41
0.0
 71
     7
 72
     1
  1
21
  7
CONVERTER_11
 11
0.9999999999970619
 21
2.424068405545306E-6
 31
0.0
 73
     1
 44
0.60024009603842
  0
ENDBLK
  5
35F
330
357
100
AcDbEntity
  8
0
100
AcDbBlockEnd
  0
BLOCK
  5
369
330
362
100
AcDbEntity
  8
0
100
AcDbBlockBegin
  2
*D19
 70
     1
 10
0.0
 20
0.0
 30
0.0
  3
*D19
  1

  0
LINE
  5
363
330
362
100
AcDbEntity
  8
1
  6
Continuous
 62
     2
100
AcDbLine
 10
-124.8625429283098
 20
164.0874999317397
 30
0.0
 11
-124.8625429283098
 21
139.512499931556
 31
0.0
  0
LINE
  5
364
330
362
100
AcDbEntity
  8
1
  6
Continuous
 62
     2
100
AcDbLine
 10
-114.8625429283097
 20
139.512499931556
 30
0.0
 11
-126.3625429283098
 21
139.512499931556
 31
0.0
  0
LINE
  5
365
330
362
100
AcDbEntity
  8
1
  6
Continuous
 62
     2
100
AcDbLine
 10
-113.6357252897671
 20
164.0874999317397
 30
0.0
 11
-126.3625429283098
 21
164.0874999317397
 31
0.0
  0
SOLID
  5
366
330
362
100
AcDbEntity
  8
1
 62
     2
100
AcDbTrace
 10
-124.4017591867539
 20
160.5874999317397
 30
0.0
 11
-125.3233266698657
 21
160.5874999317397
 31
0.0
 12
-124.8625429283098
 22
164.0874999317397
 32
0.0
 13
-124.8625429283098
 23
164.0874999317397
 33
0.0
  0
SOLID
  5
367
330
362
100
AcDbEntity
  8
1
 62
     2
100
AcDbTrace
 10
-125.3233266698657
 20
143.012499931556
 30
0.0
 11
-124.4017591867539
 21
143.012499931556
 31
0.0
 12
-124.8625429283098
 22
139.512499931556
 32
0.0
 13
-124.8625429283098
 23
139.512499931556
 33
0.0
  0
MTEXT
  5
368
330
362
100
AcDbEntity
  8
1
 62
     3
100
AcDbMText
 10
-126.7125429283098
 20
145.625529948988
 30
0.0
 40
3.5
 41
0.0
 71
     7
 72
     1
  1
24,58
  7
CONVERTER_11
 11
0.0
 21
1.0
 31
0.0
 73
     1
 44
0.60024009603842
  0
ENDBLK
  5
36A
330
362
100
AcDbEntity
  8
0
100
AcDbBlockEnd
  0
BLOCK
  5
374
330
36D
100
AcDbEntity
  8
0
100
AcDbBlockBegin
  2
*D20
 70
     1
 10
0.0
 20
0.0
 30
0.0
  3
*D20
  1

  0
LINE
  5
36E
330
36D
100
AcDbEntity
  8
1
  6
Continuous
 62
     2
100
AcDbLine
 10
-132.8625429283098
 20
164.0874999317397
 30
0.0
 11
-132.8625429283098
 21
121.9124999315586
 31
0.0
  0
LINE
  5
36F
330
36D
100
AcDbEntity
  8
1
  6
Continuous
 62
     2
100
AcDbLine
 10
-106.0292095948238
 20
121.9124999315586
 30
0.0
 11
-134.3625429283098
 21
121.9124999315586
 31
0.0
  0
LINE
  5
370
330
36D
100
AcDbEntity
  8
1
  6
Continuous
 62
     2
100
AcDbLine
 10
-113.6357252897671
 20
164.0874999317397
 30
0.0
 11
-134.3625429283098
 21
164.0874999317397
 31
0.0
  0
SOLID
  5
371
330
36D
100
AcDbEntity
  8
1
 62
     2
100
AcDbTrace
 10
-132.4017591867539
 20
160.5874999317397
 30
0.0
 11
-133.3233266698657
 21
160.5874999317397
 31
0.0
 12
-132.8625429283098
 22
164.0874999317397
 32
0.0
 13
-132.8625429283098
 23
164.0874999317397
 33
0.0
  0
SOLID
  5
372
330
36D
100
AcDbEntity
  8
1
 62
     2
100
AcDbTrace
 10
-133.3233266698657
 20
125.4124999315586
 30
0.0
 11
-132.4017591867539
 21
125.4124999315586
 31
0.0
 12
-132.8625429283098
 22
121.9124999315586
 32
0.0
 13
-132.8625429283098
 23
121.9124999315586
 33
0.0
  0
MTEXT
  5
373
330
36D
100
AcDbEntity
  8
1
 62
     3
100
AcDbMText
 10
-134.7125429283098
 20
138.5290889837928
 30
0.0
 40
3.5
 41
0.0
 71
     7
 72
     1
  1
42,18
  7
CONVERTER_11
 11
0.0
 21
1.0
 31
0.0
 73
     1
 44
0.60024009603842
  0
ENDBLK
  5
375
330
36D
100
AcDbEntity
  8
0
100
AcDbBlockEnd
  0
ENDSEC
  0
SECTION
  2
ENTITIES
  0
INSERT
  5
86
330
1F
100
AcDbEntity
  8
1
100
AcDbBlockReference
  2
1
 10
0.0
 20
0.0
 30
0.0
  0
ENDSEC
  0
SECTION
  2
OBJECTS
  0
DICTIONARY
  5
C
330
0
100
AcDbDictionary
281
     1
  3
ACAD_GROUP
350
D
  3
ACAD_LAYOUT
350
1A
  3
ACAD_MATERIAL
350
3B
  3
ACAD_MLEADERSTYLE
350
4D8
  3
ACAD_MLINESTYLE
350
17
  3
ACAD_PLOTSETTINGS
350
19
  3
ACAD_PLOTSTYLENAME
350
E
  3
ACAD_TABLESTYLE
350
4D7
  3
ACAD_VISUALSTYLE
350
2A
  0
DICTIONARY
  5
D
102
{ACAD_REACTORS
330
C
102
}
330
C
100
AcDbDictionary
281
     1
  0
DICTIONARY
  5
1A
102
{ACAD_REACTORS
330
C
102
}
330
C
100
AcDbDictionary
281
     1
  3
Layout1
350
1E
  3
Layout2
350
26
  3
Model
350
22
  0
DICTIONARY
  5
3B
102
{ACAD_REACTORS
330
C
102
}
330
C
100
AcDbDictionary
281
     1
  3
ByBlock
350
3D
  3
ByLayer
350
3C
  3
Global
350
3E
  0
DICTIONARY
  5
4D8
102
{ACAD_REACTORS
330
C
102
}
330
C
100
AcDbDictionary
281
     1
  0
DICTIONARY
  5
17
102
{ACAD_REACTORS
330
C
102
}
330
C
100
AcDbDictionary
281
     1
  3
Standard
350
18
  0
DICTIONARY
  5
19
102
{ACAD_REACTORS
330
C
102
}
330
C
100
AcDbDictionary
281
     1
  0
ACDBDICTIONARYWDFLT
  5
E
102
{ACAD_REACTORS
330
C
102
}
330
C
100
AcDbDictionary
281
     1
  3
Normal
350
F
100
AcDbDictionaryWithDefault
340
F
  0
DICTIONARY
  5
4D7
102
{ACAD_REACTORS
330
C
102
}
330
C
100
AcDbDictionary
281
     1
  0
DICTIONARY
  5
2A
102
{ACAD_REACTORS
330
C
102
}
330
C
100
AcDbDictionary
281
     1
  3
2dWireframe
350
2F
  3
3D Hidden
350
31
  3
3dWireframe
350
30
  3
Basic
350
32
  3
Brighten
350
36
  3
ColorChange
350
3A
  3
Conceptual
350
34
  3
Dim
350
35
  3
Facepattern
350
39
  3
Flat
350
2B
  3
FlatWithEdges
350
2C
  3
Gouraud
350
2D
  3
GouraudWithEdges
350
2E
  3
Linepattern
350
38
  3
Realistic
350
33
  3
Thicken
350
37
  0
LAYOUT
  5
1E
102
{ACAD_REACTORS
330
1A
102
}
330
1A
100
AcDbPlotSettings
  1

  2
none_device
  4

  6

 40
0.0
 41
0.0
 42
0.0
 43
0.0
 44
0.0
 45
0.0
 46
0.0
 47
0.0
 48
0.0
 49
0.0
140
0.0
141
0.0
142
1.0
143
1.0
 70
   688
 72
     0
 73
     0
 74
     5
  7

 75
    16
 76
     0
 77
     2
 78
   300
147
1.0
148
0.0
149
0.0
100
AcDbLayout
  1
Layout1
 70
     1
 71
     1
 10
0.0
 20
0.0
 11
12.0
 21
9.0
 12
0.0
 22
0.0
 32
0.0
 14
1.00000000000000E+20
 24
1.00000000000000E+20
 34
1.00000000000000E+20
 15
-1.00000000000000E+20
 25
-1.00000000000000E+20
 35
-1.00000000000000E+20
146
0.0
 13
0.0
 23
0.0
 33
0.0
 16
1.0
 26
0.0
 36
0.0
 17
0.0
 27
1.0
 37
0.0
 76
     0
330
1B
  0
LAYOUT
  5
26
102
{ACAD_REACTORS
330
1A
102
}
330
1A
100
AcDbPlotSettings
  1

  2
none_device
  4

  6

 40
0.0
 41
0.0
 42
0.0
 43
0.0
 44
0.0
 45
0.0
 46
0.0
 47
0.0
 48
0.0
 49
0.0
140
0.0
141
0.0
142
1.0
143
1.0
 70
   688
 72
     0
 73
     0
 74
     5
  7

 75
    16
 76
     0
 77
     2
 78
   300
147
1.0
148
0.0
149
0.0
100
AcDbLayout
  1
Layout2
 70
     1
 71
     2
 10
0.0
 20
0.0
 11
0.0
 21
0.0
 12
0.0
 22
0.0
 32
0.0
 14
0.0
 24
0.0
 34
0.0
 15
0.0
 25
0.0
 35
0.0
146
0.0
 13
0.0
 23
0.0
 33
0.0
 16
1.0
 26
0.0
 36
0.0
 17
0.0
 27
1.0
 37
0.0
 76
     0
330
23
  0
LAYOUT
  5
22
102
{ACAD_REACTORS
330
1A
102
}
330
1A
100
AcDbPlotSettings
  1

  2
none_device
  4

  6

 40
0.0
 41
0.0
 42
0.0
 43
0.0
 44
0.0
 45
0.0
 46
0.0
 47
0.0
 48
0.0
 49
0.0
140
0.0
141
0.0
142
1.0
143
1.0
 70
  1712
 72
     0
 73
     0
 74
     0
  7

 75
     0
 76
     0
 77
     2
 78
   300
147
1.0
148
0.0
149
0.0
100
AcDbLayout
  1
Model
 70
     1
 71
     0
 10
0.0
 20
0.0
 11
12.0
 21
9.0
 12
0.0
 22
0.0
 32
0.0
 14
-230.2398765889432
 24
-1.10347261104408
 34
0.0
 15
66.7601234110549
 25
208.896527388956
 35
0.0
146
0.0
 13
0.0
 23
0.0
 33
0.0
 16
1.0
 26
0.0
 36
0.0
 17
0.0
 27
1.0
 37
0.0
 76
     0
330
1F
331
29
  0
MATERIAL
  5
3D
102
{ACAD_REACTORS
330
3B
102
}
102
{ACAD_XDICTIONARY
360
4D3
102
}
330
3B
100
AcDbMaterial
  1
ByBlock
  0
MATERIAL
  5
3C
102
{ACAD_REACTORS
330
3B
102
}
102
{ACAD_XDICTIONARY
360
4D1
102
}
330
3B
100
AcDbMaterial
  1
ByLayer
  0
MATERIAL
  5
3E
102
{ACAD_REACTORS
330
3B
102
}
102
{ACAD_XDICTIONARY
360
4D5
102
}
330
3B
100
AcDbMaterial
  1
Global
  0
MLINESTYLE
  5
18
102
{ACAD_REACTORS
330
17
102
}
330
17
100
AcDbMlineStyle
  2
Standard
 70
     0
  3

 62
   256
 51
90.0
 52
90.0
 71
     2
 49
0.5
 62
   256
  6
BYLAYER
 49
-0.5
 62
   256
  6
BYLAYER
  0
ACDBPLACEHOLDER
  5
F
102
{ACAD_REACTORS
330
E
102
}
330
E
  0
VISUALSTYLE
  5
2F
102
{ACAD_REACTORS
330
2A
102
}
102
{ACAD_XDICTIONARY
360
4B9
102
}
330
2A
100
AcDbVisualStyle
  2
2dWireframe
 70
     4
 71
     0
 72
     2
 73
     0
 90
        0
 40
-0.6
 41
-30.0
 62
     5
 63
     7
421
 16777215
 74
     1
 91
        4
 64
     7
 65
   257
 75
     1
175
     1
 42
1.0
 92
        0
 66
   257
 43
1.0
 76
     1
 77
     6
 78
     2
 67
     7
 79
     5
170
     0
171
     0
290
     0
174
     0
 93
        1
 44
0.0
173
     0
291
     0
 45
0.0
1001
ACAD
1000
AcDbSavedByObjectVersion
1070
     0
  0
VISUALSTYLE
  5
31
102
{ACAD_REACTORS
330
2A
102
}
102
{ACAD_XDICTIONARY
360
4BD
102
}
330
2A
100
AcDbVisualStyle
  2
3D Hidden
 70
     6
 71
     1
 72
     2
 73
     2
 90
        0
 40
-0.6
 41
-30.0
 62
     5
 63
     7
421
 16777215
 74
     2
 91
        2
 64
     7
 65
   257
 75
     2
175
     1
 42
40.0
 92
        0
 66
   257
 43
1.0
 76
     1
 77
     6
 78
     2
 67
     7
 79
     3
170
     0
171
     0
290
     0
174
     0
 93
        1
 44
0.0
173
     0
291
     0
 45
0.0
1001
ACAD
1000
AcDbSavedByObjectVersion
1070
     0
  0
VISUALSTYLE
  5
30
102
{ACAD_REACTORS
330
2A
102
}
102
{ACAD_XDICTIONARY
360
4BB
102
}
330
2A
100
AcDbVisualStyle
  2
3dWireframe
 70
     5
 71
     0
 72
     2
 73
     0
 90
        0
 40
-0.6
 41
-30.0
 62
     5
 63
     7
421
 16777215
 74
     1
 91
        4
 64
     7
 65
   257
 75
     1
175
     1
 42
1.0
 92
        0
 66
   257
 43
1.0
 76
     1
 77
     6
 78
     2
 67
     7
 79
     5
170
     0
171
     0
290
     0
174
     0
 93
        1
 44
0.0
173
     0
291
     0
 45
0.0
1001
ACAD
1000
AcDbSavedByObjectVersion
1070
     0
  0
VISUALSTYLE
  5
32
102
{ACAD_REACTORS
330
2A
102
}
102
{ACAD_XDICTIONARY
360
4BF
102
}
330
2A
100
AcDbVisualStyle
  2
Basic
 70
     7
 71
     1
 72
     0
 73
     1
 90
        0
 40
-0.6
 41
-30.0
 62
     5
 63
     7
421
 16777215
 74
     0
 91
        4
 64
     7
 65
   257
 75
     1
175
     1
 42
1.0
 92
        8
 66
     7
 43
1.0
 76
     1
 77
     6
 78
     2
 67
     7
 79
     5
170
     0
171
     0
290
     0
174
     0
 93
        1
 44
0.0
173
     0
291
     1
 45
0.0
1001
ACAD
1000
AcDbSavedByObjectVersion
1070
     0
  0
VISUALSTYLE
  5
36
102
{ACAD_REACTORS
330
2A
102
}
102
{ACAD_XDICTIONARY
360
4C7
102
}
330
2A
100
AcDbVisualStyle
  2
Brighten
 70
    12
 71
     2
 72
     2
 73
     0
 90
        0
 40
-0.6
 41
-30.0
 62
     5
 63
     7
421
 16777215
 74
     1
 91
        4
 64
     7
 65
   257
 75
     1
175
     1
 42
1.0
 92
        8
 66
     7
 43
1.0
 76
     1
 77
     6
 78
     2
 67
     7
 79
     5
170
     0
171
     0
290
     0
174
     0
 93
        1
 44
50.0
173
     0
291
     1
 45
0.0
1001
ACAD
1000
AcDbSavedByObjectVersion
1070
     0
  0
VISUALSTYLE
  5
3A
102
{ACAD_REACTORS
330
2A
102
}
102
{ACAD_XDICTIONARY
360
4CF
102
}
330
2A
100
AcDbVisualStyle
  2
ColorChange
 70
    16
 71
     2
 72
     2
 73
     3
 90
        0
 40
-0.6
 41
-30.0
 62
     5
 63
     8
421
  8421504
 74
     1
 91
        4
 64
     7
 65
   257
 75
     1
175
     1
 42
1.0
 92
        8
 66
     8
424
  8421504
 43
1.0
 76
     1
 77
     6
 78
     2
 67
     7
 79
     5
170
     0
171
     0
290
     0
174
     0
 93
        1
 44
0.0
173
     0
291
     1
 45
0.0
1001
ACAD
1000
AcDbSavedByObjectVersion
1070
     0
  0
VISUALSTYLE
  5
34
102
{ACAD_REACTORS
330
2A
102
}
102
{ACAD_XDICTIONARY
360
4C3
102
}
330
2A
100
AcDbVisualStyle
  2
Conceptual
 70
     9
 71
     3
 72
     2
 73
     0
 90
        0
 40
-0.6
 41
-30.0
 62
     5
 63
     7
421
 16777215
 74
     2
 91
        2
 64
     7
 65
   257
 75
     1
175
     1
 42
40.0
 92
        8
 66
     7
 43
1.0
 76
     1
 77
     6
 78
     2
 67
     7
 79
     3
170
     0
171
     0
290
     0
174
     0
 93
        1
 44
0.0
173
     0
291
     0
 45
0.0
1001
ACAD
1000
AcDbSavedByObjectVersion
1070
     0
  0
VISUALSTYLE
  5
35
102
{ACAD_REACTORS
330
2A
102
}
102
{ACAD_XDICTIONARY
360
4C5
102
}
330
2A
100
AcDbVisualStyle
  2
Dim
 70
    11
 71
     2
 72
     2
 73
     0
 90
        0
 40
-0.6
 41
-30.0
 62
     5
 63
     7
421
 16777215
 74
     1
 91
        4
 64
     7
 65
   257
 75
     1
175
     1
 42
1.0
 92
        8
 66
     7
 43
1.0
 76
     1
 77
     6
 78
     2
 67
     7
 79
     5
170
     0
171
     0
290
     0
174
     0
 93
        1
 44
-50.0
173
     0
291
     1
 45
0.0
1001
ACAD
1000
AcDbSavedByObjectVersion
1070
     0
  0
VISUALSTYLE
  5
39
102
{ACAD_REACTORS
330
2A
102
}
102
{ACAD_XDICTIONARY
360
4CD
102
}
330
2A
100
AcDbVisualStyle
  2
Facepattern
 70
    15
 71
     2
 72
     2
 73
     0
 90
        0
 40
-0.6
 41
-30.0
 62
     5
 63
     7
421
 16777215
 74
     1
 91
        4
 64
     7
 65
   257
 75
     1
175
     1
 42
1.0
 92
        8
 66
     7
 43
1.0
 76
     1
 77
     6
 78
     2
 67
     7
 79
     5
170
     0
171
     0
290
     0
174
     0
 93
        1
 44
0.0
173
     0
291
     1
 45
0.0
1001
ACAD
1000
AcDbSavedByObjectVersion
1070
     0
  0
VISUALSTYLE
  5
2B
102
{ACAD_REACTORS
330
2A
102
}
102
{ACAD_XDICTIONARY
360
4B1
102
}
330
2A
100
AcDbVisualStyle
  2
Flat
 70
     0
 71
     2
 72
     1
 73
     1
 90
        2
 40
-0.6
 41
30.0
 62
     5
 63
     7
421
 16777215
 74
     0
 91
        4
 64
     7
 65
   257
 75
     1
175
     1
 42
1.0
 92
        8
 66
     7
 43
1.0
 76
     1
 77
     6
 78
     2
 67
     7
 79
     5
170
     0
171
     0
290
     0
174
     0
 93
       13
 44
0.0
173
     0
291
     1
 45
0.0
1001
ACAD
1000
AcDbSavedByObjectVersion
1070
     0
  0
VISUALSTYLE
  5
2C
102
{ACAD_REACTORS
330
2A
102
}
102
{ACAD_XDICTIONARY
360
4B3
102
}
330
2A
100
AcDbVisualStyle
  2
FlatWithEdges
 70
     1
 71
     2
 72
     1
 73
     1
 90
        2
 40
-0.6
 41
30.0
 62
     5
 63
     7
421
 16777215
 74
     1
 91
        4
 64
     7
 65
   257
 75
     1
175
     1
 42
1.0
 92
        0
 66
   257
 43
1.0
 76
     1
 77
     6
 78
     2
 67
     7
 79
     5
170
     0
171
     0
290
     0
174
     0
 93
       13
 44
0.0
173
     0
291
     1
 45
0.0
1001
ACAD
1000
AcDbSavedByObjectVersion
1070
     0
  0
VISUALSTYLE
  5
2D
102
{ACAD_REACTORS
330
2A
102
}
102
{ACAD_XDICTIONARY
360
4B5
102
}
330
2A
100
AcDbVisualStyle
  2
Gouraud
 70
     2
 71
     2
 72
     2
 73
     1
 90
        2
 40
-0.6
 41
30.0
 62
     5
 63
     7
421
 16777215
 74
     0
 91
        4
 64
     7
 65
   257
 75
     1
175
     1
 42
1.0
 92
        0
 66
     7
 43
1.0
 76
     1
 77
     6
 78
     2
 67
     7
 79
     5
170
     0
171
     0
290
     0
174
     0
 93
       13
 44
0.0
173
     0
291
     1
 45
0.0
1001
ACAD
1000
AcDbSavedByObjectVersion
1070
     0
  0
VISUALSTYLE
  5
2E
102
{ACAD_REACTORS
330
2A
102
}
102
{ACAD_XDICTIONARY
360
4B7
102
}
330
2A
100
AcDbVisualStyle
  2
GouraudWithEdges
 70
     3
 71
     2
 72
     2
 73
     1
 90
        2
 40
-0.6
 41
30.0
 62
     5
 63
     7
421
 16777215
 74
     1
 91
        4
 64
     7
 65
   257
 75
     1
175
     1
 42
1.0
 92
        0
 66
   257
 43
1.0
 76
     1
 77
     6
 78
     2
 67
     7
 79
     5
170
     0
171
     0
290
     0
174
     0
 93
       13
 44
0.0
173
     0
291
     1
 45
0.0
1001
ACAD
1000
AcDbSavedByObjectVersion
1070
     0
  0
VISUALSTYLE
  5
38
102
{ACAD_REACTORS
330
2A
102
}
102
{ACAD_XDICTIONARY
360
4CB
102
}
330
2A
100
AcDbVisualStyle
  2
Linepattern
 70
    14
 71
     2
 72
     2
 73
     0
 90
        0
 40
-0.6
 41
-30.0
 62
     5
 63
     7
421
 16777215
 74
     1
 91
        4
 64
     7
 65
   257
 75
     7
175
     7
 42
1.0
 92
        8
 66
     7
 43
1.0
 76
     1
 77
     6
 78
     2
 67
     7
 79
     5
170
     0
171
     0
290
     0
174
     0
 93
        1
 44
0.0
173
     0
291
     1
 45
0.0
1001
ACAD
1000
AcDbSavedByObjectVersion
1070
     0
  0
VISUALSTYLE
  5
33
102
{ACAD_REACTORS
330
2A
102
}
102
{ACAD_XDICTIONARY
360
4C1
102
}
330
2A
100
AcDbVisualStyle
  2
Realistic
 70
     8
 71
     2
 72
     2
 73
     0
 90
        0
 40
-0.6
 41
-30.0
 62
     5
 63
     7
421
 16777215
 74
     1
 91
        0
 64
     7
 65
   257
 75
     1
175
     1
 42
1.0
 92
        8
 66
     8
424
  7895160
 43
1.0
 76
     1
 77
     6
 78
     2
 67
     7
 79
     5
170
     0
171
     0
290
     0
174
     0
 93
       13
 44
0.0
173
     0
291
     0
 45
0.0
1001
ACAD
1000
AcDbSavedByObjectVersion
1070
     0
  0
VISUALSTYLE
  5
37
102
{ACAD_REACTORS
330
2A
102
}
102
{ACAD_XDICTIONARY
360
4C9
102
}
330
2A
100
AcDbVisualStyle
  2
Thicken
 70
    13
 71
     2
 72
     2
 73
     0
 90
        0
 40
-0.6
 41
-30.0
 62
     5
 63
     7
421
 16777215
 74
     1
 91
        4
 64
     7
 65
   257
 75
     1
175
     1
 42
1.0
 92
       12
 66
     7
 43
1.0
 76
     1
 77
     6
 78
     2
 67
     7
 79
     5
170
     0
171
     0
290
     0
174
     0
 93
        1
 44
0.0
173
     0
291
     1
 45
0.0
1001
ACAD
1000
AcDbSavedByObjectVersion
1070
     0
  0
DICTIONARY
  5
4D3
330
3D
100
AcDbDictionary
280
     1
281
     1
  3
ACAD_XREC_ROUNDTRIP
360
4D4
  0
DICTIONARY
  5
4D1
330
3C
100
AcDbDictionary
280
     1
281
     1
  3
ACAD_XREC_ROUNDTRIP
360
4D2
  0
DICTIONARY
  5
4D5
330
3E
100
AcDbDictionary
280
     1
281
     1
  3
ACAD_XREC_ROUNDTRIP
360
4D6
  0
DICTIONARY
  5
4B9
330
2F
100
AcDbDictionary
280
     1
281
     1
  3
ACAD_XREC_ROUNDTRIP
360
4BA
  0
DICTIONARY
  5
4BD
330
31
100
AcDbDictionary
280
     1
281
     1
  3
ACAD_XREC_ROUNDTRIP
360
4BE
  0
DICTIONARY
  5
4BB
330
30
100
AcDbDictionary
280
     1
281
     1
  3
ACAD_XREC_ROUNDTRIP
360
4BC
  0
DICTIONARY
  5
4BF
330
32
100
AcDbDictionary
280
     1
281
     1
  3
ACAD_XREC_ROUNDTRIP
360
4C0
  0
DICTIONARY
  5
4C7
330
36
100
AcDbDictionary
280
     1
281
     1
  3
ACAD_XREC_ROUNDTRIP
360
4C8
  0
DICTIONARY
  5
4CF
330
3A
100
AcDbDictionary
280
     1
281
     1
  3
ACAD_XREC_ROUNDTRIP
360
4D0
  0
DICTIONARY
  5
4C3
330
34
100
AcDbDictionary
280
     1
281
     1
  3
ACAD_XREC_ROUNDTRIP
360
4C4
  0
DICTIONARY
  5
4C5
330
35
100
AcDbDictionary
280
     1
281
     1
  3
ACAD_XREC_ROUNDTRIP
360
4C6
  0
DICTIONARY
  5
4CD
330
39
100
AcDbDictionary
280
     1
281
     1
  3
ACAD_XREC_ROUNDTRIP
360
4CE
  0
DICTIONARY
  5
4B1
330
2B
100
AcDbDictionary
280
     1
281
     1
  3
ACAD_XREC_ROUNDTRIP
360
4B2
  0
DICTIONARY
  5
4B3
330
2C
100
AcDbDictionary
280
     1
281
     1
  3
ACAD_XREC_ROUNDTRIP
360
4B4
  0
DICTIONARY
  5
4B5
330
2D
100
AcDbDictionary
280
     1
281
     1
  3
ACAD_XREC_ROUNDTRIP
360
4B6
  0
DICTIONARY
  5
4B7
330
2E
100
AcDbDictionary
280
     1
281
     1
  3
ACAD_XREC_ROUNDTRIP
360
4B8
  0
DICTIONARY
  5
4CB
330
38
100
AcDbDictionary
280
     1
281
     1
  3
ACAD_XREC_ROUNDTRIP
360
4CC
  0
DICTIONARY
  5
4C1
330
33
100
AcDbDictionary
280
     1
281
     1
  3
ACAD_XREC_ROUNDTRIP
360
4C2
  0
DICTIONARY
  5
4C9
330
37
100
AcDbDictionary
280
     1
281
     1
  3
ACAD_XREC_ROUNDTRIP
360
4CA
  0
XRECORD
  5
4D4
102
{ACAD_REACTORS
330
4D3
102
}
330
4D3
100
AcDbXrecord
280
     1
102
MATERIAL
148
0.0
149
0.0
149
0.0
 93
        0
 94
      127
282
     0
 72
     1
 77
     1
171
     1
175
     1
179
     1
273
     0
  0
XRECORD
  5
4D2
102
{ACAD_REACTORS
330
4D1
102
}
330
4D1
100
AcDbXrecord
280
     1
102
MATERIAL
148
0.0
149
0.0
149
0.0
 93
        0
 94
      127
282
     0
 72
     1
 77
     1
171
     1
175
     1
179
     1
273
     0
  0
XRECORD
  5
4D6
102
{ACAD_REACTORS
330
4D5
102
}
330
4D5
100
AcDbXrecord
280
     1
102
MATERIAL
148
0.0
149
0.0
149
0.0
 93
        0
 94
      127
282
     0
 72
     1
 77
     1
171
     1
175
     1
179
     1
273
     0
  0
XRECORD
  5
4BA
102
{ACAD_REACTORS
330
4B9
102
}
330
4B9
100
AcDbXrecord
280
     1
102
RTVSPropertyOp0
 70
     1
102
RTVSPropertyOp1
 70
     1
102
RTVSPropertyOp2
 70
     1
102
RTVSPropertyOp3
 70
     1
102
RTVSPropertyOp4
 70
     1
102
RTVSPropertyOp5
 70
     1
102
RTVSPropertyOp6
 70
     1
102
RTVSPropertyOp7
 70
     1
102
RTVSPropertyOp8
 70
     1
102
RTVSPropertyOp9
 70
     1
102
RTVSPropertyOp10
 70
     1
102
RTVSPropertyOp11
 70
     1
102
RTVSPropertyOp12
 70
     1
102
RTVSPropertyOp13
 70
     1
102
RTVSPropertyOp14
 70
     1
102
RTVSPropertyOp15
 70
     1
102
RTVSPropertyOp16
 70
     1
102
RTVSPropertyOp17
 70
     1
102
RTVSPropertyOp18
 70
     1
102
RTVSPropertyOp19
 70
     1
102
RTVSPropertyOp20
 70
     1
102
RTVSPropertyOp21
 70
     1
102
RTVSPropertyOp22
 70
     1
102
RTVSPropertyOp23
 70
     1
102
RTVSPropertyOp24
 70
     1
102
RTVSPropertyOp25
 70
     1
102
RTVSPropertyOp26
 70
     1
102
RTVSPropertyOp27
 70
     1
102
RTVSPropertyOp28
 70
     1
102
RTVSPropertyOp29
 70
     1
102
RTVSPropertyOp30
 70
     1
102
RTVSPropertyOp31
 70
     1
102
RTVSPropertyOp32
 70
     1
  0
XRECORD
  5
4BE
102
{ACAD_REACTORS
330
4BD
102
}
330
4BD
100
AcDbXrecord
280
     1
102
RTVSPropertyOp0
 70
     1
102
RTVSPropertyOp1
 70
     1
102
RTVSPropertyOp2
 70
     1
102
RTVSPropertyOp3
 70
     1
102
RTVSPropertyOp4
 70
     1
102
RTVSPropertyOp5
 70
     1
102
RTVSPropertyOp6
 70
     1
102
RTVSPropertyOp7
 70
     1
102
RTVSPropertyOp8
 70
     1
102
RTVSPropertyOp9
 70
     1
102
RTVSPropertyOp10
 70
     1
102
RTVSPropertyOp11
 70
     1
102
RTVSPropertyOp12
 70
     1
102
RTVSPropertyOp13
 70
     1
102
RTVSPropertyOp14
 70
     1
102
RTVSPropertyOp15
 70
     1
102
RTVSPropertyOp16
 70
     1
102
RTVSPropertyOp17
 70
     1
102
RTVSPropertyOp18
 70
     1
102
RTVSPropertyOp19
 70
     1
102
RTVSPropertyOp20
 70
     1
102
RTVSPropertyOp21
 70
     1
102
RTVSPropertyOp22
 70
     1
102
RTVSPropertyOp23
 70
     1
102
RTVSPropertyOp24
 70
     1
102
RTVSPropertyOp25
 70
     1
102
RTVSPropertyOp26
 70
     1
102
RTVSPropertyOp27
 70
     1
102
RTVSPropertyOp28
 70
     1
102
RTVSPropertyOp29
 70
     1
102
RTVSPropertyOp30
 70
     1
102
RTVSPropertyOp31
 70
     1
102
RTVSPropertyOp32
 70
     1
  0
XRECORD
  5
4BC
102
{ACAD_REACTORS
330
4BB
102
}
330
4BB
100
AcDbXrecord
280
     1
102
RTVSPropertyOp0
 70
     1
102
RTVSPropertyOp1
 70
     1
102
RTVSPropertyOp2
 70
     1
102
RTVSPropertyOp3
 70
     1
102
RTVSPropertyOp4
 70
     1
102
RTVSPropertyOp5
 70
     1
102
RTVSPropertyOp6
 70
     1
102
RTVSPropertyOp7
 70
     1
102
RTVSPropertyOp8
 70
     1
102
RTVSPropertyOp9
 70
     1
102
RTVSPropertyOp10
 70
     1
102
RTVSPropertyOp11
 70
     1
102
RTVSPropertyOp12
 70
     1
102
RTVSPropertyOp13
 70
     1
102
RTVSPropertyOp14
 70
     1
102
RTVSPropertyOp15
 70
     1
102
RTVSPropertyOp16
 70
     1
102
RTVSPropertyOp17
 70
     1
102
RTVSPropertyOp18
 70
     1
102
RTVSPropertyOp19
 70
     1
102
RTVSPropertyOp20
 70
     1
102
RTVSPropertyOp21
 70
     1
102
RTVSPropertyOp22
 70
     1
102
RTVSPropertyOp23
 70
     1
102
RTVSPropertyOp24
 70
     1
102
RTVSPropertyOp25
 70
     1
102
RTVSPropertyOp26
 70
     1
102
RTVSPropertyOp27
 70
     1
102
RTVSPropertyOp28
 70
     1
102
RTVSPropertyOp29
 70
     1
102
RTVSPropertyOp30
 70
     1
102
RTVSPropertyOp31
 70
     1
102
RTVSPropertyOp32
 70
     1
  0
XRECORD
  5
4C0
102
{ACAD_REACTORS
330
4BF
102
}
330
4BF
100
AcDbXrecord
280
     1
102
RTVSPropertyOp0
 70
     1
102
RTVSPropertyOp1
 70
     1
102
RTVSPropertyOp2
 70
     1
102
RTVSPropertyOp3
 70
     1
102
RTVSPropertyOp4
 70
     1
102
RTVSPropertyOp5
 70
     1
102
RTVSPropertyOp6
 70
     1
102
RTVSPropertyOp7
 70
     1
102
RTVSPropertyOp8
 70
     1
102
RTVSPropertyOp9
 70
     1
102
RTVSPropertyOp10
 70
     1
102
RTVSPropertyOp11
 70
     1
102
RTVSPropertyOp12
 70
     1
102
RTVSPropertyOp13
 70
     1
102
RTVSPropertyOp14
 70
     1
102
RTVSPropertyOp15
 70
     1
102
RTVSPropertyOp16
 70
     1
102
RTVSPropertyOp17
 70
     1
102
RTVSPropertyOp18
 70
     1
102
RTVSPropertyOp19
 70
     1
102
RTVSPropertyOp20
 70
     1
102
RTVSPropertyOp21
 70
     1
102
RTVSPropertyOp22
 70
     1
102
RTVSPropertyOp23
 70
     1
102
RTVSPropertyOp24
 70
     1
102
RTVSPropertyOp25
 70
     1
102
RTVSPropertyOp26
 70
     1
102
RTVSPropertyOp27
 70
     1
102
RTVSPropertyOp28
 70
     1
102
RTVSPropertyOp29
 70
     1
102
RTVSPropertyOp30
 70
     1
102
RTVSPropertyOp31
 70
     1
102
RTVSPropertyOp32
 70
     1
  0
XRECORD
  5
4C8
102
{ACAD_REACTORS
330
4C7
102
}
330
4C7
100
AcDbXrecord
280
     1
102
RTVSPropertyOp0
 70
     1
102
RTVSPropertyOp1
 70
     1
102
RTVSPropertyOp2
 70
     1
102
RTVSPropertyOp3
 70
     1
102
RTVSPropertyOp4
 70
     1
102
RTVSPropertyOp5
 70
     1
102
RTVSPropertyOp6
 70
     1
102
RTVSPropertyOp7
 70
     1
102
RTVSPropertyOp8
 70
     1
102
RTVSPropertyOp9
 70
     1
102
RTVSPropertyOp10
 70
     1
102
RTVSPropertyOp11
 70
     1
102
RTVSPropertyOp12
 70
     1
102
RTVSPropertyOp13
 70
     1
102
RTVSPropertyOp14
 70
     1
102
RTVSPropertyOp15
 70
     1
102
RTVSPropertyOp16
 70
     1
102
RTVSPropertyOp17
 70
     1
102
RTVSPropertyOp18
 70
     1
102
RTVSPropertyOp19
 70
     1
102
RTVSPropertyOp20
 70
     1
102
RTVSPropertyOp21
 70
     1
102
RTVSPropertyOp22
 70
     1
102
RTVSPropertyOp23
 70
     1
102
RTVSPropertyOp24
 70
     1
102
RTVSPropertyOp25
 70
     1
102
RTVSPropertyOp26
 70
     1
102
RTVSPropertyOp27
 70
     1
102
RTVSPropertyOp28
 70
     1
102
RTVSPropertyOp29
 70
     1
102
RTVSPropertyOp30
 70
     1
102
RTVSPropertyOp31
 70
     1
102
RTVSPropertyOp32
 70
     1
  0
XRECORD
  5
4D0
102
{ACAD_REACTORS
330
4CF
102
}
330
4CF
100
AcDbXrecord
280
     1
102
RTVSPropertyOp0
 70
     1
102
RTVSPropertyOp1
 70
     1
102
RTVSPropertyOp2
 70
     1
102
RTVSPropertyOp3
 70
     1
102
RTVSPropertyOp4
 70
     1
102
RTVSPropertyOp5
 70
     1
102
RTVSPropertyOp6
 70
     1
102
RTVSPropertyOp7
 70
     1
102
RTVSPropertyOp8
 70
     1
102
RTVSPropertyOp9
 70
     1
102
RTVSPropertyOp10
 70
     1
102
RTVSPropertyOp11
 70
     1
102
RTVSPropertyOp12
 70
     1
102
RTVSPropertyOp13
 70
     1
102
RTVSPropertyOp14
 70
     1
102
RTVSPropertyOp15
 70
     1
102
RTVSPropertyOp16
 70
     1
102
RTVSPropertyOp17
 70
     1
102
RTVSPropertyOp18
 70
     1
102
RTVSPropertyOp19
 70
     1
102
RTVSPropertyOp20
 70
     1
102
RTVSPropertyOp21
 70
     1
102
RTVSPropertyOp22
 70
     1
102
RTVSPropertyOp23
 70
     1
102
RTVSPropertyOp24
 70
     1
102
RTVSPropertyOp25
 70
     1
102
RTVSPropertyOp26
 70
     1
102
RTVSPropertyOp27
 70
     1
102
RTVSPropertyOp28
 70
     1
102
RTVSPropertyOp29
 70
     1
102
RTVSPropertyOp30
 70
     1
102
RTVSPropertyOp31
 70
     1
102
RTVSPropertyOp32
 70
     1
  0
XRECORD
  5
4C4
102
{ACAD_REACTORS
330
4C3
102
}
330
4C3
100
AcDbXrecord
280
     1
102
RTVSPropertyOp0
 70
     1
102
RTVSPropertyOp1
 70
     1
102
RTVSPropertyOp2
 70
     1
102
RTVSPropertyOp3
 70
     1
102
RTVSPropertyOp4
 70
     1
102
RTVSPropertyOp5
 70
     1
102
RTVSPropertyOp6
 70
     1
102
RTVSPropertyOp7
 70
     1
102
RTVSPropertyOp8
 70
     1
102
RTVSPropertyOp9
 70
     1
102
RTVSPropertyOp10
 70
     1
102
RTVSPropertyOp11
 70
     1
102
RTVSPropertyOp12
 70
     1
102
RTVSPropertyOp13
 70
     1
102
RTVSPropertyOp14
 70
     1
102
RTVSPropertyOp15
 70
     1
102
RTVSPropertyOp16
 70
     1
102
RTVSPropertyOp17
 70
     1
102
RTVSPropertyOp18
 70
     1
102
RTVSPropertyOp19
 70
     1
102
RTVSPropertyOp20
 70
     1
102
RTVSPropertyOp21
 70
     1
102
RTVSPropertyOp22
 70
     1
102
RTVSPropertyOp23
 70
     1
102
RTVSPropertyOp24
 70
     1
102
RTVSPropertyOp25
 70
     1
102
RTVSPropertyOp26
 70
     1
102
RTVSPropertyOp27
 70
     1
102
RTVSPropertyOp28
 70
     1
102
RTVSPropertyOp29
 70
     1
102
RTVSPropertyOp30
 70
     1
102
RTVSPropertyOp31
 70
     1
102
RTVSPropertyOp32
 70
     1
  0
XRECORD
  5
4C6
102
{ACAD_REACTORS
330
4C5
102
}
330
4C5
100
AcDbXrecord
280
     1
102
RTVSPropertyOp0
 70
     1
102
RTVSPropertyOp1
 70
     1
102
RTVSPropertyOp2
 70
     1
102
RTVSPropertyOp3
 70
     1
102
RTVSPropertyOp4
 70
     1
102
RTVSPropertyOp5
 70
     1
102
RTVSPropertyOp6
 70
     1
102
RTVSPropertyOp7
 70
     1
102
RTVSPropertyOp8
 70
     1
102
RTVSPropertyOp9
 70
     1
102
RTVSPropertyOp10
 70
     1
102
RTVSPropertyOp11
 70
     1
102
RTVSPropertyOp12
 70
     1
102
RTVSPropertyOp13
 70
     1
102
RTVSPropertyOp14
 70
     1
102
RTVSPropertyOp15
 70
     1
102
RTVSPropertyOp16
 70
     1
102
RTVSPropertyOp17
 70
     1
102
RTVSPropertyOp18
 70
     1
102
RTVSPropertyOp19
 70
     1
102
RTVSPropertyOp20
 70
     1
102
RTVSPropertyOp21
 70
     1
102
RTVSPropertyOp22
 70
     1
102
RTVSPropertyOp23
 70
     1
102
RTVSPropertyOp24
 70
     1
102
RTVSPropertyOp25
 70
     1
102
RTVSPropertyOp26
 70
     1
102
RTVSPropertyOp27
 70
     1
102
RTVSPropertyOp28
 70
     1
102
RTVSPropertyOp29
 70
     1
102
RTVSPropertyOp30
 70
     1
102
RTVSPropertyOp31
 70
     1
102
RTVSPropertyOp32
 70
     1
  0
XRECORD
  5
4CE
102
{ACAD_REACTORS
330
4CD
102
}
330
4CD
100
AcDbXrecord
280
     1
102
RTVSPropertyOp0
 70
     1
102
RTVSPropertyOp1
 70
     1
102
RTVSPropertyOp2
 70
     1
102
RTVSPropertyOp3
 70
     1
102
RTVSPropertyOp4
 70
     1
102
RTVSPropertyOp5
 70
     1
102
RTVSPropertyOp6
 70
     1
102
RTVSPropertyOp7
 70
     1
102
RTVSPropertyOp8
 70
     1
102
RTVSPropertyOp9
 70
     1
102
RTVSPropertyOp10
 70
     1
102
RTVSPropertyOp11
 70
     1
102
RTVSPropertyOp12
 70
     1
102
RTVSPropertyOp13
 70
     1
102
RTVSPropertyOp14
 70
     1
102
RTVSPropertyOp15
 70
     1
102
RTVSPropertyOp16
 70
     1
102
RTVSPropertyOp17
 70
     1
102
RTVSPropertyOp18
 70
     1
102
RTVSPropertyOp19
 70
     1
102
RTVSPropertyOp20
 70
     1
102
RTVSPropertyOp21
 70
     1
102
RTVSPropertyOp22
 70
     1
102
RTVSPropertyOp23
 70
     1
102
RTVSPropertyOp24
 70
     1
102
RTVSPropertyOp25
 70
     1
102
RTVSPropertyOp26
 70
     1
102
RTVSPropertyOp27
 70
     1
102
RTVSPropertyOp28
 70
     1
102
RTVSPropertyOp29
 70
     1
102
RTVSPropertyOp30
 70
     1
102
RTVSPropertyOp31
 70
     1
102
RTVSPropertyOp32
 70
     1
  0
XRECORD
  5
4B2
102
{ACAD_REACTORS
330
4B1
102
}
330
4B1
100
AcDbXrecord
280
     1
102
RTVSPropertyOp0
 70
     1
102
RTVSPropertyOp1
 70
     1
102
RTVSPropertyOp2
 70
     1
102
RTVSPropertyOp3
 70
     1
102
RTVSPropertyOp4
 70
     1
102
RTVSPropertyOp5
 70
     1
102
RTVSPropertyOp6
 70
     1
102
RTVSPropertyOp7
 70
     1
102
RTVSPropertyOp8
 70
     1
102
RTVSPropertyOp9
 70
     1
102
RTVSPropertyOp10
 70
     1
102
RTVSPropertyOp11
 70
     1
102
RTVSPropertyOp12
 70
     1
102
RTVSPropertyOp13
 70
     1
102
RTVSPropertyOp14
 70
     1
102
RTVSPropertyOp15
 70
     1
102
RTVSPropertyOp16
 70
     1
102
RTVSPropertyOp17
 70
     1
102
RTVSPropertyOp18
 70
     1
102
RTVSPropertyOp19
 70
     1
102
RTVSPropertyOp20
 70
     1
102
RTVSPropertyOp21
 70
     1
102
RTVSPropertyOp22
 70
     1
102
RTVSPropertyOp23
 70
     1
102
RTVSPropertyOp24
 70
     1
102
RTVSPropertyOp25
 70
     1
102
RTVSPropertyOp26
 70
     1
102
RTVSPropertyOp27
 70
     1
102
RTVSPropertyOp28
 70
     1
102
RTVSPropertyOp29
 70
     1
102
RTVSPropertyOp30
 70
     1
102
RTVSPropertyOp31
 70
     1
102
RTVSPropertyOp32
 70
     1
  0
XRECORD
  5
4B4
102
{ACAD_REACTORS
330
4B3
102
}
330
4B3
100
AcDbXrecord
280
     1
102
RTVSPropertyOp0
 70
     1
102
RTVSPropertyOp1
 70
     1
102
RTVSPropertyOp2
 70
     1
102
RTVSPropertyOp3
 70
     1
102
RTVSPropertyOp4
 70
     1
102
RTVSPropertyOp5
 70
     1
102
RTVSPropertyOp6
 70
     1
102
RTVSPropertyOp7
 70
     1
102
RTVSPropertyOp8
 70
     1
102
RTVSPropertyOp9
 70
     1
102
RTVSPropertyOp10
 70
     1
102
RTVSPropertyOp11
 70
     1
102
RTVSPropertyOp12
 70
     1
102
RTVSPropertyOp13
 70
     1
102
RTVSPropertyOp14
 70
     1
102
RTVSPropertyOp15
 70
     1
102
RTVSPropertyOp16
 70
     1
102
RTVSPropertyOp17
 70
     1
102
RTVSPropertyOp18
 70
     1
102
RTVSPropertyOp19
 70
     1
102
RTVSPropertyOp20
 70
     1
102
RTVSPropertyOp21
 70
     1
102
RTVSPropertyOp22
 70
     1
102
RTVSPropertyOp23
 70
     1
102
RTVSPropertyOp24
 70
     1
102
RTVSPropertyOp25
 70
     1
102
RTVSPropertyOp26
 70
     1
102
RTVSPropertyOp27
 70
     1
102
RTVSPropertyOp28
 70
     1
102
RTVSPropertyOp29
 70
     1
102
RTVSPropertyOp30
 70
     1
102
RTVSPropertyOp31
 70
     1
102
RTVSPropertyOp32
 70
     1
  0
XRECORD
  5
4B6
102
{ACAD_REACTORS
330
4B5
102
}
330
4B5
100
AcDbXrecord
280
     1
102
RTVSPropertyOp0
 70
     1
102
RTVSPropertyOp1
 70
     1
102
RTVSPropertyOp2
 70
     1
102
RTVSPropertyOp3
 70
     1
102
RTVSPropertyOp4
 70
     1
102
RTVSPropertyOp5
 70
     1
102
RTVSPropertyOp6
 70
     1
102
RTVSPropertyOp7
 70
     1
102
RTVSPropertyOp8
 70
     1
102
RTVSPropertyOp9
 70
     1
102
RTVSPropertyOp10
 70
     1
102
RTVSPropertyOp11
 70
     1
102
RTVSPropertyOp12
 70
     1
102
RTVSPropertyOp13
 70
     1
102
RTVSPropertyOp14
 70
     1
102
RTVSPropertyOp15
 70
     1
102
RTVSPropertyOp16
 70
     1
102
RTVSPropertyOp17
 70
     1
102
RTVSPropertyOp18
 70
     1
102
RTVSPropertyOp19
 70
     1
102
RTVSPropertyOp20
 70
     1
102
RTVSPropertyOp21
 70
     1
102
RTVSPropertyOp22
 70
     1
102
RTVSPropertyOp23
 70
     1
102
RTVSPropertyOp24
 70
     1
102
RTVSPropertyOp25
 70
     1
102
RTVSPropertyOp26
 70
     1
102
RTVSPropertyOp27
 70
     1
102
RTVSPropertyOp28
 70
     1
102
RTVSPropertyOp29
 70
     1
102
RTVSPropertyOp30
 70
     1
102
RTVSPropertyOp31
 70
     1
102
RTVSPropertyOp32
 70
     1
  0
XRECORD
  5
4B8
102
{ACAD_REACTORS
330
4B7
102
}
330
4B7
100
AcDbXrecord
280
     1
102
RTVSPropertyOp0
 70
     1
102
RTVSPropertyOp1
 70
     1
102
RTVSPropertyOp2
 70
     1
102
RTVSPropertyOp3
 70
     1
102
RTVSPropertyOp4
 70
     1
102
RTVSPropertyOp5
 70
     1
102
RTVSPropertyOp6
 70
     1
102
RTVSPropertyOp7
 70
     1
102
RTVSPropertyOp8
 70
     1
102
RTVSPropertyOp9
 70
     1
102
RTVSPropertyOp10
 70
     1
102
RTVSPropertyOp11
 70
     1
102
RTVSPropertyOp12
 70
     1
102
RTVSPropertyOp13
 70
     1
102
RTVSPropertyOp14
 70
     1
102
RTVSPropertyOp15
 70
     1
102
RTVSPropertyOp16
 70
     1
102
RTVSPropertyOp17
 70
     1
102
RTVSPropertyOp18
 70
     1
102
RTVSPropertyOp19
 70
     1
102
RTVSPropertyOp20
 70
     1
102
RTVSPropertyOp21
 70
     1
102
RTVSPropertyOp22
 70
     1
102
RTVSPropertyOp23
 70
     1
102
RTVSPropertyOp24
 70
     1
102
RTVSPropertyOp25
 70
     1
102
RTVSPropertyOp26
 70
     1
102
RTVSPropertyOp27
 70
     1
102
RTVSPropertyOp28
 70
     1
102
RTVSPropertyOp29
 70
     1
102
RTVSPropertyOp30
 70
     1
102
RTVSPropertyOp31
 70
     1
102
RTVSPropertyOp32
 70
     1
  0
XRECORD
  5
4CC
102
{ACAD_REACTORS
330
4CB
102
}
330
4CB
100
AcDbXrecord
280
     1
102
RTVSPropertyOp0
 70
     1
102
RTVSPropertyOp1
 70
     1
102
RTVSPropertyOp2
 70
     1
102
RTVSPropertyOp3
 70
     1
102
RTVSPropertyOp4
 70
     1
102
RTVSPropertyOp5
 70
     1
102
RTVSPropertyOp6
 70
     1
102
RTVSPropertyOp7
 70
     1
102
RTVSPropertyOp8
 70
     1
102
RTVSPropertyOp9
 70
     1
102
RTVSPropertyOp10
 70
     1
102
RTVSPropertyOp11
 70
     1
102
RTVSPropertyOp12
 70
     1
102
RTVSPropertyOp13
 70
     1
102
RTVSPropertyOp14
 70
     1
102
RTVSPropertyOp15
 70
     1
102
RTVSPropertyOp16
 70
     1
102
RTVSPropertyOp17
 70
     1
102
RTVSPropertyOp18
 70
     1
102
RTVSPropertyOp19
 70
     1
102
RTVSPropertyOp20
 70
     1
102
RTVSPropertyOp21
 70
     1
102
RTVSPropertyOp22
 70
     1
102
RTVSPropertyOp23
 70
     1
102
RTVSPropertyOp24
 70
     1
102
RTVSPropertyOp25
 70
     1
102
RTVSPropertyOp26
 70
     1
102
RTVSPropertyOp27
 70
     1
102
RTVSPropertyOp28
 70
     1
102
RTVSPropertyOp29
 70
     1
102
RTVSPropertyOp30
 70
     1
102
RTVSPropertyOp31
 70
     1
102
RTVSPropertyOp32
 70
     1
  0
XRECORD
  5
4C2
102
{ACAD_REACTORS
330
4C1
102
}
330
4C1
100
AcDbXrecord
280
     1
102
RTVSPropertyOp0
 70
     1
102
RTVSPropertyOp1
 70
     1
102
RTVSPropertyOp2
 70
     1
102
RTVSPropertyOp3
 70
     1
102
RTVSPropertyOp4
 70
     1
102
RTVSPropertyOp5
 70
     1
102
RTVSPropertyOp6
 70
     1
102
RTVSPropertyOp7
 70
     1
102
RTVSPropertyOp8
 70
     1
102
RTVSPropertyOp9
 70
     1
102
RTVSPropertyOp10
 70
     1
102
RTVSPropertyOp11
 70
     1
102
RTVSPropertyOp12
 70
     1
102
RTVSPropertyOp13
 70
     1
102
RTVSPropertyOp14
 70
     1
102
RTVSPropertyOp15
 70
     1
102
RTVSPropertyOp16
 70
     1
102
RTVSPropertyOp17
 70
     1
102
RTVSPropertyOp18
 70
     1
102
RTVSPropertyOp19
 70
     1
102
RTVSPropertyOp20
 70
     1
102
RTVSPropertyOp21
 70
     1
102
RTVSPropertyOp22
 70
     1
102
RTVSPropertyOp23
 70
     1
102
RTVSPropertyOp24
 70
     1
102
RTVSPropertyOp25
 70
     1
102
RTVSPropertyOp26
 70
     1
102
RTVSPropertyOp27
 70
     1
102
RTVSPropertyOp28
 70
     1
102
RTVSPropertyOp29
 70
     1
102
RTVSPropertyOp30
 70
     1
102
RTVSPropertyOp31
 70
     1
102
RTVSPropertyOp32
 70
     1
  0
XRECORD
  5
4CA
102
{ACAD_REACTORS
330
4C9
102
}
330
4C9
100
AcDbXrecord
280
     1
102
RTVSPropertyOp0
 70
     1
102
RTVSPropertyOp1
 70
     1
102
RTVSPropertyOp2
 70
     1
102
RTVSPropertyOp3
 70
     1
102
RTVSPropertyOp4
 70
     1
102
RTVSPropertyOp5
 70
     1
102
RTVSPropertyOp6
 70
     1
102
RTVSPropertyOp7
 70
     1
102
RTVSPropertyOp8
 70
     1
102
RTVSPropertyOp9
 70
     1
102
RTVSPropertyOp10
 70
     1
102
RTVSPropertyOp11
 70
     1
102
RTVSPropertyOp12
 70
     1
102
RTVSPropertyOp13
 70
     1
102
RTVSPropertyOp14
 70
     1
102
RTVSPropertyOp15
 70
     1
102
RTVSPropertyOp16
 70
     1
102
RTVSPropertyOp17
 70
     1
102
RTVSPropertyOp18
 70
     1
102
RTVSPropertyOp19
 70
     1
102
RTVSPropertyOp20
 70
     1
102
RTVSPropertyOp21
 70
     1
102
RTVSPropertyOp22
 70
     1
102
RTVSPropertyOp23
 70
     1
102
RTVSPropertyOp24
 70
     1
102
RTVSPropertyOp25
 70
     1
102
RTVSPropertyOp26
 70
     1
102
RTVSPropertyOp27
 70
     1
102
RTVSPropertyOp28
 70
     1
102
RTVSPropertyOp29
 70
     1
102
RTVSPropertyOp30
 70
     1
102
RTVSPropertyOp31
 70
     1
102
RTVSPropertyOp32
 70
     1
  0
ENDSEC
  0
EOF
