  0
SECTION
  2
HEADER
  9
$ACADVER
  1
AC1018
  9
$ACADMAINTVER
 70
     0
  9
$DWGCODEPAGE
  3
ANSI_1252
  9
$INSBASE
 10
0.0
 20
0.0
 30
0.0
  9
$EXTMIN
 10
-1160.500000000084
 20
-1126.100000104839
 30
0.0
  9
$EXTMAX
 10
-863.5000000000857
 20
-916.100000104839
 30
0.0
  9
$LIMMIN
 10
0.0
 20
0.0
  9
$LIMMAX
 10
12.0
 20
9.0
  9
$ORTHOMODE
 70
     0
  9
$REGENMODE
 70
     1
  9
$FILLMODE
 70
     1
  9
$QTEXTMODE
 70
     0
  9
$MIRRTEXT
 70
     1
  9
$LTSCALE
 40
1.0
  9
$ATTMODE
 70
     1
  9
$TEXTSIZE
 40
0.2
  9
$TRACEWID
 40
0.05
  9
$TEXTSTYLE
  7
Standard
  9
$CLAYER
  8
0
  9
$CELTYPE
  6
ByLayer
  9
$CECOLOR
 62
   256
  9
$CELTSCALE
 40
1.0
  9
$DISPSILH
 70
     0
  9
$DIMSCALE
 40
1.0
  9
$DIMASZ
 40
0.18
  9
$DIMEXO
 40
0.0625
  9
$DIMDLI
 40
0.38
  9
$DIMRND
 40
0.0
  9
$DIMDLE
 40
0.0
  9
$DIMEXE
 40
0.18
  9
$DIMTP
 40
0.0
  9
$DIMTM
 40
0.0
  9
$DIMTXT
 40
0.18
  9
$DIMCEN
 40
0.09
  9
$DIMTSZ
 40
0.0
  9
$DIMTOL
 70
     0
  9
$DIMLIM
 70
     0
  9
$DIMTIH
 70
     1
  9
$DIMTOH
 70
     1
  9
$DIMSE1
 70
     0
  9
$DIMSE2
 70
     0
  9
$DIMTAD
 70
     0
  9
$DIMZIN
 70
     0
  9
$DIMBLK
  1

  9
$DIMASO
 70
     1
  9
$DIMSHO
 70
     1
  9
$DIMPOST
  1

  9
$DIMAPOST
  1

  9
$DIMALT
 70
     0
  9
$DIMALTD
 70
     2
  9
$DIMALTF
 40
25.4
  9
$DIMLFAC
 40
1.0
  9
$DIMTOFL
 70
     0
  9
$DIMTVP
 40
0.0
  9
$DIMTIX
 70
     0
  9
$DIMSOXD
 70
     0
  9
$DIMSAH
 70
     0
  9
$DIMBLK1
  1

  9
$DIMBLK2
  1

  9
$DIMSTYLE
  2
Standard
  9
$DIMCLRD
 70
     0
  9
$DIMCLRE
 70
     0
  9
$DIMCLRT
 70
     0
  9
$DIMTFAC
 40
1.0
  9
$DIMGAP
 40
0.09
  9
$DIMJUST
 70
     0
  9
$DIMSD1
 70
     0
  9
$DIMSD2
 70
     0
  9
$DIMTOLJ
 70
     1
  9
$DIMTZIN
 70
     0
  9
$DIMALTZ
 70
     0
  9
$DIMALTTZ
 70
     0
  9
$DIMUPT
 70
     0
  9
$DIMDEC
 70
     4
  9
$DIMTDEC
 70
     4
  9
$DIMALTU
 70
     2
  9
$DIMALTTD
 70
     2
  9
$DIMTXSTY
  7
Standard
  9
$DIMAUNIT
 70
     0
  9
$DIMADEC
 70
     0
  9
$DIMALTRND
 40
0.0
  9
$DIMAZIN
 70
     0
  9
$DIMDSEP
 70
    46
  9
$DIMATFIT
 70
     3
  9
$DIMFRAC
 70
     0
  9
$DIMLDRBLK
  1

  9
$DIMLUNIT
 70
     2
  9
$DIMLWD
 70
    -2
  9
$DIMLWE
 70
    -2
  9
$DIMTMOVE
 70
     0
  9
$LUNITS
 70
     2
  9
$LUPREC
 70
     4
  9
$SKETCHINC
 40
0.1
  9
$FILLETRAD
 40
0.5
  9
$AUNITS
 70
     0
  9
$AUPREC
 70
     0
  9
$MENU
  1
.
  9
$ELEVATION
 40
0.0
  9
$PELEVATION
 40
0.0
  9
$THICKNESS
 40
0.0
  9
$LIMCHECK
 70
     0
  9
$CHAMFERA
 40
0.5
  9
$CHAMFERB
 40
0.5
  9
$CHAMFERC
 40
1.0
  9
$CHAMFERD
 40
0.0
  9
$SKPOLY
 70
     0
  9
$TDCREATE
 40
2458050.456621551
  9
$TDUCREATE
 40
2458050.373288217
  9
$TDUPDATE
 40
2458050.45662191
  9
$TDUUPDATE
 40
2458050.373288576
  9
$TDINDWG
 40
0.0000000116
  9
$TDUSRTIMER
 40
0.0000000116
  9
$USRTIMER
 70
     1
  9
$ANGBASE
 50
0.0
  9
$ANGDIR
 70
     0
  9
$PDMODE
 70
     0
  9
$PDSIZE
 40
0.0
  9
$PLINEWID
 40
0.0
  9
$SPLFRAME
 70
     0
  9
$SPLINETYPE
 70
     6
  9
$SPLINESEGS
 70
     8
  9
$HANDSEED
  5
2A0
  9
$SURFTAB1
 70
     6
  9
$SURFTAB2
 70
     6
  9
$SURFTYPE
 70
     6
  9
$SURFU
 70
     6
  9
$SURFV
 70
     6
  9
$UCSBASE
  2

  9
$UCSNAME
  2

  9
$UCSORG
 10
0.0
 20
0.0
 30
0.0
  9
$UCSXDIR
 10
1.0
 20
0.0
 30
0.0
  9
$UCSYDIR
 10
0.0
 20
1.0
 30
0.0
  9
$UCSORTHOREF
  2

  9
$UCSORTHOVIEW
 70
     0
  9
$UCSORGTOP
 10
0.0
 20
0.0
 30
0.0
  9
$UCSORGBOTTOM
 10
0.0
 20
0.0
 30
0.0
  9
$UCSORGLEFT
 10
0.0
 20
0.0
 30
0.0
  9
$UCSORGRIGHT
 10
0.0
 20
0.0
 30
0.0
  9
$UCSORGFRONT
 10
0.0
 20
0.0
 30
0.0
  9
$UCSORGBACK
 10
0.0
 20
0.0
 30
0.0
  9
$PUCSBASE
  2

  9
$PUCSNAME
  2

  9
$PUCSORG
 10
0.0
 20
0.0
 30
0.0
  9
$PUCSXDIR
 10
1.0
 20
0.0
 30
0.0
  9
$PUCSYDIR
 10
0.0
 20
1.0
 30
0.0
  9
$PUCSORTHOREF
  2

  9
$PUCSORTHOVIEW
 70
     0
  9
$PUCSORGTOP
 10
0.0
 20
0.0
 30
0.0
  9
$PUCSORGBOTTOM
 10
0.0
 20
0.0
 30
0.0
  9
$PUCSORGLEFT
 10
0.0
 20
0.0
 30
0.0
  9
$PUCSORGRIGHT
 10
0.0
 20
0.0
 30
0.0
  9
$PUCSORGFRONT
 10
0.0
 20
0.0
 30
0.0
  9
$PUCSORGBACK
 10
0.0
 20
0.0
 30
0.0
  9
$USERI1
 70
     0
  9
$USERI2
 70
     0
  9
$USERI3
 70
     0
  9
$USERI4
 70
     0
  9
$USERI5
 70
     0
  9
$USERR1
 40
18.1
  9
$USERR2
 40
0.0
  9
$USERR3
 40
0.0
  9
$USERR4
 40
0.0
  9
$USERR5
 40
0.0
  9
$WORLDVIEW
 70
     1
  9
$SHADEDGE
 70
     3
  9
$SHADEDIF
 70
    70
  9
$TILEMODE
 70
     1
  9
$MAXACTVP
 70
    64
  9
$PINSBASE
 10
0.0
 20
0.0
 30
0.0
  9
$PLIMCHECK
 70
     0
  9
$PEXTMIN
 10
1.00000000000000E+20
 20
1.00000000000000E+20
 30
1.00000000000000E+20
  9
$PEXTMAX
 10
-1.00000000000000E+20
 20
-1.00000000000000E+20
 30
-1.00000000000000E+20
  9
$PLIMMIN
 10
0.0
 20
0.0
  9
$PLIMMAX
 10
12.0
 20
9.0
  9
$UNITMODE
 70
     0
  9
$VISRETAIN
 70
     1
  9
$PLINEGEN
 70
     0
  9
$PSLTSCALE
 70
     1
  9
$TREEDEPTH
 70
  3020
  9
$CMLSTYLE
  2
Standard
  9
$CMLJUST
 70
     0
  9
$CMLSCALE
 40
1.0
  9
$PROXYGRAPHICS
 70
     1
  9
$MEASUREMENT
 70
     1
  9
$CELWEIGHT
370
    -1
  9
$ENDCAPS
280
     0
  9
$JOINSTYLE
280
     0
  9
$LWDISPLAY
290
     0
  9
$INSUNITS
 70
     4
  9
$HYPERLINKBASE
  1

  9
$STYLESHEET
  1

  9
$XEDIT
290
     1
  9
$CEPSNTYPE
380
     0
  9
$PSTYLEMODE
290
     1
  9
$FINGERPRINTGUID
  2
{0ED39FDD-8BE9-4370-81DD-14647C9CAB4C}
  9
$VERSIONGUID
  2
{FAEB1C32-E019-11D5-929B-00C0DF256EC4}
  9
$EXTNAMES
290
     1
  9
$PSVPSCALE
 40
0.0
  9
$OLESTARTUP
290
     0
  9
$SORTENTS
280
   127
  9
$INDEXCTL
280
     0
  9
$HIDETEXT
280
     1
  9
$XCLIPFRAME
290
     0
  9
$HALOGAP
280
     0
  9
$OBSCOLOR
 70
   257
  9
$OBSLTYPE
280
     0
  9
$INTERSECTIONDISPLAY
280
     0
  9
$INTERSECTIONCOLOR
 70
   257
  9
$DIMASSOC
280
     2
  9
$PROJECTNAME
  1

  0
ENDSEC
  0
SECTION
  2
CLASSES
  0
CLASS
  1
ACDBDICTIONARYWDFLT
  2
AcDbDictionaryWithDefault
  3
ObjectDBX Classes
 90
        0
 91
        4
280
     0
281
     0
  0
CLASS
  1
VISUALSTYLE
  2
AcDbVisualStyle
  3
ObjectDBX Classes
 90
     4095
 91
        4
280
     0
281
     0
  0
CLASS
  1
MATERIAL
  2
AcDbMaterial
  3
ObjectDBX Classes
 90
     1153
 91
        4
280
     0
281
     0
  0
ENDSEC
  0
SECTION
  2
TABLES
  0
TABLE
  2
VPORT
  5
8
330
0
100
AcDbSymbolTable
 70
     1
  0
VPORT
  5
29
330
8
100
AcDbSymbolTableRecord
100
AcDbViewportTableRecord
  2
*Active
 70
     0
 10
0.0
 20
0.0
 11
1.0
 21
1.0
 12
-1012.000000000085
 22
-1021.100000104839
 13
0.0
 23
0.0
 14
0.5
 24
0.5
 15
0.5
 25
0.5
 16
0.0
 26
0.0
 36
1.0
 17
0.0
 27
0.0
 37
0.0
 40
231.0
 41
1.60267857142857
 42
50.0
 43
0.0
 44
0.0
 50
0.0
 51
0.0
 71
     0
 72
   100
 73
     1
 74
     3
 75
     0
 76
     0
 77
     0
 78
     0
281
     0
 65
     1
110
0.0
120
0.0
130
0.0
111
1.0
121
0.0
131
0.0
112
0.0
122
1.0
132
0.0
 79
     0
146
0.0
  0
ENDTAB
  0
TABLE
  2
LTYPE
  5
5
330
0
100
AcDbSymbolTable
 70
     8
  0
LTYPE
  5
14
330
5
100
AcDbSymbolTableRecord
100
AcDbLinetypeTableRecord
  2
ByBlock
 70
     0
  3

 72
    65
 73
     0
 40
0.0
  0
LTYPE
  5
15
330
5
100
AcDbSymbolTableRecord
100
AcDbLinetypeTableRecord
  2
ByLayer
 70
     0
  3

 72
    65
 73
     0
 40
0.0
  0
LTYPE
  5
16
330
5
100
AcDbSymbolTableRecord
100
AcDbLinetypeTableRecord
  2
Continuous
 70
     0
  3
Solid line
 72
    65
 73
     0
 40
0.0
  0
LTYPE
  5
3F
330
5
100
AcDbSymbolTableRecord
100
AcDbLinetypeTableRecord
  2
DASHED
 70
     0
  3
Dashed
 72
    65
 73
     2
 40
15.0
 49
7.0
 74
     0
 49
-8.0
 74
     0
  0
LTYPE
  5
40
330
5
100
AcDbSymbolTableRecord
100
AcDbLinetypeTableRecord
  2
DOTTED
 70
     0
  3
Dotted
 72
    65
 73
     2
 40
1.0
 49
0.0
 74
     0
 49
-1.0
 74
     0
  0
LTYPE
  5
41
330
5
100
AcDbSymbolTableRecord
100
AcDbLinetypeTableRecord
  2
DOT_CENTER
 70
     0
  3
Dot_Center
 72
    65
 73
     4
 40
14.0
 49
12.0
 74
     0
 49
-1.0
 74
     0
 49
0.0
 74
     0
 49
-1.0
 74
     0
  0
LTYPE
  5
42
330
5
100
AcDbSymbolTableRecord
100
AcDbLinetypeTableRecord
  2
LONG_DASHED
 70
     0
  3
Long_Dashed
 72
    65
 73
     2
 40
15.0
 49
10.0
 74
     0
 49
-5.0
 74
     0
  0
LTYPE
  5
43
330
5
100
AcDbSymbolTableRecord
100
AcDbLinetypeTableRecord
  2
DASH_CENTER
 70
     0
  3
Dash_Center
 72
    65
 73
     4
 40
14.0
 49
11.0
 74
     0
 49
-1.0
 74
     0
 49
1.0
 74
     0
 49
-1.0
 74
     0
  0
LTYPE
  5
44
330
5
100
AcDbSymbolTableRecord
100
AcDbLinetypeTableRecord
  2
PHANTOM
 70
     0
  3
Phantom
 72
    65
 73
     6
 40
13.0
 49
10.0
 74
     0
 49
-1.0
 74
     0
 49
0.0
 74
     0
 49
-1.0
 74
     0
 49
0.0
 74
     0
 49
-1.0
 74
     0
  0
LTYPE
  5
45
330
5
100
AcDbSymbolTableRecord
100
AcDbLinetypeTableRecord
  2
CENTER_DASH_DASH
 70
     0
  3
Center_Dash_Dash
 72
    65
 73
     6
 40
14.0
 49
9.0
 74
     0
 49
-1.0
 74
     0
 49
1.0
 74
     0
 49
-1.0
 74
     0
 49
1.0
 74
     0
 49
-1.0
 74
     0
  0
ENDTAB
  0
TABLE
  2
LAYER
  5
2
330
0
100
AcDbSymbolTable
 70
     2
  0
LAYER
  5
10
330
2
100
AcDbSymbolTableRecord
100
AcDbLayerTableRecord
  2
0
 70
     0
 62
     7
  6
Continuous
370
    -3
390
F
  0
LAYER
  5
46
330
2
100
AcDbSymbolTableRecord
100
AcDbLayerTableRecord
  2
1
 70
     0
 62
     7
  6
Continuous
370
    -3
390
F
  0
ENDTAB
  0
TABLE
  2
STYLE
  5
3
330
0
100
AcDbSymbolTable
 70
     5
  0
STYLE
  5
11
330
3
100
AcDbSymbolTableRecord
100
AcDbTextStyleTableRecord
  2
Standard
 70
     0
 40
0.0
 41
1.0
 50
0.0
 71
     0
 42
0.2
  3
txt
  4

  0
STYLE
  5
AC
330
3
100
AcDbSymbolTableRecord
100
AcDbTextStyleTableRecord
  2
CONVERTER_11
 70
     0
 40
0.0
 41
0.9
 50
0.0
 71
     0
 42
0.2
  3
txt.shx
  4

  0
STYLE
  5
23B
330
3
100
AcDbSymbolTableRecord
100
AcDbTextStyleTableRecord
  2
CONVERTER_12
 70
     0
 40
0.0
 41
0.81
 50
0.0
 71
     0
 42
0.2
  3
txt.shx
  4

  0
STYLE
  5
251
330
3
100
AcDbSymbolTableRecord
100
AcDbTextStyleTableRecord
  2
CONVERTER_13
 70
     0
 40
0.0
 41
0.72
 50
0.0
 71
     0
 42
0.2
  3
txt.shx
  4

  0
STYLE
  5
254
330
3
100
AcDbSymbolTableRecord
100
AcDbTextStyleTableRecord
  2
CONVERTER_14
 70
     0
 40
0.0
 41
0.855
 50
0.0
 71
     0
 42
0.2
  3
txt.shx
  4

  0
ENDTAB
  0
TABLE
  2
VIEW
  5
6
330
0
100
AcDbSymbolTable
 70
     0
  0
ENDTAB
  0
TABLE
  2
UCS
  5
7
330
0
100
AcDbSymbolTable
 70
     0
  0
ENDTAB
  0
TABLE
  2
APPID
  5
9
330
0
100
AcDbSymbolTable
 70
     1
  0
APPID
  5
12
330
9
100
AcDbSymbolTableRecord
100
AcDbRegAppTableRecord
  2
ACAD
 70
     0
  0
ENDTAB
  0
TABLE
  2
DIMSTYLE
  5
A
330
0
100
AcDbSymbolTable
 70
     4
100
AcDbDimStyleTable
  0
DIMSTYLE
105
27
330
A
100
AcDbSymbolTableRecord
100
AcDbDimStyleTableRecord
  2
Standard
 70
     0
178
     0
340
11
  0
DIMSTYLE
105
D7
102
{ACAD_REACTORS
330
D8
102
}
330
A
100
AcDbSymbolTableRecord
100
AcDbDimStyleTableRecord
  2
ME10_DIM_10
 70
     0
 41
3.5
 42
0.0
 44
1.5
 73
     0
 74
     0
 77
     1
 78
     8
140
3.5
147
1.5
172
     1
173
     1
174
     1
175
     1
176
     2
177
     2
178
     3
340
AC
  0
DIMSTYLE
105
132
102
{ACAD_REACTORS
330
133
102
}
330
A
100
AcDbSymbolTableRecord
100
AcDbDimStyleTableRecord
  2
ME10_DIM_11
 70
     0
 41
3.5
 42
0.0
 44
1.5
 73
     0
 74
     0
 77
     1
 78
     8
140
3.5
147
1.5
172
     1
173
     1
174
     1
175
     1
176
     2
177
     2
271
     2
178
     3
271
     2
340
AC
  0
DIMSTYLE
105
13D
102
{ACAD_REACTORS
330
13E
102
}
330
A
100
AcDbSymbolTableRecord
100
AcDbDimStyleTableRecord
  2
ME10_DIM_12
 70
     0
 41
3.5
 42
0.0
 44
1.5
 73
     0
 74
     0
 77
     1
 78
     8
140
3.5
147
1.5
172
     1
173
     1
174
     1
175
     1
176
     2
177
     2
178
     3
340
AC
  0
ENDTAB
  0
TABLE
  2
BLOCK_RECORD
  5
1
330
0
100
AcDbSymbolTable
 70
    20
  0
BLOCK_RECORD
  5
1F
330
1
100
AcDbSymbolTableRecord
100
AcDbBlockTableRecord
  2
*Model_Space
340
22
  0
BLOCK_RECORD
  5
1B
330
1
100
AcDbSymbolTableRecord
100
AcDbBlockTableRecord
  2
*Paper_Space
340
1E
  0
BLOCK_RECORD
  5
23
330
1
100
AcDbSymbolTableRecord
100
AcDbBlockTableRecord
  2
*Paper_Space0
340
26
  0
BLOCK_RECORD
  5
47
330
1
100
AcDbSymbolTableRecord
100
AcDbBlockTableRecord
  2
D-PTTB_4-TG-select__1
340
0
102
{BLKREFS
331
4B
102
}
  0
BLOCK_RECORD
  5
4A
330
1
100
AcDbSymbolTableRecord
100
AcDbBlockTableRecord
  2
Allg1
340
0
102
{BLKREFS
331
7D
102
}
  0
BLOCK_RECORD
  5
4E
330
1
100
AcDbSymbolTableRecord
100
AcDbBlockTableRecord
  2
D-PTTB_4-TG-select__2
340
0
102
{BLKREFS
331
52
102
}
  0
BLOCK_RECORD
  5
51
330
1
100
AcDbSymbolTableRecord
100
AcDbBlockTableRecord
  2
Drfsicht1
340
0
102
{BLKREFS
331
7E
102
}
  0
BLOCK_RECORD
  5
55
330
1
100
AcDbSymbolTableRecord
100
AcDbBlockTableRecord
  2
D-PTTB_4-TG-select__3
340
0
102
{BLKREFS
331
59
102
}
  0
BLOCK_RECORD
  5
58
330
1
100
AcDbSymbolTableRecord
100
AcDbBlockTableRecord
  2
Rckans1
340
0
102
{BLKREFS
331
7F
102
}
  0
BLOCK_RECORD
  5
5C
330
1
100
AcDbSymbolTableRecord
100
AcDbBlockTableRecord
  2
D-PTTB_4-TG-select__4
340
0
102
{BLKREFS
331
60
102
}
  0
BLOCK_RECORD
  5
5F
330
1
100
AcDbSymbolTableRecord
100
AcDbBlockTableRecord
  2
SA_Links1
340
0
102
{BLKREFS
331
80
102
}
  0
BLOCK_RECORD
  5
63
330
1
100
AcDbSymbolTableRecord
100
AcDbBlockTableRecord
  2
D-PTTB_4-TG-select__5
340
0
102
{BLKREFS
331
67
102
}
  0
BLOCK_RECORD
  5
66
330
1
100
AcDbSymbolTableRecord
100
AcDbBlockTableRecord
  2
SA_Rechts1
340
0
102
{BLKREFS
331
81
102
}
  0
BLOCK_RECORD
  5
6A
330
1
100
AcDbSymbolTableRecord
100
AcDbBlockTableRecord
  2
D-PTTB_4-TG-select__6
340
0
102
{BLKREFS
331
6E
102
}
  0
BLOCK_RECORD
  5
6D
330
1
100
AcDbSymbolTableRecord
100
AcDbBlockTableRecord
  2
Vordans1
340
0
102
{BLKREFS
331
82
102
}
  0
BLOCK_RECORD
  5
71
330
1
100
AcDbSymbolTableRecord
100
AcDbBlockTableRecord
  2
_rahmen
340
0
102
{BLKREFS
331
78
102
}
  0
BLOCK_RECORD
  5
74
330
1
100
AcDbSymbolTableRecord
100
AcDbBlockTableRecord
  2
_punkt
340
0
102
{BLKREFS
331
79
102
}
  0
BLOCK_RECORD
  5
77
330
1
100
AcDbSymbolTableRecord
100
AcDbBlockTableRecord
  2
A4I_CS
340
0
102
{BLKREFS
331
83
102
}
  0
BLOCK_RECORD
  5
7C
330
1
100
AcDbSymbolTableRecord
100
AcDbBlockTableRecord
  2
1
340
0
102
{BLKREFS
331
86
102
}
  0
BLOCK_RECORD
  5
CC
330
1
100
AcDbSymbolTableRecord
100
AcDbBlockTableRecord
  2
*D17
340
0
  0
BLOCK_RECORD
  5
129
330
1
100
AcDbSymbolTableRecord
100
AcDbBlockTableRecord
  2
*D18
340
0
  0
BLOCK_RECORD
  5
134
330
1
100
AcDbSymbolTableRecord
100
AcDbBlockTableRecord
  2
*D19
340
0
  0
ENDTAB
  0
ENDSEC
  0
SECTION
  2
BLOCKS
  0
BLOCK
  5
20
330
1F
100
AcDbEntity
  8
0
100
AcDbBlockBegin
  2
*Model_Space
 70
     0
 10
0.0
 20
0.0
 30
0.0
  3
*Model_Space
  1

  0
ENDBLK
  5
21
330
1F
100
AcDbEntity
  8
0
100
AcDbBlockEnd
  0
BLOCK
  5
1C
330
1B
100
AcDbEntity
 67
     1
  8
0
100
AcDbBlockBegin
  2
*Paper_Space
 70
     0
 10
0.0
 20
0.0
 30
0.0
  3
*Paper_Space
  1

  0
ENDBLK
  5
1D
330
1B
100
AcDbEntity
 67
     1
  8
0
100
AcDbBlockEnd
  0
BLOCK
  5
24
330
23
100
AcDbEntity
  8
0
100
AcDbBlockBegin
  2
*Paper_Space0
 70
     0
 10
0.0
 20
0.0
 30
0.0
  3
*Paper_Space0
  1

  0
ENDBLK
  5
25
330
23
100
AcDbEntity
  8
0
100
AcDbBlockEnd
  0
BLOCK
  5
48
330
47
100
AcDbEntity
  8
0
100
AcDbBlockBegin
  2
D-PTTB_4-TG-select__1
 70
     0
 10
-974.1227521616888
 20
-1085.911452427012
 30
0.0
  3
D-PTTB_4-TG-select__1
  1

  0
LINE
  5
87
330
47
100
AcDbEntity
  8
0
  6
Continuous
 62
     7
100
AcDbLine
 10
-895.2452902363789
 20
-1085.593631555278
 30
0.0
 11
-974.1227521616888
 21
-1062.823669617492
 31
0.0
  0
LINE
  5
88
330
47
100
AcDbEntity
  8
0
  6
Continuous
 62
     7
100
AcDbLine
 10
-895.2452902363789
 20
-1085.593631555278
 30
0.0
 11
-886.301773742139
 21
-1085.905503586191
 31
0.0
  0
LINE
  5
89
330
47
100
AcDbEntity
  8
0
  6
Continuous
 62
     7
100
AcDbLine
 10
-885.0087381122294
 20
-1069.680479722191
 30
0.0
 11
-885.0087381122294
 21
-1073.826237753169
 31
0.0
  0
LINE
  5
8A
330
47
100
AcDbEntity
  8
0
  6
Continuous
 62
     7
100
AcDbLine
 10
-908.3739557855486
 20
-1055.375503688667
 30
0.0
 11
-908.3739557855487
 21
-1052.485482499678
 31
0.0
  0
LINE
  5
8B
330
47
100
AcDbEntity
  8
0
  6
Continuous
 62
     7
100
AcDbLine
 10
-908.3739557855486
 20
-1055.375503688667
 30
0.0
 11
-909.4739557855486
 21
-1056.32813163283
 31
0.0
  0
LINE
  5
8C
330
47
100
AcDbEntity
  8
0
  6
Continuous
 62
     7
100
AcDbLine
 10
-909.4830257085736
 20
-1045.875473499253
 30
0.0
 11
-908.3739557855487
 21
-1052.485482499678
 31
0.0
  0
LINE
  5
8D
330
47
100
AcDbEntity
  8
0
  6
Continuous
 62
     7
100
AcDbLine
 10
-909.4739557855486
 20
-1053.438110443841
 30
0.0
 11
-908.3739557855487
 21
-1052.485482499678
 31
0.0
  0
LINE
  5
8E
330
47
100
AcDbEntity
  8
0
  6
Continuous
 62
     7
100
AcDbLine
 10
-910.5830257085736
 20
-1046.828101443416
 30
0.0
 11
-909.4830257085736
 21
-1045.875473499253
 31
0.0
  0
LINE
  5
8F
330
47
100
AcDbEntity
  8
0
  6
Continuous
 62
     7
100
AcDbLine
 10
-910.5830257085736
 20
-1046.828101443416
 30
0.0
 11
-909.4739557855486
 21
-1053.438110443841
 31
0.0
  0
LINE
  5
90
330
47
100
AcDbEntity
  8
0
  6
Continuous
 62
     7
100
AcDbLine
 10
-909.4739557855486
 20
-1056.32813163283
 30
0.0
 11
-909.4739557855486
 21
-1053.438110443841
 31
0.0
  0
LINE
  5
91
330
47
100
AcDbEntity
  8
0
  6
Continuous
 62
     7
100
AcDbLine
 10
-885.0178080341088
 20
-1062.11784278443
 30
0.0
 11
-883.9087381122295
 21
-1068.727851778028
 31
0.0
  0
LINE
  5
92
330
47
100
AcDbEntity
  8
0
  6
Continuous
 62
     7
100
AcDbLine
 10
-885.0087381122294
 20
-1069.680479722191
 30
0.0
 11
-883.9087381122295
 21
-1068.727851778028
 31
0.0
  0
LINE
  5
93
330
47
100
AcDbEntity
  8
0
  6
Continuous
 62
     7
100
AcDbLine
 10
-886.1178080341087
 20
-1063.070470728593
 30
0.0
 11
-885.0087381122294
 21
-1069.680479722191
 31
0.0
  0
LINE
  5
94
330
47
100
AcDbEntity
  8
0
  6
Continuous
 62
     7
100
AcDbLine
 10
-883.9087381122295
 20
-1072.873609809006
 30
0.0
 11
-885.0087381122294
 21
-1073.826237753169
 31
0.0
  0
LINE
  5
95
330
47
100
AcDbEntity
  8
0
  6
Continuous
 62
     2
100
AcDbLine
 10
-884.0249232621056
 20
-1082.957597062237
 30
0.0
 11
-885.1249232621058
 21
-1083.9102250064
 31
0.0
  0
LINE
  5
96
330
47
100
AcDbEntity
  8
0
  6
Continuous
 62
     7
100
AcDbLine
 10
-884.3185580606454
 20
-1084.662908695515
 30
0.0
 11
-885.4185580606454
 21
-1085.615536639677
 31
0.0
  0
LINE
  5
97
330
47
100
AcDbEntity
  8
0
  6
Continuous
 62
     7
100
AcDbLine
 10
-883.9087381122295
 20
-1068.727851778028
 30
0.0
 11
-883.9087381122295
 21
-1072.873609809006
 31
0.0
  0
LINE
  5
98
330
47
100
AcDbEntity
  8
0
  6
Continuous
 62
     7
100
AcDbLine
 10
-886.1178080341087
 20
-1063.070470728593
 30
0.0
 11
-885.0178080341088
 21
-1062.11784278443
 31
0.0
  0
LINE
  5
99
330
47
100
AcDbEntity
  8
0
  6
Continuous
 62
     7
100
AcDbLine
 10
-974.1227521616888
 20
-1062.823669617492
 30
0.0
 11
-974.1227521616888
 21
-1055.89546638723
 31
0.0
  0
LINE
  5
9A
330
47
100
AcDbEntity
  8
0
  6
Continuous
 62
     7
100
AcDbLine
 10
-885.0178080341088
 20
-1062.11784278443
 30
0.0
 11
-908.3739557855486
 21
-1055.375503688667
 31
0.0
  0
LINE
  5
9B
330
47
100
AcDbEntity
  8
0
  6
Continuous
 62
     7
100
AcDbLine
 10
-886.1178080341087
 20
-1063.070470728593
 30
0.0
 11
-909.4739557855486
 21
-1056.32813163283
 31
0.0
  0
LINE
  5
9C
330
47
100
AcDbEntity
  8
0
  6
Continuous
 62
     7
100
AcDbLine
 10
-974.1227521616888
 20
-1043.955479722163
 30
0.0
 11
-973.0136822398124
 21
-1037.985792546528
 31
0.0
  0
LINE
  5
9D
330
47
100
AcDbEntity
  8
0
  6
Continuous
 62
     7
100
AcDbLine
 10
-974.1227521616888
 20
-1048.101237753166
 30
0.0
 11
-974.1227521616888
 21
-1043.955479722163
 31
0.0
  0
LINE
  5
9E
330
47
100
AcDbEntity
  8
0
  6
Continuous
 62
     7
100
AcDbLine
 10
-909.4830257085736
 20
-1045.875473499253
 30
0.0
 11
-955.6757059340733
 21
-1032.540795317862
 31
0.0
  0
LINE
  5
9F
330
47
100
AcDbEntity
  8
0
  6
Continuous
 62
     7
100
AcDbLine
 10
-910.5830257085736
 20
-1046.828101443416
 30
0.0
 11
-956.7757059340734
 21
-1033.493423262025
 31
0.0
  0
LINE
  5
A0
330
47
100
AcDbEntity
  8
0
  6
Continuous
 62
     7
100
AcDbLine
 10
-957.8847758570982
 20
-1039.463110443841
 30
0.0
 11
-956.7757059340734
 21
-1033.493423262025
 31
0.0
  0
LINE
  5
A1
330
47
100
AcDbEntity
  8
0
  6
Continuous
 62
     7
100
AcDbLine
 10
-971.9136822398124
 20
-1037.033164602365
 30
0.0
 11
-957.8847758570982
 21
-1041.082961040622
 31
0.0
  0
LINE
  5
A2
330
47
100
AcDbEntity
  8
0
  6
Continuous
 62
     7
100
AcDbLine
 10
-973.0136822398124
 20
-1037.985792546528
 30
0.0
 11
-957.8847758570982
 21
-1042.353131632839
 31
0.0
  0
LINE
  5
A3
330
47
100
AcDbEntity
  8
0
  6
Continuous
 62
     7
100
AcDbLine
 10
-957.8847758570982
 20
-1042.353131632839
 30
0.0
 11
-957.8847758570982
 21
-1039.463110443841
 31
0.0
  0
LINE
  5
A4
330
47
100
AcDbEntity
  8
0
  6
Continuous
 62
     7
100
AcDbLine
 10
-973.0136822398124
 20
-1037.985792546528
 30
0.0
 11
-971.9136822398124
 21
-1037.033164602365
 31
0.0
  0
LINE
  5
A5
330
47
100
AcDbEntity
  8
0
  6
Continuous
 62
     7
100
AcDbLine
 10
-956.7757059340734
 20
-1033.493423262025
 30
0.0
 11
-955.6757059340733
 21
-1032.540795317862
 31
0.0
  0
SPLINE
  5
A6
330
47
100
AcDbEntity
  8
0
  6
Continuous
 62
     7
100
AcDbSpline
210
0.0
220
0.0
230
1.0
 70
     8
 71
     3
 72
    11
 73
     7
 74
     5
 42
0.000000001
 43
0.0000000001
 44
0.00000001
 40
0.0
 40
0.0
 40
0.0
 40
0.0
 40
2.103260637709058
 40
4.123694499701381
 40
6.057513244800687
 40
7.9089353403649
 40
7.9089353403649
 40
7.9089353403649
 40
7.9089353403649
 10
-974.1227521616888
 20
-1048.101237753166
 30
0.0
 10
-973.9526862317836
 20
-1048.782723947246
 30
0.0
 10
-973.6192516128539
 20
-1050.118859291586
 30
0.0
 10
-973.481290607489
 20
-1052.141207504974
 30
0.0
 10
-973.6026238725975
 20
-1054.084850546956
 30
0.0
 10
-973.9519104695547
 20
-1055.30075029285
 30
0.0
 10
-974.1227521616888
 20
-1055.89546638723
 30
0.0
 11
-974.1227521616888
 21
-1048.101237753166
 31
0.0
 11
-973.6748631243064
 21
-1050.156256176765
 31
0.0
 11
-973.5244048363154
 21
-1052.171080064885
 31
0.0
 11
-973.6748631243065
 21
-1054.099036819931
 31
0.0
 11
-974.1227521616888
 21
-1055.89546638723
 31
0.0
  0
SPLINE
  5
A7
330
47
100
AcDbEntity
  8
0
  6
Continuous
 62
     7
100
AcDbSpline
210
0.0
220
0.0
230
1.0
 70
     8
 71
     3
 72
    11
 73
     7
 74
     5
 42
0.000000001
 43
0.0000000001
 44
0.00000001
 40
0.0
 40
0.0
 40
0.0
 40
0.0
 40
2.376546202634182
 40
4.887733496626833
 40
7.547649986557582
 40
10.34654325000487
 40
10.34654325000487
 40
10.34654325000487
 40
10.34654325000487
 10
-883.9087381122295
 20
-1072.873609809006
 30
0.0
 10
-884.2106202190585
 20
-1073.610196458944
 30
0.0
 10
-884.8314872782767
 20
-1075.125100418986
 30
0.0
 10
-885.0677612806658
 20
-1077.659442700895
 30
0.0
 10
-884.8550377809246
 20
-1080.32431196821
 30
0.0
 10
-884.3062850366505
 20
-1082.065062675228
 30
0.0
 10
-884.0249232621056
 20
-1082.957597062237
 30
0.0
 11
-883.9087381122295
 21
-1072.873609809006
 31
0.0
 11
-884.7037747000945
 21
-1075.113227786436
 31
0.0
 11
-884.9923818203292
 21
-1077.607775354227
 31
0.0
 11
-884.7630490108269
 21
-1080.257787091178
 31
0.0
 11
-884.0249232621056
 21
-1082.957597062237
 31
0.0
  0
SPLINE
  5
A8
330
47
100
AcDbEntity
  8
0
  6
Continuous
 62
     7
100
AcDbSpline
210
0.0
220
0.0
230
1.0
 70
     8
 71
     3
 72
    11
 73
     7
 74
     5
 42
0.000000001
 43
0.0000000001
 44
0.00000001
 40
0.0
 40
0.0
 40
0.0
 40
0.0
 40
2.376546202633539
 40
4.887733496626416
 40
7.547649986557165
 40
10.34654325000483
 40
10.34654325000483
 40
10.34654325000483
 40
10.34654325000483
 10
-885.0087381122294
 20
-1073.826237753169
 30
0.0
 10
-885.3106202190584
 20
-1074.562824403107
 30
0.0
 10
-885.9314872782766
 20
-1076.077728363148
 30
0.0
 10
-886.167761280666
 20
-1078.612070645058
 30
0.0
 10
-885.9550377809244
 20
-1081.276939912372
 30
0.0
 10
-885.40628503665
 20
-1083.01769061939
 30
0.0
 10
-885.1249232621058
 20
-1083.9102250064
 30
0.0
 11
-885.0087381122294
 21
-1073.826237753169
 31
0.0
 11
-885.8037747000944
 21
-1076.065855730599
 31
0.0
 11
-886.0923818203291
 21
-1078.560403298389
 31
0.0
 11
-885.8630490108268
 21
-1081.21041503534
 31
0.0
 11
-885.1249232621058
 21
-1083.9102250064
 31
0.0
  0
SPLINE
  5
A9
330
47
100
AcDbEntity
  8
0
  6
Continuous
 62
     7
100
AcDbSpline
210
0.0
220
0.0
230
1.0
 70
     8
 71
     3
 72
    11
 73
     7
 74
     5
 42
0.000000001
 43
0.0000000001
 44
0.00000001
 40
0.0
 40
0.0
 40
0.0
 40
0.0
 40
0.2497781953130061
 40
0.4896582032738357
 40
0.7221245727733963
 40
0.9506096323518098
 40
0.9506096323518098
 40
0.9506096323518098
 40
0.9506096323518098
 10
-886.301773742139
 20
-1085.905503586191
 30
0.0
 10
-886.2182809066277
 20
-1085.904651718469
 30
0.0
 10
-886.0546038829266
 20
-1085.902981726058
 30
0.0
 10
-885.8188076994367
 20
-1085.847342772433
 30
0.0
 10
-885.6015071710337
 20
-1085.756018285475
 30
0.0
 10
-885.4791889340524
 20
-1085.662093444459
 30
0.0
 10
-885.4185580606454
 20
-1085.615536639677
 30
0.0
 11
-886.301773742139
 21
-1085.905503586191
 31
0.0
 11
-886.0522810014461
 21
-1085.89356543411
 31
0.0
 11
-885.8183933446587
 21
-1085.840283325747
 31
0.0
 11
-885.6055132965022
 21
-1085.74688793515
 31
0.0
 11
-885.4185580606454
 21
-1085.615536639677
 31
0.0
  0
SPLINE
  5
AA
330
47
100
AcDbEntity
  8
0
  6
Continuous
 62
     7
100
AcDbSpline
210
0.0
220
0.0
230
1.0
 70
     8
 71
     3
 72
    11
 73
     7
 74
     5
 42
0.000000001
 43
0.0000000001
 44
0.00000001
 40
0.0
 40
0.0
 40
0.0
 40
0.0
 40
0.4150583853365047
 40
0.852195333850878
 40
1.324580593166371
 40
1.833457581866744
 40
1.833457581866744
 40
1.833457581866744
 40
1.833457581866744
 10
-885.4185580606454
 20
-1085.615536639677
 30
0.0
 10
-885.3234561028961
 20
-1085.512879574977
 30
0.0
 10
-885.1281933574544
 20
-1085.302104709751
 30
0.0
 10
-884.9962340382718
 20
-1084.867938948356
 30
0.0
 10
-884.9826025695613
 20
-1084.389261131968
 30
0.0
 10
-885.0763212718728
 20
-1084.073814054671
 30
0.0
 10
-885.1249232621058
 20
-1083.9102250064
 30
0.0
 11
-885.4185580606454
 21
-1085.615536639677
 31
0.0
 11
-885.1594320816369
 21
-1085.291303401971
 31
0.0
 11
-885.0186571330497
 21
-1084.877454240041
 31
0.0
 11
-885.006858213715
 21
-1084.405216353721
 31
0.0
 11
-885.1249232621058
 21
-1083.9102250064
 31
0.0
  0
SPLINE
  5
AB
330
47
100
AcDbEntity
  8
0
  6
Continuous
 62
     7
100
AcDbSpline
210
0.0
220
0.0
230
1.0
 70
     8
 71
     3
 72
    11
 73
     7
 74
     5
 42
0.000000001
 43
0.0000000001
 44
0.00000001
 40
0.0
 40
0.0
 40
0.0
 40
0.0
 40
0.4150583853372152
 40
0.8521953338515884
 40
1.324580593167084
 40
1.833457581867458
 40
1.833457581867458
 40
1.833457581867458
 40
1.833457581867458
 10
-884.3185580606454
 20
-1084.662908695515
 30
0.0
 10
-884.2234561028961
 20
-1084.560251630814
 30
0.0
 10
-884.0281933574545
 20
-1084.349476765589
 30
0.0
 10
-883.896234038272
 20
-1083.915311004193
 30
0.0
 10
-883.8826025695611
 20
-1083.436633187805
 30
0.0
 10
-883.9763212718726
 20
-1083.121186110508
 30
0.0
 10
-884.0249232621056
 20
-1082.957597062237
 30
0.0
 11
-884.3185580606454
 21
-1084.662908695515
 31
0.0
 11
-884.0594320816368
 21
-1084.338675457808
 31
0.0
 11
-883.9186571330497
 21
-1083.924826295878
 31
0.0
 11
-883.9068582137148
 21
-1083.452588409558
 31
0.0
 11
-884.0249232621056
 21
-1082.957597062237
 31
0.0
  0
ENDBLK
  5
49
330
47
100
AcDbEntity
  8
0
100
AcDbBlockEnd
  0
BLOCK
  5
4C
330
4A
100
AcDbEntity
  8
0
100
AcDbBlockBegin
  2
Allg1
 70
     0
 10
-929.0092831998481
 20
-1058.04276800006
 30
0.0
  3
Allg1
  1

  0
INSERT
  5
4B
330
4A
100
AcDbEntity
  8
0
100
AcDbBlockReference
  2
D-PTTB_4-TG-select__1
 10
-974.1227521616888
 20
-1085.911452427012
 30
0.0
  0
MTEXT
  5
AD
330
4A
100
AcDbEntity
  8
1
 62
     6
100
AcDbMText
 10
-928.99999999985
 20
-1093.509633199543
 30
0.0
 40
5.0
 41
0.0
 71
     2
 72
     1
  1
 
  7
CONVERTER_11
 73
     1
 44
1.32052821128451
  0
ENDBLK
  5
4D
330
4A
100
AcDbEntity
  8
0
100
AcDbBlockEnd
  0
BLOCK
  5
4F
330
4E
100
AcDbEntity
  8
0
100
AcDbBlockBegin
  2
D-PTTB_4-TG-select__2
 70
     0
 10
-1114.914922968128
 20
-1046.025000461023
 30
0.0
  3
D-PTTB_4-TG-select__2
  1

  0
LINE
  5
AE
330
4E
100
AcDbEntity
  8
0
  6
Continuous
 62
     7
100
AcDbLine
 10
-1041.545566624246
 20
-1046.025000461023
 30
0.0
 11
-1094.884279349811
 21
-1046.025000461023
 31
0.0
  0
LINE
  5
AF
330
4E
100
AcDbEntity
  8
0
  6
Continuous
 62
     7
100
AcDbLine
 10
-1012.014922968082
 20
-1046.025000388043
 30
0.0
 11
-1012.014922968082
 21
-1043.825000388043
 31
0.0
  0
LINE
  5
B0
330
4E
100
AcDbEntity
  8
0
  6
Continuous
 62
     7
100
AcDbLine
 10
-1012.000000175193
 20
-1043.825000317658
 30
0.0
 11
-1012.000000175193
 21
-1046.025000317658
 31
0.0
  0
LINE
  5
B1
330
4E
100
AcDbEntity
  8
0
  6
Continuous
 62
     7
100
AcDbLine
 10
-1013.295566603976
 20
-1043.825000417716
 30
0.0
 11
-1040.264922987029
 21
-1043.82500043135
 31
0.0
  0
LINE
  5
B2
330
4E
100
AcDbEntity
  8
0
  6
Continuous
 62
     7
100
AcDbLine
 10
-1012.014922968082
 20
-1043.825000388043
 30
0.0
 11
-1012.149082023195
 21
-1043.825000320754
 31
0.0
  0
LINE
  5
B3
330
4E
100
AcDbEntity
  8
0
  6
Continuous
 62
     7
100
AcDbLine
 10
-1012.000000175193
 20
-1043.825000317658
 30
0.0
 11
-1012.014922968082
 21
-1043.825000388043
 31
0.0
  0
LINE
  5
B4
330
4E
100
AcDbEntity
  8
0
  6
Continuous
 62
     7
100
AcDbLine
 10
-1041.545566624246
 20
-1043.825000461023
 30
0.0
 11
-1040.264922987029
 21
-1043.82500043135
 31
0.0
  0
LINE
  5
B5
330
4E
100
AcDbEntity
  8
0
  6
Continuous
 62
     7
100
AcDbLine
 10
-1013.295566603976
 20
-1043.825000417716
 30
0.0
 11
-1012.149082023195
 21
-1043.825000320754
 31
0.0
  0
LINE
  5
B6
330
4E
100
AcDbEntity
  8
0
  6
Continuous
 62
     7
100
AcDbLine
 10
-1113.634279332237
 20
-1046.025000417716
 30
0.0
 11
-1113.634279332237
 21
-1043.825000417716
 31
0.0
  0
LINE
  5
B7
330
4E
100
AcDbEntity
  8
0
  6
Continuous
 62
     7
100
AcDbLine
 10
-1096.164922987028
 20
-1046.02500043135
 30
0.0
 11
-1096.164922987028
 21
-1043.82500043135
 31
0.0
  0
LINE
  5
B8
330
4E
100
AcDbEntity
  8
0
  6
Continuous
 62
     7
100
AcDbLine
 10
-1114.224010989382
 20
-1046.025000350099
 30
0.0
 11
-1114.914922968128
 21
-1046.025000331714
 31
0.0
  0
LINE
  5
B9
330
4E
100
AcDbEntity
  8
0
  6
Continuous
 62
     7
100
AcDbLine
 10
-1114.224010989382
 20
-1046.025000350099
 30
0.0
 11
-1113.634279332237
 21
-1046.025000417716
 31
0.0
  0
LINE
  5
BA
330
4E
100
AcDbEntity
  8
0
  6
Continuous
 62
     7
100
AcDbLine
 10
-1114.914922968128
 20
-1046.025000331714
 30
0.0
 11
-1114.914922968128
 21
-1043.825000331714
 31
0.0
  0
LINE
  5
BB
330
4E
100
AcDbEntity
  8
0
  6
Continuous
 62
     7
100
AcDbLine
 10
-1114.224010989382
 20
-1043.825000350099
 30
0.0
 11
-1113.634279332237
 21
-1043.825000417716
 31
0.0
  0
LINE
  5
BC
330
4E
100
AcDbEntity
  8
0
  6
Continuous
 62
     7
100
AcDbLine
 10
-1094.884279349811
 20
-1046.025000461023
 30
0.0
 11
-1094.884279349811
 21
-1043.825000461023
 31
0.0
  0
LINE
  5
BD
330
4E
100
AcDbEntity
  8
0
  6
Continuous
 62
     7
100
AcDbLine
 10
-1096.164922987028
 20
-1046.02500043135
 30
0.0
 11
-1094.884279349811
 21
-1046.025000461023
 31
0.0
  0
LINE
  5
BE
330
4E
100
AcDbEntity
  8
0
  6
Continuous
 62
     7
100
AcDbLine
 10
-1012.014922968082
 20
-1046.025000388043
 30
0.0
 11
-1012.149082023195
 21
-1046.025000320754
 31
0.0
  0
LINE
  5
BF
330
4E
100
AcDbEntity
  8
0
  6
Continuous
 62
     7
100
AcDbLine
 10
-1012.000000175193
 20
-1046.025000317658
 30
0.0
 11
-1012.014922968082
 21
-1046.025000388043
 31
0.0
  0
LINE
  5
C0
330
4E
100
AcDbEntity
  8
0
  6
Continuous
 62
     7
100
AcDbLine
 10
-1041.545566624246
 20
-1043.825000461023
 30
0.0
 11
-1094.884279349811
 21
-1043.825000461023
 31
0.0
  0
LINE
  5
C1
330
4E
100
AcDbEntity
  8
0
  6
Continuous
 62
     7
100
AcDbLine
 10
-1113.634279332237
 20
-1043.825000417716
 30
0.0
 11
-1096.164922987028
 21
-1043.82500043135
 31
0.0
  0
LINE
  5
C2
330
4E
100
AcDbEntity
  8
0
  6
Continuous
 62
     7
100
AcDbLine
 10
-1096.164922987028
 20
-1043.82500043135
 30
0.0
 11
-1094.884279349811
 21
-1043.825000461023
 31
0.0
  0
LINE
  5
C3
330
4E
100
AcDbEntity
  8
0
  6
Continuous
 62
     7
100
AcDbLine
 10
-1114.224010989382
 20
-1043.825000350099
 30
0.0
 11
-1114.914922968128
 21
-1043.825000331714
 31
0.0
  0
LINE
  5
C4
330
4E
100
AcDbEntity
  8
0
  6
Continuous
 62
     7
100
AcDbLine
 10
-1040.264922987029
 20
-1046.02500043135
 30
0.0
 11
-1040.264922987029
 21
-1043.82500043135
 31
0.0
  0
LINE
  5
C5
330
4E
100
AcDbEntity
  8
0
  6
Continuous
 62
     7
100
AcDbLine
 10
-1041.545566624246
 20
-1046.025000461023
 30
0.0
 11
-1041.545566624246
 21
-1043.825000461023
 31
0.0
  0
LINE
  5
C6
330
4E
100
AcDbEntity
  8
0
  6
Continuous
 62
     7
100
AcDbLine
 10
-1013.295566603976
 20
-1046.025000417716
 30
0.0
 11
-1013.295566603976
 21
-1043.825000417716
 31
0.0
  0
LINE
  5
C7
330
4E
100
AcDbEntity
  8
0
  6
Continuous
 62
     7
100
AcDbLine
 10
-1013.295566603976
 20
-1046.025000417716
 30
0.0
 11
-1012.149082023195
 21
-1046.025000320754
 31
0.0
  0
LINE
  5
C8
330
4E
100
AcDbEntity
  8
0
  6
Continuous
 62
     7
100
AcDbLine
 10
-1113.634279332237
 20
-1046.025000417716
 30
0.0
 11
-1096.164922987028
 21
-1046.02500043135
 31
0.0
  0
LINE
  5
C9
330
4E
100
AcDbEntity
  8
0
  6
Continuous
 62
     7
100
AcDbLine
 10
-1013.295566603976
 20
-1046.025000417716
 30
0.0
 11
-1040.264922987029
 21
-1046.02500043135
 31
0.0
  0
LINE
  5
CA
330
4E
100
AcDbEntity
  8
0
  6
Continuous
 62
     7
100
AcDbLine
 10
-1041.545566624246
 20
-1046.025000461023
 30
0.0
 11
-1040.264922987029
 21
-1046.02500043135
 31
0.0
  0
ENDBLK
  5
50
330
4E
100
AcDbEntity
  8
0
100
AcDbBlockEnd
  0
BLOCK
  5
53
330
51
100
AcDbEntity
  8
0
100
AcDbBlockBegin
  2
Drfsicht1
 70
     0
 10
-1063.457461356947
 20
-1044.925000395436
 30
0.0
  3
Drfsicht1
  1

  0
INSERT
  5
52
330
51
100
AcDbEntity
  8
0
100
AcDbBlockReference
  2
D-PTTB_4-TG-select__2
 10
-1114.914922968128
 20
-1046.025000461023
 30
0.0
  0
MTEXT
  5
CB
330
51
100
AcDbEntity
  8
1
 62
     6
100
AcDbMText
 10
-1063.457461356947
 20
-1051.025000500275
 30
0.0
 40
5.0
 41
0.0
 71
     2
 72
     1
  1
 
  7
CONVERTER_11
 73
     1
 44
1.32052821128451
  0
DIMENSION
  5
D8
330
51
100
AcDbEntity
  8
1
100
AcDbDimension
  2
*D17
 10
-1124.914922968128
 20
-1043.825000331714
 30
0.0
 11
-1128.339922968128
 21
-1034.38425498329
 31
0.0
 70
    33
  1
<>
 71
     5
 42
-1.0
 53
90.0
  3
ME10_DIM_10
100
AcDbAlignedDimension
 13
-1114.914922968128
 23
-1046.025000331714
 33
0.0
 14
-1114.914922968128
 24
-1043.825000331714
 34
0.0
  0
ENDBLK
  5
54
330
51
100
AcDbEntity
  8
0
100
AcDbBlockEnd
  0
BLOCK
  5
56
330
55
100
AcDbEntity
  8
0
100
AcDbBlockBegin
  2
D-PTTB_4-TG-select__3
 70
     0
 10
-979.9999998248082
 20
-1013.824999331332
 30
0.0
  3
D-PTTB_4-TG-select__3
  1

  0
LINE
  5
D9
330
55
100
AcDbEntity
  8
0
  6
Continuous
 62
     7
100
AcDbLine
 10
-968.1649247830169
 20
-1013.824999331332
 30
0.0
 11
-978.4920080939195
 21
-1011.203945968587
 31
0.0
  0
LINE
  5
DA
330
55
100
AcDbEntity
  8
0
  6
Continuous
 62
     7
100
AcDbLine
 10
-978.7044333960251
 20
-984.7749993313337
 30
0.0
 11
-951.7350770129723
 21
-984.7749993313337
 31
0.0
  0
LINE
  5
DB
330
55
100
AcDbEntity
  8
0
  6
Continuous
 62
     7
100
AcDbLine
 10
-951.7350770129723
 20
-984.7749993313337
 30
0.0
 11
-951.7350770129723
 21
-981.4378903084811
 31
0.0
  0
LINE
  5
DC
330
55
100
AcDbEntity
  8
0
  6
Continuous
 62
     7
100
AcDbLine
 10
-878.3657206677635
 20
-984.7749993313345
 30
0.0
 11
-895.8350770129729
 21
-984.7749993313447
 31
0.0
  0
LINE
  5
DD
330
55
100
AcDbEntity
  8
0
  6
Continuous
 62
     7
100
AcDbLine
 10
-968.1649247830169
 20
-1013.824999331332
 30
0.0
 11
-877.0850770318726
 21
-1013.824999331332
 31
0.0
  0
LINE
  5
DE
330
55
100
AcDbEntity
  8
0
  6
Continuous
 62
     7
100
AcDbLine
 10
-877.0850770318726
 20
-1013.824999331332
 30
0.0
 11
-877.0850770318726
 21
-1005.824999331348
 31
0.0
  0
LINE
  5
DF
330
55
100
AcDbEntity
  8
0
  6
Continuous
 62
     7
100
AcDbLine
 10
-877.0850770318726
 20
-996.8249993313439
 30
0.0
 11
-877.0850770318726
 21
-992.0378903009539
 31
0.0
  0
LINE
  5
E0
330
55
100
AcDbEntity
  8
0
  6
Continuous
 62
     7
100
AcDbLine
 10
-877.0850770318726
 20
-992.0378903009539
 30
0.0
 11
-878.3657206677635
 21
-984.7749993313345
 31
0.0
  0
LINE
  5
E1
330
55
100
AcDbEntity
  8
0
  6
Continuous
 62
     7
100
AcDbLine
 10
-950.4544333757551
 20
-974.17499933134
 30
0.0
 11
-951.7350770129723
 21
-981.4378903084811
 31
0.0
  0
LINE
  5
E2
330
55
100
AcDbEntity
  8
0
  6
Continuous
 62
     7
100
AcDbLine
 10
-950.4544333757551
 20
-974.17499933134
 30
0.0
 11
-897.1157206501899
 21
-974.1749993313401
 31
0.0
  0
LINE
  5
E3
330
55
100
AcDbEntity
  8
0
  6
Continuous
 62
     7
100
AcDbLine
 10
-895.8350770129729
 20
-981.4378903084806
 30
0.0
 11
-897.1157206501899
 21
-974.1749993313401
 31
0.0
  0
LINE
  5
E4
330
55
100
AcDbEntity
  8
0
  6
Continuous
 62
     7
100
AcDbLine
 10
-895.8350770129729
 20
-984.7749993313447
 30
0.0
 11
-895.8350770129729
 21
-981.4378903084806
 31
0.0
  0
LINE
  5
E5
330
55
100
AcDbEntity
  8
0
  6
Continuous
 62
     7
100
AcDbLine
 10
-978.7044333960251
 20
-984.7749993313337
 30
0.0
 11
-979.9850770319196
 21
-992.0378903009724
 31
0.0
  0
LINE
  5
E6
330
55
100
AcDbEntity
  8
0
  6
Continuous
 62
     7
100
AcDbLine
 10
-979.9850770319196
 20
-992.0378903009724
 30
0.0
 11
-979.9850770319196
 21
-996.8249993313333
 31
0.0
  0
ARC
  5
E7
330
55
100
AcDbEntity
  8
0
  6
Continuous
 62
     7
100
AcDbCircle
 10
-977.9999998248082
 20
-1009.265408410755
 30
0.0
 40
2.000000000000235
100
AcDbArc
 50
157.737681834606
 51
255.7588172838358
  0
ARC
  5
E8
330
55
100
AcDbEntity
  8
0
  6
Continuous
 62
     7
100
AcDbCircle
 10
-993.7328041167871
 20
-1002.824999331333
 30
0.0
 40
15.00000000000002
100
AcDbArc
 50
337.7376818346263
 51
23.57817847820066
  0
ARC
  5
E9
330
55
100
AcDbEntity
  8
0
  6
Continuous
 62
     7
100
AcDbCircle
 10
-862.7759890106192
 20
-1001.324999331346
 30
0.0
 40
14.99999999999989
100
AcDbArc
 50
162.5423968762691
 51
197.4576031237301
  0
ENDBLK
  5
57
330
55
100
AcDbEntity
  8
0
100
AcDbBlockEnd
  0
BLOCK
  5
5A
330
58
100
AcDbEntity
  8
0
100
AcDbBlockBegin
  2
Rckans1
 70
     0
 10
-928.5425386430538
 20
-994.00000000002
 30
0.0
  3
Rckans1
  1

  0
INSERT
  5
59
330
58
100
AcDbEntity
  8
0
100
AcDbBlockReference
  2
D-PTTB_4-TG-select__3
 10
-979.9999998248082
 20
-1013.824999331332
 30
0.0
  0
MTEXT
  5
EA
330
58
100
AcDbEntity
  8
1
 62
     6
100
AcDbMText
 10
-928.5425386430529
 20
-1018.825000290617
 30
0.0
 40
5.0
 41
0.0
 71
     2
 72
     1
  1
 
  7
CONVERTER_11
 73
     1
 44
1.32052821128451
  0
ENDBLK
  5
5B
330
58
100
AcDbEntity
  8
0
100
AcDbBlockEnd
  0
BLOCK
  5
5D
330
5C
100
AcDbEntity
  8
0
100
AcDbBlockBegin
  2
D-PTTB_4-TG-select__4
 70
     0
 10
-1000.100000096407
 20
-1013.824999340321
 30
0.0
  3
D-PTTB_4-TG-select__4
  1

  0
LINE
  5
EB
330
5C
100
AcDbEntity
  8
0
  6
Continuous
 62
     7
100
AcDbLine
 10
-997.9000000269514
 20
-996.8249993403322
 30
0.0
 11
-997.9000000637217
 21
-1005.824999340336
 31
0.0
  0
LINE
  5
EC
330
5C
100
AcDbEntity
  8
0
  6
Continuous
 62
     7
100
AcDbLine
 10
-997.89999997772
 20
-984.7749993403228
 30
0.0
 11
-997.8999999640859
 21
-981.4378903174689
 31
0.0
  0
LINE
  5
ED
330
5C
100
AcDbEntity
  8
0
  6
Continuous
 62
     7
100
AcDbLine
 10
-997.9000000073931
 20
-992.0378903099422
 30
0.0
 11
-997.89999997772
 21
-984.7749993403228
 31
0.0
  0
LINE
  5
EE
330
5C
100
AcDbEntity
  8
0
  6
Continuous
 62
     7
100
AcDbLine
 10
-997.8999999640859
 20
-981.4378903174689
 30
0.0
 11
-997.8999999344127
 21
-974.1749993403284
 31
0.0
  0
LINE
  5
EF
330
5C
100
AcDbEntity
  8
0
  6
Continuous
 62
     7
100
AcDbLine
 10
-997.8999999344127
 20
-974.1749993403284
 30
0.0
 11
-1000.099999934413
 21
-974.1749993313401
 31
0.0
  0
LINE
  5
F0
330
5C
100
AcDbEntity
  8
0
  6
Continuous
 62
     7
100
AcDbLine
 10
-997.89999997772
 20
-984.7749993403228
 30
0.0
 11
-1000.09999997772
 21
-984.7749993313345
 31
0.0
  0
LINE
  5
F1
330
5C
100
AcDbEntity
  8
0
  6
Continuous
 62
     7
100
AcDbLine
 10
-997.8999999640859
 20
-981.4378903174689
 30
0.0
 11
-1000.099999964086
 21
-981.4378903084806
 31
0.0
  0
LINE
  5
F2
330
5C
100
AcDbEntity
  8
0
  6
Continuous
 62
     7
100
AcDbLine
 10
-997.9000000964065
 20
-1013.824999340321
 30
0.0
 11
-1000.100000096407
 21
-1013.824999331332
 31
0.0
  0
LINE
  5
F3
330
5C
100
AcDbEntity
  8
0
  6
Continuous
 62
     7
100
AcDbLine
 10
-1000.100000026951
 20
-996.8249993313439
 30
0.0
 11
-1000.100000007393
 21
-992.0378903009539
 31
0.0
  0
LINE
  5
F4
330
5C
100
AcDbEntity
  8
0
  6
Continuous
 62
     7
100
AcDbLine
 10
-1000.100000026951
 20
-996.8249993313439
 30
0.0
 11
-1000.100000063722
 21
-1005.824999331348
 31
0.0
  0
LINE
  5
F5
330
5C
100
AcDbEntity
  8
0
  6
Continuous
 62
     7
100
AcDbLine
 10
-997.9000000637217
 20
-1005.824999340336
 30
0.0
 11
-1000.100000063722
 21
-1005.824999331348
 31
0.0
  0
LINE
  5
F6
330
5C
100
AcDbEntity
  8
0
  6
Continuous
 62
     7
100
AcDbLine
 10
-1000.100000096407
 20
-1013.824999331332
 30
0.0
 11
-1000.100000063722
 21
-1005.824999331348
 31
0.0
  0
LINE
  5
F7
330
5C
100
AcDbEntity
  8
0
  6
Continuous
 62
     7
100
AcDbLine
 10
-997.9000000073931
 20
-992.0378903099422
 30
0.0
 11
-1000.100000007393
 21
-992.0378903009539
 31
0.0
  0
LINE
  5
F8
330
5C
100
AcDbEntity
  8
0
  6
Continuous
 62
     7
100
AcDbLine
 10
-997.9000000269514
 20
-996.8249993403322
 30
0.0
 11
-1000.100000026951
 21
-996.8249993313439
 31
0.0
  0
LINE
  5
F9
330
5C
100
AcDbEntity
  8
0
  6
Continuous
 62
     7
100
AcDbLine
 10
-997.9000000269514
 20
-996.8249993403322
 30
0.0
 11
-997.9000000073931
 21
-992.0378903099422
 31
0.0
  0
LINE
  5
FA
330
5C
100
AcDbEntity
  8
0
  6
Continuous
 62
     7
100
AcDbLine
 10
-997.9000000964065
 20
-1013.824999340321
 30
0.0
 11
-997.9000000637217
 21
-1005.824999340336
 31
0.0
  0
LINE
  5
FB
330
5C
100
AcDbEntity
  8
0
  6
Continuous
 62
     7
100
AcDbLine
 10
-1000.09999997772
 20
-984.7749993313345
 30
0.0
 11
-1000.099999964086
 21
-981.4378903084806
 31
0.0
  0
LINE
  5
FC
330
5C
100
AcDbEntity
  8
0
  6
Continuous
 62
     7
100
AcDbLine
 10
-1000.100000007393
 20
-992.0378903009539
 30
0.0
 11
-1000.09999997772
 21
-984.7749993313345
 31
0.0
  0
LINE
  5
FD
330
5C
100
AcDbEntity
  8
0
  6
Continuous
 62
     7
100
AcDbLine
 10
-1000.099999964086
 20
-981.4378903084806
 30
0.0
 11
-1000.099999934413
 21
-974.1749993313401
 31
0.0
  0
ENDBLK
  5
5E
330
5C
100
AcDbEntity
  8
0
100
AcDbBlockEnd
  0
BLOCK
  5
61
330
5F
100
AcDbEntity
  8
0
100
AcDbBlockBegin
  2
SA_Links1
 70
     0
 10
-999.0
 20
-994.00000000002
 30
0.0
  3
SA_Links1
  1

  0
INSERT
  5
60
330
5F
100
AcDbEntity
  8
0
100
AcDbBlockReference
  2
D-PTTB_4-TG-select__4
 10
-1000.100000096407
 20
-1013.824999340321
 30
0.0
  0
MTEXT
  5
FE
330
5F
100
AcDbEntity
  8
1
 62
     6
100
AcDbMText
 10
-999.0
 20
-1018.825000290617
 30
0.0
 40
5.0
 41
0.0
 71
     2
 72
     1
  1
 
  7
CONVERTER_11
 73
     1
 44
1.32052821128451
  0
ENDBLK
  5
62
330
5F
100
AcDbEntity
  8
0
100
AcDbBlockEnd
  0
BLOCK
  5
64
330
63
100
AcDbEntity
  8
0
100
AcDbBlockBegin
  2
D-PTTB_4-TG-select__5
 70
     0
 10
-1144.01492277982
 20
-1013.824999340321
 30
0.0
  3
D-PTTB_4-TG-select__5
  1

  0
LINE
  5
FF
330
63
100
AcDbEntity
  8
0
  6
Continuous
 62
     7
100
AcDbLine
 10
-1144.014922687282
 20
-996.8249993403216
 30
0.0
 11
-1144.014922639551
 21
-1008.507713233929
 31
0.0
  0
LINE
  5
100
330
63
100
AcDbEntity
  8
0
  6
Continuous
 62
     7
100
AcDbLine
 10
-1141.814922687282
 20
-996.8249993313333
 30
0.0
 11
-1144.014922687282
 21
-996.8249993403216
 31
0.0
  0
LINE
  5
101
330
63
100
AcDbEntity
  8
0
  6
Continuous
 62
     2
100
AcDbLine
 10
-1141.814922639551
 20
-1008.50771322494
 30
0.0
 11
-1144.014922639551
 21
-1008.507713233929
 31
0.0
  0
LINE
  5
102
330
63
100
AcDbEntity
  8
0
  6
Continuous
 62
     7
100
AcDbLine
 10
-1144.014922736513
 20
-984.774999340322
 30
0.0
 11
-1144.014922750147
 21
-981.4378903174694
 31
0.0
  0
LINE
  5
103
330
63
100
AcDbEntity
  8
0
  6
Continuous
 62
     7
100
AcDbLine
 10
-1144.01492270684
 20
-992.0378903099607
 30
0.0
 11
-1141.81492270684
 21
-992.0378903009724
 31
0.0
  0
LINE
  5
104
330
63
100
AcDbEntity
  8
0
  6
Continuous
 62
     7
100
AcDbLine
 10
-1144.014922750147
 20
-981.4378903174694
 30
0.0
 11
-1141.814922750147
 21
-981.4378903084811
 31
0.0
  0
LINE
  5
105
330
63
100
AcDbEntity
  8
0
  6
Continuous
 62
     7
100
AcDbLine
 10
-1144.01492277982
 20
-974.1749993403283
 30
0.0
 11
-1141.81492277982
 21
-974.17499933134
 31
0.0
  0
LINE
  5
106
330
63
100
AcDbEntity
  8
0
  6
Continuous
 62
     7
100
AcDbLine
 10
-1141.814922736513
 20
-984.7749993313337
 30
0.0
 11
-1141.814922750147
 21
-981.4378903084811
 31
0.0
  0
LINE
  5
107
330
63
100
AcDbEntity
  8
0
  6
Continuous
 62
     7
100
AcDbLine
 10
-1144.014922736513
 20
-984.774999340322
 30
0.0
 11
-1141.814922736513
 21
-984.7749993313337
 31
0.0
  0
LINE
  5
108
330
63
100
AcDbEntity
  8
0
  6
Continuous
 62
     7
100
AcDbLine
 10
-1144.01492277982
 20
-974.1749993403283
 30
0.0
 11
-1144.014922750147
 21
-981.4378903174694
 31
0.0
  0
LINE
  5
109
330
63
100
AcDbEntity
  8
0
  6
Continuous
 62
     7
100
AcDbLine
 10
-1144.01492270684
 20
-992.0378903099607
 30
0.0
 11
-1144.014922687282
 21
-996.8249993403216
 31
0.0
  0
LINE
  5
10A
330
63
100
AcDbEntity
  8
0
  6
Continuous
 62
     7
100
AcDbLine
 10
-1144.014922628535
 20
-1011.203945977575
 30
0.0
 11
-1144.014922639551
 21
-1008.507713233929
 31
0.0
  0
LINE
  5
10B
330
63
100
AcDbEntity
  8
0
  6
Continuous
 62
     7
100
AcDbLine
 10
-1144.014922736513
 20
-984.774999340322
 30
0.0
 11
-1144.01492270684
 21
-992.0378903099607
 31
0.0
  0
LINE
  5
10C
330
63
100
AcDbEntity
  8
0
  6
Continuous
 62
     2
100
AcDbLine
 10
-1141.814922628535
 20
-1011.203945968587
 30
0.0
 11
-1144.014922628535
 21
-1011.203945977575
 31
0.0
  0
LINE
  5
10D
330
63
100
AcDbEntity
  8
0
  6
Continuous
 62
     7
100
AcDbLine
 10
-1141.814922628535
 20
-1011.203945968587
 30
0.0
 11
-1141.814922639551
 21
-1008.50771322494
 31
0.0
  0
LINE
  5
10E
330
63
100
AcDbEntity
  8
0
  6
Continuous
 62
     7
100
AcDbLine
 10
-1144.014922617826
 20
-1013.824999340321
 30
0.0
 11
-1144.014922628535
 21
-1011.203945977575
 31
0.0
  0
LINE
  5
10F
330
63
100
AcDbEntity
  8
0
  6
Continuous
 62
     7
100
AcDbLine
 10
-1144.014922617826
 20
-1013.824999340321
 30
0.0
 11
-1141.814922617826
 21
-1013.824999331332
 31
0.0
  0
LINE
  5
110
330
63
100
AcDbEntity
  8
0
  6
Continuous
 62
     7
100
AcDbLine
 10
-1141.814922617826
 20
-1013.824999331332
 30
0.0
 11
-1141.814922628535
 21
-1011.203945968587
 31
0.0
  0
LINE
  5
111
330
63
100
AcDbEntity
  8
0
  6
Continuous
 62
     7
100
AcDbLine
 10
-1141.81492277982
 20
-974.17499933134
 30
0.0
 11
-1141.814922750147
 21
-981.4378903084811
 31
0.0
  0
LINE
  5
112
330
63
100
AcDbEntity
  8
0
  6
Continuous
 62
     7
100
AcDbLine
 10
-1141.81492270684
 20
-992.0378903009724
 30
0.0
 11
-1141.814922687282
 21
-996.8249993313333
 31
0.0
  0
LINE
  5
113
330
63
100
AcDbEntity
  8
0
  6
Continuous
 62
     7
100
AcDbLine
 10
-1141.814922687282
 20
-996.8249993313333
 30
0.0
 11
-1141.814922639551
 21
-1008.50771322494
 31
0.0
  0
LINE
  5
114
330
63
100
AcDbEntity
  8
0
  6
Continuous
 62
     7
100
AcDbLine
 10
-1141.814922736513
 20
-984.7749993313337
 30
0.0
 11
-1141.81492270684
 21
-992.0378903009724
 31
0.0
  0
ENDBLK
  5
65
330
63
100
AcDbEntity
  8
0
100
AcDbBlockEnd
  0
BLOCK
  5
68
330
66
100
AcDbEntity
  8
0
100
AcDbBlockBegin
  2
SA_Rechts1
 70
     0
 10
-1142.914922714233
 20
-994.00000000002
 30
0.0
  3
SA_Rechts1
  1

  0
INSERT
  5
67
330
66
100
AcDbEntity
  8
0
100
AcDbBlockReference
  2
D-PTTB_4-TG-select__5
 10
-1144.01492277982
 20
-1013.824999340321
 30
0.0
  0
MTEXT
  5
115
330
66
100
AcDbEntity
  8
1
 62
     6
100
AcDbMText
 10
-1142.914922714233
 20
-1018.825000290617
 30
0.0
 40
5.0
 41
0.0
 71
     2
 72
     1
  1
 
  7
CONVERTER_11
 73
     1
 44
1.32052821128451
  0
ENDBLK
  5
69
330
66
100
AcDbEntity
  8
0
100
AcDbBlockEnd
  0
BLOCK
  5
6B
330
6A
100
AcDbEntity
  8
0
100
AcDbBlockBegin
  2
D-PTTB_4-TG-select__6
 70
     0
 10
-1114.914922968128
 20
-1013.824999340321
 30
0.0
  3
D-PTTB_4-TG-select__6
  1

  0
LINE
  5
116
330
6A
100
AcDbEntity
  8
0
  6
Continuous
 62
     7
100
AcDbLine
 10
-1023.835075216984
 20
-1013.824999340321
 30
0.0
 11
-1013.507991906082
 21
-1011.203945977575
 31
0.0
  0
LINE
  5
117
330
6A
100
AcDbEntity
  8
0
  6
Continuous
 62
     7
100
AcDbLine
 10
-1041.545566624246
 20
-974.1749993403283
 30
0.0
 11
-1040.264922987029
 21
-981.4378903174694
 31
0.0
  0
LINE
  5
118
330
6A
100
AcDbEntity
  8
0
  6
Continuous
 62
     7
100
AcDbLine
 10
-1040.264922987029
 20
-984.774999340322
 30
0.0
 11
-1040.264922987029
 21
-981.4378903174694
 31
0.0
  0
LINE
  5
119
330
6A
100
AcDbEntity
  8
0
  6
Continuous
 62
     7
100
AcDbLine
 10
-1013.295566603976
 20
-984.774999340322
 30
0.0
 11
-1040.264922987029
 21
-984.774999340322
 31
0.0
  0
LINE
  5
11A
330
6A
100
AcDbEntity
  8
0
  6
Continuous
 62
     7
100
AcDbLine
 10
-1023.835075216984
 20
-1013.824999340321
 30
0.0
 11
-1114.914922968128
 21
-1013.824999340321
 31
0.0
  0
LINE
  5
11B
330
6A
100
AcDbEntity
  8
0
  6
Continuous
 62
     7
100
AcDbLine
 10
-1114.914922968128
 20
-1013.824999340321
 30
0.0
 11
-1114.914922968128
 21
-1005.824999340336
 31
0.0
  0
LINE
  5
11C
330
6A
100
AcDbEntity
  8
0
  6
Continuous
 62
     7
100
AcDbLine
 10
-1114.914922968128
 20
-996.8249993403322
 30
0.0
 11
-1114.914922968128
 21
-992.0378903099422
 31
0.0
  0
LINE
  5
11D
330
6A
100
AcDbEntity
  8
0
  6
Continuous
 62
     7
100
AcDbLine
 10
-1013.295566603976
 20
-984.774999340322
 30
0.0
 11
-1012.014922968082
 21
-992.0378903099607
 31
0.0
  0
LINE
  5
11E
330
6A
100
AcDbEntity
  8
0
  6
Continuous
 62
     7
100
AcDbLine
 10
-1041.545566624246
 20
-974.1749993403283
 30
0.0
 11
-1094.884279349811
 21
-974.1749993403284
 31
0.0
  0
LINE
  5
11F
330
6A
100
AcDbEntity
  8
0
  6
Continuous
 62
     7
100
AcDbLine
 10
-1096.164922987028
 20
-981.4378903174689
 30
0.0
 11
-1094.884279349811
 21
-974.1749993403284
 31
0.0
  0
LINE
  5
120
330
6A
100
AcDbEntity
  8
0
  6
Continuous
 62
     7
100
AcDbLine
 10
-1096.164922987028
 20
-984.774999340333
 30
0.0
 11
-1096.164922987028
 21
-981.4378903174689
 31
0.0
  0
LINE
  5
121
330
6A
100
AcDbEntity
  8
0
  6
Continuous
 62
     7
100
AcDbLine
 10
-1113.634279332237
 20
-984.7749993403228
 30
0.0
 11
-1096.164922987028
 21
-984.774999340333
 31
0.0
  0
LINE
  5
122
330
6A
100
AcDbEntity
  8
0
  6
Continuous
 62
     7
100
AcDbLine
 10
-1114.914922968128
 20
-992.0378903099422
 30
0.0
 11
-1113.634279332237
 21
-984.7749993403228
 31
0.0
  0
LINE
  5
123
330
6A
100
AcDbEntity
  8
0
  6
Continuous
 62
     7
100
AcDbLine
 10
-1012.014922968082
 20
-992.0378903099607
 30
0.0
 11
-1012.014922968082
 21
-996.8249993403216
 31
0.0
  0
ARC
  5
124
330
6A
100
AcDbEntity
  8
0
  6
Continuous
 62
     7
100
AcDbCircle
 10
-1129.224010989382
 20
-1001.324999340334
 30
0.0
 40
15.0000000000004
100
AcDbArc
 50
342.5423968762702
 51
17.45760312372898
  0
ARC
  5
125
330
6A
100
AcDbEntity
  8
0
  6
Continuous
 62
     7
100
AcDbCircle
 10
-998.267195883214
 20
-1002.824999340322
 30
0.0
 40
15.00000000000069
100
AcDbArc
 50
156.4218215217974
 51
202.2623181653742
  0
ARC
  5
126
330
6A
100
AcDbEntity
  8
0
  6
Continuous
 62
     7
100
AcDbCircle
 10
-1014.000000175193
 20
-1009.265408419743
 30
0.0
 40
1.999999999999696
100
AcDbArc
 50
284.2411827161587
 51
22.2623181653607
  0
ENDBLK
  5
6C
330
6A
100
AcDbEntity
  8
0
100
AcDbBlockEnd
  0
BLOCK
  5
6F
330
6D
100
AcDbEntity
  8
0
100
AcDbBlockBegin
  2
Vordans1
 70
     0
 10
-1063.457461356947
 20
-994.00000000002
 30
0.0
  3
Vordans1
  1

  0
INSERT
  5
6E
330
6D
100
AcDbEntity
  8
0
100
AcDbBlockReference
  2
D-PTTB_4-TG-select__6
 10
-1114.914922968128
 20
-1013.824999340321
 30
0.0
  0
LINE
  5
127
330
6D
100
AcDbEntity
  8
1
  6
Continuous
 62
     2
100
AcDbLine
 10
-1012.000000175193
 20
-1009.265408419743
 30
0.0
 11
-1011.999000175193
 21
-1009.265408419743
 31
0.0
  0
MTEXT
  5
128
330
6D
100
AcDbEntity
  8
1
 62
     6
100
AcDbMText
 10
-1063.457461356947
 20
-1018.825000290617
 30
0.0
 40
5.0
 41
0.0
 71
     2
 72
     1
  1
 
  7
CONVERTER_11
 73
     1
 44
1.32052821128451
  0
DIMENSION
  5
133
330
6D
100
AcDbEntity
  8
1
100
AcDbDimension
  2
*D18
 10
-1012.000000175193
 20
-1025.33453716345
 30
0.0
 11
-1063.98007977034
 21
-1021.90953716345
 31
0.0
 70
    32
  1
<>
 71
     5
 42
-1.0
 53
0.00013888888889
  3
ME10_DIM_11
100
AcDbAlignedDimension
 13
-1114.914922968128
 23
-1013.824999340321
 33
0.0
 14
-1012.000000175193
 24
-1009.265408419743
 34
0.0
100
AcDbRotatedDimension
  0
DIMENSION
  5
13E
330
6D
100
AcDbEntity
  8
1
100
AcDbDimension
  2
*D19
 10
-1124.914922968128
 20
-974.1749993403284
 30
0.0
 11
-1128.339922968128
 21
-992.0378903099422
 31
0.0
 70
    32
  1
<>
 71
     5
 42
-1.0
 53
90.0
  3
ME10_DIM_12
100
AcDbAlignedDimension
 13
-1114.914922968128
 23
-1013.824999340321
 33
0.0
 14
-1094.884279349811
 24
-974.1749993403284
 34
0.0
 50
90.0
100
AcDbRotatedDimension
  0
ENDBLK
  5
70
330
6D
100
AcDbEntity
  8
0
100
AcDbBlockEnd
  0
BLOCK
  5
72
330
71
100
AcDbEntity
  8
0
100
AcDbBlockBegin
  2
_rahmen
 70
     0
 10
-868.5000000000847
 20
-1126.100000104839
 30
0.0
  3
_rahmen
  1

  0
LINE
  5
13F
330
71
100
AcDbEntity
  8
1
  6
Continuous
 62
     6
100
AcDbLine
 10
-998.0448045268347
 20
-1095.600000104839
 30
0.0
 11
-868.500000000083
 21
-1095.600000104839
 31
0.0
  0
LINE
  5
140
330
71
100
AcDbEntity
  8
1
  6
Continuous
 62
     7
100
AcDbLine
 10
-979.8448045268347
 20
-1116.850000104839
 30
0.0
 11
-961.6448045268348
 21
-1116.850000104839
 31
0.0
  0
LINE
  5
141
330
71
100
AcDbEntity
  8
1
  6
Continuous
 62
     6
100
AcDbLine
 10
-979.8448045268347
 20
-1121.100000104839
 30
0.0
 11
-998.0448045268347
 21
-1121.100000104839
 31
0.0
  0
LINE
  5
142
330
71
100
AcDbEntity
  8
1
  6
Continuous
 62
     7
100
AcDbLine
 10
-979.8448045268347
 20
-1116.850000104839
 30
0.0
 11
-979.8448045268347
 21
-1121.100000104839
 31
0.0
  0
LINE
  5
143
330
71
100
AcDbEntity
  8
1
  6
Continuous
 62
     7
100
AcDbLine
 10
-961.6448045268348
 20
-1116.850000104839
 30
0.0
 11
-961.6448045268348
 21
-1121.100000104839
 31
0.0
  0
LINE
  5
144
330
71
100
AcDbEntity
  8
1
  6
Continuous
 62
     7
100
AcDbLine
 10
-998.0448045268347
 20
-1116.850000104839
 30
0.0
 11
-998.0448045268347
 21
-1121.100000104839
 31
0.0
  0
LINE
  5
145
330
71
100
AcDbEntity
  8
1
  6
Continuous
 62
     7
100
AcDbLine
 10
-998.0448045268347
 20
-1116.850000104839
 30
0.0
 11
-979.8448045268347
 21
-1116.850000104839
 31
0.0
  0
LINE
  5
146
330
71
100
AcDbEntity
  8
1
  6
Continuous
 62
     2
100
AcDbLine
 10
-988.8081496402722
 20
-1097.475000104839
 30
0.0
 11
-988.8081496402722
 21
-1102.475000104839
 31
0.0
  0
LINE
  5
147
330
71
100
AcDbEntity
  8
1
  6
Continuous
 62
     2
100
AcDbLine
 10
-988.8081496402722
 20
-1102.475000104839
 30
0.0
 11
-993.8081496402722
 21
-1101.225000104839
 31
0.0
  0
LINE
  5
148
330
71
100
AcDbEntity
  8
1
  6
Continuous
 62
     2
100
AcDbLine
 10
-993.8081496402722
 20
-1101.225000104839
 30
0.0
 11
-993.8081496402722
 21
-1098.725000104839
 31
0.0
  0
LINE
  5
149
330
71
100
AcDbEntity
  8
1
  6
Continuous
 62
     2
100
AcDbLine
 10
-993.8081496402722
 20
-1098.725000104839
 30
0.0
 11
-988.8081496402722
 21
-1097.475000104839
 31
0.0
  0
LINE
  5
14A
330
71
100
AcDbEntity
  8
1
  6
Continuous
 62
     6
100
AcDbLine
 10
-1120.500000000083
 20
-1121.100000104839
 30
0.0
 11
-1155.500000000083
 21
-1121.100000104839
 31
0.0
  0
LINE
  5
14B
330
71
100
AcDbEntity
  8
1
  6
Continuous
 62
     6
100
AcDbLine
 10
-868.500000000083
 20
-1104.100000104839
 30
0.0
 11
-868.5000000000834
 21
-1112.600000104839
 31
0.0
  0
LINE
  5
14C
330
71
100
AcDbEntity
  8
1
  6
Continuous
 62
     6
100
AcDbLine
 10
-961.6448045268348
 20
-1121.100000104839
 30
0.0
 11
-962.0000000000847
 21
-1121.100000104839
 31
0.0
  0
LINE
  5
14D
330
71
100
AcDbEntity
  8
1
  6
Continuous
 62
     6
100
AcDbLine
 10
-1114.300000000085
 20
-1121.100000104839
 30
0.0
 11
-1120.500000000083
 21
-1121.100000104839
 31
0.0
  0
LINE
  5
14E
330
71
100
AcDbEntity
  8
1
  6
Continuous
 62
     7
100
AcDbLine
 10
-961.6448045268348
 20
-1104.100000104839
 30
0.0
 11
-961.6448045268348
 21
-1116.850000104839
 31
0.0
  0
LINE
  5
14F
330
71
100
AcDbEntity
  8
1
  6
Continuous
 62
     7
100
AcDbLine
 10
-998.0448045268347
 20
-1104.100000104839
 30
0.0
 11
-998.0448045268347
 21
-1116.850000104839
 31
0.0
  0
LINE
  5
150
330
71
100
AcDbEntity
  8
1
  6
Continuous
 62
     6
100
AcDbLine
 10
-1012.000000000085
 20
-1121.100000104839
 30
0.0
 11
-1062.000000000085
 21
-1121.100000104839
 31
0.0
  0
LINE
  5
151
330
71
100
AcDbEntity
  8
1
  6
Continuous
 62
     6
100
AcDbLine
 10
-1114.300000000085
 20
-1121.100000104839
 30
0.0
 11
-1112.000000000085
 21
-1121.100000104839
 31
0.0
  0
LINE
  5
152
330
71
100
AcDbEntity
  8
1
  6
Continuous
 62
     6
100
AcDbLine
 10
-961.6448045268348
 20
-1121.100000104839
 30
0.0
 11
-912.0000000000847
 21
-1121.100000104839
 31
0.0
  0
LINE
  5
153
330
71
100
AcDbEntity
  8
1
  6
Continuous
 62
     6
100
AcDbLine
 10
-868.5000000000847
 20
-1121.100000104839
 30
0.0
 11
-868.5000000000834
 21
-1112.600000104839
 31
0.0
  0
LINE
  5
154
330
71
100
AcDbEntity
  8
1
  6
Continuous
 62
     2
100
AcDbLine
 10
-1160.500000000084
 20
-1121.100000104839
 30
0.0
 11
-1160.500000000084
 21
-1126.100000104839
 31
0.0
  0
LINE
  5
155
330
71
100
AcDbEntity
  8
1
  6
Continuous
 62
     2
100
AcDbLine
 10
-1155.500000000083
 20
-1121.100000104839
 30
0.0
 11
-1160.500000000084
 21
-1121.100000104839
 31
0.0
  0
LINE
  5
156
330
71
100
AcDbEntity
  8
1
  6
Continuous
 62
     2
100
AcDbLine
 10
-1155.500000000083
 20
-1126.100000104839
 30
0.0
 11
-1112.000000000085
 21
-1126.100000104839
 31
0.0
  0
LINE
  5
157
330
71
100
AcDbEntity
  8
1
  6
Continuous
 62
     2
100
AcDbLine
 10
-1155.500000000083
 20
-1121.100000104839
 30
0.0
 11
-1155.500000000083
 21
-1126.100000104839
 31
0.0
  0
LINE
  5
158
330
71
100
AcDbEntity
  8
1
  6
Continuous
 62
     2
100
AcDbLine
 10
-912.0000000000847
 20
-1126.100000104839
 30
0.0
 11
-962.0000000000847
 21
-1126.100000104839
 31
0.0
  0
LINE
  5
159
330
71
100
AcDbEntity
  8
1
  6
Continuous
 62
     2
100
AcDbLine
 10
-912.0000000000847
 20
-1126.100000104839
 30
0.0
 11
-912.0000000000847
 21
-1121.100000104839
 31
0.0
  0
LINE
  5
15A
330
71
100
AcDbEntity
  8
1
  6
Continuous
 62
     2
100
AcDbLine
 10
-962.0000000000847
 20
-1126.100000104839
 30
0.0
 11
-962.0000000000847
 21
-1121.100000104839
 31
0.0
  0
LINE
  5
15B
330
71
100
AcDbEntity
  8
1
  6
Continuous
 62
     2
100
AcDbLine
 10
-1012.000000000085
 20
-1126.100000104839
 30
0.0
 11
-962.0000000000847
 21
-1126.100000104839
 31
0.0
  0
LINE
  5
15C
330
71
100
AcDbEntity
  8
1
  6
Continuous
 62
     2
100
AcDbLine
 10
-1012.000000000085
 20
-1126.100000104839
 30
0.0
 11
-1012.000000000085
 21
-1121.100000104839
 31
0.0
  0
LINE
  5
15D
330
71
100
AcDbEntity
  8
1
  6
Continuous
 62
     2
100
AcDbLine
 10
-1062.000000000085
 20
-1126.100000104839
 30
0.0
 11
-1012.000000000085
 21
-1126.100000104839
 31
0.0
  0
LINE
  5
15E
330
71
100
AcDbEntity
  8
1
  6
Continuous
 62
     2
100
AcDbLine
 10
-1062.000000000085
 20
-1126.100000104839
 30
0.0
 11
-1062.000000000085
 21
-1121.100000104839
 31
0.0
  0
LINE
  5
15F
330
71
100
AcDbEntity
  8
1
  6
Continuous
 62
     2
100
AcDbLine
 10
-1112.000000000085
 20
-1126.100000104839
 30
0.0
 11
-1062.000000000085
 21
-1126.100000104839
 31
0.0
  0
LINE
  5
160
330
71
100
AcDbEntity
  8
1
  6
Continuous
 62
     2
100
AcDbLine
 10
-1112.000000000085
 20
-1126.100000104839
 30
0.0
 11
-1112.000000000085
 21
-1121.100000104839
 31
0.0
  0
LINE
  5
161
330
71
100
AcDbEntity
  8
1
  6
Continuous
 62
     6
100
AcDbLine
 10
-1155.500000000083
 20
-1071.100000104839
 30
0.0
 11
-1155.500000000083
 21
-1121.100000104839
 31
0.0
  0
LINE
  5
162
330
71
100
AcDbEntity
  8
1
  6
Continuous
 62
     2
100
AcDbLine
 10
-1160.500000000084
 20
-1071.100000104839
 30
0.0
 11
-1160.500000000084
 21
-1121.100000104839
 31
0.0
  0
LINE
  5
163
330
71
100
AcDbEntity
  8
1
  6
Continuous
 62
     2
100
AcDbLine
 10
-1160.500000000084
 20
-1071.100000104839
 30
0.0
 11
-1155.500000000083
 21
-1071.100000104839
 31
0.0
  0
LINE
  5
164
330
71
100
AcDbEntity
  8
1
  6
Continuous
 62
     6
100
AcDbLine
 10
-1155.500000000083
 20
-1021.100000104839
 30
0.0
 11
-1155.500000000083
 21
-1071.100000104839
 31
0.0
  0
LINE
  5
165
330
71
100
AcDbEntity
  8
1
  6
Continuous
 62
     2
100
AcDbLine
 10
-1160.500000000084
 20
-1021.100000104839
 30
0.0
 11
-1160.500000000084
 21
-1071.100000104839
 31
0.0
  0
LINE
  5
166
330
71
100
AcDbEntity
  8
1
  6
Continuous
 62
     2
100
AcDbLine
 10
-1160.500000000084
 20
-1021.100000104839
 30
0.0
 11
-1155.500000000083
 21
-1021.100000104839
 31
0.0
  0
LINE
  5
167
330
71
100
AcDbEntity
  8
1
  6
Continuous
 62
     6
100
AcDbLine
 10
-1155.500000000084
 20
-971.100000104839
 30
0.0
 11
-1155.500000000083
 21
-1021.100000104839
 31
0.0
  0
LINE
  5
168
330
71
100
AcDbEntity
  8
1
  6
Continuous
 62
     2
100
AcDbLine
 10
-1160.500000000084
 20
-971.100000104839
 30
0.0
 11
-1160.500000000084
 21
-1021.100000104839
 31
0.0
  0
LINE
  5
169
330
71
100
AcDbEntity
  8
1
  6
Continuous
 62
     2
100
AcDbLine
 10
-1160.500000000084
 20
-971.100000104839
 30
0.0
 11
-1155.500000000084
 21
-971.100000104839
 31
0.0
  0
LINE
  5
16A
330
71
100
AcDbEntity
  8
1
  6
Continuous
 62
     6
100
AcDbLine
 10
-1155.500000000084
 20
-936.100000104839
 30
0.0
 11
-1155.500000000084
 21
-971.100000104839
 31
0.0
  0
LINE
  5
16B
330
71
100
AcDbEntity
  8
1
  6
Continuous
 62
     2
100
AcDbLine
 10
-1160.500000000084
 20
-916.100000104839
 30
0.0
 11
-1160.500000000084
 21
-971.100000104839
 31
0.0
  0
LINE
  5
16C
330
71
100
AcDbEntity
  8
1
  6
Continuous
 62
     2
100
AcDbLine
 10
-1160.500000000084
 20
-1126.100000104839
 30
0.0
 11
-1155.500000000083
 21
-1126.100000104839
 31
0.0
  0
LINE
  5
16D
330
71
100
AcDbEntity
  8
1
  6
Continuous
 62
     2
100
AcDbLine
 10
-1012.000000000085
 20
-916.100000104839
 30
0.0
 11
-1012.000000000085
 21
-925.3086919495403
 31
0.0
  0
LINE
  5
16E
330
71
100
AcDbEntity
  8
1
  6
Continuous
 62
     2
100
AcDbLine
 10
-1012.000000000085
 20
-916.100000104839
 30
0.0
 11
-1160.500000000084
 21
-916.100000104839
 31
0.0
  0
LINE
  5
16F
330
71
100
AcDbEntity
  8
1
  6
Continuous
 62
     2
100
AcDbLine
 10
-863.5000000000857
 20
-1121.100000104839
 30
0.0
 11
-863.5000000000857
 21
-1071.100000104839
 31
0.0
  0
LINE
  5
170
330
71
100
AcDbEntity
  8
1
  6
Continuous
 62
     2
100
AcDbLine
 10
-863.5000000000857
 20
-971.100000104839
 30
0.0
 11
-863.5000000000857
 21
-916.100000104839
 31
0.0
  0
LINE
  5
171
330
71
100
AcDbEntity
  8
1
  6
Continuous
 62
     6
100
AcDbLine
 10
-868.5000000000855
 20
-971.100000104839
 30
0.0
 11
-868.5000000000857
 21
-936.100000104839
 31
0.0
  0
LINE
  5
172
330
71
100
AcDbEntity
  8
1
  6
Continuous
 62
     2
100
AcDbLine
 10
-868.5000000000855
 20
-971.100000104839
 30
0.0
 11
-863.5000000000857
 21
-971.100000104839
 31
0.0
  0
LINE
  5
173
330
71
100
AcDbEntity
  8
1
  6
Continuous
 62
     2
100
AcDbLine
 10
-863.5000000000857
 20
-1021.100000104839
 30
0.0
 11
-863.5000000000857
 21
-971.100000104839
 31
0.0
  0
LINE
  5
174
330
71
100
AcDbEntity
  8
1
  6
Continuous
 62
     6
100
AcDbLine
 10
-868.5000000000844
 20
-1021.100000104839
 30
0.0
 11
-868.5000000000855
 21
-971.100000104839
 31
0.0
  0
LINE
  5
175
330
71
100
AcDbEntity
  8
1
  6
Continuous
 62
     2
100
AcDbLine
 10
-868.5000000000844
 20
-1021.100000104839
 30
0.0
 11
-863.5000000000857
 21
-1021.100000104839
 31
0.0
  0
LINE
  5
176
330
71
100
AcDbEntity
  8
1
  6
Continuous
 62
     2
100
AcDbLine
 10
-863.5000000000857
 20
-1071.100000104839
 30
0.0
 11
-863.5000000000857
 21
-1021.100000104839
 31
0.0
  0
LINE
  5
177
330
71
100
AcDbEntity
  8
1
  6
Continuous
 62
     6
100
AcDbLine
 10
-868.5000000000838
 20
-1071.100000104839
 30
0.0
 11
-868.5000000000844
 21
-1021.100000104839
 31
0.0
  0
LINE
  5
178
330
71
100
AcDbEntity
  8
1
  6
Continuous
 62
     2
100
AcDbLine
 10
-868.5000000000838
 20
-1071.100000104839
 30
0.0
 11
-863.5000000000857
 21
-1071.100000104839
 31
0.0
  0
LINE
  5
179
330
71
100
AcDbEntity
  8
1
  6
Continuous
 62
     6
100
AcDbLine
 10
-868.5000000000857
 20
-936.100000104839
 30
0.0
 11
-1155.500000000084
 21
-936.100000104839
 31
0.0
  0
LINE
  5
17A
330
71
100
AcDbEntity
  8
1
  6
Continuous
 62
     2
100
AcDbLine
 10
-863.5000000000857
 20
-916.100000104839
 30
0.0
 11
-1012.000000000085
 21
-916.100000104839
 31
0.0
  0
LINE
  5
17B
330
71
100
AcDbEntity
  8
1
  6
Continuous
 62
     6
100
AcDbLine
 10
-868.500000000083
 20
-1104.100000104839
 30
0.0
 11
-868.5000000000838
 21
-1071.100000104839
 31
0.0
  0
LINE
  5
17C
330
71
100
AcDbEntity
  8
1
  6
Continuous
 62
     2
100
AcDbLine
 10
-868.5000000000847
 20
-1126.100000104839
 30
0.0
 11
-912.0000000000847
 21
-1126.100000104839
 31
0.0
  0
LINE
  5
17D
330
71
100
AcDbEntity
  8
1
  6
Continuous
 62
     2
100
AcDbLine
 10
-863.5000000000857
 20
-1126.100000104839
 30
0.0
 11
-868.5000000000847
 21
-1126.100000104839
 31
0.0
  0
LINE
  5
17E
330
71
100
AcDbEntity
  8
1
  6
Continuous
 62
     2
100
AcDbLine
 10
-863.5000000000857
 20
-1126.100000104839
 30
0.0
 11
-863.5000000000857
 21
-1121.100000104839
 31
0.0
  0
LINE
  5
17F
330
71
100
AcDbEntity
  8
1
  6
Continuous
 62
     6
100
AcDbLine
 10
-998.0448045268347
 20
-1104.100000104839
 30
0.0
 11
-961.6448045268348
 21
-1104.100000104839
 31
0.0
  0
LINE
  5
180
330
71
100
AcDbEntity
  8
1
  6
Continuous
 62
     2
100
AcDbLine
 10
-868.5000000000847
 20
-1121.100000104839
 30
0.0
 11
-868.5000000000847
 21
-1126.100000104839
 31
0.0
  0
LINE
  5
181
330
71
100
AcDbEntity
  8
1
  6
Continuous
 62
     2
100
AcDbLine
 10
-868.5000000000847
 20
-1121.100000104839
 30
0.0
 11
-863.5000000000857
 21
-1121.100000104839
 31
0.0
  0
LINE
  5
182
330
71
100
AcDbEntity
  8
1
  6
Continuous
 62
     6
100
AcDbLine
 10
-962.0000000000847
 20
-1121.100000104839
 30
0.0
 11
-979.8448045268347
 21
-1121.100000104839
 31
0.0
  0
LINE
  5
183
330
71
100
AcDbEntity
  8
1
  6
Continuous
 62
     6
100
AcDbLine
 10
-912.0000000000847
 20
-1121.100000104839
 30
0.0
 11
-868.5000000000847
 21
-1121.100000104839
 31
0.0
  0
LINE
  5
184
330
71
100
AcDbEntity
  8
1
  6
Continuous
 62
     6
100
AcDbLine
 10
-1062.000000000085
 20
-1121.100000104839
 30
0.0
 11
-1067.044804526835
 21
-1121.100000104839
 31
0.0
  0
LINE
  5
185
330
71
100
AcDbEntity
  8
1
  6
Continuous
 62
     6
100
AcDbLine
 10
-1012.000000000085
 20
-1121.100000104839
 30
0.0
 11
-998.0448045268347
 21
-1121.100000104839
 31
0.0
  0
LINE
  5
186
102
{ACAD_REACTORS
330
270
330
271
102
}
330
71
100
AcDbEntity
  8
0
  6
Continuous
 62
     2
100
AcDbLine
 10
-990.530178584688
 20
-1109.027485348627
 30
0.0
 11
-990.530178584688
 21
-1108.42195006012
 31
0.0
  0
LINE
  5
187
102
{ACAD_REACTORS
330
270
330
271
102
}
330
71
100
AcDbEntity
  8
0
  6
Continuous
 62
     2
100
AcDbLine
 10
-990.530178584688
 20
-1111.827619955258
 30
0.0
 11
-990.530178584688
 21
-1111.245768548563
 31
0.0
  0
LINE
  5
188
102
{ACAD_REACTORS
330
272
330
273
102
}
330
71
100
AcDbEntity
  8
0
  6
Continuous
 62
     2
100
AcDbLine
 10
-967.9006921492087
 20
-1111.537955887135
 30
0.0
 11
-967.9006921492087
 21
-1113.806500104823
 31
0.0
  0
LINE
  5
189
102
{ACAD_REACTORS
330
272
330
273
102
}
330
71
100
AcDbEntity
  8
0
  6
Continuous
 62
     2
100
AcDbLine
 10
-969.2817459281963
 20
-1110.752690581012
 30
0.0
 11
-965.8968004095676
 21
-1110.752690581012
 31
0.0
  0
LINE
  5
18A
102
{ACAD_REACTORS
330
272
330
273
102
}
330
71
100
AcDbEntity
  8
0
  6
Continuous
 62
     2
100
AcDbLine
 10
-965.8968004095676
 20
-1111.537955887135
 30
0.0
 11
-965.8968004095676
 21
-1110.752690581012
 31
0.0
  0
LINE
  5
18B
102
{ACAD_REACTORS
330
272
330
273
102
}
330
71
100
AcDbEntity
  8
0
  6
Continuous
 62
     2
100
AcDbLine
 10
-966.707899447041
 20
-1111.537955887135
 30
0.0
 11
-965.8968004095676
 21
-1111.537955887135
 31
0.0
  0
LINE
  5
18C
102
{ACAD_REACTORS
330
272
330
273
102
}
330
71
100
AcDbEntity
  8
0
  6
Continuous
 62
     2
100
AcDbLine
 10
-966.707899447041
 20
-1113.806500104823
 30
0.0
 11
-966.707899447041
 21
-1111.537955887135
 31
0.0
  0
LINE
  5
18D
102
{ACAD_REACTORS
330
272
330
273
102
}
330
71
100
AcDbEntity
  8
0
  6
Continuous
 62
     2
100
AcDbLine
 10
-967.9006921492087
 20
-1113.806500104823
 30
0.0
 11
-966.707899447041
 21
-1113.806500104823
 31
0.0
  0
LINE
  5
18E
102
{ACAD_REACTORS
330
268
330
269
102
}
330
71
100
AcDbEntity
  8
0
  6
Continuous
 62
     2
100
AcDbLine
 10
-968.5972830872732
 20
-1107.393500104837
 30
0.0
 11
-970.0000073050226
 21
-1107.393500104837
 31
0.0
  0
LINE
  5
18F
102
{ACAD_REACTORS
330
268
330
269
102
}
330
71
100
AcDbEntity
  8
0
  6
Continuous
 62
     2
100
AcDbLine
 10
-968.5972830872732
 20
-1107.393500104837
 30
0.0
 11
-967.9961155653814
 21
-1108.073323426393
 31
0.0
  0
LINE
  5
190
102
{ACAD_REACTORS
330
268
330
269
102
}
330
71
100
AcDbEntity
  8
0
  6
Continuous
 62
     2
100
AcDbLine
 10
-967.9961155653814
 20
-1108.073323426393
 30
0.0
 11
-967.3949480434886
 21
-1107.393500104837
 31
0.0
  0
LINE
  5
191
102
{ACAD_REACTORS
330
268
330
269
102
}
330
71
100
AcDbEntity
  8
0
  6
Continuous
 62
     2
100
AcDbLine
 10
-967.2947534565079
 20
-1108.866450634873
 30
0.0
 11
-965.9922238257413
 21
-1107.393500104837
 31
0.0
  0
LINE
  5
192
102
{ACAD_REACTORS
330
268
330
269
102
}
330
71
100
AcDbEntity
  8
0
  6
Continuous
 62
     2
100
AcDbLine
 10
-967.2947534565079
 20
-1108.866450634873
 30
0.0
 11
-965.8968004095676
 21
-1110.447309628648
 31
0.0
  0
LINE
  5
193
102
{ACAD_REACTORS
330
268
330
269
102
}
330
71
100
AcDbEntity
  8
0
  6
Continuous
 62
     2
100
AcDbLine
 10
-967.2995246273159
 20
-1110.447309628648
 30
0.0
 11
-965.8968004095676
 21
-1110.447309628648
 31
0.0
  0
LINE
  5
194
102
{ACAD_REACTORS
330
268
330
269
102
}
330
71
100
AcDbEntity
  8
0
  6
Continuous
 62
     2
100
AcDbLine
 10
-967.9961155653814
 20
-1109.659577843355
 30
0.0
 11
-967.2995246273159
 21
-1110.447309628648
 31
0.0
  0
LINE
  5
195
102
{ACAD_REACTORS
330
266
330
267
102
}
330
71
100
AcDbEntity
  8
0
  6
Continuous
 62
     2
100
AcDbLine
 10
-971.4552144016651
 20
-1107.393500104837
 30
0.0
 11
-970.2147099914122
 21
-1107.393500104837
 31
0.0
  0
LINE
  5
196
102
{ACAD_REACTORS
330
266
330
267
102
}
330
71
100
AcDbEntity
  8
0
  6
Continuous
 62
     2
100
AcDbLine
 10
-970.2147099914122
 20
-1107.393500104837
 30
0.0
 11
-970.2147099914122
 21
-1110.447309628648
 31
0.0
  0
LINE
  5
197
102
{ACAD_REACTORS
330
266
330
267
102
}
330
71
100
AcDbEntity
  8
0
  6
Continuous
 62
     2
100
AcDbLine
 10
-971.4552144016651
 20
-1110.447309628648
 30
0.0
 11
-971.4552144016651
 21
-1107.393500104837
 31
0.0
  0
LINE
  5
198
102
{ACAD_REACTORS
330
264
330
265
102
}
330
71
100
AcDbEntity
  8
0
  6
Continuous
 62
     2
100
AcDbLine
 10
-972.9235244842027
 20
-1112.584976295298
 30
0.0
 11
-972.6233592470103
 21
-1111.817161329311
 31
0.0
  0
LINE
  5
199
102
{ACAD_REACTORS
330
264
330
265
102
}
330
71
100
AcDbEntity
  8
0
  6
Continuous
 62
     2
100
AcDbLine
 10
-973.4010600888236
 20
-1113.806500104823
 30
0.0
 11
-973.1895800353477
 21
-1113.265539560605
 31
0.0
  0
LINE
  5
19A
102
{ACAD_REACTORS
330
264
330
265
102
}
330
71
100
AcDbEntity
  8
0
  6
Continuous
 62
     2
100
AcDbLine
 10
-973.2436114521372
 20
-1110.752690581012
 30
0.0
 11
-974.6415644990765
 21
-1113.806500104823
 31
0.0
  0
LINE
  5
19B
102
{ACAD_REACTORS
330
264
330
265
102
}
330
71
100
AcDbEntity
  8
0
  6
Continuous
 62
     2
100
AcDbLine
 10
-970.6051539949442
 20
-1113.806500104823
 30
0.0
 11
-971.8456584051982
 21
-1113.806500104823
 31
0.0
  0
LINE
  5
19C
102
{ACAD_REACTORS
330
264
330
265
102
}
330
71
100
AcDbEntity
  8
0
  6
Continuous
 62
     2
100
AcDbLine
 10
-973.1895800353477
 20
-1113.265539560605
 30
0.0
 11
-972.0571384586739
 21
-1113.265539560605
 31
0.0
  0
LINE
  5
19D
102
{ACAD_REACTORS
330
262
330
263
102
}
330
71
100
AcDbEntity
  8
0
  6
Continuous
 62
     2
100
AcDbLine
 10
-976.7990766382587
 20
-1111.537955887135
 30
0.0
 11
-975.9879776007841
 21
-1111.537955887135
 31
0.0
  0
LINE
  5
19E
102
{ACAD_REACTORS
330
262
330
263
102
}
330
71
100
AcDbEntity
  8
0
  6
Continuous
 62
     2
100
AcDbLine
 10
-973.9840858611451
 20
-1110.752690581012
 30
0.0
 11
-976.7990766382587
 21
-1110.752690581012
 31
0.0
  0
LINE
  5
19F
102
{ACAD_REACTORS
330
262
330
263
102
}
330
71
100
AcDbEntity
  8
0
  6
Continuous
 62
     2
100
AcDbLine
 10
-973.9840858611451
 20
-1111.537955887135
 30
0.0
 11
-973.9840858611451
 21
-1110.752690581012
 31
0.0
  0
LINE
  5
1A0
102
{ACAD_REACTORS
330
262
330
263
102
}
330
71
100
AcDbEntity
  8
0
  6
Continuous
 62
     2
100
AcDbLine
 10
-974.7951848986177
 20
-1111.537955887135
 30
0.0
 11
-973.9840858611451
 21
-1111.537955887135
 31
0.0
  0
LINE
  5
1A1
102
{ACAD_REACTORS
330
262
330
263
102
}
330
71
100
AcDbEntity
  8
0
  6
Continuous
 62
     2
100
AcDbLine
 10
-974.7951848986177
 20
-1113.806500104823
 30
0.0
 11
-974.7951848986177
 21
-1111.537955887135
 31
0.0
  0
LINE
  5
1A2
102
{ACAD_REACTORS
330
260
330
261
102
}
330
71
100
AcDbEntity
  8
0
  6
Continuous
 62
     2
100
AcDbLine
 10
-974.1270700545197
 20
-1110.447309628648
 30
0.0
 11
-974.1270700545197
 21
-1109.138534118444
 31
0.0
  0
LINE
  5
1A3
102
{ACAD_REACTORS
330
260
330
261
102
}
330
71
100
AcDbEntity
  8
0
  6
Continuous
 62
     2
100
AcDbLine
 10
-975.3198627566861
 20
-1107.393500104837
 30
0.0
 11
-975.3198627566861
 21
-1110.447309628648
 31
0.0
  0
LINE
  5
1A4
102
{ACAD_REACTORS
330
260
330
261
102
}
330
71
100
AcDbEntity
  8
0
  6
Continuous
 62
     2
100
AcDbLine
 10
-974.1270700545197
 20
-1107.393500104837
 30
0.0
 11
-975.3198627566861
 21
-1107.393500104837
 31
0.0
  0
LINE
  5
1A5
102
{ACAD_REACTORS
330
260
330
261
102
}
330
71
100
AcDbEntity
  8
0
  6
Continuous
 62
     2
100
AcDbLine
 10
-972.8865656442656
 20
-1107.393500104837
 30
0.0
 11
-972.8865656442656
 21
-1108.702275615042
 31
0.0
  0
LINE
  5
1A6
102
{ACAD_REACTORS
330
25E
330
25F
102
}
330
71
100
AcDbEntity
  8
0
  6
Continuous
 62
     2
100
AcDbLine
 10
-980.5683015771058
 20
-1110.752690581012
 30
0.0
 11
-980.5683015771058
 21
-1113.806500104823
 31
0.0
  0
LINE
  5
1A7
102
{ACAD_REACTORS
330
25E
330
25F
102
}
330
71
100
AcDbEntity
  8
0
  6
Continuous
 62
     2
100
AcDbLine
 10
-979.3755088749382
 20
-1110.752690581012
 30
0.0
 11
-980.5683015771058
 21
-1110.752690581012
 31
0.0
  0
LINE
  5
1A8
102
{ACAD_REACTORS
330
25E
330
25F
102
}
330
71
100
AcDbEntity
  8
0
  6
Continuous
 62
     2
100
AcDbLine
 10
-978.1350044646854
 20
-1113.806500104823
 30
0.0
 11
-976.9422117625189
 21
-1113.806500104823
 31
0.0
  0
LINE
  5
1A9
102
{ACAD_REACTORS
330
25E
330
25F
102
}
330
71
100
AcDbEntity
  8
0
  6
Continuous
 62
     2
100
AcDbLine
 10
-980.5683015771058
 20
-1113.806500104823
 30
0.0
 11
-979.3755088749382
 21
-1113.806500104823
 31
0.0
  0
LINE
  5
1AA
102
{ACAD_REACTORS
330
26E
330
26F
102
}
330
71
100
AcDbEntity
  8
0
  6
Continuous
 62
     2
100
AcDbLine
 10
-976.8943491235467
 20
-1108.571398064022
 30
0.0
 11
-976.8943491235467
 21
-1108.09151371028
 31
0.0
  0
LINE
  5
1AB
102
{ACAD_REACTORS
330
26E
330
26F
102
}
330
71
100
AcDbEntity
  8
0
  6
Continuous
 62
     2
100
AcDbLine
 10
-975.558421297119
 20
-1108.571398064022
 30
0.0
 11
-976.8943491235467
 21
-1108.571398064022
 31
0.0
  0
LINE
  5
1AC
102
{ACAD_REACTORS
330
26E
330
26F
102
}
330
71
100
AcDbEntity
  8
0
  6
Continuous
 62
     2
100
AcDbLine
 10
-975.558421297119
 20
-1109.269411669464
 30
0.0
 11
-975.558421297119
 21
-1108.571398064022
 31
0.0
  0
LINE
  5
1AD
102
{ACAD_REACTORS
330
26E
330
26F
102
}
330
71
100
AcDbEntity
  8
0
  6
Continuous
 62
     2
100
AcDbLine
 10
-976.8943491235467
 20
-1109.269411669464
 30
0.0
 11
-975.558421297119
 21
-1109.269411669464
 31
0.0
  0
LINE
  5
1AE
102
{ACAD_REACTORS
330
25C
330
25D
102
}
330
71
100
AcDbEntity
  8
0
  6
Continuous
 62
     2
100
AcDbLine
 10
-980.3773038138736
 20
-1107.393500104837
 30
0.0
 11
-980.3773038138736
 21
-1110.447309628648
 31
0.0
  0
LINE
  5
1AF
102
{ACAD_REACTORS
330
25C
330
25D
102
}
330
71
100
AcDbEntity
  8
0
  6
Continuous
 62
     2
100
AcDbLine
 10
-980.3773038138736
 20
-1110.447309628648
 30
0.0
 11
-981.57009651604
 21
-1110.447309628648
 31
0.0
  0
LINE
  5
1B0
102
{ACAD_REACTORS
330
25C
330
25D
102
}
330
71
100
AcDbEntity
  8
0
  6
Continuous
 62
     2
100
AcDbLine
 10
-981.57009651604
 20
-1110.447309628648
 30
0.0
 11
-981.57009651604
 21
-1109.313037519805
 31
0.0
  0
LINE
  5
1B1
102
{ACAD_REACTORS
330
25C
330
25D
102
}
330
71
100
AcDbEntity
  8
0
  6
Continuous
 62
     2
100
AcDbLine
 10
-982.6197540939474
 20
-1110.447309628648
 30
0.0
 11
-983.8125467961141
 21
-1110.447309628648
 31
0.0
  0
LINE
  5
1B2
102
{ACAD_REACTORS
330
25C
330
25D
102
}
330
71
100
AcDbEntity
  8
0
  6
Continuous
 62
     2
100
AcDbLine
 10
-983.8125467961141
 20
-1107.393500104837
 30
0.0
 11
-982.6197540939474
 21
-1107.393500104837
 31
0.0
  0
LINE
  5
1B3
102
{ACAD_REACTORS
330
25C
330
25D
102
}
330
71
100
AcDbEntity
  8
0
  6
Continuous
 62
     2
100
AcDbLine
 10
-982.6197540939474
 20
-1107.393500104837
 30
0.0
 11
-982.6197540939474
 21
-1108.462333438172
 31
0.0
  0
LINE
  5
1B4
102
{ACAD_REACTORS
330
25C
330
25D
102
}
330
71
100
AcDbEntity
  8
0
  6
Continuous
 62
     2
100
AcDbLine
 10
-982.6197540939474
 20
-1108.462333438172
 30
0.0
 11
-981.57009651604
 21
-1108.462333438172
 31
0.0
  0
LINE
  5
1B5
102
{ACAD_REACTORS
330
26A
330
26B
102
}
330
71
100
AcDbEntity
  8
0
  6
Continuous
 62
     2
100
AcDbLine
 10
-985.7687268276677
 20
-1108.056605950277
 30
0.0
 11
-985.4514317661258
 21
-1108.056605950277
 31
0.0
  0
LINE
  5
1B6
102
{ACAD_REACTORS
330
26A
330
26B
102
}
330
71
100
AcDbEntity
  8
0
  6
Continuous
 62
     2
100
AcDbLine
 10
-985.7687268276677
 20
-1108.76233359962
 30
0.0
 11
-985.4514317661258
 21
-1108.76233359962
 31
0.0
  0
LINE
  5
1B7
102
{ACAD_REACTORS
330
26A
330
26B
102
}
330
71
100
AcDbEntity
  8
0
  6
Continuous
 62
     2
100
AcDbLine
 10
-987.0092312379218
 20
-1107.393500104837
 30
0.0
 11
-987.0092312379218
 21
-1110.447309628648
 31
0.0
  0
LINE
  5
1B8
102
{ACAD_REACTORS
330
26A
330
26B
102
}
330
71
100
AcDbEntity
  8
0
  6
Continuous
 62
     2
100
AcDbLine
 10
-987.0092312379218
 20
-1107.393500104837
 30
0.0
 11
-985.0099592398874
 21
-1107.393500104837
 31
0.0
  0
LINE
  5
1B9
102
{ACAD_REACTORS
330
26A
330
26B
102
}
330
71
100
AcDbEntity
  8
0
  6
Continuous
 62
     2
100
AcDbLine
 10
-985.7687268276677
 20
-1109.504231387505
 30
0.0
 11
-985.0099592398874
 21
-1109.504231387505
 31
0.0
  0
LINE
  5
1BA
102
{ACAD_REACTORS
330
270
330
271
102
}
330
71
100
AcDbEntity
  8
0
  6
Continuous
 62
     2
100
AcDbLine
 10
-993.1057272712185
 20
-1108.421772583472
 30
0.0
 11
-993.1057272712185
 21
-1112.778227626189
 31
0.0
  0
LINE
  5
1BB
102
{ACAD_REACTORS
330
270
330
271
102
}
330
71
100
AcDbEntity
  8
0
  6
Continuous
 62
     2
100
AcDbLine
 10
-992.7900103481428
 20
-1108.106055660396
 30
0.0
 11
-991.3141770871332
 21
-1108.106055660396
 31
0.0
  0
LINE
  5
1BC
102
{ACAD_REACTORS
330
270
330
271
102
}
330
71
100
AcDbEntity
  8
0
  6
Continuous
 62
     2
100
AcDbLine
 10
-990.9984601640566
 20
-1109.025797202532
 30
0.0
 11
-990.9984601640566
 21
-1108.421772583472
 31
0.0
  0
LINE
  5
1BD
102
{ACAD_REACTORS
330
270
330
271
102
}
330
71
100
AcDbEntity
  8
0
  6
Continuous
 62
     2
100
AcDbLine
 10
-990.9984601640566
 20
-1112.778227626189
 30
0.0
 11
-990.9984601640566
 21
-1111.247456694658
 31
0.0
  0
LINE
  5
1BE
102
{ACAD_REACTORS
330
270
330
271
102
}
330
71
100
AcDbEntity
  8
0
  6
Continuous
 62
     2
100
AcDbLine
 10
-987.9105929341725
 20
-1113.806500104823
 30
0.0
 11
-993.3839050248894
 21
-1113.806500104823
 31
0.0
  0
LINE
  5
1BF
102
{ACAD_REACTORS
330
270
330
271
102
}
330
71
100
AcDbEntity
  8
0
  6
Continuous
 62
     2
100
AcDbLine
 10
-987.4863483187886
 20
-1107.817744720239
 30
0.0
 11
-987.4863483187886
 21
-1113.382255489439
 31
0.0
  0
LINE
  5
1C0
102
{ACAD_REACTORS
330
270
330
271
102
}
330
71
100
AcDbEntity
  8
0
  6
Continuous
 62
     2
100
AcDbLine
 10
-993.3839050248894
 20
-1107.393500104855
 30
0.0
 11
-987.9105929341725
 21
-1107.393500104855
 31
0.0
  0
LINE
  5
1C1
102
{ACAD_REACTORS
330
270
330
271
102
}
330
71
100
AcDbEntity
  8
0
  6
Continuous
 62
     2
100
AcDbLine
 10
-993.8081496402722
 20
-1107.817744720239
 30
0.0
 11
-993.8081496402722
 21
-1113.382255489439
 31
0.0
  0
LINE
  5
1C2
102
{ACAD_REACTORS
330
270
330
271
102
}
330
71
100
AcDbEntity
  8
0
  6
Continuous
 62
     2
100
AcDbLine
 10
-991.3141770871332
 20
-1113.093944549266
 30
0.0
 11
-992.7900103481428
 21
-1113.093944549266
 31
0.0
  0
LINE
  5
1C3
102
{ACAD_REACTORS
330
26A
330
26B
102
}
330
71
100
AcDbEntity
  8
0
  6
Continuous
 62
     2
100
AcDbLine
 10
-985.7687268276677
 20
-1110.447309628648
 30
0.0
 11
-985.7687268276677
 21
-1109.504231387505
 31
0.0
  0
LINE
  5
1C4
102
{ACAD_REACTORS
330
26A
330
26B
102
}
330
71
100
AcDbEntity
  8
0
  6
Continuous
 62
     2
100
AcDbLine
 10
-987.0092312379218
 20
-1110.447309628648
 30
0.0
 11
-985.7687268276677
 21
-1110.447309628648
 31
0.0
  0
LINE
  5
1C5
102
{ACAD_REACTORS
330
26A
330
26B
102
}
330
71
100
AcDbEntity
  8
0
  6
Continuous
 62
     2
100
AcDbLine
 10
-985.7687268276677
 20
-1108.76233359962
 30
0.0
 11
-985.7687268276677
 21
-1108.056605950277
 31
0.0
  0
LINE
  5
1C6
102
{ACAD_REACTORS
330
25C
330
25D
102
}
330
71
100
AcDbEntity
  8
0
  6
Continuous
 62
     2
100
AcDbLine
 10
-983.8125467961141
 20
-1107.393500104837
 30
0.0
 11
-983.8125467961141
 21
-1110.447309628648
 31
0.0
  0
LINE
  5
1C7
102
{ACAD_REACTORS
330
25C
330
25D
102
}
330
71
100
AcDbEntity
  8
0
  6
Continuous
 62
     2
100
AcDbLine
 10
-982.6197540939474
 20
-1109.313037519805
 30
0.0
 11
-982.6197540939474
 21
-1110.447309628648
 31
0.0
  0
LINE
  5
1C8
102
{ACAD_REACTORS
330
25C
330
25D
102
}
330
71
100
AcDbEntity
  8
0
  6
Continuous
 62
     2
100
AcDbLine
 10
-981.57009651604
 20
-1109.313037519805
 30
0.0
 11
-982.6197540939474
 21
-1109.313037519805
 31
0.0
  0
LINE
  5
1C9
102
{ACAD_REACTORS
330
25C
330
25D
102
}
330
71
100
AcDbEntity
  8
0
  6
Continuous
 62
     2
100
AcDbLine
 10
-981.57009651604
 20
-1107.393500104837
 30
0.0
 11
-980.3773038138736
 21
-1107.393500104837
 31
0.0
  0
LINE
  5
1CA
102
{ACAD_REACTORS
330
25C
330
25D
102
}
330
71
100
AcDbEntity
  8
0
  6
Continuous
 62
     2
100
AcDbLine
 10
-981.57009651604
 20
-1108.462333438172
 30
0.0
 11
-981.57009651604
 21
-1107.393500104837
 31
0.0
  0
LINE
  5
1CB
102
{ACAD_REACTORS
330
26E
330
26F
102
}
330
71
100
AcDbEntity
  8
0
  6
Continuous
 62
     2
100
AcDbLine
 10
-975.558421297119
 20
-1108.09151371028
 30
0.0
 11
-975.558421297119
 21
-1107.393500104837
 31
0.0
  0
LINE
  5
1CC
102
{ACAD_REACTORS
330
26E
330
26F
102
}
330
71
100
AcDbEntity
  8
0
  6
Continuous
 62
     2
100
AcDbLine
 10
-978.7087410209
 20
-1107.393500104837
 30
0.0
 11
-975.558421297119
 21
-1107.393500104837
 31
0.0
  0
LINE
  5
1CD
102
{ACAD_REACTORS
330
26E
330
26F
102
}
330
71
100
AcDbEntity
  8
0
  6
Continuous
 62
     2
100
AcDbLine
 10
-978.7087410209
 20
-1110.447309628648
 30
0.0
 11
-975.558421297119
 21
-1110.447309628648
 31
0.0
  0
LINE
  5
1CE
102
{ACAD_REACTORS
330
26E
330
26F
102
}
330
71
100
AcDbEntity
  8
0
  6
Continuous
 62
     2
100
AcDbLine
 10
-975.558421297119
 20
-1110.447309628648
 30
0.0
 11
-975.558421297119
 21
-1109.749296023206
 31
0.0
  0
LINE
  5
1CF
102
{ACAD_REACTORS
330
26E
330
26F
102
}
330
71
100
AcDbEntity
  8
0
  6
Continuous
 62
     2
100
AcDbLine
 10
-975.558421297119
 20
-1109.749296023206
 30
0.0
 11
-976.8943491235467
 21
-1109.749296023206
 31
0.0
  0
LINE
  5
1D0
102
{ACAD_REACTORS
330
26E
330
26F
102
}
330
71
100
AcDbEntity
  8
0
  6
Continuous
 62
     2
100
AcDbLine
 10
-976.8943491235467
 20
-1109.749296023206
 30
0.0
 11
-976.8943491235467
 21
-1109.269411669464
 31
0.0
  0
LINE
  5
1D1
102
{ACAD_REACTORS
330
26E
330
26F
102
}
330
71
100
AcDbEntity
  8
0
  6
Continuous
 62
     2
100
AcDbLine
 10
-976.8943491235467
 20
-1108.09151371028
 30
0.0
 11
-975.558421297119
 21
-1108.09151371028
 31
0.0
  0
LINE
  5
1D2
102
{ACAD_REACTORS
330
25E
330
25F
102
}
330
71
100
AcDbEntity
  8
0
  6
Continuous
 62
     2
100
AcDbLine
 10
-979.3755088749382
 20
-1113.806500104823
 30
0.0
 11
-979.3755088749382
 21
-1112.497724594618
 31
0.0
  0
LINE
  5
1D3
102
{ACAD_REACTORS
330
25E
330
25F
102
}
330
71
100
AcDbEntity
  8
0
  6
Continuous
 62
     2
100
AcDbLine
 10
-979.3755088749382
 20
-1112.497724594618
 30
0.0
 11
-978.1350044646854
 21
-1113.806500104823
 31
0.0
  0
LINE
  5
1D4
102
{ACAD_REACTORS
330
25E
330
25F
102
}
330
71
100
AcDbEntity
  8
0
  6
Continuous
 62
     2
100
AcDbLine
 10
-976.9422117625189
 20
-1113.806500104823
 30
0.0
 11
-976.9422117625189
 21
-1110.752690581012
 31
0.0
  0
LINE
  5
1D5
102
{ACAD_REACTORS
330
25E
330
25F
102
}
330
71
100
AcDbEntity
  8
0
  6
Continuous
 62
     2
100
AcDbLine
 10
-976.9422117625189
 20
-1110.752690581012
 30
0.0
 11
-978.1350044646854
 21
-1110.752690581012
 31
0.0
  0
LINE
  5
1D6
102
{ACAD_REACTORS
330
25E
330
25F
102
}
330
71
100
AcDbEntity
  8
0
  6
Continuous
 62
     2
100
AcDbLine
 10
-978.1350044646854
 20
-1110.752690581012
 30
0.0
 11
-978.1350044646854
 21
-1112.061466091217
 31
0.0
  0
LINE
  5
1D7
102
{ACAD_REACTORS
330
25E
330
25F
102
}
330
71
100
AcDbEntity
  8
0
  6
Continuous
 62
     2
100
AcDbLine
 10
-978.1350044646854
 20
-1112.061466091217
 30
0.0
 11
-979.3755088749382
 21
-1110.752690581012
 31
0.0
  0
LINE
  5
1D8
102
{ACAD_REACTORS
330
260
330
261
102
}
330
71
100
AcDbEntity
  8
0
  6
Continuous
 62
     2
100
AcDbLine
 10
-974.1270700545197
 20
-1109.138534118444
 30
0.0
 11
-972.8865656442656
 21
-1110.447309628648
 31
0.0
  0
LINE
  5
1D9
102
{ACAD_REACTORS
330
260
330
261
102
}
330
71
100
AcDbEntity
  8
0
  6
Continuous
 62
     2
100
AcDbLine
 10
-972.8865656442656
 20
-1110.447309628648
 30
0.0
 11
-971.693772942099
 21
-1110.447309628648
 31
0.0
  0
LINE
  5
1DA
102
{ACAD_REACTORS
330
260
330
261
102
}
330
71
100
AcDbEntity
  8
0
  6
Continuous
 62
     2
100
AcDbLine
 10
-971.693772942099
 20
-1110.447309628648
 30
0.0
 11
-971.693772942099
 21
-1107.393500104837
 31
0.0
  0
LINE
  5
1DB
102
{ACAD_REACTORS
330
260
330
261
102
}
330
71
100
AcDbEntity
  8
0
  6
Continuous
 62
     2
100
AcDbLine
 10
-971.693772942099
 20
-1107.393500104837
 30
0.0
 11
-972.8865656442656
 21
-1107.393500104837
 31
0.0
  0
LINE
  5
1DC
102
{ACAD_REACTORS
330
260
330
261
102
}
330
71
100
AcDbEntity
  8
0
  6
Continuous
 62
     2
100
AcDbLine
 10
-972.8865656442656
 20
-1108.702275615042
 30
0.0
 11
-974.1270700545197
 21
-1107.393500104837
 31
0.0
  0
LINE
  5
1DD
102
{ACAD_REACTORS
330
260
330
261
102
}
330
71
100
AcDbEntity
  8
0
  6
Continuous
 62
     2
100
AcDbLine
 10
-975.3198627566861
 20
-1110.447309628648
 30
0.0
 11
-974.1270700545197
 21
-1110.447309628648
 31
0.0
  0
LINE
  5
1DE
102
{ACAD_REACTORS
330
262
330
263
102
}
330
71
100
AcDbEntity
  8
0
  6
Continuous
 62
     2
100
AcDbLine
 10
-976.7990766382587
 20
-1110.752690581012
 30
0.0
 11
-976.7990766382587
 21
-1111.537955887135
 31
0.0
  0
LINE
  5
1DF
102
{ACAD_REACTORS
330
262
330
263
102
}
330
71
100
AcDbEntity
  8
0
  6
Continuous
 62
     2
100
AcDbLine
 10
-975.9879776007841
 20
-1111.537955887135
 30
0.0
 11
-975.9879776007841
 21
-1113.806500104823
 31
0.0
  0
LINE
  5
1E0
102
{ACAD_REACTORS
330
262
330
263
102
}
330
71
100
AcDbEntity
  8
0
  6
Continuous
 62
     2
100
AcDbLine
 10
-975.9879776007841
 20
-1113.806500104823
 30
0.0
 11
-974.7951848986177
 21
-1113.806500104823
 31
0.0
  0
LINE
  5
1E1
102
{ACAD_REACTORS
330
264
330
265
102
}
330
71
100
AcDbEntity
  8
0
  6
Continuous
 62
     2
100
AcDbLine
 10
-971.8456584051982
 20
-1113.806500104823
 30
0.0
 11
-972.0571384586739
 21
-1113.265539560605
 31
0.0
  0
LINE
  5
1E2
102
{ACAD_REACTORS
330
264
330
265
102
}
330
71
100
AcDbEntity
  8
0
  6
Continuous
 62
     2
100
AcDbLine
 10
-972.0031070418845
 20
-1110.752690581012
 30
0.0
 11
-970.6051539949442
 21
-1113.806500104823
 31
0.0
  0
LINE
  5
1E3
102
{ACAD_REACTORS
330
264
330
265
102
}
330
71
100
AcDbEntity
  8
0
  6
Continuous
 62
     2
100
AcDbLine
 10
-973.2436114521372
 20
-1110.752690581012
 30
0.0
 11
-972.0031070418845
 21
-1110.752690581012
 31
0.0
  0
LINE
  5
1E4
102
{ACAD_REACTORS
330
264
330
265
102
}
330
71
100
AcDbEntity
  8
0
  6
Continuous
 62
     2
100
AcDbLine
 10
-974.6415644990765
 20
-1113.806500104823
 30
0.0
 11
-973.4010600888236
 21
-1113.806500104823
 31
0.0
  0
LINE
  5
1E5
102
{ACAD_REACTORS
330
264
330
265
102
}
330
71
100
AcDbEntity
  8
0
  6
Continuous
 62
     2
100
AcDbLine
 10
-972.9235244842027
 20
-1112.584976295298
 30
0.0
 11
-972.3231940098202
 21
-1112.584976295298
 31
0.0
  0
LINE
  5
1E6
102
{ACAD_REACTORS
330
264
330
265
102
}
330
71
100
AcDbEntity
  8
0
  6
Continuous
 62
     2
100
AcDbLine
 10
-972.3231940098202
 20
-1112.584976295298
 30
0.0
 11
-972.6233592470103
 21
-1111.817161329311
 31
0.0
  0
LINE
  5
1E7
102
{ACAD_REACTORS
330
266
330
267
102
}
330
71
100
AcDbEntity
  8
0
  6
Continuous
 62
     2
100
AcDbLine
 10
-970.2147099914122
 20
-1110.447309628648
 30
0.0
 11
-971.4552144016651
 21
-1110.447309628648
 31
0.0
  0
LINE
  5
1E8
102
{ACAD_REACTORS
330
268
330
269
102
}
330
71
100
AcDbEntity
  8
0
  6
Continuous
 62
     2
100
AcDbLine
 10
-968.6927065034471
 20
-1110.447309628648
 30
0.0
 11
-970.0954307211953
 21
-1110.447309628648
 31
0.0
  0
LINE
  5
1E9
102
{ACAD_REACTORS
330
268
330
269
102
}
330
71
100
AcDbEntity
  8
0
  6
Continuous
 62
     2
100
AcDbLine
 10
-968.6927065034471
 20
-1110.447309628648
 30
0.0
 11
-967.9961155653814
 21
-1109.659577843355
 31
0.0
  0
LINE
  5
1EA
102
{ACAD_REACTORS
330
268
330
269
102
}
330
71
100
AcDbEntity
  8
0
  6
Continuous
 62
     2
100
AcDbLine
 10
-967.3949480434886
 20
-1107.393500104837
 30
0.0
 11
-965.9922238257413
 21
-1107.393500104837
 31
0.0
  0
LINE
  5
1EB
102
{ACAD_REACTORS
330
268
330
269
102
}
330
71
100
AcDbEntity
  8
0
  6
Continuous
 62
     2
100
AcDbLine
 10
-970.0000073050226
 20
-1107.393500104837
 30
0.0
 11
-968.697477674255
 21
-1108.866450634873
 31
0.0
  0
LINE
  5
1EC
102
{ACAD_REACTORS
330
268
330
269
102
}
330
71
100
AcDbEntity
  8
0
  6
Continuous
 62
     2
100
AcDbLine
 10
-970.0954307211953
 20
-1110.447309628648
 30
0.0
 11
-968.697477674255
 21
-1108.866450634873
 31
0.0
  0
LINE
  5
1ED
102
{ACAD_REACTORS
330
272
330
273
102
}
330
71
100
AcDbEntity
  8
0
  6
Continuous
 62
     2
100
AcDbLine
 10
-968.2346741058154
 20
-1112.759479696659
 30
0.0
 11
-968.2346741058154
 21
-1113.631996703462
 31
0.0
  0
LINE
  5
1EE
102
{ACAD_REACTORS
330
272
330
273
102
}
330
71
100
AcDbEntity
  8
0
  6
Continuous
 62
     2
100
AcDbLine
 10
-969.0043314487768
 20
-1111.537955887135
 30
0.0
 11
-967.9006921492087
 21
-1111.537955887135
 31
0.0
  0
LINE
  5
1EF
102
{ACAD_REACTORS
330
274
330
275
102
}
330
71
100
AcDbEntity
  8
0
  6
Continuous
 62
     2
100
AcDbLine
 10
-984.3373755850673
 20
-1112.759479696659
 30
0.0
 11
-984.3373755850673
 21
-1113.631996703462
 31
0.0
  0
LINE
  5
1F0
102
{ACAD_REACTORS
330
274
330
275
102
}
330
71
100
AcDbEntity
  8
0
  6
Continuous
 62
     2
100
AcDbLine
 10
-984.3373755850673
 20
-1111.799710989176
 30
0.0
 11
-984.3373755850673
 21
-1110.927193982372
 31
0.0
  0
LINE
  5
1F1
330
71
100
AcDbEntity
  8
1
  6
Continuous
 62
     7
100
AcDbLine
 10
-868.5000000000834
 20
-1112.600000104839
 30
0.0
 11
-961.6448045268348
 21
-1112.600000104839
 31
0.0
  0
LINE
  5
1F2
330
71
100
AcDbEntity
  8
1
  6
Continuous
 62
     6
100
AcDbLine
 10
-1067.044804526835
 20
-1121.100000104839
 30
0.0
 11
-1112.000000000085
 21
-1121.100000104839
 31
0.0
  0
LINE
  5
1F3
330
71
100
AcDbEntity
  8
1
  6
Continuous
 62
     7
100
AcDbLine
 10
-877.4184082817623
 20
-1095.600000104839
 30
0.0
 11
-877.4184082817623
 21
-1104.100000104839
 31
0.0
  0
LINE
  5
1F4
330
71
100
AcDbEntity
  8
1
  6
Continuous
 62
     7
100
AcDbLine
 10
-903.9184082817618
 20
-1095.600000104839
 30
0.0
 11
-903.9184082817618
 21
-1104.100000104839
 31
0.0
  0
LINE
  5
1F5
330
71
100
AcDbEntity
  8
1
  6
Continuous
 62
     7
100
AcDbLine
 10
-961.6448045268348
 20
-1104.100000104839
 30
0.0
 11
-961.6448045268348
 21
-1095.600000104839
 31
0.0
  0
LINE
  5
1F6
330
71
100
AcDbEntity
  8
1
  6
Continuous
 62
     7
100
AcDbLine
 10
-998.0448045268347
 20
-1104.100000104839
 30
0.0
 11
-998.0448045268347
 21
-1095.600000104839
 31
0.0
  0
LINE
  5
1F7
330
71
100
AcDbEntity
  8
1
  6
Continuous
 62
     6
100
AcDbLine
 10
-961.6448045268348
 20
-1104.100000104839
 30
0.0
 11
-868.500000000083
 21
-1104.100000104839
 31
0.0
  0
LINE
  5
1F8
330
71
100
AcDbEntity
  8
1
  6
Continuous
 62
     7
100
AcDbLine
 10
-933.7448045268347
 20
-1112.600000104839
 30
0.0
 11
-933.7448045268347
 21
-1104.100000104839
 31
0.0
  0
LINE
  5
1F9
330
71
100
AcDbEntity
  8
1
  6
PHANTOM
 62
     2
100
AcDbLine
 10
-982.5581496402722
 20
-1099.975000104839
 30
0.0
 11
-988.0581496402722
 21
-1099.975000104839
 31
0.0
  0
LINE
  5
1FA
330
71
100
AcDbEntity
  8
1
  6
PHANTOM
 62
     2
100
AcDbLine
 10
-985.3081496402722
 20
-1097.225000104839
 30
0.0
 11
-985.3081496402722
 21
-1102.725000104839
 31
0.0
  0
LINE
  5
1FB
330
71
100
AcDbEntity
  8
1
  6
DOT_CENTER
 62
     2
100
AcDbLine
 10
-994.0581496402722
 20
-1099.975000104839
 30
0.0
 11
-988.5581496402722
 21
-1099.975000104839
 31
0.0
  0
ARC
  5
1FC
102
{ACAD_REACTORS
330
274
330
275
102
}
330
71
100
AcDbEntity
  8
0
  6
Continuous
 62
     2
100
AcDbCircle
 10
-985.6733035021851
 20
-1115.592276288173
 30
0.0
 40
4.852596863498158
100
AcDbArc
 50
74.02000874164733
 51
84.8418552303745
  0
ARC
  5
1FD
102
{ACAD_REACTORS
330
274
330
275
102
}
330
71
100
AcDbEntity
  8
0
  6
Continuous
 62
     2
100
AcDbCircle
 10
-985.0972628934314
 20
-1112.436515932289
 30
0.0
 40
0.9059297849858261
100
AcDbArc
 50
71.5519238818603
 51
113.3722778881328
  0
ARC
  5
1FE
102
{ACAD_REACTORS
330
274
330
275
102
}
330
71
100
AcDbEntity
  8
0
  6
Continuous
 62
     2
100
AcDbCircle
 10
-985.2537029261334
 20
-1112.484666772256
 30
0.0
 40
0.5115800601948827
100
AcDbArc
 50
208.5214732577052
 51
246.6277221118177
  0
ARC
  5
1FF
102
{ACAD_REACTORS
330
274
330
275
102
}
330
71
100
AcDbEntity
  8
0
  6
Continuous
 62
     2
100
AcDbCircle
 10
-985.0972628934314
 20
-1112.122674753546
 30
0.0
 40
0.9059297849846357
100
AcDbArc
 50
246.6277221118672
 51
288.4480761181624
  0
ARC
  5
200
102
{ACAD_REACTORS
330
274
330
275
102
}
330
71
100
AcDbEntity
  8
0
  6
Continuous
 62
     2
100
AcDbCircle
 10
-985.5154306270922
 20
-1110.869128977509
 30
0.0
 40
2.227384008972611
100
AcDbArc
 50
288.4480761181346
 51
301.9309089499596
  0
ARC
  5
201
102
{ACAD_REACTORS
330
270
330
271
102
}
330
71
100
AcDbEntity
  8
0
  6
Continuous
 62
     2
100
AcDbCircle
 10
-990.740504359699
 20
-1110.136626948595
 30
0.0
 40
0.9118481501445116
100
AcDbArc
 50
295.374008678171
 51
64.62599132182905
  0
ARC
  5
202
102
{ACAD_REACTORS
330
270
330
271
102
}
330
71
100
AcDbEntity
  8
0
  6
Continuous
 62
     2
100
AcDbCircle
 10
-990.2144616616112
 20
-1108.42195006012
 30
0.0
 40
0.3157169230760141
100
AcDbArc
 50
90.18896704254082
 51
180.0
  0
ARC
  5
203
102
{ACAD_REACTORS
330
272
330
273
102
}
330
71
100
AcDbEntity
  8
0
  6
Continuous
 62
     2
100
AcDbCircle
 10
-969.0043314487768
 20
-1112.492478893961
 30
0.0
 40
0.9545230068260935
100
AcDbArc
 50
90.0
 51
109.3371432194401
  0
ARC
  5
204
102
{ACAD_REACTORS
330
272
330
273
102
}
330
71
100
AcDbEntity
  8
0
  6
Continuous
 62
     2
100
AcDbCircle
 10
-968.7736441887992
 20
-1112.279595342917
 30
0.0
 40
0.9410597353348766
100
AcDbArc
 50
151.4785267423678
 51
208.5214732576808
  0
ARC
  5
205
102
{ACAD_REACTORS
330
272
330
273
102
}
330
71
100
AcDbEntity
  8
0
  6
Continuous
 62
     2
100
AcDbCircle
 10
-968.9945614141774
 20
-1112.122674753546
 30
0.0
 40
0.9059297849850417
100
AcDbArc
 50
246.6277221118078
 51
288.448076118076
  0
ARC
  5
206
102
{ACAD_REACTORS
330
272
330
273
102
}
330
71
100
AcDbEntity
  8
0
  6
Continuous
 62
     2
100
AcDbCircle
 10
-969.4127291478393
 20
-1110.869128977509
 30
0.0
 40
2.227384008973474
100
AcDbArc
 50
288.4480761181272
 51
301.9309089499373
  0
ARC
  5
207
102
{ACAD_REACTORS
330
272
330
273
102
}
330
71
100
AcDbEntity
  8
0
  6
Continuous
 62
     2
100
AcDbCircle
 10
-969.5706020229321
 20
-1108.966914397661
 30
0.0
 40
4.852596863499167
100
AcDbArc
 50
275.1581447696363
 51
285.9799912583397
  0
ARC
  5
208
102
{ACAD_REACTORS
330
272
330
273
102
}
330
71
100
AcDbEntity
  8
0
  6
Continuous
 62
     2
100
AcDbCircle
 10
-969.2817459281963
 20
-1112.166804980883
 30
0.0
 40
1.639695123940421
100
AcDbArc
 50
195.0618917771015
 51
275.1581447696774
  0
ARC
  5
209
102
{ACAD_REACTORS
330
26A
330
26B
102
}
330
71
100
AcDbEntity
  8
0
  6
Continuous
 62
     2
100
AcDbCircle
 10
-985.0099592398874
 20
-1108.448865746171
 30
0.0
 40
1.055365641333992
100
AcDbArc
 50
270.0
 51
90.0
  0
ARC
  5
20A
102
{ACAD_REACTORS
330
270
330
271
102
}
330
71
100
AcDbEntity
  8
0
  6
Continuous
 62
     2
100
AcDbCircle
 10
-992.7900103481428
 20
-1112.778227626189
 30
0.0
 40
0.3157169230756836
100
AcDbArc
 50
180.0
 51
270.0
  0
ARC
  5
20B
102
{ACAD_REACTORS
330
270
330
271
102
}
330
71
100
AcDbEntity
  8
0
  6
Continuous
 62
     2
100
AcDbCircle
 10
-991.3141770871332
 20
-1108.421772583472
 30
0.0
 40
0.315716923076593
100
AcDbArc
 50
0.0
 51
90.0
  0
ARC
  5
20C
102
{ACAD_REACTORS
330
270
330
271
102
}
330
71
100
AcDbEntity
  8
0
  6
Continuous
 62
     2
100
AcDbCircle
 10
-991.3141770871332
 20
-1109.025797202532
 30
0.0
 40
0.3157169230764803
100
AcDbArc
 50
295.194410648509
 51
0.0
  0
ARC
  5
20D
102
{ACAD_REACTORS
330
270
330
271
102
}
330
71
100
AcDbEntity
  8
0
  6
Continuous
 62
     2
100
AcDbCircle
 10
-991.3141770871332
 20
-1112.778227626189
 30
0.0
 40
0.3157169230771615
100
AcDbArc
 50
270.0
 51
0.0
  0
ARC
  5
20E
102
{ACAD_REACTORS
330
270
330
271
102
}
330
71
100
AcDbEntity
  8
0
  6
Continuous
 62
     2
100
AcDbCircle
 10
-993.3839050248894
 20
-1107.817744720239
 30
0.0
 40
0.424244615383941
100
AcDbArc
 50
90.0
 51
180.0
  0
ARC
  5
20F
102
{ACAD_REACTORS
330
270
330
271
102
}
330
71
100
AcDbEntity
  8
0
  6
Continuous
 62
     2
100
AcDbCircle
 10
-987.9105929341725
 20
-1107.817744720239
 30
0.0
 40
0.424244615383941
100
AcDbArc
 50
0.0
 51
90.0
  0
ARC
  5
210
102
{ACAD_REACTORS
330
270
330
271
102
}
330
71
100
AcDbEntity
  8
0
  6
Continuous
 62
     2
100
AcDbCircle
 10
-987.9105929341725
 20
-1113.382255489439
 30
0.0
 40
0.424244615383941
100
AcDbArc
 50
270.0
 51
0.0
  0
ARC
  5
211
102
{ACAD_REACTORS
330
26E
330
26F
102
}
330
71
100
AcDbEntity
  8
0
  6
Continuous
 62
     2
100
AcDbCircle
 10
-978.692209047081
 20
-1108.920404866743
 30
0.0
 40
0.7717997786796852
100
AcDbArc
 50
321.8795802028358
 51
38.12041979716419
  0
ARC
  5
212
102
{ACAD_REACTORS
330
26E
330
26F
102
}
330
71
100
AcDbEntity
  8
0
  6
Continuous
 62
     2
100
AcDbCircle
 10
-978.4924690107348
 20
-1109.077136044863
 30
0.0
 40
0.5179085730137529
100
AcDbArc
 50
218.1204197971956
 51
321.8795802028121
  0
ARC
  5
213
102
{ACAD_REACTORS
330
26C
330
26D
102
}
330
71
100
AcDbEntity
  8
0
  6
Continuous
 62
     2
100
AcDbCircle
 10
-982.1724765996951
 20
-1112.279595342917
 30
0.0
 40
1.458034083652521
100
AcDbArc
 50
297.5481481756942
 51
62.45185182428514
  0
ARC
  5
214
102
{ACAD_REACTORS
330
26C
330
26D
102
}
330
71
100
AcDbEntity
  8
0
  6
Continuous
 62
     2
100
AcDbCircle
 10
-982.7343563833616
 20
-1112.279595342917
 30
0.0
 40
1.458034083650935
100
AcDbArc
 50
117.5481481756713
 51
242.4518518243493
  0
ARC
  5
215
102
{ACAD_REACTORS
330
26C
330
26D
102
}
330
71
100
AcDbEntity
  8
0
  6
Continuous
 62
     2
100
AcDbCircle
 10
-982.4534164915283
 20
-1112.81817035322
 30
0.0
 40
2.06547977220824
100
AcDbArc
 50
62.45185182430162
 51
117.5481481756704
  0
ARC
  5
216
102
{ACAD_REACTORS
330
26C
330
26D
102
}
330
71
100
AcDbEntity
  8
0
  6
Continuous
 62
     2
100
AcDbCircle
 10
-982.4534164915283
 20
-1111.741020332614
 30
0.0
 40
2.065479772208722
100
AcDbArc
 50
242.4518518243441
 51
297.5481481756838
  0
ARC
  5
217
102
{ACAD_REACTORS
330
26E
330
26F
102
}
330
71
100
AcDbEntity
  8
0
  6
Continuous
 62
     2
100
AcDbCircle
 10
-978.2927289743885
 20
-1108.920404866743
 30
0.0
 40
0.7717997786796852
100
AcDbArc
 50
141.8795802028358
 51
218.1204197971642
  0
ARC
  5
218
102
{ACAD_REACTORS
330
26E
330
26F
102
}
330
71
100
AcDbEntity
  8
0
  6
Continuous
 62
     2
100
AcDbCircle
 10
-978.4924690107348
 20
-1108.763673688623
 30
0.0
 40
0.5179085730138424
100
AcDbArc
 50
38.12041979718787
 51
141.8795802028044
  0
ARC
  5
219
102
{ACAD_REACTORS
330
270
330
271
102
}
330
71
100
AcDbEntity
  8
0
  6
Continuous
 62
     2
100
AcDbCircle
 10
-993.3839050248894
 20
-1113.382255489439
 30
0.0
 40
0.4242446153828041
100
AcDbArc
 50
180.0
 51
270.0
  0
ARC
  5
21A
102
{ACAD_REACTORS
330
270
330
271
102
}
330
71
100
AcDbEntity
  8
0
  6
Continuous
 62
     2
100
AcDbCircle
 10
-991.3141770871332
 20
-1111.247456694658
 30
0.0
 40
0.315716923076593
100
AcDbArc
 50
0.0
 51
64.80558935149101
  0
ARC
  5
21B
102
{ACAD_REACTORS
330
270
330
271
102
}
330
71
100
AcDbEntity
  8
0
  6
Continuous
 62
     2
100
AcDbCircle
 10
-990.7915926395582
 20
-1110.136626948595
 30
0.0
 40
0.9118975235580125
100
AcDbArc
 50
115.1944106485185
 51
244.8055893514816
  0
ARC
  5
21C
102
{ACAD_REACTORS
330
270
330
271
102
}
330
71
100
AcDbEntity
  8
0
  6
Continuous
 62
     2
100
AcDbCircle
 10
-992.7900103481428
 20
-1108.421772583472
 30
0.0
 40
0.3157169230760246
100
AcDbArc
 50
90.0
 51
180.0
  0
ARC
  5
21D
102
{ACAD_REACTORS
330
26A
330
26B
102
}
330
71
100
AcDbEntity
  8
0
  6
Continuous
 62
     2
100
AcDbCircle
 10
-985.4514317661258
 20
-1108.409469774948
 30
0.0
 40
0.3528638246718856
100
AcDbArc
 50
270.0
 51
90.0
  0
ARC
  5
21E
102
{ACAD_REACTORS
330
26E
330
26F
102
}
330
71
100
AcDbEntity
  8
0
  6
Continuous
 62
     2
100
AcDbCircle
 10
-978.7087410209
 20
-1108.920404866743
 30
0.0
 40
1.526904761906053
100
AcDbArc
 50
90.0
 51
270.0
  0
ARC
  5
21F
102
{ACAD_REACTORS
330
272
330
273
102
}
330
71
100
AcDbEntity
  8
0
  6
Continuous
 62
     2
100
AcDbCircle
 10
-969.2817459281963
 20
-1112.392385704952
 30
0.0
 40
1.639695123939873
100
AcDbArc
 50
90.0
 51
164.9381082228985
  0
ARC
  5
220
102
{ACAD_REACTORS
330
272
330
273
102
}
330
71
100
AcDbEntity
  8
0
  6
Continuous
 62
     2
100
AcDbCircle
 10
-969.7008737716579
 20
-1112.279595342917
 30
0.0
 40
1.205656168392903
100
AcDbArc
 50
164.9381082229099
 51
195.0618917771318
  0
ARC
  5
221
102
{ACAD_REACTORS
330
272
330
273
102
}
330
71
100
AcDbEntity
  8
0
  6
Continuous
 62
     2
100
AcDbCircle
 10
-969.1510014468805
 20
-1112.484666772256
 30
0.0
 40
0.5115800601958815
100
AcDbArc
 50
208.5214732576444
 51
246.6277221118294
  0
ARC
  5
222
102
{ACAD_REACTORS
330
272
330
273
102
}
330
71
100
AcDbEntity
  8
0
  6
Continuous
 62
     2
100
AcDbCircle
 10
-969.1510014468805
 20
-1112.074523913578
 30
0.0
 40
0.5115800601937612
100
AcDbArc
 50
109.3371432195076
 51
151.4785267424227
  0
ARC
  5
223
102
{ACAD_REACTORS
330
270
330
271
102
}
330
71
100
AcDbEntity
  8
0
  6
Continuous
 62
     2
100
AcDbCircle
 10
-990.2144616616112
 20
-1111.827619955258
 30
0.0
 40
0.3157169230768204
100
AcDbArc
 50
180.0
 51
269.8110329574594
  0
ARC
  5
224
102
{ACAD_REACTORS
330
270
330
271
102
}
330
71
100
AcDbEntity
  8
0
  6
Continuous
 62
     2
100
AcDbCircle
 10
-990.208845526301
 20
-1110.124785007689
 30
0.0
 40
2.018561131933152
100
AcDbArc
 50
269.8110329575842
 51
90.18896704241578
  0
ARC
  5
225
102
{ACAD_REACTORS
330
270
330
271
102
}
330
71
100
AcDbEntity
  8
0
  6
Continuous
 62
     2
100
AcDbCircle
 10
-990.2144616616112
 20
-1109.027485348627
 30
0.0
 40
0.3157169230768204
100
AcDbArc
 50
180.0
 51
244.6259913216126
  0
ARC
  5
226
102
{ACAD_REACTORS
330
270
330
271
102
}
330
71
100
AcDbEntity
  8
0
  6
Continuous
 62
     2
100
AcDbCircle
 10
-990.2144616616112
 20
-1111.245768548563
 30
0.0
 40
0.3157169230761855
100
AcDbArc
 50
115.3740086783875
 51
180.0
  0
ARC
  5
227
102
{ACAD_REACTORS
330
274
330
275
102
}
330
71
100
AcDbEntity
  8
0
  6
Continuous
 62
     2
100
AcDbCircle
 10
-985.3844474074492
 20
-1112.392385704952
 30
0.0
 40
1.639695123940224
100
AcDbArc
 50
84.84185523036146
 51
164.9381082228903
  0
ARC
  5
228
102
{ACAD_REACTORS
330
274
330
275
102
}
330
71
100
AcDbEntity
  8
0
  6
Continuous
 62
     2
100
AcDbCircle
 10
-985.803575250912
 20
-1112.279595342917
 30
0.0
 40
1.205656168390927
100
AcDbArc
 50
164.9381082228846
 51
195.0618917771153
  0
ARC
  5
229
102
{ACAD_REACTORS
330
274
330
275
102
}
330
71
100
AcDbEntity
  8
0
  6
Continuous
 62
     2
100
AcDbCircle
 10
-985.3844474074492
 20
-1112.166804980883
 30
0.0
 40
1.639695123939306
100
AcDbArc
 50
195.061891777079
 51
275.1581447696414
  0
ARC
  5
22A
102
{ACAD_REACTORS
330
274
330
275
102
}
330
71
100
AcDbEntity
  8
0
  6
Continuous
 62
     2
100
AcDbCircle
 10
-985.6733035021851
 20
-1108.966914397661
 30
0.0
 40
4.852596863497943
100
AcDbArc
 50
275.1581447696255
 51
285.9799912583526
  0
ARC
  5
22B
102
{ACAD_REACTORS
330
274
330
275
102
}
330
71
100
AcDbEntity
  8
0
  6
Continuous
 62
     2
100
AcDbCircle
 10
-984.8763456680531
 20
-1112.279595342917
 30
0.0
 40
0.9410597353329787
100
AcDbArc
 50
151.478526742305
 51
208.5214732577436
  0
ARC
  5
22C
102
{ACAD_REACTORS
330
274
330
275
102
}
330
71
100
AcDbEntity
  8
0
  6
Continuous
 62
     2
100
AcDbCircle
 10
-985.2537029261334
 20
-1112.074523913578
 30
0.0
 40
0.5115800601943187
100
AcDbArc
 50
113.3722778882227
 51
151.4785267423619
  0
ARC
  5
22D
102
{ACAD_REACTORS
330
274
330
275
102
}
330
71
100
AcDbEntity
  8
0
  6
Continuous
 62
     2
100
AcDbCircle
 10
-985.5154306270922
 20
-1113.690061708326
 30
0.0
 40
2.227384008973646
100
AcDbArc
 50
58.06909105004343
 51
71.55192388187463
  0
ARC
  5
22E
102
{ACAD_REACTORS
330
26C
330
26D
102
}
330
71
100
AcDbEntity
  8
0
  6
Continuous
 62
     2
100
AcDbCircle
 10
-982.4534164915283
 20
-1112.122864164797
 30
0.0
 40
0.5179085730136636
100
AcDbArc
 50
38.1204197972034
 51
141.8795802028044
  0
ARC
  5
22F
102
{ACAD_REACTORS
330
26C
330
26D
102
}
330
71
100
AcDbEntity
  8
0
  6
Continuous
 62
     2
100
AcDbCircle
 10
-982.2536764551822
 20
-1112.279595342917
 30
0.0
 40
0.7717997786795062
100
AcDbArc
 50
141.8795802028254
 51
218.1204197971746
  0
ARC
  5
230
102
{ACAD_REACTORS
330
26C
330
26D
102
}
330
71
100
AcDbEntity
  8
0
  6
Continuous
 62
     2
100
AcDbCircle
 10
-982.4534164915283
 20
-1112.436326521037
 30
0.0
 40
0.5179085730137529
100
AcDbArc
 50
218.1204197971956
 51
321.8795802027966
  0
ARC
  5
231
102
{ACAD_REACTORS
330
26C
330
26D
102
}
330
71
100
AcDbEntity
  8
0
  6
Continuous
 62
     2
100
AcDbCircle
 10
-982.6531565278747
 20
-1112.279595342917
 30
0.0
 40
0.7717997786796852
100
AcDbArc
 50
321.8795802028358
 51
38.12041979716419
  0
CIRCLE
  5
232
330
71
100
AcDbEntity
  8
1
  6
Continuous
 62
     2
100
AcDbCircle
 10
-985.3081496402722
 20
-1099.975000104839
 30
0.0
 40
2.5
  0
CIRCLE
  5
233
330
71
100
AcDbEntity
  8
1
  6
Continuous
 62
     2
100
AcDbCircle
 10
-985.3081496402722
 20
-1099.975000104839
 30
0.0
 40
1.25
  0
CIRCLE
  5
234
102
{ACAD_REACTORS
330
270
330
271
102
}
330
71
100
AcDbEntity
  8
0
  6
Continuous
 62
     2
100
AcDbCircle
 10
-990.7643193743718
 20
-1110.136626948595
 30
0.0
 40
0.4709789327785074
  0
MTEXT
  5
235
330
71
100
AcDbEntity
  8
1
 62
     3
100
AcDbMText
 10
-1155.494932214013
 20
-934.3086919495402
 30
0.0
 40
1.8
 41
0.0
 71
     7
 72
     1
  3
Weitergabe sowie Vervielf\U+00e4ltigung dieses Dokuments, Verwertung und \PMitteilung seines Inhalts sind verboten, soweit nicht ausdr\U+00fccklich gestattet. \PZuwiderhandlungen verpflichten zu Schadenersatz. Alle Rechte f\U+00fcr den Fall\Pder Pat
  1
ent-, Gebrauchsmuster- oder Designeintragung vorbehalten.
  7
CONVERTER_11
 73
     1
 44
0.99639855942377
  0
MTEXT
  5
236
330
71
100
AcDbEntity
  8
1
 62
     3
100
AcDbMText
 10
-972.6418223752248
 20
-934.3086919495402
 30
0.0
 40
1.8
 41
0.0
 71
     7
 72
     1
  3
Transfer or duplication of this document as well as the utilisation or\Pcommunication of its content are not permitted unless express consent\Pis granted. Violations give rise to claims for damages. All rights reserved\Pin case of patent, utility mo
  1
del or design patent registrations.
  7
CONVERTER_11
 73
     1
 44
0.99639855942377
  0
TEXT
  5
237
330
71
100
AcDbEntity
  8
1
 62
     2
100
AcDbText
 10
-978.8448045268349
 20
-1119.859017319831
 30
0.0
 40
1.8
  1
of
 41
0.9
  7
CONVERTER_11
100
AcDbText
  0
TEXT
  5
238
330
71
100
AcDbEntity
  8
1
 62
     2
100
AcDbText
 10
-997.0448045268347
 20
-1119.859017319831
 30
0.0
 40
1.8
  1
page
 41
0.9
  7
CONVERTER_11
100
AcDbText
  0
TEXT
  5
239
330
71
100
AcDbEntity
  8
1
 62
     2
100
AcDbText
 10
-988.3985395564928
 20
-1119.899248758641
 30
0.0
 40
1.8
  1
1
 41
0.9
  7
CONVERTER_11
100
AcDbText
  0
TEXT
  5
23A
330
71
100
AcDbEntity
  8
1
 62
     2
100
AcDbText
 10
-973.6094957170212
 20
-1119.850000104839
 30
0.0
 40
1.8
  1
1
 41
0.9
  7
CONVERTER_11
100
AcDbText
  0
MTEXT
  5
23C
330
71
100
AcDbEntity
  8
1
 62
     7
100
AcDbMText
 10
-915.0724022634593
 20
-1117.850000104839
 30
0.0
 40
3.0
 41
0.0
 71
     5
 72
     1
  1
D-PTTB 4-TG
  7
CONVERTER_12
 73
     1
 44
1.20048019207683
  0
MTEXT
  5
23D
330
71
100
AcDbEntity
  8
1
 62
     2
100
AcDbMText
 10
-960.6448045268348
 20
-1113.600000104839
 30
0.0
 40
1.8
 41
0.0
 71
     1
 72
     1
  1
description
  7
CONVERTER_11
 73
     1
 44
1.20048019207683
  0
MTEXT
  5
23E
330
71
100
AcDbEntity
  8
1
 62
     3
100
AcDbMText
 10
-971.8448045268349
 20
-1099.975000104839
 30
0.0
 40
2.5
 41
0.0
 71
     5
 72
     1
  1
DIN A4
  7
CONVERTER_11
 73
     1
 44
1.20048019207683
  0
MTEXT
  5
23F
330
71
100
AcDbEntity
  8
1
 62
     7
100
AcDbMText
 10
-1158.000000000084
 20
-1098.600000104839
 30
0.0
 40
3.5
 41
0.0
 71
     5
 72
     1
  1
D
  7
CONVERTER_11
 73
     1
 44
1.20048019207683
  0
MTEXT
  5
240
330
71
100
AcDbEntity
  8
1
 62
     7
100
AcDbMText
 10
-1158.000000000084
 20
-1046.100000104839
 30
0.0
 40
3.5
 41
0.0
 71
     5
 72
     1
  1
C
  7
CONVERTER_11
 73
     1
 44
1.20048019207683
  0
MTEXT
  5
241
330
71
100
AcDbEntity
  8
1
 62
     7
100
AcDbMText
 10
-1158.000000000084
 20
-996.100000104839
 30
0.0
 40
3.5
 41
0.0
 71
     5
 72
     1
  1
B
  7
CONVERTER_11
 73
     1
 44
1.20048019207683
  0
MTEXT
  5
242
330
71
100
AcDbEntity
  8
1
 62
     7
100
AcDbMText
 10
-1158.000000000084
 20
-943.600000104839
 30
0.0
 40
3.5
 41
0.0
 71
     5
 72
     1
  1
A
  7
CONVERTER_11
 73
     1
 44
1.20048019207683
  0
MTEXT
  5
243
330
71
100
AcDbEntity
  8
1
 62
     7
100
AcDbMText
 10
-887.7500000000855
 20
-1123.600000104839
 30
0.0
 40
3.5
 41
0.0
 71
     5
 72
     1
  1
6
  7
CONVERTER_11
 73
     1
 44
1.20048019207683
  0
MTEXT
  5
244
330
71
100
AcDbEntity
  8
1
 62
     7
100
AcDbMText
 10
-937.0000000000847
 20
-1123.600000104839
 30
0.0
 40
3.5
 41
0.0
 71
     5
 72
     1
  1
5
  7
CONVERTER_11
 73
     1
 44
1.20048019207683
  0
MTEXT
  5
245
330
71
100
AcDbEntity
  8
1
 62
     7
100
AcDbMText
 10
-987.0000000000848
 20
-1123.600000104839
 30
0.0
 40
3.5
 41
0.0
 71
     5
 72
     1
  1
4
  7
CONVERTER_11
 73
     1
 44
1.20048019207683
  0
MTEXT
  5
246
330
71
100
AcDbEntity
  8
1
 62
     7
100
AcDbMText
 10
-1037.000000000085
 20
-1123.600000104839
 30
0.0
 40
3.5
 41
0.0
 71
     5
 72
     1
  1
3
  7
CONVERTER_11
 73
     1
 44
1.20048019207683
  0
MTEXT
  5
247
330
71
100
AcDbEntity
  8
1
 62
     7
100
AcDbMText
 10
-1087.000000000085
 20
-1123.600000104839
 30
0.0
 40
3.5
 41
0.0
 71
     5
 72
     1
  1
2
  7
CONVERTER_11
 73
     1
 44
1.20048019207683
  0
MTEXT
  5
248
330
71
100
AcDbEntity
  8
1
 62
     7
100
AcDbMText
 10
-1136.250000000084
 20
-1123.600000104839
 30
0.0
 40
3.5
 41
0.0
 71
     5
 72
     1
  1
1
  7
CONVERTER_11
 73
     1
 44
1.20048019207683
  0
MTEXT
  5
249
330
71
100
AcDbEntity
  8
1
 62
     7
100
AcDbMText
 10
-866.0000000000857
 20
-1098.600000104839
 30
0.0
 40
3.5
 41
0.0
 71
     5
 72
     1
  1
D
  7
CONVERTER_11
 73
     1
 44
1.20048019207683
  0
MTEXT
  5
24A
330
71
100
AcDbEntity
  8
1
 62
     7
100
AcDbMText
 10
-866.0000000000857
 20
-996.100000104837
 30
0.0
 40
3.5
 41
0.0
 71
     5
 72
     1
  1
B
  7
CONVERTER_11
 73
     1
 44
1.20048019207683
  0
MTEXT
  5
24B
330
71
100
AcDbEntity
  8
1
 62
     7
100
AcDbMText
 10
-866.0000000000857
 20
-943.600000104839
 30
0.0
 40
3.5
 41
0.0
 71
     5
 72
     1
  1
A
  7
CONVERTER_11
 73
     1
 44
1.20048019207683
  0
MTEXT
  5
24C
330
71
100
AcDbEntity
  8
1
 62
     7
100
AcDbMText
 10
-866.0000000000857
 20
-1046.100000104837
 30
0.0
 40
3.5
 41
0.0
 71
     5
 72
     1
  1
C
  7
CONVERTER_11
 73
     1
 44
1.20048019207683
  0
MTEXT
  5
24D
330
71
100
AcDbEntity
  8
1
 62
     2
100
AcDbMText
 10
-1032.482819251882
 20
-1108.350000104839
 30
0.0
 40
2.0
 41
0.0
 71
     5
 72
     1
  1
General Information\P- Simplified representation\P- Document excluded from change process\P- Linear dimensions [mm]
  7
CONVERTER_11
 73
     1
 44
1.20048019207683
  0
TEXT
  5
24E
330
71
100
AcDbEntity
  8
1
 62
     7
100
AcDbText
 10
-960.1448045268351
 20
-1111.300000104839
 30
0.0
 40
2.5
  1
3211918
 41
0.81
  7
CONVERTER_12
100
AcDbText
  0
MTEXT
  5
24F
330
71
100
AcDbEntity
  8
1
 62
     2
100
AcDbMText
 10
-960.5448045268347
 20
-1105.100000104839
 30
0.0
 40
1.8
 41
0.0
 71
     1
 72
     1
  1
ident.-No.
  7
CONVERTER_11
 73
     1
 44
1.20048019207683
  0
MTEXT
  5
250
330
71
100
AcDbEntity
  8
1
 62
     2
100
AcDbMText
 10
-876.318408281762
 20
-1096.600000104839
 30
0.0
 40
1.8
 41
0.0
 71
     1
 72
     1
  1
scale
  7
CONVERTER_11
 73
     1
 44
1.20048019207683
  0
MTEXT
  5
252
330
71
100
AcDbEntity
  8
1
 62
     3
100
AcDbMText
 10
-872.9592041409225
 20
-1102.800000104839
 30
0.0
 40
2.5
 41
0.0
 71
     8
 72
     1
  1
1:1
  7
CONVERTER_13
 73
     1
 44
1.32052821128451
  0
TEXT
  5
253
330
71
100
AcDbEntity
  8
1
 62
     7
100
AcDbText
 10
-960.5448045268347
 20
-1102.800000104839
 30
0.0
 40
2.5
  1
40536007
 41
0.81
  7
CONVERTER_12
100
AcDbText
  0
MTEXT
  5
255
330
71
100
AcDbEntity
  8
1
 62
     2
100
AcDbMText
 10
-960.5448045268347
 20
-1096.600000104839
 30
0.0
 40
1.8
 41
0.0
 71
     1
 72
     1
  1
document-No. / RI
  7
CONVERTER_14
 73
     1
 44
1.32052821128451
  0
TEXT
  5
256
330
71
100
AcDbEntity
  8
1
 62
     3
100
AcDbText
 10
-932.7448045268347
 20
-1111.300000104839
 30
0.0
 40
2.5
  1
TECDOC 2D_Productdrawing
 41
0.81
  7
CONVERTER_12
100
AcDbText
  0
MTEXT
  5
257
330
71
100
AcDbEntity
  8
1
 62
     2
100
AcDbMText
 10
-932.7448045268347
 20
-1105.100000104839
 30
0.0
 40
1.8
 41
0.0
 71
     1
 72
     1
  1
document-type
  7
CONVERTER_11
 73
     1
 44
1.20048019207683
  0
MTEXT
  5
258
330
71
100
AcDbEntity
  8
1
 62
     2
100
AcDbMText
 10
-902.9184082817618
 20
-1096.600000104839
 30
0.0
 40
1.8
 41
0.0
 71
     1
 72
     1
  1
date
  7
CONVERTER_11
 73
     1
 44
1.32052821128451
  0
TEXT
  5
259
330
71
100
AcDbEntity
  8
1
 62
     3
100
AcDbText
 10
-902.9184082817618
 20
-1102.800000104839
 30
0.0
 40
2.5
  1
23.10.2017
 41
0.81
  7
CONVERTER_12
100
AcDbText
  0
TEXT
  5
25A
330
71
100
AcDbEntity
  8
1
 62
     7
100
AcDbText
 10
-940.514892307779
 20
-1102.800000104839
 30
0.0
 40
2.5
  1
00
 41
0.81
  7
CONVERTER_12
100
AcDbText
  0
TEXT
  5
25B
330
71
100
AcDbEntity
  8
1
 62
     7
100
AcDbText
 10
-942.6712568048209
 20
-1102.800000104839
 30
0.0
 40
2.5
  1
/
 41
0.9
  7
CONVERTER_11
100
AcDbText
  0
HATCH
  5
25C
330
71
100
AcDbEntity
  8
1
  6
Continuous
 62
     2
100
AcDbHatch
 10
0.0
 20
0.0
 30
0.0
210
0.0
220
0.0
230
1.0
  2
_USER
 70
     0
 71
     1
 91
        1
 92
        1
 93
       12
 72
     1
 10
-980.3773038138736
 20
-1110.447309628648
 11
-981.57009651604
 21
-1110.447309628648
 72
     1
 10
-981.57009651604
 20
-1110.447309628648
 11
-981.57009651604
 21
-1109.313037519805
 72
     1
 10
-981.57009651604
 20
-1109.313037519805
 11
-982.6197540939474
 21
-1109.313037519805
 72
     1
 10
-982.6197540939474
 20
-1109.313037519805
 11
-982.6197540939474
 21
-1110.447309628648
 72
     1
 10
-982.6197540939474
 20
-1110.447309628648
 11
-983.8125467961141
 21
-1110.447309628648
 72
     1
 10
-983.8125467961141
 20
-1110.447309628648
 11
-983.8125467961141
 21
-1107.393500104837
 72
     1
 10
-983.8125467961141
 20
-1107.393500104837
 11
-982.6197540939474
 21
-1107.393500104837
 72
     1
 10
-982.6197540939474
 20
-1107.393500104837
 11
-982.6197540939474
 21
-1108.462333438172
 72
     1
 10
-982.6197540939474
 20
-1108.462333438172
 11
-981.57009651604
 21
-1108.462333438172
 72
     1
 10
-981.57009651604
 20
-1108.462333438172
 11
-981.57009651604
 21
-1107.393500104837
 72
     1
 10
-981.57009651604
 20
-1107.393500104837
 11
-980.3773038138736
 21
-1107.393500104837
 72
     1
 10
-980.3773038138736
 20
-1107.393500104837
 11
-980.3773038138736
 21
-1110.447309628648
 97
       12
330
1C9
330
1CA
330
1B4
330
1B3
330
1B2
330
1C6
330
1B1
330
1C7
330
1C8
330
1B0
330
1AF
330
1AE
 75
     1
 76
     0
 52
45.0
 41
0.1
 77
     0
 78
     1
 53
45.0
 43
0.0
 44
0.0
 45
-0.0707106781186548
 46
0.0707106781186548
 79
     0
 98
        1
 10
0.0
 20
0.0
  0
HATCH
  5
25D
330
71
100
AcDbEntity
  8
1
  6
Continuous
 62
     2
100
AcDbHatch
 10
0.0
 20
0.0
 30
0.0
210
0.0
220
0.0
230
1.0
  2
_USER
 70
     0
 71
     1
 91
        1
 92
        1
 93
       12
 72
     1
 10
-980.3773038138736
 20
-1110.447309628648
 11
-981.57009651604
 21
-1110.447309628648
 72
     1
 10
-981.57009651604
 20
-1110.447309628648
 11
-981.57009651604
 21
-1109.313037519805
 72
     1
 10
-981.57009651604
 20
-1109.313037519805
 11
-982.6197540939474
 21
-1109.313037519805
 72
     1
 10
-982.6197540939474
 20
-1109.313037519805
 11
-982.6197540939474
 21
-1110.447309628648
 72
     1
 10
-982.6197540939474
 20
-1110.447309628648
 11
-983.8125467961141
 21
-1110.447309628648
 72
     1
 10
-983.8125467961141
 20
-1110.447309628648
 11
-983.8125467961141
 21
-1107.393500104837
 72
     1
 10
-983.8125467961141
 20
-1107.393500104837
 11
-982.6197540939474
 21
-1107.393500104837
 72
     1
 10
-982.6197540939474
 20
-1107.393500104837
 11
-982.6197540939474
 21
-1108.462333438172
 72
     1
 10
-982.6197540939474
 20
-1108.462333438172
 11
-981.57009651604
 21
-1108.462333438172
 72
     1
 10
-981.57009651604
 20
-1108.462333438172
 11
-981.57009651604
 21
-1107.393500104837
 72
     1
 10
-981.57009651604
 20
-1107.393500104837
 11
-980.3773038138736
 21
-1107.393500104837
 72
     1
 10
-980.3773038138736
 20
-1107.393500104837
 11
-980.3773038138736
 21
-1110.447309628648
 97
       12
330
1C9
330
1CA
330
1B4
330
1B3
330
1B2
330
1C6
330
1B1
330
1C7
330
1C8
330
1B0
330
1AF
330
1AE
 75
     1
 76
     0
 52
45.0
 41
0.1
 77
     0
 78
     1
 53
45.0
 43
0.0
 44
0.0
 45
-0.0707106781186548
 46
0.0707106781186548
 79
     0
 98
        1
 10
0.0
 20
0.0
  0
HATCH
  5
25E
330
71
100
AcDbEntity
  8
1
  6
Continuous
 62
     2
100
AcDbHatch
 10
0.0
 20
0.0
 30
0.0
210
0.0
220
0.0
230
1.0
  2
_USER
 70
     0
 71
     1
 91
        1
 92
        1
 93
       10
 72
     1
 10
-978.1350044646854
 20
-1112.061466091217
 11
-979.3755088749382
 21
-1110.752690581012
 72
     1
 10
-979.3755088749382
 20
-1110.752690581012
 11
-980.5683015771058
 21
-1110.752690581012
 72
     1
 10
-980.5683015771058
 20
-1110.752690581012
 11
-980.5683015771058
 21
-1113.806500104823
 72
     1
 10
-980.5683015771058
 20
-1113.806500104823
 11
-979.3755088749382
 21
-1113.806500104823
 72
     1
 10
-979.3755088749382
 20
-1113.806500104823
 11
-979.3755088749382
 21
-1112.497724594618
 72
     1
 10
-979.3755088749382
 20
-1112.497724594618
 11
-978.1350044646854
 21
-1113.806500104823
 72
     1
 10
-978.1350044646854
 20
-1113.806500104823
 11
-976.9422117625189
 21
-1113.806500104823
 72
     1
 10
-976.9422117625189
 20
-1113.806500104823
 11
-976.9422117625189
 21
-1110.752690581012
 72
     1
 10
-976.9422117625189
 20
-1110.752690581012
 11
-978.1350044646854
 21
-1110.752690581012
 72
     1
 10
-978.1350044646854
 20
-1110.752690581012
 11
-978.1350044646854
 21
-1112.061466091217
 97
       10
330
1D7
330
1A7
330
1A6
330
1A9
330
1D2
330
1D3
330
1A8
330
1D4
330
1D5
330
1D6
 75
     1
 76
     0
 52
45.0
 41
0.1
 77
     0
 78
     1
 53
45.0
 43
0.0
 44
0.0
 45
-0.0707106781186548
 46
0.0707106781186548
 79
     0
 98
        1
 10
0.0
 20
0.0
  0
HATCH
  5
25F
330
71
100
AcDbEntity
  8
1
  6
Continuous
 62
     2
100
AcDbHatch
 10
0.0
 20
0.0
 30
0.0
210
0.0
220
0.0
230
1.0
  2
_USER
 70
     0
 71
     1
 91
        1
 92
        1
 93
       10
 72
     1
 10
-978.1350044646854
 20
-1112.061466091217
 11
-979.3755088749382
 21
-1110.752690581012
 72
     1
 10
-979.3755088749382
 20
-1110.752690581012
 11
-980.5683015771058
 21
-1110.752690581012
 72
     1
 10
-980.5683015771058
 20
-1110.752690581012
 11
-980.5683015771058
 21
-1113.806500104823
 72
     1
 10
-980.5683015771058
 20
-1113.806500104823
 11
-979.3755088749382
 21
-1113.806500104823
 72
     1
 10
-979.3755088749382
 20
-1113.806500104823
 11
-979.3755088749382
 21
-1112.497724594618
 72
     1
 10
-979.3755088749382
 20
-1112.497724594618
 11
-978.1350044646854
 21
-1113.806500104823
 72
     1
 10
-978.1350044646854
 20
-1113.806500104823
 11
-976.9422117625189
 21
-1113.806500104823
 72
     1
 10
-976.9422117625189
 20
-1113.806500104823
 11
-976.9422117625189
 21
-1110.752690581012
 72
     1
 10
-976.9422117625189
 20
-1110.752690581012
 11
-978.1350044646854
 21
-1110.752690581012
 72
     1
 10
-978.1350044646854
 20
-1110.752690581012
 11
-978.1350044646854
 21
-1112.061466091217
 97
       10
330
1D7
330
1A7
330
1A6
330
1A9
330
1D2
330
1D3
330
1A8
330
1D4
330
1D5
330
1D6
 75
     1
 76
     0
 52
45.0
 41
0.1
 77
     0
 78
     1
 53
45.0
 43
0.0
 44
0.0
 45
-0.0707106781186548
 46
0.0707106781186548
 79
     0
 98
        1
 10
0.0
 20
0.0
  0
HATCH
  5
260
330
71
100
AcDbEntity
  8
1
  6
Continuous
 62
     2
100
AcDbHatch
 10
0.0
 20
0.0
 30
0.0
210
0.0
220
0.0
230
1.0
  2
_USER
 70
     0
 71
     1
 91
        1
 92
        1
 93
       10
 72
     1
 10
-972.8865656442656
 20
-1108.702275615042
 11
-974.1270700545197
 21
-1107.393500104837
 72
     1
 10
-974.1270700545197
 20
-1107.393500104837
 11
-975.3198627566861
 21
-1107.393500104837
 72
     1
 10
-975.3198627566861
 20
-1107.393500104837
 11
-975.3198627566861
 21
-1110.447309628648
 72
     1
 10
-975.3198627566861
 20
-1110.447309628648
 11
-974.1270700545197
 21
-1110.447309628648
 72
     1
 10
-974.1270700545197
 20
-1110.447309628648
 11
-974.1270700545197
 21
-1109.138534118444
 72
     1
 10
-974.1270700545197
 20
-1109.138534118444
 11
-972.8865656442656
 21
-1110.447309628648
 72
     1
 10
-972.8865656442656
 20
-1110.447309628648
 11
-971.693772942099
 21
-1110.447309628648
 72
     1
 10
-971.693772942099
 20
-1110.447309628648
 11
-971.693772942099
 21
-1107.393500104837
 72
     1
 10
-971.693772942099
 20
-1107.393500104837
 11
-972.8865656442656
 21
-1107.393500104837
 72
     1
 10
-972.8865656442656
 20
-1107.393500104837
 11
-972.8865656442656
 21
-1108.702275615042
 97
       10
330
1DC
330
1A4
330
1A3
330
1DD
330
1A2
330
1D8
330
1D9
330
1DA
330
1DB
330
1A5
 75
     1
 76
     0
 52
45.0
 41
0.1
 77
     0
 78
     1
 53
45.0
 43
0.0
 44
0.0
 45
-0.0707106781186548
 46
0.0707106781186548
 79
     0
 98
        1
 10
0.0
 20
0.0
  0
HATCH
  5
261
330
71
100
AcDbEntity
  8
1
  6
Continuous
 62
     2
100
AcDbHatch
 10
0.0
 20
0.0
 30
0.0
210
0.0
220
0.0
230
1.0
  2
_USER
 70
     0
 71
     1
 91
        1
 92
        1
 93
       10
 72
     1
 10
-972.8865656442656
 20
-1108.702275615042
 11
-974.1270700545197
 21
-1107.393500104837
 72
     1
 10
-974.1270700545197
 20
-1107.393500104837
 11
-975.3198627566861
 21
-1107.393500104837
 72
     1
 10
-975.3198627566861
 20
-1107.393500104837
 11
-975.3198627566861
 21
-1110.447309628648
 72
     1
 10
-975.3198627566861
 20
-1110.447309628648
 11
-974.1270700545197
 21
-1110.447309628648
 72
     1
 10
-974.1270700545197
 20
-1110.447309628648
 11
-974.1270700545197
 21
-1109.138534118444
 72
     1
 10
-974.1270700545197
 20
-1109.138534118444
 11
-972.8865656442656
 21
-1110.447309628648
 72
     1
 10
-972.8865656442656
 20
-1110.447309628648
 11
-971.693772942099
 21
-1110.447309628648
 72
     1
 10
-971.693772942099
 20
-1110.447309628648
 11
-971.693772942099
 21
-1107.393500104837
 72
     1
 10
-971.693772942099
 20
-1107.393500104837
 11
-972.8865656442656
 21
-1107.393500104837
 72
     1
 10
-972.8865656442656
 20
-1107.393500104837
 11
-972.8865656442656
 21
-1108.702275615042
 97
       10
330
1DC
330
1A4
330
1A3
330
1DD
330
1A2
330
1D8
330
1D9
330
1DA
330
1DB
330
1A5
 75
     1
 76
     0
 52
45.0
 41
0.1
 77
     0
 78
     1
 53
45.0
 43
0.0
 44
0.0
 45
-0.0707106781186548
 46
0.0707106781186548
 79
     0
 98
        1
 10
0.0
 20
0.0
  0
HATCH
  5
262
330
71
100
AcDbEntity
  8
1
  6
Continuous
 62
     2
100
AcDbHatch
 10
0.0
 20
0.0
 30
0.0
210
0.0
220
0.0
230
1.0
  2
_USER
 70
     0
 71
     1
 91
        1
 92
        1
 93
        8
 72
     1
 10
-973.9840858611451
 20
-1110.752690581012
 11
-976.7990766382587
 21
-1110.752690581012
 72
     1
 10
-976.7990766382587
 20
-1110.752690581012
 11
-976.7990766382587
 21
-1111.537955887135
 72
     1
 10
-976.7990766382587
 20
-1111.537955887135
 11
-975.9879776007841
 21
-1111.537955887135
 72
     1
 10
-975.9879776007841
 20
-1111.537955887135
 11
-975.9879776007841
 21
-1113.806500104823
 72
     1
 10
-975.9879776007841
 20
-1113.806500104823
 11
-974.7951848986177
 21
-1113.806500104823
 72
     1
 10
-974.7951848986177
 20
-1113.806500104823
 11
-974.7951848986177
 21
-1111.537955887135
 72
     1
 10
-974.7951848986177
 20
-1111.537955887135
 11
-973.9840858611451
 21
-1111.537955887135
 72
     1
 10
-973.9840858611451
 20
-1111.537955887135
 11
-973.9840858611451
 21
-1110.752690581012
 97
        8
330
19E
330
1DE
330
19D
330
1DF
330
1E0
330
1A1
330
1A0
330
19F
 75
     1
 76
     0
 52
45.0
 41
0.1
 77
     0
 78
     1
 53
45.0
 43
0.0
 44
0.0
 45
-0.0707106781186548
 46
0.0707106781186548
 79
     0
 98
        1
 10
0.0
 20
0.0
  0
HATCH
  5
263
330
71
100
AcDbEntity
  8
1
  6
Continuous
 62
     2
100
AcDbHatch
 10
0.0
 20
0.0
 30
0.0
210
0.0
220
0.0
230
1.0
  2
_USER
 70
     0
 71
     1
 91
        1
 92
        1
 93
        8
 72
     1
 10
-973.9840858611451
 20
-1110.752690581012
 11
-976.7990766382587
 21
-1110.752690581012
 72
     1
 10
-976.7990766382587
 20
-1110.752690581012
 11
-976.7990766382587
 21
-1111.537955887135
 72
     1
 10
-976.7990766382587
 20
-1111.537955887135
 11
-975.9879776007841
 21
-1111.537955887135
 72
     1
 10
-975.9879776007841
 20
-1111.537955887135
 11
-975.9879776007841
 21
-1113.806500104823
 72
     1
 10
-975.9879776007841
 20
-1113.806500104823
 11
-974.7951848986177
 21
-1113.806500104823
 72
     1
 10
-974.7951848986177
 20
-1113.806500104823
 11
-974.7951848986177
 21
-1111.537955887135
 72
     1
 10
-974.7951848986177
 20
-1111.537955887135
 11
-973.9840858611451
 21
-1111.537955887135
 72
     1
 10
-973.9840858611451
 20
-1111.537955887135
 11
-973.9840858611451
 21
-1110.752690581012
 97
        8
330
19E
330
1DE
330
19D
330
1DF
330
1E0
330
1A1
330
1A0
330
19F
 75
     1
 76
     0
 52
45.0
 41
0.1
 77
     0
 78
     1
 53
45.0
 43
0.0
 44
0.0
 45
-0.0707106781186548
 46
0.0707106781186548
 79
     0
 98
        1
 10
0.0
 20
0.0
  0
HATCH
  5
264
330
71
100
AcDbEntity
  8
1
  6
Continuous
 62
     2
100
AcDbHatch
 10
0.0
 20
0.0
 30
0.0
210
0.0
220
0.0
230
1.0
  2
_USER
 70
     0
 71
     1
 91
        2
 92
        1
 93
        8
 72
     1
 10
-971.8456584051982
 20
-1113.806500104823
 11
-972.0571384586739
 21
-1113.265539560605
 72
     1
 10
-972.0571384586739
 20
-1113.265539560605
 11
-973.1895800353477
 21
-1113.265539560605
 72
     1
 10
-973.1895800353477
 20
-1113.265539560605
 11
-973.4010600888236
 21
-1113.806500104823
 72
     1
 10
-973.4010600888236
 20
-1113.806500104823
 11
-974.6415644990765
 21
-1113.806500104823
 72
     1
 10
-974.6415644990765
 20
-1113.806500104823
 11
-973.2436114521372
 21
-1110.752690581012
 72
     1
 10
-973.2436114521372
 20
-1110.752690581012
 11
-972.0031070418845
 21
-1110.752690581012
 72
     1
 10
-972.0031070418845
 20
-1110.752690581012
 11
-970.6051539949442
 21
-1113.806500104823
 72
     1
 10
-970.6051539949442
 20
-1113.806500104823
 11
-971.8456584051982
 21
-1113.806500104823
 97
        8
330
1E2
330
1E3
330
19A
330
1E4
330
199
330
19C
330
1E1
330
19B
 92
       16
 93
        3
 72
     1
 10
-972.9235244842027
 20
-1112.584976295298
 11
-972.6233592470103
 21
-1111.817161329311
 72
     1
 10
-972.6233592470103
 20
-1111.817161329311
 11
-972.3231940098202
 21
-1112.584976295298
 72
     1
 10
-972.3231940098202
 20
-1112.584976295298
 11
-972.9235244842027
 21
-1112.584976295298
 97
        3
330
198
330
1E6
330
1E5
 75
     1
 76
     0
 52
45.0
 41
0.1
 77
     0
 78
     1
 53
45.0
 43
0.0
 44
0.0
 45
-0.0707106781186548
 46
0.0707106781186548
 79
     0
 98
        1
 10
0.0
 20
0.0
  0
HATCH
  5
265
330
71
100
AcDbEntity
  8
1
  6
Continuous
 62
     2
100
AcDbHatch
 10
0.0
 20
0.0
 30
0.0
210
0.0
220
0.0
230
1.0
  2
_USER
 70
     0
 71
     1
 91
        2
 92
        1
 93
        8
 72
     1
 10
-971.8456584051982
 20
-1113.806500104823
 11
-972.0571384586739
 21
-1113.265539560605
 72
     1
 10
-972.0571384586739
 20
-1113.265539560605
 11
-973.1895800353477
 21
-1113.265539560605
 72
     1
 10
-973.1895800353477
 20
-1113.265539560605
 11
-973.4010600888236
 21
-1113.806500104823
 72
     1
 10
-973.4010600888236
 20
-1113.806500104823
 11
-974.6415644990765
 21
-1113.806500104823
 72
     1
 10
-974.6415644990765
 20
-1113.806500104823
 11
-973.2436114521372
 21
-1110.752690581012
 72
     1
 10
-973.2436114521372
 20
-1110.752690581012
 11
-972.0031070418845
 21
-1110.752690581012
 72
     1
 10
-972.0031070418845
 20
-1110.752690581012
 11
-970.6051539949442
 21
-1113.806500104823
 72
     1
 10
-970.6051539949442
 20
-1113.806500104823
 11
-971.8456584051982
 21
-1113.806500104823
 97
        8
330
1E2
330
1E3
330
19A
330
1E4
330
199
330
19C
330
1E1
330
19B
 92
       16
 93
        3
 72
     1
 10
-972.9235244842027
 20
-1112.584976295298
 11
-972.6233592470103
 21
-1111.817161329311
 72
     1
 10
-972.6233592470103
 20
-1111.817161329311
 11
-972.3231940098202
 21
-1112.584976295298
 72
     1
 10
-972.3231940098202
 20
-1112.584976295298
 11
-972.9235244842027
 21
-1112.584976295298
 97
        3
330
198
330
1E6
330
1E5
 75
     1
 76
     0
 52
45.0
 41
0.1
 77
     0
 78
     1
 53
45.0
 43
0.0
 44
0.0
 45
-0.0707106781186548
 46
0.0707106781186548
 79
     0
 98
        1
 10
0.0
 20
0.0
  0
HATCH
  5
266
330
71
100
AcDbEntity
  8
1
  6
Continuous
 62
     2
100
AcDbHatch
 10
0.0
 20
0.0
 30
0.0
210
0.0
220
0.0
230
1.0
  2
_USER
 70
     0
 71
     1
 91
        1
 92
        1
 93
        4
 72
     1
 10
-970.2147099914122
 20
-1110.447309628648
 11
-971.4552144016651
 21
-1110.447309628648
 72
     1
 10
-971.4552144016651
 20
-1110.447309628648
 11
-971.4552144016651
 21
-1107.393500104837
 72
     1
 10
-971.4552144016651
 20
-1107.393500104837
 11
-970.2147099914122
 21
-1107.393500104837
 72
     1
 10
-970.2147099914122
 20
-1107.393500104837
 11
-970.2147099914122
 21
-1110.447309628648
 97
        4
330
195
330
197
330
1E7
330
196
 75
     1
 76
     0
 52
45.0
 41
0.1
 77
     0
 78
     1
 53
45.0
 43
0.0
 44
0.0
 45
-0.0707106781186548
 46
0.0707106781186548
 79
     0
 98
        1
 10
0.0
 20
0.0
  0
HATCH
  5
267
330
71
100
AcDbEntity
  8
1
  6
Continuous
 62
     2
100
AcDbHatch
 10
0.0
 20
0.0
 30
0.0
210
0.0
220
0.0
230
1.0
  2
_USER
 70
     0
 71
     1
 91
        1
 92
        1
 93
        4
 72
     1
 10
-970.2147099914122
 20
-1110.447309628648
 11
-971.4552144016651
 21
-1110.447309628648
 72
     1
 10
-971.4552144016651
 20
-1110.447309628648
 11
-971.4552144016651
 21
-1107.393500104837
 72
     1
 10
-971.4552144016651
 20
-1107.393500104837
 11
-970.2147099914122
 21
-1107.393500104837
 72
     1
 10
-970.2147099914122
 20
-1107.393500104837
 11
-970.2147099914122
 21
-1110.447309628648
 97
        4
330
195
330
197
330
1E7
330
196
 75
     1
 76
     0
 52
45.0
 41
0.1
 77
     0
 78
     1
 53
45.0
 43
0.0
 44
0.0
 45
-0.0707106781186548
 46
0.0707106781186548
 79
     0
 98
        1
 10
0.0
 20
0.0
  0
HATCH
  5
268
330
71
100
AcDbEntity
  8
1
  6
Continuous
 62
     2
100
AcDbHatch
 10
0.0
 20
0.0
 30
0.0
210
0.0
220
0.0
230
1.0
  2
_USER
 70
     0
 71
     1
 91
        1
 92
        1
 93
       12
 72
     1
 10
-965.9922238257413
 20
-1107.393500104837
 11
-967.2947534565079
 21
-1108.866450634873
 72
     1
 10
-967.2947534565079
 20
-1108.866450634873
 11
-965.8968004095676
 21
-1110.447309628648
 72
     1
 10
-965.8968004095676
 20
-1110.447309628648
 11
-967.2995246273159
 21
-1110.447309628648
 72
     1
 10
-967.2995246273159
 20
-1110.447309628648
 11
-967.9961155653814
 21
-1109.659577843355
 72
     1
 10
-967.9961155653814
 20
-1109.659577843355
 11
-968.6927065034471
 21
-1110.447309628648
 72
     1
 10
-968.6927065034471
 20
-1110.447309628648
 11
-970.0954307211953
 21
-1110.447309628648
 72
     1
 10
-970.0954307211953
 20
-1110.447309628648
 11
-968.697477674255
 21
-1108.866450634873
 72
     1
 10
-968.697477674255
 20
-1108.866450634873
 11
-970.0000073050226
 21
-1107.393500104837
 72
     1
 10
-970.0000073050226
 20
-1107.393500104837
 11
-968.5972830872732
 21
-1107.393500104837
 72
     1
 10
-968.5972830872732
 20
-1107.393500104837
 11
-967.9961155653814
 21
-1108.073323426393
 72
     1
 10
-967.9961155653814
 20
-1108.073323426393
 11
-967.3949480434886
 21
-1107.393500104837
 72
     1
 10
-967.3949480434886
 20
-1107.393500104837
 11
-965.9922238257413
 21
-1107.393500104837
 97
       12
330
190
330
18F
330
18E
330
1EB
330
1EC
330
1E8
330
1E9
330
194
330
193
330
192
330
191
330
1EA
 75
     1
 76
     0
 52
45.0
 41
0.1
 77
     0
 78
     1
 53
45.0
 43
0.0
 44
0.0
 45
-0.0707106781186548
 46
0.0707106781186548
 79
     0
 98
        1
 10
0.0
 20
0.0
  0
HATCH
  5
269
330
71
100
AcDbEntity
  8
1
  6
Continuous
 62
     2
100
AcDbHatch
 10
0.0
 20
0.0
 30
0.0
210
0.0
220
0.0
230
1.0
  2
_USER
 70
     0
 71
     1
 91
        1
 92
        1
 93
       12
 72
     1
 10
-965.9922238257413
 20
-1107.393500104837
 11
-967.2947534565079
 21
-1108.866450634873
 72
     1
 10
-967.2947534565079
 20
-1108.866450634873
 11
-965.8968004095676
 21
-1110.447309628648
 72
     1
 10
-965.8968004095676
 20
-1110.447309628648
 11
-967.2995246273159
 21
-1110.447309628648
 72
     1
 10
-967.2995246273159
 20
-1110.447309628648
 11
-967.9961155653814
 21
-1109.659577843355
 72
     1
 10
-967.9961155653814
 20
-1109.659577843355
 11
-968.6927065034471
 21
-1110.447309628648
 72
     1
 10
-968.6927065034471
 20
-1110.447309628648
 11
-970.0954307211953
 21
-1110.447309628648
 72
     1
 10
-970.0954307211953
 20
-1110.447309628648
 11
-968.697477674255
 21
-1108.866450634873
 72
     1
 10
-968.697477674255
 20
-1108.866450634873
 11
-970.0000073050226
 21
-1107.393500104837
 72
     1
 10
-970.0000073050226
 20
-1107.393500104837
 11
-968.5972830872732
 21
-1107.393500104837
 72
     1
 10
-968.5972830872732
 20
-1107.393500104837
 11
-967.9961155653814
 21
-1108.073323426393
 72
     1
 10
-967.9961155653814
 20
-1108.073323426393
 11
-967.3949480434886
 21
-1107.393500104837
 72
     1
 10
-967.3949480434886
 20
-1107.393500104837
 11
-965.9922238257413
 21
-1107.393500104837
 97
       12
330
190
330
18F
330
18E
330
1EB
330
1EC
330
1E8
330
1E9
330
194
330
193
330
192
330
191
330
1EA
 75
     1
 76
     0
 52
45.0
 41
0.1
 77
     0
 78
     1
 53
45.0
 43
0.0
 44
0.0
 45
-0.0707106781186548
 46
0.0707106781186548
 79
     0
 98
        1
 10
0.0
 20
0.0
  0
HATCH
  5
26A
330
71
100
AcDbEntity
  8
1
  6
Continuous
 62
     2
100
AcDbHatch
 10
0.0
 20
0.0
 30
0.0
210
0.0
220
0.0
230
1.0
  2
_USER
 70
     0
 71
     1
 91
        2
 92
        1
 93
        6
 72
     1
 10
-985.0099592398874
 20
-1109.504231387505
 11
-985.7687268276677
 21
-1109.504231387505
 72
     1
 10
-985.7687268276677
 20
-1109.504231387505
 11
-985.7687268276677
 21
-1110.447309628648
 72
     1
 10
-985.7687268276677
 20
-1110.447309628648
 11
-987.0092312379218
 21
-1110.447309628648
 72
     1
 10
-987.0092312379218
 20
-1110.447309628648
 11
-987.0092312379218
 21
-1107.393500104837
 72
     1
 10
-987.0092312379218
 20
-1107.393500104837
 11
-985.0099592398874
 21
-1107.393500104837
 72
     2
 10
-985.0099592398874
 20
-1108.448865746171
 40
1.055365641333992
 50
270.0
 51
450.0
 73
     0
 97
        6
330
1B8
330
1B7
330
1C4
330
1C3
330
1B9
330
209
 92
       16
 93
        4
 72
     2
 10
-985.4514317661258
 20
-1108.409469774948
 40
0.3528638246718856
 50
270.0
 51
450.0
 73
     1
 72
     1
 10
-985.4514317661258
 20
-1108.056605950277
 11
-985.7687268276677
 21
-1108.056605950277
 72
     1
 10
-985.7687268276677
 20
-1108.056605950277
 11
-985.7687268276677
 21
-1108.76233359962
 72
     1
 10
-985.7687268276677
 20
-1108.76233359962
 11
-985.4514317661258
 21
-1108.76233359962
 97
        4
330
21D
330
1B5
330
1C5
330
1B6
 75
     1
 76
     0
 52
45.0
 41
0.1
 77
     0
 78
     1
 53
45.0
 43
0.0
 44
0.0
 45
-0.0707106781186548
 46
0.0707106781186548
 79
     0
 98
        1
 10
0.0
 20
0.0
  0
HATCH
  5
26B
330
71
100
AcDbEntity
  8
1
  6
Continuous
 62
     2
100
AcDbHatch
 10
0.0
 20
0.0
 30
0.0
210
0.0
220
0.0
230
1.0
  2
_USER
 70
     0
 71
     1
 91
        2
 92
        1
 93
        6
 72
     1
 10
-985.0099592398874
 20
-1109.504231387505
 11
-985.7687268276677
 21
-1109.504231387505
 72
     1
 10
-985.7687268276677
 20
-1109.504231387505
 11
-985.7687268276677
 21
-1110.447309628648
 72
     1
 10
-985.7687268276677
 20
-1110.447309628648
 11
-987.0092312379218
 21
-1110.447309628648
 72
     1
 10
-987.0092312379218
 20
-1110.447309628648
 11
-987.0092312379218
 21
-1107.393500104837
 72
     1
 10
-987.0092312379218
 20
-1107.393500104837
 11
-985.0099592398874
 21
-1107.393500104837
 72
     2
 10
-985.0099592398874
 20
-1108.448865746171
 40
1.055365641333992
 50
270.0
 51
450.0
 73
     0
 97
        6
330
1B8
330
1B7
330
1C4
330
1C3
330
1B9
330
209
 92
       16
 93
        4
 72
     2
 10
-985.4514317661258
 20
-1108.409469774948
 40
0.3528638246718856
 50
270.0
 51
450.0
 73
     1
 72
     1
 10
-985.4514317661258
 20
-1108.056605950277
 11
-985.7687268276677
 21
-1108.056605950277
 72
     1
 10
-985.7687268276677
 20
-1108.056605950277
 11
-985.7687268276677
 21
-1108.76233359962
 72
     1
 10
-985.7687268276677
 20
-1108.76233359962
 11
-985.4514317661258
 21
-1108.76233359962
 97
        4
330
21D
330
1B5
330
1C5
330
1B6
 75
     1
 76
     0
 52
45.0
 41
0.1
 77
     0
 78
     1
 53
45.0
 43
0.0
 44
0.0
 45
-0.0707106781186548
 46
0.0707106781186548
 79
     0
 98
        1
 10
0.0
 20
0.0
  0
HATCH
  5
26C
330
71
100
AcDbEntity
  8
1
  6
Continuous
 62
     2
100
AcDbHatch
 10
0.0
 20
0.0
 30
0.0
210
0.0
220
0.0
230
1.0
  2
_USER
 70
     0
 71
     1
 91
        2
 92
        1
 93
        4
 72
     2
 10
-982.4534164915283
 20
-1112.81817035322
 40
2.06547977220824
 50
62.45185182430162
 51
117.5481481756704
 73
     1
 72
     2
 10
-982.7343563833616
 20
-1112.279595342917
 40
1.458034083650935
 50
117.5481481756713
 51
242.4518518243493
 73
     1
 72
     2
 10
-982.4534164915283
 20
-1111.741020332614
 40
2.065479772208722
 50
242.4518518243441
 51
297.5481481756838
 73
     1
 72
     2
 10
-982.1724765996951
 20
-1112.279595342917
 40
1.458034083652521
 50
297.5481481756942
 51
422.4518518242851
 73
     1
 97
        4
330
215
330
214
330
216
330
213
 92
       16
 93
        4
 72
     2
 10
-982.6531565278747
 20
-1112.279595342917
 40
0.7717997786796852
 50
321.8795802028358
 51
398.1204197971642
 73
     1
 72
     2
 10
-982.4534164915283
 20
-1112.122864164797
 40
0.5179085730136636
 50
38.1204197972034
 51
141.8795802028044
 73
     1
 72
     2
 10
-982.2536764551822
 20
-1112.279595342917
 40
0.7717997786795062
 50
141.8795802028254
 51
218.1204197971746
 73
     1
 72
     2
 10
-982.4534164915283
 20
-1112.436326521037
 40
0.5179085730137529
 50
218.1204197971956
 51
321.8795802027966
 73
     1
 97
        4
330
231
330
22E
330
22F
330
230
 75
     1
 76
     0
 52
45.0
 41
0.1
 77
     0
 78
     1
 53
45.0
 43
0.0
 44
0.0
 45
-0.0707106781186548
 46
0.0707106781186548
 79
     0
 98
        1
 10
0.0
 20
0.0
  0
HATCH
  5
26D
330
71
100
AcDbEntity
  8
1
  6
Continuous
 62
     2
100
AcDbHatch
 10
0.0
 20
0.0
 30
0.0
210
0.0
220
0.0
230
1.0
  2
_USER
 70
     0
 71
     1
 91
        2
 92
        1
 93
        4
 72
     2
 10
-982.4534164915283
 20
-1112.81817035322
 40
2.06547977220824
 50
62.45185182430162
 51
117.5481481756704
 73
     1
 72
     2
 10
-982.7343563833616
 20
-1112.279595342917
 40
1.458034083650935
 50
117.5481481756713
 51
242.4518518243493
 73
     1
 72
     2
 10
-982.4534164915283
 20
-1111.741020332614
 40
2.065479772208722
 50
242.4518518243441
 51
297.5481481756838
 73
     1
 72
     2
 10
-982.1724765996951
 20
-1112.279595342917
 40
1.458034083652521
 50
297.5481481756942
 51
422.4518518242851
 73
     1
 97
        4
330
215
330
214
330
216
330
213
 92
       16
 93
        4
 72
     2
 10
-982.6531565278747
 20
-1112.279595342917
 40
0.7717997786796852
 50
321.8795802028358
 51
398.1204197971642
 73
     1
 72
     2
 10
-982.4534164915283
 20
-1112.122864164797
 40
0.5179085730136636
 50
38.1204197972034
 51
141.8795802028044
 73
     1
 72
     2
 10
-982.2536764551822
 20
-1112.279595342917
 40
0.7717997786795062
 50
141.8795802028254
 51
218.1204197971746
 73
     1
 72
     2
 10
-982.4534164915283
 20
-1112.436326521037
 40
0.5179085730137529
 50
218.1204197971956
 51
321.8795802027966
 73
     1
 97
        4
330
231
330
22E
330
22F
330
230
 75
     1
 76
     0
 52
45.0
 41
0.1
 77
     0
 78
     1
 53
45.0
 43
0.0
 44
0.0
 45
-0.0707106781186548
 46
0.0707106781186548
 79
     0
 98
        1
 10
0.0
 20
0.0
  0
HATCH
  5
26E
330
71
100
AcDbEntity
  8
1
  6
Continuous
 62
     2
100
AcDbHatch
 10
0.0
 20
0.0
 30
0.0
210
0.0
220
0.0
230
1.0
  2
_USER
 70
     0
 71
     1
 91
        2
 92
        1
 93
       12
 72
     1
 10
-975.558421297119
 20
-1108.09151371028
 11
-976.8943491235467
 21
-1108.09151371028
 72
     1
 10
-976.8943491235467
 20
-1108.09151371028
 11
-976.8943491235467
 21
-1108.571398064022
 72
     1
 10
-976.8943491235467
 20
-1108.571398064022
 11
-975.558421297119
 21
-1108.571398064022
 72
     1
 10
-975.558421297119
 20
-1108.571398064022
 11
-975.558421297119
 21
-1109.269411669464
 72
     1
 10
-975.558421297119
 20
-1109.269411669464
 11
-976.8943491235467
 21
-1109.269411669464
 72
     1
 10
-976.8943491235467
 20
-1109.269411669464
 11
-976.8943491235467
 21
-1109.749296023206
 72
     1
 10
-976.8943491235467
 20
-1109.749296023206
 11
-975.558421297119
 21
-1109.749296023206
 72
     1
 10
-975.558421297119
 20
-1109.749296023206
 11
-975.558421297119
 21
-1110.447309628648
 72
     1
 10
-975.558421297119
 20
-1110.447309628648
 11
-978.7087410209
 21
-1110.447309628648
 72
     2
 10
-978.7087410209
 20
-1108.920404866743
 40
1.526904761906053
 50
90.0
 51
270.0
 73
     0
 72
     1
 10
-978.7087410209
 20
-1107.393500104837
 11
-975.558421297119
 21
-1107.393500104837
 72
     1
 10
-975.558421297119
 20
-1107.393500104837
 11
-975.558421297119
 21
-1108.09151371028
 97
       12
330
1CC
330
21E
330
1CD
330
1CE
330
1CF
330
1D0
330
1AD
330
1AC
330
1AB
330
1AA
330
1D1
330
1CB
 92
       16
 93
        4
 72
     2
 10
-978.4924690107348
 20
-1108.763673688623
 40
0.5179085730138424
 50
38.12041979718787
 51
141.8795802028044
 73
     1
 72
     2
 10
-978.2927289743885
 20
-1108.920404866743
 40
0.7717997786796852
 50
141.8795802028358
 51
218.1204197971642
 73
     1
 72
     2
 10
-978.4924690107348
 20
-1109.077136044863
 40
0.5179085730137529
 50
218.1204197971956
 51
321.8795802028121
 73
     1
 72
     2
 10
-978.692209047081
 20
-1108.920404866743
 40
0.7717997786796852
 50
321.8795802028358
 51
398.1204197971642
 73
     1
 97
        4
330
218
330
217
330
212
330
211
 75
     1
 76
     0
 52
45.0
 41
0.1
 77
     0
 78
     1
 53
45.0
 43
0.0
 44
0.0
 45
-0.0707106781186548
 46
0.0707106781186548
 79
     0
 98
        1
 10
0.0
 20
0.0
  0
HATCH
  5
26F
330
71
100
AcDbEntity
  8
1
  6
Continuous
 62
     2
100
AcDbHatch
 10
0.0
 20
0.0
 30
0.0
210
0.0
220
0.0
230
1.0
  2
_USER
 70
     0
 71
     1
 91
        2
 92
        1
 93
       12
 72
     1
 10
-975.558421297119
 20
-1108.09151371028
 11
-976.8943491235467
 21
-1108.09151371028
 72
     1
 10
-976.8943491235467
 20
-1108.09151371028
 11
-976.8943491235467
 21
-1108.571398064022
 72
     1
 10
-976.8943491235467
 20
-1108.571398064022
 11
-975.558421297119
 21
-1108.571398064022
 72
     1
 10
-975.558421297119
 20
-1108.571398064022
 11
-975.558421297119
 21
-1109.269411669464
 72
     1
 10
-975.558421297119
 20
-1109.269411669464
 11
-976.8943491235467
 21
-1109.269411669464
 72
     1
 10
-976.8943491235467
 20
-1109.269411669464
 11
-976.8943491235467
 21
-1109.749296023206
 72
     1
 10
-976.8943491235467
 20
-1109.749296023206
 11
-975.558421297119
 21
-1109.749296023206
 72
     1
 10
-975.558421297119
 20
-1109.749296023206
 11
-975.558421297119
 21
-1110.447309628648
 72
     1
 10
-975.558421297119
 20
-1110.447309628648
 11
-978.7087410209
 21
-1110.447309628648
 72
     2
 10
-978.7087410209
 20
-1108.920404866743
 40
1.526904761906053
 50
90.0
 51
270.0
 73
     0
 72
     1
 10
-978.7087410209
 20
-1107.393500104837
 11
-975.558421297119
 21
-1107.393500104837
 72
     1
 10
-975.558421297119
 20
-1107.393500104837
 11
-975.558421297119
 21
-1108.09151371028
 97
       12
330
1CC
330
21E
330
1CD
330
1CE
330
1CF
330
1D0
330
1AD
330
1AC
330
1AB
330
1AA
330
1D1
330
1CB
 92
       16
 93
        4
 72
     2
 10
-978.4924690107348
 20
-1108.763673688623
 40
0.5179085730138424
 50
38.12041979718787
 51
141.8795802028044
 73
     1
 72
     2
 10
-978.2927289743885
 20
-1108.920404866743
 40
0.7717997786796852
 50
141.8795802028358
 51
218.1204197971642
 73
     1
 72
     2
 10
-978.4924690107348
 20
-1109.077136044863
 40
0.5179085730137529
 50
218.1204197971956
 51
321.8795802028121
 73
     1
 72
     2
 10
-978.692209047081
 20
-1108.920404866743
 40
0.7717997786796852
 50
321.8795802028358
 51
398.1204197971642
 73
     1
 97
        4
330
218
330
217
330
212
330
211
 75
     1
 76
     0
 52
45.0
 41
0.1
 77
     0
 78
     1
 53
45.0
 43
0.0
 44
0.0
 45
-0.0707106781186548
 46
0.0707106781186548
 79
     0
 98
        1
 10
0.0
 20
0.0
  0
HATCH
  5
270
330
71
100
AcDbEntity
  8
1
  6
Continuous
 62
     2
100
AcDbHatch
 10
0.0
 20
0.0
 30
0.0
210
0.0
220
0.0
230
1.0
  2
_USER
 70
     0
 71
     1
 91
        4
 92
        1
 93
        8
 72
     1
 10
-987.4863483187886
 20
-1107.817744720239
 11
-987.4863483187886
 21
-1113.382255489439
 72
     2
 10
-987.9105929341725
 20
-1113.382255489439
 40
0.424244615383941
 50
0.0
 51
90.0
 73
     0
 72
     1
 10
-987.9105929341725
 20
-1113.806500104823
 11
-993.3839050248894
 21
-1113.806500104823
 72
     2
 10
-993.3839050248894
 20
-1113.382255489439
 40
0.4242446153828041
 50
90.0
 51
180.0
 73
     0
 72
     1
 10
-993.8081496402722
 20
-1113.382255489439
 11
-993.8081496402722
 21
-1107.817744720239
 72
     2
 10
-993.3839050248894
 20
-1107.817744720239
 40
0.424244615383941
 50
180.0
 51
270.0
 73
     0
 72
     1
 10
-993.3839050248894
 20
-1107.393500104855
 11
-987.9105929341725
 21
-1107.393500104855
 72
     2
 10
-987.9105929341725
 20
-1107.817744720239
 40
0.424244615383941
 50
270.0
 51
360.0
 73
     0
 97
        8
330
1C0
330
20E
330
1C1
330
219
330
1BE
330
210
330
1BF
330
20F
 92
       16
 93
        1
 72
     2
 10
-990.7643193743718
 20
-1110.136626948595
 40
0.4709789327785074
 50
0.0
 51
360.0
 73
     1
 97
        1
330
234
 92
       16
 93
        8
 72
     2
 10
-990.2144616616112
 20
-1111.245768548563
 40
0.3157169230761855
 50
115.3740086783875
 51
180.0
 73
     1
 72
     1
 10
-990.530178584688
 20
-1111.245768548563
 11
-990.530178584688
 21
-1111.827619955258
 72
     2
 10
-990.2144616616112
 20
-1111.827619955258
 40
0.3157169230768204
 50
180.0
 51
269.8110329574594
 73
     1
 72
     2
 10
-990.208845526301
 20
-1110.124785007689
 40
2.018561131933152
 50
269.8110329575842
 51
450.1889670424158
 73
     1
 72
     2
 10
-990.2144616616112
 20
-1108.42195006012
 40
0.3157169230760141
 50
90.18896704254082
 51
180.0
 73
     1
 72
     1
 10
-990.530178584688
 20
-1108.42195006012
 11
-990.530178584688
 21
-1109.027485348627
 72
     2
 10
-990.2144616616112
 20
-1109.027485348627
 40
0.3157169230768204
 50
180.0
 51
244.6259913216126
 73
     1
 72
     2
 10
-990.740504359699
 20
-1110.136626948595
 40
0.9118481501445116
 50
295.374008678171
 51
424.6259913218291
 73
     0
 97
        8
330
226
330
187
330
223
330
224
330
202
330
186
330
225
330
201
 92
       16
 93
       12
 72
     2
 10
-992.7900103481428
 20
-1112.778227626189
 40
0.3157169230756836
 50
180.0
 51
270.0
 73
     1
 72
     1
 10
-992.7900103481428
 20
-1113.093944549266
 11
-991.3141770871332
 21
-1113.093944549266
 72
     2
 10
-991.3141770871332
 20
-1112.778227626189
 40
0.3157169230771615
 50
270.0
 51
360.0
 73
     1
 72
     1
 10
-990.9984601640566
 20
-1112.778227626189
 11
-990.9984601640566
 21
-1111.247456694658
 72
     2
 10
-991.3141770871332
 20
-1111.247456694658
 40
0.315716923076593
 50
0.0
 51
64.80558935149101
 73
     1
 72
     2
 10
-990.7915926395582
 20
-1110.136626948595
 40
0.9118975235580125
 50
115.1944106485185
 51
244.8055893514816
 73
     0
 72
     2
 10
-991.3141770871332
 20
-1109.025797202532
 40
0.3157169230764803
 50
295.194410648509
 51
360.0
 73
     1
 72
     1
 10
-990.9984601640566
 20
-1109.025797202532
 11
-990.9984601640566
 21
-1108.421772583472
 72
     2
 10
-991.3141770871332
 20
-1108.421772583472
 40
0.315716923076593
 50
0.0
 51
90.0
 73
     1
 72
     1
 10
-991.3141770871332
 20
-1108.106055660396
 11
-992.7900103481428
 21
-1108.106055660396
 72
     2
 10
-992.7900103481428
 20
-1108.421772583472
 40
0.3157169230760246
 50
90.0
 51
180.0
 73
     1
 72
     1
 10
-993.1057272712185
 20
-1108.421772583472
 11
-993.1057272712185
 21
-1112.778227626189
 97
       12
330
20A
330
1C2
330
20D
330
1BD
330
21A
330
21B
330
20C
330
1BC
330
20B
330
1BB
330
21C
330
1BA
 75
     1
 76
     0
 52
45.0
 41
0.1
 77
     0
 78
     1
 53
45.0
 43
0.0
 44
0.0
 45
-0.0707106781186548
 46
0.0707106781186548
 79
     0
 98
        1
 10
0.0
 20
0.0
  0
HATCH
  5
271
330
71
100
AcDbEntity
  8
1
  6
Continuous
 62
     2
100
AcDbHatch
 10
0.0
 20
0.0
 30
0.0
210
0.0
220
0.0
230
1.0
  2
_USER
 70
     0
 71
     1
 91
        4
 92
        1
 93
        8
 72
     1
 10
-987.4863483187886
 20
-1107.817744720239
 11
-987.4863483187886
 21
-1113.382255489439
 72
     2
 10
-987.9105929341725
 20
-1113.382255489439
 40
0.424244615383941
 50
0.0
 51
90.0
 73
     0
 72
     1
 10
-987.9105929341725
 20
-1113.806500104823
 11
-993.3839050248894
 21
-1113.806500104823
 72
     2
 10
-993.3839050248894
 20
-1113.382255489439
 40
0.4242446153828041
 50
90.0
 51
180.0
 73
     0
 72
     1
 10
-993.8081496402722
 20
-1113.382255489439
 11
-993.8081496402722
 21
-1107.817744720239
 72
     2
 10
-993.3839050248894
 20
-1107.817744720239
 40
0.424244615383941
 50
180.0
 51
270.0
 73
     0
 72
     1
 10
-993.3839050248894
 20
-1107.393500104855
 11
-987.9105929341725
 21
-1107.393500104855
 72
     2
 10
-987.9105929341725
 20
-1107.817744720239
 40
0.424244615383941
 50
270.0
 51
360.0
 73
     0
 97
        8
330
1C0
330
20E
330
1C1
330
219
330
1BE
330
210
330
1BF
330
20F
 92
       16
 93
        1
 72
     2
 10
-990.7643193743718
 20
-1110.136626948595
 40
0.4709789327785074
 50
0.0
 51
360.0
 73
     1
 97
        1
330
234
 92
       16
 93
        8
 72
     2
 10
-990.2144616616112
 20
-1111.245768548563
 40
0.3157169230761855
 50
115.3740086783875
 51
180.0
 73
     1
 72
     1
 10
-990.530178584688
 20
-1111.245768548563
 11
-990.530178584688
 21
-1111.827619955258
 72
     2
 10
-990.2144616616112
 20
-1111.827619955258
 40
0.3157169230768204
 50
180.0
 51
269.8110329574594
 73
     1
 72
     2
 10
-990.208845526301
 20
-1110.124785007689
 40
2.018561131933152
 50
269.8110329575842
 51
450.1889670424158
 73
     1
 72
     2
 10
-990.2144616616112
 20
-1108.42195006012
 40
0.3157169230760141
 50
90.18896704254082
 51
180.0
 73
     1
 72
     1
 10
-990.530178584688
 20
-1108.42195006012
 11
-990.530178584688
 21
-1109.027485348627
 72
     2
 10
-990.2144616616112
 20
-1109.027485348627
 40
0.3157169230768204
 50
180.0
 51
244.6259913216126
 73
     1
 72
     2
 10
-990.740504359699
 20
-1110.136626948595
 40
0.9118481501445116
 50
295.374008678171
 51
424.6259913218291
 73
     0
 97
        8
330
226
330
187
330
223
330
224
330
202
330
186
330
225
330
201
 92
       16
 93
       12
 72
     2
 10
-992.7900103481428
 20
-1112.778227626189
 40
0.3157169230756836
 50
180.0
 51
270.0
 73
     1
 72
     1
 10
-992.7900103481428
 20
-1113.093944549266
 11
-991.3141770871332
 21
-1113.093944549266
 72
     2
 10
-991.3141770871332
 20
-1112.778227626189
 40
0.3157169230771615
 50
270.0
 51
360.0
 73
     1
 72
     1
 10
-990.9984601640566
 20
-1112.778227626189
 11
-990.9984601640566
 21
-1111.247456694658
 72
     2
 10
-991.3141770871332
 20
-1111.247456694658
 40
0.315716923076593
 50
0.0
 51
64.80558935149101
 73
     1
 72
     2
 10
-990.7915926395582
 20
-1110.136626948595
 40
0.9118975235580125
 50
115.1944106485185
 51
244.8055893514816
 73
     0
 72
     2
 10
-991.3141770871332
 20
-1109.025797202532
 40
0.3157169230764803
 50
295.194410648509
 51
360.0
 73
     1
 72
     1
 10
-990.9984601640566
 20
-1109.025797202532
 11
-990.9984601640566
 21
-1108.421772583472
 72
     2
 10
-991.3141770871332
 20
-1108.421772583472
 40
0.315716923076593
 50
0.0
 51
90.0
 73
     1
 72
     1
 10
-991.3141770871332
 20
-1108.106055660396
 11
-992.7900103481428
 21
-1108.106055660396
 72
     2
 10
-992.7900103481428
 20
-1108.421772583472
 40
0.3157169230760246
 50
90.0
 51
180.0
 73
     1
 72
     1
 10
-993.1057272712185
 20
-1108.421772583472
 11
-993.1057272712185
 21
-1112.778227626189
 97
       12
330
20A
330
1C2
330
20D
330
1BD
330
21A
330
21B
330
20C
330
1BC
330
20B
330
1BB
330
21C
330
1BA
 75
     1
 76
     0
 52
45.0
 41
0.1
 77
     0
 78
     1
 53
45.0
 43
0.0
 44
0.0
 45
-0.0707106781186548
 46
0.0707106781186548
 79
     0
 98
        1
 10
0.0
 20
0.0
  0
HATCH
  5
272
330
71
100
AcDbEntity
  8
1
  6
Continuous
 62
     2
100
AcDbHatch
 10
0.0
 20
0.0
 30
0.0
210
0.0
220
0.0
230
1.0
  2
_USER
 70
     0
 71
     1
 91
        1
 92
        1
 93
       18
 72
     1
 10
-965.8968004095676
 20
-1111.537955887135
 11
-966.707899447041
 21
-1111.537955887135
 72
     1
 10
-966.707899447041
 20
-1111.537955887135
 11
-966.707899447041
 21
-1113.806500104823
 72
     1
 10
-966.707899447041
 20
-1113.806500104823
 11
-967.9006921492087
 21
-1113.806500104823
 72
     1
 10
-967.9006921492087
 20
-1113.806500104823
 11
-967.9006921492087
 21
-1111.537955887135
 72
     1
 10
-967.9006921492087
 20
-1111.537955887135
 11
-969.0043314487768
 21
-1111.537955887135
 72
     2
 10
-969.0043314487768
 20
-1112.492478893961
 40
0.9545230068260935
 50
90.0
 51
109.3371432194401
 73
     1
 72
     2
 10
-969.1510014468805
 20
-1112.074523913578
 40
0.5115800601937612
 50
109.3371432195076
 51
151.4785267424227
 73
     1
 72
     2
 10
-968.7736441887992
 20
-1112.279595342917
 40
0.9410597353348766
 50
151.4785267423678
 51
208.5214732576808
 73
     1
 72
     2
 10
-969.1510014468805
 20
-1112.484666772256
 40
0.5115800601958815
 50
208.5214732576444
 51
246.6277221118294
 73
     1
 72
     2
 10
-968.9945614141774
 20
-1112.122674753546
 40
0.9059297849850417
 50
246.6277221118078
 51
288.448076118076
 73
     1
 72
     2
 10
-969.4127291478393
 20
-1110.869128977509
 40
2.227384008973474
 50
288.4480761181272
 51
301.9309089499373
 73
     1
 72
     1
 10
-968.2346741058154
 20
-1112.759479696659
 11
-968.2346741058154
 21
-1113.631996703462
 72
     2
 10
-969.5706020229321
 20
-1108.966914397661
 40
4.852596863499167
 50
74.02000874166028
 51
84.8418552303637
 73
     0
 72
     2
 10
-969.2817459281963
 20
-1112.166804980883
 40
1.639695123940421
 50
84.84185523032258
 51
164.9381082228985
 73
     0
 72
     2
 10
-969.7008737716579
 20
-1112.279595342917
 40
1.205656168392903
 50
164.9381082228682
 51
195.0618917770901
 73
     0
 72
     2
 10
-969.2817459281963
 20
-1112.392385704952
 40
1.639695123939873
 50
195.0618917771015
 51
270.0
 73
     0
 72
     1
 10
-969.2817459281963
 20
-1110.752690581012
 11
-965.8968004095676
 21
-1110.752690581012
 72
     1
 10
-965.8968004095676
 20
-1110.752690581012
 11
-965.8968004095676
 21
-1111.537955887135
 97
       18
330
189
330
21F
330
220
330
208
330
207
330
1ED
330
206
330
205
330
221
330
204
330
222
330
203
330
1EE
330
188
330
18D
330
18C
330
18B
330
18A
 75
     1
 76
     0
 52
45.0
 41
0.1
 77
     0
 78
     1
 53
45.0
 43
0.0
 44
0.0
 45
-0.0707106781186548
 46
0.0707106781186548
 79
     0
 98
        1
 10
0.0
 20
0.0
  0
HATCH
  5
273
330
71
100
AcDbEntity
  8
1
  6
Continuous
 62
     2
100
AcDbHatch
 10
0.0
 20
0.0
 30
0.0
210
0.0
220
0.0
230
1.0
  2
_USER
 70
     0
 71
     1
 91
        1
 92
        1
 93
       18
 72
     1
 10
-965.8968004095676
 20
-1111.537955887135
 11
-966.707899447041
 21
-1111.537955887135
 72
     1
 10
-966.707899447041
 20
-1111.537955887135
 11
-966.707899447041
 21
-1113.806500104823
 72
     1
 10
-966.707899447041
 20
-1113.806500104823
 11
-967.9006921492087
 21
-1113.806500104823
 72
     1
 10
-967.9006921492087
 20
-1113.806500104823
 11
-967.9006921492087
 21
-1111.537955887135
 72
     1
 10
-967.9006921492087
 20
-1111.537955887135
 11
-969.0043314487768
 21
-1111.537955887135
 72
     2
 10
-969.0043314487768
 20
-1112.492478893961
 40
0.9545230068260935
 50
90.0
 51
109.3371432194401
 73
     1
 72
     2
 10
-969.1510014468805
 20
-1112.074523913578
 40
0.5115800601937612
 50
109.3371432195076
 51
151.4785267424227
 73
     1
 72
     2
 10
-968.7736441887992
 20
-1112.279595342917
 40
0.9410597353348766
 50
151.4785267423678
 51
208.5214732576808
 73
     1
 72
     2
 10
-969.1510014468805
 20
-1112.484666772256
 40
0.5115800601958815
 50
208.5214732576444
 51
246.6277221118294
 73
     1
 72
     2
 10
-968.9945614141774
 20
-1112.122674753546
 40
0.9059297849850417
 50
246.6277221118078
 51
288.448076118076
 73
     1
 72
     2
 10
-969.4127291478393
 20
-1110.869128977509
 40
2.227384008973474
 50
288.4480761181272
 51
301.9309089499373
 73
     1
 72
     1
 10
-968.2346741058154
 20
-1112.759479696659
 11
-968.2346741058154
 21
-1113.631996703462
 72
     2
 10
-969.5706020229321
 20
-1108.966914397661
 40
4.852596863499167
 50
74.02000874166028
 51
84.8418552303637
 73
     0
 72
     2
 10
-969.2817459281963
 20
-1112.166804980883
 40
1.639695123940421
 50
84.84185523032258
 51
164.9381082228985
 73
     0
 72
     2
 10
-969.7008737716579
 20
-1112.279595342917
 40
1.205656168392903
 50
164.9381082228682
 51
195.0618917770901
 73
     0
 72
     2
 10
-969.2817459281963
 20
-1112.392385704952
 40
1.639695123939873
 50
195.0618917771015
 51
270.0
 73
     0
 72
     1
 10
-969.2817459281963
 20
-1110.752690581012
 11
-965.8968004095676
 21
-1110.752690581012
 72
     1
 10
-965.8968004095676
 20
-1110.752690581012
 11
-965.8968004095676
 21
-1111.537955887135
 97
       18
330
189
330
21F
330
220
330
208
330
207
330
1ED
330
206
330
205
330
221
330
204
330
222
330
203
330
1EE
330
188
330
18D
330
18C
330
18B
330
18A
 75
     1
 76
     0
 52
45.0
 41
0.1
 77
     0
 78
     1
 53
45.0
 43
0.0
 44
0.0
 45
-0.0707106781186548
 46
0.0707106781186548
 79
     0
 98
        1
 10
0.0
 20
0.0
  0
HATCH
  5
274
330
71
100
AcDbEntity
  8
1
  6
Continuous
 62
     2
100
AcDbHatch
 10
0.0
 20
0.0
 30
0.0
210
0.0
220
0.0
230
1.0
  2
_USER
 70
     0
 71
     1
 91
        1
 92
        1
 93
       14
 72
     2
 10
-985.3844474074492
 20
-1112.392385704952
 40
1.639695123940224
 50
84.84185523036146
 51
164.9381082228903
 73
     1
 72
     2
 10
-985.803575250912
 20
-1112.279595342917
 40
1.205656168390927
 50
164.9381082228846
 51
195.0618917771153
 73
     1
 72
     2
 10
-985.3844474074492
 20
-1112.166804980883
 40
1.639695123939306
 50
195.061891777079
 51
275.1581447696414
 73
     1
 72
     2
 10
-985.6733035021851
 20
-1108.966914397661
 40
4.852596863497943
 50
275.1581447696255
 51
285.9799912583526
 73
     1
 72
     1
 10
-984.3373755850673
 20
-1113.631996703462
 11
-984.3373755850673
 21
-1112.759479696659
 72
     2
 10
-985.5154306270922
 20
-1110.869128977509
 40
2.227384008972611
 50
58.06909105004036
 51
71.5519238818654
 73
     0
 72
     2
 10
-985.0972628934314
 20
-1112.122674753546
 40
0.9059297849846357
 50
71.55192388183757
 51
113.3722778881328
 73
     0
 72
     2
 10
-985.2537029261334
 20
-1112.484666772256
 40
0.5115800601948827
 50
113.3722778881823
 51
151.4785267422948
 73
     0
 72
     2
 10
-984.8763456680531
 20
-1112.279595342917
 40
0.9410597353329787
 50
151.4785267422564
 51
208.521473257695
 73
     0
 72
     2
 10
-985.2537029261334
 20
-1112.074523913578
 40
0.5115800601943187
 50
208.5214732576381
 51
246.6277221117773
 73
     0
 72
     2
 10
-985.0972628934314
 20
-1112.436515932289
 40
0.9059297849858261
 50
246.6277221118672
 51
288.4480761181397
 73
     0
 72
     2
 10
-985.5154306270922
 20
-1113.690061708326
 40
2.227384008973646
 50
288.4480761181254
 51
301.9309089499566
 73
     0
 72
     1
 10
-984.3373755850673
 20
-1111.799710989176
 11
-984.3373755850673
 21
-1110.927193982372
 72
     2
 10
-985.6733035021851
 20
-1115.592276288173
 40
4.852596863498158
 50
74.02000874164733
 51
84.8418552303745
 73
     1
 97
       14
330
227
330
228
330
229
330
22A
330
1EF
330
200
330
1FF
330
1FE
330
22B
330
22C
330
1FD
330
22D
330
1F0
330
1FC
 75
     1
 76
     0
 52
45.0
 41
0.1
 77
     0
 78
     1
 53
45.0
 43
0.0
 44
0.0
 45
-0.0707106781186548
 46
0.0707106781186548
 79
     0
 98
        1
 10
0.0
 20
0.0
  0
HATCH
  5
275
330
71
100
AcDbEntity
  8
1
  6
Continuous
 62
     2
100
AcDbHatch
 10
0.0
 20
0.0
 30
0.0
210
0.0
220
0.0
230
1.0
  2
_USER
 70
     0
 71
     1
 91
        1
 92
        1
 93
       14
 72
     2
 10
-985.3844474074492
 20
-1112.392385704952
 40
1.639695123940224
 50
84.84185523036146
 51
164.9381082228903
 73
     1
 72
     2
 10
-985.803575250912
 20
-1112.279595342917
 40
1.205656168390927
 50
164.9381082228846
 51
195.0618917771153
 73
     1
 72
     2
 10
-985.3844474074492
 20
-1112.166804980883
 40
1.639695123939306
 50
195.061891777079
 51
275.1581447696414
 73
     1
 72
     2
 10
-985.6733035021851
 20
-1108.966914397661
 40
4.852596863497943
 50
275.1581447696255
 51
285.9799912583526
 73
     1
 72
     1
 10
-984.3373755850673
 20
-1113.631996703462
 11
-984.3373755850673
 21
-1112.759479696659
 72
     2
 10
-985.5154306270922
 20
-1110.869128977509
 40
2.227384008972611
 50
58.06909105004036
 51
71.5519238818654
 73
     0
 72
     2
 10
-985.0972628934314
 20
-1112.122674753546
 40
0.9059297849846357
 50
71.55192388183757
 51
113.3722778881328
 73
     0
 72
     2
 10
-985.2537029261334
 20
-1112.484666772256
 40
0.5115800601948827
 50
113.3722778881823
 51
151.4785267422948
 73
     0
 72
     2
 10
-984.8763456680531
 20
-1112.279595342917
 40
0.9410597353329787
 50
151.4785267422564
 51
208.521473257695
 73
     0
 72
     2
 10
-985.2537029261334
 20
-1112.074523913578
 40
0.5115800601943187
 50
208.5214732576381
 51
246.6277221117773
 73
     0
 72
     2
 10
-985.0972628934314
 20
-1112.436515932289
 40
0.9059297849858261
 50
246.6277221118672
 51
288.4480761181397
 73
     0
 72
     2
 10
-985.5154306270922
 20
-1113.690061708326
 40
2.227384008973646
 50
288.4480761181254
 51
301.9309089499566
 73
     0
 72
     1
 10
-984.3373755850673
 20
-1111.799710989176
 11
-984.3373755850673
 21
-1110.927193982372
 72
     2
 10
-985.6733035021851
 20
-1115.592276288173
 40
4.852596863498158
 50
74.02000874164733
 51
84.8418552303745
 73
     1
 97
       14
330
227
330
228
330
229
330
22A
330
1EF
330
200
330
1FF
330
1FE
330
22B
330
22C
330
1FD
330
22D
330
1F0
330
1FC
 75
     1
 76
     0
 52
45.0
 41
0.1
 77
     0
 78
     1
 53
45.0
 43
0.0
 44
0.0
 45
-0.0707106781186548
 46
0.0707106781186548
 79
     0
 98
        1
 10
0.0
 20
0.0
  0
ENDBLK
  5
73
330
71
100
AcDbEntity
  8
0
100
AcDbBlockEnd
  0
BLOCK
  5
75
330
74
100
AcDbEntity
  8
0
100
AcDbBlockBegin
  2
_punkt
 70
     0
 10
-868.5000000000847
 20
-1121.100000104839
 30
0.0
  3
_punkt
  1

  0
LINE
  5
276
330
74
100
AcDbEntity
  8
1
  6
Continuous
 62
     2
100
AcDbLine
 10
-868.5000000000847
 20
-1121.100000104839
 30
0.0
 11
-863.5000000000857
 21
-1121.100000104839
 31
0.0
  0
LINE
  5
277
330
74
100
AcDbEntity
  8
1
  6
Continuous
 62
     2
100
AcDbLine
 10
-868.5000000000847
 20
-1121.100000104839
 30
0.0
 11
-868.5000000000847
 21
-1126.100000104839
 31
0.0
  0
ENDBLK
  5
76
330
74
100
AcDbEntity
  8
0
100
AcDbBlockEnd
  0
BLOCK
  5
7A
330
77
100
AcDbEntity
  8
0
100
AcDbBlockBegin
  2
A4I_CS
 70
     0
 10
-868.5000000000847
 20
-1126.100000104839
 30
0.0
  3
A4I_CS
  1

  0
INSERT
  5
78
330
77
100
AcDbEntity
  8
1
100
AcDbBlockReference
  2
_rahmen
 10
-868.5000000000847
 20
-1126.100000104839
 30
0.0
  0
INSERT
  5
79
330
77
100
AcDbEntity
  8
1
100
AcDbBlockReference
  2
_punkt
 10
-868.5000000000847
 20
-1121.100000104839
 30
0.0
  0
ENDBLK
  5
7B
330
77
100
AcDbEntity
  8
0
100
AcDbBlockEnd
  0
BLOCK
  5
84
330
7C
100
AcDbEntity
  8
0
100
AcDbBlockBegin
  2
1
 70
     0
 10
0.0
 20
0.0
 30
0.0
  3
1
  1

  0
INSERT
  5
7D
330
7C
100
AcDbEntity
  8
0
100
AcDbBlockReference
  2
Allg1
 10
-929.0092831998481
 20
-1058.04276800006
 30
0.0
  0
INSERT
  5
7E
330
7C
100
AcDbEntity
  8
0
100
AcDbBlockReference
  2
Drfsicht1
 10
-1063.457461356947
 20
-1044.925000395436
 30
0.0
  0
INSERT
  5
7F
330
7C
100
AcDbEntity
  8
0
100
AcDbBlockReference
  2
Rckans1
 10
-928.5425386430538
 20
-994.00000000002
 30
0.0
  0
INSERT
  5
80
330
7C
100
AcDbEntity
  8
0
100
AcDbBlockReference
  2
SA_Links1
 10
-999.0
 20
-994.00000000002
 30
0.0
  0
INSERT
  5
81
330
7C
100
AcDbEntity
  8
0
100
AcDbBlockReference
  2
SA_Rechts1
 10
-1142.914922714233
 20
-994.00000000002
 30
0.0
  0
INSERT
  5
82
330
7C
100
AcDbEntity
  8
0
100
AcDbBlockReference
  2
Vordans1
 10
-1063.457461356947
 20
-994.00000000002
 30
0.0
  0
INSERT
  5
83
330
7C
100
AcDbEntity
  8
0
100
AcDbBlockReference
  2
A4I_CS
 10
-868.5000000000847
 20
-1126.100000104839
 30
0.0
  0
ENDBLK
  5
85
330
7C
100
AcDbEntity
  8
0
100
AcDbBlockEnd
  0
BLOCK
  5
D5
330
CC
100
AcDbEntity
  8
0
100
AcDbBlockBegin
  2
*D17
 70
     1
 10
0.0
 20
0.0
 30
0.0
  3
*D17
  1

  0
LINE
  5
CD
330
CC
100
AcDbEntity
  8
1
  6
Continuous
 62
     2
100
AcDbLine
 10
-1124.914922968128
 20
-1031.14675498329
 30
0.0
 11
-1124.914922968128
 21
-1043.825000331714
 31
0.0
  0
LINE
  5
CE
330
CC
100
AcDbEntity
  8
1
  6
Continuous
 62
     2
100
AcDbLine
 10
-1124.914922968128
 20
-1043.825000331714
 30
0.0
 11
-1124.914922968128
 21
-1046.025000331714
 31
0.0
  0
LINE
  5
CF
330
CC
100
AcDbEntity
  8
1
  6
Continuous
 62
     2
100
AcDbLine
 10
-1124.914922968128
 20
-1046.025000331714
 30
0.0
 11
-1124.914922968128
 21
-1053.025000331714
 31
0.0
  0
LINE
  5
D0
330
CC
100
AcDbEntity
  8
1
  6
Continuous
 62
     2
100
AcDbLine
 10
-1114.914922968128
 20
-1043.825000331714
 30
0.0
 11
-1126.414922968128
 21
-1043.825000331714
 31
0.0
  0
LINE
  5
D1
330
CC
100
AcDbEntity
  8
1
  6
Continuous
 62
     2
100
AcDbLine
 10
-1114.914922968128
 20
-1046.025000331714
 30
0.0
 11
-1126.414922968128
 21
-1046.025000331714
 31
0.0
  0
SOLID
  5
D2
330
CC
100
AcDbEntity
  8
1
 62
     2
100
AcDbTrace
 10
-1125.375706709684
 20
-1040.325000331714
 30
0.0
 11
-1124.454139226572
 21
-1040.325000331714
 31
0.0
 12
-1124.914922968128
 22
-1043.825000331714
 32
0.0
 13
-1124.914922968128
 23
-1043.825000331714
 33
0.0
  0
SOLID
  5
D3
330
CC
100
AcDbEntity
  8
1
 62
     2
100
AcDbTrace
 10
-1124.454139226572
 20
-1049.525000331714
 30
0.0
 11
-1125.375706709684
 21
-1049.525000331714
 31
0.0
 12
-1124.914922968128
 22
-1046.025000331714
 32
0.0
 13
-1124.914922968128
 23
-1046.025000331714
 33
0.0
  0
MTEXT
  5
D4
330
CC
100
AcDbEntity
  8
1
 62
     3
100
AcDbMText
 10
-1126.764922968128
 20
-1037.62175498329
 30
0.0
 40
3.5
 41
0.0
 71
     7
 72
     1
  1
2,2
  7
CONVERTER_11
 11
0.0
 21
1.0
 31
0.0
 73
     1
 44
0.60024009603842
  0
ENDBLK
  5
D6
330
CC
100
AcDbEntity
  8
0
100
AcDbBlockEnd
  0
BLOCK
  5
130
330
129
100
AcDbEntity
  8
0
100
AcDbBlockBegin
  2
*D18
 70
     1
 10
0.0
 20
0.0
 30
0.0
  3
*D18
  1

  0
LINE
  5
12A
330
129
100
AcDbEntity
  8
1
  6
Continuous
 62
     2
100
AcDbLine
 10
-1012.000000175193
 20
-1025.33453716345
 30
0.0
 11
-1114.914922968128
 21
-1025.33453716345
 31
0.0
  0
LINE
  5
12B
330
129
100
AcDbEntity
  8
1
  6
Continuous
 62
     2
100
AcDbLine
 10
-1114.914922968128
 20
-1013.82499934032
 30
0.0
 11
-1114.914922968128
 21
-1026.83453716345
 31
0.0
  0
LINE
  5
12C
330
129
100
AcDbEntity
  8
1
  6
Continuous
 62
     2
100
AcDbLine
 10
-1012.000000175193
 20
-1009.265408419743
 30
0.0
 11
-1012.000000175193
 21
-1026.83453716345
 31
0.0
  0
SOLID
  5
12D
330
129
100
AcDbEntity
  8
1
 62
     2
100
AcDbTrace
 10
-1015.500000175193
 20
-1025.795320905006
 30
0.0
 11
-1015.500000175193
 21
-1024.873753421894
 31
0.0
 12
-1012.000000175193
 22
-1025.33453716345
 32
0.0
 13
-1012.000000175193
 23
-1025.33453716345
 33
0.0
  0
SOLID
  5
12E
330
129
100
AcDbEntity
  8
1
 62
     2
100
AcDbTrace
 10
-1111.414922968128
 20
-1024.873753421894
 30
0.0
 11
-1111.414922968128
 21
-1025.795320905006
 31
0.0
 12
-1114.914922968128
 22
-1025.33453716345
 32
0.0
 13
-1114.914922968128
 23
-1025.33453716345
 33
0.0
  0
MTEXT
  5
12F
330
129
100
AcDbEntity
  8
1
 62
     3
100
AcDbMText
 10
-1070.89257977034
 20
-1023.48453716345
 30
0.0
 40
3.5
 41
0.0
 71
     7
 72
     1
  1
102,91
  7
CONVERTER_11
 11
0.9999999999970619
 21
2.424068405545306E-6
 31
0.0
 73
     1
 44
0.60024009603842
  0
ENDBLK
  5
131
330
129
100
AcDbEntity
  8
0
100
AcDbBlockEnd
  0
BLOCK
  5
13B
330
134
100
AcDbEntity
  8
0
100
AcDbBlockBegin
  2
*D19
 70
     1
 10
0.0
 20
0.0
 30
0.0
  3
*D19
  1

  0
LINE
  5
135
330
134
100
AcDbEntity
  8
1
  6
Continuous
 62
     2
100
AcDbLine
 10
-1124.914922968128
 20
-974.1749993403284
 30
0.0
 11
-1124.914922968128
 21
-1013.824999340321
 31
0.0
  0
LINE
  5
136
330
134
100
AcDbEntity
  8
1
  6
Continuous
 62
     2
100
AcDbLine
 10
-1094.884279349811
 20
-974.1749993403284
 30
0.0
 11
-1126.414922968128
 21
-974.1749993403284
 31
0.0
  0
LINE
  5
137
330
134
100
AcDbEntity
  8
1
  6
Continuous
 62
     2
100
AcDbLine
 10
-1114.914922968128
 20
-1013.824999340321
 30
0.0
 11
-1126.414922968128
 21
-1013.824999340321
 31
0.0
  0
SOLID
  5
138
330
134
100
AcDbEntity
  8
1
 62
     2
100
AcDbTrace
 10
-1124.454139226572
 20
-977.6749993403284
 30
0.0
 11
-1125.375706709684
 21
-977.6749993403284
 31
0.0
 12
-1124.914922968128
 22
-974.1749993403284
 32
0.0
 13
-1124.914922968128
 23
-974.1749993403284
 33
0.0
  0
SOLID
  5
139
330
134
100
AcDbEntity
  8
1
 62
     2
100
AcDbTrace
 10
-1125.375706709684
 20
-1010.324999340321
 30
0.0
 11
-1124.454139226572
 21
-1010.324999340321
 31
0.0
 12
-1124.914922968128
 22
-1013.824999340321
 32
0.0
 13
-1124.914922968128
 23
-1013.824999340321
 33
0.0
  0
MTEXT
  5
13A
330
134
100
AcDbEntity
  8
1
 62
     3
100
AcDbMText
 10
-1126.764922968128
 20
-998.4253903099423
 30
0.0
 40
3.5
 41
0.0
 71
     7
 72
     1
  1
39,65
  7
CONVERTER_11
 11
0.0
 21
1.0
 31
0.0
 73
     1
 44
0.60024009603842
  0
ENDBLK
  5
13C
330
134
100
AcDbEntity
  8
0
100
AcDbBlockEnd
  0
ENDSEC
  0
SECTION
  2
ENTITIES
  0
INSERT
  5
86
330
1F
100
AcDbEntity
  8
1
100
AcDbBlockReference
  2
1
 10
0.0
 20
0.0
 30
0.0
  0
ENDSEC
  0
SECTION
  2
OBJECTS
  0
DICTIONARY
  5
C
330
0
100
AcDbDictionary
281
     1
  3
ACAD_GROUP
350
D
  3
ACAD_LAYOUT
350
1A
  3
ACAD_MATERIAL
350
3B
  3
ACAD_MLEADERSTYLE
350
29F
  3
ACAD_MLINESTYLE
350
17
  3
ACAD_PLOTSETTINGS
350
19
  3
ACAD_PLOTSTYLENAME
350
E
  3
ACAD_TABLESTYLE
350
29E
  3
ACAD_VISUALSTYLE
350
2A
  0
DICTIONARY
  5
D
102
{ACAD_REACTORS
330
C
102
}
330
C
100
AcDbDictionary
281
     1
  0
DICTIONARY
  5
1A
102
{ACAD_REACTORS
330
C
102
}
330
C
100
AcDbDictionary
281
     1
  3
Layout1
350
1E
  3
Layout2
350
26
  3
Model
350
22
  0
DICTIONARY
  5
3B
102
{ACAD_REACTORS
330
C
102
}
330
C
100
AcDbDictionary
281
     1
  3
ByBlock
350
3D
  3
ByLayer
350
3C
  3
Global
350
3E
  0
DICTIONARY
  5
29F
102
{ACAD_REACTORS
330
C
102
}
330
C
100
AcDbDictionary
281
     1
  0
DICTIONARY
  5
17
102
{ACAD_REACTORS
330
C
102
}
330
C
100
AcDbDictionary
281
     1
  3
Standard
350
18
  0
DICTIONARY
  5
19
102
{ACAD_REACTORS
330
C
102
}
330
C
100
AcDbDictionary
281
     1
  0
ACDBDICTIONARYWDFLT
  5
E
102
{ACAD_REACTORS
330
C
102
}
330
C
100
AcDbDictionary
281
     1
  3
Normal
350
F
100
AcDbDictionaryWithDefault
340
F
  0
DICTIONARY
  5
29E
102
{ACAD_REACTORS
330
C
102
}
330
C
100
AcDbDictionary
281
     1
  0
DICTIONARY
  5
2A
102
{ACAD_REACTORS
330
C
102
}
330
C
100
AcDbDictionary
281
     1
  3
2dWireframe
350
2F
  3
3D Hidden
350
31
  3
3dWireframe
350
30
  3
Basic
350
32
  3
Brighten
350
36
  3
ColorChange
350
3A
  3
Conceptual
350
34
  3
Dim
350
35
  3
Facepattern
350
39
  3
Flat
350
2B
  3
FlatWithEdges
350
2C
  3
Gouraud
350
2D
  3
GouraudWithEdges
350
2E
  3
Linepattern
350
38
  3
Realistic
350
33
  3
Thicken
350
37
  0
LAYOUT
  5
1E
102
{ACAD_REACTORS
330
1A
102
}
330
1A
100
AcDbPlotSettings
  1

  2
none_device
  4

  6

 40
0.0
 41
0.0
 42
0.0
 43
0.0
 44
0.0
 45
0.0
 46
0.0
 47
0.0
 48
0.0
 49
0.0
140
0.0
141
0.0
142
1.0
143
1.0
 70
   688
 72
     0
 73
     0
 74
     5
  7

 75
    16
 76
     0
 77
     2
 78
   300
147
1.0
148
0.0
149
0.0
100
AcDbLayout
  1
Layout1
 70
     1
 71
     1
 10
0.0
 20
0.0
 11
12.0
 21
9.0
 12
0.0
 22
0.0
 32
0.0
 14
1.00000000000000E+20
 24
1.00000000000000E+20
 34
1.00000000000000E+20
 15
-1.00000000000000E+20
 25
-1.00000000000000E+20
 35
-1.00000000000000E+20
146
0.0
 13
0.0
 23
0.0
 33
0.0
 16
1.0
 26
0.0
 36
0.0
 17
0.0
 27
1.0
 37
0.0
 76
     0
330
1B
  0
LAYOUT
  5
26
102
{ACAD_REACTORS
330
1A
102
}
330
1A
100
AcDbPlotSettings
  1

  2
none_device
  4

  6

 40
0.0
 41
0.0
 42
0.0
 43
0.0
 44
0.0
 45
0.0
 46
0.0
 47
0.0
 48
0.0
 49
0.0
140
0.0
141
0.0
142
1.0
143
1.0
 70
   688
 72
     0
 73
     0
 74
     5
  7

 75
    16
 76
     0
 77
     2
 78
   300
147
1.0
148
0.0
149
0.0
100
AcDbLayout
  1
Layout2
 70
     1
 71
     2
 10
0.0
 20
0.0
 11
0.0
 21
0.0
 12
0.0
 22
0.0
 32
0.0
 14
0.0
 24
0.0
 34
0.0
 15
0.0
 25
0.0
 35
0.0
146
0.0
 13
0.0
 23
0.0
 33
0.0
 16
1.0
 26
0.0
 36
0.0
 17
0.0
 27
1.0
 37
0.0
 76
     0
330
23
  0
LAYOUT
  5
22
102
{ACAD_REACTORS
330
1A
102
}
330
1A
100
AcDbPlotSettings
  1

  2
none_device
  4

  6

 40
0.0
 41
0.0
 42
0.0
 43
0.0
 44
0.0
 45
0.0
 46
0.0
 47
0.0
 48
0.0
 49
0.0
140
0.0
141
0.0
142
1.0
143
1.0
 70
  1712
 72
     0
 73
     0
 74
     0
  7

 75
     0
 76
     0
 77
     2
 78
   300
147
1.0
148
0.0
149
0.0
100
AcDbLayout
  1
Model
 70
     1
 71
     0
 10
0.0
 20
0.0
 11
12.0
 21
9.0
 12
0.0
 22
0.0
 32
0.0
 14
-1160.500000000084
 24
-1126.100000104839
 34
0.0
 15
-863.5000000000857
 25
-916.100000104839
 35
0.0
146
0.0
 13
0.0
 23
0.0
 33
0.0
 16
1.0
 26
0.0
 36
0.0
 17
0.0
 27
1.0
 37
0.0
 76
     0
330
1F
331
29
  0
MATERIAL
  5
3D
102
{ACAD_REACTORS
330
3B
102
}
102
{ACAD_XDICTIONARY
360
29A
102
}
330
3B
100
AcDbMaterial
  1
ByBlock
  0
MATERIAL
  5
3C
102
{ACAD_REACTORS
330
3B
102
}
102
{ACAD_XDICTIONARY
360
298
102
}
330
3B
100
AcDbMaterial
  1
ByLayer
  0
MATERIAL
  5
3E
102
{ACAD_REACTORS
330
3B
102
}
102
{ACAD_XDICTIONARY
360
29C
102
}
330
3B
100
AcDbMaterial
  1
Global
  0
MLINESTYLE
  5
18
102
{ACAD_REACTORS
330
17
102
}
330
17
100
AcDbMlineStyle
  2
Standard
 70
     0
  3

 62
   256
 51
90.0
 52
90.0
 71
     2
 49
0.5
 62
   256
  6
BYLAYER
 49
-0.5
 62
   256
  6
BYLAYER
  0
ACDBPLACEHOLDER
  5
F
102
{ACAD_REACTORS
330
E
102
}
330
E
  0
VISUALSTYLE
  5
2F
102
{ACAD_REACTORS
330
2A
102
}
102
{ACAD_XDICTIONARY
360
280
102
}
330
2A
100
AcDbVisualStyle
  2
2dWireframe
 70
     4
 71
     0
 72
     2
 73
     0
 90
        0
 40
-0.6
 41
-30.0
 62
     5
 63
     7
421
 16777215
 74
     1
 91
        4
 64
     7
 65
   257
 75
     1
175
     1
 42
1.0
 92
        0
 66
   257
 43
1.0
 76
     1
 77
     6
 78
     2
 67
     7
 79
     5
170
     0
171
     0
290
     0
174
     0
 93
        1
 44
0.0
173
     0
291
     0
 45
0.0
1001
ACAD
1000
AcDbSavedByObjectVersion
1070
     0
  0
VISUALSTYLE
  5
31
102
{ACAD_REACTORS
330
2A
102
}
102
{ACAD_XDICTIONARY
360
284
102
}
330
2A
100
AcDbVisualStyle
  2
3D Hidden
 70
     6
 71
     1
 72
     2
 73
     2
 90
        0
 40
-0.6
 41
-30.0
 62
     5
 63
     7
421
 16777215
 74
     2
 91
        2
 64
     7
 65
   257
 75
     2
175
     1
 42
40.0
 92
        0
 66
   257
 43
1.0
 76
     1
 77
     6
 78
     2
 67
     7
 79
     3
170
     0
171
     0
290
     0
174
     0
 93
        1
 44
0.0
173
     0
291
     0
 45
0.0
1001
ACAD
1000
AcDbSavedByObjectVersion
1070
     0
  0
VISUALSTYLE
  5
30
102
{ACAD_REACTORS
330
2A
102
}
102
{ACAD_XDICTIONARY
360
282
102
}
330
2A
100
AcDbVisualStyle
  2
3dWireframe
 70
     5
 71
     0
 72
     2
 73
     0
 90
        0
 40
-0.6
 41
-30.0
 62
     5
 63
     7
421
 16777215
 74
     1
 91
        4
 64
     7
 65
   257
 75
     1
175
     1
 42
1.0
 92
        0
 66
   257
 43
1.0
 76
     1
 77
     6
 78
     2
 67
     7
 79
     5
170
     0
171
     0
290
     0
174
     0
 93
        1
 44
0.0
173
     0
291
     0
 45
0.0
1001
ACAD
1000
AcDbSavedByObjectVersion
1070
     0
  0
VISUALSTYLE
  5
32
102
{ACAD_REACTORS
330
2A
102
}
102
{ACAD_XDICTIONARY
360
286
102
}
330
2A
100
AcDbVisualStyle
  2
Basic
 70
     7
 71
     1
 72
     0
 73
     1
 90
        0
 40
-0.6
 41
-30.0
 62
     5
 63
     7
421
 16777215
 74
     0
 91
        4
 64
     7
 65
   257
 75
     1
175
     1
 42
1.0
 92
        8
 66
     7
 43
1.0
 76
     1
 77
     6
 78
     2
 67
     7
 79
     5
170
     0
171
     0
290
     0
174
     0
 93
        1
 44
0.0
173
     0
291
     1
 45
0.0
1001
ACAD
1000
AcDbSavedByObjectVersion
1070
     0
  0
VISUALSTYLE
  5
36
102
{ACAD_REACTORS
330
2A
102
}
102
{ACAD_XDICTIONARY
360
28E
102
}
330
2A
100
AcDbVisualStyle
  2
Brighten
 70
    12
 71
     2
 72
     2
 73
     0
 90
        0
 40
-0.6
 41
-30.0
 62
     5
 63
     7
421
 16777215
 74
     1
 91
        4
 64
     7
 65
   257
 75
     1
175
     1
 42
1.0
 92
        8
 66
     7
 43
1.0
 76
     1
 77
     6
 78
     2
 67
     7
 79
     5
170
     0
171
     0
290
     0
174
     0
 93
        1
 44
50.0
173
     0
291
     1
 45
0.0
1001
ACAD
1000
AcDbSavedByObjectVersion
1070
     0
  0
VISUALSTYLE
  5
3A
102
{ACAD_REACTORS
330
2A
102
}
102
{ACAD_XDICTIONARY
360
296
102
}
330
2A
100
AcDbVisualStyle
  2
ColorChange
 70
    16
 71
     2
 72
     2
 73
     3
 90
        0
 40
-0.6
 41
-30.0
 62
     5
 63
     8
421
  8421504
 74
     1
 91
        4
 64
     7
 65
   257
 75
     1
175
     1
 42
1.0
 92
        8
 66
     8
424
  8421504
 43
1.0
 76
     1
 77
     6
 78
     2
 67
     7
 79
     5
170
     0
171
     0
290
     0
174
     0
 93
        1
 44
0.0
173
     0
291
     1
 45
0.0
1001
ACAD
1000
AcDbSavedByObjectVersion
1070
     0
  0
VISUALSTYLE
  5
34
102
{ACAD_REACTORS
330
2A
102
}
102
{ACAD_XDICTIONARY
360
28A
102
}
330
2A
100
AcDbVisualStyle
  2
Conceptual
 70
     9
 71
     3
 72
     2
 73
     0
 90
        0
 40
-0.6
 41
-30.0
 62
     5
 63
     7
421
 16777215
 74
     2
 91
        2
 64
     7
 65
   257
 75
     1
175
     1
 42
40.0
 92
        8
 66
     7
 43
1.0
 76
     1
 77
     6
 78
     2
 67
     7
 79
     3
170
     0
171
     0
290
     0
174
     0
 93
        1
 44
0.0
173
     0
291
     0
 45
0.0
1001
ACAD
1000
AcDbSavedByObjectVersion
1070
     0
  0
VISUALSTYLE
  5
35
102
{ACAD_REACTORS
330
2A
102
}
102
{ACAD_XDICTIONARY
360
28C
102
}
330
2A
100
AcDbVisualStyle
  2
Dim
 70
    11
 71
     2
 72
     2
 73
     0
 90
        0
 40
-0.6
 41
-30.0
 62
     5
 63
     7
421
 16777215
 74
     1
 91
        4
 64
     7
 65
   257
 75
     1
175
     1
 42
1.0
 92
        8
 66
     7
 43
1.0
 76
     1
 77
     6
 78
     2
 67
     7
 79
     5
170
     0
171
     0
290
     0
174
     0
 93
        1
 44
-50.0
173
     0
291
     1
 45
0.0
1001
ACAD
1000
AcDbSavedByObjectVersion
1070
     0
  0
VISUALSTYLE
  5
39
102
{ACAD_REACTORS
330
2A
102
}
102
{ACAD_XDICTIONARY
360
294
102
}
330
2A
100
AcDbVisualStyle
  2
Facepattern
 70
    15
 71
     2
 72
     2
 73
     0
 90
        0
 40
-0.6
 41
-30.0
 62
     5
 63
     7
421
 16777215
 74
     1
 91
        4
 64
     7
 65
   257
 75
     1
175
     1
 42
1.0
 92
        8
 66
     7
 43
1.0
 76
     1
 77
     6
 78
     2
 67
     7
 79
     5
170
     0
171
     0
290
     0
174
     0
 93
        1
 44
0.0
173
     0
291
     1
 45
0.0
1001
ACAD
1000
AcDbSavedByObjectVersion
1070
     0
  0
VISUALSTYLE
  5
2B
102
{ACAD_REACTORS
330
2A
102
}
102
{ACAD_XDICTIONARY
360
278
102
}
330
2A
100
AcDbVisualStyle
  2
Flat
 70
     0
 71
     2
 72
     1
 73
     1
 90
        2
 40
-0.6
 41
30.0
 62
     5
 63
     7
421
 16777215
 74
     0
 91
        4
 64
     7
 65
   257
 75
     1
175
     1
 42
1.0
 92
        8
 66
     7
 43
1.0
 76
     1
 77
     6
 78
     2
 67
     7
 79
     5
170
     0
171
     0
290
     0
174
     0
 93
       13
 44
0.0
173
     0
291
     1
 45
0.0
1001
ACAD
1000
AcDbSavedByObjectVersion
1070
     0
  0
VISUALSTYLE
  5
2C
102
{ACAD_REACTORS
330
2A
102
}
102
{ACAD_XDICTIONARY
360
27A
102
}
330
2A
100
AcDbVisualStyle
  2
FlatWithEdges
 70
     1
 71
     2
 72
     1
 73
     1
 90
        2
 40
-0.6
 41
30.0
 62
     5
 63
     7
421
 16777215
 74
     1
 91
        4
 64
     7
 65
   257
 75
     1
175
     1
 42
1.0
 92
        0
 66
   257
 43
1.0
 76
     1
 77
     6
 78
     2
 67
     7
 79
     5
170
     0
171
     0
290
     0
174
     0
 93
       13
 44
0.0
173
     0
291
     1
 45
0.0
1001
ACAD
1000
AcDbSavedByObjectVersion
1070
     0
  0
VISUALSTYLE
  5
2D
102
{ACAD_REACTORS
330
2A
102
}
102
{ACAD_XDICTIONARY
360
27C
102
}
330
2A
100
AcDbVisualStyle
  2
Gouraud
 70
     2
 71
     2
 72
     2
 73
     1
 90
        2
 40
-0.6
 41
30.0
 62
     5
 63
     7
421
 16777215
 74
     0
 91
        4
 64
     7
 65
   257
 75
     1
175
     1
 42
1.0
 92
        0
 66
     7
 43
1.0
 76
     1
 77
     6
 78
     2
 67
     7
 79
     5
170
     0
171
     0
290
     0
174
     0
 93
       13
 44
0.0
173
     0
291
     1
 45
0.0
1001
ACAD
1000
AcDbSavedByObjectVersion
1070
     0
  0
VISUALSTYLE
  5
2E
102
{ACAD_REACTORS
330
2A
102
}
102
{ACAD_XDICTIONARY
360
27E
102
}
330
2A
100
AcDbVisualStyle
  2
GouraudWithEdges
 70
     3
 71
     2
 72
     2
 73
     1
 90
        2
 40
-0.6
 41
30.0
 62
     5
 63
     7
421
 16777215
 74
     1
 91
        4
 64
     7
 65
   257
 75
     1
175
     1
 42
1.0
 92
        0
 66
   257
 43
1.0
 76
     1
 77
     6
 78
     2
 67
     7
 79
     5
170
     0
171
     0
290
     0
174
     0
 93
       13
 44
0.0
173
     0
291
     1
 45
0.0
1001
ACAD
1000
AcDbSavedByObjectVersion
1070
     0
  0
VISUALSTYLE
  5
38
102
{ACAD_REACTORS
330
2A
102
}
102
{ACAD_XDICTIONARY
360
292
102
}
330
2A
100
AcDbVisualStyle
  2
Linepattern
 70
    14
 71
     2
 72
     2
 73
     0
 90
        0
 40
-0.6
 41
-30.0
 62
     5
 63
     7
421
 16777215
 74
     1
 91
        4
 64
     7
 65
   257
 75
     7
175
     7
 42
1.0
 92
        8
 66
     7
 43
1.0
 76
     1
 77
     6
 78
     2
 67
     7
 79
     5
170
     0
171
     0
290
     0
174
     0
 93
        1
 44
0.0
173
     0
291
     1
 45
0.0
1001
ACAD
1000
AcDbSavedByObjectVersion
1070
     0
  0
VISUALSTYLE
  5
33
102
{ACAD_REACTORS
330
2A
102
}
102
{ACAD_XDICTIONARY
360
288
102
}
330
2A
100
AcDbVisualStyle
  2
Realistic
 70
     8
 71
     2
 72
     2
 73
     0
 90
        0
 40
-0.6
 41
-30.0
 62
     5
 63
     7
421
 16777215
 74
     1
 91
        0
 64
     7
 65
   257
 75
     1
175
     1
 42
1.0
 92
        8
 66
     8
424
  7895160
 43
1.0
 76
     1
 77
     6
 78
     2
 67
     7
 79
     5
170
     0
171
     0
290
     0
174
     0
 93
       13
 44
0.0
173
     0
291
     0
 45
0.0
1001
ACAD
1000
AcDbSavedByObjectVersion
1070
     0
  0
VISUALSTYLE
  5
37
102
{ACAD_REACTORS
330
2A
102
}
102
{ACAD_XDICTIONARY
360
290
102
}
330
2A
100
AcDbVisualStyle
  2
Thicken
 70
    13
 71
     2
 72
     2
 73
     0
 90
        0
 40
-0.6
 41
-30.0
 62
     5
 63
     7
421
 16777215
 74
     1
 91
        4
 64
     7
 65
   257
 75
     1
175
     1
 42
1.0
 92
       12
 66
     7
 43
1.0
 76
     1
 77
     6
 78
     2
 67
     7
 79
     5
170
     0
171
     0
290
     0
174
     0
 93
        1
 44
0.0
173
     0
291
     1
 45
0.0
1001
ACAD
1000
AcDbSavedByObjectVersion
1070
     0
  0
DICTIONARY
  5
29A
330
3D
100
AcDbDictionary
280
     1
281
     1
  3
ACAD_XREC_ROUNDTRIP
360
29B
  0
DICTIONARY
  5
298
330
3C
100
AcDbDictionary
280
     1
281
     1
  3
ACAD_XREC_ROUNDTRIP
360
299
  0
DICTIONARY
  5
29C
330
3E
100
AcDbDictionary
280
     1
281
     1
  3
ACAD_XREC_ROUNDTRIP
360
29D
  0
DICTIONARY
  5
280
330
2F
100
AcDbDictionary
280
     1
281
     1
  3
ACAD_XREC_ROUNDTRIP
360
281
  0
DICTIONARY
  5
284
330
31
100
AcDbDictionary
280
     1
281
     1
  3
ACAD_XREC_ROUNDTRIP
360
285
  0
DICTIONARY
  5
282
330
30
100
AcDbDictionary
280
     1
281
     1
  3
ACAD_XREC_ROUNDTRIP
360
283
  0
DICTIONARY
  5
286
330
32
100
AcDbDictionary
280
     1
281
     1
  3
ACAD_XREC_ROUNDTRIP
360
287
  0
DICTIONARY
  5
28E
330
36
100
AcDbDictionary
280
     1
281
     1
  3
ACAD_XREC_ROUNDTRIP
360
28F
  0
DICTIONARY
  5
296
330
3A
100
AcDbDictionary
280
     1
281
     1
  3
ACAD_XREC_ROUNDTRIP
360
297
  0
DICTIONARY
  5
28A
330
34
100
AcDbDictionary
280
     1
281
     1
  3
ACAD_XREC_ROUNDTRIP
360
28B
  0
DICTIONARY
  5
28C
330
35
100
AcDbDictionary
280
     1
281
     1
  3
ACAD_XREC_ROUNDTRIP
360
28D
  0
DICTIONARY
  5
294
330
39
100
AcDbDictionary
280
     1
281
     1
  3
ACAD_XREC_ROUNDTRIP
360
295
  0
DICTIONARY
  5
278
330
2B
100
AcDbDictionary
280
     1
281
     1
  3
ACAD_XREC_ROUNDTRIP
360
279
  0
DICTIONARY
  5
27A
330
2C
100
AcDbDictionary
280
     1
281
     1
  3
ACAD_XREC_ROUNDTRIP
360
27B
  0
DICTIONARY
  5
27C
330
2D
100
AcDbDictionary
280
     1
281
     1
  3
ACAD_XREC_ROUNDTRIP
360
27D
  0
DICTIONARY
  5
27E
330
2E
100
AcDbDictionary
280
     1
281
     1
  3
ACAD_XREC_ROUNDTRIP
360
27F
  0
DICTIONARY
  5
292
330
38
100
AcDbDictionary
280
     1
281
     1
  3
ACAD_XREC_ROUNDTRIP
360
293
  0
DICTIONARY
  5
288
330
33
100
AcDbDictionary
280
     1
281
     1
  3
ACAD_XREC_ROUNDTRIP
360
289
  0
DICTIONARY
  5
290
330
37
100
AcDbDictionary
280
     1
281
     1
  3
ACAD_XREC_ROUNDTRIP
360
291
  0
XRECORD
  5
29B
102
{ACAD_REACTORS
330
29A
102
}
330
29A
100
AcDbXrecord
280
     1
102
MATERIAL
148
0.0
149
0.0
149
0.0
 93
        0
 94
      127
282
     0
 72
     1
 77
     1
171
     1
175
     1
179
     1
273
     0
  0
XRECORD
  5
299
102
{ACAD_REACTORS
330
298
102
}
330
298
100
AcDbXrecord
280
     1
102
MATERIAL
148
0.0
149
0.0
149
0.0
 93
        0
 94
      127
282
     0
 72
     1
 77
     1
171
     1
175
     1
179
     1
273
     0
  0
XRECORD
  5
29D
102
{ACAD_REACTORS
330
29C
102
}
330
29C
100
AcDbXrecord
280
     1
102
MATERIAL
148
0.0
149
0.0
149
0.0
 93
        0
 94
      127
282
     0
 72
     1
 77
     1
171
     1
175
     1
179
     1
273
     0
  0
XRECORD
  5
281
102
{ACAD_REACTORS
330
280
102
}
330
280
100
AcDbXrecord
280
     1
102
RTVSPropertyOp0
 70
     1
102
RTVSPropertyOp1
 70
     1
102
RTVSPropertyOp2
 70
     1
102
RTVSPropertyOp3
 70
     1
102
RTVSPropertyOp4
 70
     1
102
RTVSPropertyOp5
 70
     1
102
RTVSPropertyOp6
 70
     1
102
RTVSPropertyOp7
 70
     1
102
RTVSPropertyOp8
 70
     1
102
RTVSPropertyOp9
 70
     1
102
RTVSPropertyOp10
 70
     1
102
RTVSPropertyOp11
 70
     1
102
RTVSPropertyOp12
 70
     1
102
RTVSPropertyOp13
 70
     1
102
RTVSPropertyOp14
 70
     1
102
RTVSPropertyOp15
 70
     1
102
RTVSPropertyOp16
 70
     1
102
RTVSPropertyOp17
 70
     1
102
RTVSPropertyOp18
 70
     1
102
RTVSPropertyOp19
 70
     1
102
RTVSPropertyOp20
 70
     1
102
RTVSPropertyOp21
 70
     1
102
RTVSPropertyOp22
 70
     1
102
RTVSPropertyOp23
 70
     1
102
RTVSPropertyOp24
 70
     1
102
RTVSPropertyOp25
 70
     1
102
RTVSPropertyOp26
 70
     1
102
RTVSPropertyOp27
 70
     1
102
RTVSPropertyOp28
 70
     1
102
RTVSPropertyOp29
 70
     1
102
RTVSPropertyOp30
 70
     1
102
RTVSPropertyOp31
 70
     1
102
RTVSPropertyOp32
 70
     1
  0
XRECORD
  5
285
102
{ACAD_REACTORS
330
284
102
}
330
284
100
AcDbXrecord
280
     1
102
RTVSPropertyOp0
 70
     1
102
RTVSPropertyOp1
 70
     1
102
RTVSPropertyOp2
 70
     1
102
RTVSPropertyOp3
 70
     1
102
RTVSPropertyOp4
 70
     1
102
RTVSPropertyOp5
 70
     1
102
RTVSPropertyOp6
 70
     1
102
RTVSPropertyOp7
 70
     1
102
RTVSPropertyOp8
 70
     1
102
RTVSPropertyOp9
 70
     1
102
RTVSPropertyOp10
 70
     1
102
RTVSPropertyOp11
 70
     1
102
RTVSPropertyOp12
 70
     1
102
RTVSPropertyOp13
 70
     1
102
RTVSPropertyOp14
 70
     1
102
RTVSPropertyOp15
 70
     1
102
RTVSPropertyOp16
 70
     1
102
RTVSPropertyOp17
 70
     1
102
RTVSPropertyOp18
 70
     1
102
RTVSPropertyOp19
 70
     1
102
RTVSPropertyOp20
 70
     1
102
RTVSPropertyOp21
 70
     1
102
RTVSPropertyOp22
 70
     1
102
RTVSPropertyOp23
 70
     1
102
RTVSPropertyOp24
 70
     1
102
RTVSPropertyOp25
 70
     1
102
RTVSPropertyOp26
 70
     1
102
RTVSPropertyOp27
 70
     1
102
RTVSPropertyOp28
 70
     1
102
RTVSPropertyOp29
 70
     1
102
RTVSPropertyOp30
 70
     1
102
RTVSPropertyOp31
 70
     1
102
RTVSPropertyOp32
 70
     1
  0
XRECORD
  5
283
102
{ACAD_REACTORS
330
282
102
}
330
282
100
AcDbXrecord
280
     1
102
RTVSPropertyOp0
 70
     1
102
RTVSPropertyOp1
 70
     1
102
RTVSPropertyOp2
 70
     1
102
RTVSPropertyOp3
 70
     1
102
RTVSPropertyOp4
 70
     1
102
RTVSPropertyOp5
 70
     1
102
RTVSPropertyOp6
 70
     1
102
RTVSPropertyOp7
 70
     1
102
RTVSPropertyOp8
 70
     1
102
RTVSPropertyOp9
 70
     1
102
RTVSPropertyOp10
 70
     1
102
RTVSPropertyOp11
 70
     1
102
RTVSPropertyOp12
 70
     1
102
RTVSPropertyOp13
 70
     1
102
RTVSPropertyOp14
 70
     1
102
RTVSPropertyOp15
 70
     1
102
RTVSPropertyOp16
 70
     1
102
RTVSPropertyOp17
 70
     1
102
RTVSPropertyOp18
 70
     1
102
RTVSPropertyOp19
 70
     1
102
RTVSPropertyOp20
 70
     1
102
RTVSPropertyOp21
 70
     1
102
RTVSPropertyOp22
 70
     1
102
RTVSPropertyOp23
 70
     1
102
RTVSPropertyOp24
 70
     1
102
RTVSPropertyOp25
 70
     1
102
RTVSPropertyOp26
 70
     1
102
RTVSPropertyOp27
 70
     1
102
RTVSPropertyOp28
 70
     1
102
RTVSPropertyOp29
 70
     1
102
RTVSPropertyOp30
 70
     1
102
RTVSPropertyOp31
 70
     1
102
RTVSPropertyOp32
 70
     1
  0
XRECORD
  5
287
102
{ACAD_REACTORS
330
286
102
}
330
286
100
AcDbXrecord
280
     1
102
RTVSPropertyOp0
 70
     1
102
RTVSPropertyOp1
 70
     1
102
RTVSPropertyOp2
 70
     1
102
RTVSPropertyOp3
 70
     1
102
RTVSPropertyOp4
 70
     1
102
RTVSPropertyOp5
 70
     1
102
RTVSPropertyOp6
 70
     1
102
RTVSPropertyOp7
 70
     1
102
RTVSPropertyOp8
 70
     1
102
RTVSPropertyOp9
 70
     1
102
RTVSPropertyOp10
 70
     1
102
RTVSPropertyOp11
 70
     1
102
RTVSPropertyOp12
 70
     1
102
RTVSPropertyOp13
 70
     1
102
RTVSPropertyOp14
 70
     1
102
RTVSPropertyOp15
 70
     1
102
RTVSPropertyOp16
 70
     1
102
RTVSPropertyOp17
 70
     1
102
RTVSPropertyOp18
 70
     1
102
RTVSPropertyOp19
 70
     1
102
RTVSPropertyOp20
 70
     1
102
RTVSPropertyOp21
 70
     1
102
RTVSPropertyOp22
 70
     1
102
RTVSPropertyOp23
 70
     1
102
RTVSPropertyOp24
 70
     1
102
RTVSPropertyOp25
 70
     1
102
RTVSPropertyOp26
 70
     1
102
RTVSPropertyOp27
 70
     1
102
RTVSPropertyOp28
 70
     1
102
RTVSPropertyOp29
 70
     1
102
RTVSPropertyOp30
 70
     1
102
RTVSPropertyOp31
 70
     1
102
RTVSPropertyOp32
 70
     1
  0
XRECORD
  5
28F
102
{ACAD_REACTORS
330
28E
102
}
330
28E
100
AcDbXrecord
280
     1
102
RTVSPropertyOp0
 70
     1
102
RTVSPropertyOp1
 70
     1
102
RTVSPropertyOp2
 70
     1
102
RTVSPropertyOp3
 70
     1
102
RTVSPropertyOp4
 70
     1
102
RTVSPropertyOp5
 70
     1
102
RTVSPropertyOp6
 70
     1
102
RTVSPropertyOp7
 70
     1
102
RTVSPropertyOp8
 70
     1
102
RTVSPropertyOp9
 70
     1
102
RTVSPropertyOp10
 70
     1
102
RTVSPropertyOp11
 70
     1
102
RTVSPropertyOp12
 70
     1
102
RTVSPropertyOp13
 70
     1
102
RTVSPropertyOp14
 70
     1
102
RTVSPropertyOp15
 70
     1
102
RTVSPropertyOp16
 70
     1
102
RTVSPropertyOp17
 70
     1
102
RTVSPropertyOp18
 70
     1
102
RTVSPropertyOp19
 70
     1
102
RTVSPropertyOp20
 70
     1
102
RTVSPropertyOp21
 70
     1
102
RTVSPropertyOp22
 70
     1
102
RTVSPropertyOp23
 70
     1
102
RTVSPropertyOp24
 70
     1
102
RTVSPropertyOp25
 70
     1
102
RTVSPropertyOp26
 70
     1
102
RTVSPropertyOp27
 70
     1
102
RTVSPropertyOp28
 70
     1
102
RTVSPropertyOp29
 70
     1
102
RTVSPropertyOp30
 70
     1
102
RTVSPropertyOp31
 70
     1
102
RTVSPropertyOp32
 70
     1
  0
XRECORD
  5
297
102
{ACAD_REACTORS
330
296
102
}
330
296
100
AcDbXrecord
280
     1
102
RTVSPropertyOp0
 70
     1
102
RTVSPropertyOp1
 70
     1
102
RTVSPropertyOp2
 70
     1
102
RTVSPropertyOp3
 70
     1
102
RTVSPropertyOp4
 70
     1
102
RTVSPropertyOp5
 70
     1
102
RTVSPropertyOp6
 70
     1
102
RTVSPropertyOp7
 70
     1
102
RTVSPropertyOp8
 70
     1
102
RTVSPropertyOp9
 70
     1
102
RTVSPropertyOp10
 70
     1
102
RTVSPropertyOp11
 70
     1
102
RTVSPropertyOp12
 70
     1
102
RTVSPropertyOp13
 70
     1
102
RTVSPropertyOp14
 70
     1
102
RTVSPropertyOp15
 70
     1
102
RTVSPropertyOp16
 70
     1
102
RTVSPropertyOp17
 70
     1
102
RTVSPropertyOp18
 70
     1
102
RTVSPropertyOp19
 70
     1
102
RTVSPropertyOp20
 70
     1
102
RTVSPropertyOp21
 70
     1
102
RTVSPropertyOp22
 70
     1
102
RTVSPropertyOp23
 70
     1
102
RTVSPropertyOp24
 70
     1
102
RTVSPropertyOp25
 70
     1
102
RTVSPropertyOp26
 70
     1
102
RTVSPropertyOp27
 70
     1
102
RTVSPropertyOp28
 70
     1
102
RTVSPropertyOp29
 70
     1
102
RTVSPropertyOp30
 70
     1
102
RTVSPropertyOp31
 70
     1
102
RTVSPropertyOp32
 70
     1
  0
XRECORD
  5
28B
102
{ACAD_REACTORS
330
28A
102
}
330
28A
100
AcDbXrecord
280
     1
102
RTVSPropertyOp0
 70
     1
102
RTVSPropertyOp1
 70
     1
102
RTVSPropertyOp2
 70
     1
102
RTVSPropertyOp3
 70
     1
102
RTVSPropertyOp4
 70
     1
102
RTVSPropertyOp5
 70
     1
102
RTVSPropertyOp6
 70
     1
102
RTVSPropertyOp7
 70
     1
102
RTVSPropertyOp8
 70
     1
102
RTVSPropertyOp9
 70
     1
102
RTVSPropertyOp10
 70
     1
102
RTVSPropertyOp11
 70
     1
102
RTVSPropertyOp12
 70
     1
102
RTVSPropertyOp13
 70
     1
102
RTVSPropertyOp14
 70
     1
102
RTVSPropertyOp15
 70
     1
102
RTVSPropertyOp16
 70
     1
102
RTVSPropertyOp17
 70
     1
102
RTVSPropertyOp18
 70
     1
102
RTVSPropertyOp19
 70
     1
102
RTVSPropertyOp20
 70
     1
102
RTVSPropertyOp21
 70
     1
102
RTVSPropertyOp22
 70
     1
102
RTVSPropertyOp23
 70
     1
102
RTVSPropertyOp24
 70
     1
102
RTVSPropertyOp25
 70
     1
102
RTVSPropertyOp26
 70
     1
102
RTVSPropertyOp27
 70
     1
102
RTVSPropertyOp28
 70
     1
102
RTVSPropertyOp29
 70
     1
102
RTVSPropertyOp30
 70
     1
102
RTVSPropertyOp31
 70
     1
102
RTVSPropertyOp32
 70
     1
  0
XRECORD
  5
28D
102
{ACAD_REACTORS
330
28C
102
}
330
28C
100
AcDbXrecord
280
     1
102
RTVSPropertyOp0
 70
     1
102
RTVSPropertyOp1
 70
     1
102
RTVSPropertyOp2
 70
     1
102
RTVSPropertyOp3
 70
     1
102
RTVSPropertyOp4
 70
     1
102
RTVSPropertyOp5
 70
     1
102
RTVSPropertyOp6
 70
     1
102
RTVSPropertyOp7
 70
     1
102
RTVSPropertyOp8
 70
     1
102
RTVSPropertyOp9
 70
     1
102
RTVSPropertyOp10
 70
     1
102
RTVSPropertyOp11
 70
     1
102
RTVSPropertyOp12
 70
     1
102
RTVSPropertyOp13
 70
     1
102
RTVSPropertyOp14
 70
     1
102
RTVSPropertyOp15
 70
     1
102
RTVSPropertyOp16
 70
     1
102
RTVSPropertyOp17
 70
     1
102
RTVSPropertyOp18
 70
     1
102
RTVSPropertyOp19
 70
     1
102
RTVSPropertyOp20
 70
     1
102
RTVSPropertyOp21
 70
     1
102
RTVSPropertyOp22
 70
     1
102
RTVSPropertyOp23
 70
     1
102
RTVSPropertyOp24
 70
     1
102
RTVSPropertyOp25
 70
     1
102
RTVSPropertyOp26
 70
     1
102
RTVSPropertyOp27
 70
     1
102
RTVSPropertyOp28
 70
     1
102
RTVSPropertyOp29
 70
     1
102
RTVSPropertyOp30
 70
     1
102
RTVSPropertyOp31
 70
     1
102
RTVSPropertyOp32
 70
     1
  0
XRECORD
  5
295
102
{ACAD_REACTORS
330
294
102
}
330
294
100
AcDbXrecord
280
     1
102
RTVSPropertyOp0
 70
     1
102
RTVSPropertyOp1
 70
     1
102
RTVSPropertyOp2
 70
     1
102
RTVSPropertyOp3
 70
     1
102
RTVSPropertyOp4
 70
     1
102
RTVSPropertyOp5
 70
     1
102
RTVSPropertyOp6
 70
     1
102
RTVSPropertyOp7
 70
     1
102
RTVSPropertyOp8
 70
     1
102
RTVSPropertyOp9
 70
     1
102
RTVSPropertyOp10
 70
     1
102
RTVSPropertyOp11
 70
     1
102
RTVSPropertyOp12
 70
     1
102
RTVSPropertyOp13
 70
     1
102
RTVSPropertyOp14
 70
     1
102
RTVSPropertyOp15
 70
     1
102
RTVSPropertyOp16
 70
     1
102
RTVSPropertyOp17
 70
     1
102
RTVSPropertyOp18
 70
     1
102
RTVSPropertyOp19
 70
     1
102
RTVSPropertyOp20
 70
     1
102
RTVSPropertyOp21
 70
     1
102
RTVSPropertyOp22
 70
     1
102
RTVSPropertyOp23
 70
     1
102
RTVSPropertyOp24
 70
     1
102
RTVSPropertyOp25
 70
     1
102
RTVSPropertyOp26
 70
     1
102
RTVSPropertyOp27
 70
     1
102
RTVSPropertyOp28
 70
     1
102
RTVSPropertyOp29
 70
     1
102
RTVSPropertyOp30
 70
     1
102
RTVSPropertyOp31
 70
     1
102
RTVSPropertyOp32
 70
     1
  0
XRECORD
  5
279
102
{ACAD_REACTORS
330
278
102
}
330
278
100
AcDbXrecord
280
     1
102
RTVSPropertyOp0
 70
     1
102
RTVSPropertyOp1
 70
     1
102
RTVSPropertyOp2
 70
     1
102
RTVSPropertyOp3
 70
     1
102
RTVSPropertyOp4
 70
     1
102
RTVSPropertyOp5
 70
     1
102
RTVSPropertyOp6
 70
     1
102
RTVSPropertyOp7
 70
     1
102
RTVSPropertyOp8
 70
     1
102
RTVSPropertyOp9
 70
     1
102
RTVSPropertyOp10
 70
     1
102
RTVSPropertyOp11
 70
     1
102
RTVSPropertyOp12
 70
     1
102
RTVSPropertyOp13
 70
     1
102
RTVSPropertyOp14
 70
     1
102
RTVSPropertyOp15
 70
     1
102
RTVSPropertyOp16
 70
     1
102
RTVSPropertyOp17
 70
     1
102
RTVSPropertyOp18
 70
     1
102
RTVSPropertyOp19
 70
     1
102
RTVSPropertyOp20
 70
     1
102
RTVSPropertyOp21
 70
     1
102
RTVSPropertyOp22
 70
     1
102
RTVSPropertyOp23
 70
     1
102
RTVSPropertyOp24
 70
     1
102
RTVSPropertyOp25
 70
     1
102
RTVSPropertyOp26
 70
     1
102
RTVSPropertyOp27
 70
     1
102
RTVSPropertyOp28
 70
     1
102
RTVSPropertyOp29
 70
     1
102
RTVSPropertyOp30
 70
     1
102
RTVSPropertyOp31
 70
     1
102
RTVSPropertyOp32
 70
     1
  0
XRECORD
  5
27B
102
{ACAD_REACTORS
330
27A
102
}
330
27A
100
AcDbXrecord
280
     1
102
RTVSPropertyOp0
 70
     1
102
RTVSPropertyOp1
 70
     1
102
RTVSPropertyOp2
 70
     1
102
RTVSPropertyOp3
 70
     1
102
RTVSPropertyOp4
 70
     1
102
RTVSPropertyOp5
 70
     1
102
RTVSPropertyOp6
 70
     1
102
RTVSPropertyOp7
 70
     1
102
RTVSPropertyOp8
 70
     1
102
RTVSPropertyOp9
 70
     1
102
RTVSPropertyOp10
 70
     1
102
RTVSPropertyOp11
 70
     1
102
RTVSPropertyOp12
 70
     1
102
RTVSPropertyOp13
 70
     1
102
RTVSPropertyOp14
 70
     1
102
RTVSPropertyOp15
 70
     1
102
RTVSPropertyOp16
 70
     1
102
RTVSPropertyOp17
 70
     1
102
RTVSPropertyOp18
 70
     1
102
RTVSPropertyOp19
 70
     1
102
RTVSPropertyOp20
 70
     1
102
RTVSPropertyOp21
 70
     1
102
RTVSPropertyOp22
 70
     1
102
RTVSPropertyOp23
 70
     1
102
RTVSPropertyOp24
 70
     1
102
RTVSPropertyOp25
 70
     1
102
RTVSPropertyOp26
 70
     1
102
RTVSPropertyOp27
 70
     1
102
RTVSPropertyOp28
 70
     1
102
RTVSPropertyOp29
 70
     1
102
RTVSPropertyOp30
 70
     1
102
RTVSPropertyOp31
 70
     1
102
RTVSPropertyOp32
 70
     1
  0
XRECORD
  5
27D
102
{ACAD_REACTORS
330
27C
102
}
330
27C
100
AcDbXrecord
280
     1
102
RTVSPropertyOp0
 70
     1
102
RTVSPropertyOp1
 70
     1
102
RTVSPropertyOp2
 70
     1
102
RTVSPropertyOp3
 70
     1
102
RTVSPropertyOp4
 70
     1
102
RTVSPropertyOp5
 70
     1
102
RTVSPropertyOp6
 70
     1
102
RTVSPropertyOp7
 70
     1
102
RTVSPropertyOp8
 70
     1
102
RTVSPropertyOp9
 70
     1
102
RTVSPropertyOp10
 70
     1
102
RTVSPropertyOp11
 70
     1
102
RTVSPropertyOp12
 70
     1
102
RTVSPropertyOp13
 70
     1
102
RTVSPropertyOp14
 70
     1
102
RTVSPropertyOp15
 70
     1
102
RTVSPropertyOp16
 70
     1
102
RTVSPropertyOp17
 70
     1
102
RTVSPropertyOp18
 70
     1
102
RTVSPropertyOp19
 70
     1
102
RTVSPropertyOp20
 70
     1
102
RTVSPropertyOp21
 70
     1
102
RTVSPropertyOp22
 70
     1
102
RTVSPropertyOp23
 70
     1
102
RTVSPropertyOp24
 70
     1
102
RTVSPropertyOp25
 70
     1
102
RTVSPropertyOp26
 70
     1
102
RTVSPropertyOp27
 70
     1
102
RTVSPropertyOp28
 70
     1
102
RTVSPropertyOp29
 70
     1
102
RTVSPropertyOp30
 70
     1
102
RTVSPropertyOp31
 70
     1
102
RTVSPropertyOp32
 70
     1
  0
XRECORD
  5
27F
102
{ACAD_REACTORS
330
27E
102
}
330
27E
100
AcDbXrecord
280
     1
102
RTVSPropertyOp0
 70
     1
102
RTVSPropertyOp1
 70
     1
102
RTVSPropertyOp2
 70
     1
102
RTVSPropertyOp3
 70
     1
102
RTVSPropertyOp4
 70
     1
102
RTVSPropertyOp5
 70
     1
102
RTVSPropertyOp6
 70
     1
102
RTVSPropertyOp7
 70
     1
102
RTVSPropertyOp8
 70
     1
102
RTVSPropertyOp9
 70
     1
102
RTVSPropertyOp10
 70
     1
102
RTVSPropertyOp11
 70
     1
102
RTVSPropertyOp12
 70
     1
102
RTVSPropertyOp13
 70
     1
102
RTVSPropertyOp14
 70
     1
102
RTVSPropertyOp15
 70
     1
102
RTVSPropertyOp16
 70
     1
102
RTVSPropertyOp17
 70
     1
102
RTVSPropertyOp18
 70
     1
102
RTVSPropertyOp19
 70
     1
102
RTVSPropertyOp20
 70
     1
102
RTVSPropertyOp21
 70
     1
102
RTVSPropertyOp22
 70
     1
102
RTVSPropertyOp23
 70
     1
102
RTVSPropertyOp24
 70
     1
102
RTVSPropertyOp25
 70
     1
102
RTVSPropertyOp26
 70
     1
102
RTVSPropertyOp27
 70
     1
102
RTVSPropertyOp28
 70
     1
102
RTVSPropertyOp29
 70
     1
102
RTVSPropertyOp30
 70
     1
102
RTVSPropertyOp31
 70
     1
102
RTVSPropertyOp32
 70
     1
  0
XRECORD
  5
293
102
{ACAD_REACTORS
330
292
102
}
330
292
100
AcDbXrecord
280
     1
102
RTVSPropertyOp0
 70
     1
102
RTVSPropertyOp1
 70
     1
102
RTVSPropertyOp2
 70
     1
102
RTVSPropertyOp3
 70
     1
102
RTVSPropertyOp4
 70
     1
102
RTVSPropertyOp5
 70
     1
102
RTVSPropertyOp6
 70
     1
102
RTVSPropertyOp7
 70
     1
102
RTVSPropertyOp8
 70
     1
102
RTVSPropertyOp9
 70
     1
102
RTVSPropertyOp10
 70
     1
102
RTVSPropertyOp11
 70
     1
102
RTVSPropertyOp12
 70
     1
102
RTVSPropertyOp13
 70
     1
102
RTVSPropertyOp14
 70
     1
102
RTVSPropertyOp15
 70
     1
102
RTVSPropertyOp16
 70
     1
102
RTVSPropertyOp17
 70
     1
102
RTVSPropertyOp18
 70
     1
102
RTVSPropertyOp19
 70
     1
102
RTVSPropertyOp20
 70
     1
102
RTVSPropertyOp21
 70
     1
102
RTVSPropertyOp22
 70
     1
102
RTVSPropertyOp23
 70
     1
102
RTVSPropertyOp24
 70
     1
102
RTVSPropertyOp25
 70
     1
102
RTVSPropertyOp26
 70
     1
102
RTVSPropertyOp27
 70
     1
102
RTVSPropertyOp28
 70
     1
102
RTVSPropertyOp29
 70
     1
102
RTVSPropertyOp30
 70
     1
102
RTVSPropertyOp31
 70
     1
102
RTVSPropertyOp32
 70
     1
  0
XRECORD
  5
289
102
{ACAD_REACTORS
330
288
102
}
330
288
100
AcDbXrecord
280
     1
102
RTVSPropertyOp0
 70
     1
102
RTVSPropertyOp1
 70
     1
102
RTVSPropertyOp2
 70
     1
102
RTVSPropertyOp3
 70
     1
102
RTVSPropertyOp4
 70
     1
102
RTVSPropertyOp5
 70
     1
102
RTVSPropertyOp6
 70
     1
102
RTVSPropertyOp7
 70
     1
102
RTVSPropertyOp8
 70
     1
102
RTVSPropertyOp9
 70
     1
102
RTVSPropertyOp10
 70
     1
102
RTVSPropertyOp11
 70
     1
102
RTVSPropertyOp12
 70
     1
102
RTVSPropertyOp13
 70
     1
102
RTVSPropertyOp14
 70
     1
102
RTVSPropertyOp15
 70
     1
102
RTVSPropertyOp16
 70
     1
102
RTVSPropertyOp17
 70
     1
102
RTVSPropertyOp18
 70
     1
102
RTVSPropertyOp19
 70
     1
102
RTVSPropertyOp20
 70
     1
102
RTVSPropertyOp21
 70
     1
102
RTVSPropertyOp22
 70
     1
102
RTVSPropertyOp23
 70
     1
102
RTVSPropertyOp24
 70
     1
102
RTVSPropertyOp25
 70
     1
102
RTVSPropertyOp26
 70
     1
102
RTVSPropertyOp27
 70
     1
102
RTVSPropertyOp28
 70
     1
102
RTVSPropertyOp29
 70
     1
102
RTVSPropertyOp30
 70
     1
102
RTVSPropertyOp31
 70
     1
102
RTVSPropertyOp32
 70
     1
  0
XRECORD
  5
291
102
{ACAD_REACTORS
330
290
102
}
330
290
100
AcDbXrecord
280
     1
102
RTVSPropertyOp0
 70
     1
102
RTVSPropertyOp1
 70
     1
102
RTVSPropertyOp2
 70
     1
102
RTVSPropertyOp3
 70
     1
102
RTVSPropertyOp4
 70
     1
102
RTVSPropertyOp5
 70
     1
102
RTVSPropertyOp6
 70
     1
102
RTVSPropertyOp7
 70
     1
102
RTVSPropertyOp8
 70
     1
102
RTVSPropertyOp9
 70
     1
102
RTVSPropertyOp10
 70
     1
102
RTVSPropertyOp11
 70
     1
102
RTVSPropertyOp12
 70
     1
102
RTVSPropertyOp13
 70
     1
102
RTVSPropertyOp14
 70
     1
102
RTVSPropertyOp15
 70
     1
102
RTVSPropertyOp16
 70
     1
102
RTVSPropertyOp17
 70
     1
102
RTVSPropertyOp18
 70
     1
102
RTVSPropertyOp19
 70
     1
102
RTVSPropertyOp20
 70
     1
102
RTVSPropertyOp21
 70
     1
102
RTVSPropertyOp22
 70
     1
102
RTVSPropertyOp23
 70
     1
102
RTVSPropertyOp24
 70
     1
102
RTVSPropertyOp25
 70
     1
102
RTVSPropertyOp26
 70
     1
102
RTVSPropertyOp27
 70
     1
102
RTVSPropertyOp28
 70
     1
102
RTVSPropertyOp29
 70
     1
102
RTVSPropertyOp30
 70
     1
102
RTVSPropertyOp31
 70
     1
102
RTVSPropertyOp32
 70
     1
  0
ENDSEC
  0
EOF
