  0
SECTION
  2
HEADER
  9
$ACADVER
  1
AC1018
  9
$ACADMAINTVER
 70
     0
  9
$DWGCODEPAGE
  3
ANSI_1252
  9
$INSBASE
 10
0.0
 20
0.0
 30
0.0
  9
$EXTMIN
 10
-1155.710120320359
 20
-1121.69405196787
 30
0.0
  9
$EXTMAX
 10
-858.710120320361
 20
-911.6940519678699
 30
0.0
  9
$LIMMIN
 10
0.0
 20
0.0
  9
$LIMMAX
 10
12.0
 20
9.0
  9
$ORTHOMODE
 70
     0
  9
$REGENMODE
 70
     1
  9
$FILLMODE
 70
     1
  9
$QTEXTMODE
 70
     0
  9
$MIRRTEXT
 70
     1
  9
$LTSCALE
 40
1.0
  9
$ATTMODE
 70
     1
  9
$TEXTSIZE
 40
0.2
  9
$TRACEWID
 40
0.05
  9
$TEXTSTYLE
  7
Standard
  9
$CLAYER
  8
0
  9
$CELTYPE
  6
ByLayer
  9
$CECOLOR
 62
   256
  9
$CELTSCALE
 40
1.0
  9
$DISPSILH
 70
     0
  9
$DIMSCALE
 40
1.0
  9
$DIMASZ
 40
0.18
  9
$DIMEXO
 40
0.0625
  9
$DIMDLI
 40
0.38
  9
$DIMRND
 40
0.0
  9
$DIMDLE
 40
0.0
  9
$DIMEXE
 40
0.18
  9
$DIMTP
 40
0.0
  9
$DIMTM
 40
0.0
  9
$DIMTXT
 40
0.18
  9
$DIMCEN
 40
0.09
  9
$DIMTSZ
 40
0.0
  9
$DIMTOL
 70
     0
  9
$DIMLIM
 70
     0
  9
$DIMTIH
 70
     1
  9
$DIMTOH
 70
     1
  9
$DIMSE1
 70
     0
  9
$DIMSE2
 70
     0
  9
$DIMTAD
 70
     0
  9
$DIMZIN
 70
     0
  9
$DIMBLK
  1

  9
$DIMASO
 70
     1
  9
$DIMSHO
 70
     1
  9
$DIMPOST
  1

  9
$DIMAPOST
  1

  9
$DIMALT
 70
     0
  9
$DIMALTD
 70
     2
  9
$DIMALTF
 40
25.4
  9
$DIMLFAC
 40
1.0
  9
$DIMTOFL
 70
     0
  9
$DIMTVP
 40
0.0
  9
$DIMTIX
 70
     0
  9
$DIMSOXD
 70
     0
  9
$DIMSAH
 70
     0
  9
$DIMBLK1
  1

  9
$DIMBLK2
  1

  9
$DIMSTYLE
  2
Standard
  9
$DIMCLRD
 70
     0
  9
$DIMCLRE
 70
     0
  9
$DIMCLRT
 70
     0
  9
$DIMTFAC
 40
1.0
  9
$DIMGAP
 40
0.09
  9
$DIMJUST
 70
     0
  9
$DIMSD1
 70
     0
  9
$DIMSD2
 70
     0
  9
$DIMTOLJ
 70
     1
  9
$DIMTZIN
 70
     0
  9
$DIMALTZ
 70
     0
  9
$DIMALTTZ
 70
     0
  9
$DIMUPT
 70
     0
  9
$DIMDEC
 70
     4
  9
$DIMTDEC
 70
     4
  9
$DIMALTU
 70
     2
  9
$DIMALTTD
 70
     2
  9
$DIMTXSTY
  7
Standard
  9
$DIMAUNIT
 70
     0
  9
$DIMADEC
 70
     0
  9
$DIMALTRND
 40
0.0
  9
$DIMAZIN
 70
     0
  9
$DIMDSEP
 70
    46
  9
$DIMATFIT
 70
     3
  9
$DIMFRAC
 70
     0
  9
$DIMLDRBLK
  1

  9
$DIMLUNIT
 70
     2
  9
$DIMLWD
 70
    -2
  9
$DIMLWE
 70
    -2
  9
$DIMTMOVE
 70
     0
  9
$LUNITS
 70
     2
  9
$LUPREC
 70
     4
  9
$SKETCHINC
 40
0.1
  9
$FILLETRAD
 40
0.5
  9
$AUNITS
 70
     0
  9
$AUPREC
 70
     0
  9
$MENU
  1
.
  9
$ELEVATION
 40
0.0
  9
$PELEVATION
 40
0.0
  9
$THICKNESS
 40
0.0
  9
$LIMCHECK
 70
     0
  9
$CHAMFERA
 40
0.5
  9
$CHAMFERB
 40
0.5
  9
$CHAMFERC
 40
1.0
  9
$CHAMFERD
 40
0.0
  9
$SKPOLY
 70
     0
  9
$TDCREATE
 40
2458058.424488901
  9
$TDUCREATE
 40
2458058.382822234
  9
$TDUPDATE
 40
2458058.424489445
  9
$TDUUPDATE
 40
2458058.382822778
  9
$TDINDWG
 40
0.0000000116
  9
$TDUSRTIMER
 40
0.0000000116
  9
$USRTIMER
 70
     1
  9
$ANGBASE
 50
0.0
  9
$ANGDIR
 70
     0
  9
$PDMODE
 70
     0
  9
$PDSIZE
 40
0.0
  9
$PLINEWID
 40
0.0
  9
$SPLFRAME
 70
     0
  9
$SPLINETYPE
 70
     6
  9
$SPLINESEGS
 70
     8
  9
$HANDSEED
  5
2D4
  9
$SURFTAB1
 70
     6
  9
$SURFTAB2
 70
     6
  9
$SURFTYPE
 70
     6
  9
$SURFU
 70
     6
  9
$SURFV
 70
     6
  9
$UCSBASE
  2

  9
$UCSNAME
  2

  9
$UCSORG
 10
0.0
 20
0.0
 30
0.0
  9
$UCSXDIR
 10
1.0
 20
0.0
 30
0.0
  9
$UCSYDIR
 10
0.0
 20
1.0
 30
0.0
  9
$UCSORTHOREF
  2

  9
$UCSORTHOVIEW
 70
     0
  9
$UCSORGTOP
 10
0.0
 20
0.0
 30
0.0
  9
$UCSORGBOTTOM
 10
0.0
 20
0.0
 30
0.0
  9
$UCSORGLEFT
 10
0.0
 20
0.0
 30
0.0
  9
$UCSORGRIGHT
 10
0.0
 20
0.0
 30
0.0
  9
$UCSORGFRONT
 10
0.0
 20
0.0
 30
0.0
  9
$UCSORGBACK
 10
0.0
 20
0.0
 30
0.0
  9
$PUCSBASE
  2

  9
$PUCSNAME
  2

  9
$PUCSORG
 10
0.0
 20
0.0
 30
0.0
  9
$PUCSXDIR
 10
1.0
 20
0.0
 30
0.0
  9
$PUCSYDIR
 10
0.0
 20
1.0
 30
0.0
  9
$PUCSORTHOREF
  2

  9
$PUCSORTHOVIEW
 70
     0
  9
$PUCSORGTOP
 10
0.0
 20
0.0
 30
0.0
  9
$PUCSORGBOTTOM
 10
0.0
 20
0.0
 30
0.0
  9
$PUCSORGLEFT
 10
0.0
 20
0.0
 30
0.0
  9
$PUCSORGRIGHT
 10
0.0
 20
0.0
 30
0.0
  9
$PUCSORGFRONT
 10
0.0
 20
0.0
 30
0.0
  9
$PUCSORGBACK
 10
0.0
 20
0.0
 30
0.0
  9
$USERI1
 70
     0
  9
$USERI2
 70
     0
  9
$USERI3
 70
     0
  9
$USERI4
 70
     0
  9
$USERI5
 70
     0
  9
$USERR1
 40
18.1
  9
$USERR2
 40
0.0
  9
$USERR3
 40
0.0
  9
$USERR4
 40
0.0
  9
$USERR5
 40
0.0
  9
$WORLDVIEW
 70
     1
  9
$SHADEDGE
 70
     3
  9
$SHADEDIF
 70
    70
  9
$TILEMODE
 70
     1
  9
$MAXACTVP
 70
    64
  9
$PINSBASE
 10
0.0
 20
0.0
 30
0.0
  9
$PLIMCHECK
 70
     0
  9
$PEXTMIN
 10
1.00000000000000E+20
 20
1.00000000000000E+20
 30
1.00000000000000E+20
  9
$PEXTMAX
 10
-1.00000000000000E+20
 20
-1.00000000000000E+20
 30
-1.00000000000000E+20
  9
$PLIMMIN
 10
0.0
 20
0.0
  9
$PLIMMAX
 10
12.0
 20
9.0
  9
$UNITMODE
 70
     0
  9
$VISRETAIN
 70
     1
  9
$PLINEGEN
 70
     0
  9
$PSLTSCALE
 70
     1
  9
$TREEDEPTH
 70
  3020
  9
$CMLSTYLE
  2
Standard
  9
$CMLJUST
 70
     0
  9
$CMLSCALE
 40
1.0
  9
$PROXYGRAPHICS
 70
     1
  9
$MEASUREMENT
 70
     1
  9
$CELWEIGHT
370
    -1
  9
$ENDCAPS
280
     0
  9
$JOINSTYLE
280
     0
  9
$LWDISPLAY
290
     0
  9
$INSUNITS
 70
     4
  9
$HYPERLINKBASE
  1

  9
$STYLESHEET
  1

  9
$XEDIT
290
     1
  9
$CEPSNTYPE
380
     0
  9
$PSTYLEMODE
290
     1
  9
$FINGERPRINTGUID
  2
{927CFF8D-5A58-4090-8043-64659B4B96BE}
  9
$VERSIONGUID
  2
{FAEB1C32-E019-11D5-929B-00C0DF256EC4}
  9
$EXTNAMES
290
     1
  9
$PSVPSCALE
 40
0.0
  9
$OLESTARTUP
290
     0
  9
$SORTENTS
280
   127
  9
$INDEXCTL
280
     0
  9
$HIDETEXT
280
     1
  9
$XCLIPFRAME
290
     0
  9
$HALOGAP
280
     0
  9
$OBSCOLOR
 70
   257
  9
$OBSLTYPE
280
     0
  9
$INTERSECTIONDISPLAY
280
     0
  9
$INTERSECTIONCOLOR
 70
   257
  9
$DIMASSOC
280
     2
  9
$PROJECTNAME
  1

  0
ENDSEC
  0
SECTION
  2
CLASSES
  0
CLASS
  1
ACDBDICTIONARYWDFLT
  2
AcDbDictionaryWithDefault
  3
ObjectDBX Classes
 90
        0
 91
        4
280
     0
281
     0
  0
CLASS
  1
VISUALSTYLE
  2
AcDbVisualStyle
  3
ObjectDBX Classes
 90
     4095
 91
        4
280
     0
281
     0
  0
CLASS
  1
MATERIAL
  2
AcDbMaterial
  3
ObjectDBX Classes
 90
     1153
 91
        4
280
     0
281
     0
  0
ENDSEC
  0
SECTION
  2
TABLES
  0
TABLE
  2
VPORT
  5
8
330
0
100
AcDbSymbolTable
 70
     1
  0
VPORT
  5
29
330
8
100
AcDbSymbolTableRecord
100
AcDbViewportTableRecord
  2
*Active
 70
     0
 10
0.0
 20
0.0
 11
1.0
 21
1.0
 12
-1007.21012032036
 22
-1016.69405196787
 13
0.0
 23
0.0
 14
0.5
 24
0.5
 15
0.5
 25
0.5
 16
0.0
 26
0.0
 36
1.0
 17
0.0
 27
0.0
 37
0.0
 40
231.0000000000003
 41
1.60267857142857
 42
50.0
 43
0.0
 44
0.0
 50
0.0
 51
0.0
 71
     0
 72
   100
 73
     1
 74
     3
 75
     0
 76
     0
 77
     0
 78
     0
281
     0
 65
     1
110
0.0
120
0.0
130
0.0
111
1.0
121
0.0
131
0.0
112
0.0
122
1.0
132
0.0
 79
     0
146
0.0
  0
ENDTAB
  0
TABLE
  2
LTYPE
  5
5
330
0
100
AcDbSymbolTable
 70
     8
  0
LTYPE
  5
14
330
5
100
AcDbSymbolTableRecord
100
AcDbLinetypeTableRecord
  2
ByBlock
 70
     0
  3

 72
    65
 73
     0
 40
0.0
  0
LTYPE
  5
15
330
5
100
AcDbSymbolTableRecord
100
AcDbLinetypeTableRecord
  2
ByLayer
 70
     0
  3

 72
    65
 73
     0
 40
0.0
  0
LTYPE
  5
16
330
5
100
AcDbSymbolTableRecord
100
AcDbLinetypeTableRecord
  2
Continuous
 70
     0
  3
Solid line
 72
    65
 73
     0
 40
0.0
  0
LTYPE
  5
3F
330
5
100
AcDbSymbolTableRecord
100
AcDbLinetypeTableRecord
  2
DASHED
 70
     0
  3
Dashed
 72
    65
 73
     2
 40
15.0
 49
7.0
 74
     0
 49
-8.0
 74
     0
  0
LTYPE
  5
40
330
5
100
AcDbSymbolTableRecord
100
AcDbLinetypeTableRecord
  2
DOTTED
 70
     0
  3
Dotted
 72
    65
 73
     2
 40
1.0
 49
0.0
 74
     0
 49
-1.0
 74
     0
  0
LTYPE
  5
41
330
5
100
AcDbSymbolTableRecord
100
AcDbLinetypeTableRecord
  2
DOT_CENTER
 70
     0
  3
Dot_Center
 72
    65
 73
     4
 40
14.0
 49
12.0
 74
     0
 49
-1.0
 74
     0
 49
0.0
 74
     0
 49
-1.0
 74
     0
  0
LTYPE
  5
42
330
5
100
AcDbSymbolTableRecord
100
AcDbLinetypeTableRecord
  2
LONG_DASHED
 70
     0
  3
Long_Dashed
 72
    65
 73
     2
 40
15.0
 49
10.0
 74
     0
 49
-5.0
 74
     0
  0
LTYPE
  5
43
330
5
100
AcDbSymbolTableRecord
100
AcDbLinetypeTableRecord
  2
DASH_CENTER
 70
     0
  3
Dash_Center
 72
    65
 73
     4
 40
14.0
 49
11.0
 74
     0
 49
-1.0
 74
     0
 49
1.0
 74
     0
 49
-1.0
 74
     0
  0
LTYPE
  5
44
330
5
100
AcDbSymbolTableRecord
100
AcDbLinetypeTableRecord
  2
PHANTOM
 70
     0
  3
Phantom
 72
    65
 73
     6
 40
13.0
 49
10.0
 74
     0
 49
-1.0
 74
     0
 49
0.0
 74
     0
 49
-1.0
 74
     0
 49
0.0
 74
     0
 49
-1.0
 74
     0
  0
LTYPE
  5
45
330
5
100
AcDbSymbolTableRecord
100
AcDbLinetypeTableRecord
  2
CENTER_DASH_DASH
 70
     0
  3
Center_Dash_Dash
 72
    65
 73
     6
 40
14.0
 49
9.0
 74
     0
 49
-1.0
 74
     0
 49
1.0
 74
     0
 49
-1.0
 74
     0
 49
1.0
 74
     0
 49
-1.0
 74
     0
  0
ENDTAB
  0
TABLE
  2
LAYER
  5
2
330
0
100
AcDbSymbolTable
 70
     2
  0
LAYER
  5
10
330
2
100
AcDbSymbolTableRecord
100
AcDbLayerTableRecord
  2
0
 70
     0
 62
     7
  6
Continuous
370
    -3
390
F
  0
LAYER
  5
46
330
2
100
AcDbSymbolTableRecord
100
AcDbLayerTableRecord
  2
1
 70
     0
 62
     7
  6
Continuous
370
    -3
390
F
  0
ENDTAB
  0
TABLE
  2
STYLE
  5
3
330
0
100
AcDbSymbolTable
 70
     5
  0
STYLE
  5
11
330
3
100
AcDbSymbolTableRecord
100
AcDbTextStyleTableRecord
  2
Standard
 70
     0
 40
0.0
 41
1.0
 50
0.0
 71
     0
 42
0.2
  3
txt
  4

  0
STYLE
  5
BD
330
3
100
AcDbSymbolTableRecord
100
AcDbTextStyleTableRecord
  2
CONVERTER_11
 70
     0
 40
0.0
 41
0.9
 50
0.0
 71
     0
 42
0.2
  3
txt.shx
  4

  0
STYLE
  5
26A
330
3
100
AcDbSymbolTableRecord
100
AcDbTextStyleTableRecord
  2
CONVERTER_12
 70
     0
 40
0.0
 41
0.81
 50
0.0
 71
     0
 42
0.2
  3
txt.shx
  4

  0
STYLE
  5
270
330
3
100
AcDbSymbolTableRecord
100
AcDbTextStyleTableRecord
  2
CONVERTER_13
 70
     0
 40
0.0
 41
0.855
 50
0.0
 71
     0
 42
0.2
  3
txt.shx
  4

  0
STYLE
  5
273
330
3
100
AcDbSymbolTableRecord
100
AcDbTextStyleTableRecord
  2
CONVERTER_14
 70
     0
 40
0.0
 41
0.72
 50
0.0
 71
     0
 42
0.2
  3
txt.shx
  4

  0
ENDTAB
  0
TABLE
  2
VIEW
  5
6
330
0
100
AcDbSymbolTable
 70
     0
  0
ENDTAB
  0
TABLE
  2
UCS
  5
7
330
0
100
AcDbSymbolTable
 70
     0
  0
ENDTAB
  0
TABLE
  2
APPID
  5
9
330
0
100
AcDbSymbolTable
 70
     1
  0
APPID
  5
12
330
9
100
AcDbSymbolTableRecord
100
AcDbRegAppTableRecord
  2
ACAD
 70
     0
  0
ENDTAB
  0
TABLE
  2
DIMSTYLE
  5
A
330
0
100
AcDbSymbolTable
 70
     4
100
AcDbDimStyleTable
  0
DIMSTYLE
105
27
330
A
100
AcDbSymbolTableRecord
100
AcDbDimStyleTableRecord
  2
Standard
 70
     0
178
     0
340
11
  0
DIMSTYLE
105
E4
102
{ACAD_REACTORS
330
E5
102
}
330
A
100
AcDbSymbolTableRecord
100
AcDbDimStyleTableRecord
  2
ME10_DIM_10
 70
     0
 41
3.5
 42
0.0
 44
1.5
 73
     0
 74
     0
 77
     1
 78
     8
140
3.5
147
1.5
172
     1
173
     1
174
     1
175
     1
176
     2
177
     2
271
     2
178
     3
271
     2
340
BD
  0
DIMSTYLE
105
166
102
{ACAD_REACTORS
330
167
102
}
330
A
100
AcDbSymbolTableRecord
100
AcDbDimStyleTableRecord
  2
ME10_DIM_11
 70
     0
 41
3.5
 42
0.0
 44
1.5
 73
     0
 74
     0
 77
     1
 78
     8
140
3.5
147
1.5
172
     1
173
     1
174
     1
175
     1
176
     2
177
     2
271
     1
178
     3
271
     1
340
BD
  0
DIMSTYLE
105
171
102
{ACAD_REACTORS
330
172
102
}
330
A
100
AcDbSymbolTableRecord
100
AcDbDimStyleTableRecord
  2
ME10_DIM_12
 70
     0
 41
3.5
 42
0.0
 44
1.5
 73
     0
 74
     0
 77
     1
 78
     8
140
3.5
147
1.5
172
     1
173
     1
174
     1
175
     1
176
     2
177
     2
271
     2
178
     3
271
     2
340
BD
  0
ENDTAB
  0
TABLE
  2
BLOCK_RECORD
  5
1
330
0
100
AcDbSymbolTable
 70
    20
  0
BLOCK_RECORD
  5
1F
330
1
100
AcDbSymbolTableRecord
100
AcDbBlockTableRecord
  2
*Model_Space
340
22
  0
BLOCK_RECORD
  5
1B
330
1
100
AcDbSymbolTableRecord
100
AcDbBlockTableRecord
  2
*Paper_Space
340
1E
  0
BLOCK_RECORD
  5
23
330
1
100
AcDbSymbolTableRecord
100
AcDbBlockTableRecord
  2
*Paper_Space0
340
26
  0
BLOCK_RECORD
  5
47
330
1
100
AcDbSymbolTableRecord
100
AcDbBlockTableRecord
  2
D_PTTBS_4-select__1
340
0
102
{BLKREFS
331
4B
102
}
  0
BLOCK_RECORD
  5
4A
330
1
100
AcDbSymbolTableRecord
100
AcDbBlockTableRecord
  2
Allg1
340
0
102
{BLKREFS
331
7D
102
}
  0
BLOCK_RECORD
  5
4E
330
1
100
AcDbSymbolTableRecord
100
AcDbBlockTableRecord
  2
D_PTTBS_4-select__2
340
0
102
{BLKREFS
331
52
102
}
  0
BLOCK_RECORD
  5
51
330
1
100
AcDbSymbolTableRecord
100
AcDbBlockTableRecord
  2
Drfsicht1
340
0
102
{BLKREFS
331
7E
102
}
  0
BLOCK_RECORD
  5
55
330
1
100
AcDbSymbolTableRecord
100
AcDbBlockTableRecord
  2
D_PTTBS_4-select__3
340
0
102
{BLKREFS
331
59
102
}
  0
BLOCK_RECORD
  5
58
330
1
100
AcDbSymbolTableRecord
100
AcDbBlockTableRecord
  2
Rckans1
340
0
102
{BLKREFS
331
7F
102
}
  0
BLOCK_RECORD
  5
5C
330
1
100
AcDbSymbolTableRecord
100
AcDbBlockTableRecord
  2
D_PTTBS_4-select__4
340
0
102
{BLKREFS
331
60
102
}
  0
BLOCK_RECORD
  5
5F
330
1
100
AcDbSymbolTableRecord
100
AcDbBlockTableRecord
  2
SA_Links1
340
0
102
{BLKREFS
331
80
102
}
  0
BLOCK_RECORD
  5
63
330
1
100
AcDbSymbolTableRecord
100
AcDbBlockTableRecord
  2
D_PTTBS_4-select__5
340
0
102
{BLKREFS
331
67
102
}
  0
BLOCK_RECORD
  5
66
330
1
100
AcDbSymbolTableRecord
100
AcDbBlockTableRecord
  2
SA_Rechts1
340
0
102
{BLKREFS
331
81
102
}
  0
BLOCK_RECORD
  5
6A
330
1
100
AcDbSymbolTableRecord
100
AcDbBlockTableRecord
  2
D_PTTBS_4-select__6
340
0
102
{BLKREFS
331
6E
102
}
  0
BLOCK_RECORD
  5
6D
330
1
100
AcDbSymbolTableRecord
100
AcDbBlockTableRecord
  2
Vordans1
340
0
102
{BLKREFS
331
82
102
}
  0
BLOCK_RECORD
  5
71
330
1
100
AcDbSymbolTableRecord
100
AcDbBlockTableRecord
  2
_rahmen
340
0
102
{BLKREFS
331
78
102
}
  0
BLOCK_RECORD
  5
74
330
1
100
AcDbSymbolTableRecord
100
AcDbBlockTableRecord
  2
_punkt
340
0
102
{BLKREFS
331
79
102
}
  0
BLOCK_RECORD
  5
77
330
1
100
AcDbSymbolTableRecord
100
AcDbBlockTableRecord
  2
A4I_CS
340
0
102
{BLKREFS
331
83
102
}
  0
BLOCK_RECORD
  5
7C
330
1
100
AcDbSymbolTableRecord
100
AcDbBlockTableRecord
  2
1
340
0
102
{BLKREFS
331
86
102
}
  0
BLOCK_RECORD
  5
D9
330
1
100
AcDbSymbolTableRecord
100
AcDbBlockTableRecord
  2
*D17
340
0
  0
BLOCK_RECORD
  5
15D
330
1
100
AcDbSymbolTableRecord
100
AcDbBlockTableRecord
  2
*D18
340
0
  0
BLOCK_RECORD
  5
168
330
1
100
AcDbSymbolTableRecord
100
AcDbBlockTableRecord
  2
*D19
340
0
  0
ENDTAB
  0
ENDSEC
  0
SECTION
  2
BLOCKS
  0
BLOCK
  5
20
330
1F
100
AcDbEntity
  8
0
100
AcDbBlockBegin
  2
*Model_Space
 70
     0
 10
0.0
 20
0.0
 30
0.0
  3
*Model_Space
  1

  0
ENDBLK
  5
21
330
1F
100
AcDbEntity
  8
0
100
AcDbBlockEnd
  0
BLOCK
  5
1C
330
1B
100
AcDbEntity
 67
     1
  8
0
100
AcDbBlockBegin
  2
*Paper_Space
 70
     0
 10
0.0
 20
0.0
 30
0.0
  3
*Paper_Space
  1

  0
ENDBLK
  5
1D
330
1B
100
AcDbEntity
 67
     1
  8
0
100
AcDbBlockEnd
  0
BLOCK
  5
24
330
23
100
AcDbEntity
  8
0
100
AcDbBlockBegin
  2
*Paper_Space0
 70
     0
 10
0.0
 20
0.0
 30
0.0
  3
*Paper_Space0
  1

  0
ENDBLK
  5
25
330
23
100
AcDbEntity
  8
0
100
AcDbBlockEnd
  0
BLOCK
  5
48
330
47
100
AcDbEntity
  8
0
100
AcDbBlockBegin
  2
D_PTTBS_4-select__1
 70
     0
 10
-961.1272891163944
 20
-1080.996298959918
 30
0.0
  3
D_PTTBS_4-select__1
  1

  0
LINE
  5
87
330
47
100
AcDbEntity
  8
0
  6
Continuous
 62
     7
100
AcDbLine
 10
-926.8759837794776
 20
-1028.837850714717
 30
0.0
 11
-934.2634354245032
 21
-1026.705277116735
 31
0.0
  0
LINE
  5
88
330
47
100
AcDbEntity
  8
0
  6
Continuous
 62
     7
100
AcDbLine
 10
-925.7759837794764
 20
-1026.038000837109
 30
0.0
 11
-926.8759837794764
 21
-1026.99062878127
 31
0.0
  0
LINE
  5
89
330
47
100
AcDbEntity
  8
0
  6
Continuous
 62
     7
100
AcDbLine
 10
-960.0272891163944
 20
-1038.414181895284
 30
0.0
 11
-961.1272891163944
 21
-1039.366809839445
 31
0.0
  0
LINE
  5
8A
330
47
100
AcDbEntity
  8
0
  6
Continuous
 62
     7
100
AcDbLine
 10
-946.8056790170542
 20
-1037.418659445192
 30
0.0
 11
-960.0272891163944
 21
-1038.414181895284
 31
0.0
  0
LINE
  5
8B
330
47
100
AcDbEntity
  8
0
  6
Continuous
 62
     7
100
AcDbLine
 10
-961.1272891163944
 20
-1039.366809839445
 30
0.0
 11
-946.8056790170598
 21
-1038.288462779728
 31
0.0
  0
LINE
  5
8C
330
47
100
AcDbEntity
  8
0
  6
Continuous
 62
     7
100
AcDbLine
 10
-946.8056790170598
 20
-1038.288462779728
 30
0.0
 11
-946.8056790169984
 21
-1028.51945040739
 31
0.0
  0
LINE
  5
8D
330
47
100
AcDbEntity
  8
0
  6
Continuous
 62
     7
100
AcDbLine
 10
-946.8056790169984
 20
-1028.51945040739
 30
0.0
 11
-935.3634354245032
 21
-1027.657905060896
 31
0.0
  0
LINE
  5
8E
330
47
100
AcDbEntity
  8
0
  6
Continuous
 62
     7
100
AcDbLine
 10
-935.3634354245032
 20
-1027.657905060896
 30
0.0
 11
-926.8759837794784
 21
-1030.108021306938
 31
0.0
  0
LINE
  5
8F
330
47
100
AcDbEntity
  8
0
  6
Continuous
 62
     7
100
AcDbLine
 10
-961.1272888824168
 20
-1051.932652320438
 30
0.0
 11
-961.1272888824171
 21
-1050.547011674286
 31
0.0
  0
LINE
  5
90
330
47
100
AcDbEntity
  8
0
  6
Continuous
 62
     7
100
AcDbLine
 10
-961.1272891163935
 20
-1042.752782228717
 30
0.0
 11
-961.1272891163944
 21
-1039.366809839445
 31
0.0
  0
LINE
  5
91
330
47
100
AcDbEntity
  8
0
  6
Continuous
 62
     7
100
AcDbLine
 10
-926.8759837794764
 20
-1026.99062878127
 30
0.0
 11
-917.1674106078231
 21
-1029.793252448321
 31
0.0
  0
LINE
  5
92
330
47
100
AcDbEntity
  8
0
  6
Continuous
 62
     7
100
AcDbLine
 10
-916.0674106078231
 20
-1028.84062450416
 30
0.0
 11
-917.1674106078231
 21
-1029.793252448321
 31
0.0
  0
LINE
  5
93
330
47
100
AcDbEntity
  8
0
  6
Continuous
 62
     7
100
AcDbLine
 10
-916.0674106078231
 20
-1028.84062450416
 30
0.0
 11
-925.7759837794764
 21
-1026.038000837109
 31
0.0
  0
LINE
  5
94
330
47
100
AcDbEntity
  8
0
  6
Continuous
 62
     7
100
AcDbLine
 10
-883.647890773083
 20
-1080.996298959918
 30
0.0
 11
-889.7152744229811
 21
-1080.492172937981
 31
0.0
  0
LINE
  5
95
330
47
100
AcDbEntity
  8
0
  6
Continuous
 62
     7
100
AcDbLine
 10
-882.5478907730829
 20
-1080.043671015757
 30
0.0
 11
-883.647890773083
 21
-1080.996298959918
 31
0.0
  0
LINE
  5
96
330
47
100
AcDbEntity
  8
0
  6
Continuous
 62
     7
100
AcDbLine
 10
-878.4028758912722
 20
-1070.26414144929
 30
0.0
 11
-879.5028758912721
 21
-1071.216769393451
 31
0.0
  0
LINE
  5
97
330
47
100
AcDbEntity
  8
0
  6
Continuous
 62
     7
100
AcDbLine
 10
-879.5028758912721
 20
-1071.216769393451
 30
0.0
 11
-877.9727090593095
 21
-1065.947830146733
 31
0.0
  0
LINE
  5
98
330
47
100
AcDbEntity
  8
0
  6
Continuous
 62
     7
100
AcDbLine
 10
-877.0513418804613
 20
-1064.27696858471
 30
0.0
 11
-878.1513418804614
 21
-1065.229596528871
 31
0.0
  0
LINE
  5
99
330
47
100
AcDbEntity
  8
0
  6
Continuous
 62
     7
100
AcDbLine
 10
-877.0513418804613
 20
-1064.27696858471
 30
0.0
 11
-898.5599185092386
 21
-1050.239495799646
 31
0.0
  0
LINE
  5
9A
330
47
100
AcDbEntity
  8
0
  6
Continuous
 62
     7
100
AcDbLine
 10
-879.7104781447487
 20
-1073.479276858943
 30
0.0
 11
-880.8104781447487
 21
-1074.431904803104
 31
0.0
  0
LINE
  5
9B
330
47
100
AcDbEntity
  8
0
  6
Continuous
 62
     7
100
AcDbLine
 10
-882.244392836231
 20
-1079.297429594916
 30
0.0
 11
-883.344392836231
 21
-1080.250057539077
 31
0.0
  0
LINE
  5
9C
330
47
100
AcDbEntity
  8
0
  6
Continuous
 62
     7
100
AcDbLine
 10
-882.244392836231
 20
-1079.297429594916
 30
0.0
 11
-882.5478907730829
 21
-1080.043671015757
 31
0.0
  0
LINE
  5
9D
330
47
100
AcDbEntity
  8
0
  6
Continuous
 62
     7
100
AcDbLine
 10
-883.344392836231
 20
-1080.250057539077
 30
0.0
 11
-883.647890773083
 21
-1080.996298959918
 31
0.0
  0
LINE
  5
9E
330
47
100
AcDbEntity
  8
0
  6
Continuous
 62
     7
100
AcDbLine
 10
-876.8727090593095
 20
-1064.995202202572
 30
0.0
 11
-877.9727090593095
 21
-1065.947830146733
 31
0.0
  0
LINE
  5
9F
330
47
100
AcDbEntity
  8
0
  6
Continuous
 62
     7
100
AcDbLine
 10
-880.8104781447487
 20
-1074.431904803104
 30
0.0
 11
-879.5028758912721
 21
-1071.216769393451
 31
0.0
  0
LINE
  5
A0
330
47
100
AcDbEntity
  8
0
  6
Continuous
 62
     7
100
AcDbLine
 10
-878.4028758912722
 20
-1070.26414144929
 30
0.0
 11
-876.8727090593095
 21
-1064.995202202572
 31
0.0
  0
LINE
  5
A1
330
47
100
AcDbEntity
  8
0
  6
Continuous
 62
     7
100
AcDbLine
 10
-879.7104781447487
 20
-1073.479276858943
 30
0.0
 11
-878.4028758912722
 21
-1070.26414144929
 31
0.0
  0
LINE
  5
A2
330
47
100
AcDbEntity
  8
0
  6
Continuous
 62
     7
100
AcDbLine
 10
-876.8727090593095
 20
-1064.995202202572
 30
0.0
 11
-877.0513418804613
 21
-1064.27696858471
 31
0.0
  0
LINE
  5
A3
330
47
100
AcDbEntity
  8
0
  6
Continuous
 62
     7
100
AcDbLine
 10
-958.0997669750457
 20
-1052.806622614518
 30
0.0
 11
-961.1272888824168
 21
-1051.932652320438
 31
0.0
  0
LINE
  5
A4
330
47
100
AcDbEntity
  8
0
  6
Continuous
 62
     7
100
AcDbLine
 10
-899.6599185092387
 20
-1051.192123743807
 30
0.0
 11
-898.6624914457439
 21
-1048.73964780113
 31
0.0
  0
LINE
  5
A5
330
47
100
AcDbEntity
  8
0
  6
Continuous
 62
     7
100
AcDbLine
 10
-896.2109575114341
 20
-1041.799846684367
 30
0.0
 11
-897.310957511434
 21
-1042.752474628528
 31
0.0
  0
LINE
  5
A6
330
47
100
AcDbEntity
  8
0
  6
Continuous
 62
     7
100
AcDbLine
 10
-889.7152744229811
 20
-1080.492172937981
 30
0.0
 11
-895.8819364223048
 21
-1076.467529542732
 31
0.0
  0
LINE
  5
A7
330
47
100
AcDbEntity
  8
0
  6
Continuous
 62
     7
100
AcDbLine
 10
-898.6624914457439
 20
-1048.73964780113
 30
0.0
 11
-897.1323246137234
 21
-1043.470708554213
 31
0.0
  0
LINE
  5
A8
330
47
100
AcDbEntity
  8
0
  6
Continuous
 62
     7
100
AcDbLine
 10
-897.1323246137234
 20
-1043.470708554213
 30
0.0
 11
-897.310957511434
 21
-1042.752474628528
 31
0.0
  0
LINE
  5
A9
330
47
100
AcDbEntity
  8
0
  6
Continuous
 62
     7
100
AcDbLine
 10
-917.1674106078231
 20
-1029.793252448321
 30
0.0
 11
-897.310957511434
 21
-1042.752474628528
 31
0.0
  0
LINE
  5
AA
330
47
100
AcDbEntity
  8
0
  6
Continuous
 62
     7
100
AcDbLine
 10
-958.0095974617113
 20
-1058.53281863012
 30
0.0
 11
-958.0095974617097
 21
-1055.127619669717
 31
0.0
  0
LINE
  5
AB
330
47
100
AcDbEntity
  8
0
  6
Continuous
 62
     7
100
AcDbLine
 10
-934.2634354245032
 20
-1026.705277116735
 30
0.0
 11
-935.3634354245032
 21
-1027.657905060896
 31
0.0
  0
LINE
  5
AC
330
47
100
AcDbEntity
  8
0
  6
Continuous
 62
     7
100
AcDbLine
 10
-934.2634354245032
 20
-1026.705277116735
 30
0.0
 11
-945.7056790169983
 21
-1027.566822463229
 31
0.0
  0
LINE
  5
AD
330
47
100
AcDbEntity
  8
0
  6
Continuous
 62
     7
100
AcDbLine
 10
-896.0323246137233
 20
-1042.518080610052
 30
0.0
 11
-896.2109575114341
 21
-1041.799846684367
 31
0.0
  0
LINE
  5
AE
330
47
100
AcDbEntity
  8
0
  6
Continuous
 62
     7
100
AcDbLine
 10
-897.5624914457438
 20
-1047.787019856969
 30
0.0
 11
-898.6624914457439
 21
-1048.73964780113
 31
0.0
  0
LINE
  5
AF
330
47
100
AcDbEntity
  8
0
  6
Continuous
 62
     7
100
AcDbLine
 10
-898.5599185092386
 20
-1050.239495799646
 30
0.0
 11
-897.5624914457438
 21
-1047.787019856969
 31
0.0
  0
LINE
  5
B0
330
47
100
AcDbEntity
  8
0
  6
Continuous
 62
     7
100
AcDbLine
 10
-896.0323246137233
 20
-1042.518080610052
 30
0.0
 11
-897.1323246137234
 21
-1043.470708554213
 31
0.0
  0
LINE
  5
B1
330
47
100
AcDbEntity
  8
0
  6
Continuous
 62
     7
100
AcDbLine
 10
-897.5624914457438
 20
-1047.787019856969
 30
0.0
 11
-896.0323246137233
 21
-1042.518080610052
 31
0.0
  0
LINE
  5
B2
330
47
100
AcDbEntity
  8
0
  6
Continuous
 62
     7
100
AcDbLine
 10
-899.6599185092387
 20
-1051.192123743807
 30
0.0
 11
-898.5599185092386
 21
-1050.239495799646
 31
0.0
  0
LINE
  5
B3
330
47
100
AcDbEntity
  8
0
  6
Continuous
 62
     7
100
AcDbLine
 10
-877.9727090593095
 20
-1065.947830146733
 30
0.0
 11
-878.1513418804614
 21
-1065.229596528871
 31
0.0
  0
LINE
  5
B4
330
47
100
AcDbEntity
  8
0
  6
Continuous
 62
     7
100
AcDbLine
 10
-899.6599185092387
 20
-1051.192123743807
 30
0.0
 11
-878.1513418804614
 21
-1065.229596528871
 31
0.0
  0
LINE
  5
B5
330
47
100
AcDbEntity
  8
0
  6
Continuous
 62
     7
100
AcDbLine
 10
-896.2109575114341
 20
-1041.799846684367
 30
0.0
 11
-916.0674106078231
 21
-1028.84062450416
 31
0.0
  0
LINE
  5
B6
330
47
100
AcDbEntity
  8
0
  6
Continuous
 62
     7
100
AcDbLine
 10
-926.8759837794784
 20
-1030.108021306938
 30
0.0
 11
-926.8759837794764
 21
-1026.99062878127
 31
0.0
  0
LINE
  5
B7
330
47
100
AcDbEntity
  8
0
  6
Continuous
 62
     7
100
AcDbLine
 10
-958.0095974617097
 20
-1055.127619669717
 30
0.0
 11
-958.0997669750457
 21
-1052.806622614518
 31
0.0
  0
LINE
  5
B8
330
47
100
AcDbEntity
  8
0
  6
Continuous
 62
     7
100
AcDbLine
 10
-945.7056790169983
 20
-1027.566822463229
 30
0.0
 11
-946.8056790169984
 21
-1028.51945040739
 31
0.0
  0
LINE
  5
B9
330
47
100
AcDbEntity
  8
0
  6
Continuous
 62
     7
100
AcDbLine
 10
-895.8819364223048
 20
-1076.467529542732
 30
0.0
 11
-958.0095974617113
 21
-1058.53281863012
 31
0.0
  0
SPLINE
  5
BA
330
47
100
AcDbEntity
  8
0
  6
Continuous
 62
     7
100
AcDbSpline
210
0.0
220
0.0
230
1.0
 70
     8
 71
     3
 72
    11
 73
     7
 74
     5
 42
0.000000001
 43
0.0000000001
 44
0.00000001
 40
0.0
 40
0.0
 40
0.0
 40
0.0
 40
2.103260871604208
 40
4.123694953434054
 40
6.057513901379084
 40
7.90893618280304
 40
7.90893618280304
 40
7.90893618280304
 40
7.90893618280304
 10
-961.1272891163935
 20
-1042.752782228717
 30
0.0
 10
-960.9572231343782
 20
-1043.434268490501
 30
0.0
 10
-960.6237884136713
 20
-1044.770403966009
 30
0.0
 10
-960.4858273210432
 20
-1046.792752394767
 30
0.0
 10
-960.6071605498653
 20
-1048.736395645767
 30
0.0
 10
-960.9564471762716
 20
-1049.952295518994
 30
0.0
 10
-961.1272888824171
 20
-1050.547011674286
 30
0.0
 11
-961.1272891163935
 21
-1042.752782228717
 31
0.0
 11
-960.679399933809
 21
-1044.807800860055
 31
0.0
 11
-960.5289415570503
 21
-1046.822624961996
 31
0.0
 11
-960.6793998154499
 21
-1048.750581922814
 31
0.0
 11
-961.1272888824171
 21
-1050.547011674286
 31
0.0
  0
SPLINE
  5
BB
330
47
100
AcDbEntity
  8
0
  6
Continuous
 62
     7
100
AcDbSpline
210
0.0
220
0.0
230
1.0
 70
     8
 71
     3
 72
    11
 73
     7
 74
     5
 42
0.000000001
 43
0.0000000001
 44
0.00000001
 40
0.0
 40
0.0
 40
0.0
 40
0.0
 40
1.549902014634503
 40
3.132164298295634
 40
4.764109872190035
 40
6.458035510772897
 40
6.458035510772897
 40
6.458035510772897
 40
6.458035510772897
 10
-880.8104781447487
 20
-1074.431904803104
 30
0.0
 10
-881.1481692554811
 20
-1074.824890291002
 30
0.0
 10
-881.8306020884331
 20
-1075.619066385707
 30
0.0
 10
-882.5713097594829
 20
-1077.036425165571
 30
0.0
 10
-883.1128691174515
 20
-1078.589057910315
 30
0.0
 10
-883.2662653840217
 20
-1079.689554804621
 30
0.0
 10
-883.344392836231
 20
-1080.250057539077
 30
0.0
 11
-880.8104781447487
 21
-1074.431904803104
 31
0.0
 11
-881.7756923035753
 21
-1075.644570414911
 31
0.0
 11
-882.5284275167184
 21
-1077.036311640466
 31
0.0
 11
-883.0546074456339
 21
-1078.581103226319
 31
0.0
 11
-883.344392836231
 21
-1080.250057539077
 31
0.0
  0
SPLINE
  5
BC
330
47
100
AcDbEntity
  8
0
  6
Continuous
 62
     7
100
AcDbSpline
210
0.0
220
0.0
230
1.0
 70
     8
 71
     3
 72
    11
 73
     7
 74
     5
 42
0.000000001
 43
0.0000000001
 44
0.00000001
 40
0.0
 40
0.0
 40
0.0
 40
0.0
 40
1.549902014634858
 40
3.13216429829599
 40
4.764109872190139
 40
6.458035510772795
 40
6.458035510772795
 40
6.458035510772795
 40
6.458035510772795
 10
-879.7104781447487
 20
-1073.479276858943
 30
0.0
 10
-880.0481692554811
 20
-1073.872262346841
 30
0.0
 10
-880.7306020884328
 20
-1074.666438441546
 30
0.0
 10
-881.4713097594833
 20
-1076.08379722141
 30
0.0
 10
-882.0128691174508
 20
-1077.636429966154
 30
0.0
 10
-882.166265384022
 20
-1078.73692686046
 30
0.0
 10
-882.244392836231
 20
-1079.297429594916
 30
0.0
 11
-879.7104781447487
 21
-1073.479276858943
 31
0.0
 11
-880.6756923035753
 21
-1074.691942470751
 31
0.0
 11
-881.4284275167183
 21
-1076.083683696305
 31
0.0
 11
-881.9546074456338
 21
-1077.628475282158
 31
0.0
 11
-882.244392836231
 21
-1079.297429594916
 31
0.0
  0
ENDBLK
  5
49
330
47
100
AcDbEntity
  8
0
100
AcDbBlockEnd
  0
BLOCK
  5
4C
330
4A
100
AcDbEntity
  8
0
100
AcDbBlockBegin
  2
Allg1
 70
     0
 10
-919.0
 20
-1050.0
 30
0.0
  3
Allg1
  1

  0
INSERT
  5
4B
330
4A
100
AcDbEntity
  8
0
100
AcDbBlockReference
  2
D_PTTBS_4-select__1
 10
-961.1272891163944
 20
-1080.996298959918
 30
0.0
  0
MTEXT
  5
BE
330
4A
100
AcDbEntity
  8
1
 62
     6
100
AcDbMText
 10
-919.733401653743
 20
-1106.477947035103
 30
0.0
 40
5.0
 41
0.0
 71
     2
 72
     1
  1
 
  7
CONVERTER_11
 73
     1
 44
1.32052821128451
  0
ENDBLK
  5
4D
330
4A
100
AcDbEntity
  8
0
100
AcDbBlockEnd
  0
BLOCK
  5
4F
330
4E
100
AcDbEntity
  8
0
100
AcDbBlockBegin
  2
D_PTTBS_4-select__2
 70
     0
 10
-1103.502024140814
 20
-1024.844997976163
 30
0.0
  3
D_PTTBS_4-select__2
  1

  0
LINE
  5
BF
330
4E
100
AcDbEntity
  8
0
  6
Continuous
 62
     7
100
AcDbLine
 10
-1086.964853248659
 20
-1024.844997976153
 30
0.0
 11
-1073.752488412077
 21
-1024.844997976136
 31
0.0
  0
LINE
  5
C0
330
4E
100
AcDbEntity
  8
0
  6
Continuous
 62
     7
100
AcDbLine
 10
-1063.952023428099
 20
-1024.844997976132
 30
0.0
 11
-1052.741528759897
 21
-1024.844997976132
 31
0.0
  0
LINE
  5
C1
330
4E
100
AcDbEntity
  8
0
  6
Continuous
 62
     7
100
AcDbLine
 10
-1073.752488412077
 20
-1024.844997976136
 30
0.0
 11
-1063.952023428099
 21
-1024.844997976132
 31
0.0
  0
LINE
  5
C2
330
4E
100
AcDbEntity
  8
0
  6
Continuous
 62
     7
100
AcDbLine
 10
-1052.741528759897
 20
-1022.644997976132
 30
0.0
 11
-1052.741528759897
 21
-1024.844997976132
 31
0.0
  0
LINE
  5
C3
330
4E
100
AcDbEntity
  8
0
  6
Continuous
 62
     7
100
AcDbLine
 10
-1086.964853248659
 20
-1022.644997976153
 30
0.0
 11
-1103.502024140814
 21
-1022.64499797616
 31
0.0
  0
LINE
  5
C4
330
4E
100
AcDbEntity
  8
0
  6
Continuous
 62
     7
100
AcDbLine
 10
-1007.483385780196
 20
-1022.644997976163
 30
0.0
 11
-1007.689653194953
 21
-1022.644997976162
 31
0.0
  0
LINE
  5
C5
330
4E
100
AcDbEntity
  8
0
  6
Continuous
 62
     7
100
AcDbLine
 10
-1029.60700417603
 20
-1022.644997976142
 30
0.0
 11
-1029.813271679189
 21
-1022.644997976141
 31
0.0
  0
LINE
  5
C6
330
4E
100
AcDbEntity
  8
0
  6
Continuous
 62
     7
100
AcDbLine
 10
-1029.813271679189
 20
-1022.644997976141
 30
0.0
 11
-1052.741528759897
 21
-1022.644997976132
 31
0.0
  0
LINE
  5
C7
330
4E
100
AcDbEntity
  8
0
  6
Continuous
 62
     7
100
AcDbLine
 10
-1073.752488412077
 20
-1022.644997976136
 30
0.0
 11
-1086.964853248659
 21
-1022.644997976153
 31
0.0
  0
LINE
  5
C8
330
4E
100
AcDbEntity
  8
0
  6
Continuous
 62
     7
100
AcDbLine
 10
-1063.952023428099
 20
-1022.644997976132
 30
0.0
 11
-1073.752488412077
 21
-1022.644997976136
 31
0.0
  0
LINE
  5
C9
330
4E
100
AcDbEntity
  8
0
  6
Continuous
 62
     7
100
AcDbLine
 10
-1052.741528759897
 20
-1022.644997976132
 30
0.0
 11
-1063.952023428099
 21
-1022.644997976132
 31
0.0
  0
LINE
  5
CA
330
4E
100
AcDbEntity
  8
0
  6
Continuous
 62
     7
100
AcDbLine
 10
-1007.689653194953
 20
-1022.644997976162
 30
0.0
 11
-1029.60700417603
 21
-1022.644997976142
 31
0.0
  0
LINE
  5
CB
330
4E
100
AcDbEntity
  8
0
  6
Continuous
 62
     7
100
AcDbLine
 10
-1073.752488412077
 20
-1022.644997976136
 30
0.0
 11
-1073.752488412077
 21
-1024.844997976136
 31
0.0
  0
LINE
  5
CC
330
4E
100
AcDbEntity
  8
0
  6
Continuous
 62
     7
100
AcDbLine
 10
-1063.952023428099
 20
-1022.644997976132
 30
0.0
 11
-1063.952023428099
 21
-1024.844997976132
 31
0.0
  0
LINE
  5
CD
330
4E
100
AcDbEntity
  8
0
  6
Continuous
 62
     7
100
AcDbLine
 10
-1086.964853248659
 20
-1022.644997976153
 30
0.0
 11
-1086.964853248659
 21
-1024.844997976153
 31
0.0
  0
LINE
  5
CE
330
4E
100
AcDbEntity
  8
0
  6
Continuous
 62
     7
100
AcDbLine
 10
-1007.483385780196
 20
-1022.644997976163
 30
0.0
 11
-1007.483385780196
 21
-1024.844997976163
 31
0.0
  0
LINE
  5
CF
330
4E
100
AcDbEntity
  8
0
  6
Continuous
 62
     7
100
AcDbLine
 10
-1029.813271679189
 20
-1022.644997976141
 30
0.0
 11
-1029.813271679189
 21
-1024.844997976141
 31
0.0
  0
LINE
  5
D0
330
4E
100
AcDbEntity
  8
0
  6
Continuous
 62
     7
100
AcDbLine
 10
-1007.689653194953
 20
-1022.644997976162
 30
0.0
 11
-1007.689653194953
 21
-1024.844997976162
 31
0.0
  0
LINE
  5
D1
330
4E
100
AcDbEntity
  8
0
  6
Continuous
 62
     7
100
AcDbLine
 10
-1029.60700417603
 20
-1022.644997976142
 30
0.0
 11
-1029.60700417603
 21
-1024.844997976142
 31
0.0
  0
LINE
  5
D2
330
4E
100
AcDbEntity
  8
0
  6
Continuous
 62
     7
100
AcDbLine
 10
-1007.483385780196
 20
-1024.844997976163
 30
0.0
 11
-1007.689653194953
 21
-1024.844997976162
 31
0.0
  0
LINE
  5
D3
330
4E
100
AcDbEntity
  8
0
  6
Continuous
 62
     7
100
AcDbLine
 10
-1052.741528759897
 20
-1024.844997976132
 30
0.0
 11
-1029.813271679189
 21
-1024.844997976141
 31
0.0
  0
LINE
  5
D4
330
4E
100
AcDbEntity
  8
0
  6
Continuous
 62
     7
100
AcDbLine
 10
-1029.813271679189
 20
-1024.844997976141
 30
0.0
 11
-1029.60700417603
 21
-1024.844997976142
 31
0.0
  0
LINE
  5
D5
330
4E
100
AcDbEntity
  8
0
  6
Continuous
 62
     7
100
AcDbLine
 10
-1103.502024140814
 20
-1024.84499797616
 30
0.0
 11
-1086.964853248659
 21
-1024.844997976153
 31
0.0
  0
LINE
  5
D6
330
4E
100
AcDbEntity
  8
0
  6
Continuous
 62
     7
100
AcDbLine
 10
-1103.502024140814
 20
-1022.64499797616
 30
0.0
 11
-1103.502024140814
 21
-1024.84499797616
 31
0.0
  0
LINE
  5
D7
330
4E
100
AcDbEntity
  8
0
  6
Continuous
 62
     7
100
AcDbLine
 10
-1029.60700417603
 20
-1024.844997976142
 30
0.0
 11
-1007.689653194953
 21
-1024.844997976162
 31
0.0
  0
ENDBLK
  5
50
330
4E
100
AcDbEntity
  8
0
100
AcDbBlockEnd
  0
BLOCK
  5
53
330
51
100
AcDbEntity
  8
0
100
AcDbBlockBegin
  2
Drfsicht1
 70
     0
 10
-1055.492706
 20
-1023.744998
 30
0.0
  3
Drfsicht1
  1

  0
INSERT
  5
52
330
51
100
AcDbEntity
  8
0
100
AcDbBlockReference
  2
D_PTTBS_4-select__2
 10
-1103.502024140814
 20
-1024.844997976163
 30
0.0
  0
MTEXT
  5
D8
330
51
100
AcDbEntity
  8
1
 62
     6
100
AcDbMText
 10
-1056.339565179629
 20
-1029.844999064811
 30
0.0
 40
5.0
 41
0.0
 71
     2
 72
     1
  1
 
  7
CONVERTER_11
 73
     1
 44
1.32052821128451
  0
DIMENSION
  5
E5
330
51
100
AcDbEntity
  8
1
100
AcDbDimension
  2
*D17
 10
-1113.502024140814
 20
-1022.64499797616
 30
0.0
 11
-1116.927024140814
 21
-1024.34547981793
 31
0.0
 70
    32
  1
<>
 71
     5
 42
-1.0
 53
90.0
  3
ME10_DIM_10
100
AcDbAlignedDimension
 13
-1103.502024140814
 23
-1024.84499797616
 33
0.0
 14
-1103.502024140814
 24
-1022.64499797616
 34
0.0
 50
90.0
100
AcDbRotatedDimension
  0
ENDBLK
  5
54
330
51
100
AcDbEntity
  8
0
100
AcDbBlockEnd
  0
BLOCK
  5
56
330
55
100
AcDbEntity
  8
0
100
AcDbBlockBegin
  2
D_PTTBS_4-select__3
 70
     0
 10
-971.5166142198044
 20
-995.714419998046
 30
0.0
  3
D_PTTBS_4-select__3
  1

  0
LINE
  5
E6
330
55
100
AcDbEntity
  8
0
  6
Continuous
 62
     7
100
AcDbLine
 10
-878.9938573057657
 20
-986.5407309849121
 30
0.0
 11
-879.0979760913618
 21
-989.1907310296799
 31
0.0
  0
LINE
  5
E7
330
55
100
AcDbEntity
  8
0
  6
Continuous
 62
     7
100
AcDbLine
 10
-875.4979761293679
 20
-984.9407309848231
 30
0.0
 11
-875.4979761293694
 21
-986.5407309849334
 31
0.0
  0
LINE
  5
E8
330
55
100
AcDbEntity
  8
0
  6
Continuous
 62
     7
100
AcDbLine
 10
-875.4979761293694
 20
-986.5407309849334
 30
0.0
 11
-878.9938573057657
 21
-986.5407309849121
 31
0.0
  0
LINE
  5
E9
330
55
100
AcDbEntity
  8
0
  6
Continuous
 62
     7
100
AcDbLine
 10
-879.0979760913624
 20
-993.122716102543
 30
0.0
 11
-950.8368197418088
 21
-993.122716102543
 31
0.0
  0
LINE
  5
EA
330
55
100
AcDbEntity
  8
0
  6
Continuous
 62
     7
100
AcDbLine
 10
-879.0979760913618
 20
-989.1907310296799
 30
0.0
 11
-879.0979760913624
 21
-993.122716102543
 31
0.0
  0
LINE
  5
EB
330
55
100
AcDbEntity
  8
0
  6
Continuous
 62
     7
100
AcDbLine
 10
-875.497975859186
 20
-972.0309459849452
 30
0.0
 11
-875.4979758591895
 21
-975.9407301257723
 31
0.0
  0
LINE
  5
EC
330
55
100
AcDbEntity
  8
0
  6
Continuous
 62
     7
100
AcDbLine
 10
-949.1867283208117
 20
-954.6682644046971
 30
0.0
 11
-926.2584712401036
 21
-946.3230612750378
 31
0.0
  0
LINE
  5
ED
330
55
100
AcDbEntity
  8
0
  6
Continuous
 62
     7
100
AcDbLine
 10
-946.4743817920215
 20
-965.1965187811019
 30
0.0
 11
-947.6261113592309
 21
-962.032167801902
 31
0.0
  0
LINE
  5
EE
330
55
100
AcDbEntity
  8
0
  6
Continuous
 62
     7
100
AcDbLine
 10
-971.5166142198044
 20
-975.0058710920767
 30
0.0
 11
-971.3103468050477
 21
-974.2360706205671
 31
0.0
  0
LINE
  5
EF
330
55
100
AcDbEntity
  8
0
  6
Continuous
 62
     7
100
AcDbLine
 10
-969.7497297551312
 20
-981.5999736875995
 30
0.0
 11
-971.5166142198044
 21
-975.0058710920767
 31
0.0
  0
LINE
  5
F0
330
55
100
AcDbEntity
  8
0
  6
Continuous
 62
     7
100
AcDbLine
 10
-968.2398407290585
 20
-985.74835969391
 30
0.0
 11
-969.7497297551312
 21
-981.5999736875995
 31
0.0
  0
LINE
  5
F1
330
55
100
AcDbEntity
  8
0
  6
Continuous
 62
     7
100
AcDbLine
 10
-892.0351467513417
 20
-966.0119080214231
 30
0.0
 11
-875.497975859186
 21
-972.0309459849452
 31
0.0
  0
LINE
  5
F2
330
55
100
AcDbEntity
  8
0
  6
Continuous
 62
     7
100
AcDbLine
 10
-926.2584712401036
 20
-946.3230612750378
 30
0.0
 11
-915.0479765719012
 21
-946.3230612750378
 31
0.0
  0
LINE
  5
F3
330
55
100
AcDbEntity
  8
0
  6
Continuous
 62
     7
100
AcDbLine
 10
-915.0479765719012
 20
-946.3230612750378
 30
0.0
 11
-915.0479765719012
 21
-949.9227161027635
 31
0.0
  0
LINE
  5
F4
330
55
100
AcDbEntity
  8
0
  6
Continuous
 62
     7
100
AcDbLine
 10
-915.0479765719012
 20
-949.9227161027635
 30
0.0
 11
-905.2475115879231
 21
-949.9227161027094
 31
0.0
  0
LINE
  5
F5
330
55
100
AcDbEntity
  8
0
  6
Continuous
 62
     7
100
AcDbLine
 10
-905.2475115879231
 20
-949.9227161027094
 30
0.0
 11
-892.0351467514056
 21
-954.7316241756382
 31
0.0
  0
LINE
  5
F6
330
55
100
AcDbEntity
  8
0
  6
Continuous
 62
     7
100
AcDbLine
 10
-892.0351467514056
 20
-954.7316241756382
 30
0.0
 11
-892.0351467513417
 21
-966.0119080214231
 31
0.0
  0
LINE
  5
F7
330
55
100
AcDbEntity
  8
0
  6
Continuous
 62
     7
100
AcDbLine
 10
-949.392995823971
 20
-955.4380652061297
 30
0.0
 11
-949.1867283208117
 21
-954.6682644046971
 31
0.0
  0
LINE
  5
F8
330
55
100
AcDbEntity
  8
0
  6
Continuous
 62
     7
100
AcDbLine
 10
-947.6261113592309
 20
-962.032167801902
 30
0.0
 11
-949.392995823971
 21
-955.4380652061297
 31
0.0
  0
LINE
  5
F9
330
55
100
AcDbEntity
  8
0
  6
Continuous
 62
     7
100
AcDbLine
 10
-965.3139280706016
 20
-993.3112220209991
 30
0.0
 11
-964.9634788395224
 21
-994.274073370355
 31
0.0
  0
LINE
  5
FA
330
55
100
AcDbEntity
  8
0
  6
Continuous
 62
     7
100
AcDbLine
 10
-957.9574676724324
 20
-995.714419998046
 30
0.0
 11
-964.9634788395224
 21
-994.274073370355
 31
0.0
  0
LINE
  5
FB
330
55
100
AcDbEntity
  8
0
  6
Continuous
 62
     7
100
AcDbLine
 10
-950.8368197418088
 20
-993.122716102543
 30
0.0
 11
-957.9574676724324
 21
-995.714419998046
 31
0.0
  0
LINE
  5
FC
330
55
100
AcDbEntity
  8
0
  6
Continuous
 62
     7
100
AcDbLine
 10
-971.3103468050477
 20
-974.2360706205671
 30
0.0
 11
-946.4743817920215
 21
-965.1965187811019
 31
0.0
  0
ARC
  5
FD
330
55
100
AcDbEntity
  8
0
  6
Continuous
 62
     7
100
AcDbCircle
 10
-861.1888881081027
 20
-980.4407309848538
 30
0.0
 40
15.00000000000124
100
AcDbArc
 50
162.5423934363859
 51
197.4576031235976
  0
ARC
  5
FE
330
55
100
AcDbEntity
  8
0
  6
Continuous
 62
     7
100
AcDbCircle
 10
-980.2456704900228
 20
-994.7405814299852
 30
0.0
 40
14.99999999999998
100
AcDbArc
 50
5.46804741475381
 51
36.83276819156841
  0
ENDBLK
  5
57
330
55
100
AcDbEntity
  8
0
100
AcDbBlockEnd
  0
BLOCK
  5
5A
330
58
100
AcDbEntity
  8
0
100
AcDbBlockBegin
  2
Rckans1
 70
     0
 10
-923.5072940000002
 20
-971.0000000000003
 30
0.0
  3
Rckans1
  1

  0
INSERT
  5
59
330
58
100
AcDbEntity
  8
0
100
AcDbBlockReference
  2
D_PTTBS_4-select__3
 10
-971.5166142198044
 20
-995.714419998046
 30
0.0
  0
MTEXT
  5
FF
330
58
100
AcDbEntity
  8
1
 62
     6
100
AcDbMText
 10
-922.6604348203826
 20
-1025.644999616186
 30
0.0
 40
5.0
 41
0.0
 71
     2
 72
     1
  1
 
  7
CONVERTER_11
 73
     1
 44
1.32052821128451
  0
ENDBLK
  5
5B
330
58
100
AcDbEntity
  8
0
100
AcDbBlockEnd
  0
BLOCK
  5
5D
330
5C
100
AcDbEntity
  8
0
100
AcDbBlockBegin
  2
D_PTTBS_4-select__4
 70
     0
 10
-992.1000000238677
 20
-995.7144199980456
 30
0.0
  3
D_PTTBS_4-select__4
  1

  0
LINE
  5
100
330
5C
100
AcDbEntity
  8
0
  6
Continuous
 62
     7
100
AcDbLine
 10
-989.9000000238137
 20
-995.7144199980432
 30
0.0
 11
-989.9000000238166
 21
-993.1227161025403
 31
0.0
  0
LINE
  5
101
330
5C
100
AcDbEntity
  8
0
  6
Continuous
 62
     7
100
AcDbLine
 10
-989.9000000238395
 20
-972.0309459849425
 30
0.0
 11
-989.9000000238461
 21
-966.0119080214204
 31
0.0
  0
LINE
  5
102
330
5C
100
AcDbEntity
  8
0
  6
Continuous
 62
     7
100
AcDbLine
 10
-989.9000000238353
 20
-975.9407301257696
 30
0.0
 11
-989.9000000238395
 21
-972.0309459849425
 31
0.0
  0
LINE
  5
103
330
5C
100
AcDbEntity
  8
0
  6
Continuous
 62
     7
100
AcDbLine
 10
-992.1000000238637
 20
-949.922716102709
 30
0.0
 11
-992.1000000238585
 21
-954.7316241756379
 31
0.0
  0
LINE
  5
104
330
5C
100
AcDbEntity
  8
0
  6
Continuous
 62
     7
100
AcDbLine
 10
-992.1000000238677
 20
-946.3230612750374
 30
0.0
 11
-992.1000000238637
 21
-949.922716102709
 31
0.0
  0
LINE
  5
105
330
5C
100
AcDbEntity
  8
0
  6
Continuous
 62
     7
100
AcDbLine
 10
-992.1000000238677
 20
-946.3230612750374
 30
0.0
 11
-989.9000000238676
 21
-946.323061275035
 31
0.0
  0
LINE
  5
106
330
5C
100
AcDbEntity
  8
0
  6
Continuous
 62
     7
100
AcDbLine
 10
-992.1000000238637
 20
-949.922716102709
 30
0.0
 11
-989.9000000238636
 21
-949.9227161027067
 31
0.0
  0
LINE
  5
107
330
5C
100
AcDbEntity
  8
0
  6
Continuous
 62
     7
100
AcDbLine
 10
-989.9000000238209
 20
-989.1907310296772
 30
0.0
 11
-989.9000000238237
 21
-986.5407309849306
 31
0.0
  0
LINE
  5
108
330
5C
100
AcDbEntity
  8
0
  6
Continuous
 62
     7
100
AcDbLine
 10
-989.9000000238237
 20
-986.5407309849306
 30
0.0
 11
-989.9000000238256
 21
-984.9407309848203
 31
0.0
  0
LINE
  5
109
330
5C
100
AcDbEntity
  8
0
  6
Continuous
 62
     7
100
AcDbLine
 10
-992.1000000238238
 20
-986.540730984933
 30
0.0
 11
-989.9000000238237
 21
-986.5407309849306
 31
0.0
  0
LINE
  5
10A
330
5C
100
AcDbEntity
  8
0
  6
Continuous
 62
     7
100
AcDbLine
 10
-989.9000000238166
 20
-993.1227161025403
 30
0.0
 11
-989.9000000238209
 21
-989.1907310296772
 31
0.0
  0
LINE
  5
10B
330
5C
100
AcDbEntity
  8
0
  6
Continuous
 62
     7
100
AcDbLine
 10
-989.9000000238256
 20
-984.9407309848203
 30
0.0
 11
-992.1000000238255
 21
-984.9407309848227
 31
0.0
  0
LINE
  5
10C
330
5C
100
AcDbEntity
  8
0
  6
Continuous
 62
     7
100
AcDbLine
 10
-989.9000000238353
 20
-975.9407301257696
 30
0.0
 11
-992.1000000238354
 21
-975.940730125772
 31
0.0
  0
LINE
  5
10D
330
5C
100
AcDbEntity
  8
0
  6
Continuous
 62
     7
100
AcDbLine
 10
-992.1000000238166
 20
-993.1227161025427
 30
0.0
 11
-989.9000000238166
 21
-993.1227161025403
 31
0.0
  0
LINE
  5
10E
330
5C
100
AcDbEntity
  8
0
  6
Continuous
 62
     7
100
AcDbLine
 10
-989.9000000238209
 20
-989.1907310296772
 30
0.0
 11
-992.1000000238209
 21
-989.1907310296796
 31
0.0
  0
LINE
  5
10F
330
5C
100
AcDbEntity
  8
0
  6
Continuous
 62
     7
100
AcDbLine
 10
-992.1000000238138
 20
-995.7144199980456
 30
0.0
 11
-989.9000000238137
 21
-995.7144199980432
 31
0.0
  0
LINE
  5
110
330
5C
100
AcDbEntity
  8
0
  6
Continuous
 62
     7
100
AcDbLine
 10
-992.1000000238396
 20
-972.0309459849449
 30
0.0
 11
-989.9000000238395
 21
-972.0309459849425
 31
0.0
  0
LINE
  5
111
330
5C
100
AcDbEntity
  8
0
  6
Continuous
 62
     7
100
AcDbLine
 10
-989.9000000238353
 20
-975.9407301257696
 30
0.0
 11
-989.9000000238256
 21
-984.9407309848203
 31
0.0
  0
LINE
  5
112
330
5C
100
AcDbEntity
  8
0
  6
Continuous
 62
     7
100
AcDbLine
 10
-992.1000000238396
 20
-972.0309459849449
 30
0.0
 11
-992.1000000238354
 21
-975.940730125772
 31
0.0
  0
LINE
  5
113
330
5C
100
AcDbEntity
  8
0
  6
Continuous
 62
     7
100
AcDbLine
 10
-992.1000000238238
 20
-986.540730984933
 30
0.0
 11
-992.1000000238209
 21
-989.1907310296796
 31
0.0
  0
LINE
  5
114
330
5C
100
AcDbEntity
  8
0
  6
Continuous
 62
     7
100
AcDbLine
 10
-992.1000000238255
 20
-984.9407309848227
 30
0.0
 11
-992.1000000238238
 21
-986.540730984933
 31
0.0
  0
LINE
  5
115
330
5C
100
AcDbEntity
  8
0
  6
Continuous
 62
     7
100
AcDbLine
 10
-992.1000000238209
 20
-989.1907310296796
 30
0.0
 11
-992.1000000238166
 21
-993.1227161025427
 31
0.0
  0
LINE
  5
116
330
5C
100
AcDbEntity
  8
0
  6
Continuous
 62
     7
100
AcDbLine
 10
-992.1000000238166
 20
-993.1227161025427
 30
0.0
 11
-992.1000000238138
 21
-995.7144199980456
 31
0.0
  0
LINE
  5
117
330
5C
100
AcDbEntity
  8
0
  6
Continuous
 62
     7
100
AcDbLine
 10
-992.1000000238462
 20
-966.0119080214228
 30
0.0
 11
-992.1000000238396
 21
-972.0309459849449
 31
0.0
  0
LINE
  5
118
330
5C
100
AcDbEntity
  8
0
  6
Continuous
 62
     7
100
AcDbLine
 10
-992.1000000238354
 20
-975.940730125772
 30
0.0
 11
-992.1000000238255
 21
-984.9407309848227
 31
0.0
  0
LINE
  5
119
330
5C
100
AcDbEntity
  8
0
  6
Continuous
 62
     7
100
AcDbLine
 10
-989.9000000238584
 20
-954.7316241756355
 30
0.0
 11
-989.9000000238636
 21
-949.9227161027067
 31
0.0
  0
LINE
  5
11A
330
5C
100
AcDbEntity
  8
0
  6
Continuous
 62
     7
100
AcDbLine
 10
-989.9000000238636
 20
-949.9227161027067
 30
0.0
 11
-989.9000000238676
 21
-946.323061275035
 31
0.0
  0
LINE
  5
11B
330
5C
100
AcDbEntity
  8
0
  6
Continuous
 62
     7
100
AcDbLine
 10
-989.9000000238461
 20
-966.0119080214204
 30
0.0
 11
-989.9000000238584
 21
-954.7316241756355
 31
0.0
  0
LINE
  5
11C
330
5C
100
AcDbEntity
  8
0
  6
Continuous
 62
     7
100
AcDbLine
 10
-989.9000000238461
 20
-966.0119080214204
 30
0.0
 11
-992.1000000238462
 21
-966.0119080214228
 31
0.0
  0
LINE
  5
11D
330
5C
100
AcDbEntity
  8
0
  6
Continuous
 62
     7
100
AcDbLine
 10
-992.1000000238585
 20
-954.7316241756379
 30
0.0
 11
-989.9000000238584
 21
-954.7316241756355
 31
0.0
  0
LINE
  5
11E
330
5C
100
AcDbEntity
  8
0
  6
Continuous
 62
     7
100
AcDbLine
 10
-992.1000000238585
 20
-954.7316241756379
 30
0.0
 11
-992.1000000238462
 21
-966.0119080214228
 31
0.0
  0
ENDBLK
  5
5E
330
5C
100
AcDbEntity
  8
0
100
AcDbBlockEnd
  0
BLOCK
  5
61
330
5F
100
AcDbEntity
  8
0
100
AcDbBlockBegin
  2
SA_Links1
 70
     0
 10
-991.0
 20
-971.0
 30
0.0
  3
SA_Links1
  1

  0
INSERT
  5
60
330
5F
100
AcDbEntity
  8
0
100
AcDbBlockReference
  2
D_PTTBS_4-select__4
 10
-992.1000000238677
 20
-995.7144199980456
 30
0.0
  0
MTEXT
  5
11F
330
5F
100
AcDbEntity
  8
1
 62
     6
100
AcDbMText
 10
-991.0000000000109
 20
-1025.644999616186
 30
0.0
 40
5.0
 41
0.0
 71
     2
 72
     1
  1
 
  7
CONVERTER_11
 73
     1
 44
1.32052821128451
  0
ENDBLK
  5
62
330
5F
100
AcDbEntity
  8
0
100
AcDbBlockEnd
  0
BLOCK
  5
64
330
63
100
AcDbEntity
  8
0
100
AcDbBlockBegin
  2
D_PTTBS_4-select__5
 70
     0
 10
-1133.779129976186
 20
-995.7144199980456
 30
0.0
  3
D_PTTBS_4-select__5
  1

  0
LINE
  5
120
330
63
100
AcDbEntity
  8
0
  6
Continuous
 62
     7
100
AcDbLine
 10
-1133.77912997615
 20
-962.0321678018994
 30
0.0
 11
-1133.779129976142
 21
-955.438065206127
 31
0.0
  0
LINE
  5
121
330
63
100
AcDbEntity
  8
0
  6
Continuous
 62
     7
100
AcDbLine
 10
-1133.779129976142
 20
-955.438065206127
 30
0.0
 11
-1133.779129976142
 21
-954.6682644046944
 31
0.0
  0
LINE
  5
122
330
63
100
AcDbEntity
  8
0
  6
Continuous
 62
     7
100
AcDbLine
 10
-1131.579129976153
 20
-965.1965187811015
 30
0.0
 11
-1131.57912997615
 21
-962.0321678019018
 31
0.0
  0
LINE
  5
123
330
63
100
AcDbEntity
  8
0
  6
Continuous
 62
     7
100
AcDbLine
 10
-1131.579129976184
 20
-993.3112220209989
 30
0.0
 11
-1131.579129976185
 21
-994.2740733703548
 31
0.0
  0
LINE
  5
124
330
63
100
AcDbEntity
  8
0
  6
Continuous
 62
     7
100
AcDbLine
 10
-1131.579129976175
 20
-985.7483596939097
 30
0.0
 11
-1131.579129976184
 21
-993.3112220209989
 31
0.0
  0
LINE
  5
125
330
63
100
AcDbEntity
  8
0
  6
Continuous
 62
     7
100
AcDbLine
 10
-1131.579129976163
 20
-974.2360706205669
 30
0.0
 11
-1133.779129976163
 21
-974.2360706205645
 31
0.0
  0
LINE
  5
126
330
63
100
AcDbEntity
  8
0
  6
Continuous
 62
     7
100
AcDbLine
 10
-1131.579129976164
 20
-975.0058710920764
 30
0.0
 11
-1133.779129976164
 21
-975.0058710920741
 31
0.0
  0
LINE
  5
127
330
63
100
AcDbEntity
  8
0
  6
Continuous
 62
     7
100
AcDbLine
 10
-1131.579129976186
 20
-995.7144199980456
 30
0.0
 11
-1133.779129976186
 21
-995.7144199980434
 31
0.0
  0
LINE
  5
128
330
63
100
AcDbEntity
  8
0
  6
Continuous
 62
     7
100
AcDbLine
 10
-1131.579129976175
 20
-985.7483596939097
 30
0.0
 11
-1133.779129976176
 21
-985.7483596939073
 31
0.0
  0
LINE
  5
129
330
63
100
AcDbEntity
  8
0
  6
Continuous
 62
     7
100
AcDbLine
 10
-1131.579129976171
 20
-981.5999736875991
 30
0.0
 11
-1133.779129976171
 21
-981.5999736875967
 31
0.0
  0
LINE
  5
12A
330
63
100
AcDbEntity
  8
0
  6
Continuous
 62
     7
100
AcDbLine
 10
-1131.579129976175
 20
-985.7483596939097
 30
0.0
 11
-1131.579129976171
 21
-981.5999736875991
 31
0.0
  0
LINE
  5
12B
330
63
100
AcDbEntity
  8
0
  6
Continuous
 62
     7
100
AcDbLine
 10
-1131.579129976184
 20
-993.3112220209989
 30
0.0
 11
-1133.779129976184
 21
-993.3112220209965
 31
0.0
  0
LINE
  5
12C
330
63
100
AcDbEntity
  8
0
  6
Continuous
 62
     7
100
AcDbLine
 10
-1131.579129976171
 20
-981.5999736875991
 30
0.0
 11
-1131.579129976164
 21
-975.0058710920764
 31
0.0
  0
LINE
  5
12D
330
63
100
AcDbEntity
  8
0
  6
Continuous
 62
     7
100
AcDbLine
 10
-1131.579129976164
 20
-975.0058710920764
 30
0.0
 11
-1131.579129976163
 21
-974.2360706205669
 31
0.0
  0
LINE
  5
12E
330
63
100
AcDbEntity
  8
0
  6
Continuous
 62
     7
100
AcDbLine
 10
-1133.779129976184
 20
-993.3112220209965
 30
0.0
 11
-1133.779129976185
 21
-994.2740733703524
 31
0.0
  0
LINE
  5
12F
330
63
100
AcDbEntity
  8
0
  6
Continuous
 62
     7
100
AcDbLine
 10
-1131.579129976185
 20
-994.2740733703548
 30
0.0
 11
-1133.779129976185
 21
-994.2740733703524
 31
0.0
  0
LINE
  5
130
330
63
100
AcDbEntity
  8
0
  6
Continuous
 62
     7
100
AcDbLine
 10
-1131.579129976186
 20
-995.7144199980456
 30
0.0
 11
-1131.579129976185
 21
-994.2740733703548
 31
0.0
  0
LINE
  5
131
330
63
100
AcDbEntity
  8
0
  6
Continuous
 62
     7
100
AcDbLine
 10
-1133.779129976153
 20
-965.1965187810991
 30
0.0
 11
-1131.579129976153
 21
-965.1965187811015
 31
0.0
  0
LINE
  5
132
330
63
100
AcDbEntity
  8
0
  6
Continuous
 62
     7
100
AcDbLine
 10
-1131.579129976163
 20
-974.2360706205669
 30
0.0
 11
-1131.579129976153
 21
-965.1965187811015
 31
0.0
  0
LINE
  5
133
330
63
100
AcDbEntity
  8
0
  6
Continuous
 62
     7
100
AcDbLine
 10
-1131.579129976142
 20
-955.4380652061295
 30
0.0
 11
-1131.579129976142
 21
-954.6682644046967
 31
0.0
  0
LINE
  5
134
330
63
100
AcDbEntity
  8
0
  6
Continuous
 62
     7
100
AcDbLine
 10
-1131.57912997615
 20
-962.0321678019018
 30
0.0
 11
-1131.579129976142
 21
-955.4380652061295
 31
0.0
  0
LINE
  5
135
330
63
100
AcDbEntity
  8
0
  6
Continuous
 62
     7
100
AcDbLine
 10
-1131.579129976142
 20
-954.6682644046967
 30
0.0
 11
-1131.579129976132
 21
-946.3230612750375
 31
0.0
  0
LINE
  5
136
330
63
100
AcDbEntity
  8
0
  6
Continuous
 62
     7
100
AcDbLine
 10
-1131.579129976142
 20
-955.4380652061295
 30
0.0
 11
-1133.779129976142
 21
-955.438065206127
 31
0.0
  0
LINE
  5
137
330
63
100
AcDbEntity
  8
0
  6
Continuous
 62
     7
100
AcDbLine
 10
-1133.779129976164
 20
-975.0058710920741
 30
0.0
 11
-1133.779129976163
 21
-974.2360706205645
 31
0.0
  0
LINE
  5
138
330
63
100
AcDbEntity
  8
0
  6
Continuous
 62
     7
100
AcDbLine
 10
-1133.779129976171
 20
-981.5999736875967
 30
0.0
 11
-1133.779129976164
 21
-975.0058710920741
 31
0.0
  0
LINE
  5
139
330
63
100
AcDbEntity
  8
0
  6
Continuous
 62
     7
100
AcDbLine
 10
-1133.779129976176
 20
-985.7483596939073
 30
0.0
 11
-1133.779129976171
 21
-981.5999736875967
 31
0.0
  0
LINE
  5
13A
330
63
100
AcDbEntity
  8
0
  6
Continuous
 62
     7
100
AcDbLine
 10
-1133.779129976185
 20
-994.2740733703524
 30
0.0
 11
-1133.779129976186
 21
-995.7144199980434
 31
0.0
  0
LINE
  5
13B
330
63
100
AcDbEntity
  8
0
  6
Continuous
 62
     7
100
AcDbLine
 10
-1133.779129976153
 20
-965.1965187810991
 30
0.0
 11
-1133.77912997615
 21
-962.0321678018994
 31
0.0
  0
LINE
  5
13C
330
63
100
AcDbEntity
  8
0
  6
Continuous
 62
     7
100
AcDbLine
 10
-1133.779129976176
 20
-985.7483596939073
 30
0.0
 11
-1133.779129976184
 21
-993.3112220209965
 31
0.0
  0
LINE
  5
13D
330
63
100
AcDbEntity
  8
0
  6
Continuous
 62
     7
100
AcDbLine
 10
-1131.57912997615
 20
-962.0321678019018
 30
0.0
 11
-1133.77912997615
 21
-962.0321678018994
 31
0.0
  0
LINE
  5
13E
330
63
100
AcDbEntity
  8
0
  6
Continuous
 62
     7
100
AcDbLine
 10
-1133.779129976133
 20
-946.3230612750351
 30
0.0
 11
-1133.779129976142
 21
-954.6682644046944
 31
0.0
  0
LINE
  5
13F
330
63
100
AcDbEntity
  8
0
  6
Continuous
 62
     7
100
AcDbLine
 10
-1131.579129976132
 20
-946.3230612750375
 30
0.0
 11
-1133.779129976133
 21
-946.3230612750351
 31
0.0
  0
LINE
  5
140
330
63
100
AcDbEntity
  8
0
  6
Continuous
 62
     7
100
AcDbLine
 10
-1131.579129976142
 20
-954.6682644046967
 30
0.0
 11
-1133.779129976142
 21
-954.6682644046944
 31
0.0
  0
LINE
  5
141
330
63
100
AcDbEntity
  8
0
  6
Continuous
 62
     7
100
AcDbLine
 10
-1133.779129976153
 20
-965.1965187810991
 30
0.0
 11
-1133.779129976163
 21
-974.2360706205645
 31
0.0
  0
ENDBLK
  5
65
330
63
100
AcDbEntity
  8
0
100
AcDbBlockEnd
  0
BLOCK
  5
68
330
66
100
AcDbEntity
  8
0
100
AcDbBlockBegin
  2
SA_Rechts1
 70
     0
 10
-1132.67913
 20
-971.0
 30
0.0
  3
SA_Rechts1
  1

  0
INSERT
  5
67
330
66
100
AcDbEntity
  8
0
100
AcDbBlockReference
  2
D_PTTBS_4-select__5
 10
-1133.779129976186
 20
-995.7144199980456
 30
0.0
  0
MTEXT
  5
142
330
66
100
AcDbEntity
  8
1
 62
     6
100
AcDbMText
 10
-1132.679130074816
 20
-1025.644999616186
 30
0.0
 40
5.0
 41
0.0
 71
     2
 72
     1
  1
 
  7
CONVERTER_11
 73
     1
 44
1.32052821128451
  0
ENDBLK
  5
69
330
66
100
AcDbEntity
  8
0
100
AcDbBlockEnd
  0
BLOCK
  5
6B
330
6A
100
AcDbEntity
  8
0
100
AcDbBlockBegin
  2
D_PTTBS_4-select__6
 70
     0
 10
-1103.502024140814
 20
-995.7144199980434
 30
0.0
  3
D_PTTBS_4-select__6
  1

  0
LINE
  5
143
330
6A
100
AcDbEntity
  8
0
  6
Continuous
 62
     7
100
AcDbLine
 10
-1100.006142694235
 20
-986.5407309849094
 30
0.0
 11
-1103.502023870631
 21
-986.5407309849306
 31
0.0
  0
LINE
  5
144
330
6A
100
AcDbEntity
  8
0
  6
Continuous
 62
     7
100
AcDbLine
 10
-1103.502024140814
 20
-972.0309459849425
 30
0.0
 11
-1086.964853248659
 21
-966.0119080214204
 31
0.0
  0
LINE
  5
145
330
6A
100
AcDbEntity
  8
0
  6
Continuous
 62
     7
100
AcDbLine
 10
-1010.760159270942
 20
-985.7483596939073
 30
0.0
 11
-1009.250270244869
 21
-981.5999736875967
 31
0.0
  0
LINE
  5
146
330
6A
100
AcDbEntity
  8
0
  6
Continuous
 62
     7
100
AcDbLine
 10
-1013.686071929399
 20
-993.3112220209965
 30
0.0
 11
-1014.036521160478
 21
-994.2740733703524
 31
0.0
  0
LINE
  5
147
330
6A
100
AcDbEntity
  8
0
  6
Continuous
 62
     7
100
AcDbLine
 10
-1021.042532327568
 20
-995.7144199980434
 30
0.0
 11
-1028.163180258192
 21
-993.1227161025403
 31
0.0
  0
LINE
  5
148
330
6A
100
AcDbEntity
  8
0
  6
Continuous
 62
     7
100
AcDbLine
 10
-1032.525618207979
 20
-965.1965187810991
 30
0.0
 11
-1031.37388864077
 21
-962.0321678018993
 31
0.0
  0
LINE
  5
149
330
6A
100
AcDbEntity
  8
0
  6
Continuous
 62
     7
100
AcDbLine
 10
-1031.37388864077
 20
-962.0321678018993
 30
0.0
 11
-1029.60700417603
 21
-955.438065206127
 31
0.0
  0
LINE
  5
14A
330
6A
100
AcDbEntity
  8
0
  6
Continuous
 62
     7
100
AcDbLine
 10
-1029.60700417603
 20
-955.438065206127
 30
0.0
 11
-1029.813271679189
 21
-954.6682644046944
 31
0.0
  0
LINE
  5
14B
330
6A
100
AcDbEntity
  8
0
  6
Continuous
 62
     7
100
AcDbLine
 10
-1052.741528759897
 20
-946.3230612750351
 30
0.0
 11
-1029.813271679189
 21
-954.6682644046944
 31
0.0
  0
LINE
  5
14C
330
6A
100
AcDbEntity
  8
0
  6
Continuous
 62
     7
100
AcDbLine
 10
-1014.036521160478
 20
-994.2740733703524
 30
0.0
 11
-1021.042532327568
 21
-995.7144199980434
 31
0.0
  0
LINE
  5
14D
330
6A
100
AcDbEntity
  8
0
  6
Continuous
 62
     7
100
AcDbLine
 10
-1103.502023870631
 20
-986.5407309849306
 30
0.0
 11
-1103.502023870633
 21
-984.9407309848203
 31
0.0
  0
LINE
  5
14E
330
6A
100
AcDbEntity
  8
0
  6
Continuous
 62
     7
100
AcDbLine
 10
-1103.502024140811
 20
-975.9407301257697
 30
0.0
 11
-1103.502024140814
 21
-972.0309459849425
 31
0.0
  0
LINE
  5
14F
330
6A
100
AcDbEntity
  8
0
  6
Continuous
 62
     7
100
AcDbLine
 10
-1009.250270244869
 20
-981.5999736875967
 30
0.0
 11
-1007.483385780196
 21
-975.0058710920741
 31
0.0
  0
LINE
  5
150
330
6A
100
AcDbEntity
  8
0
  6
Continuous
 62
     7
100
AcDbLine
 10
-1007.483385780196
 20
-975.0058710920741
 30
0.0
 11
-1007.689653194953
 21
-974.2360706205645
 31
0.0
  0
LINE
  5
151
330
6A
100
AcDbEntity
  8
0
  6
Continuous
 62
     7
100
AcDbLine
 10
-1063.952023428099
 20
-946.3230612750351
 30
0.0
 11
-1052.741528759897
 21
-946.3230612750351
 31
0.0
  0
LINE
  5
152
330
6A
100
AcDbEntity
  8
0
  6
Continuous
 62
     7
100
AcDbLine
 10
-1086.964853248659
 20
-966.0119080214204
 30
0.0
 11
-1086.964853248595
 21
-954.7316241756355
 31
0.0
  0
LINE
  5
153
330
6A
100
AcDbEntity
  8
0
  6
Continuous
 62
     7
100
AcDbLine
 10
-1073.752488412077
 20
-949.9227161027067
 30
0.0
 11
-1063.952023428099
 21
-949.9227161027609
 31
0.0
  0
LINE
  5
154
330
6A
100
AcDbEntity
  8
0
  6
Continuous
 62
     7
100
AcDbLine
 10
-1063.952023428099
 20
-949.9227161027609
 30
0.0
 11
-1063.952023428099
 21
-946.3230612750351
 31
0.0
  0
LINE
  5
155
330
6A
100
AcDbEntity
  8
0
  6
Continuous
 62
     7
100
AcDbLine
 10
-1099.902023908639
 20
-989.1907310296772
 30
0.0
 11
-1100.006142694235
 21
-986.5407309849094
 31
0.0
  0
LINE
  5
156
330
6A
100
AcDbEntity
  8
0
  6
Continuous
 62
     7
100
AcDbLine
 10
-1086.964853248595
 20
-954.7316241756355
 30
0.0
 11
-1073.752488412077
 21
-949.9227161027067
 31
0.0
  0
LINE
  5
157
330
6A
100
AcDbEntity
  8
0
  6
Continuous
 62
     7
100
AcDbLine
 10
-1099.902023908638
 20
-993.1227161025403
 30
0.0
 11
-1099.902023908639
 21
-989.1907310296772
 31
0.0
  0
LINE
  5
158
330
6A
100
AcDbEntity
  8
0
  6
Continuous
 62
     7
100
AcDbLine
 10
-1028.163180258192
 20
-993.1227161025403
 30
0.0
 11
-1099.902023908638
 21
-993.1227161025403
 31
0.0
  0
LINE
  5
159
330
6A
100
AcDbEntity
  8
0
  6
Continuous
 62
     7
100
AcDbLine
 10
-1032.525618207979
 20
-965.1965187810991
 30
0.0
 11
-1007.689653194953
 21
-974.2360706205645
 31
0.0
  0
ARC
  5
15A
330
6A
100
AcDbEntity
  8
0
  6
Continuous
 62
     7
100
AcDbCircle
 10
-998.7543295099774
 20
-994.7405814299825
 30
0.0
 40
15.00000000000022
100
AcDbArc
 50
143.1672318084327
 51
174.5319525852468
  0
ARC
  5
15B
330
6A
100
AcDbEntity
  8
0
  6
Continuous
 62
     7
100
AcDbCircle
 10
-1117.811111891898
 20
-980.440730984851
 30
0.0
 40
15.0000000000012
100
AcDbArc
 50
342.5423968764023
 51
17.45760656361361
  0
ENDBLK
  5
6C
330
6A
100
AcDbEntity
  8
0
100
AcDbBlockEnd
  0
BLOCK
  5
6F
330
6D
100
AcDbEntity
  8
0
100
AcDbBlockBegin
  2
Vordans1
 70
     0
 10
-1055.492706
 20
-971.0
 30
0.0
  3
Vordans1
  1

  0
INSERT
  5
6E
330
6D
100
AcDbEntity
  8
0
100
AcDbBlockReference
  2
D_PTTBS_4-select__6
 10
-1103.502024140814
 20
-995.7144199980434
 30
0.0
  0
MTEXT
  5
15C
330
6D
100
AcDbEntity
  8
1
 62
     6
100
AcDbMText
 10
-1056.339565179629
 20
-1025.644999616186
 30
0.0
 40
5.0
 41
0.0
 71
     2
 72
     1
  1
 
  7
CONVERTER_11
 73
     1
 44
1.32052821128451
  0
DIMENSION
  5
167
330
6D
100
AcDbEntity
  8
1
100
AcDbDimension
  2
*D18
 10
-1103.502023870632
 20
-1005.63277462753
 30
0.0
 11
-1054.705995848239
 21
-1002.38277462753
 31
0.0
 70
    32
  1
<>
 71
     5
 42
-1.0
 53
0.00013888888889
  3
ME10_DIM_11
100
AcDbAlignedDimension
 13
-1007.483385780196
 23
-975.0058710920741
 33
0.0
 14
-1103.502023870633
 24
-984.9407309848203
 34
0.0
100
AcDbRotatedDimension
  0
DIMENSION
  5
172
330
6D
100
AcDbEntity
  8
1
100
AcDbDimension
  2
*D19
 10
-1111.43933255072
 20
-946.3230612750351
 30
0.0
 11
-1114.86433255072
 21
-973.584495291121
 31
0.0
 70
    32
  1
<>
 71
     5
 42
-1.0
 53
90.0
  3
ME10_DIM_12
100
AcDbAlignedDimension
 13
-1021.042532327568
 23
-995.7144199980434
 33
0.0
 14
-1063.952023428099
 24
-946.3230612750351
 34
0.0
 50
90.0
100
AcDbRotatedDimension
  0
ENDBLK
  5
70
330
6D
100
AcDbEntity
  8
0
100
AcDbBlockEnd
  0
BLOCK
  5
72
330
71
100
AcDbEntity
  8
0
100
AcDbBlockBegin
  2
_rahmen
 70
     0
 10
-863.71012032036
 20
-1121.69405196787
 30
0.0
  3
_rahmen
  1

  0
LINE
  5
173
330
71
100
AcDbEntity
  8
1
  6
DOT_CENTER
 62
     2
100
AcDbLine
 10
-989.2682699605475
 20
-1095.56905196787
 30
0.0
 11
-983.7682699605475
 21
-1095.56905196787
 31
0.0
  0
LINE
  5
174
330
71
100
AcDbEntity
  8
1
  6
PHANTOM
 62
     2
100
AcDbLine
 10
-980.5182699605475
 20
-1092.81905196787
 30
0.0
 11
-980.5182699605475
 21
-1098.31905196787
 31
0.0
  0
LINE
  5
175
330
71
100
AcDbEntity
  8
1
  6
PHANTOM
 62
     2
100
AcDbLine
 10
-977.7682699605475
 20
-1095.56905196787
 30
0.0
 11
-983.2682699605475
 21
-1095.56905196787
 31
0.0
  0
LINE
  5
176
330
71
100
AcDbEntity
  8
1
  6
Continuous
 62
     7
100
AcDbLine
 10
-928.9549248471101
 20
-1108.19405196787
 30
0.0
 11
-928.9549248471101
 21
-1099.69405196787
 31
0.0
  0
LINE
  5
177
330
71
100
AcDbEntity
  8
1
  6
Continuous
 62
     6
100
AcDbLine
 10
-956.8549248471102
 20
-1099.69405196787
 30
0.0
 11
-863.7101203203583
 21
-1099.69405196787
 31
0.0
  0
LINE
  5
178
330
71
100
AcDbEntity
  8
1
  6
Continuous
 62
     7
100
AcDbLine
 10
-993.25492484711
 20
-1099.69405196787
 30
0.0
 11
-993.25492484711
 21
-1091.19405196787
 31
0.0
  0
LINE
  5
179
330
71
100
AcDbEntity
  8
1
  6
Continuous
 62
     7
100
AcDbLine
 10
-956.8549248471102
 20
-1099.69405196787
 30
0.0
 11
-956.8549248471102
 21
-1091.19405196787
 31
0.0
  0
LINE
  5
17A
330
71
100
AcDbEntity
  8
1
  6
Continuous
 62
     7
100
AcDbLine
 10
-899.1285286020371
 20
-1091.19405196787
 30
0.0
 11
-899.1285286020371
 21
-1099.69405196787
 31
0.0
  0
LINE
  5
17B
330
71
100
AcDbEntity
  8
1
  6
Continuous
 62
     7
100
AcDbLine
 10
-872.6285286020376
 20
-1091.19405196787
 30
0.0
 11
-872.6285286020376
 21
-1099.69405196787
 31
0.0
  0
LINE
  5
17C
330
71
100
AcDbEntity
  8
1
  6
Continuous
 62
     6
100
AcDbLine
 10
-1062.25492484711
 20
-1116.69405196787
 30
0.0
 11
-1107.21012032036
 21
-1116.69405196787
 31
0.0
  0
LINE
  5
17D
330
71
100
AcDbEntity
  8
1
  6
Continuous
 62
     7
100
AcDbLine
 10
-863.7101203203588
 20
-1108.19405196787
 30
0.0
 11
-956.8549248471102
 21
-1108.19405196787
 31
0.0
  0
LINE
  5
17E
102
{ACAD_REACTORS
330
290
330
291
102
}
330
71
100
AcDbEntity
  8
0
  6
Continuous
 62
     2
100
AcDbLine
 10
-979.5474959053427
 20
-1107.393762852207
 30
0.0
 11
-979.5474959053427
 21
-1106.521245845403
 31
0.0
  0
LINE
  5
17F
102
{ACAD_REACTORS
330
290
330
291
102
}
330
71
100
AcDbEntity
  8
0
  6
Continuous
 62
     2
100
AcDbLine
 10
-979.5474959053427
 20
-1108.35353155969
 30
0.0
 11
-979.5474959053427
 21
-1109.226048566493
 31
0.0
  0
LINE
  5
180
102
{ACAD_REACTORS
330
292
330
293
102
}
330
71
100
AcDbEntity
  8
0
  6
Continuous
 62
     2
100
AcDbLine
 10
-964.2144517690522
 20
-1107.132007750166
 30
0.0
 11
-963.110812469484
 21
-1107.132007750166
 31
0.0
  0
LINE
  5
181
102
{ACAD_REACTORS
330
292
330
293
102
}
330
71
100
AcDbEntity
  8
0
  6
Continuous
 62
     2
100
AcDbLine
 10
-963.4447944260908
 20
-1108.35353155969
 30
0.0
 11
-963.4447944260908
 21
-1109.226048566493
 31
0.0
  0
LINE
  5
182
102
{ACAD_REACTORS
330
29C
330
29D
102
}
330
71
100
AcDbEntity
  8
0
  6
Continuous
 62
     2
100
AcDbLine
 10
-965.3055510414706
 20
-1106.041361491679
 30
0.0
 11
-963.9075979945303
 21
-1104.460502497904
 31
0.0
  0
LINE
  5
183
102
{ACAD_REACTORS
330
29C
330
29D
102
}
330
71
100
AcDbEntity
  8
0
  6
Continuous
 62
     2
100
AcDbLine
 10
-965.2101276252979
 20
-1102.987551967868
 30
0.0
 11
-963.9075979945303
 21
-1104.460502497904
 31
0.0
  0
LINE
  5
184
102
{ACAD_REACTORS
330
29C
330
29D
102
}
330
71
100
AcDbEntity
  8
0
  6
Continuous
 62
     2
100
AcDbLine
 10
-962.605068363764
 20
-1102.987551967868
 30
0.0
 11
-961.2023441460167
 21
-1102.987551967868
 31
0.0
  0
LINE
  5
185
102
{ACAD_REACTORS
330
29C
330
29D
102
}
330
71
100
AcDbEntity
  8
0
  6
Continuous
 62
     2
100
AcDbLine
 10
-963.9028268237224
 20
-1106.041361491679
 30
0.0
 11
-963.2062358856567
 21
-1105.253629706386
 31
0.0
  0
LINE
  5
186
102
{ACAD_REACTORS
330
29C
330
29D
102
}
330
71
100
AcDbEntity
  8
0
  6
Continuous
 62
     2
100
AcDbLine
 10
-963.9028268237224
 20
-1106.041361491679
 30
0.0
 11
-965.3055510414706
 21
-1106.041361491679
 31
0.0
  0
LINE
  5
187
102
{ACAD_REACTORS
330
29E
330
29F
102
}
330
71
100
AcDbEntity
  8
0
  6
Continuous
 62
     2
100
AcDbLine
 10
-965.4248303116875
 20
-1106.041361491679
 30
0.0
 11
-966.6653347219404
 21
-1106.041361491679
 31
0.0
  0
LINE
  5
188
102
{ACAD_REACTORS
330
2A0
330
2A1
102
}
330
71
100
AcDbEntity
  8
0
  6
Continuous
 62
     2
100
AcDbLine
 10
-967.5333143300955
 20
-1108.179028158329
 30
0.0
 11
-967.8334795672856
 21
-1107.411213192342
 31
0.0
  0
LINE
  5
189
102
{ACAD_REACTORS
330
2A0
330
2A1
102
}
330
71
100
AcDbEntity
  8
0
  6
Continuous
 62
     2
100
AcDbLine
 10
-968.1336448044781
 20
-1108.179028158329
 30
0.0
 11
-967.5333143300955
 21
-1108.179028158329
 31
0.0
  0
LINE
  5
18A
102
{ACAD_REACTORS
330
2A0
330
2A1
102
}
330
71
100
AcDbEntity
  8
0
  6
Continuous
 62
     2
100
AcDbLine
 10
-969.8516848193518
 20
-1109.400551967854
 30
0.0
 11
-968.6111804090989
 21
-1109.400551967854
 31
0.0
  0
LINE
  5
18B
102
{ACAD_REACTORS
330
2A0
330
2A1
102
}
330
71
100
AcDbEntity
  8
0
  6
Continuous
 62
     2
100
AcDbLine
 10
-968.4537317724125
 20
-1106.346742444043
 30
0.0
 11
-967.2132273621598
 21
-1106.346742444043
 31
0.0
  0
LINE
  5
18C
102
{ACAD_REACTORS
330
2A0
330
2A1
102
}
330
71
100
AcDbEntity
  8
0
  6
Continuous
 62
     2
100
AcDbLine
 10
-967.2132273621598
 20
-1106.346742444043
 30
0.0
 11
-965.8152743152195
 21
-1109.400551967854
 31
0.0
  0
LINE
  5
18D
102
{ACAD_REACTORS
330
2A0
330
2A1
102
}
330
71
100
AcDbEntity
  8
0
  6
Continuous
 62
     2
100
AcDbLine
 10
-967.0557787254735
 20
-1109.400551967854
 30
0.0
 11
-967.2672587789492
 21
-1108.859591423636
 31
0.0
  0
LINE
  5
18E
102
{ACAD_REACTORS
330
2A2
330
2A3
102
}
330
71
100
AcDbEntity
  8
0
  6
Continuous
 62
     2
100
AcDbLine
 10
-971.1980979210595
 20
-1109.400551967854
 30
0.0
 11
-970.005305218893
 21
-1109.400551967854
 31
0.0
  0
LINE
  5
18F
102
{ACAD_REACTORS
330
2A2
330
2A3
102
}
330
71
100
AcDbEntity
  8
0
  6
Continuous
 62
     2
100
AcDbLine
 10
-971.1980979210595
 20
-1107.132007750166
 30
0.0
 11
-971.1980979210595
 21
-1109.400551967854
 31
0.0
  0
LINE
  5
190
102
{ACAD_REACTORS
330
2A2
330
2A3
102
}
330
71
100
AcDbEntity
  8
0
  6
Continuous
 62
     2
100
AcDbLine
 10
-972.0091969585341
 20
-1106.346742444043
 30
0.0
 11
-972.0091969585341
 21
-1107.132007750166
 31
0.0
  0
LINE
  5
191
102
{ACAD_REACTORS
330
2A4
330
2A5
102
}
330
71
100
AcDbEntity
  8
0
  6
Continuous
 62
     2
100
AcDbLine
 10
-970.5299830769615
 20
-1106.041361491679
 30
0.0
 11
-969.337190374795
 21
-1106.041361491679
 31
0.0
  0
LINE
  5
192
102
{ACAD_REACTORS
330
2A4
330
2A5
102
}
330
71
100
AcDbEntity
  8
0
  6
Continuous
 62
     2
100
AcDbLine
 10
-968.0966859645409
 20
-1104.296327478073
 30
0.0
 11
-969.337190374795
 21
-1102.987551967868
 31
0.0
  0
LINE
  5
193
102
{ACAD_REACTORS
330
2A4
330
2A5
102
}
330
71
100
AcDbEntity
  8
0
  6
Continuous
 62
     2
100
AcDbLine
 10
-966.9038932623744
 20
-1102.987551967868
 30
0.0
 11
-968.0966859645409
 21
-1102.987551967868
 31
0.0
  0
LINE
  5
194
102
{ACAD_REACTORS
330
2A4
330
2A5
102
}
330
71
100
AcDbEntity
  8
0
  6
Continuous
 62
     2
100
AcDbLine
 10
-966.9038932623744
 20
-1106.041361491679
 30
0.0
 11
-966.9038932623744
 21
-1102.987551967868
 31
0.0
  0
LINE
  5
195
102
{ACAD_REACTORS
330
2A4
330
2A5
102
}
330
71
100
AcDbEntity
  8
0
  6
Continuous
 62
     2
100
AcDbLine
 10
-968.0966859645409
 20
-1106.041361491679
 30
0.0
 11
-966.9038932623744
 21
-1106.041361491679
 31
0.0
  0
LINE
  5
196
102
{ACAD_REACTORS
330
2A4
330
2A5
102
}
330
71
100
AcDbEntity
  8
0
  6
Continuous
 62
     2
100
AcDbLine
 10
-969.337190374795
 20
-1104.732585981475
 30
0.0
 11
-968.0966859645409
 21
-1106.041361491679
 31
0.0
  0
LINE
  5
197
102
{ACAD_REACTORS
330
2A6
330
2A7
102
}
330
71
100
AcDbEntity
  8
0
  6
Continuous
 62
     2
100
AcDbLine
 10
-973.3451247849607
 20
-1107.655517954248
 30
0.0
 11
-974.5856291952135
 21
-1106.346742444043
 31
0.0
  0
LINE
  5
198
102
{ACAD_REACTORS
330
2A6
330
2A7
102
}
330
71
100
AcDbEntity
  8
0
  6
Continuous
 62
     2
100
AcDbLine
 10
-973.3451247849607
 20
-1106.346742444043
 30
0.0
 11
-973.3451247849607
 21
-1107.655517954248
 31
0.0
  0
LINE
  5
199
102
{ACAD_REACTORS
330
2A6
330
2A7
102
}
330
71
100
AcDbEntity
  8
0
  6
Continuous
 62
     2
100
AcDbLine
 10
-972.1523320827943
 20
-1106.346742444043
 30
0.0
 11
-973.3451247849607
 21
-1106.346742444043
 31
0.0
  0
LINE
  5
19A
102
{ACAD_REACTORS
330
2A6
330
2A7
102
}
330
71
100
AcDbEntity
  8
0
  6
Continuous
 62
     2
100
AcDbLine
 10
-972.1523320827943
 20
-1109.400551967854
 30
0.0
 11
-972.1523320827943
 21
-1106.346742444043
 31
0.0
  0
LINE
  5
19B
102
{ACAD_REACTORS
330
2A6
330
2A7
102
}
330
71
100
AcDbEntity
  8
0
  6
Continuous
 62
     2
100
AcDbLine
 10
-974.5856291952135
 20
-1108.091776457649
 30
0.0
 11
-973.3451247849607
 21
-1109.400551967854
 31
0.0
  0
LINE
  5
19C
102
{ACAD_REACTORS
330
2A6
330
2A7
102
}
330
71
100
AcDbEntity
  8
0
  6
Continuous
 62
     2
100
AcDbLine
 10
-974.5856291952135
 20
-1109.400551967854
 30
0.0
 11
-974.5856291952135
 21
-1108.091776457649
 31
0.0
  0
LINE
  5
19D
102
{ACAD_REACTORS
330
296
330
297
102
}
330
71
100
AcDbEntity
  8
0
  6
Continuous
 62
     2
100
AcDbLine
 10
-972.104469443822
 20
-1103.685565573311
 30
0.0
 11
-970.7685416173944
 21
-1103.685565573311
 31
0.0
  0
LINE
  5
19E
102
{ACAD_REACTORS
330
296
330
297
102
}
330
71
100
AcDbEntity
  8
0
  6
Continuous
 62
     2
100
AcDbLine
 10
-972.104469443822
 20
-1105.343347886237
 30
0.0
 11
-972.104469443822
 21
-1104.863463532495
 31
0.0
  0
LINE
  5
19F
102
{ACAD_REACTORS
330
296
330
297
102
}
330
71
100
AcDbEntity
  8
0
  6
Continuous
 62
     2
100
AcDbLine
 10
-970.7685416173944
 20
-1105.343347886237
 30
0.0
 11
-972.104469443822
 21
-1105.343347886237
 31
0.0
  0
LINE
  5
1A0
102
{ACAD_REACTORS
330
296
330
297
102
}
330
71
100
AcDbEntity
  8
0
  6
Continuous
 62
     2
100
AcDbLine
 10
-970.7685416173944
 20
-1106.041361491679
 30
0.0
 11
-970.7685416173944
 21
-1105.343347886237
 31
0.0
  0
LINE
  5
1A1
102
{ACAD_REACTORS
330
296
330
297
102
}
330
71
100
AcDbEntity
  8
0
  6
Continuous
 62
     2
100
AcDbLine
 10
-973.9188613411753
 20
-1106.041361491679
 30
0.0
 11
-970.7685416173944
 21
-1106.041361491679
 31
0.0
  0
LINE
  5
1A2
102
{ACAD_REACTORS
330
296
330
297
102
}
330
71
100
AcDbEntity
  8
0
  6
Continuous
 62
     2
100
AcDbLine
 10
-973.9188613411753
 20
-1102.987551967868
 30
0.0
 11
-970.7685416173944
 21
-1102.987551967868
 31
0.0
  0
LINE
  5
1A3
102
{ACAD_REACTORS
330
296
330
297
102
}
330
71
100
AcDbEntity
  8
0
  6
Continuous
 62
     2
100
AcDbLine
 10
-970.7685416173944
 20
-1103.685565573311
 30
0.0
 11
-970.7685416173944
 21
-1102.987551967868
 31
0.0
  0
LINE
  5
1A4
102
{ACAD_REACTORS
330
2A8
330
2A9
102
}
330
71
100
AcDbEntity
  8
0
  6
Continuous
 62
     2
100
AcDbLine
 10
-976.7802168363154
 20
-1104.056385301203
 30
0.0
 11
-976.7802168363154
 21
-1102.987551967868
 31
0.0
  0
LINE
  5
1A5
102
{ACAD_REACTORS
330
2A8
330
2A9
102
}
330
71
100
AcDbEntity
  8
0
  6
Continuous
 62
     2
100
AcDbLine
 10
-976.7802168363154
 20
-1102.987551967868
 30
0.0
 11
-975.5874241341489
 21
-1102.987551967868
 31
0.0
  0
LINE
  5
1A6
102
{ACAD_REACTORS
330
2A8
330
2A9
102
}
330
71
100
AcDbEntity
  8
0
  6
Continuous
 62
     2
100
AcDbLine
 10
-976.7802168363154
 20
-1104.907089382836
 30
0.0
 11
-977.8298744142228
 21
-1104.907089382836
 31
0.0
  0
LINE
  5
1A7
102
{ACAD_REACTORS
330
2A8
330
2A9
102
}
330
71
100
AcDbEntity
  8
0
  6
Continuous
 62
     2
100
AcDbLine
 10
-977.8298744142228
 20
-1104.907089382836
 30
0.0
 11
-977.8298744142228
 21
-1106.041361491679
 31
0.0
  0
LINE
  5
1A8
102
{ACAD_REACTORS
330
2A8
330
2A9
102
}
330
71
100
AcDbEntity
  8
0
  6
Continuous
 62
     2
100
AcDbLine
 10
-979.0226671163895
 20
-1102.987551967868
 30
0.0
 11
-979.0226671163895
 21
-1106.041361491679
 31
0.0
  0
LINE
  5
1A9
102
{ACAD_REACTORS
330
29A
330
29B
102
}
330
71
100
AcDbEntity
  8
0
  6
Continuous
 62
     2
100
AcDbLine
 10
-980.978847147943
 20
-1104.356385462651
 30
0.0
 11
-980.978847147943
 21
-1103.650657813308
 31
0.0
  0
LINE
  5
1AA
102
{ACAD_REACTORS
330
29A
330
29B
102
}
330
71
100
AcDbEntity
  8
0
  6
Continuous
 62
     2
100
AcDbLine
 10
-982.2193515581971
 20
-1106.041361491679
 30
0.0
 11
-980.978847147943
 21
-1106.041361491679
 31
0.0
  0
LINE
  5
1AB
102
{ACAD_REACTORS
330
29A
330
29B
102
}
330
71
100
AcDbEntity
  8
0
  6
Continuous
 62
     2
100
AcDbLine
 10
-980.978847147943
 20
-1106.041361491679
 30
0.0
 11
-980.978847147943
 21
-1105.098283250536
 31
0.0
  0
LINE
  5
1AC
102
{ACAD_REACTORS
330
294
330
295
102
}
330
71
100
AcDbEntity
  8
0
  6
Continuous
 62
     2
100
AcDbLine
 10
-986.5242974074085
 20
-1108.687996412297
 30
0.0
 11
-988.0001306684181
 21
-1108.687996412297
 31
0.0
  0
LINE
  5
1AD
102
{ACAD_REACTORS
330
294
330
295
102
}
330
71
100
AcDbEntity
  8
0
  6
Continuous
 62
     2
100
AcDbLine
 10
-989.0182699605475
 20
-1103.41179658327
 30
0.0
 11
-989.0182699605475
 21
-1108.97630735247
 31
0.0
  0
LINE
  5
1AE
102
{ACAD_REACTORS
330
294
330
295
102
}
330
71
100
AcDbEntity
  8
0
  6
Continuous
 62
     2
100
AcDbLine
 10
-988.5940253451647
 20
-1102.987551967886
 30
0.0
 11
-983.1207132544479
 21
-1102.987551967886
 31
0.0
  0
LINE
  5
1AF
102
{ACAD_REACTORS
330
294
330
295
102
}
330
71
100
AcDbEntity
  8
0
  6
Continuous
 62
     2
100
AcDbLine
 10
-982.6964686390639
 20
-1103.41179658327
 30
0.0
 11
-982.6964686390639
 21
-1108.97630735247
 31
0.0
  0
LINE
  5
1B0
102
{ACAD_REACTORS
330
294
330
295
102
}
330
71
100
AcDbEntity
  8
0
  6
Continuous
 62
     2
100
AcDbLine
 10
-983.1207132544479
 20
-1109.400551967854
 30
0.0
 11
-988.5940253451647
 21
-1109.400551967854
 31
0.0
  0
LINE
  5
1B1
102
{ACAD_REACTORS
330
294
330
295
102
}
330
71
100
AcDbEntity
  8
0
  6
Continuous
 62
     2
100
AcDbLine
 10
-986.208580484332
 20
-1108.37227948922
 30
0.0
 11
-986.208580484332
 21
-1106.841508557689
 31
0.0
  0
LINE
  5
1B2
102
{ACAD_REACTORS
330
294
330
295
102
}
330
71
100
AcDbEntity
  8
0
  6
Continuous
 62
     2
100
AcDbLine
 10
-986.208580484332
 20
-1104.619849065563
 30
0.0
 11
-986.208580484332
 21
-1104.015824446503
 31
0.0
  0
LINE
  5
1B3
102
{ACAD_REACTORS
330
294
330
295
102
}
330
71
100
AcDbEntity
  8
0
  6
Continuous
 62
     2
100
AcDbLine
 10
-988.0001306684181
 20
-1103.700107523427
 30
0.0
 11
-986.5242974074085
 21
-1103.700107523427
 31
0.0
  0
LINE
  5
1B4
102
{ACAD_REACTORS
330
294
330
295
102
}
330
71
100
AcDbEntity
  8
0
  6
Continuous
 62
     2
100
AcDbLine
 10
-988.3158475914938
 20
-1104.015824446503
 30
0.0
 11
-988.3158475914938
 21
-1108.37227948922
 31
0.0
  0
LINE
  5
1B5
102
{ACAD_REACTORS
330
29A
330
29B
102
}
330
71
100
AcDbEntity
  8
0
  6
Continuous
 62
     2
100
AcDbLine
 10
-980.978847147943
 20
-1105.098283250536
 30
0.0
 11
-980.2200795601627
 21
-1105.098283250536
 31
0.0
  0
LINE
  5
1B6
102
{ACAD_REACTORS
330
29A
330
29B
102
}
330
71
100
AcDbEntity
  8
0
  6
Continuous
 62
     2
100
AcDbLine
 10
-982.2193515581971
 20
-1102.987551967868
 30
0.0
 11
-980.2200795601627
 21
-1102.987551967868
 31
0.0
  0
LINE
  5
1B7
102
{ACAD_REACTORS
330
29A
330
29B
102
}
330
71
100
AcDbEntity
  8
0
  6
Continuous
 62
     2
100
AcDbLine
 10
-982.2193515581971
 20
-1102.987551967868
 30
0.0
 11
-982.2193515581971
 21
-1106.041361491679
 31
0.0
  0
LINE
  5
1B8
102
{ACAD_REACTORS
330
29A
330
29B
102
}
330
71
100
AcDbEntity
  8
0
  6
Continuous
 62
     2
100
AcDbLine
 10
-980.978847147943
 20
-1104.356385462651
 30
0.0
 11
-980.6615520864011
 21
-1104.356385462651
 31
0.0
  0
LINE
  5
1B9
102
{ACAD_REACTORS
330
29A
330
29B
102
}
330
71
100
AcDbEntity
  8
0
  6
Continuous
 62
     2
100
AcDbLine
 10
-980.978847147943
 20
-1103.650657813308
 30
0.0
 11
-980.6615520864011
 21
-1103.650657813308
 31
0.0
  0
LINE
  5
1BA
102
{ACAD_REACTORS
330
2A8
330
2A9
102
}
330
71
100
AcDbEntity
  8
0
  6
Continuous
 62
     2
100
AcDbLine
 10
-977.8298744142228
 20
-1104.056385301203
 30
0.0
 11
-976.7802168363154
 21
-1104.056385301203
 31
0.0
  0
LINE
  5
1BB
102
{ACAD_REACTORS
330
2A8
330
2A9
102
}
330
71
100
AcDbEntity
  8
0
  6
Continuous
 62
     2
100
AcDbLine
 10
-977.8298744142228
 20
-1102.987551967868
 30
0.0
 11
-977.8298744142228
 21
-1104.056385301203
 31
0.0
  0
LINE
  5
1BC
102
{ACAD_REACTORS
330
2A8
330
2A9
102
}
330
71
100
AcDbEntity
  8
0
  6
Continuous
 62
     2
100
AcDbLine
 10
-979.0226671163895
 20
-1102.987551967868
 30
0.0
 11
-977.8298744142228
 21
-1102.987551967868
 31
0.0
  0
LINE
  5
1BD
102
{ACAD_REACTORS
330
2A8
330
2A9
102
}
330
71
100
AcDbEntity
  8
0
  6
Continuous
 62
     2
100
AcDbLine
 10
-977.8298744142228
 20
-1106.041361491679
 30
0.0
 11
-979.0226671163895
 21
-1106.041361491679
 31
0.0
  0
LINE
  5
1BE
102
{ACAD_REACTORS
330
2A8
330
2A9
102
}
330
71
100
AcDbEntity
  8
0
  6
Continuous
 62
     2
100
AcDbLine
 10
-976.7802168363154
 20
-1106.041361491679
 30
0.0
 11
-976.7802168363154
 21
-1104.907089382836
 31
0.0
  0
LINE
  5
1BF
102
{ACAD_REACTORS
330
2A8
330
2A9
102
}
330
71
100
AcDbEntity
  8
0
  6
Continuous
 62
     2
100
AcDbLine
 10
-975.5874241341489
 20
-1106.041361491679
 30
0.0
 11
-976.7802168363154
 21
-1106.041361491679
 31
0.0
  0
LINE
  5
1C0
102
{ACAD_REACTORS
330
2A8
330
2A9
102
}
330
71
100
AcDbEntity
  8
0
  6
Continuous
 62
     2
100
AcDbLine
 10
-975.5874241341489
 20
-1102.987551967868
 30
0.0
 11
-975.5874241341489
 21
-1106.041361491679
 31
0.0
  0
LINE
  5
1C1
102
{ACAD_REACTORS
330
296
330
297
102
}
330
71
100
AcDbEntity
  8
0
  6
Continuous
 62
     2
100
AcDbLine
 10
-972.104469443822
 20
-1104.863463532495
 30
0.0
 11
-970.7685416173944
 21
-1104.863463532495
 31
0.0
  0
LINE
  5
1C2
102
{ACAD_REACTORS
330
296
330
297
102
}
330
71
100
AcDbEntity
  8
0
  6
Continuous
 62
     2
100
AcDbLine
 10
-970.7685416173944
 20
-1104.863463532495
 30
0.0
 11
-970.7685416173944
 21
-1104.165449927053
 31
0.0
  0
LINE
  5
1C3
102
{ACAD_REACTORS
330
296
330
297
102
}
330
71
100
AcDbEntity
  8
0
  6
Continuous
 62
     2
100
AcDbLine
 10
-970.7685416173944
 20
-1104.165449927053
 30
0.0
 11
-972.104469443822
 21
-1104.165449927053
 31
0.0
  0
LINE
  5
1C4
102
{ACAD_REACTORS
330
296
330
297
102
}
330
71
100
AcDbEntity
  8
0
  6
Continuous
 62
     2
100
AcDbLine
 10
-972.104469443822
 20
-1104.165449927053
 30
0.0
 11
-972.104469443822
 21
-1103.685565573311
 31
0.0
  0
LINE
  5
1C5
102
{ACAD_REACTORS
330
2A6
330
2A7
102
}
330
71
100
AcDbEntity
  8
0
  6
Continuous
 62
     2
100
AcDbLine
 10
-975.7784218973811
 20
-1109.400551967854
 30
0.0
 11
-974.5856291952135
 21
-1109.400551967854
 31
0.0
  0
LINE
  5
1C6
102
{ACAD_REACTORS
330
2A6
330
2A7
102
}
330
71
100
AcDbEntity
  8
0
  6
Continuous
 62
     2
100
AcDbLine
 10
-973.3451247849607
 20
-1109.400551967854
 30
0.0
 11
-972.1523320827943
 21
-1109.400551967854
 31
0.0
  0
LINE
  5
1C7
102
{ACAD_REACTORS
330
2A6
330
2A7
102
}
330
71
100
AcDbEntity
  8
0
  6
Continuous
 62
     2
100
AcDbLine
 10
-974.5856291952135
 20
-1106.346742444043
 30
0.0
 11
-975.7784218973811
 21
-1106.346742444043
 31
0.0
  0
LINE
  5
1C8
102
{ACAD_REACTORS
330
2A6
330
2A7
102
}
330
71
100
AcDbEntity
  8
0
  6
Continuous
 62
     2
100
AcDbLine
 10
-975.7784218973811
 20
-1106.346742444043
 30
0.0
 11
-975.7784218973811
 21
-1109.400551967854
 31
0.0
  0
LINE
  5
1C9
102
{ACAD_REACTORS
330
2A4
330
2A5
102
}
330
71
100
AcDbEntity
  8
0
  6
Continuous
 62
     2
100
AcDbLine
 10
-968.0966859645409
 20
-1102.987551967868
 30
0.0
 11
-968.0966859645409
 21
-1104.296327478073
 31
0.0
  0
LINE
  5
1CA
102
{ACAD_REACTORS
330
2A4
330
2A5
102
}
330
71
100
AcDbEntity
  8
0
  6
Continuous
 62
     2
100
AcDbLine
 10
-969.337190374795
 20
-1102.987551967868
 30
0.0
 11
-970.5299830769615
 21
-1102.987551967868
 31
0.0
  0
LINE
  5
1CB
102
{ACAD_REACTORS
330
2A4
330
2A5
102
}
330
71
100
AcDbEntity
  8
0
  6
Continuous
 62
     2
100
AcDbLine
 10
-970.5299830769615
 20
-1102.987551967868
 30
0.0
 11
-970.5299830769615
 21
-1106.041361491679
 31
0.0
  0
LINE
  5
1CC
102
{ACAD_REACTORS
330
2A4
330
2A5
102
}
330
71
100
AcDbEntity
  8
0
  6
Continuous
 62
     2
100
AcDbLine
 10
-969.337190374795
 20
-1106.041361491679
 30
0.0
 11
-969.337190374795
 21
-1104.732585981475
 31
0.0
  0
LINE
  5
1CD
102
{ACAD_REACTORS
330
2A2
330
2A3
102
}
330
71
100
AcDbEntity
  8
0
  6
Continuous
 62
     2
100
AcDbLine
 10
-970.005305218893
 20
-1109.400551967854
 30
0.0
 11
-970.005305218893
 21
-1107.132007750166
 31
0.0
  0
LINE
  5
1CE
102
{ACAD_REACTORS
330
2A2
330
2A3
102
}
330
71
100
AcDbEntity
  8
0
  6
Continuous
 62
     2
100
AcDbLine
 10
-970.005305218893
 20
-1107.132007750166
 30
0.0
 11
-969.1942061814204
 21
-1107.132007750166
 31
0.0
  0
LINE
  5
1CF
102
{ACAD_REACTORS
330
2A2
330
2A3
102
}
330
71
100
AcDbEntity
  8
0
  6
Continuous
 62
     2
100
AcDbLine
 10
-969.1942061814204
 20
-1107.132007750166
 30
0.0
 11
-969.1942061814204
 21
-1106.346742444043
 31
0.0
  0
LINE
  5
1D0
102
{ACAD_REACTORS
330
2A2
330
2A3
102
}
330
71
100
AcDbEntity
  8
0
  6
Continuous
 62
     2
100
AcDbLine
 10
-969.1942061814204
 20
-1106.346742444043
 30
0.0
 11
-972.0091969585341
 21
-1106.346742444043
 31
0.0
  0
LINE
  5
1D1
102
{ACAD_REACTORS
330
2A2
330
2A3
102
}
330
71
100
AcDbEntity
  8
0
  6
Continuous
 62
     2
100
AcDbLine
 10
-972.0091969585341
 20
-1107.132007750166
 30
0.0
 11
-971.1980979210595
 21
-1107.132007750166
 31
0.0
  0
LINE
  5
1D2
102
{ACAD_REACTORS
330
2A0
330
2A1
102
}
330
71
100
AcDbEntity
  8
0
  6
Continuous
 62
     2
100
AcDbLine
 10
-968.399700355623
 20
-1108.859591423636
 30
0.0
 11
-967.2672587789492
 21
-1108.859591423636
 31
0.0
  0
LINE
  5
1D3
102
{ACAD_REACTORS
330
2A0
330
2A1
102
}
330
71
100
AcDbEntity
  8
0
  6
Continuous
 62
     2
100
AcDbLine
 10
-965.8152743152195
 20
-1109.400551967854
 30
0.0
 11
-967.0557787254735
 21
-1109.400551967854
 31
0.0
  0
LINE
  5
1D4
102
{ACAD_REACTORS
330
2A0
330
2A1
102
}
330
71
100
AcDbEntity
  8
0
  6
Continuous
 62
     2
100
AcDbLine
 10
-968.4537317724125
 20
-1106.346742444043
 30
0.0
 11
-969.8516848193518
 21
-1109.400551967854
 31
0.0
  0
LINE
  5
1D5
102
{ACAD_REACTORS
330
2A0
330
2A1
102
}
330
71
100
AcDbEntity
  8
0
  6
Continuous
 62
     2
100
AcDbLine
 10
-968.6111804090989
 20
-1109.400551967854
 30
0.0
 11
-968.399700355623
 21
-1108.859591423636
 31
0.0
  0
LINE
  5
1D6
102
{ACAD_REACTORS
330
2A0
330
2A1
102
}
330
71
100
AcDbEntity
  8
0
  6
Continuous
 62
     2
100
AcDbLine
 10
-968.1336448044781
 20
-1108.179028158329
 30
0.0
 11
-967.8334795672856
 21
-1107.411213192342
 31
0.0
  0
LINE
  5
1D7
102
{ACAD_REACTORS
330
29E
330
29F
102
}
330
71
100
AcDbEntity
  8
0
  6
Continuous
 62
     2
100
AcDbLine
 10
-966.6653347219404
 20
-1106.041361491679
 30
0.0
 11
-966.6653347219404
 21
-1102.987551967868
 31
0.0
  0
LINE
  5
1D8
102
{ACAD_REACTORS
330
29E
330
29F
102
}
330
71
100
AcDbEntity
  8
0
  6
Continuous
 62
     2
100
AcDbLine
 10
-965.4248303116875
 20
-1102.987551967868
 30
0.0
 11
-965.4248303116875
 21
-1106.041361491679
 31
0.0
  0
LINE
  5
1D9
102
{ACAD_REACTORS
330
29E
330
29F
102
}
330
71
100
AcDbEntity
  8
0
  6
Continuous
 62
     2
100
AcDbLine
 10
-966.6653347219404
 20
-1102.987551967868
 30
0.0
 11
-965.4248303116875
 21
-1102.987551967868
 31
0.0
  0
LINE
  5
1DA
102
{ACAD_REACTORS
330
29C
330
29D
102
}
330
71
100
AcDbEntity
  8
0
  6
Continuous
 62
     2
100
AcDbLine
 10
-963.2062358856567
 20
-1105.253629706386
 30
0.0
 11
-962.5096449475913
 21
-1106.041361491679
 31
0.0
  0
LINE
  5
1DB
102
{ACAD_REACTORS
330
29C
330
29D
102
}
330
71
100
AcDbEntity
  8
0
  6
Continuous
 62
     2
100
AcDbLine
 10
-962.5096449475913
 20
-1106.041361491679
 30
0.0
 11
-961.106920729843
 21
-1106.041361491679
 31
0.0
  0
LINE
  5
1DC
102
{ACAD_REACTORS
330
29C
330
29D
102
}
330
71
100
AcDbEntity
  8
0
  6
Continuous
 62
     2
100
AcDbLine
 10
-962.5048737767833
 20
-1104.460502497904
 30
0.0
 11
-961.106920729843
 21
-1106.041361491679
 31
0.0
  0
LINE
  5
1DD
102
{ACAD_REACTORS
330
29C
330
29D
102
}
330
71
100
AcDbEntity
  8
0
  6
Continuous
 62
     2
100
AcDbLine
 10
-962.5048737767833
 20
-1104.460502497904
 30
0.0
 11
-961.2023441460167
 21
-1102.987551967868
 31
0.0
  0
LINE
  5
1DE
102
{ACAD_REACTORS
330
29C
330
29D
102
}
330
71
100
AcDbEntity
  8
0
  6
Continuous
 62
     2
100
AcDbLine
 10
-963.2062358856567
 20
-1103.667375289424
 30
0.0
 11
-962.605068363764
 21
-1102.987551967868
 31
0.0
  0
LINE
  5
1DF
102
{ACAD_REACTORS
330
29C
330
29D
102
}
330
71
100
AcDbEntity
  8
0
  6
Continuous
 62
     2
100
AcDbLine
 10
-963.8074034075486
 20
-1102.987551967868
 30
0.0
 11
-963.2062358856567
 21
-1103.667375289424
 31
0.0
  0
LINE
  5
1E0
102
{ACAD_REACTORS
330
29C
330
29D
102
}
330
71
100
AcDbEntity
  8
0
  6
Continuous
 62
     2
100
AcDbLine
 10
-963.8074034075486
 20
-1102.987551967868
 30
0.0
 11
-965.2101276252979
 21
-1102.987551967868
 31
0.0
  0
LINE
  5
1E1
102
{ACAD_REACTORS
330
292
330
293
102
}
330
71
100
AcDbEntity
  8
0
  6
Continuous
 62
     2
100
AcDbLine
 10
-963.110812469484
 20
-1109.400551967854
 30
0.0
 11
-961.9180197673163
 21
-1109.400551967854
 31
0.0
  0
LINE
  5
1E2
102
{ACAD_REACTORS
330
292
330
293
102
}
330
71
100
AcDbEntity
  8
0
  6
Continuous
 62
     2
100
AcDbLine
 10
-961.9180197673163
 20
-1109.400551967854
 30
0.0
 11
-961.9180197673163
 21
-1107.132007750166
 31
0.0
  0
LINE
  5
1E3
102
{ACAD_REACTORS
330
292
330
293
102
}
330
71
100
AcDbEntity
  8
0
  6
Continuous
 62
     2
100
AcDbLine
 10
-961.9180197673163
 20
-1107.132007750166
 30
0.0
 11
-961.106920729843
 21
-1107.132007750166
 31
0.0
  0
LINE
  5
1E4
102
{ACAD_REACTORS
330
292
330
293
102
}
330
71
100
AcDbEntity
  8
0
  6
Continuous
 62
     2
100
AcDbLine
 10
-961.106920729843
 20
-1107.132007750166
 30
0.0
 11
-961.106920729843
 21
-1106.346742444043
 31
0.0
  0
LINE
  5
1E5
102
{ACAD_REACTORS
330
292
330
293
102
}
330
71
100
AcDbEntity
  8
0
  6
Continuous
 62
     2
100
AcDbLine
 10
-964.4918662484716
 20
-1106.346742444043
 30
0.0
 11
-961.106920729843
 21
-1106.346742444043
 31
0.0
  0
LINE
  5
1E6
102
{ACAD_REACTORS
330
292
330
293
102
}
330
71
100
AcDbEntity
  8
0
  6
Continuous
 62
     2
100
AcDbLine
 10
-963.110812469484
 20
-1107.132007750166
 30
0.0
 11
-963.110812469484
 21
-1109.400551967854
 31
0.0
  0
LINE
  5
1E7
102
{ACAD_REACTORS
330
294
330
295
102
}
330
71
100
AcDbEntity
  8
0
  6
Continuous
 62
     2
100
AcDbLine
 10
-985.7402989049633
 20
-1107.421671818289
 30
0.0
 11
-985.7402989049633
 21
-1106.839820411594
 31
0.0
  0
LINE
  5
1E8
102
{ACAD_REACTORS
330
294
330
295
102
}
330
71
100
AcDbEntity
  8
0
  6
Continuous
 62
     2
100
AcDbLine
 10
-985.7402989049633
 20
-1104.621537211658
 30
0.0
 11
-985.7402989049633
 21
-1104.016001923151
 31
0.0
  0
LINE
  5
1E9
330
71
100
AcDbEntity
  8
1
  6
Continuous
 62
     6
100
AcDbLine
 10
-1007.21012032036
 20
-1116.69405196787
 30
0.0
 11
-993.25492484711
 21
-1116.69405196787
 31
0.0
  0
LINE
  5
1EA
330
71
100
AcDbEntity
  8
1
  6
Continuous
 62
     6
100
AcDbLine
 10
-1057.21012032036
 20
-1116.69405196787
 30
0.0
 11
-1062.25492484711
 21
-1116.69405196787
 31
0.0
  0
LINE
  5
1EB
330
71
100
AcDbEntity
  8
1
  6
Continuous
 62
     6
100
AcDbLine
 10
-907.21012032036
 20
-1116.69405196787
 30
0.0
 11
-863.71012032036
 21
-1116.69405196787
 31
0.0
  0
LINE
  5
1EC
330
71
100
AcDbEntity
  8
1
  6
Continuous
 62
     6
100
AcDbLine
 10
-957.21012032036
 20
-1116.69405196787
 30
0.0
 11
-975.05492484711
 21
-1116.69405196787
 31
0.0
  0
LINE
  5
1ED
330
71
100
AcDbEntity
  8
1
  6
Continuous
 62
     2
100
AcDbLine
 10
-863.71012032036
 20
-1116.69405196787
 30
0.0
 11
-858.710120320361
 21
-1116.69405196787
 31
0.0
  0
LINE
  5
1EE
330
71
100
AcDbEntity
  8
1
  6
Continuous
 62
     2
100
AcDbLine
 10
-863.71012032036
 20
-1116.69405196787
 30
0.0
 11
-863.71012032036
 21
-1121.69405196787
 31
0.0
  0
LINE
  5
1EF
330
71
100
AcDbEntity
  8
1
  6
Continuous
 62
     6
100
AcDbLine
 10
-993.25492484711
 20
-1099.69405196787
 30
0.0
 11
-956.8549248471102
 21
-1099.69405196787
 31
0.0
  0
LINE
  5
1F0
330
71
100
AcDbEntity
  8
1
  6
Continuous
 62
     2
100
AcDbLine
 10
-858.710120320361
 20
-1121.69405196787
 30
0.0
 11
-858.710120320361
 21
-1116.69405196787
 31
0.0
  0
LINE
  5
1F1
330
71
100
AcDbEntity
  8
1
  6
Continuous
 62
     2
100
AcDbLine
 10
-858.710120320361
 20
-1121.69405196787
 30
0.0
 11
-863.71012032036
 21
-1121.69405196787
 31
0.0
  0
LINE
  5
1F2
330
71
100
AcDbEntity
  8
1
  6
Continuous
 62
     2
100
AcDbLine
 10
-863.71012032036
 20
-1121.69405196787
 30
0.0
 11
-907.21012032036
 21
-1121.69405196787
 31
0.0
  0
LINE
  5
1F3
330
71
100
AcDbEntity
  8
1
  6
Continuous
 62
     6
100
AcDbLine
 10
-863.7101203203583
 20
-1099.69405196787
 30
0.0
 11
-863.7101203203591
 21
-1066.69405196787
 31
0.0
  0
LINE
  5
1F4
330
71
100
AcDbEntity
  8
1
  6
Continuous
 62
     2
100
AcDbLine
 10
-858.710120320361
 20
-911.6940519678699
 30
0.0
 11
-1007.21012032036
 21
-911.6940519678699
 31
0.0
  0
LINE
  5
1F5
330
71
100
AcDbEntity
  8
1
  6
Continuous
 62
     6
100
AcDbLine
 10
-863.710120320361
 20
-931.6940519678699
 30
0.0
 11
-1150.710120320359
 21
-931.6940519678699
 31
0.0
  0
LINE
  5
1F6
330
71
100
AcDbEntity
  8
1
  6
Continuous
 62
     2
100
AcDbLine
 10
-863.7101203203591
 20
-1066.69405196787
 30
0.0
 11
-858.710120320361
 21
-1066.69405196787
 31
0.0
  0
LINE
  5
1F7
330
71
100
AcDbEntity
  8
1
  6
Continuous
 62
     6
100
AcDbLine
 10
-863.7101203203591
 20
-1066.69405196787
 30
0.0
 11
-863.7101203203597
 21
-1016.69405196787
 31
0.0
  0
LINE
  5
1F8
330
71
100
AcDbEntity
  8
1
  6
Continuous
 62
     2
100
AcDbLine
 10
-858.710120320361
 20
-1066.69405196787
 30
0.0
 11
-858.710120320361
 21
-1016.69405196787
 31
0.0
  0
LINE
  5
1F9
330
71
100
AcDbEntity
  8
1
  6
Continuous
 62
     2
100
AcDbLine
 10
-863.7101203203597
 20
-1016.69405196787
 30
0.0
 11
-858.710120320361
 21
-1016.69405196787
 31
0.0
  0
LINE
  5
1FA
330
71
100
AcDbEntity
  8
1
  6
Continuous
 62
     6
100
AcDbLine
 10
-863.7101203203597
 20
-1016.69405196787
 30
0.0
 11
-863.7101203203608
 21
-966.6940519678699
 31
0.0
  0
LINE
  5
1FB
330
71
100
AcDbEntity
  8
1
  6
Continuous
 62
     2
100
AcDbLine
 10
-858.710120320361
 20
-1016.69405196787
 30
0.0
 11
-858.710120320361
 21
-966.6940519678699
 31
0.0
  0
LINE
  5
1FC
330
71
100
AcDbEntity
  8
1
  6
Continuous
 62
     2
100
AcDbLine
 10
-863.7101203203608
 20
-966.6940519678699
 30
0.0
 11
-858.710120320361
 21
-966.6940519678699
 31
0.0
  0
LINE
  5
1FD
330
71
100
AcDbEntity
  8
1
  6
Continuous
 62
     6
100
AcDbLine
 10
-863.7101203203608
 20
-966.6940519678699
 30
0.0
 11
-863.710120320361
 21
-931.6940519678699
 31
0.0
  0
LINE
  5
1FE
330
71
100
AcDbEntity
  8
1
  6
Continuous
 62
     2
100
AcDbLine
 10
-858.710120320361
 20
-966.6940519678699
 30
0.0
 11
-858.710120320361
 21
-911.6940519678699
 31
0.0
  0
LINE
  5
1FF
330
71
100
AcDbEntity
  8
1
  6
Continuous
 62
     2
100
AcDbLine
 10
-858.710120320361
 20
-1116.69405196787
 30
0.0
 11
-858.710120320361
 21
-1066.69405196787
 31
0.0
  0
LINE
  5
200
330
71
100
AcDbEntity
  8
1
  6
Continuous
 62
     2
100
AcDbLine
 10
-1007.21012032036
 20
-911.6940519678699
 30
0.0
 11
-1155.710120320359
 21
-911.6940519678699
 31
0.0
  0
LINE
  5
201
330
71
100
AcDbEntity
  8
1
  6
Continuous
 62
     2
100
AcDbLine
 10
-1007.21012032036
 20
-911.6940519678699
 30
0.0
 11
-1007.21012032036
 21
-920.9027438125712
 31
0.0
  0
LINE
  5
202
330
71
100
AcDbEntity
  8
1
  6
Continuous
 62
     2
100
AcDbLine
 10
-1155.710120320359
 20
-1121.69405196787
 30
0.0
 11
-1150.710120320358
 21
-1121.69405196787
 31
0.0
  0
LINE
  5
203
330
71
100
AcDbEntity
  8
1
  6
Continuous
 62
     2
100
AcDbLine
 10
-1155.710120320359
 20
-911.6940519678699
 30
0.0
 11
-1155.710120320359
 21
-966.6940519678699
 31
0.0
  0
LINE
  5
204
330
71
100
AcDbEntity
  8
1
  6
Continuous
 62
     6
100
AcDbLine
 10
-1150.710120320359
 20
-931.6940519678699
 30
0.0
 11
-1150.710120320359
 21
-966.6940519678699
 31
0.0
  0
LINE
  5
205
330
71
100
AcDbEntity
  8
1
  6
Continuous
 62
     2
100
AcDbLine
 10
-1155.710120320359
 20
-966.6940519678699
 30
0.0
 11
-1150.710120320359
 21
-966.6940519678699
 31
0.0
  0
LINE
  5
206
330
71
100
AcDbEntity
  8
1
  6
Continuous
 62
     2
100
AcDbLine
 10
-1155.710120320359
 20
-966.6940519678699
 30
0.0
 11
-1155.710120320359
 21
-1016.69405196787
 31
0.0
  0
LINE
  5
207
330
71
100
AcDbEntity
  8
1
  6
Continuous
 62
     6
100
AcDbLine
 10
-1150.710120320359
 20
-966.6940519678699
 30
0.0
 11
-1150.710120320359
 21
-1016.69405196787
 31
0.0
  0
LINE
  5
208
330
71
100
AcDbEntity
  8
1
  6
Continuous
 62
     2
100
AcDbLine
 10
-1155.710120320359
 20
-1016.69405196787
 30
0.0
 11
-1150.710120320359
 21
-1016.69405196787
 31
0.0
  0
LINE
  5
209
330
71
100
AcDbEntity
  8
1
  6
Continuous
 62
     2
100
AcDbLine
 10
-1155.710120320359
 20
-1016.69405196787
 30
0.0
 11
-1155.710120320359
 21
-1066.69405196787
 31
0.0
  0
LINE
  5
20A
330
71
100
AcDbEntity
  8
1
  6
Continuous
 62
     6
100
AcDbLine
 10
-1150.710120320359
 20
-1016.69405196787
 30
0.0
 11
-1150.710120320358
 21
-1066.69405196787
 31
0.0
  0
LINE
  5
20B
330
71
100
AcDbEntity
  8
1
  6
Continuous
 62
     2
100
AcDbLine
 10
-1155.710120320359
 20
-1066.69405196787
 30
0.0
 11
-1150.710120320358
 21
-1066.69405196787
 31
0.0
  0
LINE
  5
20C
330
71
100
AcDbEntity
  8
1
  6
Continuous
 62
     2
100
AcDbLine
 10
-1155.710120320359
 20
-1066.69405196787
 30
0.0
 11
-1155.710120320359
 21
-1116.69405196787
 31
0.0
  0
LINE
  5
20D
330
71
100
AcDbEntity
  8
1
  6
Continuous
 62
     6
100
AcDbLine
 10
-1150.710120320358
 20
-1066.69405196787
 30
0.0
 11
-1150.710120320358
 21
-1116.69405196787
 31
0.0
  0
LINE
  5
20E
330
71
100
AcDbEntity
  8
1
  6
Continuous
 62
     2
100
AcDbLine
 10
-1107.21012032036
 20
-1121.69405196787
 30
0.0
 11
-1107.21012032036
 21
-1116.69405196787
 31
0.0
  0
LINE
  5
20F
330
71
100
AcDbEntity
  8
1
  6
Continuous
 62
     2
100
AcDbLine
 10
-1107.21012032036
 20
-1121.69405196787
 30
0.0
 11
-1057.21012032036
 21
-1121.69405196787
 31
0.0
  0
LINE
  5
210
330
71
100
AcDbEntity
  8
1
  6
Continuous
 62
     2
100
AcDbLine
 10
-1057.21012032036
 20
-1121.69405196787
 30
0.0
 11
-1057.21012032036
 21
-1116.69405196787
 31
0.0
  0
LINE
  5
211
330
71
100
AcDbEntity
  8
1
  6
Continuous
 62
     2
100
AcDbLine
 10
-1057.21012032036
 20
-1121.69405196787
 30
0.0
 11
-1007.21012032036
 21
-1121.69405196787
 31
0.0
  0
LINE
  5
212
330
71
100
AcDbEntity
  8
1
  6
Continuous
 62
     2
100
AcDbLine
 10
-1007.21012032036
 20
-1121.69405196787
 30
0.0
 11
-1007.21012032036
 21
-1116.69405196787
 31
0.0
  0
LINE
  5
213
330
71
100
AcDbEntity
  8
1
  6
Continuous
 62
     2
100
AcDbLine
 10
-1007.21012032036
 20
-1121.69405196787
 30
0.0
 11
-957.21012032036
 21
-1121.69405196787
 31
0.0
  0
LINE
  5
214
330
71
100
AcDbEntity
  8
1
  6
Continuous
 62
     2
100
AcDbLine
 10
-957.21012032036
 20
-1121.69405196787
 30
0.0
 11
-957.21012032036
 21
-1116.69405196787
 31
0.0
  0
LINE
  5
215
330
71
100
AcDbEntity
  8
1
  6
Continuous
 62
     2
100
AcDbLine
 10
-907.21012032036
 20
-1121.69405196787
 30
0.0
 11
-907.21012032036
 21
-1116.69405196787
 31
0.0
  0
LINE
  5
216
330
71
100
AcDbEntity
  8
1
  6
Continuous
 62
     2
100
AcDbLine
 10
-907.21012032036
 20
-1121.69405196787
 30
0.0
 11
-957.21012032036
 21
-1121.69405196787
 31
0.0
  0
LINE
  5
217
330
71
100
AcDbEntity
  8
1
  6
Continuous
 62
     2
100
AcDbLine
 10
-1150.710120320358
 20
-1116.69405196787
 30
0.0
 11
-1150.710120320358
 21
-1121.69405196787
 31
0.0
  0
LINE
  5
218
330
71
100
AcDbEntity
  8
1
  6
Continuous
 62
     2
100
AcDbLine
 10
-1150.710120320358
 20
-1121.69405196787
 30
0.0
 11
-1107.21012032036
 21
-1121.69405196787
 31
0.0
  0
LINE
  5
219
330
71
100
AcDbEntity
  8
1
  6
Continuous
 62
     2
100
AcDbLine
 10
-1150.710120320358
 20
-1116.69405196787
 30
0.0
 11
-1155.710120320359
 21
-1116.69405196787
 31
0.0
  0
LINE
  5
21A
330
71
100
AcDbEntity
  8
1
  6
Continuous
 62
     2
100
AcDbLine
 10
-1155.710120320359
 20
-1116.69405196787
 30
0.0
 11
-1155.710120320359
 21
-1121.69405196787
 31
0.0
  0
LINE
  5
21B
330
71
100
AcDbEntity
  8
1
  6
Continuous
 62
     6
100
AcDbLine
 10
-863.71012032036
 20
-1116.69405196787
 30
0.0
 11
-863.7101203203588
 21
-1108.19405196787
 31
0.0
  0
LINE
  5
21C
330
71
100
AcDbEntity
  8
1
  6
Continuous
 62
     6
100
AcDbLine
 10
-956.8549248471102
 20
-1116.69405196787
 30
0.0
 11
-907.21012032036
 21
-1116.69405196787
 31
0.0
  0
LINE
  5
21D
330
71
100
AcDbEntity
  8
1
  6
Continuous
 62
     6
100
AcDbLine
 10
-1109.51012032036
 20
-1116.69405196787
 30
0.0
 11
-1107.21012032036
 21
-1116.69405196787
 31
0.0
  0
LINE
  5
21E
330
71
100
AcDbEntity
  8
1
  6
Continuous
 62
     6
100
AcDbLine
 10
-1007.21012032036
 20
-1116.69405196787
 30
0.0
 11
-1057.21012032036
 21
-1116.69405196787
 31
0.0
  0
LINE
  5
21F
330
71
100
AcDbEntity
  8
1
  6
Continuous
 62
     7
100
AcDbLine
 10
-993.25492484711
 20
-1099.69405196787
 30
0.0
 11
-993.25492484711
 21
-1112.44405196787
 31
0.0
  0
LINE
  5
220
330
71
100
AcDbEntity
  8
1
  6
Continuous
 62
     7
100
AcDbLine
 10
-956.8549248471102
 20
-1099.69405196787
 30
0.0
 11
-956.8549248471102
 21
-1112.44405196787
 31
0.0
  0
LINE
  5
221
330
71
100
AcDbEntity
  8
1
  6
Continuous
 62
     6
100
AcDbLine
 10
-1109.51012032036
 20
-1116.69405196787
 30
0.0
 11
-1115.710120320358
 21
-1116.69405196787
 31
0.0
  0
LINE
  5
222
330
71
100
AcDbEntity
  8
1
  6
Continuous
 62
     6
100
AcDbLine
 10
-956.8549248471102
 20
-1116.69405196787
 30
0.0
 11
-957.21012032036
 21
-1116.69405196787
 31
0.0
  0
LINE
  5
223
330
71
100
AcDbEntity
  8
1
  6
Continuous
 62
     6
100
AcDbLine
 10
-863.7101203203583
 20
-1099.69405196787
 30
0.0
 11
-863.7101203203588
 21
-1108.19405196787
 31
0.0
  0
LINE
  5
224
330
71
100
AcDbEntity
  8
1
  6
Continuous
 62
     6
100
AcDbLine
 10
-1115.710120320358
 20
-1116.69405196787
 30
0.0
 11
-1150.710120320358
 21
-1116.69405196787
 31
0.0
  0
LINE
  5
225
330
71
100
AcDbEntity
  8
1
  6
Continuous
 62
     2
100
AcDbLine
 10
-989.0182699605475
 20
-1094.31905196787
 30
0.0
 11
-984.0182699605475
 21
-1093.06905196787
 31
0.0
  0
LINE
  5
226
330
71
100
AcDbEntity
  8
1
  6
Continuous
 62
     2
100
AcDbLine
 10
-989.0182699605475
 20
-1096.81905196787
 30
0.0
 11
-989.0182699605475
 21
-1094.31905196787
 31
0.0
  0
LINE
  5
227
330
71
100
AcDbEntity
  8
1
  6
Continuous
 62
     2
100
AcDbLine
 10
-984.0182699605475
 20
-1098.06905196787
 30
0.0
 11
-989.0182699605475
 21
-1096.81905196787
 31
0.0
  0
LINE
  5
228
330
71
100
AcDbEntity
  8
1
  6
Continuous
 62
     2
100
AcDbLine
 10
-984.0182699605475
 20
-1093.06905196787
 30
0.0
 11
-984.0182699605475
 21
-1098.06905196787
 31
0.0
  0
LINE
  5
229
330
71
100
AcDbEntity
  8
1
  6
Continuous
 62
     7
100
AcDbLine
 10
-993.25492484711
 20
-1112.44405196787
 30
0.0
 11
-975.05492484711
 21
-1112.44405196787
 31
0.0
  0
LINE
  5
22A
330
71
100
AcDbEntity
  8
1
  6
Continuous
 62
     7
100
AcDbLine
 10
-993.25492484711
 20
-1112.44405196787
 30
0.0
 11
-993.25492484711
 21
-1116.69405196787
 31
0.0
  0
LINE
  5
22B
330
71
100
AcDbEntity
  8
1
  6
Continuous
 62
     7
100
AcDbLine
 10
-956.8549248471102
 20
-1112.44405196787
 30
0.0
 11
-956.8549248471102
 21
-1116.69405196787
 31
0.0
  0
LINE
  5
22C
330
71
100
AcDbEntity
  8
1
  6
Continuous
 62
     7
100
AcDbLine
 10
-975.05492484711
 20
-1112.44405196787
 30
0.0
 11
-975.05492484711
 21
-1116.69405196787
 31
0.0
  0
LINE
  5
22D
330
71
100
AcDbEntity
  8
1
  6
Continuous
 62
     6
100
AcDbLine
 10
-975.05492484711
 20
-1116.69405196787
 30
0.0
 11
-993.25492484711
 21
-1116.69405196787
 31
0.0
  0
LINE
  5
22E
330
71
100
AcDbEntity
  8
1
  6
Continuous
 62
     7
100
AcDbLine
 10
-975.05492484711
 20
-1112.44405196787
 30
0.0
 11
-956.8549248471102
 21
-1112.44405196787
 31
0.0
  0
LINE
  5
22F
330
71
100
AcDbEntity
  8
1
  6
Continuous
 62
     6
100
AcDbLine
 10
-993.25492484711
 20
-1091.19405196787
 30
0.0
 11
-863.7101203203583
 21
-1091.19405196787
 31
0.0
  0
ARC
  5
230
102
{ACAD_REACTORS
330
298
330
299
102
}
330
71
100
AcDbEntity
  8
0
  6
Continuous
 62
     2
100
AcDbCircle
 10
-977.86327684815
 20
-1107.873647205948
 30
0.0
 40
0.7717997786796852
100
AcDbArc
 50
321.8795802028358
 51
38.12041979715091
  0
ARC
  5
231
102
{ACAD_REACTORS
330
298
330
299
102
}
330
71
100
AcDbEntity
  8
0
  6
Continuous
 62
     2
100
AcDbCircle
 10
-977.6635368118036
 20
-1108.030378384068
 30
0.0
 40
0.5179085730137529
100
AcDbArc
 50
218.1204197971956
 51
321.8795802027966
  0
ARC
  5
232
102
{ACAD_REACTORS
330
298
330
299
102
}
330
71
100
AcDbEntity
  8
0
  6
Continuous
 62
     2
100
AcDbCircle
 10
-977.4637967754576
 20
-1107.873647205948
 30
0.0
 40
0.7717997786793659
100
AcDbArc
 50
141.8795802028387
 51
218.1204197971746
  0
ARC
  5
233
102
{ACAD_REACTORS
330
298
330
299
102
}
330
71
100
AcDbEntity
  8
0
  6
Continuous
 62
     2
100
AcDbCircle
 10
-977.6635368118036
 20
-1107.716916027828
 30
0.0
 40
0.5179085730135231
100
AcDbArc
 50
38.12041979718361
 51
141.8795802028242
  0
ARC
  5
234
102
{ACAD_REACTORS
330
290
330
291
102
}
330
71
100
AcDbEntity
  8
0
  6
Continuous
 62
     2
100
AcDbCircle
 10
-980.7255509473675
 20
-1109.284113571357
 30
0.0
 40
2.227384008973646
100
AcDbArc
 50
58.06909105004343
 51
71.55192388187278
  0
ARC
  5
235
102
{ACAD_REACTORS
330
290
330
291
102
}
330
71
100
AcDbEntity
  8
0
  6
Continuous
 62
     2
100
AcDbCircle
 10
-980.4638232464088
 20
-1107.668575776609
 30
0.0
 40
0.5115800601943187
100
AcDbArc
 50
113.3722778882227
 51
151.4785267423619
  0
ARC
  5
236
102
{ACAD_REACTORS
330
290
330
291
102
}
330
71
100
AcDbEntity
  8
0
  6
Continuous
 62
     2
100
AcDbCircle
 10
-980.0864659883284
 20
-1107.873647205948
 30
0.0
 40
0.9410597353329787
100
AcDbArc
 50
151.478526742305
 51
208.521473257695
  0
ARC
  5
237
102
{ACAD_REACTORS
330
290
330
291
102
}
330
71
100
AcDbEntity
  8
0
  6
Continuous
 62
     2
100
AcDbCircle
 10
-980.8834238224605
 20
-1104.560966260692
 30
0.0
 40
4.852596863497943
100
AcDbArc
 50
275.1581447696255
 51
285.9799912583526
  0
ARC
  5
238
102
{ACAD_REACTORS
330
290
330
291
102
}
330
71
100
AcDbEntity
  8
0
  6
Continuous
 62
     2
100
AcDbCircle
 10
-980.5945677277246
 20
-1107.760856843913
 30
0.0
 40
1.639695123939543
100
AcDbArc
 50
195.0618917771097
 51
275.1581447696378
  0
ARC
  5
239
102
{ACAD_REACTORS
330
290
330
291
102
}
330
71
100
AcDbEntity
  8
0
  6
Continuous
 62
     2
100
AcDbCircle
 10
-981.0136955711873
 20
-1107.873647205948
 30
0.0
 40
1.205656168390868
100
AcDbArc
 50
164.9381082228951
 51
195.0618917771153
  0
ARC
  5
23A
102
{ACAD_REACTORS
330
290
330
291
102
}
330
71
100
AcDbEntity
  8
0
  6
Continuous
 62
     2
100
AcDbCircle
 10
-980.5945677277246
 20
-1107.986437567983
 30
0.0
 40
1.63969512394045
100
AcDbArc
 50
84.84185523036217
 51
164.9381082228903
  0
ARC
  5
23B
102
{ACAD_REACTORS
330
294
330
295
102
}
330
71
100
AcDbEntity
  8
0
  6
Continuous
 62
     2
100
AcDbCircle
 10
-985.4245819818865
 20
-1106.839820411594
 30
0.0
 40
0.3157169230770072
100
AcDbArc
 50
115.3740086783167
 51
180.0
  0
ARC
  5
23C
102
{ACAD_REACTORS
330
294
330
295
102
}
330
71
100
AcDbEntity
  8
0
  6
Continuous
 62
     2
100
AcDbCircle
 10
-985.4245819818865
 20
-1104.621537211658
 30
0.0
 40
0.3157169230768204
100
AcDbArc
 50
180.0
 51
244.6259913215949
  0
ARC
  5
23D
102
{ACAD_REACTORS
330
294
330
295
102
}
330
71
100
AcDbEntity
  8
0
  6
Continuous
 62
     2
100
AcDbCircle
 10
-985.4189658465764
 20
-1105.71883687072
 30
0.0
 40
2.018561131933152
100
AcDbArc
 50
269.8110329575842
 51
90.18896704241578
  0
ARC
  5
23E
102
{ACAD_REACTORS
330
294
330
295
102
}
330
71
100
AcDbEntity
  8
0
  6
Continuous
 62
     2
100
AcDbCircle
 10
-985.4245819818865
 20
-1107.421671818289
 30
0.0
 40
0.3157169230768204
100
AcDbArc
 50
180.0
 51
269.8110329574592
  0
ARC
  5
23F
102
{ACAD_REACTORS
330
292
330
293
102
}
330
71
100
AcDbEntity
  8
0
  6
Continuous
 62
     2
100
AcDbCircle
 10
-964.3611217671559
 20
-1107.668575776609
 30
0.0
 40
0.5115800601937612
100
AcDbArc
 50
109.3371432195076
 51
151.4785267424227
  0
ARC
  5
240
102
{ACAD_REACTORS
330
292
330
293
102
}
330
71
100
AcDbEntity
  8
0
  6
Continuous
 62
     2
100
AcDbCircle
 10
-964.3611217671559
 20
-1108.078718635287
 30
0.0
 40
0.5115800601959901
100
AcDbArc
 50
208.5214732576668
 51
246.6277221118294
  0
ARC
  5
241
102
{ACAD_REACTORS
330
292
330
293
102
}
330
71
100
AcDbEntity
  8
0
  6
Continuous
 62
     2
100
AcDbCircle
 10
-964.9109940919333
 20
-1107.873647205948
 30
0.0
 40
1.205656168392844
100
AcDbArc
 50
164.9381082229203
 51
195.0618917770901
  0
ARC
  5
242
102
{ACAD_REACTORS
330
292
330
293
102
}
330
71
100
AcDbEntity
  8
0
  6
Continuous
 62
     2
100
AcDbCircle
 10
-964.4918662484716
 20
-1107.986437567983
 30
0.0
 40
1.639695123940101
100
AcDbArc
 50
90.0
 51
164.9381082228985
  0
ARC
  5
243
102
{ACAD_REACTORS
330
296
330
297
102
}
330
71
100
AcDbEntity
  8
0
  6
Continuous
 62
     2
100
AcDbCircle
 10
-973.9188613411753
 20
-1104.514456729774
 30
0.0
 40
1.526904761906053
100
AcDbArc
 50
90.0
 51
270.0
  0
ARC
  5
244
102
{ACAD_REACTORS
330
29A
330
29B
102
}
330
71
100
AcDbEntity
  8
0
  6
Continuous
 62
     2
100
AcDbCircle
 10
-980.6615520864011
 20
-1104.003521637979
 30
0.0
 40
0.3528638246718856
100
AcDbArc
 50
270.0
 51
90.0
  0
ARC
  5
245
102
{ACAD_REACTORS
330
294
330
295
102
}
330
71
100
AcDbEntity
  8
0
  6
Continuous
 62
     2
100
AcDbCircle
 10
-988.0001306684181
 20
-1104.015824446503
 30
0.0
 40
0.3157169230760246
100
AcDbArc
 50
90.0
 51
180.0
  0
ARC
  5
246
102
{ACAD_REACTORS
330
294
330
295
102
}
330
71
100
AcDbEntity
  8
0
  6
Continuous
 62
     2
100
AcDbCircle
 10
-986.0017129598335
 20
-1105.730678811626
 30
0.0
 40
0.9118975235580125
100
AcDbArc
 50
115.1944106485185
 51
244.8055893514877
  0
ARC
  5
247
102
{ACAD_REACTORS
330
294
330
295
102
}
330
71
100
AcDbEntity
  8
0
  6
Continuous
 62
     2
100
AcDbCircle
 10
-986.5242974074085
 20
-1106.841508557689
 30
0.0
 40
0.315716923076593
100
AcDbArc
 50
0.0
 51
64.80558935147346
  0
ARC
  5
248
102
{ACAD_REACTORS
330
294
330
295
102
}
330
71
100
AcDbEntity
  8
0
  6
Continuous
 62
     2
100
AcDbCircle
 10
-988.5940253451647
 20
-1108.97630735247
 30
0.0
 40
0.4242446153828041
100
AcDbArc
 50
180.0
 51
270.0
  0
ARC
  5
249
102
{ACAD_REACTORS
330
296
330
297
102
}
330
71
100
AcDbEntity
  8
0
  6
Continuous
 62
     2
100
AcDbCircle
 10
-973.7025893310101
 20
-1104.357725551653
 30
0.0
 40
0.5179085730131405
100
AcDbArc
 50
38.12041979708892
 51
141.8795802029033
  0
ARC
  5
24A
102
{ACAD_REACTORS
330
296
330
297
102
}
330
71
100
AcDbEntity
  8
0
  6
Continuous
 62
     2
100
AcDbCircle
 10
-973.5028492946639
 20
-1104.514456729774
 30
0.0
 40
0.7717997786796852
100
AcDbArc
 50
141.8795802028358
 51
218.1204197971509
  0
ARC
  5
24B
102
{ACAD_REACTORS
330
298
330
299
102
}
330
71
100
AcDbEntity
  8
0
  6
Continuous
 62
     2
100
AcDbCircle
 10
-977.6635368118036
 20
-1107.335072195645
 30
0.0
 40
2.065479772208722
100
AcDbArc
 50
242.4518518243441
 51
297.5481481756838
  0
ARC
  5
24C
102
{ACAD_REACTORS
330
298
330
299
102
}
330
71
100
AcDbEntity
  8
0
  6
Continuous
 62
     2
100
AcDbCircle
 10
-977.6635368118036
 20
-1108.412222216251
 30
0.0
 40
2.06547977220824
100
AcDbArc
 50
62.45185182430162
 51
117.5481481756704
  0
ARC
  5
24D
102
{ACAD_REACTORS
330
298
330
299
102
}
330
71
100
AcDbEntity
  8
0
  6
Continuous
 62
     2
100
AcDbCircle
 10
-977.944476703637
 20
-1107.873647205948
 30
0.0
 40
1.458034083650935
100
AcDbArc
 50
117.5481481756713
 51
242.4518518243493
  0
ARC
  5
24E
102
{ACAD_REACTORS
330
298
330
299
102
}
330
71
100
AcDbEntity
  8
0
  6
Continuous
 62
     2
100
AcDbCircle
 10
-977.3825969199704
 20
-1107.873647205948
 30
0.0
 40
1.458034083652521
100
AcDbArc
 50
297.5481481756942
 51
62.45185182428514
  0
ARC
  5
24F
102
{ACAD_REACTORS
330
296
330
297
102
}
330
71
100
AcDbEntity
  8
0
  6
Continuous
 62
     2
100
AcDbCircle
 10
-973.7025893310101
 20
-1104.671187907894
 30
0.0
 40
0.5179085730137529
100
AcDbArc
 50
218.1204197971956
 51
321.8795802028121
  0
ARC
  5
250
102
{ACAD_REACTORS
330
296
330
297
102
}
330
71
100
AcDbEntity
  8
0
  6
Continuous
 62
     2
100
AcDbCircle
 10
-973.9023293673563
 20
-1104.514456729774
 30
0.0
 40
0.7717997786795447
100
AcDbArc
 50
321.8795802028491
 51
38.12041979716419
  0
ARC
  5
251
102
{ACAD_REACTORS
330
294
330
295
102
}
330
71
100
AcDbEntity
  8
0
  6
Continuous
 62
     2
100
AcDbCircle
 10
-983.1207132544479
 20
-1108.97630735247
 30
0.0
 40
0.424244615383941
100
AcDbArc
 50
270.0
 51
0.0
  0
ARC
  5
252
102
{ACAD_REACTORS
330
294
330
295
102
}
330
71
100
AcDbEntity
  8
0
  6
Continuous
 62
     2
100
AcDbCircle
 10
-983.1207132544479
 20
-1103.41179658327
 30
0.0
 40
0.424244615383941
100
AcDbArc
 50
0.0
 51
90.0
  0
ARC
  5
253
102
{ACAD_REACTORS
330
294
330
295
102
}
330
71
100
AcDbEntity
  8
0
  6
Continuous
 62
     2
100
AcDbCircle
 10
-988.5940253451647
 20
-1103.41179658327
 30
0.0
 40
0.424244615383941
100
AcDbArc
 50
90.0
 51
180.0
  0
ARC
  5
254
102
{ACAD_REACTORS
330
294
330
295
102
}
330
71
100
AcDbEntity
  8
0
  6
Continuous
 62
     2
100
AcDbCircle
 10
-986.5242974074085
 20
-1108.37227948922
 30
0.0
 40
0.3157169230769341
100
AcDbArc
 50
270.0
 51
0.0
  0
ARC
  5
255
102
{ACAD_REACTORS
330
294
330
295
102
}
330
71
100
AcDbEntity
  8
0
  6
Continuous
 62
     2
100
AcDbCircle
 10
-986.5242974074085
 20
-1104.619849065563
 30
0.0
 40
0.3157169230764803
100
AcDbArc
 50
295.194410648509
 51
0.0
  0
ARC
  5
256
102
{ACAD_REACTORS
330
294
330
295
102
}
330
71
100
AcDbEntity
  8
0
  6
Continuous
 62
     2
100
AcDbCircle
 10
-986.5242974074085
 20
-1104.015824446503
 30
0.0
 40
0.315716923076593
100
AcDbArc
 50
0.0
 51
90.0
  0
ARC
  5
257
102
{ACAD_REACTORS
330
294
330
295
102
}
330
71
100
AcDbEntity
  8
0
  6
Continuous
 62
     2
100
AcDbCircle
 10
-988.0001306684181
 20
-1108.37227948922
 30
0.0
 40
0.3157169230756836
100
AcDbArc
 50
180.0
 51
270.0
  0
ARC
  5
258
102
{ACAD_REACTORS
330
29A
330
29B
102
}
330
71
100
AcDbEntity
  8
0
  6
Continuous
 62
     2
100
AcDbCircle
 10
-980.2200795601627
 20
-1104.042917609202
 30
0.0
 40
1.055365641333992
100
AcDbArc
 50
270.0
 51
90.0
  0
ARC
  5
259
102
{ACAD_REACTORS
330
292
330
293
102
}
330
71
100
AcDbEntity
  8
0
  6
Continuous
 62
     2
100
AcDbCircle
 10
-964.4918662484716
 20
-1107.760856843913
 30
0.0
 40
1.639695123940421
100
AcDbArc
 50
195.0618917771015
 51
275.1581447696745
  0
ARC
  5
25A
102
{ACAD_REACTORS
330
292
330
293
102
}
330
71
100
AcDbEntity
  8
0
  6
Continuous
 62
     2
100
AcDbCircle
 10
-964.7807223432075
 20
-1104.560966260692
 30
0.0
 40
4.852596863498941
100
AcDbArc
 50
275.1581447696365
 51
285.9799912583397
  0
ARC
  5
25B
102
{ACAD_REACTORS
330
292
330
293
102
}
330
71
100
AcDbEntity
  8
0
  6
Continuous
 62
     2
100
AcDbCircle
 10
-964.6228494681146
 20
-1106.46318084054
 30
0.0
 40
2.227384008973474
100
AcDbArc
 50
288.4480761181272
 51
301.9309089499342
  0
ARC
  5
25C
102
{ACAD_REACTORS
330
292
330
293
102
}
330
71
100
AcDbEntity
  8
0
  6
Continuous
 62
     2
100
AcDbCircle
 10
-964.2046817344527
 20
-1107.716726616577
 30
0.0
 40
0.9059297849850417
100
AcDbArc
 50
246.6277221118078
 51
288.448076118076
  0
ARC
  5
25D
102
{ACAD_REACTORS
330
292
330
293
102
}
330
71
100
AcDbEntity
  8
0
  6
Continuous
 62
     2
100
AcDbCircle
 10
-963.9837645090745
 20
-1107.873647205948
 30
0.0
 40
0.9410597353348766
100
AcDbArc
 50
151.4785267423678
 51
208.521473257693
  0
ARC
  5
25E
102
{ACAD_REACTORS
330
292
330
293
102
}
330
71
100
AcDbEntity
  8
0
  6
Continuous
 62
     2
100
AcDbCircle
 10
-964.2144517690522
 20
-1108.086530756992
 30
0.0
 40
0.9545230068260935
100
AcDbArc
 50
90.0
 51
109.3371432194401
  0
ARC
  5
25F
102
{ACAD_REACTORS
330
294
330
295
102
}
330
71
100
AcDbEntity
  8
0
  6
Continuous
 62
     2
100
AcDbCircle
 10
-985.4245819818865
 20
-1104.016001923151
 30
0.0
 40
0.3157169230760141
100
AcDbArc
 50
90.18896704254082
 51
180.0
  0
ARC
  5
260
102
{ACAD_REACTORS
330
294
330
295
102
}
330
71
100
AcDbEntity
  8
0
  6
Continuous
 62
     2
100
AcDbCircle
 10
-985.9506246799743
 20
-1105.730678811626
 30
0.0
 40
0.9118481501436899
100
AcDbArc
 50
295.3740086781954
 51
64.62599132182905
  0
ARC
  5
261
102
{ACAD_REACTORS
330
290
330
291
102
}
330
71
100
AcDbEntity
  8
0
  6
Continuous
 62
     2
100
AcDbCircle
 10
-980.7255509473675
 20
-1106.46318084054
 30
0.0
 40
2.227384008972611
100
AcDbArc
 50
288.4480761181346
 51
301.9309089499566
  0
ARC
  5
262
102
{ACAD_REACTORS
330
290
330
291
102
}
330
71
100
AcDbEntity
  8
0
  6
Continuous
 62
     2
100
AcDbCircle
 10
-980.3073832137068
 20
-1107.716726616577
 30
0.0
 40
0.9059297849846357
100
AcDbArc
 50
246.6277221118672
 51
288.4480761181624
  0
ARC
  5
263
102
{ACAD_REACTORS
330
290
330
291
102
}
330
71
100
AcDbEntity
  8
0
  6
Continuous
 62
     2
100
AcDbCircle
 10
-980.4638232464088
 20
-1108.078718635287
 30
0.0
 40
0.5115800601944485
100
AcDbArc
 50
208.5214732576157
 51
246.6277221118177
  0
ARC
  5
264
102
{ACAD_REACTORS
330
290
330
291
102
}
330
71
100
AcDbEntity
  8
0
  6
Continuous
 62
     2
100
AcDbCircle
 10
-980.3073832137068
 20
-1108.03056779532
 30
0.0
 40
0.9059297849856105
100
AcDbArc
 50
71.55192388185576
 51
113.3722778881328
  0
ARC
  5
265
102
{ACAD_REACTORS
330
290
330
291
102
}
330
71
100
AcDbEntity
  8
0
  6
Continuous
 62
     2
100
AcDbCircle
 10
-980.8834238224605
 20
-1111.186328151204
 30
0.0
 40
4.852596863498158
100
AcDbArc
 50
74.02000874164733
 51
84.8418552303745
  0
CIRCLE
  5
266
102
{ACAD_REACTORS
330
294
330
295
102
}
330
71
100
AcDbEntity
  8
0
  6
Continuous
 62
     2
100
AcDbCircle
 10
-985.9744396946471
 20
-1105.730678811626
 30
0.0
 40
0.4709789327785074
  0
CIRCLE
  5
267
330
71
100
AcDbEntity
  8
1
  6
Continuous
 62
     2
100
AcDbCircle
 10
-980.5182699605475
 20
-1095.56905196787
 30
0.0
 40
1.25
  0
CIRCLE
  5
268
330
71
100
AcDbEntity
  8
1
  6
Continuous
 62
     2
100
AcDbCircle
 10
-980.5182699605475
 20
-1095.56905196787
 30
0.0
 40
2.5
  0
TEXT
  5
269
330
71
100
AcDbEntity
  8
1
 62
     7
100
AcDbText
 10
-937.8813771250963
 20
-1098.39405196787
 30
0.0
 40
2.5
  1
/
 41
0.9
  7
CONVERTER_11
100
AcDbText
  0
TEXT
  5
26B
330
71
100
AcDbEntity
  8
1
 62
     7
100
AcDbText
 10
-935.7250126280543
 20
-1098.39405196787
 30
0.0
 40
2.5
  1
01
 41
0.81
  7
CONVERTER_12
100
AcDbText
  0
TEXT
  5
26C
330
71
100
AcDbEntity
  8
1
 62
     3
100
AcDbText
 10
-898.1285286020371
 20
-1098.39405196787
 30
0.0
 40
2.5
  1
31.10.2017
 41
0.81
  7
CONVERTER_12
100
AcDbText
  0
MTEXT
  5
26D
330
71
100
AcDbEntity
  8
1
 62
     2
100
AcDbMText
 10
-898.1285286020371
 20
-1092.19405196787
 30
0.0
 40
1.8
 41
0.0
 71
     1
 72
     1
  1
date
  7
CONVERTER_11
 73
     1
 44
1.32052821128451
  0
MTEXT
  5
26E
330
71
100
AcDbEntity
  8
1
 62
     2
100
AcDbMText
 10
-927.9549248471101
 20
-1100.69405196787
 30
0.0
 40
1.8
 41
0.0
 71
     1
 72
     1
  1
document-type
  7
CONVERTER_11
 73
     1
 44
1.20048019207683
  0
TEXT
  5
26F
330
71
100
AcDbEntity
  8
1
 62
     3
100
AcDbText
 10
-927.9549248471101
 20
-1106.89405196787
 30
0.0
 40
2.5
  1
TECDOC 2D_Productdrawing
 41
0.81
  7
CONVERTER_12
100
AcDbText
  0
MTEXT
  5
271
330
71
100
AcDbEntity
  8
1
 62
     2
100
AcDbMText
 10
-955.75492484711
 20
-1092.19405196787
 30
0.0
 40
1.8
 41
0.0
 71
     1
 72
     1
  1
document-No. / RI
  7
CONVERTER_13
 73
     1
 44
1.32052821128451
  0
TEXT
  5
272
330
71
100
AcDbEntity
  8
1
 62
     7
100
AcDbText
 10
-955.75492484711
 20
-1098.39405196787
 30
0.0
 40
2.5
  1
01037583
 41
0.81
  7
CONVERTER_12
100
AcDbText
  0
MTEXT
  5
274
330
71
100
AcDbEntity
  8
1
 62
     3
100
AcDbMText
 10
-868.1693244611978
 20
-1098.39405196787
 30
0.0
 40
2.5
 41
0.0
 71
     8
 72
     1
  1
1:1
  7
CONVERTER_14
 73
     1
 44
1.32052821128451
  0
MTEXT
  5
275
330
71
100
AcDbEntity
  8
1
 62
     2
100
AcDbMText
 10
-871.5285286020373
 20
-1092.19405196787
 30
0.0
 40
1.8
 41
0.0
 71
     1
 72
     1
  1
scale
  7
CONVERTER_11
 73
     1
 44
1.20048019207683
  0
MTEXT
  5
276
330
71
100
AcDbEntity
  8
1
 62
     2
100
AcDbMText
 10
-955.75492484711
 20
-1100.69405196787
 30
0.0
 40
1.8
 41
0.0
 71
     1
 72
     1
  1
ident.-No.
  7
CONVERTER_11
 73
     1
 44
1.20048019207683
  0
TEXT
  5
277
330
71
100
AcDbEntity
  8
1
 62
     7
100
AcDbText
 10
-955.3549248471104
 20
-1106.89405196787
 30
0.0
 40
2.5
  1
3211849
 41
0.81
  7
CONVERTER_12
100
AcDbText
  0
MTEXT
  5
278
330
71
100
AcDbEntity
  8
1
 62
     2
100
AcDbMText
 10
-1027.692939572158
 20
-1103.94405196787
 30
0.0
 40
2.0
 41
0.0
 71
     5
 72
     1
  1
General Information\P- Simplified representation\P- Document excluded from change process\P- Linear dimensions [mm]
  7
CONVERTER_11
 73
     1
 44
1.20048019207683
  0
MTEXT
  5
279
330
71
100
AcDbEntity
  8
1
 62
     7
100
AcDbMText
 10
-861.210120320361
 20
-1041.694051967868
 30
0.0
 40
3.5
 41
0.0
 71
     5
 72
     1
  1
C
  7
CONVERTER_11
 73
     1
 44
1.20048019207683
  0
MTEXT
  5
27A
330
71
100
AcDbEntity
  8
1
 62
     7
100
AcDbMText
 10
-861.210120320361
 20
-939.1940519678699
 30
0.0
 40
3.5
 41
0.0
 71
     5
 72
     1
  1
A
  7
CONVERTER_11
 73
     1
 44
1.20048019207683
  0
MTEXT
  5
27B
330
71
100
AcDbEntity
  8
1
 62
     7
100
AcDbMText
 10
-861.210120320361
 20
-991.694051967868
 30
0.0
 40
3.5
 41
0.0
 71
     5
 72
     1
  1
B
  7
CONVERTER_11
 73
     1
 44
1.20048019207683
  0
MTEXT
  5
27C
330
71
100
AcDbEntity
  8
1
 62
     7
100
AcDbMText
 10
-861.210120320361
 20
-1094.19405196787
 30
0.0
 40
3.5
 41
0.0
 71
     5
 72
     1
  1
D
  7
CONVERTER_11
 73
     1
 44
1.20048019207683
  0
MTEXT
  5
27D
330
71
100
AcDbEntity
  8
1
 62
     7
100
AcDbMText
 10
-1131.46012032036
 20
-1119.19405196787
 30
0.0
 40
3.5
 41
0.0
 71
     5
 72
     1
  1
1
  7
CONVERTER_11
 73
     1
 44
1.20048019207683
  0
MTEXT
  5
27E
330
71
100
AcDbEntity
  8
1
 62
     7
100
AcDbMText
 10
-1082.21012032036
 20
-1119.19405196787
 30
0.0
 40
3.5
 41
0.0
 71
     5
 72
     1
  1
2
  7
CONVERTER_11
 73
     1
 44
1.20048019207683
  0
MTEXT
  5
27F
330
71
100
AcDbEntity
  8
1
 62
     7
100
AcDbMText
 10
-1032.21012032036
 20
-1119.19405196787
 30
0.0
 40
3.5
 41
0.0
 71
     5
 72
     1
  1
3
  7
CONVERTER_11
 73
     1
 44
1.20048019207683
  0
MTEXT
  5
280
330
71
100
AcDbEntity
  8
1
 62
     7
100
AcDbMText
 10
-982.2101203203601
 20
-1119.19405196787
 30
0.0
 40
3.5
 41
0.0
 71
     5
 72
     1
  1
4
  7
CONVERTER_11
 73
     1
 44
1.20048019207683
  0
MTEXT
  5
281
330
71
100
AcDbEntity
  8
1
 62
     7
100
AcDbMText
 10
-932.21012032036
 20
-1119.19405196787
 30
0.0
 40
3.5
 41
0.0
 71
     5
 72
     1
  1
5
  7
CONVERTER_11
 73
     1
 44
1.20048019207683
  0
MTEXT
  5
282
330
71
100
AcDbEntity
  8
1
 62
     7
100
AcDbMText
 10
-882.9601203203608
 20
-1119.19405196787
 30
0.0
 40
3.5
 41
0.0
 71
     5
 72
     1
  1
6
  7
CONVERTER_11
 73
     1
 44
1.20048019207683
  0
MTEXT
  5
283
330
71
100
AcDbEntity
  8
1
 62
     7
100
AcDbMText
 10
-1153.210120320359
 20
-939.1940519678699
 30
0.0
 40
3.5
 41
0.0
 71
     5
 72
     1
  1
A
  7
CONVERTER_11
 73
     1
 44
1.20048019207683
  0
MTEXT
  5
284
330
71
100
AcDbEntity
  8
1
 62
     7
100
AcDbMText
 10
-1153.210120320359
 20
-991.6940519678699
 30
0.0
 40
3.5
 41
0.0
 71
     5
 72
     1
  1
B
  7
CONVERTER_11
 73
     1
 44
1.20048019207683
  0
MTEXT
  5
285
330
71
100
AcDbEntity
  8
1
 62
     7
100
AcDbMText
 10
-1153.210120320359
 20
-1041.69405196787
 30
0.0
 40
3.5
 41
0.0
 71
     5
 72
     1
  1
C
  7
CONVERTER_11
 73
     1
 44
1.20048019207683
  0
MTEXT
  5
286
330
71
100
AcDbEntity
  8
1
 62
     7
100
AcDbMText
 10
-1153.210120320359
 20
-1094.19405196787
 30
0.0
 40
3.5
 41
0.0
 71
     5
 72
     1
  1
D
  7
CONVERTER_11
 73
     1
 44
1.20048019207683
  0
MTEXT
  5
287
330
71
100
AcDbEntity
  8
1
 62
     3
100
AcDbMText
 10
-967.0549248471102
 20
-1095.56905196787
 30
0.0
 40
2.5
 41
0.0
 71
     5
 72
     1
  1
DIN A4
  7
CONVERTER_11
 73
     1
 44
1.20048019207683
  0
MTEXT
  5
288
330
71
100
AcDbEntity
  8
1
 62
     2
100
AcDbMText
 10
-955.8549248471102
 20
-1109.19405196787
 30
0.0
 40
1.8
 41
0.0
 71
     1
 72
     1
  1
description
  7
CONVERTER_11
 73
     1
 44
1.20048019207683
  0
MTEXT
  5
289
330
71
100
AcDbEntity
  8
1
 62
     7
100
AcDbMText
 10
-910.2825225837346
 20
-1113.44405196787
 30
0.0
 40
3.0
 41
0.0
 71
     5
 72
     1
  1
D-PTTBS 4
  7
CONVERTER_12
 73
     1
 44
1.20048019207683
  0
TEXT
  5
28A
330
71
100
AcDbEntity
  8
1
 62
     2
100
AcDbText
 10
-968.8196160372966
 20
-1115.44405196787
 30
0.0
 40
1.8
  1
1
 41
0.9
  7
CONVERTER_11
100
AcDbText
  0
TEXT
  5
28B
330
71
100
AcDbEntity
  8
1
 62
     2
100
AcDbText
 10
-983.6086598767681
 20
-1115.493300621672
 30
0.0
 40
1.8
  1
1
 41
0.9
  7
CONVERTER_11
100
AcDbText
  0
TEXT
  5
28C
330
71
100
AcDbEntity
  8
1
 62
     2
100
AcDbText
 10
-992.25492484711
 20
-1115.453069182862
 30
0.0
 40
1.8
  1
page
 41
0.9
  7
CONVERTER_11
100
AcDbText
  0
TEXT
  5
28D
330
71
100
AcDbEntity
  8
1
 62
     2
100
AcDbText
 10
-974.0549248471102
 20
-1115.453069182862
 30
0.0
 40
1.8
  1
of
 41
0.9
  7
CONVERTER_11
100
AcDbText
  0
MTEXT
  5
28E
330
71
100
AcDbEntity
  8
1
 62
     3
100
AcDbMText
 10
-967.8519426955002
 20
-929.9027438125711
 30
0.0
 40
1.8
 41
0.0
 71
     7
 72
     1
  3
Transfer or duplication of this document as well as the utilisation or\Pcommunication of its content are not permitted unless express consent\Pis granted. Violations give rise to claims for damages. All rights reserved\Pin case of patent, utility mo
  1
del or design patent registrations.
  7
CONVERTER_11
 73
     1
 44
0.99639855942377
  0
MTEXT
  5
28F
330
71
100
AcDbEntity
  8
1
 62
     3
100
AcDbMText
 10
-1150.705052534288
 20
-929.9027438125711
 30
0.0
 40
1.8
 41
0.0
 71
     7
 72
     1
  3
Weitergabe sowie Vervielf\U+00e4ltigung dieses Dokuments, Verwertung und \PMitteilung seines Inhalts sind verboten, soweit nicht ausdr\U+00fccklich gestattet. \PZuwiderhandlungen verpflichten zu Schadenersatz. Alle Rechte f\U+00fcr den Fall\Pder Pat
  1
ent-, Gebrauchsmuster- oder Designeintragung vorbehalten.
  7
CONVERTER_11
 73
     1
 44
0.99639855942377
  0
HATCH
  5
290
330
71
100
AcDbEntity
  8
1
  6
Continuous
 62
     2
100
AcDbHatch
 10
0.0
 20
0.0
 30
0.0
210
0.0
220
0.0
230
1.0
  2
_USER
 70
     0
 71
     1
 91
        1
 92
        1
 93
       14
 72
     2
 10
-981.0136955711873
 20
-1107.873647205948
 40
1.205656168390868
 50
164.9381082228951
 51
195.0618917771153
 73
     1
 72
     2
 10
-980.5945677277246
 20
-1107.760856843913
 40
1.639695123939543
 50
195.0618917771097
 51
275.1581447696378
 73
     1
 72
     2
 10
-980.8834238224605
 20
-1104.560966260692
 40
4.852596863497943
 50
275.1581447696255
 51
285.9799912583526
 73
     1
 72
     1
 10
-979.5474959053427
 20
-1109.226048566493
 11
-979.5474959053427
 21
-1108.35353155969
 72
     2
 10
-980.7255509473675
 20
-1106.46318084054
 40
2.227384008972611
 50
58.0690910500434
 51
71.5519238818654
 73
     0
 72
     2
 10
-980.3073832137068
 20
-1107.716726616577
 40
0.9059297849846357
 50
71.55192388183757
 51
113.3722778881328
 73
     0
 72
     2
 10
-980.4638232464088
 20
-1108.078718635287
 40
0.5115800601944485
 50
113.3722778881823
 51
151.4785267423843
 73
     0
 72
     2
 10
-980.0864659883284
 20
-1107.873647205948
 40
0.9410597353329787
 50
151.478526742305
 51
208.521473257695
 73
     0
 72
     2
 10
-980.4638232464088
 20
-1107.668575776609
 40
0.5115800601943187
 50
208.5214732576381
 51
246.6277221117773
 73
     0
 72
     2
 10
-980.3073832137068
 20
-1108.03056779532
 40
0.9059297849856105
 50
246.6277221118672
 51
288.4480761181443
 73
     0
 72
     2
 10
-980.7255509473675
 20
-1109.284113571357
 40
2.227384008973646
 50
288.4480761181272
 51
301.9309089499566
 73
     0
 72
     1
 10
-979.5474959053427
 20
-1107.393762852207
 11
-979.5474959053427
 21
-1106.521245845403
 72
     2
 10
-980.8834238224605
 20
-1111.186328151204
 40
4.852596863498158
 50
74.02000874164733
 51
84.8418552303745
 73
     1
 72
     2
 10
-980.5945677277246
 20
-1107.986437567983
 40
1.63969512394045
 50
84.84185523036217
 51
164.9381082228903
 73
     1
 97
       14
330
265
330
17E
330
234
330
264
330
235
330
236
330
263
330
262
330
261
330
17F
330
237
330
238
330
239
330
23A
 75
     1
 76
     0
 52
45.0
 41
0.1
 77
     0
 78
     1
 53
45.0
 43
0.0
 44
0.0
 45
-0.0707106781186548
 46
0.0707106781186548
 79
     0
 98
        1
 10
0.0
 20
0.0
  0
HATCH
  5
291
330
71
100
AcDbEntity
  8
1
  6
Continuous
 62
     2
100
AcDbHatch
 10
0.0
 20
0.0
 30
0.0
210
0.0
220
0.0
230
1.0
  2
_USER
 70
     0
 71
     1
 91
        1
 92
        1
 93
       14
 72
     2
 10
-981.0136955711873
 20
-1107.873647205948
 40
1.205656168390868
 50
164.9381082228951
 51
195.0618917771153
 73
     1
 72
     2
 10
-980.5945677277246
 20
-1107.760856843913
 40
1.639695123939543
 50
195.0618917771097
 51
275.1581447696378
 73
     1
 72
     2
 10
-980.8834238224605
 20
-1104.560966260692
 40
4.852596863497943
 50
275.1581447696255
 51
285.9799912583526
 73
     1
 72
     1
 10
-979.5474959053427
 20
-1109.226048566493
 11
-979.5474959053427
 21
-1108.35353155969
 72
     2
 10
-980.7255509473675
 20
-1106.46318084054
 40
2.227384008972611
 50
58.0690910500434
 51
71.5519238818654
 73
     0
 72
     2
 10
-980.3073832137068
 20
-1107.716726616577
 40
0.9059297849846357
 50
71.55192388183757
 51
113.3722778881328
 73
     0
 72
     2
 10
-980.4638232464088
 20
-1108.078718635287
 40
0.5115800601944485
 50
113.3722778881823
 51
151.4785267423843
 73
     0
 72
     2
 10
-980.0864659883284
 20
-1107.873647205948
 40
0.9410597353329787
 50
151.478526742305
 51
208.521473257695
 73
     0
 72
     2
 10
-980.4638232464088
 20
-1107.668575776609
 40
0.5115800601943187
 50
208.5214732576381
 51
246.6277221117773
 73
     0
 72
     2
 10
-980.3073832137068
 20
-1108.03056779532
 40
0.9059297849856105
 50
246.6277221118672
 51
288.4480761181443
 73
     0
 72
     2
 10
-980.7255509473675
 20
-1109.284113571357
 40
2.227384008973646
 50
288.4480761181272
 51
301.9309089499566
 73
     0
 72
     1
 10
-979.5474959053427
 20
-1107.393762852207
 11
-979.5474959053427
 21
-1106.521245845403
 72
     2
 10
-980.8834238224605
 20
-1111.186328151204
 40
4.852596863498158
 50
74.02000874164733
 51
84.8418552303745
 73
     1
 72
     2
 10
-980.5945677277246
 20
-1107.986437567983
 40
1.63969512394045
 50
84.84185523036217
 51
164.9381082228903
 73
     1
 97
       14
330
265
330
17E
330
234
330
264
330
235
330
236
330
263
330
262
330
261
330
17F
330
237
330
238
330
239
330
23A
 75
     1
 76
     0
 52
45.0
 41
0.1
 77
     0
 78
     1
 53
45.0
 43
0.0
 44
0.0
 45
-0.0707106781186548
 46
0.0707106781186548
 79
     0
 98
        1
 10
0.0
 20
0.0
  0
HATCH
  5
292
330
71
100
AcDbEntity
  8
1
  6
Continuous
 62
     2
100
AcDbHatch
 10
0.0
 20
0.0
 30
0.0
210
0.0
220
0.0
230
1.0
  2
_USER
 70
     0
 71
     1
 91
        1
 92
        1
 93
       18
 72
     2
 10
-964.4918662484716
 20
-1107.986437567983
 40
1.639695123940101
 50
90.0
 51
164.9381082228985
 73
     1
 72
     2
 10
-964.9109940919333
 20
-1107.873647205948
 40
1.205656168392844
 50
164.9381082229203
 51
195.0618917770901
 73
     1
 72
     2
 10
-964.4918662484716
 20
-1107.760856843913
 40
1.639695123940421
 50
195.0618917771015
 51
275.1581447696745
 73
     1
 72
     2
 10
-964.7807223432075
 20
-1104.560966260692
 40
4.852596863498941
 50
275.1581447696365
 51
285.9799912583397
 73
     1
 72
     1
 10
-963.4447944260908
 20
-1109.226048566493
 11
-963.4447944260908
 21
-1108.35353155969
 72
     2
 10
-964.6228494681146
 20
-1106.46318084054
 40
2.227384008973474
 50
58.06909105006579
 51
71.55192388187278
 73
     0
 72
     2
 10
-964.2046817344527
 20
-1107.716726616577
 40
0.9059297849850417
 50
71.55192388192397
 51
113.3722778881922
 73
     0
 72
     2
 10
-964.3611217671559
 20
-1108.078718635287
 40
0.5115800601959901
 50
113.3722778881707
 51
151.4785267423332
 73
     0
 72
     2
 10
-963.9837645090745
 20
-1107.873647205948
 40
0.9410597353348766
 50
151.478526742307
 51
208.5214732576322
 73
     0
 72
     2
 10
-964.3611217671559
 20
-1107.668575776609
 40
0.5115800601937612
 50
208.5214732575773
 51
250.6628567804924
 73
     0
 72
     2
 10
-964.2144517690522
 20
-1108.086530756992
 40
0.9545230068260935
 50
250.6628567805599
 51
270.0
 73
     0
 72
     1
 10
-964.2144517690522
 20
-1107.132007750166
 11
-963.110812469484
 21
-1107.132007750166
 72
     1
 10
-963.110812469484
 20
-1107.132007750166
 11
-963.110812469484
 21
-1109.400551967854
 72
     1
 10
-963.110812469484
 20
-1109.400551967854
 11
-961.9180197673163
 21
-1109.400551967854
 72
     1
 10
-961.9180197673163
 20
-1109.400551967854
 11
-961.9180197673163
 21
-1107.132007750166
 72
     1
 10
-961.9180197673163
 20
-1107.132007750166
 11
-961.106920729843
 21
-1107.132007750166
 72
     1
 10
-961.106920729843
 20
-1107.132007750166
 11
-961.106920729843
 21
-1106.346742444043
 72
     1
 10
-961.106920729843
 20
-1106.346742444043
 11
-964.4918662484716
 21
-1106.346742444043
 97
       18
330
1E4
330
1E3
330
1E2
330
1E1
330
1E6
330
180
330
25E
330
23F
330
25D
330
240
330
25C
330
25B
330
181
330
25A
330
259
330
241
330
242
330
1E5
 75
     1
 76
     0
 52
45.0
 41
0.1
 77
     0
 78
     1
 53
45.0
 43
0.0
 44
0.0
 45
-0.0707106781186548
 46
0.0707106781186548
 79
     0
 98
        1
 10
0.0
 20
0.0
  0
HATCH
  5
293
330
71
100
AcDbEntity
  8
1
  6
Continuous
 62
     2
100
AcDbHatch
 10
0.0
 20
0.0
 30
0.0
210
0.0
220
0.0
230
1.0
  2
_USER
 70
     0
 71
     1
 91
        1
 92
        1
 93
       18
 72
     2
 10
-964.4918662484716
 20
-1107.986437567983
 40
1.639695123940101
 50
90.0
 51
164.9381082228985
 73
     1
 72
     2
 10
-964.9109940919333
 20
-1107.873647205948
 40
1.205656168392844
 50
164.9381082229203
 51
195.0618917770901
 73
     1
 72
     2
 10
-964.4918662484716
 20
-1107.760856843913
 40
1.639695123940421
 50
195.0618917771015
 51
275.1581447696745
 73
     1
 72
     2
 10
-964.7807223432075
 20
-1104.560966260692
 40
4.852596863498941
 50
275.1581447696365
 51
285.9799912583397
 73
     1
 72
     1
 10
-963.4447944260908
 20
-1109.226048566493
 11
-963.4447944260908
 21
-1108.35353155969
 72
     2
 10
-964.6228494681146
 20
-1106.46318084054
 40
2.227384008973474
 50
58.06909105006579
 51
71.55192388187278
 73
     0
 72
     2
 10
-964.2046817344527
 20
-1107.716726616577
 40
0.9059297849850417
 50
71.55192388192397
 51
113.3722778881922
 73
     0
 72
     2
 10
-964.3611217671559
 20
-1108.078718635287
 40
0.5115800601959901
 50
113.3722778881707
 51
151.4785267423332
 73
     0
 72
     2
 10
-963.9837645090745
 20
-1107.873647205948
 40
0.9410597353348766
 50
151.478526742307
 51
208.5214732576322
 73
     0
 72
     2
 10
-964.3611217671559
 20
-1107.668575776609
 40
0.5115800601937612
 50
208.5214732575773
 51
250.6628567804924
 73
     0
 72
     2
 10
-964.2144517690522
 20
-1108.086530756992
 40
0.9545230068260935
 50
250.6628567805599
 51
270.0
 73
     0
 72
     1
 10
-964.2144517690522
 20
-1107.132007750166
 11
-963.110812469484
 21
-1107.132007750166
 72
     1
 10
-963.110812469484
 20
-1107.132007750166
 11
-963.110812469484
 21
-1109.400551967854
 72
     1
 10
-963.110812469484
 20
-1109.400551967854
 11
-961.9180197673163
 21
-1109.400551967854
 72
     1
 10
-961.9180197673163
 20
-1109.400551967854
 11
-961.9180197673163
 21
-1107.132007750166
 72
     1
 10
-961.9180197673163
 20
-1107.132007750166
 11
-961.106920729843
 21
-1107.132007750166
 72
     1
 10
-961.106920729843
 20
-1107.132007750166
 11
-961.106920729843
 21
-1106.346742444043
 72
     1
 10
-961.106920729843
 20
-1106.346742444043
 11
-964.4918662484716
 21
-1106.346742444043
 97
       18
330
1E4
330
1E3
330
1E2
330
1E1
330
1E6
330
180
330
25E
330
23F
330
25D
330
240
330
25C
330
25B
330
181
330
25A
330
259
330
241
330
242
330
1E5
 75
     1
 76
     0
 52
45.0
 41
0.1
 77
     0
 78
     1
 53
45.0
 43
0.0
 44
0.0
 45
-0.0707106781186548
 46
0.0707106781186548
 79
     0
 98
        1
 10
0.0
 20
0.0
  0
HATCH
  5
294
330
71
100
AcDbEntity
  8
1
  6
Continuous
 62
     2
100
AcDbHatch
 10
0.0
 20
0.0
 30
0.0
210
0.0
220
0.0
230
1.0
  2
_USER
 70
     0
 71
     1
 91
        4
 92
        1
 93
        8
 72
     2
 10
-988.5940253451647
 20
-1103.41179658327
 40
0.424244615383941
 50
90.0
 51
180.0
 73
     1
 72
     1
 10
-989.0182699605475
 20
-1103.41179658327
 11
-989.0182699605475
 21
-1108.97630735247
 72
     2
 10
-988.5940253451647
 20
-1108.97630735247
 40
0.4242446153828041
 50
180.0
 51
270.0
 73
     1
 72
     1
 10
-988.5940253451647
 20
-1109.400551967854
 11
-983.1207132544479
 21
-1109.400551967854
 72
     2
 10
-983.1207132544479
 20
-1108.97630735247
 40
0.424244615383941
 50
270.0
 51
360.0
 73
     1
 72
     1
 10
-982.6964686390639
 20
-1108.97630735247
 11
-982.6964686390639
 21
-1103.41179658327
 72
     2
 10
-983.1207132544479
 20
-1103.41179658327
 40
0.424244615383941
 50
0.0
 51
90.0
 73
     1
 72
     1
 10
-983.1207132544479
 20
-1102.987551967886
 11
-988.5940253451647
 21
-1102.987551967886
 97
        8
330
252
330
1AF
330
251
330
1B0
330
248
330
1AD
330
253
330
1AE
 92
       16
 93
        1
 72
     2
 10
-985.9744396946471
 20
-1105.730678811626
 40
0.4709789327785074
 50
0.0
 51
360.0
 73
     1
 97
        1
330
266
 92
       16
 93
        8
 72
     2
 10
-985.9506246799743
 20
-1105.730678811626
 40
0.9118481501436899
 50
295.3740086781954
 51
424.6259913218291
 73
     1
 72
     2
 10
-985.4245819818865
 20
-1104.621537211658
 40
0.3157169230768204
 50
115.3740086784052
 51
180.0
 73
     0
 72
     1
 10
-985.7402989049633
 20
-1104.621537211658
 11
-985.7402989049633
 21
-1104.016001923151
 72
     2
 10
-985.4245819818865
 20
-1104.016001923151
 40
0.3157169230760141
 50
180.0
 51
269.8110329574592
 73
     0
 72
     2
 10
-985.4189658465764
 20
-1105.71883687072
 40
2.018561131933152
 50
269.8110329575842
 51
450.1889670424158
 73
     0
 72
     2
 10
-985.4245819818865
 20
-1107.421671818289
 40
0.3157169230768204
 50
90.18896704254082
 51
180.0
 73
     0
 72
     1
 10
-985.7402989049633
 20
-1107.421671818289
 11
-985.7402989049633
 21
-1106.839820411594
 72
     2
 10
-985.4245819818865
 20
-1106.839820411594
 40
0.3157169230770072
 50
180.0
 51
244.6259913216833
 73
     0
 97
        8
330
260
330
23C
330
1E8
330
25F
330
23D
330
23E
330
1E7
330
23B
 92
       16
 93
       12
 72
     1
 10
-988.0001306684181
 20
-1108.687996412297
 11
-986.5242974074085
 21
-1108.687996412297
 72
     2
 10
-986.5242974074085
 20
-1108.37227948922
 40
0.3157169230769341
 50
270.0
 51
360.0
 73
     1
 72
     1
 10
-986.208580484332
 20
-1108.37227948922
 11
-986.208580484332
 21
-1106.841508557689
 72
     2
 10
-986.5242974074085
 20
-1106.841508557689
 40
0.315716923076593
 50
0.0
 51
64.80558935147346
 73
     1
 72
     2
 10
-986.0017129598335
 20
-1105.730678811626
 40
0.9118975235580125
 50
115.1944106485123
 51
244.8055893514816
 73
     0
 72
     2
 10
-986.5242974074085
 20
-1104.619849065563
 40
0.3157169230764803
 50
295.194410648509
 51
360.0
 73
     1
 72
     1
 10
-986.208580484332
 20
-1104.619849065563
 11
-986.208580484332
 21
-1104.015824446503
 72
     2
 10
-986.5242974074085
 20
-1104.015824446503
 40
0.315716923076593
 50
0.0
 51
90.0
 73
     1
 72
     1
 10
-986.5242974074085
 20
-1103.700107523427
 11
-988.0001306684181
 21
-1103.700107523427
 72
     2
 10
-988.0001306684181
 20
-1104.015824446503
 40
0.3157169230760246
 50
90.0
 51
180.0
 73
     1
 72
     1
 10
-988.3158475914938
 20
-1104.015824446503
 11
-988.3158475914938
 21
-1108.37227948922
 72
     2
 10
-988.0001306684181
 20
-1108.37227948922
 40
0.3157169230756836
 50
180.0
 51
270.0
 73
     1
 97
       12
330
1B4
330
245
330
1B3
330
256
330
1B2
330
255
330
246
330
247
330
1B1
330
254
330
1AC
330
257
 75
     1
 76
     0
 52
45.0
 41
0.1
 77
     0
 78
     1
 53
45.0
 43
0.0
 44
0.0
 45
-0.0707106781186548
 46
0.0707106781186548
 79
     0
 98
        1
 10
0.0
 20
0.0
  0
HATCH
  5
295
330
71
100
AcDbEntity
  8
1
  6
Continuous
 62
     2
100
AcDbHatch
 10
0.0
 20
0.0
 30
0.0
210
0.0
220
0.0
230
1.0
  2
_USER
 70
     0
 71
     1
 91
        4
 92
        1
 93
        8
 72
     2
 10
-988.5940253451647
 20
-1103.41179658327
 40
0.424244615383941
 50
90.0
 51
180.0
 73
     1
 72
     1
 10
-989.0182699605475
 20
-1103.41179658327
 11
-989.0182699605475
 21
-1108.97630735247
 72
     2
 10
-988.5940253451647
 20
-1108.97630735247
 40
0.4242446153828041
 50
180.0
 51
270.0
 73
     1
 72
     1
 10
-988.5940253451647
 20
-1109.400551967854
 11
-983.1207132544479
 21
-1109.400551967854
 72
     2
 10
-983.1207132544479
 20
-1108.97630735247
 40
0.424244615383941
 50
270.0
 51
360.0
 73
     1
 72
     1
 10
-982.6964686390639
 20
-1108.97630735247
 11
-982.6964686390639
 21
-1103.41179658327
 72
     2
 10
-983.1207132544479
 20
-1103.41179658327
 40
0.424244615383941
 50
0.0
 51
90.0
 73
     1
 72
     1
 10
-983.1207132544479
 20
-1102.987551967886
 11
-988.5940253451647
 21
-1102.987551967886
 97
        8
330
252
330
1AF
330
251
330
1B0
330
248
330
1AD
330
253
330
1AE
 92
       16
 93
        1
 72
     2
 10
-985.9744396946471
 20
-1105.730678811626
 40
0.4709789327785074
 50
0.0
 51
360.0
 73
     1
 97
        1
330
266
 92
       16
 93
        8
 72
     2
 10
-985.9506246799743
 20
-1105.730678811626
 40
0.9118481501436899
 50
295.3740086781954
 51
424.6259913218291
 73
     1
 72
     2
 10
-985.4245819818865
 20
-1104.621537211658
 40
0.3157169230768204
 50
115.3740086784052
 51
180.0
 73
     0
 72
     1
 10
-985.7402989049633
 20
-1104.621537211658
 11
-985.7402989049633
 21
-1104.016001923151
 72
     2
 10
-985.4245819818865
 20
-1104.016001923151
 40
0.3157169230760141
 50
180.0
 51
269.8110329574592
 73
     0
 72
     2
 10
-985.4189658465764
 20
-1105.71883687072
 40
2.018561131933152
 50
269.8110329575842
 51
450.1889670424158
 73
     0
 72
     2
 10
-985.4245819818865
 20
-1107.421671818289
 40
0.3157169230768204
 50
90.18896704254082
 51
180.0
 73
     0
 72
     1
 10
-985.7402989049633
 20
-1107.421671818289
 11
-985.7402989049633
 21
-1106.839820411594
 72
     2
 10
-985.4245819818865
 20
-1106.839820411594
 40
0.3157169230770072
 50
180.0
 51
244.6259913216833
 73
     0
 97
        8
330
260
330
23C
330
1E8
330
25F
330
23D
330
23E
330
1E7
330
23B
 92
       16
 93
       12
 72
     1
 10
-988.0001306684181
 20
-1108.687996412297
 11
-986.5242974074085
 21
-1108.687996412297
 72
     2
 10
-986.5242974074085
 20
-1108.37227948922
 40
0.3157169230769341
 50
270.0
 51
360.0
 73
     1
 72
     1
 10
-986.208580484332
 20
-1108.37227948922
 11
-986.208580484332
 21
-1106.841508557689
 72
     2
 10
-986.5242974074085
 20
-1106.841508557689
 40
0.315716923076593
 50
0.0
 51
64.80558935147346
 73
     1
 72
     2
 10
-986.0017129598335
 20
-1105.730678811626
 40
0.9118975235580125
 50
115.1944106485123
 51
244.8055893514816
 73
     0
 72
     2
 10
-986.5242974074085
 20
-1104.619849065563
 40
0.3157169230764803
 50
295.194410648509
 51
360.0
 73
     1
 72
     1
 10
-986.208580484332
 20
-1104.619849065563
 11
-986.208580484332
 21
-1104.015824446503
 72
     2
 10
-986.5242974074085
 20
-1104.015824446503
 40
0.315716923076593
 50
0.0
 51
90.0
 73
     1
 72
     1
 10
-986.5242974074085
 20
-1103.700107523427
 11
-988.0001306684181
 21
-1103.700107523427
 72
     2
 10
-988.0001306684181
 20
-1104.015824446503
 40
0.3157169230760246
 50
90.0
 51
180.0
 73
     1
 72
     1
 10
-988.3158475914938
 20
-1104.015824446503
 11
-988.3158475914938
 21
-1108.37227948922
 72
     2
 10
-988.0001306684181
 20
-1108.37227948922
 40
0.3157169230756836
 50
180.0
 51
270.0
 73
     1
 97
       12
330
1B4
330
245
330
1B3
330
256
330
1B2
330
255
330
246
330
247
330
1B1
330
254
330
1AC
330
257
 75
     1
 76
     0
 52
45.0
 41
0.1
 77
     0
 78
     1
 53
45.0
 43
0.0
 44
0.0
 45
-0.0707106781186548
 46
0.0707106781186548
 79
     0
 98
        1
 10
0.0
 20
0.0
  0
HATCH
  5
296
330
71
100
AcDbEntity
  8
1
  6
Continuous
 62
     2
100
AcDbHatch
 10
0.0
 20
0.0
 30
0.0
210
0.0
220
0.0
230
1.0
  2
_USER
 70
     0
 71
     1
 91
        2
 92
        1
 93
       12
 72
     2
 10
-973.9188613411753
 20
-1104.514456729774
 40
1.526904761906053
 50
90.0
 51
270.0
 73
     1
 72
     1
 10
-973.9188613411753
 20
-1106.041361491679
 11
-970.7685416173944
 21
-1106.041361491679
 72
     1
 10
-970.7685416173944
 20
-1106.041361491679
 11
-970.7685416173944
 21
-1105.343347886237
 72
     1
 10
-970.7685416173944
 20
-1105.343347886237
 11
-972.104469443822
 21
-1105.343347886237
 72
     1
 10
-972.104469443822
 20
-1105.343347886237
 11
-972.104469443822
 21
-1104.863463532495
 72
     1
 10
-972.104469443822
 20
-1104.863463532495
 11
-970.7685416173944
 21
-1104.863463532495
 72
     1
 10
-970.7685416173944
 20
-1104.863463532495
 11
-970.7685416173944
 21
-1104.165449927053
 72
     1
 10
-970.7685416173944
 20
-1104.165449927053
 11
-972.104469443822
 21
-1104.165449927053
 72
     1
 10
-972.104469443822
 20
-1104.165449927053
 11
-972.104469443822
 21
-1103.685565573311
 72
     1
 10
-972.104469443822
 20
-1103.685565573311
 11
-970.7685416173944
 21
-1103.685565573311
 72
     1
 10
-970.7685416173944
 20
-1103.685565573311
 11
-970.7685416173944
 21
-1102.987551967868
 72
     1
 10
-970.7685416173944
 20
-1102.987551967868
 11
-973.9188613411753
 21
-1102.987551967868
 97
       12
330
1A3
330
19D
330
1C4
330
1C3
330
1C2
330
1C1
330
19E
330
19F
330
1A0
330
1A1
330
243
330
1A2
 92
       16
 93
        4
 72
     2
 10
-973.5028492946639
 20
-1104.514456729774
 40
0.7717997786796852
 50
141.8795802028358
 51
218.1204197971509
 73
     1
 72
     2
 10
-973.7025893310101
 20
-1104.671187907894
 40
0.5179085730137529
 50
218.1204197971956
 51
321.8795802028121
 73
     1
 72
     2
 10
-973.9023293673563
 20
-1104.514456729774
 40
0.7717997786795447
 50
321.8795802028491
 51
398.1204197971642
 73
     1
 72
     2
 10
-973.7025893310101
 20
-1104.357725551653
 40
0.5179085730131405
 50
38.12041979708892
 51
141.8795802029033
 73
     1
 97
        4
330
250
330
24F
330
24A
330
249
 75
     1
 76
     0
 52
45.0
 41
0.1
 77
     0
 78
     1
 53
45.0
 43
0.0
 44
0.0
 45
-0.0707106781186548
 46
0.0707106781186548
 79
     0
 98
        1
 10
0.0
 20
0.0
  0
HATCH
  5
297
330
71
100
AcDbEntity
  8
1
  6
Continuous
 62
     2
100
AcDbHatch
 10
0.0
 20
0.0
 30
0.0
210
0.0
220
0.0
230
1.0
  2
_USER
 70
     0
 71
     1
 91
        2
 92
        1
 93
       12
 72
     2
 10
-973.9188613411753
 20
-1104.514456729774
 40
1.526904761906053
 50
90.0
 51
270.0
 73
     1
 72
     1
 10
-973.9188613411753
 20
-1106.041361491679
 11
-970.7685416173944
 21
-1106.041361491679
 72
     1
 10
-970.7685416173944
 20
-1106.041361491679
 11
-970.7685416173944
 21
-1105.343347886237
 72
     1
 10
-970.7685416173944
 20
-1105.343347886237
 11
-972.104469443822
 21
-1105.343347886237
 72
     1
 10
-972.104469443822
 20
-1105.343347886237
 11
-972.104469443822
 21
-1104.863463532495
 72
     1
 10
-972.104469443822
 20
-1104.863463532495
 11
-970.7685416173944
 21
-1104.863463532495
 72
     1
 10
-970.7685416173944
 20
-1104.863463532495
 11
-970.7685416173944
 21
-1104.165449927053
 72
     1
 10
-970.7685416173944
 20
-1104.165449927053
 11
-972.104469443822
 21
-1104.165449927053
 72
     1
 10
-972.104469443822
 20
-1104.165449927053
 11
-972.104469443822
 21
-1103.685565573311
 72
     1
 10
-972.104469443822
 20
-1103.685565573311
 11
-970.7685416173944
 21
-1103.685565573311
 72
     1
 10
-970.7685416173944
 20
-1103.685565573311
 11
-970.7685416173944
 21
-1102.987551967868
 72
     1
 10
-970.7685416173944
 20
-1102.987551967868
 11
-973.9188613411753
 21
-1102.987551967868
 97
       12
330
1A3
330
19D
330
1C4
330
1C3
330
1C2
330
1C1
330
19E
330
19F
330
1A0
330
1A1
330
243
330
1A2
 92
       16
 93
        4
 72
     2
 10
-973.5028492946639
 20
-1104.514456729774
 40
0.7717997786796852
 50
141.8795802028358
 51
218.1204197971509
 73
     1
 72
     2
 10
-973.7025893310101
 20
-1104.671187907894
 40
0.5179085730137529
 50
218.1204197971956
 51
321.8795802028121
 73
     1
 72
     2
 10
-973.9023293673563
 20
-1104.514456729774
 40
0.7717997786795447
 50
321.8795802028491
 51
398.1204197971642
 73
     1
 72
     2
 10
-973.7025893310101
 20
-1104.357725551653
 40
0.5179085730131405
 50
38.12041979708892
 51
141.8795802029033
 73
     1
 97
        4
330
250
330
24F
330
24A
330
249
 75
     1
 76
     0
 52
45.0
 41
0.1
 77
     0
 78
     1
 53
45.0
 43
0.0
 44
0.0
 45
-0.0707106781186548
 46
0.0707106781186548
 79
     0
 98
        1
 10
0.0
 20
0.0
  0
HATCH
  5
298
330
71
100
AcDbEntity
  8
1
  6
Continuous
 62
     2
100
AcDbHatch
 10
0.0
 20
0.0
 30
0.0
210
0.0
220
0.0
230
1.0
  2
_USER
 70
     0
 71
     1
 91
        2
 92
        1
 93
        4
 72
     2
 10
-977.944476703637
 20
-1107.873647205948
 40
1.458034083650935
 50
117.5481481756713
 51
242.4518518243493
 73
     1
 72
     2
 10
-977.6635368118036
 20
-1107.335072195645
 40
2.065479772208722
 50
242.4518518243441
 51
297.5481481756838
 73
     1
 72
     2
 10
-977.3825969199704
 20
-1107.873647205948
 40
1.458034083652521
 50
297.5481481756942
 51
422.4518518242851
 73
     1
 72
     2
 10
-977.6635368118036
 20
-1108.412222216251
 40
2.06547977220824
 50
62.45185182430162
 51
117.5481481756704
 73
     1
 97
        4
330
24E
330
24B
330
24D
330
24C
 92
       16
 93
        4
 72
     2
 10
-977.6635368118036
 20
-1107.716916027828
 40
0.5179085730135231
 50
38.12041979718361
 51
141.8795802028242
 73
     1
 72
     2
 10
-977.4637967754576
 20
-1107.873647205948
 40
0.7717997786793659
 50
141.8795802028387
 51
218.1204197971746
 73
     1
 72
     2
 10
-977.6635368118036
 20
-1108.030378384068
 40
0.5179085730137529
 50
218.1204197971956
 51
321.8795802027966
 73
     1
 72
     2
 10
-977.86327684815
 20
-1107.873647205948
 40
0.7717997786796852
 50
321.8795802028358
 51
398.1204197971509
 73
     1
 97
        4
330
231
330
232
330
233
330
230
 75
     1
 76
     0
 52
45.0
 41
0.1
 77
     0
 78
     1
 53
45.0
 43
0.0
 44
0.0
 45
-0.0707106781186548
 46
0.0707106781186548
 79
     0
 98
        1
 10
0.0
 20
0.0
  0
HATCH
  5
299
330
71
100
AcDbEntity
  8
1
  6
Continuous
 62
     2
100
AcDbHatch
 10
0.0
 20
0.0
 30
0.0
210
0.0
220
0.0
230
1.0
  2
_USER
 70
     0
 71
     1
 91
        2
 92
        1
 93
        4
 72
     2
 10
-977.944476703637
 20
-1107.873647205948
 40
1.458034083650935
 50
117.5481481756713
 51
242.4518518243493
 73
     1
 72
     2
 10
-977.6635368118036
 20
-1107.335072195645
 40
2.065479772208722
 50
242.4518518243441
 51
297.5481481756838
 73
     1
 72
     2
 10
-977.3825969199704
 20
-1107.873647205948
 40
1.458034083652521
 50
297.5481481756942
 51
422.4518518242851
 73
     1
 72
     2
 10
-977.6635368118036
 20
-1108.412222216251
 40
2.06547977220824
 50
62.45185182430162
 51
117.5481481756704
 73
     1
 97
        4
330
24E
330
24B
330
24D
330
24C
 92
       16
 93
        4
 72
     2
 10
-977.6635368118036
 20
-1107.716916027828
 40
0.5179085730135231
 50
38.12041979718361
 51
141.8795802028242
 73
     1
 72
     2
 10
-977.4637967754576
 20
-1107.873647205948
 40
0.7717997786793659
 50
141.8795802028387
 51
218.1204197971746
 73
     1
 72
     2
 10
-977.6635368118036
 20
-1108.030378384068
 40
0.5179085730137529
 50
218.1204197971956
 51
321.8795802027966
 73
     1
 72
     2
 10
-977.86327684815
 20
-1107.873647205948
 40
0.7717997786796852
 50
321.8795802028358
 51
398.1204197971509
 73
     1
 97
        4
330
231
330
232
330
233
330
230
 75
     1
 76
     0
 52
45.0
 41
0.1
 77
     0
 78
     1
 53
45.0
 43
0.0
 44
0.0
 45
-0.0707106781186548
 46
0.0707106781186548
 79
     0
 98
        1
 10
0.0
 20
0.0
  0
HATCH
  5
29A
330
71
100
AcDbEntity
  8
1
  6
Continuous
 62
     2
100
AcDbHatch
 10
0.0
 20
0.0
 30
0.0
210
0.0
220
0.0
230
1.0
  2
_USER
 70
     0
 71
     1
 91
        2
 92
        1
 93
        6
 72
     1
 10
-982.2193515581971
 20
-1102.987551967868
 11
-982.2193515581971
 21
-1106.041361491679
 72
     1
 10
-982.2193515581971
 20
-1106.041361491679
 11
-980.978847147943
 21
-1106.041361491679
 72
     1
 10
-980.978847147943
 20
-1106.041361491679
 11
-980.978847147943
 21
-1105.098283250536
 72
     1
 10
-980.978847147943
 20
-1105.098283250536
 11
-980.2200795601627
 21
-1105.098283250536
 72
     2
 10
-980.2200795601627
 20
-1104.042917609202
 40
1.055365641333992
 50
270.0
 51
450.0
 73
     1
 72
     1
 10
-980.2200795601627
 20
-1102.987551967868
 11
-982.2193515581971
 21
-1102.987551967868
 97
        6
330
258
330
1B5
330
1AB
330
1AA
330
1B7
330
1B6
 92
       16
 93
        4
 72
     1
 10
-980.6615520864011
 20
-1103.650657813308
 11
-980.978847147943
 21
-1103.650657813308
 72
     1
 10
-980.978847147943
 20
-1103.650657813308
 11
-980.978847147943
 21
-1104.356385462651
 72
     1
 10
-980.978847147943
 20
-1104.356385462651
 11
-980.6615520864011
 21
-1104.356385462651
 72
     2
 10
-980.6615520864011
 20
-1104.003521637979
 40
0.3528638246718856
 50
270.0
 51
450.0
 73
     1
 97
        4
330
1B8
330
1A9
330
1B9
330
244
 75
     1
 76
     0
 52
45.0
 41
0.1
 77
     0
 78
     1
 53
45.0
 43
0.0
 44
0.0
 45
-0.0707106781186548
 46
0.0707106781186548
 79
     0
 98
        1
 10
0.0
 20
0.0
  0
HATCH
  5
29B
330
71
100
AcDbEntity
  8
1
  6
Continuous
 62
     2
100
AcDbHatch
 10
0.0
 20
0.0
 30
0.0
210
0.0
220
0.0
230
1.0
  2
_USER
 70
     0
 71
     1
 91
        2
 92
        1
 93
        6
 72
     1
 10
-982.2193515581971
 20
-1102.987551967868
 11
-982.2193515581971
 21
-1106.041361491679
 72
     1
 10
-982.2193515581971
 20
-1106.041361491679
 11
-980.978847147943
 21
-1106.041361491679
 72
     1
 10
-980.978847147943
 20
-1106.041361491679
 11
-980.978847147943
 21
-1105.098283250536
 72
     1
 10
-980.978847147943
 20
-1105.098283250536
 11
-980.2200795601627
 21
-1105.098283250536
 72
     2
 10
-980.2200795601627
 20
-1104.042917609202
 40
1.055365641333992
 50
270.0
 51
450.0
 73
     1
 72
     1
 10
-980.2200795601627
 20
-1102.987551967868
 11
-982.2193515581971
 21
-1102.987551967868
 97
        6
330
258
330
1B5
330
1AB
330
1AA
330
1B7
330
1B6
 92
       16
 93
        4
 72
     1
 10
-980.6615520864011
 20
-1103.650657813308
 11
-980.978847147943
 21
-1103.650657813308
 72
     1
 10
-980.978847147943
 20
-1103.650657813308
 11
-980.978847147943
 21
-1104.356385462651
 72
     1
 10
-980.978847147943
 20
-1104.356385462651
 11
-980.6615520864011
 21
-1104.356385462651
 72
     2
 10
-980.6615520864011
 20
-1104.003521637979
 40
0.3528638246718856
 50
270.0
 51
450.0
 73
     1
 97
        4
330
1B8
330
1A9
330
1B9
330
244
 75
     1
 76
     0
 52
45.0
 41
0.1
 77
     0
 78
     1
 53
45.0
 43
0.0
 44
0.0
 45
-0.0707106781186548
 46
0.0707106781186548
 79
     0
 98
        1
 10
0.0
 20
0.0
  0
HATCH
  5
29C
330
71
100
AcDbEntity
  8
1
  6
Continuous
 62
     2
100
AcDbHatch
 10
0.0
 20
0.0
 30
0.0
210
0.0
220
0.0
230
1.0
  2
_USER
 70
     0
 71
     1
 91
        1
 92
        1
 93
       12
 72
     1
 10
-962.605068363764
 20
-1102.987551967868
 11
-961.2023441460167
 21
-1102.987551967868
 72
     1
 10
-961.2023441460167
 20
-1102.987551967868
 11
-962.5048737767833
 21
-1104.460502497904
 72
     1
 10
-962.5048737767833
 20
-1104.460502497904
 11
-961.106920729843
 21
-1106.041361491679
 72
     1
 10
-961.106920729843
 20
-1106.041361491679
 11
-962.5096449475913
 21
-1106.041361491679
 72
     1
 10
-962.5096449475913
 20
-1106.041361491679
 11
-963.2062358856567
 21
-1105.253629706386
 72
     1
 10
-963.2062358856567
 20
-1105.253629706386
 11
-963.9028268237224
 21
-1106.041361491679
 72
     1
 10
-963.9028268237224
 20
-1106.041361491679
 11
-965.3055510414706
 21
-1106.041361491679
 72
     1
 10
-965.3055510414706
 20
-1106.041361491679
 11
-963.9075979945303
 21
-1104.460502497904
 72
     1
 10
-963.9075979945303
 20
-1104.460502497904
 11
-965.2101276252979
 21
-1102.987551967868
 72
     1
 10
-965.2101276252979
 20
-1102.987551967868
 11
-963.8074034075486
 21
-1102.987551967868
 72
     1
 10
-963.8074034075486
 20
-1102.987551967868
 11
-963.2062358856567
 21
-1103.667375289424
 72
     1
 10
-963.2062358856567
 20
-1103.667375289424
 11
-962.605068363764
 21
-1102.987551967868
 97
       12
330
184
330
1DD
330
1DC
330
1DB
330
1DA
330
185
330
186
330
182
330
183
330
1E0
330
1DF
330
1DE
 75
     1
 76
     0
 52
45.0
 41
0.1
 77
     0
 78
     1
 53
45.0
 43
0.0
 44
0.0
 45
-0.0707106781186548
 46
0.0707106781186548
 79
     0
 98
        1
 10
0.0
 20
0.0
  0
HATCH
  5
29D
330
71
100
AcDbEntity
  8
1
  6
Continuous
 62
     2
100
AcDbHatch
 10
0.0
 20
0.0
 30
0.0
210
0.0
220
0.0
230
1.0
  2
_USER
 70
     0
 71
     1
 91
        1
 92
        1
 93
       12
 72
     1
 10
-962.605068363764
 20
-1102.987551967868
 11
-961.2023441460167
 21
-1102.987551967868
 72
     1
 10
-961.2023441460167
 20
-1102.987551967868
 11
-962.5048737767833
 21
-1104.460502497904
 72
     1
 10
-962.5048737767833
 20
-1104.460502497904
 11
-961.106920729843
 21
-1106.041361491679
 72
     1
 10
-961.106920729843
 20
-1106.041361491679
 11
-962.5096449475913
 21
-1106.041361491679
 72
     1
 10
-962.5096449475913
 20
-1106.041361491679
 11
-963.2062358856567
 21
-1105.253629706386
 72
     1
 10
-963.2062358856567
 20
-1105.253629706386
 11
-963.9028268237224
 21
-1106.041361491679
 72
     1
 10
-963.9028268237224
 20
-1106.041361491679
 11
-965.3055510414706
 21
-1106.041361491679
 72
     1
 10
-965.3055510414706
 20
-1106.041361491679
 11
-963.9075979945303
 21
-1104.460502497904
 72
     1
 10
-963.9075979945303
 20
-1104.460502497904
 11
-965.2101276252979
 21
-1102.987551967868
 72
     1
 10
-965.2101276252979
 20
-1102.987551967868
 11
-963.8074034075486
 21
-1102.987551967868
 72
     1
 10
-963.8074034075486
 20
-1102.987551967868
 11
-963.2062358856567
 21
-1103.667375289424
 72
     1
 10
-963.2062358856567
 20
-1103.667375289424
 11
-962.605068363764
 21
-1102.987551967868
 97
       12
330
184
330
1DD
330
1DC
330
1DB
330
1DA
330
185
330
186
330
182
330
183
330
1E0
330
1DF
330
1DE
 75
     1
 76
     0
 52
45.0
 41
0.1
 77
     0
 78
     1
 53
45.0
 43
0.0
 44
0.0
 45
-0.0707106781186548
 46
0.0707106781186548
 79
     0
 98
        1
 10
0.0
 20
0.0
  0
HATCH
  5
29E
330
71
100
AcDbEntity
  8
1
  6
Continuous
 62
     2
100
AcDbHatch
 10
0.0
 20
0.0
 30
0.0
210
0.0
220
0.0
230
1.0
  2
_USER
 70
     0
 71
     1
 91
        1
 92
        1
 93
        4
 72
     1
 10
-965.4248303116875
 20
-1102.987551967868
 11
-965.4248303116875
 21
-1106.041361491679
 72
     1
 10
-965.4248303116875
 20
-1106.041361491679
 11
-966.6653347219404
 21
-1106.041361491679
 72
     1
 10
-966.6653347219404
 20
-1106.041361491679
 11
-966.6653347219404
 21
-1102.987551967868
 72
     1
 10
-966.6653347219404
 20
-1102.987551967868
 11
-965.4248303116875
 21
-1102.987551967868
 97
        4
330
1D8
330
187
330
1D7
330
1D9
 75
     1
 76
     0
 52
45.0
 41
0.1
 77
     0
 78
     1
 53
45.0
 43
0.0
 44
0.0
 45
-0.0707106781186548
 46
0.0707106781186548
 79
     0
 98
        1
 10
0.0
 20
0.0
  0
HATCH
  5
29F
330
71
100
AcDbEntity
  8
1
  6
Continuous
 62
     2
100
AcDbHatch
 10
0.0
 20
0.0
 30
0.0
210
0.0
220
0.0
230
1.0
  2
_USER
 70
     0
 71
     1
 91
        1
 92
        1
 93
        4
 72
     1
 10
-965.4248303116875
 20
-1102.987551967868
 11
-965.4248303116875
 21
-1106.041361491679
 72
     1
 10
-965.4248303116875
 20
-1106.041361491679
 11
-966.6653347219404
 21
-1106.041361491679
 72
     1
 10
-966.6653347219404
 20
-1106.041361491679
 11
-966.6653347219404
 21
-1102.987551967868
 72
     1
 10
-966.6653347219404
 20
-1102.987551967868
 11
-965.4248303116875
 21
-1102.987551967868
 97
        4
330
1D8
330
187
330
1D7
330
1D9
 75
     1
 76
     0
 52
45.0
 41
0.1
 77
     0
 78
     1
 53
45.0
 43
0.0
 44
0.0
 45
-0.0707106781186548
 46
0.0707106781186548
 79
     0
 98
        1
 10
0.0
 20
0.0
  0
HATCH
  5
2A0
330
71
100
AcDbEntity
  8
1
  6
Continuous
 62
     2
100
AcDbHatch
 10
0.0
 20
0.0
 30
0.0
210
0.0
220
0.0
230
1.0
  2
_USER
 70
     0
 71
     1
 91
        2
 92
        1
 93
        8
 72
     1
 10
-965.8152743152195
 20
-1109.400551967854
 11
-967.0557787254735
 21
-1109.400551967854
 72
     1
 10
-967.0557787254735
 20
-1109.400551967854
 11
-967.2672587789492
 21
-1108.859591423636
 72
     1
 10
-967.2672587789492
 20
-1108.859591423636
 11
-968.399700355623
 21
-1108.859591423636
 72
     1
 10
-968.399700355623
 20
-1108.859591423636
 11
-968.6111804090989
 21
-1109.400551967854
 72
     1
 10
-968.6111804090989
 20
-1109.400551967854
 11
-969.8516848193518
 21
-1109.400551967854
 72
     1
 10
-969.8516848193518
 20
-1109.400551967854
 11
-968.4537317724125
 21
-1106.346742444043
 72
     1
 10
-968.4537317724125
 20
-1106.346742444043
 11
-967.2132273621598
 21
-1106.346742444043
 72
     1
 10
-967.2132273621598
 20
-1106.346742444043
 11
-965.8152743152195
 21
-1109.400551967854
 97
        8
330
1D3
330
18D
330
1D2
330
1D5
330
18A
330
1D4
330
18B
330
18C
 92
       16
 93
        3
 72
     1
 10
-968.1336448044781
 20
-1108.179028158329
 11
-967.5333143300955
 21
-1108.179028158329
 72
     1
 10
-967.5333143300955
 20
-1108.179028158329
 11
-967.8334795672856
 21
-1107.411213192342
 72
     1
 10
-967.8334795672856
 20
-1107.411213192342
 11
-968.1336448044781
 21
-1108.179028158329
 97
        3
330
189
330
188
330
1D6
 75
     1
 76
     0
 52
45.0
 41
0.1
 77
     0
 78
     1
 53
45.0
 43
0.0
 44
0.0
 45
-0.0707106781186548
 46
0.0707106781186548
 79
     0
 98
        1
 10
0.0
 20
0.0
  0
HATCH
  5
2A1
330
71
100
AcDbEntity
  8
1
  6
Continuous
 62
     2
100
AcDbHatch
 10
0.0
 20
0.0
 30
0.0
210
0.0
220
0.0
230
1.0
  2
_USER
 70
     0
 71
     1
 91
        2
 92
        1
 93
        8
 72
     1
 10
-965.8152743152195
 20
-1109.400551967854
 11
-967.0557787254735
 21
-1109.400551967854
 72
     1
 10
-967.0557787254735
 20
-1109.400551967854
 11
-967.2672587789492
 21
-1108.859591423636
 72
     1
 10
-967.2672587789492
 20
-1108.859591423636
 11
-968.399700355623
 21
-1108.859591423636
 72
     1
 10
-968.399700355623
 20
-1108.859591423636
 11
-968.6111804090989
 21
-1109.400551967854
 72
     1
 10
-968.6111804090989
 20
-1109.400551967854
 11
-969.8516848193518
 21
-1109.400551967854
 72
     1
 10
-969.8516848193518
 20
-1109.400551967854
 11
-968.4537317724125
 21
-1106.346742444043
 72
     1
 10
-968.4537317724125
 20
-1106.346742444043
 11
-967.2132273621598
 21
-1106.346742444043
 72
     1
 10
-967.2132273621598
 20
-1106.346742444043
 11
-965.8152743152195
 21
-1109.400551967854
 97
        8
330
1D3
330
18D
330
1D2
330
1D5
330
18A
330
1D4
330
18B
330
18C
 92
       16
 93
        3
 72
     1
 10
-968.1336448044781
 20
-1108.179028158329
 11
-967.5333143300955
 21
-1108.179028158329
 72
     1
 10
-967.5333143300955
 20
-1108.179028158329
 11
-967.8334795672856
 21
-1107.411213192342
 72
     1
 10
-967.8334795672856
 20
-1107.411213192342
 11
-968.1336448044781
 21
-1108.179028158329
 97
        3
330
189
330
188
330
1D6
 75
     1
 76
     0
 52
45.0
 41
0.1
 77
     0
 78
     1
 53
45.0
 43
0.0
 44
0.0
 45
-0.0707106781186548
 46
0.0707106781186548
 79
     0
 98
        1
 10
0.0
 20
0.0
  0
HATCH
  5
2A2
330
71
100
AcDbEntity
  8
1
  6
Continuous
 62
     2
100
AcDbHatch
 10
0.0
 20
0.0
 30
0.0
210
0.0
220
0.0
230
1.0
  2
_USER
 70
     0
 71
     1
 91
        1
 92
        1
 93
        8
 72
     1
 10
-972.0091969585341
 20
-1106.346742444043
 11
-972.0091969585341
 21
-1107.132007750166
 72
     1
 10
-972.0091969585341
 20
-1107.132007750166
 11
-971.1980979210595
 21
-1107.132007750166
 72
     1
 10
-971.1980979210595
 20
-1107.132007750166
 11
-971.1980979210595
 21
-1109.400551967854
 72
     1
 10
-971.1980979210595
 20
-1109.400551967854
 11
-970.005305218893
 21
-1109.400551967854
 72
     1
 10
-970.005305218893
 20
-1109.400551967854
 11
-970.005305218893
 21
-1107.132007750166
 72
     1
 10
-970.005305218893
 20
-1107.132007750166
 11
-969.1942061814204
 21
-1107.132007750166
 72
     1
 10
-969.1942061814204
 20
-1107.132007750166
 11
-969.1942061814204
 21
-1106.346742444043
 72
     1
 10
-969.1942061814204
 20
-1106.346742444043
 11
-972.0091969585341
 21
-1106.346742444043
 97
        8
330
1CF
330
1CE
330
1CD
330
18E
330
18F
330
1D1
330
190
330
1D0
 75
     1
 76
     0
 52
45.0
 41
0.1
 77
     0
 78
     1
 53
45.0
 43
0.0
 44
0.0
 45
-0.0707106781186548
 46
0.0707106781186548
 79
     0
 98
        1
 10
0.0
 20
0.0
  0
HATCH
  5
2A3
330
71
100
AcDbEntity
  8
1
  6
Continuous
 62
     2
100
AcDbHatch
 10
0.0
 20
0.0
 30
0.0
210
0.0
220
0.0
230
1.0
  2
_USER
 70
     0
 71
     1
 91
        1
 92
        1
 93
        8
 72
     1
 10
-972.0091969585341
 20
-1106.346742444043
 11
-972.0091969585341
 21
-1107.132007750166
 72
     1
 10
-972.0091969585341
 20
-1107.132007750166
 11
-971.1980979210595
 21
-1107.132007750166
 72
     1
 10
-971.1980979210595
 20
-1107.132007750166
 11
-971.1980979210595
 21
-1109.400551967854
 72
     1
 10
-971.1980979210595
 20
-1109.400551967854
 11
-970.005305218893
 21
-1109.400551967854
 72
     1
 10
-970.005305218893
 20
-1109.400551967854
 11
-970.005305218893
 21
-1107.132007750166
 72
     1
 10
-970.005305218893
 20
-1107.132007750166
 11
-969.1942061814204
 21
-1107.132007750166
 72
     1
 10
-969.1942061814204
 20
-1107.132007750166
 11
-969.1942061814204
 21
-1106.346742444043
 72
     1
 10
-969.1942061814204
 20
-1106.346742444043
 11
-972.0091969585341
 21
-1106.346742444043
 97
        8
330
1CF
330
1CE
330
1CD
330
18E
330
18F
330
1D1
330
190
330
1D0
 75
     1
 76
     0
 52
45.0
 41
0.1
 77
     0
 78
     1
 53
45.0
 43
0.0
 44
0.0
 45
-0.0707106781186548
 46
0.0707106781186548
 79
     0
 98
        1
 10
0.0
 20
0.0
  0
HATCH
  5
2A4
330
71
100
AcDbEntity
  8
1
  6
Continuous
 62
     2
100
AcDbHatch
 10
0.0
 20
0.0
 30
0.0
210
0.0
220
0.0
230
1.0
  2
_USER
 70
     0
 71
     1
 91
        1
 92
        1
 93
       10
 72
     1
 10
-969.337190374795
 20
-1102.987551967868
 11
-970.5299830769615
 21
-1102.987551967868
 72
     1
 10
-970.5299830769615
 20
-1102.987551967868
 11
-970.5299830769615
 21
-1106.041361491679
 72
     1
 10
-970.5299830769615
 20
-1106.041361491679
 11
-969.337190374795
 21
-1106.041361491679
 72
     1
 10
-969.337190374795
 20
-1106.041361491679
 11
-969.337190374795
 21
-1104.732585981475
 72
     1
 10
-969.337190374795
 20
-1104.732585981475
 11
-968.0966859645409
 21
-1106.041361491679
 72
     1
 10
-968.0966859645409
 20
-1106.041361491679
 11
-966.9038932623744
 21
-1106.041361491679
 72
     1
 10
-966.9038932623744
 20
-1106.041361491679
 11
-966.9038932623744
 21
-1102.987551967868
 72
     1
 10
-966.9038932623744
 20
-1102.987551967868
 11
-968.0966859645409
 21
-1102.987551967868
 72
     1
 10
-968.0966859645409
 20
-1102.987551967868
 11
-968.0966859645409
 21
-1104.296327478073
 72
     1
 10
-968.0966859645409
 20
-1104.296327478073
 11
-969.337190374795
 21
-1102.987551967868
 97
       10
330
1C9
330
193
330
194
330
195
330
196
330
1CC
330
191
330
1CB
330
1CA
330
192
 75
     1
 76
     0
 52
45.0
 41
0.1
 77
     0
 78
     1
 53
45.0
 43
0.0
 44
0.0
 45
-0.0707106781186548
 46
0.0707106781186548
 79
     0
 98
        1
 10
0.0
 20
0.0
  0
HATCH
  5
2A5
330
71
100
AcDbEntity
  8
1
  6
Continuous
 62
     2
100
AcDbHatch
 10
0.0
 20
0.0
 30
0.0
210
0.0
220
0.0
230
1.0
  2
_USER
 70
     0
 71
     1
 91
        1
 92
        1
 93
       10
 72
     1
 10
-969.337190374795
 20
-1102.987551967868
 11
-970.5299830769615
 21
-1102.987551967868
 72
     1
 10
-970.5299830769615
 20
-1102.987551967868
 11
-970.5299830769615
 21
-1106.041361491679
 72
     1
 10
-970.5299830769615
 20
-1106.041361491679
 11
-969.337190374795
 21
-1106.041361491679
 72
     1
 10
-969.337190374795
 20
-1106.041361491679
 11
-969.337190374795
 21
-1104.732585981475
 72
     1
 10
-969.337190374795
 20
-1104.732585981475
 11
-968.0966859645409
 21
-1106.041361491679
 72
     1
 10
-968.0966859645409
 20
-1106.041361491679
 11
-966.9038932623744
 21
-1106.041361491679
 72
     1
 10
-966.9038932623744
 20
-1106.041361491679
 11
-966.9038932623744
 21
-1102.987551967868
 72
     1
 10
-966.9038932623744
 20
-1102.987551967868
 11
-968.0966859645409
 21
-1102.987551967868
 72
     1
 10
-968.0966859645409
 20
-1102.987551967868
 11
-968.0966859645409
 21
-1104.296327478073
 72
     1
 10
-968.0966859645409
 20
-1104.296327478073
 11
-969.337190374795
 21
-1102.987551967868
 97
       10
330
1C9
330
193
330
194
330
195
330
196
330
1CC
330
191
330
1CB
330
1CA
330
192
 75
     1
 76
     0
 52
45.0
 41
0.1
 77
     0
 78
     1
 53
45.0
 43
0.0
 44
0.0
 45
-0.0707106781186548
 46
0.0707106781186548
 79
     0
 98
        1
 10
0.0
 20
0.0
  0
HATCH
  5
2A6
330
71
100
AcDbEntity
  8
1
  6
Continuous
 62
     2
100
AcDbHatch
 10
0.0
 20
0.0
 30
0.0
210
0.0
220
0.0
230
1.0
  2
_USER
 70
     0
 71
     1
 91
        1
 92
        1
 93
       10
 72
     1
 10
-974.5856291952135
 20
-1106.346742444043
 11
-975.7784218973811
 21
-1106.346742444043
 72
     1
 10
-975.7784218973811
 20
-1106.346742444043
 11
-975.7784218973811
 21
-1109.400551967854
 72
     1
 10
-975.7784218973811
 20
-1109.400551967854
 11
-974.5856291952135
 21
-1109.400551967854
 72
     1
 10
-974.5856291952135
 20
-1109.400551967854
 11
-974.5856291952135
 21
-1108.091776457649
 72
     1
 10
-974.5856291952135
 20
-1108.091776457649
 11
-973.3451247849607
 21
-1109.400551967854
 72
     1
 10
-973.3451247849607
 20
-1109.400551967854
 11
-972.1523320827943
 21
-1109.400551967854
 72
     1
 10
-972.1523320827943
 20
-1109.400551967854
 11
-972.1523320827943
 21
-1106.346742444043
 72
     1
 10
-972.1523320827943
 20
-1106.346742444043
 11
-973.3451247849607
 21
-1106.346742444043
 72
     1
 10
-973.3451247849607
 20
-1106.346742444043
 11
-973.3451247849607
 21
-1107.655517954248
 72
     1
 10
-973.3451247849607
 20
-1107.655517954248
 11
-974.5856291952135
 21
-1106.346742444043
 97
       10
330
198
330
199
330
19A
330
1C6
330
19B
330
19C
330
1C5
330
1C8
330
1C7
330
197
 75
     1
 76
     0
 52
45.0
 41
0.1
 77
     0
 78
     1
 53
45.0
 43
0.0
 44
0.0
 45
-0.0707106781186548
 46
0.0707106781186548
 79
     0
 98
        1
 10
0.0
 20
0.0
  0
HATCH
  5
2A7
330
71
100
AcDbEntity
  8
1
  6
Continuous
 62
     2
100
AcDbHatch
 10
0.0
 20
0.0
 30
0.0
210
0.0
220
0.0
230
1.0
  2
_USER
 70
     0
 71
     1
 91
        1
 92
        1
 93
       10
 72
     1
 10
-974.5856291952135
 20
-1106.346742444043
 11
-975.7784218973811
 21
-1106.346742444043
 72
     1
 10
-975.7784218973811
 20
-1106.346742444043
 11
-975.7784218973811
 21
-1109.400551967854
 72
     1
 10
-975.7784218973811
 20
-1109.400551967854
 11
-974.5856291952135
 21
-1109.400551967854
 72
     1
 10
-974.5856291952135
 20
-1109.400551967854
 11
-974.5856291952135
 21
-1108.091776457649
 72
     1
 10
-974.5856291952135
 20
-1108.091776457649
 11
-973.3451247849607
 21
-1109.400551967854
 72
     1
 10
-973.3451247849607
 20
-1109.400551967854
 11
-972.1523320827943
 21
-1109.400551967854
 72
     1
 10
-972.1523320827943
 20
-1109.400551967854
 11
-972.1523320827943
 21
-1106.346742444043
 72
     1
 10
-972.1523320827943
 20
-1106.346742444043
 11
-973.3451247849607
 21
-1106.346742444043
 72
     1
 10
-973.3451247849607
 20
-1106.346742444043
 11
-973.3451247849607
 21
-1107.655517954248
 72
     1
 10
-973.3451247849607
 20
-1107.655517954248
 11
-974.5856291952135
 21
-1106.346742444043
 97
       10
330
198
330
199
330
19A
330
1C6
330
19B
330
19C
330
1C5
330
1C8
330
1C7
330
197
 75
     1
 76
     0
 52
45.0
 41
0.1
 77
     0
 78
     1
 53
45.0
 43
0.0
 44
0.0
 45
-0.0707106781186548
 46
0.0707106781186548
 79
     0
 98
        1
 10
0.0
 20
0.0
  0
HATCH
  5
2A8
330
71
100
AcDbEntity
  8
1
  6
Continuous
 62
     2
100
AcDbHatch
 10
0.0
 20
0.0
 30
0.0
210
0.0
220
0.0
230
1.0
  2
_USER
 70
     0
 71
     1
 91
        1
 92
        1
 93
       12
 72
     1
 10
-975.5874241341489
 20
-1102.987551967868
 11
-975.5874241341489
 21
-1106.041361491679
 72
     1
 10
-975.5874241341489
 20
-1106.041361491679
 11
-976.7802168363154
 21
-1106.041361491679
 72
     1
 10
-976.7802168363154
 20
-1106.041361491679
 11
-976.7802168363154
 21
-1104.907089382836
 72
     1
 10
-976.7802168363154
 20
-1104.907089382836
 11
-977.8298744142228
 21
-1104.907089382836
 72
     1
 10
-977.8298744142228
 20
-1104.907089382836
 11
-977.8298744142228
 21
-1106.041361491679
 72
     1
 10
-977.8298744142228
 20
-1106.041361491679
 11
-979.0226671163895
 21
-1106.041361491679
 72
     1
 10
-979.0226671163895
 20
-1106.041361491679
 11
-979.0226671163895
 21
-1102.987551967868
 72
     1
 10
-979.0226671163895
 20
-1102.987551967868
 11
-977.8298744142228
 21
-1102.987551967868
 72
     1
 10
-977.8298744142228
 20
-1102.987551967868
 11
-977.8298744142228
 21
-1104.056385301203
 72
     1
 10
-977.8298744142228
 20
-1104.056385301203
 11
-976.7802168363154
 21
-1104.056385301203
 72
     1
 10
-976.7802168363154
 20
-1104.056385301203
 11
-976.7802168363154
 21
-1102.987551967868
 72
     1
 10
-976.7802168363154
 20
-1102.987551967868
 11
-975.5874241341489
 21
-1102.987551967868
 97
       12
330
1C0
330
1BF
330
1BE
330
1A6
330
1A7
330
1BD
330
1A8
330
1BC
330
1BB
330
1BA
330
1A4
330
1A5
 75
     1
 76
     0
 52
45.0
 41
0.1
 77
     0
 78
     1
 53
45.0
 43
0.0
 44
0.0
 45
-0.0707106781186548
 46
0.0707106781186548
 79
     0
 98
        1
 10
0.0
 20
0.0
  0
HATCH
  5
2A9
330
71
100
AcDbEntity
  8
1
  6
Continuous
 62
     2
100
AcDbHatch
 10
0.0
 20
0.0
 30
0.0
210
0.0
220
0.0
230
1.0
  2
_USER
 70
     0
 71
     1
 91
        1
 92
        1
 93
       12
 72
     1
 10
-975.5874241341489
 20
-1102.987551967868
 11
-975.5874241341489
 21
-1106.041361491679
 72
     1
 10
-975.5874241341489
 20
-1106.041361491679
 11
-976.7802168363154
 21
-1106.041361491679
 72
     1
 10
-976.7802168363154
 20
-1106.041361491679
 11
-976.7802168363154
 21
-1104.907089382836
 72
     1
 10
-976.7802168363154
 20
-1104.907089382836
 11
-977.8298744142228
 21
-1104.907089382836
 72
     1
 10
-977.8298744142228
 20
-1104.907089382836
 11
-977.8298744142228
 21
-1106.041361491679
 72
     1
 10
-977.8298744142228
 20
-1106.041361491679
 11
-979.0226671163895
 21
-1106.041361491679
 72
     1
 10
-979.0226671163895
 20
-1106.041361491679
 11
-979.0226671163895
 21
-1102.987551967868
 72
     1
 10
-979.0226671163895
 20
-1102.987551967868
 11
-977.8298744142228
 21
-1102.987551967868
 72
     1
 10
-977.8298744142228
 20
-1102.987551967868
 11
-977.8298744142228
 21
-1104.056385301203
 72
     1
 10
-977.8298744142228
 20
-1104.056385301203
 11
-976.7802168363154
 21
-1104.056385301203
 72
     1
 10
-976.7802168363154
 20
-1104.056385301203
 11
-976.7802168363154
 21
-1102.987551967868
 72
     1
 10
-976.7802168363154
 20
-1102.987551967868
 11
-975.5874241341489
 21
-1102.987551967868
 97
       12
330
1C0
330
1BF
330
1BE
330
1A6
330
1A7
330
1BD
330
1A8
330
1BC
330
1BB
330
1BA
330
1A4
330
1A5
 75
     1
 76
     0
 52
45.0
 41
0.1
 77
     0
 78
     1
 53
45.0
 43
0.0
 44
0.0
 45
-0.0707106781186548
 46
0.0707106781186548
 79
     0
 98
        1
 10
0.0
 20
0.0
  0
ENDBLK
  5
73
330
71
100
AcDbEntity
  8
0
100
AcDbBlockEnd
  0
BLOCK
  5
75
330
74
100
AcDbEntity
  8
0
100
AcDbBlockBegin
  2
_punkt
 70
     0
 10
-863.71012032036
 20
-1116.69405196787
 30
0.0
  3
_punkt
  1

  0
LINE
  5
2AA
330
74
100
AcDbEntity
  8
1
  6
Continuous
 62
     2
100
AcDbLine
 10
-863.71012032036
 20
-1116.69405196787
 30
0.0
 11
-863.71012032036
 21
-1121.69405196787
 31
0.0
  0
LINE
  5
2AB
330
74
100
AcDbEntity
  8
1
  6
Continuous
 62
     2
100
AcDbLine
 10
-863.71012032036
 20
-1116.69405196787
 30
0.0
 11
-858.710120320361
 21
-1116.69405196787
 31
0.0
  0
ENDBLK
  5
76
330
74
100
AcDbEntity
  8
0
100
AcDbBlockEnd
  0
BLOCK
  5
7A
330
77
100
AcDbEntity
  8
0
100
AcDbBlockBegin
  2
A4I_CS
 70
     0
 10
-863.71012032036
 20
-1121.69405196787
 30
0.0
  3
A4I_CS
  1

  0
INSERT
  5
78
330
77
100
AcDbEntity
  8
1
100
AcDbBlockReference
  2
_rahmen
 10
-863.71012032036
 20
-1121.69405196787
 30
0.0
  0
INSERT
  5
79
330
77
100
AcDbEntity
  8
1
100
AcDbBlockReference
  2
_punkt
 10
-863.71012032036
 20
-1116.69405196787
 30
0.0
  0
ENDBLK
  5
7B
330
77
100
AcDbEntity
  8
0
100
AcDbBlockEnd
  0
BLOCK
  5
84
330
7C
100
AcDbEntity
  8
0
100
AcDbBlockBegin
  2
1
 70
     0
 10
0.0
 20
0.0
 30
0.0
  3
1
  1

  0
INSERT
  5
7D
330
7C
100
AcDbEntity
  8
0
100
AcDbBlockReference
  2
Allg1
 10
-919.0
 20
-1050.0
 30
0.0
  0
INSERT
  5
7E
330
7C
100
AcDbEntity
  8
0
100
AcDbBlockReference
  2
Drfsicht1
 10
-1055.492706
 20
-1023.744998
 30
0.0
  0
INSERT
  5
7F
330
7C
100
AcDbEntity
  8
0
100
AcDbBlockReference
  2
Rckans1
 10
-923.5072940000002
 20
-971.0000000000003
 30
0.0
  0
INSERT
  5
80
330
7C
100
AcDbEntity
  8
0
100
AcDbBlockReference
  2
SA_Links1
 10
-991.0
 20
-971.0
 30
0.0
  0
INSERT
  5
81
330
7C
100
AcDbEntity
  8
0
100
AcDbBlockReference
  2
SA_Rechts1
 10
-1132.67913
 20
-971.0
 30
0.0
  0
INSERT
  5
82
330
7C
100
AcDbEntity
  8
0
100
AcDbBlockReference
  2
Vordans1
 10
-1055.492706
 20
-971.0
 30
0.0
  0
INSERT
  5
83
330
7C
100
AcDbEntity
  8
0
100
AcDbBlockReference
  2
A4I_CS
 10
-863.71012032036
 20
-1121.69405196787
 30
0.0
  0
ENDBLK
  5
85
330
7C
100
AcDbEntity
  8
0
100
AcDbBlockEnd
  0
BLOCK
  5
E2
330
D9
100
AcDbEntity
  8
0
100
AcDbBlockBegin
  2
*D17
 70
     1
 10
0.0
 20
0.0
 30
0.0
  3
*D17
  1

  0
LINE
  5
DA
330
D9
100
AcDbEntity
  8
1
  6
Continuous
 62
     2
100
AcDbLine
 10
-1113.502024140814
 20
-1015.64499797616
 30
0.0
 11
-1113.502024140814
 21
-1022.64499797616
 31
0.0
  0
LINE
  5
DB
330
D9
100
AcDbEntity
  8
1
  6
Continuous
 62
     2
100
AcDbLine
 10
-1113.502024140814
 20
-1022.64499797616
 30
0.0
 11
-1113.502024140814
 21
-1024.84499797616
 31
0.0
  0
LINE
  5
DC
330
D9
100
AcDbEntity
  8
1
  6
Continuous
 62
     2
100
AcDbLine
 10
-1113.502024140814
 20
-1024.84499797616
 30
0.0
 11
-1113.502024140814
 21
-1031.84499797616
 31
0.0
  0
LINE
  5
DD
330
D9
100
AcDbEntity
  8
1
  6
Continuous
 62
     2
100
AcDbLine
 10
-1103.502024140814
 20
-1022.64499797616
 30
0.0
 11
-1115.002024140814
 21
-1022.64499797616
 31
0.0
  0
LINE
  5
DE
330
D9
100
AcDbEntity
  8
1
  6
Continuous
 62
     2
100
AcDbLine
 10
-1103.502024140814
 20
-1024.84499797616
 30
0.0
 11
-1115.002024140814
 21
-1024.84499797616
 31
0.0
  0
SOLID
  5
DF
330
D9
100
AcDbEntity
  8
1
 62
     2
100
AcDbTrace
 10
-1113.96280788237
 20
-1019.14499797616
 30
0.0
 11
-1113.041240399258
 21
-1019.14499797616
 31
0.0
 12
-1113.502024140814
 22
-1022.64499797616
 32
0.0
 13
-1113.502024140814
 23
-1022.64499797616
 33
0.0
  0
SOLID
  5
E0
330
D9
100
AcDbEntity
  8
1
 62
     2
100
AcDbTrace
 10
-1113.041240399258
 20
-1028.34499797616
 30
0.0
 11
-1113.96280788237
 21
-1028.34499797616
 31
0.0
 12
-1113.502024140814
 22
-1024.84499797616
 32
0.0
 13
-1113.502024140814
 23
-1024.84499797616
 33
0.0
  0
MTEXT
  5
E1
330
D9
100
AcDbEntity
  8
1
 62
     3
100
AcDbMText
 10
-1115.352024140814
 20
-1027.58297981793
 30
0.0
 40
3.5
 41
0.0
 71
     7
 72
     1
  1
2,2
  7
CONVERTER_11
 11
0.0
 21
1.0
 31
0.0
 73
     1
 44
0.60024009603842
  0
ENDBLK
  5
E3
330
D9
100
AcDbEntity
  8
0
100
AcDbBlockEnd
  0
BLOCK
  5
164
330
15D
100
AcDbEntity
  8
0
100
AcDbBlockBegin
  2
*D18
 70
     1
 10
0.0
 20
0.0
 30
0.0
  3
*D18
  1

  0
LINE
  5
15E
330
15D
100
AcDbEntity
  8
1
  6
Continuous
 62
     2
100
AcDbLine
 10
-1103.502023870632
 20
-1005.63277462753
 30
0.0
 11
-1007.483385780196
 21
-1005.63277462753
 31
0.0
  0
LINE
  5
15F
330
15D
100
AcDbEntity
  8
1
  6
Continuous
 62
     2
100
AcDbLine
 10
-1103.502023870632
 20
-984.9407309848208
 30
0.0
 11
-1103.502023870632
 21
-1007.13277462753
 31
0.0
  0
LINE
  5
160
330
15D
100
AcDbEntity
  8
1
  6
Continuous
 62
     2
100
AcDbLine
 10
-1007.483385780196
 20
-975.0058710920746
 30
0.0
 11
-1007.483385780196
 21
-1007.13277462753
 31
0.0
  0
SOLID
  5
161
330
15D
100
AcDbEntity
  8
1
 62
     2
100
AcDbTrace
 10
-1100.002023870632
 20
-1005.171990885974
 30
0.0
 11
-1100.002023870632
 21
-1006.093558369086
 31
0.0
 12
-1103.502023870632
 22
-1005.63277462753
 32
0.0
 13
-1103.502023870632
 23
-1005.63277462753
 33
0.0
  0
SOLID
  5
162
330
15D
100
AcDbEntity
  8
1
 62
     2
100
AcDbTrace
 10
-1010.983385780196
 20
-1006.093558369086
 30
0.0
 11
-1010.983385780196
 21
-1005.171990885974
 31
0.0
 12
-1007.483385780196
 22
-1005.63277462753
 32
0.0
 13
-1007.483385780196
 23
-1005.63277462753
 33
0.0
  0
MTEXT
  5
163
330
15D
100
AcDbEntity
  8
1
 62
     3
100
AcDbMText
 10
-1057.330995848239
 20
-1004.13277462753
 30
0.0
 40
3.5
 41
0.0
 71
     7
 72
     1
  1
96
  7
CONVERTER_11
 11
0.9999999999970619
 21
2.424068405545306E-6
 31
0.0
 73
     1
 44
0.60024009603842
  0
ENDBLK
  5
165
330
15D
100
AcDbEntity
  8
0
100
AcDbBlockEnd
  0
BLOCK
  5
16F
330
168
100
AcDbEntity
  8
0
100
AcDbBlockBegin
  2
*D19
 70
     1
 10
0.0
 20
0.0
 30
0.0
  3
*D19
  1

  0
LINE
  5
169
330
168
100
AcDbEntity
  8
1
  6
Continuous
 62
     2
100
AcDbLine
 10
-1111.43933255072
 20
-946.3230612750351
 30
0.0
 11
-1111.43933255072
 21
-995.7144199980434
 31
0.0
  0
LINE
  5
16A
330
168
100
AcDbEntity
  8
1
  6
Continuous
 62
     2
100
AcDbLine
 10
-1063.952023428099
 20
-946.3230612750351
 30
0.0
 11
-1112.93933255072
 21
-946.3230612750351
 31
0.0
  0
LINE
  5
16B
330
168
100
AcDbEntity
  8
1
  6
Continuous
 62
     2
100
AcDbLine
 10
-1021.042532327568
 20
-995.7144199980434
 30
0.0
 11
-1112.93933255072
 21
-995.7144199980434
 31
0.0
  0
SOLID
  5
16C
330
168
100
AcDbEntity
  8
1
 62
     2
100
AcDbTrace
 10
-1110.978548809164
 20
-949.8230612750351
 30
0.0
 11
-1111.900116292276
 21
-949.8230612750351
 31
0.0
 12
-1111.43933255072
 22
-946.3230612750351
 32
0.0
 13
-1111.43933255072
 23
-946.3230612750351
 33
0.0
  0
SOLID
  5
16D
330
168
100
AcDbEntity
  8
1
 62
     2
100
AcDbTrace
 10
-1111.900116292276
 20
-992.2144199980434
 30
0.0
 11
-1110.978548809164
 21
-992.2144199980434
 31
0.0
 12
-1111.43933255072
 22
-995.7144199980434
 32
0.0
 13
-1111.43933255072
 23
-995.7144199980434
 33
0.0
  0
MTEXT
  5
16E
330
168
100
AcDbEntity
  8
1
 62
     3
100
AcDbMText
 10
-1113.28933255072
 20
-979.9719952911211
 30
0.0
 40
3.5
 41
0.0
 71
     7
 72
     1
  1
49,39
  7
CONVERTER_11
 11
0.0
 21
1.0
 31
0.0
 73
     1
 44
0.60024009603842
  0
ENDBLK
  5
170
330
168
100
AcDbEntity
  8
0
100
AcDbBlockEnd
  0
ENDSEC
  0
SECTION
  2
ENTITIES
  0
INSERT
  5
86
330
1F
100
AcDbEntity
  8
1
100
AcDbBlockReference
  2
1
 10
0.0
 20
0.0
 30
0.0
  0
ENDSEC
  0
SECTION
  2
OBJECTS
  0
DICTIONARY
  5
C
330
0
100
AcDbDictionary
281
     1
  3
ACAD_GROUP
350
D
  3
ACAD_LAYOUT
350
1A
  3
ACAD_MATERIAL
350
3B
  3
ACAD_MLEADERSTYLE
350
2D3
  3
ACAD_MLINESTYLE
350
17
  3
ACAD_PLOTSETTINGS
350
19
  3
ACAD_PLOTSTYLENAME
350
E
  3
ACAD_TABLESTYLE
350
2D2
  3
ACAD_VISUALSTYLE
350
2A
  0
DICTIONARY
  5
D
102
{ACAD_REACTORS
330
C
102
}
330
C
100
AcDbDictionary
281
     1
  0
DICTIONARY
  5
1A
102
{ACAD_REACTORS
330
C
102
}
330
C
100
AcDbDictionary
281
     1
  3
Layout1
350
1E
  3
Layout2
350
26
  3
Model
350
22
  0
DICTIONARY
  5
3B
102
{ACAD_REACTORS
330
C
102
}
330
C
100
AcDbDictionary
281
     1
  3
ByBlock
350
3D
  3
ByLayer
350
3C
  3
Global
350
3E
  0
DICTIONARY
  5
2D3
102
{ACAD_REACTORS
330
C
102
}
330
C
100
AcDbDictionary
281
     1
  0
DICTIONARY
  5
17
102
{ACAD_REACTORS
330
C
102
}
330
C
100
AcDbDictionary
281
     1
  3
Standard
350
18
  0
DICTIONARY
  5
19
102
{ACAD_REACTORS
330
C
102
}
330
C
100
AcDbDictionary
281
     1
  0
ACDBDICTIONARYWDFLT
  5
E
102
{ACAD_REACTORS
330
C
102
}
330
C
100
AcDbDictionary
281
     1
  3
Normal
350
F
100
AcDbDictionaryWithDefault
340
F
  0
DICTIONARY
  5
2D2
102
{ACAD_REACTORS
330
C
102
}
330
C
100
AcDbDictionary
281
     1
  0
DICTIONARY
  5
2A
102
{ACAD_REACTORS
330
C
102
}
330
C
100
AcDbDictionary
281
     1
  3
2dWireframe
350
2F
  3
3D Hidden
350
31
  3
3dWireframe
350
30
  3
Basic
350
32
  3
Brighten
350
36
  3
ColorChange
350
3A
  3
Conceptual
350
34
  3
Dim
350
35
  3
Facepattern
350
39
  3
Flat
350
2B
  3
FlatWithEdges
350
2C
  3
Gouraud
350
2D
  3
GouraudWithEdges
350
2E
  3
Linepattern
350
38
  3
Realistic
350
33
  3
Thicken
350
37
  0
LAYOUT
  5
1E
102
{ACAD_REACTORS
330
1A
102
}
330
1A
100
AcDbPlotSettings
  1

  2
none_device
  4

  6

 40
0.0
 41
0.0
 42
0.0
 43
0.0
 44
0.0
 45
0.0
 46
0.0
 47
0.0
 48
0.0
 49
0.0
140
0.0
141
0.0
142
1.0
143
1.0
 70
   688
 72
     0
 73
     0
 74
     5
  7

 75
    16
 76
     0
 77
     2
 78
   300
147
1.0
148
0.0
149
0.0
100
AcDbLayout
  1
Layout1
 70
     1
 71
     1
 10
0.0
 20
0.0
 11
12.0
 21
9.0
 12
0.0
 22
0.0
 32
0.0
 14
1.00000000000000E+20
 24
1.00000000000000E+20
 34
1.00000000000000E+20
 15
-1.00000000000000E+20
 25
-1.00000000000000E+20
 35
-1.00000000000000E+20
146
0.0
 13
0.0
 23
0.0
 33
0.0
 16
1.0
 26
0.0
 36
0.0
 17
0.0
 27
1.0
 37
0.0
 76
     0
330
1B
  0
LAYOUT
  5
26
102
{ACAD_REACTORS
330
1A
102
}
330
1A
100
AcDbPlotSettings
  1

  2
none_device
  4

  6

 40
0.0
 41
0.0
 42
0.0
 43
0.0
 44
0.0
 45
0.0
 46
0.0
 47
0.0
 48
0.0
 49
0.0
140
0.0
141
0.0
142
1.0
143
1.0
 70
   688
 72
     0
 73
     0
 74
     5
  7

 75
    16
 76
     0
 77
     2
 78
   300
147
1.0
148
0.0
149
0.0
100
AcDbLayout
  1
Layout2
 70
     1
 71
     2
 10
0.0
 20
0.0
 11
0.0
 21
0.0
 12
0.0
 22
0.0
 32
0.0
 14
0.0
 24
0.0
 34
0.0
 15
0.0
 25
0.0
 35
0.0
146
0.0
 13
0.0
 23
0.0
 33
0.0
 16
1.0
 26
0.0
 36
0.0
 17
0.0
 27
1.0
 37
0.0
 76
     0
330
23
  0
LAYOUT
  5
22
102
{ACAD_REACTORS
330
1A
102
}
330
1A
100
AcDbPlotSettings
  1

  2
none_device
  4

  6

 40
0.0
 41
0.0
 42
0.0
 43
0.0
 44
0.0
 45
0.0
 46
0.0
 47
0.0
 48
0.0
 49
0.0
140
0.0
141
0.0
142
1.0
143
1.0
 70
  1712
 72
     0
 73
     0
 74
     0
  7

 75
     0
 76
     0
 77
     2
 78
   300
147
1.0
148
0.0
149
0.0
100
AcDbLayout
  1
Model
 70
     1
 71
     0
 10
0.0
 20
0.0
 11
12.0
 21
9.0
 12
0.0
 22
0.0
 32
0.0
 14
-1155.710120320359
 24
-1121.69405196787
 34
0.0
 15
-858.710120320361
 25
-911.6940519678699
 35
0.0
146
0.0
 13
0.0
 23
0.0
 33
0.0
 16
1.0
 26
0.0
 36
0.0
 17
0.0
 27
1.0
 37
0.0
 76
     0
330
1F
331
29
  0
MATERIAL
  5
3D
102
{ACAD_REACTORS
330
3B
102
}
102
{ACAD_XDICTIONARY
360
2CE
102
}
330
3B
100
AcDbMaterial
  1
ByBlock
  0
MATERIAL
  5
3C
102
{ACAD_REACTORS
330
3B
102
}
102
{ACAD_XDICTIONARY
360
2CC
102
}
330
3B
100
AcDbMaterial
  1
ByLayer
  0
MATERIAL
  5
3E
102
{ACAD_REACTORS
330
3B
102
}
102
{ACAD_XDICTIONARY
360
2D0
102
}
330
3B
100
AcDbMaterial
  1
Global
  0
MLINESTYLE
  5
18
102
{ACAD_REACTORS
330
17
102
}
330
17
100
AcDbMlineStyle
  2
Standard
 70
     0
  3

 62
   256
 51
90.0
 52
90.0
 71
     2
 49
0.5
 62
   256
  6
BYLAYER
 49
-0.5
 62
   256
  6
BYLAYER
  0
ACDBPLACEHOLDER
  5
F
102
{ACAD_REACTORS
330
E
102
}
330
E
  0
VISUALSTYLE
  5
2F
102
{ACAD_REACTORS
330
2A
102
}
102
{ACAD_XDICTIONARY
360
2B4
102
}
330
2A
100
AcDbVisualStyle
  2
2dWireframe
 70
     4
 71
     0
 72
     2
 73
     0
 90
        0
 40
-0.6
 41
-30.0
 62
     5
 63
     7
421
 16777215
 74
     1
 91
        4
 64
     7
 65
   257
 75
     1
175
     1
 42
1.0
 92
        0
 66
   257
 43
1.0
 76
     1
 77
     6
 78
     2
 67
     7
 79
     5
170
     0
171
     0
290
     0
174
     0
 93
        1
 44
0.0
173
     0
291
     0
 45
0.0
1001
ACAD
1000
AcDbSavedByObjectVersion
1070
     0
  0
VISUALSTYLE
  5
31
102
{ACAD_REACTORS
330
2A
102
}
102
{ACAD_XDICTIONARY
360
2B8
102
}
330
2A
100
AcDbVisualStyle
  2
3D Hidden
 70
     6
 71
     1
 72
     2
 73
     2
 90
        0
 40
-0.6
 41
-30.0
 62
     5
 63
     7
421
 16777215
 74
     2
 91
        2
 64
     7
 65
   257
 75
     2
175
     1
 42
40.0
 92
        0
 66
   257
 43
1.0
 76
     1
 77
     6
 78
     2
 67
     7
 79
     3
170
     0
171
     0
290
     0
174
     0
 93
        1
 44
0.0
173
     0
291
     0
 45
0.0
1001
ACAD
1000
AcDbSavedByObjectVersion
1070
     0
  0
VISUALSTYLE
  5
30
102
{ACAD_REACTORS
330
2A
102
}
102
{ACAD_XDICTIONARY
360
2B6
102
}
330
2A
100
AcDbVisualStyle
  2
3dWireframe
 70
     5
 71
     0
 72
     2
 73
     0
 90
        0
 40
-0.6
 41
-30.0
 62
     5
 63
     7
421
 16777215
 74
     1
 91
        4
 64
     7
 65
   257
 75
     1
175
     1
 42
1.0
 92
        0
 66
   257
 43
1.0
 76
     1
 77
     6
 78
     2
 67
     7
 79
     5
170
     0
171
     0
290
     0
174
     0
 93
        1
 44
0.0
173
     0
291
     0
 45
0.0
1001
ACAD
1000
AcDbSavedByObjectVersion
1070
     0
  0
VISUALSTYLE
  5
32
102
{ACAD_REACTORS
330
2A
102
}
102
{ACAD_XDICTIONARY
360
2BA
102
}
330
2A
100
AcDbVisualStyle
  2
Basic
 70
     7
 71
     1
 72
     0
 73
     1
 90
        0
 40
-0.6
 41
-30.0
 62
     5
 63
     7
421
 16777215
 74
     0
 91
        4
 64
     7
 65
   257
 75
     1
175
     1
 42
1.0
 92
        8
 66
     7
 43
1.0
 76
     1
 77
     6
 78
     2
 67
     7
 79
     5
170
     0
171
     0
290
     0
174
     0
 93
        1
 44
0.0
173
     0
291
     1
 45
0.0
1001
ACAD
1000
AcDbSavedByObjectVersion
1070
     0
  0
VISUALSTYLE
  5
36
102
{ACAD_REACTORS
330
2A
102
}
102
{ACAD_XDICTIONARY
360
2C2
102
}
330
2A
100
AcDbVisualStyle
  2
Brighten
 70
    12
 71
     2
 72
     2
 73
     0
 90
        0
 40
-0.6
 41
-30.0
 62
     5
 63
     7
421
 16777215
 74
     1
 91
        4
 64
     7
 65
   257
 75
     1
175
     1
 42
1.0
 92
        8
 66
     7
 43
1.0
 76
     1
 77
     6
 78
     2
 67
     7
 79
     5
170
     0
171
     0
290
     0
174
     0
 93
        1
 44
50.0
173
     0
291
     1
 45
0.0
1001
ACAD
1000
AcDbSavedByObjectVersion
1070
     0
  0
VISUALSTYLE
  5
3A
102
{ACAD_REACTORS
330
2A
102
}
102
{ACAD_XDICTIONARY
360
2CA
102
}
330
2A
100
AcDbVisualStyle
  2
ColorChange
 70
    16
 71
     2
 72
     2
 73
     3
 90
        0
 40
-0.6
 41
-30.0
 62
     5
 63
     8
421
  8421504
 74
     1
 91
        4
 64
     7
 65
   257
 75
     1
175
     1
 42
1.0
 92
        8
 66
     8
424
  8421504
 43
1.0
 76
     1
 77
     6
 78
     2
 67
     7
 79
     5
170
     0
171
     0
290
     0
174
     0
 93
        1
 44
0.0
173
     0
291
     1
 45
0.0
1001
ACAD
1000
AcDbSavedByObjectVersion
1070
     0
  0
VISUALSTYLE
  5
34
102
{ACAD_REACTORS
330
2A
102
}
102
{ACAD_XDICTIONARY
360
2BE
102
}
330
2A
100
AcDbVisualStyle
  2
Conceptual
 70
     9
 71
     3
 72
     2
 73
     0
 90
        0
 40
-0.6
 41
-30.0
 62
     5
 63
     7
421
 16777215
 74
     2
 91
        2
 64
     7
 65
   257
 75
     1
175
     1
 42
40.0
 92
        8
 66
     7
 43
1.0
 76
     1
 77
     6
 78
     2
 67
     7
 79
     3
170
     0
171
     0
290
     0
174
     0
 93
        1
 44
0.0
173
     0
291
     0
 45
0.0
1001
ACAD
1000
AcDbSavedByObjectVersion
1070
     0
  0
VISUALSTYLE
  5
35
102
{ACAD_REACTORS
330
2A
102
}
102
{ACAD_XDICTIONARY
360
2C0
102
}
330
2A
100
AcDbVisualStyle
  2
Dim
 70
    11
 71
     2
 72
     2
 73
     0
 90
        0
 40
-0.6
 41
-30.0
 62
     5
 63
     7
421
 16777215
 74
     1
 91
        4
 64
     7
 65
   257
 75
     1
175
     1
 42
1.0
 92
        8
 66
     7
 43
1.0
 76
     1
 77
     6
 78
     2
 67
     7
 79
     5
170
     0
171
     0
290
     0
174
     0
 93
        1
 44
-50.0
173
     0
291
     1
 45
0.0
1001
ACAD
1000
AcDbSavedByObjectVersion
1070
     0
  0
VISUALSTYLE
  5
39
102
{ACAD_REACTORS
330
2A
102
}
102
{ACAD_XDICTIONARY
360
2C8
102
}
330
2A
100
AcDbVisualStyle
  2
Facepattern
 70
    15
 71
     2
 72
     2
 73
     0
 90
        0
 40
-0.6
 41
-30.0
 62
     5
 63
     7
421
 16777215
 74
     1
 91
        4
 64
     7
 65
   257
 75
     1
175
     1
 42
1.0
 92
        8
 66
     7
 43
1.0
 76
     1
 77
     6
 78
     2
 67
     7
 79
     5
170
     0
171
     0
290
     0
174
     0
 93
        1
 44
0.0
173
     0
291
     1
 45
0.0
1001
ACAD
1000
AcDbSavedByObjectVersion
1070
     0
  0
VISUALSTYLE
  5
2B
102
{ACAD_REACTORS
330
2A
102
}
102
{ACAD_XDICTIONARY
360
2AC
102
}
330
2A
100
AcDbVisualStyle
  2
Flat
 70
     0
 71
     2
 72
     1
 73
     1
 90
        2
 40
-0.6
 41
30.0
 62
     5
 63
     7
421
 16777215
 74
     0
 91
        4
 64
     7
 65
   257
 75
     1
175
     1
 42
1.0
 92
        8
 66
     7
 43
1.0
 76
     1
 77
     6
 78
     2
 67
     7
 79
     5
170
     0
171
     0
290
     0
174
     0
 93
       13
 44
0.0
173
     0
291
     1
 45
0.0
1001
ACAD
1000
AcDbSavedByObjectVersion
1070
     0
  0
VISUALSTYLE
  5
2C
102
{ACAD_REACTORS
330
2A
102
}
102
{ACAD_XDICTIONARY
360
2AE
102
}
330
2A
100
AcDbVisualStyle
  2
FlatWithEdges
 70
     1
 71
     2
 72
     1
 73
     1
 90
        2
 40
-0.6
 41
30.0
 62
     5
 63
     7
421
 16777215
 74
     1
 91
        4
 64
     7
 65
   257
 75
     1
175
     1
 42
1.0
 92
        0
 66
   257
 43
1.0
 76
     1
 77
     6
 78
     2
 67
     7
 79
     5
170
     0
171
     0
290
     0
174
     0
 93
       13
 44
0.0
173
     0
291
     1
 45
0.0
1001
ACAD
1000
AcDbSavedByObjectVersion
1070
     0
  0
VISUALSTYLE
  5
2D
102
{ACAD_REACTORS
330
2A
102
}
102
{ACAD_XDICTIONARY
360
2B0
102
}
330
2A
100
AcDbVisualStyle
  2
Gouraud
 70
     2
 71
     2
 72
     2
 73
     1
 90
        2
 40
-0.6
 41
30.0
 62
     5
 63
     7
421
 16777215
 74
     0
 91
        4
 64
     7
 65
   257
 75
     1
175
     1
 42
1.0
 92
        0
 66
     7
 43
1.0
 76
     1
 77
     6
 78
     2
 67
     7
 79
     5
170
     0
171
     0
290
     0
174
     0
 93
       13
 44
0.0
173
     0
291
     1
 45
0.0
1001
ACAD
1000
AcDbSavedByObjectVersion
1070
     0
  0
VISUALSTYLE
  5
2E
102
{ACAD_REACTORS
330
2A
102
}
102
{ACAD_XDICTIONARY
360
2B2
102
}
330
2A
100
AcDbVisualStyle
  2
GouraudWithEdges
 70
     3
 71
     2
 72
     2
 73
     1
 90
        2
 40
-0.6
 41
30.0
 62
     5
 63
     7
421
 16777215
 74
     1
 91
        4
 64
     7
 65
   257
 75
     1
175
     1
 42
1.0
 92
        0
 66
   257
 43
1.0
 76
     1
 77
     6
 78
     2
 67
     7
 79
     5
170
     0
171
     0
290
     0
174
     0
 93
       13
 44
0.0
173
     0
291
     1
 45
0.0
1001
ACAD
1000
AcDbSavedByObjectVersion
1070
     0
  0
VISUALSTYLE
  5
38
102
{ACAD_REACTORS
330
2A
102
}
102
{ACAD_XDICTIONARY
360
2C6
102
}
330
2A
100
AcDbVisualStyle
  2
Linepattern
 70
    14
 71
     2
 72
     2
 73
     0
 90
        0
 40
-0.6
 41
-30.0
 62
     5
 63
     7
421
 16777215
 74
     1
 91
        4
 64
     7
 65
   257
 75
     7
175
     7
 42
1.0
 92
        8
 66
     7
 43
1.0
 76
     1
 77
     6
 78
     2
 67
     7
 79
     5
170
     0
171
     0
290
     0
174
     0
 93
        1
 44
0.0
173
     0
291
     1
 45
0.0
1001
ACAD
1000
AcDbSavedByObjectVersion
1070
     0
  0
VISUALSTYLE
  5
33
102
{ACAD_REACTORS
330
2A
102
}
102
{ACAD_XDICTIONARY
360
2BC
102
}
330
2A
100
AcDbVisualStyle
  2
Realistic
 70
     8
 71
     2
 72
     2
 73
     0
 90
        0
 40
-0.6
 41
-30.0
 62
     5
 63
     7
421
 16777215
 74
     1
 91
        0
 64
     7
 65
   257
 75
     1
175
     1
 42
1.0
 92
        8
 66
     8
424
  7895160
 43
1.0
 76
     1
 77
     6
 78
     2
 67
     7
 79
     5
170
     0
171
     0
290
     0
174
     0
 93
       13
 44
0.0
173
     0
291
     0
 45
0.0
1001
ACAD
1000
AcDbSavedByObjectVersion
1070
     0
  0
VISUALSTYLE
  5
37
102
{ACAD_REACTORS
330
2A
102
}
102
{ACAD_XDICTIONARY
360
2C4
102
}
330
2A
100
AcDbVisualStyle
  2
Thicken
 70
    13
 71
     2
 72
     2
 73
     0
 90
        0
 40
-0.6
 41
-30.0
 62
     5
 63
     7
421
 16777215
 74
     1
 91
        4
 64
     7
 65
   257
 75
     1
175
     1
 42
1.0
 92
       12
 66
     7
 43
1.0
 76
     1
 77
     6
 78
     2
 67
     7
 79
     5
170
     0
171
     0
290
     0
174
     0
 93
        1
 44
0.0
173
     0
291
     1
 45
0.0
1001
ACAD
1000
AcDbSavedByObjectVersion
1070
     0
  0
DICTIONARY
  5
2CE
330
3D
100
AcDbDictionary
280
     1
281
     1
  3
ACAD_XREC_ROUNDTRIP
360
2CF
  0
DICTIONARY
  5
2CC
330
3C
100
AcDbDictionary
280
     1
281
     1
  3
ACAD_XREC_ROUNDTRIP
360
2CD
  0
DICTIONARY
  5
2D0
330
3E
100
AcDbDictionary
280
     1
281
     1
  3
ACAD_XREC_ROUNDTRIP
360
2D1
  0
DICTIONARY
  5
2B4
330
2F
100
AcDbDictionary
280
     1
281
     1
  3
ACAD_XREC_ROUNDTRIP
360
2B5
  0
DICTIONARY
  5
2B8
330
31
100
AcDbDictionary
280
     1
281
     1
  3
ACAD_XREC_ROUNDTRIP
360
2B9
  0
DICTIONARY
  5
2B6
330
30
100
AcDbDictionary
280
     1
281
     1
  3
ACAD_XREC_ROUNDTRIP
360
2B7
  0
DICTIONARY
  5
2BA
330
32
100
AcDbDictionary
280
     1
281
     1
  3
ACAD_XREC_ROUNDTRIP
360
2BB
  0
DICTIONARY
  5
2C2
330
36
100
AcDbDictionary
280
     1
281
     1
  3
ACAD_XREC_ROUNDTRIP
360
2C3
  0
DICTIONARY
  5
2CA
330
3A
100
AcDbDictionary
280
     1
281
     1
  3
ACAD_XREC_ROUNDTRIP
360
2CB
  0
DICTIONARY
  5
2BE
330
34
100
AcDbDictionary
280
     1
281
     1
  3
ACAD_XREC_ROUNDTRIP
360
2BF
  0
DICTIONARY
  5
2C0
330
35
100
AcDbDictionary
280
     1
281
     1
  3
ACAD_XREC_ROUNDTRIP
360
2C1
  0
DICTIONARY
  5
2C8
330
39
100
AcDbDictionary
280
     1
281
     1
  3
ACAD_XREC_ROUNDTRIP
360
2C9
  0
DICTIONARY
  5
2AC
330
2B
100
AcDbDictionary
280
     1
281
     1
  3
ACAD_XREC_ROUNDTRIP
360
2AD
  0
DICTIONARY
  5
2AE
330
2C
100
AcDbDictionary
280
     1
281
     1
  3
ACAD_XREC_ROUNDTRIP
360
2AF
  0
DICTIONARY
  5
2B0
330
2D
100
AcDbDictionary
280
     1
281
     1
  3
ACAD_XREC_ROUNDTRIP
360
2B1
  0
DICTIONARY
  5
2B2
330
2E
100
AcDbDictionary
280
     1
281
     1
  3
ACAD_XREC_ROUNDTRIP
360
2B3
  0
DICTIONARY
  5
2C6
330
38
100
AcDbDictionary
280
     1
281
     1
  3
ACAD_XREC_ROUNDTRIP
360
2C7
  0
DICTIONARY
  5
2BC
330
33
100
AcDbDictionary
280
     1
281
     1
  3
ACAD_XREC_ROUNDTRIP
360
2BD
  0
DICTIONARY
  5
2C4
330
37
100
AcDbDictionary
280
     1
281
     1
  3
ACAD_XREC_ROUNDTRIP
360
2C5
  0
XRECORD
  5
2CF
102
{ACAD_REACTORS
330
2CE
102
}
330
2CE
100
AcDbXrecord
280
     1
102
MATERIAL
148
0.0
149
0.0
149
0.0
 93
        0
 94
      127
282
     0
 72
     1
 77
     1
171
     1
175
     1
179
     1
273
     0
  0
XRECORD
  5
2CD
102
{ACAD_REACTORS
330
2CC
102
}
330
2CC
100
AcDbXrecord
280
     1
102
MATERIAL
148
0.0
149
0.0
149
0.0
 93
        0
 94
      127
282
     0
 72
     1
 77
     1
171
     1
175
     1
179
     1
273
     0
  0
XRECORD
  5
2D1
102
{ACAD_REACTORS
330
2D0
102
}
330
2D0
100
AcDbXrecord
280
     1
102
MATERIAL
148
0.0
149
0.0
149
0.0
 93
        0
 94
      127
282
     0
 72
     1
 77
     1
171
     1
175
     1
179
     1
273
     0
  0
XRECORD
  5
2B5
102
{ACAD_REACTORS
330
2B4
102
}
330
2B4
100
AcDbXrecord
280
     1
102
RTVSPropertyOp0
 70
     1
102
RTVSPropertyOp1
 70
     1
102
RTVSPropertyOp2
 70
     1
102
RTVSPropertyOp3
 70
     1
102
RTVSPropertyOp4
 70
     1
102
RTVSPropertyOp5
 70
     1
102
RTVSPropertyOp6
 70
     1
102
RTVSPropertyOp7
 70
     1
102
RTVSPropertyOp8
 70
     1
102
RTVSPropertyOp9
 70
     1
102
RTVSPropertyOp10
 70
     1
102
RTVSPropertyOp11
 70
     1
102
RTVSPropertyOp12
 70
     1
102
RTVSPropertyOp13
 70
     1
102
RTVSPropertyOp14
 70
     1
102
RTVSPropertyOp15
 70
     1
102
RTVSPropertyOp16
 70
     1
102
RTVSPropertyOp17
 70
     1
102
RTVSPropertyOp18
 70
     1
102
RTVSPropertyOp19
 70
     1
102
RTVSPropertyOp20
 70
     1
102
RTVSPropertyOp21
 70
     1
102
RTVSPropertyOp22
 70
     1
102
RTVSPropertyOp23
 70
     1
102
RTVSPropertyOp24
 70
     1
102
RTVSPropertyOp25
 70
     1
102
RTVSPropertyOp26
 70
     1
102
RTVSPropertyOp27
 70
     1
102
RTVSPropertyOp28
 70
     1
102
RTVSPropertyOp29
 70
     1
102
RTVSPropertyOp30
 70
     1
102
RTVSPropertyOp31
 70
     1
102
RTVSPropertyOp32
 70
     1
  0
XRECORD
  5
2B9
102
{ACAD_REACTORS
330
2B8
102
}
330
2B8
100
AcDbXrecord
280
     1
102
RTVSPropertyOp0
 70
     1
102
RTVSPropertyOp1
 70
     1
102
RTVSPropertyOp2
 70
     1
102
RTVSPropertyOp3
 70
     1
102
RTVSPropertyOp4
 70
     1
102
RTVSPropertyOp5
 70
     1
102
RTVSPropertyOp6
 70
     1
102
RTVSPropertyOp7
 70
     1
102
RTVSPropertyOp8
 70
     1
102
RTVSPropertyOp9
 70
     1
102
RTVSPropertyOp10
 70
     1
102
RTVSPropertyOp11
 70
     1
102
RTVSPropertyOp12
 70
     1
102
RTVSPropertyOp13
 70
     1
102
RTVSPropertyOp14
 70
     1
102
RTVSPropertyOp15
 70
     1
102
RTVSPropertyOp16
 70
     1
102
RTVSPropertyOp17
 70
     1
102
RTVSPropertyOp18
 70
     1
102
RTVSPropertyOp19
 70
     1
102
RTVSPropertyOp20
 70
     1
102
RTVSPropertyOp21
 70
     1
102
RTVSPropertyOp22
 70
     1
102
RTVSPropertyOp23
 70
     1
102
RTVSPropertyOp24
 70
     1
102
RTVSPropertyOp25
 70
     1
102
RTVSPropertyOp26
 70
     1
102
RTVSPropertyOp27
 70
     1
102
RTVSPropertyOp28
 70
     1
102
RTVSPropertyOp29
 70
     1
102
RTVSPropertyOp30
 70
     1
102
RTVSPropertyOp31
 70
     1
102
RTVSPropertyOp32
 70
     1
  0
XRECORD
  5
2B7
102
{ACAD_REACTORS
330
2B6
102
}
330
2B6
100
AcDbXrecord
280
     1
102
RTVSPropertyOp0
 70
     1
102
RTVSPropertyOp1
 70
     1
102
RTVSPropertyOp2
 70
     1
102
RTVSPropertyOp3
 70
     1
102
RTVSPropertyOp4
 70
     1
102
RTVSPropertyOp5
 70
     1
102
RTVSPropertyOp6
 70
     1
102
RTVSPropertyOp7
 70
     1
102
RTVSPropertyOp8
 70
     1
102
RTVSPropertyOp9
 70
     1
102
RTVSPropertyOp10
 70
     1
102
RTVSPropertyOp11
 70
     1
102
RTVSPropertyOp12
 70
     1
102
RTVSPropertyOp13
 70
     1
102
RTVSPropertyOp14
 70
     1
102
RTVSPropertyOp15
 70
     1
102
RTVSPropertyOp16
 70
     1
102
RTVSPropertyOp17
 70
     1
102
RTVSPropertyOp18
 70
     1
102
RTVSPropertyOp19
 70
     1
102
RTVSPropertyOp20
 70
     1
102
RTVSPropertyOp21
 70
     1
102
RTVSPropertyOp22
 70
     1
102
RTVSPropertyOp23
 70
     1
102
RTVSPropertyOp24
 70
     1
102
RTVSPropertyOp25
 70
     1
102
RTVSPropertyOp26
 70
     1
102
RTVSPropertyOp27
 70
     1
102
RTVSPropertyOp28
 70
     1
102
RTVSPropertyOp29
 70
     1
102
RTVSPropertyOp30
 70
     1
102
RTVSPropertyOp31
 70
     1
102
RTVSPropertyOp32
 70
     1
  0
XRECORD
  5
2BB
102
{ACAD_REACTORS
330
2BA
102
}
330
2BA
100
AcDbXrecord
280
     1
102
RTVSPropertyOp0
 70
     1
102
RTVSPropertyOp1
 70
     1
102
RTVSPropertyOp2
 70
     1
102
RTVSPropertyOp3
 70
     1
102
RTVSPropertyOp4
 70
     1
102
RTVSPropertyOp5
 70
     1
102
RTVSPropertyOp6
 70
     1
102
RTVSPropertyOp7
 70
     1
102
RTVSPropertyOp8
 70
     1
102
RTVSPropertyOp9
 70
     1
102
RTVSPropertyOp10
 70
     1
102
RTVSPropertyOp11
 70
     1
102
RTVSPropertyOp12
 70
     1
102
RTVSPropertyOp13
 70
     1
102
RTVSPropertyOp14
 70
     1
102
RTVSPropertyOp15
 70
     1
102
RTVSPropertyOp16
 70
     1
102
RTVSPropertyOp17
 70
     1
102
RTVSPropertyOp18
 70
     1
102
RTVSPropertyOp19
 70
     1
102
RTVSPropertyOp20
 70
     1
102
RTVSPropertyOp21
 70
     1
102
RTVSPropertyOp22
 70
     1
102
RTVSPropertyOp23
 70
     1
102
RTVSPropertyOp24
 70
     1
102
RTVSPropertyOp25
 70
     1
102
RTVSPropertyOp26
 70
     1
102
RTVSPropertyOp27
 70
     1
102
RTVSPropertyOp28
 70
     1
102
RTVSPropertyOp29
 70
     1
102
RTVSPropertyOp30
 70
     1
102
RTVSPropertyOp31
 70
     1
102
RTVSPropertyOp32
 70
     1
  0
XRECORD
  5
2C3
102
{ACAD_REACTORS
330
2C2
102
}
330
2C2
100
AcDbXrecord
280
     1
102
RTVSPropertyOp0
 70
     1
102
RTVSPropertyOp1
 70
     1
102
RTVSPropertyOp2
 70
     1
102
RTVSPropertyOp3
 70
     1
102
RTVSPropertyOp4
 70
     1
102
RTVSPropertyOp5
 70
     1
102
RTVSPropertyOp6
 70
     1
102
RTVSPropertyOp7
 70
     1
102
RTVSPropertyOp8
 70
     1
102
RTVSPropertyOp9
 70
     1
102
RTVSPropertyOp10
 70
     1
102
RTVSPropertyOp11
 70
     1
102
RTVSPropertyOp12
 70
     1
102
RTVSPropertyOp13
 70
     1
102
RTVSPropertyOp14
 70
     1
102
RTVSPropertyOp15
 70
     1
102
RTVSPropertyOp16
 70
     1
102
RTVSPropertyOp17
 70
     1
102
RTVSPropertyOp18
 70
     1
102
RTVSPropertyOp19
 70
     1
102
RTVSPropertyOp20
 70
     1
102
RTVSPropertyOp21
 70
     1
102
RTVSPropertyOp22
 70
     1
102
RTVSPropertyOp23
 70
     1
102
RTVSPropertyOp24
 70
     1
102
RTVSPropertyOp25
 70
     1
102
RTVSPropertyOp26
 70
     1
102
RTVSPropertyOp27
 70
     1
102
RTVSPropertyOp28
 70
     1
102
RTVSPropertyOp29
 70
     1
102
RTVSPropertyOp30
 70
     1
102
RTVSPropertyOp31
 70
     1
102
RTVSPropertyOp32
 70
     1
  0
XRECORD
  5
2CB
102
{ACAD_REACTORS
330
2CA
102
}
330
2CA
100
AcDbXrecord
280
     1
102
RTVSPropertyOp0
 70
     1
102
RTVSPropertyOp1
 70
     1
102
RTVSPropertyOp2
 70
     1
102
RTVSPropertyOp3
 70
     1
102
RTVSPropertyOp4
 70
     1
102
RTVSPropertyOp5
 70
     1
102
RTVSPropertyOp6
 70
     1
102
RTVSPropertyOp7
 70
     1
102
RTVSPropertyOp8
 70
     1
102
RTVSPropertyOp9
 70
     1
102
RTVSPropertyOp10
 70
     1
102
RTVSPropertyOp11
 70
     1
102
RTVSPropertyOp12
 70
     1
102
RTVSPropertyOp13
 70
     1
102
RTVSPropertyOp14
 70
     1
102
RTVSPropertyOp15
 70
     1
102
RTVSPropertyOp16
 70
     1
102
RTVSPropertyOp17
 70
     1
102
RTVSPropertyOp18
 70
     1
102
RTVSPropertyOp19
 70
     1
102
RTVSPropertyOp20
 70
     1
102
RTVSPropertyOp21
 70
     1
102
RTVSPropertyOp22
 70
     1
102
RTVSPropertyOp23
 70
     1
102
RTVSPropertyOp24
 70
     1
102
RTVSPropertyOp25
 70
     1
102
RTVSPropertyOp26
 70
     1
102
RTVSPropertyOp27
 70
     1
102
RTVSPropertyOp28
 70
     1
102
RTVSPropertyOp29
 70
     1
102
RTVSPropertyOp30
 70
     1
102
RTVSPropertyOp31
 70
     1
102
RTVSPropertyOp32
 70
     1
  0
XRECORD
  5
2BF
102
{ACAD_REACTORS
330
2BE
102
}
330
2BE
100
AcDbXrecord
280
     1
102
RTVSPropertyOp0
 70
     1
102
RTVSPropertyOp1
 70
     1
102
RTVSPropertyOp2
 70
     1
102
RTVSPropertyOp3
 70
     1
102
RTVSPropertyOp4
 70
     1
102
RTVSPropertyOp5
 70
     1
102
RTVSPropertyOp6
 70
     1
102
RTVSPropertyOp7
 70
     1
102
RTVSPropertyOp8
 70
     1
102
RTVSPropertyOp9
 70
     1
102
RTVSPropertyOp10
 70
     1
102
RTVSPropertyOp11
 70
     1
102
RTVSPropertyOp12
 70
     1
102
RTVSPropertyOp13
 70
     1
102
RTVSPropertyOp14
 70
     1
102
RTVSPropertyOp15
 70
     1
102
RTVSPropertyOp16
 70
     1
102
RTVSPropertyOp17
 70
     1
102
RTVSPropertyOp18
 70
     1
102
RTVSPropertyOp19
 70
     1
102
RTVSPropertyOp20
 70
     1
102
RTVSPropertyOp21
 70
     1
102
RTVSPropertyOp22
 70
     1
102
RTVSPropertyOp23
 70
     1
102
RTVSPropertyOp24
 70
     1
102
RTVSPropertyOp25
 70
     1
102
RTVSPropertyOp26
 70
     1
102
RTVSPropertyOp27
 70
     1
102
RTVSPropertyOp28
 70
     1
102
RTVSPropertyOp29
 70
     1
102
RTVSPropertyOp30
 70
     1
102
RTVSPropertyOp31
 70
     1
102
RTVSPropertyOp32
 70
     1
  0
XRECORD
  5
2C1
102
{ACAD_REACTORS
330
2C0
102
}
330
2C0
100
AcDbXrecord
280
     1
102
RTVSPropertyOp0
 70
     1
102
RTVSPropertyOp1
 70
     1
102
RTVSPropertyOp2
 70
     1
102
RTVSPropertyOp3
 70
     1
102
RTVSPropertyOp4
 70
     1
102
RTVSPropertyOp5
 70
     1
102
RTVSPropertyOp6
 70
     1
102
RTVSPropertyOp7
 70
     1
102
RTVSPropertyOp8
 70
     1
102
RTVSPropertyOp9
 70
     1
102
RTVSPropertyOp10
 70
     1
102
RTVSPropertyOp11
 70
     1
102
RTVSPropertyOp12
 70
     1
102
RTVSPropertyOp13
 70
     1
102
RTVSPropertyOp14
 70
     1
102
RTVSPropertyOp15
 70
     1
102
RTVSPropertyOp16
 70
     1
102
RTVSPropertyOp17
 70
     1
102
RTVSPropertyOp18
 70
     1
102
RTVSPropertyOp19
 70
     1
102
RTVSPropertyOp20
 70
     1
102
RTVSPropertyOp21
 70
     1
102
RTVSPropertyOp22
 70
     1
102
RTVSPropertyOp23
 70
     1
102
RTVSPropertyOp24
 70
     1
102
RTVSPropertyOp25
 70
     1
102
RTVSPropertyOp26
 70
     1
102
RTVSPropertyOp27
 70
     1
102
RTVSPropertyOp28
 70
     1
102
RTVSPropertyOp29
 70
     1
102
RTVSPropertyOp30
 70
     1
102
RTVSPropertyOp31
 70
     1
102
RTVSPropertyOp32
 70
     1
  0
XRECORD
  5
2C9
102
{ACAD_REACTORS
330
2C8
102
}
330
2C8
100
AcDbXrecord
280
     1
102
RTVSPropertyOp0
 70
     1
102
RTVSPropertyOp1
 70
     1
102
RTVSPropertyOp2
 70
     1
102
RTVSPropertyOp3
 70
     1
102
RTVSPropertyOp4
 70
     1
102
RTVSPropertyOp5
 70
     1
102
RTVSPropertyOp6
 70
     1
102
RTVSPropertyOp7
 70
     1
102
RTVSPropertyOp8
 70
     1
102
RTVSPropertyOp9
 70
     1
102
RTVSPropertyOp10
 70
     1
102
RTVSPropertyOp11
 70
     1
102
RTVSPropertyOp12
 70
     1
102
RTVSPropertyOp13
 70
     1
102
RTVSPropertyOp14
 70
     1
102
RTVSPropertyOp15
 70
     1
102
RTVSPropertyOp16
 70
     1
102
RTVSPropertyOp17
 70
     1
102
RTVSPropertyOp18
 70
     1
102
RTVSPropertyOp19
 70
     1
102
RTVSPropertyOp20
 70
     1
102
RTVSPropertyOp21
 70
     1
102
RTVSPropertyOp22
 70
     1
102
RTVSPropertyOp23
 70
     1
102
RTVSPropertyOp24
 70
     1
102
RTVSPropertyOp25
 70
     1
102
RTVSPropertyOp26
 70
     1
102
RTVSPropertyOp27
 70
     1
102
RTVSPropertyOp28
 70
     1
102
RTVSPropertyOp29
 70
     1
102
RTVSPropertyOp30
 70
     1
102
RTVSPropertyOp31
 70
     1
102
RTVSPropertyOp32
 70
     1
  0
XRECORD
  5
2AD
102
{ACAD_REACTORS
330
2AC
102
}
330
2AC
100
AcDbXrecord
280
     1
102
RTVSPropertyOp0
 70
     1
102
RTVSPropertyOp1
 70
     1
102
RTVSPropertyOp2
 70
     1
102
RTVSPropertyOp3
 70
     1
102
RTVSPropertyOp4
 70
     1
102
RTVSPropertyOp5
 70
     1
102
RTVSPropertyOp6
 70
     1
102
RTVSPropertyOp7
 70
     1
102
RTVSPropertyOp8
 70
     1
102
RTVSPropertyOp9
 70
     1
102
RTVSPropertyOp10
 70
     1
102
RTVSPropertyOp11
 70
     1
102
RTVSPropertyOp12
 70
     1
102
RTVSPropertyOp13
 70
     1
102
RTVSPropertyOp14
 70
     1
102
RTVSPropertyOp15
 70
     1
102
RTVSPropertyOp16
 70
     1
102
RTVSPropertyOp17
 70
     1
102
RTVSPropertyOp18
 70
     1
102
RTVSPropertyOp19
 70
     1
102
RTVSPropertyOp20
 70
     1
102
RTVSPropertyOp21
 70
     1
102
RTVSPropertyOp22
 70
     1
102
RTVSPropertyOp23
 70
     1
102
RTVSPropertyOp24
 70
     1
102
RTVSPropertyOp25
 70
     1
102
RTVSPropertyOp26
 70
     1
102
RTVSPropertyOp27
 70
     1
102
RTVSPropertyOp28
 70
     1
102
RTVSPropertyOp29
 70
     1
102
RTVSPropertyOp30
 70
     1
102
RTVSPropertyOp31
 70
     1
102
RTVSPropertyOp32
 70
     1
  0
XRECORD
  5
2AF
102
{ACAD_REACTORS
330
2AE
102
}
330
2AE
100
AcDbXrecord
280
     1
102
RTVSPropertyOp0
 70
     1
102
RTVSPropertyOp1
 70
     1
102
RTVSPropertyOp2
 70
     1
102
RTVSPropertyOp3
 70
     1
102
RTVSPropertyOp4
 70
     1
102
RTVSPropertyOp5
 70
     1
102
RTVSPropertyOp6
 70
     1
102
RTVSPropertyOp7
 70
     1
102
RTVSPropertyOp8
 70
     1
102
RTVSPropertyOp9
 70
     1
102
RTVSPropertyOp10
 70
     1
102
RTVSPropertyOp11
 70
     1
102
RTVSPropertyOp12
 70
     1
102
RTVSPropertyOp13
 70
     1
102
RTVSPropertyOp14
 70
     1
102
RTVSPropertyOp15
 70
     1
102
RTVSPropertyOp16
 70
     1
102
RTVSPropertyOp17
 70
     1
102
RTVSPropertyOp18
 70
     1
102
RTVSPropertyOp19
 70
     1
102
RTVSPropertyOp20
 70
     1
102
RTVSPropertyOp21
 70
     1
102
RTVSPropertyOp22
 70
     1
102
RTVSPropertyOp23
 70
     1
102
RTVSPropertyOp24
 70
     1
102
RTVSPropertyOp25
 70
     1
102
RTVSPropertyOp26
 70
     1
102
RTVSPropertyOp27
 70
     1
102
RTVSPropertyOp28
 70
     1
102
RTVSPropertyOp29
 70
     1
102
RTVSPropertyOp30
 70
     1
102
RTVSPropertyOp31
 70
     1
102
RTVSPropertyOp32
 70
     1
  0
XRECORD
  5
2B1
102
{ACAD_REACTORS
330
2B0
102
}
330
2B0
100
AcDbXrecord
280
     1
102
RTVSPropertyOp0
 70
     1
102
RTVSPropertyOp1
 70
     1
102
RTVSPropertyOp2
 70
     1
102
RTVSPropertyOp3
 70
     1
102
RTVSPropertyOp4
 70
     1
102
RTVSPropertyOp5
 70
     1
102
RTVSPropertyOp6
 70
     1
102
RTVSPropertyOp7
 70
     1
102
RTVSPropertyOp8
 70
     1
102
RTVSPropertyOp9
 70
     1
102
RTVSPropertyOp10
 70
     1
102
RTVSPropertyOp11
 70
     1
102
RTVSPropertyOp12
 70
     1
102
RTVSPropertyOp13
 70
     1
102
RTVSPropertyOp14
 70
     1
102
RTVSPropertyOp15
 70
     1
102
RTVSPropertyOp16
 70
     1
102
RTVSPropertyOp17
 70
     1
102
RTVSPropertyOp18
 70
     1
102
RTVSPropertyOp19
 70
     1
102
RTVSPropertyOp20
 70
     1
102
RTVSPropertyOp21
 70
     1
102
RTVSPropertyOp22
 70
     1
102
RTVSPropertyOp23
 70
     1
102
RTVSPropertyOp24
 70
     1
102
RTVSPropertyOp25
 70
     1
102
RTVSPropertyOp26
 70
     1
102
RTVSPropertyOp27
 70
     1
102
RTVSPropertyOp28
 70
     1
102
RTVSPropertyOp29
 70
     1
102
RTVSPropertyOp30
 70
     1
102
RTVSPropertyOp31
 70
     1
102
RTVSPropertyOp32
 70
     1
  0
XRECORD
  5
2B3
102
{ACAD_REACTORS
330
2B2
102
}
330
2B2
100
AcDbXrecord
280
     1
102
RTVSPropertyOp0
 70
     1
102
RTVSPropertyOp1
 70
     1
102
RTVSPropertyOp2
 70
     1
102
RTVSPropertyOp3
 70
     1
102
RTVSPropertyOp4
 70
     1
102
RTVSPropertyOp5
 70
     1
102
RTVSPropertyOp6
 70
     1
102
RTVSPropertyOp7
 70
     1
102
RTVSPropertyOp8
 70
     1
102
RTVSPropertyOp9
 70
     1
102
RTVSPropertyOp10
 70
     1
102
RTVSPropertyOp11
 70
     1
102
RTVSPropertyOp12
 70
     1
102
RTVSPropertyOp13
 70
     1
102
RTVSPropertyOp14
 70
     1
102
RTVSPropertyOp15
 70
     1
102
RTVSPropertyOp16
 70
     1
102
RTVSPropertyOp17
 70
     1
102
RTVSPropertyOp18
 70
     1
102
RTVSPropertyOp19
 70
     1
102
RTVSPropertyOp20
 70
     1
102
RTVSPropertyOp21
 70
     1
102
RTVSPropertyOp22
 70
     1
102
RTVSPropertyOp23
 70
     1
102
RTVSPropertyOp24
 70
     1
102
RTVSPropertyOp25
 70
     1
102
RTVSPropertyOp26
 70
     1
102
RTVSPropertyOp27
 70
     1
102
RTVSPropertyOp28
 70
     1
102
RTVSPropertyOp29
 70
     1
102
RTVSPropertyOp30
 70
     1
102
RTVSPropertyOp31
 70
     1
102
RTVSPropertyOp32
 70
     1
  0
XRECORD
  5
2C7
102
{ACAD_REACTORS
330
2C6
102
}
330
2C6
100
AcDbXrecord
280
     1
102
RTVSPropertyOp0
 70
     1
102
RTVSPropertyOp1
 70
     1
102
RTVSPropertyOp2
 70
     1
102
RTVSPropertyOp3
 70
     1
102
RTVSPropertyOp4
 70
     1
102
RTVSPropertyOp5
 70
     1
102
RTVSPropertyOp6
 70
     1
102
RTVSPropertyOp7
 70
     1
102
RTVSPropertyOp8
 70
     1
102
RTVSPropertyOp9
 70
     1
102
RTVSPropertyOp10
 70
     1
102
RTVSPropertyOp11
 70
     1
102
RTVSPropertyOp12
 70
     1
102
RTVSPropertyOp13
 70
     1
102
RTVSPropertyOp14
 70
     1
102
RTVSPropertyOp15
 70
     1
102
RTVSPropertyOp16
 70
     1
102
RTVSPropertyOp17
 70
     1
102
RTVSPropertyOp18
 70
     1
102
RTVSPropertyOp19
 70
     1
102
RTVSPropertyOp20
 70
     1
102
RTVSPropertyOp21
 70
     1
102
RTVSPropertyOp22
 70
     1
102
RTVSPropertyOp23
 70
     1
102
RTVSPropertyOp24
 70
     1
102
RTVSPropertyOp25
 70
     1
102
RTVSPropertyOp26
 70
     1
102
RTVSPropertyOp27
 70
     1
102
RTVSPropertyOp28
 70
     1
102
RTVSPropertyOp29
 70
     1
102
RTVSPropertyOp30
 70
     1
102
RTVSPropertyOp31
 70
     1
102
RTVSPropertyOp32
 70
     1
  0
XRECORD
  5
2BD
102
{ACAD_REACTORS
330
2BC
102
}
330
2BC
100
AcDbXrecord
280
     1
102
RTVSPropertyOp0
 70
     1
102
RTVSPropertyOp1
 70
     1
102
RTVSPropertyOp2
 70
     1
102
RTVSPropertyOp3
 70
     1
102
RTVSPropertyOp4
 70
     1
102
RTVSPropertyOp5
 70
     1
102
RTVSPropertyOp6
 70
     1
102
RTVSPropertyOp7
 70
     1
102
RTVSPropertyOp8
 70
     1
102
RTVSPropertyOp9
 70
     1
102
RTVSPropertyOp10
 70
     1
102
RTVSPropertyOp11
 70
     1
102
RTVSPropertyOp12
 70
     1
102
RTVSPropertyOp13
 70
     1
102
RTVSPropertyOp14
 70
     1
102
RTVSPropertyOp15
 70
     1
102
RTVSPropertyOp16
 70
     1
102
RTVSPropertyOp17
 70
     1
102
RTVSPropertyOp18
 70
     1
102
RTVSPropertyOp19
 70
     1
102
RTVSPropertyOp20
 70
     1
102
RTVSPropertyOp21
 70
     1
102
RTVSPropertyOp22
 70
     1
102
RTVSPropertyOp23
 70
     1
102
RTVSPropertyOp24
 70
     1
102
RTVSPropertyOp25
 70
     1
102
RTVSPropertyOp26
 70
     1
102
RTVSPropertyOp27
 70
     1
102
RTVSPropertyOp28
 70
     1
102
RTVSPropertyOp29
 70
     1
102
RTVSPropertyOp30
 70
     1
102
RTVSPropertyOp31
 70
     1
102
RTVSPropertyOp32
 70
     1
  0
XRECORD
  5
2C5
102
{ACAD_REACTORS
330
2C4
102
}
330
2C4
100
AcDbXrecord
280
     1
102
RTVSPropertyOp0
 70
     1
102
RTVSPropertyOp1
 70
     1
102
RTVSPropertyOp2
 70
     1
102
RTVSPropertyOp3
 70
     1
102
RTVSPropertyOp4
 70
     1
102
RTVSPropertyOp5
 70
     1
102
RTVSPropertyOp6
 70
     1
102
RTVSPropertyOp7
 70
     1
102
RTVSPropertyOp8
 70
     1
102
RTVSPropertyOp9
 70
     1
102
RTVSPropertyOp10
 70
     1
102
RTVSPropertyOp11
 70
     1
102
RTVSPropertyOp12
 70
     1
102
RTVSPropertyOp13
 70
     1
102
RTVSPropertyOp14
 70
     1
102
RTVSPropertyOp15
 70
     1
102
RTVSPropertyOp16
 70
     1
102
RTVSPropertyOp17
 70
     1
102
RTVSPropertyOp18
 70
     1
102
RTVSPropertyOp19
 70
     1
102
RTVSPropertyOp20
 70
     1
102
RTVSPropertyOp21
 70
     1
102
RTVSPropertyOp22
 70
     1
102
RTVSPropertyOp23
 70
     1
102
RTVSPropertyOp24
 70
     1
102
RTVSPropertyOp25
 70
     1
102
RTVSPropertyOp26
 70
     1
102
RTVSPropertyOp27
 70
     1
102
RTVSPropertyOp28
 70
     1
102
RTVSPropertyOp29
 70
     1
102
RTVSPropertyOp30
 70
     1
102
RTVSPropertyOp31
 70
     1
102
RTVSPropertyOp32
 70
     1
  0
ENDSEC
  0
EOF
