  0
SECTION
  2
HEADER
  9
$ACADVER
  1
AC1018
  9
$ACADMAINTVER
 70
     0
  9
$DWGCODEPAGE
  3
ANSI_1252
  9
$INSBASE
 10
0.0
 20
0.0
 30
0.0
  9
$EXTMIN
 10
-391.0384403043394
 20
-271.2409032296659
 30
0.0
  9
$EXTMAX
 10
-94.03844030434135
 20
-61.24090322966578
 30
0.0
  9
$LIMMIN
 10
0.0
 20
0.0
  9
$LIMMAX
 10
12.0
 20
9.0
  9
$ORTHOMODE
 70
     0
  9
$REGENMODE
 70
     1
  9
$FILLMODE
 70
     1
  9
$QTEXTMODE
 70
     0
  9
$MIRRTEXT
 70
     1
  9
$LTSCALE
 40
1.0
  9
$ATTMODE
 70
     1
  9
$TEXTSIZE
 40
0.2
  9
$TRACEWID
 40
0.05
  9
$TEXTSTYLE
  7
Standard
  9
$CLAYER
  8
0
  9
$CELTYPE
  6
ByLayer
  9
$CECOLOR
 62
   256
  9
$CELTSCALE
 40
1.0
  9
$DISPSILH
 70
     0
  9
$DIMSCALE
 40
1.0
  9
$DIMASZ
 40
0.18
  9
$DIMEXO
 40
0.0625
  9
$DIMDLI
 40
0.38
  9
$DIMRND
 40
0.0
  9
$DIMDLE
 40
0.0
  9
$DIMEXE
 40
0.18
  9
$DIMTP
 40
0.0
  9
$DIMTM
 40
0.0
  9
$DIMTXT
 40
0.18
  9
$DIMCEN
 40
0.09
  9
$DIMTSZ
 40
0.0
  9
$DIMTOL
 70
     0
  9
$DIMLIM
 70
     0
  9
$DIMTIH
 70
     1
  9
$DIMTOH
 70
     1
  9
$DIMSE1
 70
     0
  9
$DIMSE2
 70
     0
  9
$DIMTAD
 70
     0
  9
$DIMZIN
 70
     0
  9
$DIMBLK
  1

  9
$DIMASO
 70
     1
  9
$DIMSHO
 70
     1
  9
$DIMPOST
  1

  9
$DIMAPOST
  1

  9
$DIMALT
 70
     0
  9
$DIMALTD
 70
     2
  9
$DIMALTF
 40
25.4
  9
$DIMLFAC
 40
1.0
  9
$DIMTOFL
 70
     0
  9
$DIMTVP
 40
0.0
  9
$DIMTIX
 70
     0
  9
$DIMSOXD
 70
     0
  9
$DIMSAH
 70
     0
  9
$DIMBLK1
  1

  9
$DIMBLK2
  1

  9
$DIMSTYLE
  2
Standard
  9
$DIMCLRD
 70
     0
  9
$DIMCLRE
 70
     0
  9
$DIMCLRT
 70
     0
  9
$DIMTFAC
 40
1.0
  9
$DIMGAP
 40
0.09
  9
$DIMJUST
 70
     0
  9
$DIMSD1
 70
     0
  9
$DIMSD2
 70
     0
  9
$DIMTOLJ
 70
     1
  9
$DIMTZIN
 70
     0
  9
$DIMALTZ
 70
     0
  9
$DIMALTTZ
 70
     0
  9
$DIMUPT
 70
     0
  9
$DIMDEC
 70
     4
  9
$DIMTDEC
 70
     4
  9
$DIMALTU
 70
     2
  9
$DIMALTTD
 70
     2
  9
$DIMTXSTY
  7
Standard
  9
$DIMAUNIT
 70
     0
  9
$DIMADEC
 70
     0
  9
$DIMALTRND
 40
0.0
  9
$DIMAZIN
 70
     0
  9
$DIMDSEP
 70
    46
  9
$DIMATFIT
 70
     3
  9
$DIMFRAC
 70
     0
  9
$DIMLDRBLK
  1

  9
$DIMLUNIT
 70
     2
  9
$DIMLWD
 70
    -2
  9
$DIMLWE
 70
    -2
  9
$DIMTMOVE
 70
     0
  9
$LUNITS
 70
     2
  9
$LUPREC
 70
     4
  9
$SKETCHINC
 40
0.1
  9
$FILLETRAD
 40
0.5
  9
$AUNITS
 70
     0
  9
$AUPREC
 70
     0
  9
$MENU
  1
.
  9
$ELEVATION
 40
0.0
  9
$PELEVATION
 40
0.0
  9
$THICKNESS
 40
0.0
  9
$LIMCHECK
 70
     0
  9
$CHAMFERA
 40
0.5
  9
$CHAMFERB
 40
0.5
  9
$CHAMFERC
 40
1.0
  9
$CHAMFERD
 40
0.0
  9
$SKPOLY
 70
     0
  9
$TDCREATE
 40
2458077.482601377
  9
$TDUCREATE
 40
2458077.440934711
  9
$TDUPDATE
 40
2458077.482601921
  9
$TDUUPDATE
 40
2458077.440935255
  9
$TDINDWG
 40
0.0000000116
  9
$TDUSRTIMER
 40
0.0000000116
  9
$USRTIMER
 70
     1
  9
$ANGBASE
 50
0.0
  9
$ANGDIR
 70
     0
  9
$PDMODE
 70
     0
  9
$PDSIZE
 40
0.0
  9
$PLINEWID
 40
0.0
  9
$SPLFRAME
 70
     0
  9
$SPLINETYPE
 70
     6
  9
$SPLINESEGS
 70
     8
  9
$HANDSEED
  5
4A1
  9
$SURFTAB1
 70
     6
  9
$SURFTAB2
 70
     6
  9
$SURFTYPE
 70
     6
  9
$SURFU
 70
     6
  9
$SURFV
 70
     6
  9
$UCSBASE
  2

  9
$UCSNAME
  2

  9
$UCSORG
 10
0.0
 20
0.0
 30
0.0
  9
$UCSXDIR
 10
1.0
 20
0.0
 30
0.0
  9
$UCSYDIR
 10
0.0
 20
1.0
 30
0.0
  9
$UCSORTHOREF
  2

  9
$UCSORTHOVIEW
 70
     0
  9
$UCSORGTOP
 10
0.0
 20
0.0
 30
0.0
  9
$UCSORGBOTTOM
 10
0.0
 20
0.0
 30
0.0
  9
$UCSORGLEFT
 10
0.0
 20
0.0
 30
0.0
  9
$UCSORGRIGHT
 10
0.0
 20
0.0
 30
0.0
  9
$UCSORGFRONT
 10
0.0
 20
0.0
 30
0.0
  9
$UCSORGBACK
 10
0.0
 20
0.0
 30
0.0
  9
$PUCSBASE
  2

  9
$PUCSNAME
  2

  9
$PUCSORG
 10
0.0
 20
0.0
 30
0.0
  9
$PUCSXDIR
 10
1.0
 20
0.0
 30
0.0
  9
$PUCSYDIR
 10
0.0
 20
1.0
 30
0.0
  9
$PUCSORTHOREF
  2

  9
$PUCSORTHOVIEW
 70
     0
  9
$PUCSORGTOP
 10
0.0
 20
0.0
 30
0.0
  9
$PUCSORGBOTTOM
 10
0.0
 20
0.0
 30
0.0
  9
$PUCSORGLEFT
 10
0.0
 20
0.0
 30
0.0
  9
$PUCSORGRIGHT
 10
0.0
 20
0.0
 30
0.0
  9
$PUCSORGFRONT
 10
0.0
 20
0.0
 30
0.0
  9
$PUCSORGBACK
 10
0.0
 20
0.0
 30
0.0
  9
$USERI1
 70
     0
  9
$USERI2
 70
     0
  9
$USERI3
 70
     0
  9
$USERI4
 70
     0
  9
$USERI5
 70
     0
  9
$USERR1
 40
18.1
  9
$USERR2
 40
0.0
  9
$USERR3
 40
0.0
  9
$USERR4
 40
0.0
  9
$USERR5
 40
0.0
  9
$WORLDVIEW
 70
     1
  9
$SHADEDGE
 70
     3
  9
$SHADEDIF
 70
    70
  9
$TILEMODE
 70
     1
  9
$MAXACTVP
 70
    64
  9
$PINSBASE
 10
0.0
 20
0.0
 30
0.0
  9
$PLIMCHECK
 70
     0
  9
$PEXTMIN
 10
1.00000000000000E+20
 20
1.00000000000000E+20
 30
1.00000000000000E+20
  9
$PEXTMAX
 10
-1.00000000000000E+20
 20
-1.00000000000000E+20
 30
-1.00000000000000E+20
  9
$PLIMMIN
 10
0.0
 20
0.0
  9
$PLIMMAX
 10
12.0
 20
9.0
  9
$UNITMODE
 70
     0
  9
$VISRETAIN
 70
     1
  9
$PLINEGEN
 70
     0
  9
$PSLTSCALE
 70
     1
  9
$TREEDEPTH
 70
  3020
  9
$CMLSTYLE
  2
Standard
  9
$CMLJUST
 70
     0
  9
$CMLSCALE
 40
1.0
  9
$PROXYGRAPHICS
 70
     1
  9
$MEASUREMENT
 70
     1
  9
$CELWEIGHT
370
    -1
  9
$ENDCAPS
280
     0
  9
$JOINSTYLE
280
     0
  9
$LWDISPLAY
290
     0
  9
$INSUNITS
 70
     4
  9
$HYPERLINKBASE
  1

  9
$STYLESHEET
  1

  9
$XEDIT
290
     1
  9
$CEPSNTYPE
380
     0
  9
$PSTYLEMODE
290
     1
  9
$FINGERPRINTGUID
  2
{4147F3B7-4219-4C68-ABF8-E0887480C200}
  9
$VERSIONGUID
  2
{FAEB1C32-E019-11D5-929B-00C0DF256EC4}
  9
$EXTNAMES
290
     1
  9
$PSVPSCALE
 40
0.0
  9
$OLESTARTUP
290
     0
  9
$SORTENTS
280
   127
  9
$INDEXCTL
280
     0
  9
$HIDETEXT
280
     1
  9
$XCLIPFRAME
290
     0
  9
$HALOGAP
280
     0
  9
$OBSCOLOR
 70
   257
  9
$OBSLTYPE
280
     0
  9
$INTERSECTIONDISPLAY
280
     0
  9
$INTERSECTIONCOLOR
 70
   257
  9
$DIMASSOC
280
     2
  9
$PROJECTNAME
  1

  0
ENDSEC
  0
SECTION
  2
CLASSES
  0
CLASS
  1
ACDBDICTIONARYWDFLT
  2
AcDbDictionaryWithDefault
  3
ObjectDBX Classes
 90
        0
 91
        4
280
     0
281
     0
  0
CLASS
  1
VISUALSTYLE
  2
AcDbVisualStyle
  3
ObjectDBX Classes
 90
     4095
 91
        4
280
     0
281
     0
  0
CLASS
  1
MATERIAL
  2
AcDbMaterial
  3
ObjectDBX Classes
 90
     1153
 91
        4
280
     0
281
     0
  0
ENDSEC
  0
SECTION
  2
TABLES
  0
TABLE
  2
VPORT
  5
8
330
0
100
AcDbSymbolTable
 70
     1
  0
VPORT
  5
29
330
8
100
AcDbSymbolTableRecord
100
AcDbViewportTableRecord
  2
*Active
 70
     0
 10
0.0
 20
0.0
 11
1.0
 21
1.0
 12
-242.5384403043404
 22
-166.2409032296658
 13
0.0
 23
0.0
 14
0.5
 24
0.5
 15
0.5
 25
0.5
 16
0.0
 26
0.0
 36
1.0
 17
0.0
 27
0.0
 37
0.0
 40
231.0000000000001
 41
1.60267857142857
 42
50.0
 43
0.0
 44
0.0
 50
0.0
 51
0.0
 71
     0
 72
   100
 73
     1
 74
     3
 75
     0
 76
     0
 77
     0
 78
     0
281
     0
 65
     1
110
0.0
120
0.0
130
0.0
111
1.0
121
0.0
131
0.0
112
0.0
122
1.0
132
0.0
 79
     0
146
0.0
  0
ENDTAB
  0
TABLE
  2
LTYPE
  5
5
330
0
100
AcDbSymbolTable
 70
     8
  0
LTYPE
  5
14
330
5
100
AcDbSymbolTableRecord
100
AcDbLinetypeTableRecord
  2
ByBlock
 70
     0
  3

 72
    65
 73
     0
 40
0.0
  0
LTYPE
  5
15
330
5
100
AcDbSymbolTableRecord
100
AcDbLinetypeTableRecord
  2
ByLayer
 70
     0
  3

 72
    65
 73
     0
 40
0.0
  0
LTYPE
  5
16
330
5
100
AcDbSymbolTableRecord
100
AcDbLinetypeTableRecord
  2
Continuous
 70
     0
  3
Solid line
 72
    65
 73
     0
 40
0.0
  0
LTYPE
  5
3F
330
5
100
AcDbSymbolTableRecord
100
AcDbLinetypeTableRecord
  2
DASHED
 70
     0
  3
Dashed
 72
    65
 73
     2
 40
15.0
 49
7.0
 74
     0
 49
-8.0
 74
     0
  0
LTYPE
  5
40
330
5
100
AcDbSymbolTableRecord
100
AcDbLinetypeTableRecord
  2
DOTTED
 70
     0
  3
Dotted
 72
    65
 73
     2
 40
1.0
 49
0.0
 74
     0
 49
-1.0
 74
     0
  0
LTYPE
  5
41
330
5
100
AcDbSymbolTableRecord
100
AcDbLinetypeTableRecord
  2
DOT_CENTER
 70
     0
  3
Dot_Center
 72
    65
 73
     4
 40
14.0
 49
12.0
 74
     0
 49
-1.0
 74
     0
 49
0.0
 74
     0
 49
-1.0
 74
     0
  0
LTYPE
  5
42
330
5
100
AcDbSymbolTableRecord
100
AcDbLinetypeTableRecord
  2
LONG_DASHED
 70
     0
  3
Long_Dashed
 72
    65
 73
     2
 40
15.0
 49
10.0
 74
     0
 49
-5.0
 74
     0
  0
LTYPE
  5
43
330
5
100
AcDbSymbolTableRecord
100
AcDbLinetypeTableRecord
  2
DASH_CENTER
 70
     0
  3
Dash_Center
 72
    65
 73
     4
 40
14.0
 49
11.0
 74
     0
 49
-1.0
 74
     0
 49
1.0
 74
     0
 49
-1.0
 74
     0
  0
LTYPE
  5
44
330
5
100
AcDbSymbolTableRecord
100
AcDbLinetypeTableRecord
  2
PHANTOM
 70
     0
  3
Phantom
 72
    65
 73
     6
 40
13.0
 49
10.0
 74
     0
 49
-1.0
 74
     0
 49
0.0
 74
     0
 49
-1.0
 74
     0
 49
0.0
 74
     0
 49
-1.0
 74
     0
  0
LTYPE
  5
45
330
5
100
AcDbSymbolTableRecord
100
AcDbLinetypeTableRecord
  2
CENTER_DASH_DASH
 70
     0
  3
Center_Dash_Dash
 72
    65
 73
     6
 40
14.0
 49
9.0
 74
     0
 49
-1.0
 74
     0
 49
1.0
 74
     0
 49
-1.0
 74
     0
 49
1.0
 74
     0
 49
-1.0
 74
     0
  0
ENDTAB
  0
TABLE
  2
LAYER
  5
2
330
0
100
AcDbSymbolTable
 70
     2
  0
LAYER
  5
10
330
2
100
AcDbSymbolTableRecord
100
AcDbLayerTableRecord
  2
0
 70
     0
 62
     7
  6
Continuous
370
    -3
390
F
  0
LAYER
  5
46
330
2
100
AcDbSymbolTableRecord
100
AcDbLayerTableRecord
  2
1
 70
     0
 62
     7
  6
Continuous
370
    -3
390
F
  0
ENDTAB
  0
TABLE
  2
STYLE
  5
3
330
0
100
AcDbSymbolTable
 70
     5
  0
STYLE
  5
11
330
3
100
AcDbSymbolTableRecord
100
AcDbTextStyleTableRecord
  2
Standard
 70
     0
 40
0.0
 41
1.0
 50
0.0
 71
     0
 42
0.2
  3
txt
  4

  0
STYLE
  5
151
330
3
100
AcDbSymbolTableRecord
100
AcDbTextStyleTableRecord
  2
CONVERTER_11
 70
     0
 40
0.0
 41
0.9
 50
0.0
 71
     0
 42
0.2
  3
txt.shx
  4

  0
STYLE
  5
437
330
3
100
AcDbSymbolTableRecord
100
AcDbTextStyleTableRecord
  2
CONVERTER_12
 70
     0
 40
0.0
 41
0.81
 50
0.0
 71
     0
 42
0.2
  3
txt.shx
  4

  0
STYLE
  5
43D
330
3
100
AcDbSymbolTableRecord
100
AcDbTextStyleTableRecord
  2
CONVERTER_13
 70
     0
 40
0.0
 41
0.855
 50
0.0
 71
     0
 42
0.2
  3
txt.shx
  4

  0
STYLE
  5
440
330
3
100
AcDbSymbolTableRecord
100
AcDbTextStyleTableRecord
  2
CONVERTER_14
 70
     0
 40
0.0
 41
0.72
 50
0.0
 71
     0
 42
0.2
  3
txt.shx
  4

  0
ENDTAB
  0
TABLE
  2
VIEW
  5
6
330
0
100
AcDbSymbolTable
 70
     0
  0
ENDTAB
  0
TABLE
  2
UCS
  5
7
330
0
100
AcDbSymbolTable
 70
     0
  0
ENDTAB
  0
TABLE
  2
APPID
  5
9
330
0
100
AcDbSymbolTable
 70
     1
  0
APPID
  5
12
330
9
100
AcDbSymbolTableRecord
100
AcDbRegAppTableRecord
  2
ACAD
 70
     0
  0
ENDTAB
  0
TABLE
  2
DIMSTYLE
  5
A
330
0
100
AcDbSymbolTable
 70
     5
100
AcDbDimStyleTable
  0
DIMSTYLE
105
27
330
A
100
AcDbSymbolTableRecord
100
AcDbDimStyleTableRecord
  2
Standard
 70
     0
178
     0
340
11
  0
DIMSTYLE
105
1C1
102
{ACAD_REACTORS
330
1C2
102
}
330
A
100
AcDbSymbolTableRecord
100
AcDbDimStyleTableRecord
  2
ME10_DIM_10
 70
     0
 41
3.5
 42
0.0
 44
1.5
 73
     0
 74
     0
 77
     1
 78
     8
140
3.5
147
1.5
172
     1
173
     1
174
     1
175
     1
176
     2
177
     2
178
     3
340
151
  0
DIMSTYLE
105
328
102
{ACAD_REACTORS
330
329
102
}
330
A
100
AcDbSymbolTableRecord
100
AcDbDimStyleTableRecord
  2
ME10_DIM_11
 70
     0
 41
3.5
 42
0.0
 44
1.5
 73
     0
 74
     0
 77
     1
 78
     8
140
3.5
147
1.5
172
     1
173
     1
174
     1
175
     1
176
     2
177
     2
271
     2
178
     3
271
     2
340
151
  0
DIMSTYLE
105
333
102
{ACAD_REACTORS
330
334
102
}
330
A
100
AcDbSymbolTableRecord
100
AcDbDimStyleTableRecord
  2
ME10_DIM_12
 70
     0
 41
3.5
 42
0.0
 44
1.5
 73
     0
 74
     0
 77
     1
 78
     8
140
3.5
147
1.5
172
     1
173
     1
174
     1
175
     1
176
     2
177
     2
271
     2
178
     3
271
     2
340
151
  0
DIMSTYLE
105
33E
102
{ACAD_REACTORS
330
33F
102
}
330
A
100
AcDbSymbolTableRecord
100
AcDbDimStyleTableRecord
  2
ME10_DIM_13
 70
     0
 41
3.5
 42
0.0
 44
1.5
 73
     0
 74
     0
 77
     1
 78
     8
140
3.5
147
1.5
172
     1
173
     1
174
     1
175
     1
176
     2
177
     2
271
     2
178
     3
271
     2
340
151
  0
ENDTAB
  0
TABLE
  2
BLOCK_RECORD
  5
1
330
0
100
AcDbSymbolTable
 70
    21
  0
BLOCK_RECORD
  5
1F
330
1
100
AcDbSymbolTableRecord
100
AcDbBlockTableRecord
  2
*Model_Space
340
22
  0
BLOCK_RECORD
  5
1B
330
1
100
AcDbSymbolTableRecord
100
AcDbBlockTableRecord
  2
*Paper_Space
340
1E
  0
BLOCK_RECORD
  5
23
330
1
100
AcDbSymbolTableRecord
100
AcDbBlockTableRecord
  2
*Paper_Space0
340
26
  0
BLOCK_RECORD
  5
47
330
1
100
AcDbSymbolTableRecord
100
AcDbBlockTableRecord
  2
PP_2_5_1-select__1
340
0
102
{BLKREFS
331
4B
102
}
  0
BLOCK_RECORD
  5
4A
330
1
100
AcDbSymbolTableRecord
100
AcDbBlockTableRecord
  2
Allg1
340
0
102
{BLKREFS
331
7D
102
}
  0
BLOCK_RECORD
  5
4E
330
1
100
AcDbSymbolTableRecord
100
AcDbBlockTableRecord
  2
PP_2_5_1-select__2
340
0
102
{BLKREFS
331
52
102
}
  0
BLOCK_RECORD
  5
51
330
1
100
AcDbSymbolTableRecord
100
AcDbBlockTableRecord
  2
Drfsicht1
340
0
102
{BLKREFS
331
7E
102
}
  0
BLOCK_RECORD
  5
55
330
1
100
AcDbSymbolTableRecord
100
AcDbBlockTableRecord
  2
PP_2_5_1-select__3
340
0
102
{BLKREFS
331
59
102
}
  0
BLOCK_RECORD
  5
58
330
1
100
AcDbSymbolTableRecord
100
AcDbBlockTableRecord
  2
Rckans1
340
0
102
{BLKREFS
331
7F
102
}
  0
BLOCK_RECORD
  5
5C
330
1
100
AcDbSymbolTableRecord
100
AcDbBlockTableRecord
  2
PP_2_5_1-select__4
340
0
102
{BLKREFS
331
60
102
}
  0
BLOCK_RECORD
  5
5F
330
1
100
AcDbSymbolTableRecord
100
AcDbBlockTableRecord
  2
SA_Links1
340
0
102
{BLKREFS
331
80
102
}
  0
BLOCK_RECORD
  5
63
330
1
100
AcDbSymbolTableRecord
100
AcDbBlockTableRecord
  2
PP_2_5_1-select__5
340
0
102
{BLKREFS
331
67
102
}
  0
BLOCK_RECORD
  5
66
330
1
100
AcDbSymbolTableRecord
100
AcDbBlockTableRecord
  2
SA_Rechts1
340
0
102
{BLKREFS
331
81
102
}
  0
BLOCK_RECORD
  5
6A
330
1
100
AcDbSymbolTableRecord
100
AcDbBlockTableRecord
  2
PP_2_5_1-select__6
340
0
102
{BLKREFS
331
6E
102
}
  0
BLOCK_RECORD
  5
6D
330
1
100
AcDbSymbolTableRecord
100
AcDbBlockTableRecord
  2
Vordans1
340
0
102
{BLKREFS
331
82
102
}
  0
BLOCK_RECORD
  5
71
330
1
100
AcDbSymbolTableRecord
100
AcDbBlockTableRecord
  2
_rahmen
340
0
102
{BLKREFS
331
78
102
}
  0
BLOCK_RECORD
  5
74
330
1
100
AcDbSymbolTableRecord
100
AcDbBlockTableRecord
  2
_punkt
340
0
102
{BLKREFS
331
79
102
}
  0
BLOCK_RECORD
  5
77
330
1
100
AcDbSymbolTableRecord
100
AcDbBlockTableRecord
  2
A4I_CS
340
0
102
{BLKREFS
331
83
102
}
  0
BLOCK_RECORD
  5
7C
330
1
100
AcDbSymbolTableRecord
100
AcDbBlockTableRecord
  2
1
340
0
102
{BLKREFS
331
86
102
}
  0
BLOCK_RECORD
  5
1B6
330
1
100
AcDbSymbolTableRecord
100
AcDbBlockTableRecord
  2
*D17
340
0
  0
BLOCK_RECORD
  5
31F
330
1
100
AcDbSymbolTableRecord
100
AcDbBlockTableRecord
  2
*D18
340
0
  0
BLOCK_RECORD
  5
32A
330
1
100
AcDbSymbolTableRecord
100
AcDbBlockTableRecord
  2
*D19
340
0
  0
BLOCK_RECORD
  5
335
330
1
100
AcDbSymbolTableRecord
100
AcDbBlockTableRecord
  2
*D20
340
0
  0
ENDTAB
  0
ENDSEC
  0
SECTION
  2
BLOCKS
  0
BLOCK
  5
20
330
1F
100
AcDbEntity
  8
0
100
AcDbBlockBegin
  2
*Model_Space
 70
     0
 10
0.0
 20
0.0
 30
0.0
  3
*Model_Space
  1

  0
ENDBLK
  5
21
330
1F
100
AcDbEntity
  8
0
100
AcDbBlockEnd
  0
BLOCK
  5
1C
330
1B
100
AcDbEntity
 67
     1
  8
0
100
AcDbBlockBegin
  2
*Paper_Space
 70
     0
 10
0.0
 20
0.0
 30
0.0
  3
*Paper_Space
  1

  0
ENDBLK
  5
1D
330
1B
100
AcDbEntity
 67
     1
  8
0
100
AcDbBlockEnd
  0
BLOCK
  5
24
330
23
100
AcDbEntity
  8
0
100
AcDbBlockBegin
  2
*Paper_Space0
 70
     0
 10
0.0
 20
0.0
 30
0.0
  3
*Paper_Space0
  1

  0
ENDBLK
  5
25
330
23
100
AcDbEntity
  8
0
100
AcDbBlockEnd
  0
BLOCK
  5
48
330
47
100
AcDbEntity
  8
0
100
AcDbBlockBegin
  2
PP_2_5_1-select__1
 70
     0
 10
-162.7832866799536
 20
-216.67470425891
 30
0.0
  3
PP_2_5_1-select__1
  1

  0
LINE
  5
87
330
47
100
AcDbEntity
  8
0
  6
Continuous
 62
     7
100
AcDbLine
 10
-157.39489014359
 20
-186.9864926644266
 30
0.0
 11
-157.3948901435923
 21
-186.2311726085295
 31
0.0
  0
LINE
  5
88
330
47
100
AcDbEntity
  8
0
  6
Continuous
 62
     7
100
AcDbLine
 10
-158.4964609312873
 20
-186.8931735943333
 30
0.0
 11
-157.9768456870379
 21
-187.0431735942315
 31
0.0
  0
LINE
  5
89
330
47
100
AcDbEntity
  8
0
  6
Continuous
 62
     7
100
AcDbLine
 10
-158.2435925082593
 20
-186.9661704165578
 30
0.0
 11
-157.3948901435923
 21
-186.2311726085295
 31
0.0
  0
LINE
  5
8A
330
47
100
AcDbEntity
  8
0
  6
Continuous
 62
     7
100
AcDbLine
 10
-146.3518802029615
 20
-187.070471198272
 30
0.0
 11
-146.3518802030063
 21
-197.3993839932583
 31
0.0
  0
LINE
  5
8B
330
47
100
AcDbEntity
  8
0
  6
Continuous
 62
     7
100
AcDbLine
 10
-146.9915916484621
 20
-201.386070951816
 30
0.0
 11
-146.991591648448
 21
-198.8024284974047
 31
0.0
  0
LINE
  5
8C
330
47
100
AcDbEntity
  8
0
  6
Continuous
 62
     7
100
AcDbLine
 10
-146.9915916484621
 20
-201.386070951816
 30
0.0
 11
-147.5978094310287
 21
-200.6048531692782
 31
0.0
  0
LINE
  5
8D
330
47
100
AcDbEntity
  8
0
  6
Continuous
 62
     7
100
AcDbLine
 10
-148.6268802002886
 20
-191.2049452963218
 30
0.0
 11
-146.6018802002859
 21
-189.4512438536494
 31
0.0
  0
LINE
  5
8E
330
47
100
AcDbEntity
  8
0
  6
Continuous
 62
     7
100
AcDbLine
 10
-146.6642648129986
 20
-189.5279624948412
 30
0.0
 11
-148.6892648129776
 21
-191.2816639375111
 31
0.0
  0
LINE
  5
8F
330
47
100
AcDbEntity
  8
0
  6
Continuous
 62
     7
100
AcDbLine
 10
-146.7415916511744
 20
-202.208795087835
 30
0.0
 11
-146.7415916511392
 21
-198.5859221487889
 31
0.0
  0
LINE
  5
90
330
47
100
AcDbEntity
  8
0
  6
Continuous
 62
     7
100
AcDbLine
 10
-146.9915916484621
 20
-201.386070951816
 30
0.0
 11
-149.0165916484384
 21
-203.1397723944871
 31
0.0
  0
LINE
  5
91
330
47
100
AcDbEntity
  8
0
  6
Continuous
 62
     7
100
AcDbLine
 10
-146.6018802003134
 20
-197.6158903418725
 30
0.0
 11
-146.6018802002859
 21
-189.4512438536494
 31
0.0
  0
LINE
  5
92
330
47
100
AcDbEntity
  8
0
  6
Continuous
 62
     7
100
AcDbLine
 10
-146.7415916511392
 20
-198.5859221487889
 30
0.0
 11
-146.991591648448
 21
-198.8024284974047
 31
0.0
  0
LINE
  5
93
330
47
100
AcDbEntity
  8
0
  6
Continuous
 62
     7
100
AcDbLine
 10
-149.0165916484243
 20
-200.5561299400499
 30
0.0
 11
-146.991591648448
 21
-198.8024284974047
 31
0.0
  0
LINE
  5
94
330
47
100
AcDbEntity
  8
0
  6
Continuous
 62
     7
100
AcDbLine
 10
-146.8480154306674
 20
-198.3652879888709
 30
0.0
 11
-148.8730154306465
 21
-200.118989431539
 31
0.0
  0
LINE
  5
95
330
47
100
AcDbEntity
  8
0
  6
Continuous
 62
     7
100
AcDbLine
 10
-146.3518802030063
 20
-197.3993839932583
 30
0.0
 11
-146.6018802003134
 21
-197.6158903418725
 31
0.0
  0
LINE
  5
96
330
47
100
AcDbEntity
  8
0
  6
Continuous
 62
     7
100
AcDbLine
 10
-146.7415916511392
 20
-198.5859221487889
 30
0.0
 11
-146.3518802030063
 21
-197.3993839932583
 31
0.0
  0
LINE
  5
97
330
47
100
AcDbEntity
  8
0
  6
Continuous
 62
     7
100
AcDbLine
 10
-146.8480154306674
 20
-198.3652879888709
 30
0.0
 11
-146.6018802003134
 21
-197.6158903418725
 31
0.0
  0
LINE
  5
98
330
47
100
AcDbEntity
  8
0
  6
Continuous
 62
     7
100
AcDbLine
 10
-146.3518802029615
 20
-187.070471198272
 30
0.0
 11
-147.096689812748
 21
-186.5393102616978
 31
0.0
  0
LINE
  5
99
330
47
100
AcDbEntity
  8
0
  6
Continuous
 62
     7
100
AcDbLine
 10
-148.5169434275012
 20
-186.5412998993797
 30
0.0
 11
-148.5169434274827
 21
-182.2659839163408
 31
0.0
  0
LINE
  5
9A
330
47
100
AcDbEntity
  8
0
  6
Continuous
 62
     7
100
AcDbLine
 10
-148.7040916483892
 20
-200.2854970012866
 30
0.0
 11
-147.5978094310287
 21
-200.6048531692782
 31
0.0
  0
LINE
  5
9B
330
47
100
AcDbEntity
  8
0
  6
Continuous
 62
     7
100
AcDbLine
 10
-147.5978094310287
 20
-200.6048531692782
 30
0.0
 11
-149.0165916484313
 21
-201.8335546120062
 31
0.0
  0
LINE
  5
9C
330
47
100
AcDbEntity
  8
0
  6
Continuous
 62
     7
100
AcDbLine
 10
-147.4059697468358
 20
-191.8267734351096
 30
0.0
 11
-147.9875208463266
 21
-191.6588940931898
 31
0.0
  0
LINE
  5
9D
330
47
100
AcDbEntity
  8
0
  6
Continuous
 62
     7
100
AcDbLine
 10
-149.4309697468148
 20
-193.5804748777795
 30
0.0
 11
-147.4059697468358
 21
-191.8267734351096
 31
0.0
  0
LINE
  5
9E
330
47
100
AcDbEntity
  8
0
  6
Continuous
 62
     7
100
AcDbLine
 10
-148.8730154306465
 20
-200.118989431539
 30
0.0
 11
-148.6268802002896
 21
-199.3695917845176
 31
0.0
  0
LINE
  5
9F
330
47
100
AcDbEntity
  8
0
  6
Continuous
 62
     7
100
AcDbLine
 10
-147.3269375555888
 20
-186.7387106561662
 30
0.0
 11
-148.5169434275012
 21
-186.5412998993797
 31
0.0
  0
LINE
  5
A0
330
47
100
AcDbEntity
  8
0
  6
Continuous
 62
     7
100
AcDbLine
 10
-149.3165916511442
 20
-204.4388105025565
 30
0.0
 11
-149.3165916511089
 21
-200.8159375635105
 31
0.0
  0
LINE
  5
A1
330
47
100
AcDbEntity
  8
0
  6
Continuous
 62
     7
100
AcDbLine
 10
-148.9268802029313
 20
-189.3004866129935
 30
0.0
 11
-148.9268802029351
 21
-190.1752889297615
 31
0.0
  0
LINE
  5
A2
330
47
100
AcDbEntity
  8
0
  6
Continuous
 62
     7
100
AcDbLine
 10
-150.0173710470389
 20
-182.087913214167
 30
0.0
 11
-149.8584860406086
 21
-183.4277938995648
 31
0.0
  0
LINE
  5
A3
330
47
100
AcDbEntity
  8
0
  6
Continuous
 62
     7
100
AcDbLine
 10
-147.096689812748
 20
-186.5393102616978
 30
0.0
 11
-149.6716898126897
 21
-188.7693256764368
 31
0.0
  0
LINE
  5
A4
330
47
100
AcDbEntity
  8
0
  6
Continuous
 62
     7
100
AcDbLine
 10
-146.3518802029615
 20
-187.070471198272
 30
0.0
 11
-148.9268802029313
 21
-189.3004866129935
 31
0.0
  0
LINE
  5
A5
330
47
100
AcDbEntity
  8
0
  6
Continuous
 62
     7
100
AcDbLine
 10
-146.8480154306674
 20
-198.3652879888709
 30
0.0
 11
-147.4059697468358
 21
-191.8267734351096
 31
0.0
  0
LINE
  5
A6
330
47
100
AcDbEntity
  8
0
  6
Continuous
 62
     7
100
AcDbLine
 10
-149.3165916511442
 20
-204.4388105025565
 30
0.0
 11
-146.7415916511744
 21
-202.208795087835
 31
0.0
  0
LINE
  5
A7
330
47
100
AcDbEntity
  8
0
  6
Continuous
 62
     7
100
AcDbLine
 10
-149.0165916484384
 20
-203.1397723944871
 30
0.0
 11
-149.0165916484243
 21
-200.5561299400499
 31
0.0
  0
LINE
  5
A8
330
47
100
AcDbEntity
  8
0
  6
Continuous
 62
     7
100
AcDbLine
 10
-149.0165916484243
 20
-200.5561299400499
 30
0.0
 11
-149.3165916511089
 21
-200.8159375635105
 31
0.0
  0
LINE
  5
A9
330
47
100
AcDbEntity
  8
0
  6
Continuous
 62
     7
100
AcDbLine
 10
-150.310502752936
 20
-183.3822023768176
 30
0.0
 11
-150.2817628763388
 21
-183.6245663759281
 31
0.0
  0
LINE
  5
AA
330
47
100
AcDbEntity
  8
0
  6
Continuous
 62
     7
100
AcDbLine
 10
-150.2817628763388
 20
-183.6245663759281
 30
0.0
 11
-149.8584860406086
 21
-183.4277938995648
 31
0.0
  0
LINE
  5
AB
330
47
100
AcDbEntity
  8
0
  6
Continuous
 62
     7
100
AcDbLine
 10
-151.0919434274702
 20
-188.771315314108
 30
0.0
 11
-151.0919434274463
 21
-183.2525687350202
 31
0.0
  0
LINE
  5
AC
330
47
100
AcDbEntity
  8
0
  6
Continuous
 62
     7
100
AcDbLine
 10
-149.6716898126897
 20
-188.7693256764368
 30
0.0
 11
-149.6429499360716
 21
-189.0116896756662
 31
0.0
  0
LINE
  5
AD
330
47
100
AcDbEntity
  8
0
  6
Continuous
 62
     7
100
AcDbLine
 10
-149.3165916511089
 20
-200.8159375635105
 30
0.0
 11
-148.926880202976
 21
-199.6293994079798
 31
0.0
  0
LINE
  5
AE
330
47
100
AcDbEntity
  8
0
  6
Continuous
 62
     7
100
AcDbLine
 10
-148.9268802029351
 20
-190.1752889297615
 30
0.0
 11
-149.6197005423776
 21
-189.975288925026
 31
0.0
  0
LINE
  5
AF
330
47
100
AcDbEntity
  8
0
  6
Continuous
 62
     7
100
AcDbLine
 10
-148.9268802029313
 20
-189.3004866129935
 30
0.0
 11
-149.6716898126897
 21
-188.7693256764368
 31
0.0
  0
LINE
  5
B0
330
47
100
AcDbEntity
  8
0
  6
Continuous
 62
     7
100
AcDbLine
 10
-149.6429499360716
 20
-189.0116896756662
 30
0.0
 11
-151.0919434274702
 21
-188.771315314108
 31
0.0
  0
LINE
  5
B1
330
47
100
AcDbEntity
  8
0
  6
Continuous
 62
     7
100
AcDbLine
 10
-151.0919434274463
 20
-183.2525687350202
 30
0.0
 11
-150.310502752936
 21
-183.3822023768176
 31
0.0
  0
LINE
  5
B2
330
47
100
AcDbEntity
  8
0
  6
Continuous
 62
     7
100
AcDbLine
 10
-150.9696461930987
 20
-189.2278678241834
 30
0.0
 11
-150.3813426377348
 21
-190.4166680803602
 31
0.0
  0
LINE
  5
B3
330
47
100
AcDbEntity
  8
0
  6
Continuous
 62
     7
100
AcDbLine
 10
-161.5424112987191
 20
-180.149231315337
 30
0.0
 11
-161.7283988493805
 21
-180.310301259001
 31
0.0
  0
LINE
  5
B4
330
47
100
AcDbEntity
  8
0
  6
Continuous
 62
     7
100
AcDbLine
 10
-160.5749219399608
 20
-179.8845855962168
 30
0.0
 11
-159.7088965743248
 21
-181.000610950841
 31
0.0
  0
LINE
  5
B5
330
47
100
AcDbEntity
  8
0
  6
Continuous
 62
     7
100
AcDbLine
 10
-160.9646334099302
 20
-185.9057104411556
 30
0.0
 11
-160.9646334099066
 21
-180.386963629506
 31
0.0
  0
LINE
  5
B6
330
47
100
AcDbEntity
  8
0
  6
Continuous
 62
     7
100
AcDbLine
 10
-162.7832866798879
 20
-185.1631678990901
 30
0.0
 11
-162.7832866799536
 21
-200.5513105026262
 31
0.0
  0
LINE
  5
B7
330
47
100
AcDbEntity
  8
0
  6
Continuous
 62
     7
100
AcDbLine
 10
-160.0461724149231
 20
-201.3414473314733
 30
0.0
 11
-162.7832866799536
 21
-200.5513105026262
 31
0.0
  0
LINE
  5
B8
330
47
100
AcDbEntity
  8
0
  6
Continuous
 62
     7
100
AcDbLine
 10
-161.7609790561222
 20
-200.8464252935286
 30
0.0
 11
-161.7609790561226
 21
-207.8467973043682
 31
0.0
  0
LINE
  5
B9
330
47
100
AcDbEntity
  8
0
  6
Continuous
 62
     7
100
AcDbLine
 10
-161.7609790561226
 20
-207.8467973043682
 30
0.0
 11
-159.6825180870231
 21
-208.446797304357
 31
0.0
  0
LINE
  5
BA
330
47
100
AcDbEntity
  8
0
  6
Continuous
 62
     7
100
AcDbLine
 10
-159.7025190660867
 20
-202.2345081184461
 30
0.0
 11
-159.8687996483917
 21
-202.0546146153099
 31
0.0
  0
LINE
  5
BB
330
47
100
AcDbEntity
  8
0
  6
Continuous
 62
     7
100
AcDbLine
 10
-159.2533575435322
 20
-181.0061026694545
 30
0.0
 11
-159.3624863334117
 21
-181.100610973771
 31
0.0
  0
LINE
  5
BC
330
47
100
AcDbEntity
  8
0
  6
Continuous
 62
     7
100
AcDbLine
 10
-159.2533575435322
 20
-181.0061026694545
 30
0.0
 11
-159.2533575435306
 21
-186.1557232776765
 31
0.0
  0
LINE
  5
BD
330
47
100
AcDbEntity
  8
0
  6
Continuous
 62
     7
100
AcDbLine
 10
-159.7088965743248
 20
-181.000610950841
 30
0.0
 11
-159.3624863334117
 21
-181.100610973771
 31
0.0
  0
LINE
  5
BE
330
47
100
AcDbEntity
  8
0
  6
Continuous
 62
     7
100
AcDbLine
 10
-159.3624863334117
 20
-181.100610973771
 30
0.0
 11
-159.3624863334625
 21
-185.7771481924091
 31
0.0
  0
LINE
  5
BF
330
47
100
AcDbEntity
  8
0
  6
Continuous
 62
     7
100
AcDbLine
 10
-160.0461724149231
 20
-201.3414473314733
 30
0.0
 11
-159.8687996483917
 21
-202.0546146153099
 31
0.0
  0
LINE
  5
C0
330
47
100
AcDbEntity
  8
0
  6
Continuous
 62
     7
100
AcDbLine
 10
-159.3749218984595
 20
-178.8453551615641
 30
0.0
 11
-160.5749219399608
 21
-179.8845855962168
 31
0.0
  0
LINE
  5
C1
330
47
100
AcDbEntity
  8
0
  6
Continuous
 62
     7
100
AcDbLine
 10
-157.9999219400532
 20
-177.654570181498
 30
0.0
 11
-159.3749218984595
 21
-178.8453551615641
 31
0.0
  0
LINE
  5
C2
330
47
100
AcDbEntity
  8
0
  6
Continuous
 62
     7
100
AcDbLine
 10
-159.5226831479374
 20
-177.2149868848557
 30
0.0
 11
-157.9999219400532
 21
-177.654570181498
 31
0.0
  0
LINE
  5
C3
330
47
100
AcDbEntity
  8
0
  6
Continuous
 62
     7
100
AcDbLine
 10
-157.9999219400532
 20
-177.654570181498
 30
0.0
 11
-157.133896574438
 21
-178.7705955360955
 31
0.0
  0
LINE
  5
C4
330
47
100
AcDbEntity
  8
0
  6
Continuous
 62
     7
100
AcDbLine
 10
-147.4423710470691
 20
-179.8578977994454
 30
0.0
 11
-147.283486040638
 21
-181.1977784848506
 31
0.0
  0
LINE
  5
C5
330
47
100
AcDbEntity
  8
0
  6
Continuous
 62
     7
100
AcDbLine
 10
-148.9268802029579
 20
-195.4341990306964
 30
0.0
 11
-148.6268802002891
 21
-195.174391407245
 31
0.0
  0
LINE
  5
C6
330
47
100
AcDbEntity
  8
0
  6
Continuous
 62
     7
100
AcDbLine
 10
-148.6268802002891
 20
-195.174391407245
 30
0.0
 11
-149.3381134132678
 21
-193.7371840028676
 31
0.0
  0
LINE
  5
C7
330
47
100
AcDbEntity
  8
0
  6
Continuous
 62
     7
100
AcDbLine
 10
-147.9875208463266
 20
-191.6588940931898
 30
0.0
 11
-147.9875208463265
 21
-190.6739358354302
 31
0.0
  0
LINE
  5
C8
330
47
100
AcDbEntity
  8
0
  6
Continuous
 62
     7
100
AcDbLine
 10
-148.6268802002886
 20
-191.2049452963218
 30
0.0
 11
-148.6268802002884
 21
-189.91548130633
 31
0.0
  0
LINE
  5
C9
330
47
100
AcDbEntity
  8
0
  6
Continuous
 62
     7
100
AcDbLine
 10
-148.6268802002884
 20
-189.91548130633
 30
0.0
 11
-148.9268802029351
 21
-190.1752889297615
 31
0.0
  0
LINE
  5
CA
330
47
100
AcDbEntity
  8
0
  6
Continuous
 62
     7
100
AcDbLine
 10
-148.6268802002896
 20
-199.3695917845176
 30
0.0
 11
-148.6268802002891
 21
-195.174391407245
 31
0.0
  0
LINE
  5
CB
330
47
100
AcDbEntity
  8
0
  6
Continuous
 62
     7
100
AcDbLine
 10
-147.9875208463266
 20
-191.6588940931898
 30
0.0
 11
-150.0125208463055
 21
-193.4125955358597
 31
0.0
  0
LINE
  5
CC
330
47
100
AcDbEntity
  8
0
  6
Continuous
 62
     7
100
AcDbLine
 10
-148.6268802002896
 20
-199.3695917845176
 30
0.0
 11
-148.926880202976
 21
-199.6293994079798
 31
0.0
  0
LINE
  5
CD
330
47
100
AcDbEntity
  8
0
  6
Continuous
 62
     7
100
AcDbLine
 10
-148.5169434275012
 20
-186.5412998993797
 30
0.0
 11
-151.0919434274702
 21
-188.771315314108
 31
0.0
  0
LINE
  5
CE
330
47
100
AcDbEntity
  8
0
  6
Continuous
 62
     7
100
AcDbLine
 10
-148.8633538738895
 20
-179.4476953906623
 30
0.0
 11
-147.4423710470691
 21
-179.8578977994454
 31
0.0
  0
LINE
  5
CF
330
47
100
AcDbEntity
  8
0
  6
Continuous
 62
     7
100
AcDbLine
 10
-151.132712316497
 20
-180.9100201461842
 30
0.0
 11
-150.7899241562467
 21
-181.0089745644797
 31
0.0
  0
LINE
  5
D0
330
47
100
AcDbEntity
  8
0
  6
Continuous
 62
     7
100
AcDbLine
 10
-150.5737540465473
 20
-180.6643455632686
 30
0.0
 11
-150.8512540439001
 21
-180.9046676105317
 31
0.0
  0
LINE
  5
D1
330
47
100
AcDbEntity
  8
0
  6
Continuous
 62
     7
100
AcDbLine
 10
-151.7336739092596
 20
-181.8262858254051
 30
0.0
 11
-149.8336739092673
 21
-180.1808375582194
 31
0.0
  0
LINE
  5
D2
330
47
100
AcDbEntity
  8
0
  6
Continuous
 62
     7
100
AcDbLine
 10
-150.5737540465473
 20
-180.6643455632686
 30
0.0
 11
-148.8633538738895
 21
-179.4476953906623
 31
0.0
  0
LINE
  5
D3
330
47
100
AcDbEntity
  8
0
  6
Continuous
 62
     7
100
AcDbLine
 10
-149.8336739092673
 20
-180.1808375582194
 30
0.0
 11
-150.8512540439001
 21
-180.9046676105317
 31
0.0
  0
LINE
  5
D4
330
47
100
AcDbEntity
  8
0
  6
Continuous
 62
     7
100
AcDbLine
 10
-149.4496043502264
 20
-190.5130666641879
 30
0.0
 11
-149.4496043502279
 21
-190.778699464503
 31
0.0
  0
LINE
  5
D5
330
47
100
AcDbEntity
  8
0
  6
Continuous
 62
     2
100
AcDbLine
 10
-149.8996373762679
 20
-189.9501406179304
 30
0.0
 11
-150.3932227885184
 21
-190.3775981238827
 31
0.0
  0
LINE
  5
D6
330
47
100
AcDbEntity
  8
0
  6
Continuous
 62
     7
100
AcDbLine
 10
-149.9824308703849
 20
-189.9262401948724
 30
0.0
 11
-149.8826170521178
 21
-189.9550539622953
 31
0.0
  0
LINE
  5
D7
330
47
100
AcDbEntity
  8
0
  6
Continuous
 62
     7
100
AcDbLine
 10
-150.3813426377348
 20
-190.4166680803602
 30
0.0
 11
-150.3932227885184
 21
-190.3775981238827
 31
0.0
  0
LINE
  5
D8
330
47
100
AcDbEntity
  8
0
  6
Continuous
 62
     7
100
AcDbLine
 10
-150.6813426403868
 20
-190.6764757037959
 30
0.0
 11
-150.3813426377348
 21
-190.4166680803602
 31
0.0
  0
LINE
  5
D9
330
47
100
AcDbEntity
  8
0
  6
Continuous
 62
     7
100
AcDbLine
 10
-149.6197005423776
 20
-189.975288925026
 30
0.0
 11
-149.6197005423726
 21
-189.4518110826299
 31
0.0
  0
LINE
  5
DA
330
47
100
AcDbEntity
  8
0
  6
Continuous
 62
     7
100
AcDbLine
 10
-150.0125208463055
 20
-193.4125955358597
 30
0.0
 11
-150.0125208463055
 21
-193.5424993463662
 31
0.0
  0
LINE
  5
DB
330
47
100
AcDbEntity
  8
0
  6
Continuous
 62
     7
100
AcDbLine
 10
-149.4309697468148
 20
-193.5804748777795
 30
0.0
 11
-150.0125208463055
 21
-193.4125955358597
 31
0.0
  0
LINE
  5
DC
330
47
100
AcDbEntity
  8
0
  6
Continuous
 62
     7
100
AcDbLine
 10
-149.6381134159321
 20
-193.9969916263139
 30
0.0
 11
-149.3381134132678
 21
-193.7371840028676
 31
0.0
  0
LINE
  5
DD
330
47
100
AcDbEntity
  8
0
  6
Continuous
 62
     7
100
AcDbLine
 10
-150.3125208489701
 20
-193.8023069698129
 30
0.0
 11
-150.0125208463055
 21
-193.5424993463662
 31
0.0
  0
LINE
  5
DE
330
47
100
AcDbEntity
  8
0
  6
Continuous
 62
     7
100
AcDbLine
 10
-149.3381134132678
 20
-193.7371840028676
 30
0.0
 11
-149.419604636047
 21
-193.7136595131638
 31
0.0
  0
LINE
  5
DF
330
47
100
AcDbEntity
  8
0
  6
Continuous
 62
     7
100
AcDbLine
 10
-149.419604636047
 20
-193.7136595131638
 30
0.0
 11
-149.4309697468148
 21
-193.5804748777795
 31
0.0
  0
LINE
  5
E0
330
47
100
AcDbEntity
  8
0
  6
Continuous
 62
     7
100
AcDbLine
 10
-150.3125208489618
 20
-191.8894107583855
 30
0.0
 11
-150.3125208489701
 21
-193.8023069698129
 31
0.0
  0
LINE
  5
E1
330
47
100
AcDbEntity
  8
0
  6
Continuous
 62
     7
100
AcDbLine
 10
-148.9268802029579
 20
-195.4341990306964
 30
0.0
 11
-148.926880202976
 21
-199.6293994079798
 31
0.0
  0
LINE
  5
E2
330
47
100
AcDbEntity
  8
0
  6
Continuous
 62
     7
100
AcDbLine
 10
-149.6381134159321
 20
-193.9969916263139
 30
0.0
 11
-148.9268802029579
 21
-195.4341990306964
 31
0.0
  0
LINE
  5
E3
330
47
100
AcDbEntity
  8
0
  6
Continuous
 62
     7
100
AcDbLine
 10
-150.3125208489701
 20
-193.8023069698129
 30
0.0
 11
-149.6381134159321
 21
-193.9969916263139
 31
0.0
  0
LINE
  5
E4
330
47
100
AcDbEntity
  8
0
  6
Continuous
 62
     7
100
AcDbLine
 10
-150.0125208463055
 20
-193.5424993463662
 30
0.0
 11
-149.419604636047
 21
-193.7136595131638
 31
0.0
  0
LINE
  5
E5
330
47
100
AcDbEntity
  8
0
  6
Continuous
 62
     7
100
AcDbLine
 10
-150.6813426403868
 20
-190.6764757037959
 30
0.0
 11
-150.3125208489618
 21
-191.8894107583855
 31
0.0
  0
LINE
  5
E6
330
47
100
AcDbEntity
  8
0
  6
Continuous
 62
     7
100
AcDbLine
 10
-151.4365476907079
 20
-189.1504132669624
 30
0.0
 11
-150.6813426403868
 21
-190.6764757037959
 31
0.0
  0
LINE
  5
E7
330
47
100
AcDbEntity
  8
0
  6
Continuous
 62
     7
100
AcDbLine
 10
-149.6197005423726
 20
-189.4518110826299
 30
0.0
 11
-151.4365476907079
 21
-189.1504132669624
 31
0.0
  0
LINE
  5
E8
330
47
100
AcDbEntity
  8
0
  6
Continuous
 62
     7
100
AcDbLine
 10
-151.4383538738593
 20
-181.6777108053838
 30
0.0
 11
-150.0173710470389
 21
-182.087913214167
 31
0.0
  0
LINE
  5
E9
330
47
100
AcDbEntity
  8
0
  6
Continuous
 62
     7
100
AcDbLine
 10
-150.3125208489618
 20
-191.8894107583855
 30
0.0
 11
-149.3615519832595
 21
-191.0658475624676
 31
0.0
  0
LINE
  5
EA
330
47
100
AcDbEntity
  8
0
  6
Continuous
 62
     7
100
AcDbLine
 10
-151.4383538738593
 20
-181.6777108053838
 30
0.0
 11
-148.8633538738895
 21
-179.4476953906623
 31
0.0
  0
LINE
  5
EB
330
47
100
AcDbEntity
  8
0
  6
Continuous
 62
     7
100
AcDbLine
 10
-150.0173710470389
 20
-182.087913214167
 30
0.0
 11
-147.4423710470691
 21
-179.8578977994454
 31
0.0
  0
LINE
  5
EC
330
47
100
AcDbEntity
  8
0
  6
Continuous
 62
     7
100
AcDbLine
 10
-149.8584860406086
 20
-183.4277938995648
 30
0.0
 11
-147.283486040638
 21
-181.1977784848506
 31
0.0
  0
LINE
  5
ED
330
47
100
AcDbEntity
  8
0
  6
Continuous
 62
     2
100
AcDbLine
 10
-155.576845687064
 20
-181.5006109718472
 30
0.0
 11
-155.5768456870829
 21
-179.4221500027888
 31
0.0
  0
LINE
  5
EE
330
47
100
AcDbEntity
  8
0
  6
Continuous
 62
     2
100
AcDbLine
 10
-156.0964609293517
 20
-179.272150002773
 30
0.0
 11
-156.0964609293543
 21
-181.612149423872
 31
0.0
  0
LINE
  5
EF
330
47
100
AcDbEntity
  8
0
  6
Continuous
 62
     7
100
AcDbLine
 10
-155.5768456870829
 20
-179.4221500027888
 30
0.0
 11
-156.0964609293517
 21
-179.272150002773
 31
0.0
  0
LINE
  5
F0
330
47
100
AcDbEntity
  8
0
  6
Continuous
 62
     7
100
AcDbLine
 10
-157.5342171705781
 20
-179.1172833420055
 30
0.0
 11
-157.133896574438
 21
-178.7705955360955
 31
0.0
  0
LINE
  5
F1
330
47
100
AcDbEntity
  8
0
  6
Continuous
 62
     7
100
AcDbLine
 10
-153.1245707450063
 20
-180.3350201462532
 30
0.0
 11
-153.124570745006
 21
-180.248417605878
 31
0.0
  0
LINE
  5
F2
330
47
100
AcDbEntity
  8
0
  6
Continuous
 62
     7
100
AcDbLine
 10
-159.4835759747618
 20
-180.8054775876264
 30
0.0
 11
-159.7088965743248
 21
-181.000610950841
 31
0.0
  0
LINE
  5
F3
330
47
100
AcDbEntity
  8
0
  6
Continuous
 62
     7
100
AcDbLine
 10
-154.9495707450166
 20
-181.9155165081477
 30
0.0
 11
-153.1245707450063
 21
-180.3350201462532
 31
0.0
  0
LINE
  5
F4
330
47
100
AcDbEntity
  8
0
  6
Continuous
 62
     7
100
AcDbLine
 10
-151.8255326395299
 20
-181.0564304328755
 30
0.0
 11
-151.4327124249043
 21
-181.1698278612012
 31
0.0
  0
LINE
  5
F5
330
47
100
AcDbEntity
  8
0
  6
Continuous
 62
     7
100
AcDbLine
 10
-151.624454747989
 20
-181.3358815839613
 30
0.0
 11
-151.132712316497
 21
-180.9100201461842
 31
0.0
  0
LINE
  5
F6
330
47
100
AcDbEntity
  8
0
  6
Continuous
 62
     7
100
AcDbLine
 10
-152.3172750710161
 20
-181.1358815839612
 30
0.0
 11
-152.3172750710163
 21
-181.4822918706695
 31
0.0
  0
LINE
  5
F7
330
47
100
AcDbEntity
  8
0
  6
Continuous
 62
     7
100
AcDbLine
 10
-152.3172750710163
 20
-181.4822918706695
 30
0.0
 11
-151.8255326395299
 21
-181.0564304328755
 31
0.0
  0
LINE
  5
F8
330
47
100
AcDbEntity
  8
0
  6
Continuous
 62
     7
100
AcDbLine
 10
-151.8255326395286
 20
-180.7100201461875
 30
0.0
 11
-152.3172750710161
 21
-181.1358815839612
 31
0.0
  0
LINE
  5
F9
330
47
100
AcDbEntity
  8
0
  6
Continuous
 62
     7
100
AcDbLine
 10
-153.1245707450063
 20
-180.3350201462532
 30
0.0
 11
-151.8255326395286
 21
-180.7100201461875
 31
0.0
  0
LINE
  5
FA
330
47
100
AcDbEntity
  8
0
  6
Continuous
 62
     7
100
AcDbLine
 10
-151.8255326395299
 20
-181.0564304328755
 30
0.0
 11
-151.8255326395286
 21
-180.7100201461875
 31
0.0
  0
LINE
  5
FB
330
47
100
AcDbEntity
  8
0
  6
Continuous
 62
     7
100
AcDbLine
 10
-150.8512540439001
 20
-180.9046676105317
 30
0.0
 11
-153.124570745006
 21
-180.248417605878
 31
0.0
  0
LINE
  5
FC
330
47
100
AcDbEntity
  8
0
  6
Continuous
 62
     7
100
AcDbLine
 10
-151.624454747989
 20
-181.3358815839613
 30
0.0
 11
-151.6244547479892
 21
-181.6822918706697
 31
0.0
  0
LINE
  5
FD
330
47
100
AcDbEntity
  8
0
  6
Continuous
 62
     7
100
AcDbLine
 10
-157.1108202841071
 20
-181.7506109735965
 30
0.0
 11
-157.0016914935935
 21
-181.6561026687409
 31
0.0
  0
LINE
  5
FE
330
47
100
AcDbEntity
  8
0
  6
Continuous
 62
     7
100
AcDbLine
 10
-157.6954592488599
 20
-185.4955864513765
 30
0.0
 11
-157.6790820812183
 21
-185.6146461643591
 31
0.0
  0
LINE
  5
FF
330
47
100
AcDbEntity
  8
0
  6
Continuous
 62
     7
100
AcDbLine
 10
-157.6790820812183
 20
-185.6146461643591
 30
0.0
 11
-157.3948901435923
 21
-186.2311726085295
 31
0.0
  0
LINE
  5
100
330
47
100
AcDbEntity
  8
0
  6
Continuous
 62
     7
100
AcDbLine
 10
-157.1108202841255
 20
-185.7786892151189
 30
0.0
 11
-157.6790820812183
 21
-185.6146461643591
 31
0.0
  0
LINE
  5
101
330
47
100
AcDbEntity
  8
0
  6
Continuous
 62
     7
100
AcDbLine
 10
-157.1108202841071
 20
-181.7506109735965
 30
0.0
 11
-157.110820281262
 21
-186.4271481897938
 31
0.0
  0
LINE
  5
102
330
47
100
AcDbEntity
  8
0
  6
Continuous
 62
     7
100
AcDbLine
 10
-153.350532531094
 20
-182.3771190797637
 30
0.0
 11
-153.2337902099969
 21
-182.276017263995
 31
0.0
  0
LINE
  5
103
330
47
100
AcDbEntity
  8
0
  6
Continuous
 62
     7
100
AcDbLine
 10
-153.2337902099967
 20
-181.9296069772866
 30
0.0
 11
-153.2337902099969
 21
-182.276017263995
 31
0.0
  0
LINE
  5
104
330
47
100
AcDbEntity
  8
0
  6
Continuous
 62
     7
100
AcDbLine
 10
-153.2337902099967
 20
-181.9296069772866
 30
0.0
 11
-153.6505326395304
 21
-182.2905165080843
 31
0.0
  0
LINE
  5
105
330
47
100
AcDbEntity
  8
0
  6
Continuous
 62
     7
100
AcDbLine
 10
-153.1487540465126
 20
-182.8943609779914
 30
0.0
 11
-152.7512540438926
 21
-182.5501158777125
 31
0.0
  0
LINE
  5
106
330
47
100
AcDbEntity
  8
0
  6
Continuous
 62
     7
100
AcDbLine
 10
-152.7512540438926
 20
-182.5501158777125
 30
0.0
 11
-151.7336739092596
 21
-181.8262858254051
 31
0.0
  0
LINE
  5
107
330
47
100
AcDbEntity
  8
0
  6
Continuous
 62
     7
100
AcDbLine
 10
-152.9577123164985
 20
-182.4905165080812
 30
0.0
 11
-152.5409698869608
 21
-182.1296069772794
 31
0.0
  0
LINE
  5
108
330
47
100
AcDbEntity
  8
0
  6
Continuous
 62
     7
100
AcDbLine
 10
-153.1487540465126
 20
-182.8943609779914
 30
0.0
 11
-151.4383538738593
 21
-181.6777108053838
 31
0.0
  0
LINE
  5
109
330
47
100
AcDbEntity
  8
0
  6
Continuous
 62
     7
100
AcDbLine
 10
-162.367344723371
 20
-185.3285512713217
 30
0.0
 11
-162.3386048467677
 21
-185.1027802477268
 31
0.0
  0
LINE
  5
10A
330
47
100
AcDbEntity
  8
0
  6
Continuous
 62
     7
100
AcDbLine
 10
-160.9646334099226
 20
-184.1137676396808
 30
0.0
 11
-162.367344723371
 21
-185.3285512713217
 31
0.0
  0
LINE
  5
10B
330
47
100
AcDbEntity
  8
0
  6
Continuous
 62
     7
100
AcDbLine
 10
-157.1108202841071
 20
-181.7506109735965
 30
0.0
 11
-153.1487540465126
 21
-182.8943609779914
 31
0.0
  0
LINE
  5
10C
330
47
100
AcDbEntity
  8
0
  6
Continuous
 62
     7
100
AcDbLine
 10
-162.3386048467677
 20
-185.1027802477268
 30
0.0
 11
-160.9646334099217
 21
-183.9128860793149
 31
0.0
  0
LINE
  5
10D
330
47
100
AcDbEntity
  8
0
  6
Continuous
 62
     7
100
AcDbLine
 10
-155.024570744994
 20
-181.8938658730601
 30
0.0
 11
-152.7512540438926
 21
-182.5501158777125
 31
0.0
  0
LINE
  5
10E
330
47
100
AcDbEntity
  8
0
  6
Continuous
 62
     7
100
AcDbLine
 10
-155.024570744994
 20
-181.8938658730601
 30
0.0
 11
-153.124570745006
 21
-180.248417605878
 31
0.0
  0
LINE
  5
10F
330
47
100
AcDbEntity
  8
0
  6
Continuous
 62
     7
100
AcDbLine
 10
-157.133896574438
 20
-178.7705955360955
 30
0.0
 11
-150.5737540465473
 21
-180.6643455632686
 31
0.0
  0
LINE
  5
110
330
47
100
AcDbEntity
  8
0
  6
Continuous
 62
     7
100
AcDbLine
 10
-162.3386048467677
 20
-185.1027802477268
 30
0.0
 11
-162.7832866798879
 21
-185.1631678990901
 31
0.0
  0
LINE
  5
111
330
47
100
AcDbEntity
  8
0
  6
Continuous
 62
     7
100
AcDbLine
 10
-162.1516756697787
 20
-179.869149803605
 30
0.0
 11
-161.7283988493805
 21
-180.310301259001
 31
0.0
  0
LINE
  5
112
330
47
100
AcDbEntity
  8
0
  6
Continuous
 62
     7
100
AcDbLine
 10
-162.0976831479072
 20
-179.4450022995773
 30
0.0
 11
-162.1516756697787
 21
-179.869149803605
 31
0.0
  0
LINE
  5
113
330
47
100
AcDbEntity
  8
0
  6
Continuous
 62
     7
100
AcDbLine
 10
-161.7283988493805
 20
-180.310301259001
 30
0.0
 11
-161.6996589728023
 21
-180.0845302352483
 31
0.0
  0
LINE
  5
114
330
47
100
AcDbEntity
  8
0
  6
Continuous
 62
     7
100
AcDbLine
 10
-162.0976831479072
 20
-179.4450022995773
 30
0.0
 11
-160.5749219399608
 21
-179.8845855962168
 31
0.0
  0
LINE
  5
115
330
47
100
AcDbEntity
  8
0
  6
Continuous
 62
     7
100
AcDbLine
 10
-161.6996589728023
 20
-180.0845302352483
 30
0.0
 11
-160.9646334099066
 21
-180.386963629506
 31
0.0
  0
LINE
  5
116
330
47
100
AcDbEntity
  8
0
  6
Continuous
 62
     7
100
AcDbLine
 10
-160.9646334099302
 20
-185.9057104411556
 30
0.0
 11
-162.367344723371
 21
-185.3285512713217
 31
0.0
  0
LINE
  5
117
330
47
100
AcDbEntity
  8
0
  6
Continuous
 62
     7
100
AcDbLine
 10
-160.9646334099203
 20
-183.5881679666212
 30
0.0
 11
-162.7832866798879
 21
-185.1631678990901
 31
0.0
  0
LINE
  5
118
330
47
100
AcDbEntity
  8
0
  6
Continuous
 62
     7
100
AcDbLine
 10
-162.0976831479072
 20
-179.4450022995773
 30
0.0
 11
-159.5226831479374
 21
-177.2149868848557
 31
0.0
  0
LINE
  5
119
330
47
100
AcDbEntity
  8
0
  6
Continuous
 62
     7
100
AcDbLine
 10
-159.0459799814188
 20
-215.0247042589048
 30
0.0
 11
-159.4789926832859
 21
-213.6006661532946
 31
0.0
  0
LINE
  5
11A
330
47
100
AcDbEntity
  8
0
  6
Continuous
 62
     7
100
AcDbLine
 10
-159.6825180870227
 20
-202.3149265738385
 30
0.0
 11
-159.6825180870231
 21
-208.446797304357
 31
0.0
  0
LINE
  5
11B
330
47
100
AcDbEntity
  8
0
  6
Continuous
 62
     7
100
AcDbLine
 10
-159.4789926832495
 20
-205.3734248174951
 30
0.0
 11
-159.5222939534868
 21
-205.1153511108122
 31
0.0
  0
LINE
  5
11C
330
47
100
AcDbEntity
  8
0
  6
Continuous
 62
     7
100
AcDbLine
 10
-159.4789926832859
 20
-213.6006661532946
 30
0.0
 11
-159.4789926832495
 21
-205.3734248174951
 31
0.0
  0
LINE
  5
11D
330
47
100
AcDbEntity
  8
0
  6
Continuous
 62
     7
100
AcDbLine
 10
-159.6825180870231
 20
-208.446797304357
 30
0.0
 11
-159.4789926832623
 21
-208.2705391343798
 31
0.0
  0
LINE
  5
11E
330
47
100
AcDbEntity
  8
0
  6
Continuous
 62
     7
100
AcDbLine
 10
-159.5222939534868
 20
-205.1153511108122
 30
0.0
 11
-159.5222939534773
 21
-202.9591439041542
 31
0.0
  0
LINE
  5
11F
330
47
100
AcDbEntity
  8
0
  6
Continuous
 62
     7
100
AcDbLine
 10
-159.5222939534773
 20
-202.9591439041542
 30
0.0
 11
-159.7025190660867
 21
-202.2345081184461
 31
0.0
  0
LINE
  5
120
330
47
100
AcDbEntity
  8
0
  6
Continuous
 62
     7
100
AcDbLine
 10
-151.2052123163635
 20
-214.8344002758885
 30
0.0
 11
-153.3302123163372
 21
-216.67470425891
 31
0.0
  0
LINE
  5
121
330
47
100
AcDbEntity
  8
0
  6
Continuous
 62
     7
100
AcDbLine
 10
-152.8971996144377
 20
-215.5006661532276
 30
0.0
 11
-153.3302123163372
 21
-216.67470425891
 31
0.0
  0
LINE
  5
122
330
47
100
AcDbEntity
  8
0
  6
Continuous
 62
     7
100
AcDbLine
 10
-152.8971996144377
 20
-215.5006661532276
 30
0.0
 11
-152.8971996144005
 21
-207.2734248169671
 31
0.0
  0
LINE
  5
123
330
47
100
AcDbEntity
  8
0
  6
Continuous
 62
     7
100
AcDbLine
 10
-152.8538983442628
 20
-204.8841439047452
 30
0.0
 11
-152.8538983442719
 21
-207.0403511109083
 31
0.0
  0
LINE
  5
124
330
47
100
AcDbEntity
  8
0
  6
Continuous
 62
     7
100
AcDbLine
 10
-152.8538983442719
 20
-207.0403511109083
 30
0.0
 11
-152.8971996144005
 21
-207.2734248169671
 31
0.0
  0
LINE
  5
125
330
47
100
AcDbEntity
  8
0
  6
Continuous
 62
     7
100
AcDbLine
 10
-152.6736732314874
 20
-204.2635611357646
 30
0.0
 11
-152.8538983442628
 21
-204.8841439047452
 31
0.0
  0
LINE
  5
126
330
47
100
AcDbEntity
  8
0
  6
Continuous
 62
     7
100
AcDbLine
 10
-152.7073926545925
 20
-204.1219347431009
 30
0.0
 11
-152.6736732314874
 21
-204.2635611357646
 31
0.0
  0
LINE
  5
127
330
47
100
AcDbEntity
  8
0
  6
Continuous
 62
     7
100
AcDbLine
 10
-152.7073926545925
 20
-204.1219347431009
 30
0.0
 11
-152.5300198880557
 21
-203.5111736737693
 31
0.0
  0
LINE
  5
128
330
47
100
AcDbEntity
  8
0
  6
Continuous
 62
     7
100
AcDbLine
 10
-152.5300198880557
 20
-203.5111736737693
 30
0.0
 11
-149.3165916511442
 21
-204.4388105025565
 31
0.0
  0
LINE
  5
129
330
47
100
AcDbEntity
  8
0
  6
Continuous
 62
     7
100
AcDbLine
 10
-151.5839016315437
 20
-203.7842944888064
 30
0.0
 11
-152.8538983442628
 21
-204.8841439047452
 31
0.0
  0
LINE
  5
12A
330
47
100
AcDbEntity
  8
0
  6
Continuous
 62
     7
100
AcDbLine
 10
-150.7288983442972
 20
-205.200047127886
 30
0.0
 11
-150.7288983442921
 21
-204.031112677829
 31
0.0
  0
LINE
  5
12B
330
47
100
AcDbEntity
  8
0
  6
Continuous
 62
     7
100
AcDbLine
 10
-150.7721996144258
 20
-205.4331208339448
 30
0.0
 11
-150.7721996144638
 21
-213.660362170206
 31
0.0
  0
LINE
  5
12C
330
47
100
AcDbEntity
  8
0
  6
Continuous
 62
     7
100
AcDbLine
 10
-151.2052123163635
 20
-214.8344002758885
 30
0.0
 11
-150.7721996144638
 21
-213.660362170206
 31
0.0
  0
LINE
  5
12D
330
47
100
AcDbEntity
  8
0
  6
Continuous
 62
     7
100
AcDbLine
 10
-150.7721996144258
 20
-205.4331208339448
 30
0.0
 11
-150.7288983442972
 21
-205.200047127886
 31
0.0
  0
LINE
  5
12E
330
47
100
AcDbEntity
  8
0
  6
Continuous
 62
     7
100
AcDbLine
 10
-152.8971996144377
 20
-215.5006661532276
 30
0.0
 11
-150.7721996144638
 21
-213.660362170206
 31
0.0
  0
LINE
  5
12F
330
47
100
AcDbEntity
  8
0
  6
Continuous
 62
     7
100
AcDbLine
 10
-150.7721996144258
 20
-205.4331208339448
 30
0.0
 11
-152.8971996144005
 21
-207.2734248169671
 31
0.0
  0
LINE
  5
130
330
47
100
AcDbEntity
  8
0
  6
Continuous
 62
     7
100
AcDbLine
 10
-150.7288983442972
 20
-205.200047127886
 30
0.0
 11
-152.8538983442719
 21
-207.0403511109083
 31
0.0
  0
LINE
  5
131
330
47
100
AcDbEntity
  8
0
  6
Continuous
 62
     7
100
AcDbLine
 10
-153.3302123163372
 20
-216.67470425891
 30
0.0
 11
-159.0459799814188
 21
-215.0247042589048
 31
0.0
  0
LINE
  5
132
330
47
100
AcDbEntity
  8
0
  6
Continuous
 62
     7
100
AcDbLine
 10
-152.6736732314874
 20
-204.2635611357646
 30
0.0
 11
-159.7025190660867
 21
-202.2345081184461
 31
0.0
  0
LINE
  5
133
330
47
100
AcDbEntity
  8
0
  6
Continuous
 62
     7
100
AcDbLine
 10
-159.8687996483917
 20
-202.0546146153099
 30
0.0
 11
-152.7073926545925
 21
-204.1219347431009
 31
0.0
  0
SPLINE
  5
134
330
47
100
AcDbEntity
  8
0
  6
Continuous
 62
     7
100
AcDbSpline
210
0.0
220
0.0
230
1.0
 70
     8
 71
     3
 72
    13
 73
     9
 74
     7
 42
0.000000001
 43
0.0000000001
 44
0.00000001
 40
0.0
 40
0.0
 40
0.0
 40
0.0
 40
0.1397055924370296
 40
0.2622264612249883
 40
0.3929110093001572
 40
0.5310113462419487
 40
0.7863739635210447
 40
1.088682785341001
 40
1.088682785341001
 40
1.088682785341001
 40
1.088682785341001
 10
-158.4964609312873
 20
-186.8931735943333
 30
0.0
 10
-158.5406729610184
 20
-186.8782589975912
 30
0.0
 10
-158.6236586398406
 20
-186.8502643865008
 30
0.0
 10
-158.7387531946648
 20
-186.7866058300974
 30
0.0
 10
-158.8451511941829
 20
-186.7107015356633
 30
0.0
 10
-158.9740060642747
 20
-186.5922314431752
 30
0.0
 10
-159.1213490645732
 20
-186.4108729567315
 30
0.0
 10
-159.2069526131439
 20
-186.2454160350786
 30
0.0
 10
-159.2533575435306
 20
-186.1557232776765
 30
0.0
 11
-158.4964609312873
 21
-186.8931735943333
 31
0.0
 11
-158.6273450827588
 21
-186.8443167409492
 31
0.0
 11
-158.7351154917221
 21
-186.7860337867482
 31
0.0
 11
-158.8414784662961
 21
-186.7101037585824
 31
0.0
 11
-158.9435273430818
 21
-186.617056834168
 31
0.0
 11
-159.104593948442
 21
-186.4188962540384
 31
0.0
 11
-159.2533575435306
 21
-186.1557232776765
 31
0.0
  0
SPLINE
  5
135
330
47
100
AcDbEntity
  8
0
  6
Continuous
 62
     7
100
AcDbSpline
210
0.0
220
0.0
230
1.0
 70
     8
 71
     3
 72
     9
 73
     5
 74
     3
 42
0.000000001
 43
0.0000000001
 44
0.00000001
 40
0.0
 40
0.0
 40
0.0
 40
0.0
 40
0.1173730638400023
 40
0.239500502124669
 40
0.239500502124669
 40
0.239500502124669
 40
0.239500502124669
 10
-157.7405432964953
 20
-187.078526172306
 30
0.0
 10
-157.7797415753132
 20
-187.0767748911588
 30
0.0
 10
-157.8597259166299
 20
-187.0732013707553
 30
0.0
 10
-157.9372925012967
 20
-187.053314452855
 30
0.0
 10
-157.9768456870379
 20
-187.0431735942315
 30
0.0
 11
-157.7405432964953
 21
-187.078526172306
 31
0.0
 11
-157.8575574525878
 21
-187.0693542831441
 31
0.0
 11
-157.9768456870379
 21
-187.0431735942315
 31
0.0
  0
SPLINE
  5
136
330
47
100
AcDbEntity
  8
0
  6
Continuous
 62
     7
100
AcDbSpline
210
0.0
220
0.0
230
1.0
 70
     8
 71
     3
 72
    13
 73
     9
 74
     7
 42
0.000000001
 43
0.0000000001
 44
0.00000001
 40
0.0
 40
0.0
 40
0.0
 40
0.0
 40
0.1807125894715741
 40
0.3510438770480186
 40
0.5144138453613112
 40
0.6760117358197795
 40
0.8415130741346001
 40
1.015542183011924
 40
1.015542183011924
 40
1.015542183011924
 40
1.015542183011924
 10
-157.110820281262
 20
-186.4271481897938
 30
0.0
 10
-157.1144463204759
 20
-186.4875544208459
 30
0.0
 10
-157.1214901097824
 20
-186.6048967560863
 30
0.0
 10
-157.1826721424549
 20
-186.7678642126999
 30
0.0
 10
-157.2797073244027
 20
-186.9039789769098
 30
0.0
 10
-157.4110680907099
 20
-187.0047824811583
 30
0.0
 10
-157.5687463767376
 20
-187.06819759081
 30
0.0
 10
-157.6823267473365
 20
-187.0750261470618
 30
0.0
 10
-157.7405432964953
 20
-187.078526172306
 30
0.0
 11
-157.110820281262
 21
-186.4271481897938
 31
0.0
 11
-157.1308961341186
 21
-186.6067421785822
 31
0.0
 11
-157.1901926233566
 21
-186.7664189603689
 31
0.0
 11
-157.2859608540387
 21
-186.89877527191
 31
0.0
 11
-157.4137604812584
 21
-186.9976748885209
 31
0.0
 11
-157.5676665321136
 21
-187.0585322735858
 31
0.0
 11
-157.7405432964953
 21
-187.078526172306
 31
0.0
  0
SPLINE
  5
137
330
47
100
AcDbEntity
  8
0
  6
Continuous
 62
     7
100
AcDbSpline
210
0.0
220
0.0
230
1.0
 70
     8
 71
     3
 72
     9
 73
     5
 74
     3
 42
0.000000001
 43
0.0000000001
 44
0.00000001
 40
0.0
 40
0.0
 40
0.0
 40
0.0
 40
0.0493027802808118
 40
0.0992512682190009
 40
0.0992512682190009
 40
0.0992512682190009
 40
0.0992512682190009
 10
-146.6642648129986
 20
-189.5279624948412
 30
0.0
 10
-146.6522831720262
 20
-189.5166040058872
 30
0.0
 10
-146.6281629840143
 20
-189.4937382551421
 30
0.0
 10
-146.6106790384619
 20
-189.4654699606367
 30
0.0
 10
-146.6018802002859
 20
-189.4512438536494
 30
0.0
 11
-146.6642648129986
 21
-189.5279624948412
 31
0.0
 11
-146.6299574409198
 21
-189.4925539019649
 31
0.0
 11
-146.6018802002859
 21
-189.4512438536494
 31
0.0
  0
SPLINE
  5
138
330
47
100
AcDbEntity
  8
0
  6
Continuous
 62
     7
100
AcDbSpline
210
0.0
220
0.0
230
1.0
 70
     8
 71
     3
 72
    11
 73
     7
 74
     5
 42
0.000000001
 43
0.0000000001
 44
0.00000001
 40
0.0
 40
0.0
 40
0.0
 40
0.0
 40
0.0573964129005047
 40
0.1144686224091354
 40
0.1693152016758795
 40
0.2285380764017494
 40
0.2285380764017494
 40
0.2285380764017494
 40
0.2285380764017494
 10
-157.9768456870379
 20
-187.0431735942315
 30
0.0
 10
-157.958364159663
 20
-187.0481484509836
 30
0.0
 10
-157.9215054941146
 20
-187.058070049531
 30
0.0
 10
-157.8659448092254
 20
-187.068263645001
 30
0.0
 10
-157.8093223357402
 20
-187.0755729395101
 30
0.0
 10
-157.7713274969779
 20
-187.0773896510085
 30
0.0
 10
-157.7516012376255
 20
-187.0783328484158
 30
0.0
 11
-157.9768456870379
 21
-187.0431735942315
 31
0.0
 11
-157.9212240682859
 21
-187.0573363545165
 31
0.0
 11
-157.865135831658
 21
-187.0678884578212
 31
0.0
 11
-157.8107113366578
 21
-187.0746797513111
 31
0.0
 11
-157.7516012376255
 21
-187.0783328484158
 31
0.0
  0
SPLINE
  5
139
330
47
100
AcDbEntity
  8
0
  6
Continuous
 62
     7
100
AcDbSpline
210
0.0
220
0.0
230
1.0
 70
     8
 71
     3
 72
    11
 73
     7
 74
     5
 42
0.000000001
 43
0.0000000001
 44
0.00000001
 40
0.0
 40
0.0
 40
0.0
 40
0.0
 40
0.002687114953445
 40
0.0054138474627134
 40
0.0082581918757339
 40
0.0110598915056622
 40
0.0110598915056622
 40
0.0110598915056622
 40
0.0110598915056622
 10
-157.7405432964953
 20
-187.078526172306
 30
0.0
 10
-157.7414389837842
 20
-187.0785200606808
 30
0.0
 10
-157.7432435638243
 20
-187.0785077322798
 30
0.0
 10
-157.7459960194231
 20
-187.0784672690341
 30
0.0
 10
-157.7487864093239
 20
-187.0784114075072
 30
0.0
 10
-157.7506676981372
 20
-187.0783589075974
 30
0.0
 10
-157.7516012376255
 20
-187.0783328484158
 30
0.0
 11
-157.7405432964953
 21
-187.078526172306
 31
0.0
 11
-157.7432303227446
 21
-187.0785043347036
 31
0.0
 11
-157.7459567786198
 21
-187.078465490376
 31
0.0
 11
-157.7488005292102
 21
-187.0784073691149
 31
0.0
 11
-157.7516012376255
 21
-187.0783328484158
 31
0.0
  0
SPLINE
  5
13A
330
47
100
AcDbEntity
  8
0
  6
Continuous
 62
     7
100
AcDbSpline
210
0.0
220
0.0
230
1.0
 70
     8
 71
     3
 72
    13
 73
     9
 74
     7
 42
0.000000001
 43
0.0000000001
 44
0.00000001
 40
0.0
 40
0.0
 40
0.0
 40
0.0
 40
0.0920947480490192
 40
0.1787904362512074
 40
0.2289926738852416
 40
0.2794045115538318
 40
0.3370789987973891
 40
0.3979237898061107
 40
0.3979237898061107
 40
0.3979237898061107
 40
0.3979237898061107
 10
-159.2533575435306
 20
-186.1557232776765
 30
0.0
 10
-159.266590585483
 20
-186.128024308334
 30
0.0
 10
-159.2922808685827
 20
-186.0742502172628
 30
0.0
 10
-159.3217135265254
 20
-186.003727616409
 30
0.0
 10
-159.3408207281769
 20
-185.9442241641931
 30
0.0
 10
-159.3529175886988
 20
-185.8928195093364
 30
0.0
 10
-159.3610367612891
 20
-185.8369634858287
 30
0.0
 10
-159.3619946070695
 20
-185.7974390404129
 30
0.0
 10
-159.3624863334625
 20
-185.7771481924091
 30
0.0
 11
-159.2533575435306
 21
-186.1557232776765
 31
0.0
 11
-159.2923375838846
 21
-186.0722846845273
 31
0.0
 11
-159.324947907416
 21
-185.991955926687
 31
0.0
 11
-159.3401584636333
 21
-185.9441134381302
 31
0.0
 11
-159.3516957394839
 21
-185.895039568072
 31
0.0
 11
-159.3597623191472
 21
-185.8379319774794
 31
0.0
 11
-159.3624863334625
 21
-185.7771481924091
 31
0.0
  0
SPLINE
  5
13B
330
47
100
AcDbEntity
  8
0
  6
Continuous
 62
     7
100
AcDbSpline
210
0.0
220
0.0
230
1.0
 70
     8
 71
     3
 72
    13
 73
     9
 74
     7
 42
0.000000001
 43
0.0000000001
 44
0.00000001
 40
0.0
 40
0.0
 40
0.0
 40
0.0
 40
0.2345263294302624
 40
0.4838614786128496
 40
0.7425920327339675
 40
1.003444235767846
 40
1.258747549892527
 40
1.501886885940166
 40
1.501886885940166
 40
1.501886885940166
 40
1.501886885940166
 10
-159.3624863334625
 20
-185.7771481924091
 30
0.0
 10
-159.3563375849322
 20
-185.8554489177596
 30
0.0
 10
-159.3436518195103
 20
-186.0169945505873
 30
0.0
 10
-159.2519117463228
 20
-186.2502903798056
 30
0.0
 10
-159.1153727882377
 20
-186.4687058834022
 30
0.0
 10
-158.9361759455341
 20
-186.6565826939755
 30
0.0
 10
-158.7293720781498
 20
-186.8073887599841
 30
0.0
 10
-158.5728245216357
 20
-186.8650476895293
 30
0.0
 10
-158.4964609312873
 20
-186.8931735943333
 30
0.0
 11
-159.3624863334625
 21
-185.7771481924091
 31
0.0
 11
-159.3329770104544
 21
-186.0098106080895
 31
0.0
 11
-159.2464609299033
 21
-186.2436545425327
 31
0.0
 11
-159.1088332025988
 21
-186.4627438154757
 31
0.0
 11
-158.9294736323933
 21
-186.6521481908944
 31
0.0
 11
-158.7206047391692
 21
-186.7989595273611
 31
0.0
 11
-158.4964609312873
 21
-186.8931735943333
 31
0.0
  0
SPLINE
  5
13C
330
47
100
AcDbEntity
  8
0
  6
Continuous
 62
     7
100
AcDbSpline
210
0.0
220
0.0
230
1.0
 70
     8
 71
     3
 72
    11
 73
     7
 74
     5
 42
0.000000001
 43
0.0000000001
 44
0.00000001
 40
0.0
 40
0.0
 40
0.0
 40
0.0
 40
0.3795904029767268
 40
0.8167300015383462
 40
1.348076582715302
 40
1.978699196384657
 40
1.978699196384657
 40
1.978699196384657
 40
1.978699196384657
 10
-159.3749218984595
 20
-178.8453551615641
 30
0.0
 10
-159.2650932260993
 20
-178.7776593284611
 30
0.0
 10
-159.0287848963437
 20
-178.6320044003832
 30
0.0
 10
-158.5596791147713
 20
-178.6511176226492
 30
0.0
 10
-158.0486143458881
 20
-178.8076326997705
 30
0.0
 10
-157.7151788856521
 20
-179.0083501745791
 30
0.0
 10
-157.5342171705781
 20
-179.1172833420055
 30
0.0
 11
-159.3749218984595
 21
-178.8453551615641
 31
0.0
 11
-159.0350893003055
 21
-178.676231886311
 31
0.0
 11
-158.5980626193549
 21
-178.6662963612719
 31
0.0
 11
-158.0882721003963
 21
-178.8161056392697
 31
0.0
 11
-157.5342171705781
 21
-179.1172833420055
 31
0.0
  0
SPLINE
  5
13D
330
47
100
AcDbEntity
  8
0
  6
Continuous
 62
     7
100
AcDbSpline
210
0.0
220
0.0
230
1.0
 70
     8
 71
     3
 72
     9
 73
     5
 74
     3
 42
0.000000001
 43
0.0000000001
 44
0.00000001
 40
0.0
 40
0.0
 40
0.0
 40
0.0
 40
0.0493027802751711
 40
0.0992512682032256
 40
0.0992512682032256
 40
0.0992512682032256
 40
0.0992512682032256
 10
-148.6892648129776
 20
-191.2816639375111
 30
0.0
 10
-148.6772831720061
 20
-191.2703054485586
 30
0.0
 10
-148.6531629839969
 20
-191.2474396978177
 30
0.0
 10
-148.6356790384576
 20
-191.2191714033098
 30
0.0
 10
-148.6268802002886
 20
-191.2049452963218
 30
0.0
 11
-148.6892648129776
 21
-191.2816639375111
 31
0.0
 11
-148.654957440904
 21
-191.2462553446376
 31
0.0
 11
-148.6268802002886
 21
-191.2049452963218
 31
0.0
  0
SPLINE
  5
13E
330
47
100
AcDbEntity
  8
0
  6
Continuous
 62
     7
100
AcDbSpline
210
0.0
220
0.0
230
1.0
 70
     8
 71
     3
 72
    15
 73
    11
 74
     9
 42
0.000000001
 43
0.0000000001
 44
0.00000001
 40
0.0
 40
0.0
 40
0.0
 40
0.0
 40
0.1365579681584161
 40
0.2825721232367603
 40
0.4334129693681915
 40
0.5831949397646035
 40
0.7262993389854422
 40
0.8589055648197143
 40
0.980499735225872
 40
1.094872761447137
 40
1.094872761447137
 40
1.094872761447137
 40
1.094872761447137
 10
-149.4496043502279
 20
-190.778699464503
 30
0.0
 10
-149.4454323148269
 20
-190.8243025778898
 30
0.0
 10
-149.4367993296318
 20
-190.9186666670226
 30
0.0
 10
-149.3757974308618
 20
-191.0522866456564
 30
0.0
 10
-149.2867130358544
 20
-191.1726296690961
 30
0.0
 10
-149.1729714839101
 20
-191.2692972944694
 30
0.0
 10
-149.0450102689935
 20
-191.3342865958959
 30
0.0
 10
-148.91397877749
 20
-191.3603941894825
 30
0.0
 10
-148.7874762646271
 20
-191.3476367310658
 30
0.0
 10
-148.7213271896723
 20
-191.3032015998982
 30
0.0
 10
-148.6892648129776
 20
-191.2816639375111
 30
0.0
 11
-149.4496043502279
 21
-190.778699464503
 31
0.0
 11
-149.4298159392305
 21
-190.9138160703009
 31
0.0
 11
-149.3722603631759
 21
-191.0480080559122
 31
0.0
 11
-149.2821971092742
 21
-191.169010415885
 31
0.0
 11
-149.1678585029684
 21
-191.2657643405335
 31
0.0
 11
-149.0396942944261
 21
-191.3294259861632
 31
0.0
 11
-148.9094185898574
 21
-191.35417780929
 31
0.0
 11
-148.7889383694386
 21
-191.3377564723991
 31
0.0
 11
-148.6892648129776
 21
-191.2816639375111
 31
0.0
  0
SPLINE
  5
13F
330
47
100
AcDbEntity
  8
0
  6
Continuous
 62
     7
100
AcDbSpline
210
0.0
220
0.0
230
1.0
 70
     8
 71
     3
 72
    13
 73
     9
 74
     7
 42
0.000000001
 43
0.0000000001
 44
0.00000001
 40
0.0
 40
0.0
 40
0.0
 40
0.0
 40
0.1215696679308212
 40
0.2492213243648467
 40
0.3796474251297413
 40
0.5090127012544444
 40
0.6336802748119813
 40
0.7509434390753353
 40
0.7509434390753353
 40
0.7509434390753353
 40
0.7509434390753353
 10
-149.8826170521178
 20
-189.9550539622953
 30
0.0
 10
-149.84443525697
 20
-189.969116914679
 30
0.0
 10
-149.766161481811
 20
-189.997946386176
 30
0.0
 10
-149.6627595472684
 20
-190.0733494160409
 30
0.0
 10
-149.5731611270805
 20
-190.1672878216434
 30
0.0
 10
-149.5048916475989
 20
-190.2764955723779
 30
0.0
 10
-149.4590216144981
 20
-190.3931434866878
 30
0.0
 10
-149.4526787244804
 20
-190.4739163016635
 30
0.0
 10
-149.4496043502264
 20
-190.5130666641879
 30
0.0
 11
-149.8826170521178
 21
-189.9550539622953
 31
0.0
 11
-149.7705451479755
 21
-190.0021609958414
 31
0.0
 11
-149.6661107011712
 21
-190.075566664188
 31
0.0
 11
-149.5764309159005
 21
-190.1702688520547
 31
0.0
 11
-149.5076170521177
 21
-190.279813488715
 31
0.0
 11
-149.4643590117592
 21
-190.396735456142
 31
0.0
 11
-149.4496043502264
 21
-190.5130666641879
 31
0.0
  0
SPLINE
  5
140
330
47
100
AcDbEntity
  8
0
  6
Continuous
 62
     7
100
AcDbSpline
210
0.0
220
0.0
230
1.0
 70
     8
 71
     3
 72
    11
 73
     7
 74
     5
 42
0.000000001
 43
0.0000000001
 44
0.00000001
 40
0.0
 40
0.0
 40
0.0
 40
0.0
 40
0.0805526799823067
 40
0.1638036380556968
 40
0.25175117924381
 40
0.345321774456291
 40
0.345321774456291
 40
0.345321774456291
 40
0.345321774456291
 10
-150.3097577057439
 20
-189.981288423757
 30
0.0
 10
-150.2879013839207
 20
-189.9653634909438
 30
0.0
 10
-150.2434566099162
 20
-189.932980199374
 30
0.0
 10
-150.1612193743982
 20
-189.91001558491
 30
0.0
 10
-150.0721870987903
 20
-189.9055420958354
 30
0.0
 10
-150.0129611776417
 20
-189.9191997945557
 30
0.0
 10
-149.9824308703849
 20
-189.9262401948724
 30
0.0
 11
-150.3097577057439
 21
-189.981288423757
 31
0.0
 11
-150.2419969084972
 21
-189.9377314618844
 31
0.0
 11
-150.1623647981812
 21
-189.9134528807868
 31
0.0
 11
-150.0745033115285
 21
-189.9095632065914
 31
0.0
 11
-149.9824308703849
 21
-189.9262401948724
 31
0.0
  0
SPLINE
  5
141
330
47
100
AcDbEntity
  8
0
  6
Continuous
 62
     7
100
AcDbSpline
210
0.0
220
0.0
230
1.0
 70
     8
 71
     3
 72
    11
 73
     7
 74
     5
 42
0.000000001
 43
0.0000000001
 44
0.00000001
 40
0.0
 40
0.0
 40
0.0
 40
0.0
 40
0.1178404089711206
 40
0.2274800367389965
 40
0.3295390373642941
 40
0.42696914433321
 40
0.42696914433321
 40
0.42696914433321
 40
0.42696914433321
 10
-150.3932227885184
 20
-190.3775981238827
 30
0.0
 10
-150.40242759552
 20
-190.3391830555178
 30
0.0
 10
-150.4201966118567
 20
-190.2650263081833
 30
0.0
 10
-150.4122003918865
 20
-190.154131964207
 30
0.0
 10
-150.3782277265846
 20
-190.0541473314246
 30
0.0
 10
-150.3322252398268
 20
-190.0051961061648
 30
0.0
 10
-150.3097577057439
 20
-189.981288423757
 30
0.0
 11
-150.3932227885184
 21
-190.3775981238827
 31
0.0
 11
-150.4145876538144
 21
-190.2617106589216
 31
0.0
 11
-150.4071539603327
 21
-190.1523233253423
 31
0.0
 11
-150.3714166738181
 21
-190.0567258009696
 31
0.0
 11
-150.3097577057439
 21
-189.981288423757
 31
0.0
  0
SPLINE
  5
142
330
47
100
AcDbEntity
  8
0
  6
Continuous
 62
     7
100
AcDbSpline
210
0.0
220
0.0
230
1.0
 70
     8
 71
     3
 72
     9
 73
     5
 74
     3
 42
0.000000001
 43
0.0000000001
 44
0.00000001
 40
0.0
 40
0.0
 40
0.0
 40
0.0
 40
0.4327327326581844
 40
0.9573670110267476
 40
0.9573670110267476
 40
0.9573670110267476
 40
0.9573670110267476
 10
-159.3749218984595
 20
-178.8453551615641
 30
0.0
 10
-159.4678225862198
 20
-178.9603723258644
 30
0.0
 10
-159.6733537135596
 20
-179.214833415886
 30
0.0
 10
-159.6882808907464
 20
-179.543634248165
 30
0.0
 10
-159.6964609293474
 20
-179.7238161305868
 30
0.0
 11
-159.3749218984595
 21
-178.8453551615641
 31
0.0
 11
-159.6146822943972
 21
-179.2055947655822
 31
0.0
 11
-159.6964609293474
 21
-179.7238161305868
 31
0.0
  0
SPLINE
  5
143
330
47
100
AcDbEntity
  8
0
  6
Continuous
 62
     7
100
AcDbSpline
210
0.0
220
0.0
230
1.0
 70
     8
 71
     3
 72
     9
 73
     5
 74
     3
 42
0.000000001
 43
0.0000000001
 44
0.00000001
 40
0.0
 40
0.0
 40
0.0
 40
0.0
 40
0.5147653420940632
 40
1.106270653216951
 40
1.106270653216951
 40
1.106270653216951
 40
1.106270653216951
 10
-159.6964609293474
 20
-179.7238161305868
 30
0.0
 10
-159.6850801516802
 20
-179.8957156160821
 30
0.0
 10
-159.6606219578236
 20
-180.2651409427525
 30
0.0
 10
-159.545258819264
 20
-180.6172242495406
 30
0.0
 10
-159.4835759747618
 20
-180.8054775876264
 30
0.0
 11
-159.6964609293474
 21
-179.7238161305868
 31
0.0
 11
-159.6426359489925
 21
-180.2357597112403
 31
0.0
 11
-159.4835759747618
 21
-180.8054775876264
 31
0.0
  0
SPLINE
  5
144
330
47
100
AcDbEntity
  8
0
  6
Continuous
 62
     7
100
AcDbSpline
210
0.0
220
0.0
230
1.0
 70
     8
 71
     3
 72
    11
 73
     7
 74
     5
 42
0.000000001
 43
0.0000000001
 44
0.00000001
 40
0.0
 40
0.0
 40
0.0
 40
0.0
 40
0.5323832905898985
 40
0.987615105804797
 40
1.363444022339023
 40
1.684612826119387
 40
1.684612826119387
 40
1.684612826119387
 40
1.684612826119387
 10
-155.5768456870829
 20
-179.4221500027888
 30
0.0
 10
-155.407690830118
 20
-179.4786490856632
 30
0.0
 10
-155.0938945623577
 20
-179.5834595748251
 30
0.0
 10
-154.7101365957614
 20
-179.8288992896602
 30
0.0
 10
-154.4347931264815
 20
-180.1203562295011
 30
0.0
 10
-154.3951245292546
 20
-180.3538083449695
 30
0.0
 10
-154.3768456870527
 20
-180.4613804873021
 30
0.0
 11
-155.5768456870829
 21
-179.4221500027888
 31
0.0
 11
-155.0797898646595
 21
-179.6128525761011
 31
0.0
 11
-154.6983847179735
 21
-179.8613804872991
 31
0.0
 11
-154.4586243220112
 21
-180.1507977159806
 31
0.0
 11
-154.3768456870527
 21
-180.4613804873021
 31
0.0
  0
SPLINE
  5
145
330
47
100
AcDbEntity
  8
0
  6
Continuous
 62
     7
100
AcDbSpline
210
0.0
220
0.0
230
1.0
 70
     8
 71
     3
 72
    11
 73
     7
 74
     5
 42
0.000000001
 43
0.0000000001
 44
0.00000001
 40
0.0
 40
0.0
 40
0.0
 40
0.0
 40
0.373254632338489
 40
0.7440536607454529
 40
1.105740906245278
 40
1.452062030419998
 40
1.452062030419998
 40
1.452062030419998
 40
1.452062030419998
 10
-157.5342171705781
 20
-179.1172833420055
 30
0.0
 10
-157.4097723643792
 20
-179.1138690524608
 30
0.0
 10
-157.1617014615295
 20
-179.1070629506211
 30
0.0
 10
-156.7936394458179
 20
-179.1338771889728
 30
0.0
 10
-156.4369682479389
 20
-179.1841469010627
 30
0.0
 10
-156.2083091483936
 20
-179.2432431587531
 30
0.0
 10
-156.0964609293517
 20
-179.272150002773
 30
0.0
 11
-157.5342171705781
 21
-179.1172833420055
 31
0.0
 11
-157.1609838586617
 21
-179.1132939057767
 31
0.0
 11
-156.7910284952546
 21
-179.138292888864
 31
0.0
 11
-156.4333023945573
 21
-179.1916754806334
 31
0.0
 11
-156.0964609293517
 21
-179.272150002773
 31
0.0
  0
SPLINE
  5
146
330
47
100
AcDbEntity
  8
0
  6
Continuous
 62
     7
100
AcDbSpline
210
0.0
220
0.0
230
1.0
 70
     8
 71
     3
 72
     9
 73
     5
 74
     3
 42
0.000000001
 43
0.0000000001
 44
0.00000001
 40
0.0
 40
0.0
 40
0.0
 40
0.0
 40
0.1474490086011362
 40
0.3058394186524568
 40
0.3058394186524568
 40
0.3058394186524568
 40
0.3058394186524568
 10
-159.4835759747618
 20
-180.8054775876264
 30
0.0
 10
-159.4493008702017
 20
-180.8408298446474
 30
0.0
 10
-159.3782072754967
 20
-180.9141576457633
 30
0.0
 10
-159.2959549835045
 20
-180.9747319847831
 30
0.0
 10
-159.2533575435322
 20
-181.0061026694545
 30
0.0
 11
-159.4835759747618
 21
-180.8054775876264
 31
0.0
 11
-159.3781570110034
 21
-180.9085700334261
 31
0.0
 11
-159.2533575435322
 21
-181.0061026694545
 31
0.0
  0
SPLINE
  5
147
330
47
100
AcDbEntity
  8
0
  6
Continuous
 62
     7
100
AcDbSpline
210
0.0
220
0.0
230
1.0
 70
     8
 71
     3
 72
     9
 73
     5
 74
     3
 42
0.000000001
 43
0.0000000001
 44
0.00000001
 40
0.0
 40
0.0
 40
0.0
 40
0.0
 40
0.1383664386964124
 40
0.3043173431704839
 40
0.3043173431704839
 40
0.3043173431704839
 40
0.3043173431704839
 10
-151.4371559988019
 20
-181.5694937822714
 30
0.0
 10
-151.4554403587458
 20
-181.5262585892073
 30
0.0
 10
-151.4956542300077
 20
-181.4311689288716
 30
0.0
 10
-151.5790028915763
 20
-181.369507113604
 30
0.0
 10
-151.624454747989
 20
-181.3358815839613
 30
0.0
 11
-151.4371559988019
 21
-181.5694937822714
 31
0.0
 11
-151.5009264358742
 21
-181.4466988181671
 31
0.0
 11
-151.624454747989
 21
-181.3358815839613
 31
0.0
  0
SPLINE
  5
148
330
47
100
AcDbEntity
  8
0
  6
Continuous
 62
     7
100
AcDbSpline
210
0.0
220
0.0
230
1.0
 70
     8
 71
     3
 72
    13
 73
     9
 74
     7
 42
0.000000001
 43
0.0000000001
 44
0.00000001
 40
0.0
 40
0.0
 40
0.0
 40
0.0
 40
0.2794780709255221
 40
0.5491926934560405
 40
0.7942608272681049
 40
1.00386645892244
 40
1.175085468456775
 40
1.318904477942372
 40
1.318904477942372
 40
1.318904477942372
 40
1.318904477942372
 10
-152.3172750710161
 20
-181.1358815839612
 30
0.0
 10
-152.4105901172885
 20
-181.134394422337
 30
0.0
 10
-152.593960287792
 20
-181.1314720567101
 30
0.0
 10
-152.8563932080295
 20
-181.174140082794
 30
0.0
 10
-153.0882568918299
 20
-181.247977500981
 30
0.0
 10
-153.2691900145891
 20
-181.3513439130149
 30
0.0
 10
-153.4007570236178
 20
-181.4791967245538
 30
0.0
 10
-153.4202319327426
 20
-181.5846180520381
 30
0.0
 10
-153.4291224789994
 20
-181.6327442806193
 30
0.0
 11
-152.3172750710161
 21
-181.1358815839612
 31
0.0
 11
-152.5967254202411
 21
-181.1398171948173
 31
0.0
 11
-152.8630769777299
 21
-181.1822768863978
 31
0.0
 11
-153.0955127084442
 21
-181.2599429743969
 31
0.0
 11
-153.2758675701367
 21
-181.3667448677284
 31
0.0
 11
-153.3900448488864
 21
-181.4943360143944
 31
0.0
 11
-153.4291224789994
 21
-181.6327442806193
 31
0.0
  0
SPLINE
  5
149
330
47
100
AcDbEntity
  8
0
  6
Continuous
 62
     7
100
AcDbSpline
210
0.0
220
0.0
230
1.0
 70
     8
 71
     3
 72
    13
 73
     9
 74
     7
 42
0.000000001
 43
0.0000000001
 44
0.00000001
 40
0.0
 40
0.0
 40
0.0
 40
0.0
 40
0.2210699391503078
 40
0.4381487561398678
 40
0.6435099933788958
 40
0.830533785680784
 40
0.9946267748687869
 40
1.134533550319224
 40
1.134533550319224
 40
1.134533550319224
 40
1.134533550319224
 10
-152.3172750710163
 20
-181.4822918706695
 30
0.0
 10
-152.3910227537271
 20
-181.4805054407202
 30
0.0
 10
-152.53718670317
 20
-181.4769648442507
 30
0.0
 10
-152.750859019538
 20
-181.5018418469208
 30
0.0
 10
-152.9495506968283
 20
-181.547229233909
 30
0.0
 10
-153.1226781873832
 20
-181.6142923535217
 30
0.0
 10
-153.2671514815088
 20
-181.6958535762262
 30
0.0
 10
-153.3356713671969
 20
-181.7712503257121
 30
0.0
 10
-153.3672055847326
 20
-181.8059494239735
 30
0.0
 11
-152.3172750710163
 21
-181.4822918706695
 31
0.0
 11
-152.538344954925
 21
-181.4821459519355
 31
0.0
 11
-152.7540769406374
 21
-181.5062897351989
 31
0.0
 11
-152.9539276952313
 21
-181.5535434510017
 31
0.0
 11
-153.1281302781152
 21
-181.6215975450317
 31
0.0
 11
-153.2681708299397
 21
-181.7071262282103
 31
0.0
 11
-153.3672055847326
 21
-181.8059494239735
 31
0.0
  0
SPLINE
  5
14A
330
47
100
AcDbEntity
  8
0
  6
Continuous
 62
     7
100
AcDbSpline
210
0.0
220
0.0
230
1.0
 70
     8
 71
     3
 72
     9
 73
     5
 74
     3
 42
0.000000001
 43
0.0000000001
 44
0.00000001
 40
0.0
 40
0.0
 40
0.0
 40
0.0
 40
0.1640893791903827
 40
0.3662417154225476
 40
0.3662417154225476
 40
0.3662417154225476
 40
0.3662417154225476
 10
-153.4291224789994
 20
-181.6327442806193
 30
0.0
 10
-153.4174897944763
 20
-181.687975948437
 30
0.0
 10
-153.3915260346121
 20
-181.8112510782178
 30
0.0
 10
-153.2898897916565
 20
-181.88751308294
 30
0.0
 10
-153.2337902099967
 20
-181.9296069772866
 30
0.0
 11
-153.4291224789994
 21
-181.6327442806193
 31
0.0
 11
-153.3790342244436
 21
-181.7890020545601
 31
0.0
 11
-153.2337902099967
 21
-181.9296069772866
 31
0.0
  0
SPLINE
  5
14B
330
47
100
AcDbEntity
  8
0
  6
Continuous
 62
     7
100
AcDbSpline
210
0.0
220
0.0
230
1.0
 70
     8
 71
     3
 72
     9
 73
     5
 74
     3
 42
0.000000001
 43
0.0000000001
 44
0.00000001
 40
0.0
 40
0.0
 40
0.0
 40
0.0
 40
0.3613048342193172
 40
0.7616468296480897
 40
0.7616468296480897
 40
0.7616468296480897
 40
0.7616468296480897
 10
-157.110820284122
 20
-185.009957062753
 30
0.0
 10
-157.2109015844927
 20
-185.0774915742121
 30
0.0
 10
-157.4218774517491
 20
-185.2198573756169
 30
0.0
 10
-157.6012016493569
 20
-185.4005890365804
 30
0.0
 10
-157.6954592488599
 20
-185.4955864513765
 30
0.0
 11
-157.110820284122
 21
-185.009957062753
 31
0.0
 11
-157.4039416073507
 21
-185.221194070805
 31
0.0
 11
-157.6954592488599
 21
-185.4955864513765
 31
0.0
  0
SPLINE
  5
14C
330
47
100
AcDbEntity
  8
0
  6
Continuous
 62
     7
100
AcDbSpline
210
0.0
220
0.0
230
1.0
 70
     8
 71
     3
 72
    11
 73
     7
 74
     5
 42
0.000000001
 43
0.0000000001
 44
0.00000001
 40
0.0
 40
0.0
 40
0.0
 40
0.0
 40
0.6602418094314857
 40
1.188926603807731
 40
1.589309891113283
 40
1.899968035851211
 40
1.899968035851211
 40
1.899968035851211
 40
1.899968035851211
 10
-157.6954592488599
 20
-185.4955864513765
 30
0.0
 10
-157.8421092360582
 20
-185.3300675298898
 30
0.0
 10
-158.1061883481884
 20
-185.0320102943638
 30
0.0
 10
-158.5225622449912
 20
-184.7103772480665
 30
0.0
 10
-158.9113806148715
 20
-184.5149088692116
 30
0.0
 10
-159.1493759814061
 20
-184.5619166791249
 30
0.0
 10
-159.2533575435279
 20
-184.5824546723904
 30
0.0
 11
-157.6954592488599
 21
-185.4955864513765
 31
0.0
 11
-158.150026969846
 21
-185.0167467905762
 31
0.0
 11
-158.5717134581708
 21
-184.6978610465889
 31
0.0
 11
-158.9442741880578
 21
-184.5512142344378
 31
0.0
 11
-159.2533575435279
 21
-184.5824546723904
 31
0.0
  0
SPLINE
  5
14D
330
47
100
AcDbEntity
  8
0
  6
Continuous
 62
     7
100
AcDbSpline
210
0.0
220
0.0
230
1.0
 70
     8
 71
     3
 72
     9
 73
     5
 74
     3
 42
0.000000001
 43
0.0000000001
 44
0.00000001
 40
0.0
 40
0.0
 40
0.0
 40
0.0
 40
0.2060001877115173
 40
0.4090110678526151
 40
0.4090110678526151
 40
0.4090110678526151
 40
0.4090110678526151
 10
-152.5409698869608
 20
-182.1296069772794
 30
0.0
 10
-152.4722181188423
 20
-182.131710653067
 30
0.0
 10
-152.3357122529156
 20
-182.1358874578575
 30
0.0
 10
-152.2002201299553
 20
-182.1187971864693
 30
0.0
 10
-152.1329691996102
 20
-182.1103144940709
 30
0.0
 11
-152.5409698869608
 21
-182.1296069772794
 31
0.0
 11
-152.3349717363822
 21
-182.1305232249737
 31
0.0
 11
-152.1329691996102
 21
-182.1103144940709
 31
0.0
  0
SPLINE
  5
14E
330
47
100
AcDbEntity
  8
0
  6
Continuous
 62
     7
100
AcDbSpline
210
0.0
220
0.0
230
1.0
 70
     8
 71
     3
 72
     9
 73
     5
 74
     3
 42
0.000000001
 43
0.0000000001
 44
0.00000001
 40
0.0
 40
0.0
 40
0.0
 40
0.0
 40
0.0190152123620878
 40
0.0384027689152413
 40
0.0384027689152413
 40
0.0384027689152413
 40
0.0384027689152413
 10
-151.5932608014568
 20
-181.7046845070235
 30
0.0
 10
-151.5983326934719
 20
-181.7008817829639
 30
0.0
 10
-151.6085758039497
 20
-181.6932018884034
 30
0.0
 10
-151.6191276599847
 20
-181.6859519689237
 30
0.0
 10
-151.6244547479892
 20
-181.6822918706697
 30
0.0
 11
-151.5932608014568
 21
-181.7046845070235
 31
0.0
 11
-151.6085521802168
 21
-181.6933817621341
 31
0.0
 11
-151.6244547479892
 21
-181.6822918706697
 31
0.0
  0
SPLINE
  5
14F
330
47
100
AcDbEntity
  8
0
  6
Continuous
 62
     7
100
AcDbSpline
210
0.0
220
0.0
230
1.0
 70
     8
 71
     3
 72
    13
 73
     9
 74
     7
 42
0.000000001
 43
0.0000000001
 44
0.00000001
 40
0.0
 40
0.0
 40
0.0
 40
0.0
 40
0.3412421350102136
 40
0.7463584307254241
 40
1.241496561996999
 40
1.820507058892249
 40
2.458756986212211
 40
3.121969792431284
 40
3.121969792431284
 40
3.121969792431284
 40
3.121969792431284
 10
-154.3768456870527
 20
-180.4613804873021
 30
0.0
 10
-154.3976671357649
 20
-180.5755845438298
 30
0.0
 10
-154.4432074342303
 20
-180.8253695198136
 30
0.0
 10
-154.7521958288887
 20
-181.1299150402344
 30
0.0
 10
-155.17824403074
 20
-181.3771648718706
 30
0.0
 10
-155.7250964248439
 20
-181.5554923752583
 30
0.0
 10
-156.3456601865658
 20
-181.6609258928168
 30
0.0
 10
-156.7802359119882
 20
-181.6577308392594
 30
0.0
 10
-157.0016914935935
 20
-181.6561026687409
 30
0.0
 11
-154.3768456870527
 21
-180.4613804873021
 31
0.0
 11
-154.4686209103753
 21
-180.7900497853016
 31
0.0
 11
-154.736924317179
 21
-181.0935831456194
 31
0.0
 11
-155.1612395900501
 21
-181.3487660558105
 31
0.0
 11
-155.7091130243302
 21
-181.5360835812959
 31
0.0
 11
-156.3386459615856
 21
-181.6412085097341
 31
0.0
 11
-157.0016914935935
 21
-181.6561026687409
 31
0.0
  0
SPLINE
  5
150
330
47
100
AcDbEntity
  8
0
  6
Continuous
 62
     7
100
AcDbSpline
210
0.0
220
0.0
230
1.0
 70
     8
 71
     3
 72
     9
 73
     5
 74
     3
 42
0.000000001
 43
0.0000000001
 44
0.00000001
 40
0.0
 40
0.0
 40
0.0
 40
0.0
 40
0.500623137371109
 40
0.9629843601052248
 40
0.9629843601052248
 40
0.9629843601052248
 40
0.9629843601052248
 10
-159.4789926832752
 20
-211.1762922475124
 30
0.0
 10
-159.5133767812787
 20
-211.0108481351863
 30
0.0
 10
-159.579517029914
 20
-210.6926045676625
 30
0.0
 10
-159.5116013147974
 20
-210.3751097846443
 30
0.0
 10
-159.478992683271
 20
-210.2226698474753
 30
0.0
 11
-159.4789926832752
 21
-211.1762922475124
 31
0.0
 11
-159.5459148690198
 21
-210.6801622765166
 31
0.0
 11
-159.478992683271
 21
-210.2226698474753
 31
0.0
  0
ENDBLK
  5
49
330
47
100
AcDbEntity
  8
0
100
AcDbBlockEnd
  0
BLOCK
  5
4C
330
4A
100
AcDbEntity
  8
0
100
AcDbBlockBegin
  2
Allg1
 70
     0
 10
-155.0005959999201
 20
-196.99200099997
 30
0.0
  3
Allg1
  1

  0
INSERT
  5
4B
330
4A
100
AcDbEntity
  8
0
100
AcDbBlockReference
  2
PP_2_5_1-select__1
 10
-162.7832866799536
 20
-216.67470425891
 30
0.0
  0
MTEXT
  5
152
330
4A
100
AcDbEntity
  8
1
 62
     6
100
AcDbMText
 10
-154.99999999992
 20
-223.0693062687385
 30
0.0
 40
5.0
 41
0.0
 71
     2
 72
     1
  1
 
  7
CONVERTER_11
 73
     1
 44
1.32052821128451
  0
ENDBLK
  5
4D
330
4A
100
AcDbEntity
  8
0
100
AcDbBlockEnd
  0
BLOCK
  5
4F
330
4E
100
AcDbEntity
  8
0
100
AcDbBlockBegin
  2
PP_2_5_1-select__2
 70
     0
 10
-271.5750004292872
 20
-191.7375005724147
 30
0.0
  3
PP_2_5_1-select__2
  1

  0
LINE
  5
153
330
4E
100
AcDbEntity
  8
0
  6
Continuous
 62
     7
100
AcDbLine
 10
-270.5750004292427
 20
-187.3875005724331
 30
0.0
 11
-270.5750004292123
 21
-191.7375005723519
 31
0.0
  0
LINE
  5
154
330
4E
100
AcDbEntity
  8
0
  6
Continuous
 62
     7
100
AcDbLine
 10
-270.5750004292481
 20
-186.5875005724331
 30
0.0
 11
-270.5750004292427
 21
-187.3875005724331
 31
0.0
  0
LINE
  5
155
330
4E
100
AcDbEntity
  8
0
  6
Continuous
 62
     7
100
AcDbLine
 10
-269.7833336617859
 20
-186.5875005722974
 30
0.0
 11
-268.0250004752258
 21
-186.5875005722855
 31
0.0
  0
LINE
  5
156
330
4E
100
AcDbEntity
  8
0
  6
Continuous
 62
     7
100
AcDbLine
 10
-268.0250004752258
 20
-186.5875005722855
 30
0.0
 11
-267.0250005192996
 21
-186.5875005722859
 31
0.0
  0
LINE
  5
157
330
4E
100
AcDbEntity
  8
0
  6
Continuous
 62
     7
100
AcDbLine
 10
-254.5750004103657
 20
-186.5875005722446
 30
0.0
 11
-255.4350324677743
 21
-186.5875005722478
 31
0.0
  0
LINE
  5
158
330
4E
100
AcDbEntity
  8
0
  6
Continuous
 62
     7
100
AcDbLine
 10
-270.0615260771699
 20
-186.5875005723469
 30
0.0
 11
-270.5750004292481
 21
-186.5875005724331
 31
0.0
  0
LINE
  5
159
330
4E
100
AcDbEntity
  8
0
  6
Continuous
 62
     7
100
AcDbLine
 10
-268.0250004291593
 20
-189.3375005688876
 30
0.0
 11
-268.025000475119
 21
-191.7375005722855
 31
0.0
  0
LINE
  5
15A
330
4E
100
AcDbEntity
  8
0
  6
Continuous
 62
     7
100
AcDbLine
 10
-254.5750004103307
 20
-191.7375005722446
 30
0.0
 11
-255.435032467707
 21
-191.7375005722478
 31
0.0
  0
LINE
  5
15B
330
4E
100
AcDbEntity
  8
0
  6
Continuous
 62
     7
100
AcDbLine
 10
-255.6507261726767
 20
-191.7375005722053
 30
0.0
 11
-255.8341907751476
 21
-191.7375005721958
 31
0.0
  0
LINE
  5
15C
330
4E
100
AcDbEntity
  8
0
  6
Continuous
 62
     7
100
AcDbLine
 10
-255.435032467707
 20
-191.7375005722478
 30
0.0
 11
-255.6507261726767
 21
-191.7375005722053
 31
0.0
  0
LINE
  5
15D
330
4E
100
AcDbEntity
  8
0
  6
Continuous
 62
     7
100
AcDbLine
 10
-257.4750004102984
 20
-191.7375005722069
 30
0.0
 11
-255.8341907751476
 21
-191.7375005721958
 31
0.0
  0
LINE
  5
15E
330
4E
100
AcDbEntity
  8
0
  6
Continuous
 62
     7
100
AcDbLine
 10
-259.4500004104891
 20
-191.7375005722345
 30
0.0
 11
-257.4750004102984
 21
-191.7375005722069
 31
0.0
  0
LINE
  5
15F
330
4E
100
AcDbEntity
  8
0
  6
Continuous
 62
     7
100
AcDbLine
 10
-269.7833336617509
 20
-191.7375005722974
 30
0.0
 11
-268.025000475119
 21
-191.7375005722855
 31
0.0
  0
LINE
  5
160
330
4E
100
AcDbEntity
  8
0
  6
Continuous
 62
     7
100
AcDbLine
 10
-266.6250004274811
 20
-191.5192429925302
 30
0.0
 11
-266.6250004274794
 21
-191.7375005724147
 31
0.0
  0
LINE
  5
161
330
4E
100
AcDbEntity
  8
0
  6
Continuous
 62
     7
100
AcDbLine
 10
-267.0250005191689
 20
-191.7375005722859
 30
0.0
 11
-266.6250004274794
 21
-191.7375005724147
 31
0.0
  0
LINE
  5
162
330
4E
100
AcDbEntity
  8
0
  6
Continuous
 62
     7
100
AcDbLine
 10
-266.6250004274794
 20
-191.7375005724147
 30
0.0
 11
-265.6250004291462
 21
-191.7375005723224
 31
0.0
  0
LINE
  5
163
330
4E
100
AcDbEntity
  8
0
  6
Continuous
 62
     7
100
AcDbLine
 10
-267.0250005191804
 20
-191.2868593731401
 30
0.0
 11
-267.0250005191689
 21
-191.7375005722859
 31
0.0
  0
LINE
  5
164
330
4E
100
AcDbEntity
  8
0
  6
Continuous
 62
     7
100
AcDbLine
 10
-265.6250004291462
 20
-191.7375005723224
 30
0.0
 11
-265.0250004291401
 21
-191.73750056886
 31
0.0
  0
LINE
  5
165
330
4E
100
AcDbEntity
  8
0
  6
Continuous
 62
     7
100
AcDbLine
 10
-259.7750004293805
 20
-190.9425005669797
 30
0.0
 11
-259.4500004104997
 21
-190.9425005669763
 31
0.0
  0
LINE
  5
166
330
4E
100
AcDbEntity
  8
0
  6
Continuous
 62
     7
100
AcDbLine
 10
-260.5750004293809
 20
-190.9425005669879
 30
0.0
 11
-259.7750004293805
 21
-190.9425005669797
 31
0.0
  0
LINE
  5
167
330
4E
100
AcDbEntity
  8
0
  6
Continuous
 62
     7
100
AcDbLine
 10
-259.4500004104891
 20
-191.7375005722345
 30
0.0
 11
-259.4500004104997
 21
-190.9425005669763
 31
0.0
  0
LINE
  5
168
330
4E
100
AcDbEntity
  8
0
  6
Continuous
 62
     7
100
AcDbLine
 10
-264.0250004281159
 20
-191.7375005722656
 30
0.0
 11
-264.0250004281173
 21
-191.5192429912358
 31
0.0
  0
LINE
  5
169
330
4E
100
AcDbEntity
  8
0
  6
Continuous
 62
     7
100
AcDbLine
 10
-270.0615260771039
 20
-191.7375005723469
 30
0.0
 11
-270.5750004292123
 21
-191.7375005723519
 31
0.0
  0
LINE
  5
16A
330
4E
100
AcDbEntity
  8
0
  6
Continuous
 62
     7
100
AcDbLine
 10
-269.845678855822
 20
-191.7375005723015
 30
0.0
 11
-270.0615260771039
 21
-191.7375005723469
 31
0.0
  0
LINE
  5
16B
330
4E
100
AcDbEntity
  8
0
  6
Continuous
 62
     7
100
AcDbLine
 10
-262.0750004291525
 20
-190.9425005670033
 30
0.0
 11
-260.5750004293809
 21
-190.9425005669879
 31
0.0
  0
LINE
  5
16C
330
4E
100
AcDbEntity
  8
0
  6
Continuous
 62
     7
100
AcDbLine
 10
-264.0250004281159
 20
-191.7375005722656
 30
0.0
 11
-259.4500004104891
 21
-191.7375005722345
 31
0.0
  0
LINE
  5
16D
330
4E
100
AcDbEntity
  8
0
  6
Continuous
 62
     7
100
AcDbLine
 10
-264.0250004281159
 20
-191.7375005722656
 30
0.0
 11
-265.0250004291401
 21
-191.73750056886
 31
0.0
  0
LINE
  5
16E
330
4E
100
AcDbEntity
  8
0
  6
Continuous
 62
     7
100
AcDbLine
 10
-268.025000475119
 20
-191.7375005722855
 30
0.0
 11
-267.0250005191689
 21
-191.7375005722859
 31
0.0
  0
LINE
  5
16F
330
4E
100
AcDbEntity
  8
0
  6
Continuous
 62
     7
100
AcDbLine
 10
-268.0250004752258
 20
-186.5875005722855
 30
0.0
 11
-268.0250004291593
 21
-189.3375005688876
 31
0.0
  0
LINE
  5
170
330
4E
100
AcDbEntity
  8
0
  6
Continuous
 62
     7
100
AcDbLine
 10
-254.5750004103657
 20
-186.5875005722446
 30
0.0
 11
-254.5750004103307
 21
-191.7375005722446
 31
0.0
  0
LINE
  5
171
330
4E
100
AcDbEntity
  8
0
  6
Continuous
 62
     7
100
AcDbLine
 10
-255.4350324677743
 20
-186.5875005722478
 30
0.0
 11
-255.435032467707
 21
-191.7375005722478
 31
0.0
  0
LINE
  5
172
330
4E
100
AcDbEntity
  8
0
  6
Continuous
 62
     7
100
AcDbLine
 10
-255.6507261727106
 20
-186.5875005722053
 30
0.0
 11
-255.8341907751825
 21
-186.5875005721958
 31
0.0
  0
LINE
  5
173
330
4E
100
AcDbEntity
  8
0
  6
Continuous
 62
     7
100
AcDbLine
 10
-255.4350324677743
 20
-186.5875005722478
 30
0.0
 11
-255.6507261727106
 21
-186.5875005722053
 31
0.0
  0
LINE
  5
174
330
4E
100
AcDbEntity
  8
0
  6
Continuous
 62
     7
100
AcDbLine
 10
-255.6507261726767
 20
-191.7375005722053
 30
0.0
 11
-255.6507261727106
 21
-186.5875005722053
 31
0.0
  0
LINE
  5
175
330
4E
100
AcDbEntity
  8
0
  6
Continuous
 62
     7
100
AcDbLine
 10
-255.8341907751476
 20
-191.7375005721958
 30
0.0
 11
-255.8341907751825
 21
-186.5875005721958
 31
0.0
  0
LINE
  5
176
330
4E
100
AcDbEntity
  8
0
  6
Continuous
 62
     7
100
AcDbLine
 10
-257.4750004103333
 20
-186.5875005722069
 30
0.0
 11
-255.8341907751825
 21
-186.5875005721958
 31
0.0
  0
LINE
  5
177
330
4E
100
AcDbEntity
  8
0
  6
Continuous
 62
     7
100
AcDbLine
 10
-258.2750001971998
 20
-188.042500335011
 30
0.0
 11
-258.2750000812275
 21
-187.1425005669354
 31
0.0
  0
LINE
  5
178
330
4E
100
AcDbEntity
  8
0
  6
Continuous
 62
     7
100
AcDbLine
 10
-258.2750001971998
 20
-188.042500335011
 30
0.0
 11
-258.6750004291528
 21
-188.4425005669738
 31
0.0
  0
LINE
  5
179
330
4E
100
AcDbEntity
  8
0
  6
Continuous
 62
     7
100
AcDbLine
 10
-258.2750000812017
 20
-190.9425005669645
 30
0.0
 11
-258.2750000812078
 21
-190.0425009148982
 31
0.0
  0
LINE
  5
17A
330
4E
100
AcDbEntity
  8
0
  6
Continuous
 62
     7
100
AcDbLine
 10
-257.4750004102984
 20
-191.7375005722069
 30
0.0
 11
-257.4750004103333
 21
-186.5875005722069
 31
0.0
  0
LINE
  5
17B
330
4E
100
AcDbEntity
  8
0
  6
Continuous
 62
     7
100
AcDbLine
 10
-259.4500004105292
 20
-186.5875005722346
 30
0.0
 11
-259.4500004105203
 21
-187.1425005669558
 31
0.0
  0
LINE
  5
17C
330
4E
100
AcDbEntity
  8
0
  6
Continuous
 62
     7
100
AcDbLine
 10
-259.7750004294075
 20
-188.1259854299601
 30
0.0
 11
-259.7750004294168
 21
-187.1425005669598
 31
0.0
  0
LINE
  5
17D
330
4E
100
AcDbEntity
  8
0
  6
Continuous
 62
     7
100
AcDbLine
 10
-266.4250014670021
 20
-190.5425005684449
 30
0.0
 11
-266.4250014670114
 21
-187.5425005689207
 31
0.0
  0
LINE
  5
17E
330
4E
100
AcDbEntity
  8
0
  6
Continuous
 62
     7
100
AcDbLine
 10
-266.7750004289694
 20
-190.542500568447
 30
0.0
 11
-266.7750004289819
 21
-187.5425005689215
 31
0.0
  0
LINE
  5
17F
330
4E
100
AcDbEntity
  8
0
  6
Continuous
 62
     7
100
AcDbLine
 10
-267.0250005192864
 20
-187.3881417645889
 30
0.0
 11
-267.0250005192996
 21
-186.5875005722859
 31
0.0
  0
LINE
  5
180
330
4E
100
AcDbEntity
  8
0
  6
Continuous
 62
     7
100
AcDbLine
 10
-267.1538436149825
 20
-187.4874631332025
 30
0.0
 11
-267.1031570123611
 21
-187.5425005689227
 31
0.0
  0
LINE
  5
181
330
4E
100
AcDbEntity
  8
0
  6
Continuous
 62
     7
100
AcDbLine
 10
-266.6250012536198
 20
-190.5425005684459
 30
0.0
 11
-266.6250012542379
 21
-187.5425005689214
 31
0.0
  0
LINE
  5
182
330
4E
100
AcDbEntity
  8
0
  6
Continuous
 62
     2
100
AcDbLine
 10
-265.0250004291485
 20
-190.5425005684396
 30
0.0
 11
-265.0250004291401
 21
-191.73750056886
 31
0.0
  0
LINE
  5
183
330
4E
100
AcDbEntity
  8
0
  6
Continuous
 62
     7
100
AcDbLine
 10
-265.0250004291485
 20
-190.5425005684396
 30
0.0
 11
-264.9250004293144
 21
-190.5425005684348
 31
0.0
  0
LINE
  5
184
330
4E
100
AcDbEntity
  8
0
  6
Continuous
 62
     7
100
AcDbLine
 10
-266.6250012536198
 20
-190.5425005684459
 30
0.0
 11
-266.5597978393186
 21
-190.542500568446
 31
0.0
  0
LINE
  5
185
330
4E
100
AcDbEntity
  8
0
  6
Continuous
 62
     7
100
AcDbLine
 10
-266.5597978393186
 20
-190.542500568446
 30
0.0
 11
-266.4250014670021
 21
-190.5425005684449
 31
0.0
  0
LINE
  5
186
330
4E
100
AcDbEntity
  8
0
  6
Continuous
 62
     7
100
AcDbLine
 10
-259.4500004104997
 20
-190.9425005669763
 30
0.0
 11
-258.2750000812017
 21
-190.9425005669645
 31
0.0
  0
LINE
  5
187
330
4E
100
AcDbEntity
  8
0
  6
Continuous
 62
     7
100
AcDbLine
 10
-266.7750004289694
 20
-190.542500568447
 30
0.0
 11
-266.6250012536198
 21
-190.5425005684459
 31
0.0
  0
LINE
  5
188
330
4E
100
AcDbEntity
  8
0
  6
Continuous
 62
     7
100
AcDbLine
 10
-258.6750004291446
 20
-189.6425005669738
 30
0.0
 11
-258.6750004291528
 21
-188.4425005669738
 31
0.0
  0
LINE
  5
189
330
4E
100
AcDbEntity
  8
0
  6
Continuous
 62
     7
100
AcDbLine
 10
-258.2750000812078
 20
-190.0425009148982
 30
0.0
 11
-258.2750001971998
 21
-188.042500335011
 31
0.0
  0
LINE
  5
18A
330
4E
100
AcDbEntity
  8
0
  6
Continuous
 62
     7
100
AcDbLine
 10
-258.6750004291446
 20
-189.6425005669738
 30
0.0
 11
-258.2750000812078
 21
-190.0425009148982
 31
0.0
  0
LINE
  5
18B
330
4E
100
AcDbEntity
  8
0
  6
Continuous
 62
     7
100
AcDbLine
 10
-263.9250004293214
 20
-189.542500568432
 30
0.0
 11
-263.925000429341
 21
-188.5425005689079
 31
0.0
  0
LINE
  5
18C
330
4E
100
AcDbEntity
  8
0
  6
Continuous
 62
     7
100
AcDbLine
 10
-260.5750004294168
 20
-187.142500566968
 30
0.0
 11
-260.5750004294075
 21
-188.1259854299592
 31
0.0
  0
LINE
  5
18D
330
4E
100
AcDbEntity
  8
0
  6
Continuous
 62
     7
100
AcDbLine
 10
-262.0750004291525
 20
-190.9425005670033
 30
0.0
 11
-262.0750004291782
 21
-187.1425005669827
 31
0.0
  0
LINE
  5
18E
330
4E
100
AcDbEntity
  8
0
  6
Continuous
 62
     7
100
AcDbLine
 10
-266.4250014670021
 20
-190.5425005684449
 30
0.0
 11
-265.0250004291485
 21
-190.5425005684396
 31
0.0
  0
LINE
  5
18F
330
4E
100
AcDbEntity
  8
0
  6
Continuous
 62
     7
100
AcDbLine
 10
-260.5750004293902
 20
-189.9590157079504
 30
0.0
 11
-260.5750004293809
 21
-190.9425005669879
 31
0.0
  0
LINE
  5
190
330
4E
100
AcDbEntity
  8
0
  6
Continuous
 62
     7
100
AcDbLine
 10
-259.7750004293805
 20
-190.9425005669797
 30
0.0
 11
-259.7750004293898
 21
-189.9590157079342
 31
0.0
  0
LINE
  5
191
330
4E
100
AcDbEntity
  8
0
  6
Continuous
 62
     2
100
AcDbLine
 10
-265.0250004291707
 20
-187.5425005689139
 30
0.0
 11
-265.0250004291702
 21
-186.9375005688222
 31
0.0
  0
LINE
  5
192
330
4E
100
AcDbEntity
  8
0
  6
Continuous
 62
     7
100
AcDbLine
 10
-266.6250012542379
 20
-187.5425005689214
 30
0.0
 11
-266.7750004289819
 21
-187.5425005689215
 31
0.0
  0
LINE
  5
193
330
4E
100
AcDbEntity
  8
0
  6
Continuous
 62
     7
100
AcDbLine
 10
-266.7750004289819
 20
-187.5425005689215
 30
0.0
 11
-267.1031570123611
 21
-187.5425005689227
 31
0.0
  0
LINE
  5
194
330
4E
100
AcDbEntity
  8
0
  6
Continuous
 62
     7
100
AcDbLine
 10
-264.9250004293347
 20
-187.5425005689142
 30
0.0
 11
-265.0250004291707
 21
-187.5425005689139
 31
0.0
  0
LINE
  5
195
330
4E
100
AcDbEntity
  8
0
  6
Continuous
 62
     7
100
AcDbLine
 10
-265.0250004291702
 20
-186.9375005688222
 30
0.0
 11
-265.6250004291687
 21
-186.9375005688256
 31
0.0
  0
LINE
  5
196
330
4E
100
AcDbEntity
  8
0
  6
Continuous
 62
     7
100
AcDbLine
 10
-259.7750004294168
 20
-187.1425005669598
 30
0.0
 11
-260.5750004294168
 21
-187.142500566968
 31
0.0
  0
LINE
  5
197
330
4E
100
AcDbEntity
  8
0
  6
Continuous
 62
     7
100
AcDbLine
 10
-259.4500004105203
 20
-187.1425005669558
 30
0.0
 11
-259.7750004294168
 21
-187.1425005669598
 31
0.0
  0
LINE
  5
198
330
4E
100
AcDbEntity
  8
0
  6
Continuous
 62
     7
100
AcDbLine
 10
-258.2750000812275
 20
-187.1425005669354
 30
0.0
 11
-259.4500004105203
 21
-187.1425005669558
 31
0.0
  0
LINE
  5
199
330
4E
100
AcDbEntity
  8
0
  6
Continuous
 62
     7
100
AcDbLine
 10
-260.5750004294168
 20
-187.142500566968
 30
0.0
 11
-262.0750004291782
 21
-187.1425005669827
 31
0.0
  0
LINE
  5
19A
330
4E
100
AcDbEntity
  8
0
  6
Continuous
 62
     7
100
AcDbLine
 10
-266.4250014670114
 20
-187.5425005689207
 30
0.0
 11
-266.6250012542379
 21
-187.5425005689214
 31
0.0
  0
LINE
  5
19B
330
4E
100
AcDbEntity
  8
0
  6
Continuous
 62
     7
100
AcDbLine
 10
-265.0250004291707
 20
-187.5425005689139
 30
0.0
 11
-266.4250014670114
 21
-187.5425005689207
 31
0.0
  0
LINE
  5
19C
330
4E
100
AcDbEntity
  8
0
  6
Continuous
 62
     7
100
AcDbLine
 10
-259.4500004105292
 20
-186.5875005722346
 30
0.0
 11
-257.4750004103333
 21
-186.5875005722069
 31
0.0
  0
LINE
  5
19D
330
4E
100
AcDbEntity
  8
0
  6
Continuous
 62
     7
100
AcDbLine
 10
-267.0250005192996
 20
-186.5875005722859
 30
0.0
 11
-259.4500004105292
 21
-186.5875005722346
 31
0.0
  0
LINE
  5
19E
330
4E
100
AcDbEntity
  8
0
  6
Continuous
 62
     7
100
AcDbLine
 10
-266.5597978393186
 20
-190.542500568446
 30
0.0
 11
-267.1538436149823
 21
-191.1875380044468
 31
0.0
  0
LINE
  5
19F
330
4E
100
AcDbEntity
  8
0
  6
Continuous
 62
     7
100
AcDbLine
 10
-269.7833336617509
 20
-191.7375005722974
 30
0.0
 11
-269.845678855822
 21
-191.7375005723015
 31
0.0
  0
LINE
  5
1A0
330
4E
100
AcDbEntity
  8
0
  6
Continuous
 62
     7
100
AcDbLine
 10
-269.7833336617859
 20
-186.5875005722974
 30
0.0
 11
-269.8456788558771
 21
-186.5875005723015
 31
0.0
  0
LINE
  5
1A1
330
4E
100
AcDbEntity
  8
0
  6
Continuous
 62
     7
100
AcDbLine
 10
-269.8456788558771
 20
-186.5875005723015
 30
0.0
 11
-270.0615260771699
 21
-186.5875005723469
 31
0.0
  0
LINE
  5
1A2
330
4E
100
AcDbEntity
  8
0
  6
Continuous
 62
     7
100
AcDbLine
 10
-269.8456788558771
 20
-186.5875005723015
 30
0.0
 11
-269.845678855822
 21
-191.7375005723015
 31
0.0
  0
LINE
  5
1A3
330
4E
100
AcDbEntity
  8
0
  6
Continuous
 62
     7
100
AcDbLine
 10
-269.7833336617509
 20
-191.7375005722974
 30
0.0
 11
-269.7833336617859
 21
-186.5875005722974
 31
0.0
  0
LINE
  5
1A4
330
4E
100
AcDbEntity
  8
0
  6
Continuous
 62
     7
100
AcDbLine
 10
-270.0615260771039
 20
-191.7375005723469
 30
0.0
 11
-270.0615260771699
 21
-186.5875005723469
 31
0.0
  0
LINE
  5
1A5
330
4E
100
AcDbEntity
  8
0
  6
Continuous
 62
     7
100
AcDbLine
 10
-270.5750004292481
 20
-186.5875005724331
 30
0.0
 11
-271.5750004292872
 21
-186.5875005724553
 31
0.0
  0
LINE
  5
1A6
330
4E
100
AcDbEntity
  8
0
  6
Continuous
 62
     7
100
AcDbLine
 10
-271.5750004292817
 20
-187.3875005724553
 30
0.0
 11
-271.5750004292872
 21
-186.5875005724553
 31
0.0
  0
LINE
  5
1A7
330
4E
100
AcDbEntity
  8
0
  6
Continuous
 62
     7
100
AcDbLine
 10
-270.5750004292427
 20
-187.3875005724331
 30
0.0
 11
-271.5750004292817
 21
-187.3875005724553
 31
0.0
  0
ARC
  5
1A8
330
4E
100
AcDbEntity
  8
0
  6
Continuous
 62
     7
100
AcDbCircle
 10
-265.6250004291524
 20
-189.3375005688324
 30
0.0
 40
2.400000000006912
100
AcDbArc
 50
180.0000000013177
 51
230.4301834797391
  0
ARC
  5
1A9
330
4E
100
AcDbEntity
  8
0
  6
Continuous
 62
     7
100
AcDbCircle
 10
-265.625000429151
 20
-189.3375005688174
 30
0.0
 40
2.400000000008343
100
AcDbArc
 50
129.5698165202834
 51
180.0000000016759
  0
ARC
  5
1AA
330
4E
100
AcDbEntity
  8
0
  6
Continuous
 62
     7
100
AcDbCircle
 10
-260.1750004294085
 20
-189.042500568951
 30
0.0
 40
1.000000000000182
100
AcDbArc
 50
293.578178479365
 51
66.42182152173923
  0
ARC
  5
1AB
330
4E
100
AcDbEntity
  8
0
  6
Continuous
 62
     7
100
AcDbCircle
 10
-265.6250004292398
 20
-189.3375005688916
 30
0.0
 40
2.400000000008952
100
AcDbArc
 50
125.6853373591587
 51
129.5698165175209
  0
ARC
  5
1AC
330
4E
100
AcDbEntity
  8
0
  6
Continuous
 62
     7
100
AcDbCircle
 10
-265.6250004292063
 20
-189.3375005687871
 30
0.0
 40
2.400000000007493
100
AcDbArc
 50
230.4301834814197
 51
234.3146626429468
  0
ARC
  5
1AD
330
4E
100
AcDbEntity
  8
0
  6
Continuous
 62
     7
100
AcDbCircle
 10
-265.625000429141
 20
-189.3375005688347
 30
0.0
 40
2.400000000006944
100
AcDbArc
 50
234.3146626410173
 51
245.3756816915018
  0
ARC
  5
1AE
330
4E
100
AcDbEntity
  8
0
  6
Continuous
 62
     7
100
AcDbCircle
 10
-265.6250004211659
 20
-189.3375005705701
 30
0.0
 40
2.400000001752213
100
AcDbArc
 50
245.3756815011629
 51
269.9999998094843
  0
ARC
  5
1AF
330
4E
100
AcDbEntity
  8
0
  6
Continuous
 62
     7
100
AcDbCircle
 10
-265.0250004293282
 20
-189.3375005688225
 30
0.0
 40
2.400000000037522
100
AcDbArc
 50
270.0000000044905
 51
294.6243183835538
  0
ARC
  5
1B0
330
4E
100
AcDbEntity
  8
0
  6
Continuous
 62
     7
100
AcDbCircle
 10
-265.6250004291622
 20
-189.3375005688287
 30
0.0
 40
2.400000000003075
100
AcDbArc
 50
90.00000000015605
 51
125.6853373615396
  0
ARC
  5
1B1
330
4E
100
AcDbEntity
  8
0
  6
Continuous
 62
     7
100
AcDbCircle
 10
-260.1750004294085
 20
-189.042500568951
 30
0.0
 40
1.000000000000182
100
AcDbArc
 50
113.5781784781355
 51
246.4218215229496
  0
ARC
  5
1B2
330
4E
100
AcDbEntity
  8
0
  6
Continuous
 62
     7
100
AcDbCircle
 10
-264.9250004292863
 20
-189.5425005684699
 30
0.0
 40
0.9999999999648992
100
AcDbArc
 50
269.9999999983879
 51
0.00000000217234
  0
ARC
  5
1B3
330
4E
100
AcDbEntity
  8
0
  6
Continuous
 62
     7
100
AcDbCircle
 10
-264.9250004292974
 20
-188.5425005688707
 30
0.0
 40
0.9999999999564011
100
AcDbArc
 50
359.9999999978684
 51
90.00000000213652
  0
ARC
  5
1B4
330
4E
100
AcDbEntity
  8
0
  6
Continuous
 62
     7
100
AcDbCircle
 10
-265.0250004291526
 20
-189.3375005688037
 30
0.0
 40
2.399999999981355
100
AcDbArc
 50
294.6243183795563
 51
90.00000000041932
  0
ENDBLK
  5
50
330
4E
100
AcDbEntity
  8
0
100
AcDbBlockEnd
  0
BLOCK
  5
53
330
51
100
AcDbEntity
  8
0
100
AcDbBlockBegin
  2
Drfsicht1
 70
     0
 10
-263.0750002266136
 20
-189.1625006200942
 30
0.0
  3
Drfsicht1
  1

  0
INSERT
  5
52
330
51
100
AcDbEntity
  8
0
100
AcDbBlockReference
  2
PP_2_5_1-select__2
 10
-271.5750004292872
 20
-191.7375005724147
 30
0.0
  0
MTEXT
  5
1B5
330
51
100
AcDbEntity
  8
1
 62
     6
100
AcDbMText
 10
-263.0750002266135
 20
-196.7375006679839
 30
0.0
 40
5.0
 41
0.0
 71
     2
 72
     1
  1
 
  7
CONVERTER_11
 73
     1
 44
1.32052821128451
  0
DIMENSION
  5
1C2
330
51
100
AcDbEntity
  8
1
100
AcDbDimension
  2
*D17
 10
-281.5750004292872
 20
-186.5875005724553
 30
0.0
 11
-285.0000004292872
 21
-177.314614227747
 31
0.0
 70
    32
  1
<>
 71
     5
 42
-1.0
 53
90.0
  3
ME10_DIM_10
100
AcDbAlignedDimension
 13
-270.5750004292123
 23
-191.7375005723519
 33
0.0
 14
-271.5750004292872
 24
-186.5875005724553
 34
0.0
 50
90.0
100
AcDbRotatedDimension
  0
ENDBLK
  5
54
330
51
100
AcDbEntity
  8
0
100
AcDbBlockEnd
  0
BLOCK
  5
56
330
55
100
AcDbEntity
  8
0
100
AcDbBlockBegin
  2
PP_2_5_1-select__3
 70
     0
 10
-163.4249995896298
 20
-145.5875001906286
 30
0.0
  3
PP_2_5_1-select__3
  1

  0
LINE
  5
1C3
330
55
100
AcDbEntity
  8
0
  6
Continuous
 62
     7
100
AcDbLine
 10
-150.1249995707572
 20
-139.087500190706
 30
0.0
 11
-147.7249995707545
 21
-139.0875001907052
 31
0.0
  0
LINE
  5
1C4
330
55
100
AcDbEntity
  8
0
  6
Continuous
 62
     7
100
AcDbLine
 10
-147.90528797184
 20
-112.2711245919275
 30
0.0
 11
-147.9384739228256
 21
-112.0008467105657
 31
0.0
  0
LINE
  5
1C5
330
55
100
AcDbEntity
  8
0
  6
Continuous
 62
     7
100
AcDbLine
 10
-147.9384739228256
 20
-112.0008467105657
 30
0.0
 11
-147.4249995707493
 21
-112.2188036418097
 31
0.0
  0
LINE
  5
1C6
330
55
100
AcDbEntity
  8
0
  6
Continuous
 62
     7
100
AcDbLine
 10
-147.4249995707493
 20
-112.2188036418097
 30
0.0
 11
-147.4249995707474
 21
-123.4875001907646
 31
0.0
  0
LINE
  5
1C7
330
55
100
AcDbEntity
  8
0
  6
Continuous
 62
     7
100
AcDbLine
 10
-146.4249995707075
 20
-129.9875001907064
 30
0.0
 11
-146.4249995707083
 21
-125.6320071113569
 31
0.0
  0
LINE
  5
1C8
330
55
100
AcDbEntity
  8
0
  6
Continuous
 62
     7
100
AcDbLine
 10
-149.6249995707616
 20
-129.9875001906888
 30
0.0
 11
-148.2249995707614
 21
-129.9875001906886
 31
0.0
  0
LINE
  5
1C9
330
55
100
AcDbEntity
  8
0
  6
Continuous
 62
     7
100
AcDbLine
 10
-150.5855468861701
 20
-129.9875001907072
 30
0.0
 11
-149.6249995707616
 21
-129.9875001906888
 31
0.0
  0
LINE
  5
1CA
330
55
100
AcDbEntity
  8
0
  6
Continuous
 62
     7
100
AcDbLine
 10
-148.2249995707614
 20
-129.9875001906886
 30
0.0
 11
-146.4249995707075
 21
-129.9875001907064
 31
0.0
  0
LINE
  5
1CB
330
55
100
AcDbEntity
  8
0
  6
Continuous
 62
     7
100
AcDbLine
 10
-149.5249994806864
 20
-112.4700001582618
 30
0.0
 11
-149.5249994806871
 21
-106.0975002436939
 31
0.0
  0
LINE
  5
1CC
330
55
100
AcDbEntity
  8
0
  6
Continuous
 62
     7
100
AcDbLine
 10
-147.4249995707474
 20
-123.4875001907646
 30
0.0
 11
-146.4249995707083
 21
-125.6320071113569
 31
0.0
  0
LINE
  5
1CD
330
55
100
AcDbEntity
  8
0
  6
Continuous
 62
     7
100
AcDbLine
 10
-147.7249995707559
 20
-130.9875001907052
 30
0.0
 11
-148.2249995707612
 21
-130.9875001907054
 31
0.0
  0
LINE
  5
1CE
330
55
100
AcDbEntity
  8
0
  6
Continuous
 62
     7
100
AcDbLine
 10
-147.7249995707559
 20
-130.9875001907052
 30
0.0
 11
-147.7249995707545
 21
-139.0875001907052
 31
0.0
  0
LINE
  5
1CF
330
55
100
AcDbEntity
  8
0
  6
Continuous
 62
     7
100
AcDbLine
 10
-150.9749994806959
 20
-106.3875001908223
 30
0.0
 11
-158.5499995894663
 21
-106.3875001908254
 31
0.0
  0
LINE
  5
1D0
330
55
100
AcDbEntity
  8
0
  6
Continuous
 62
     7
100
AcDbLine
 10
-150.8668935382518
 20
-131.0375001908162
 30
0.0
 11
-158.9831056033688
 21
-131.0375001908163
 31
0.0
  0
LINE
  5
1D1
330
55
100
AcDbEntity
  8
0
  6
Continuous
 62
     7
100
AcDbLine
 10
-151.6249995707215
 20
-145.5875001906274
 30
0.0
 11
-158.2249995708161
 21
-145.5875001906286
 31
0.0
  0
LINE
  5
1D2
330
55
100
AcDbEntity
  8
0
  6
Continuous
 62
     7
100
AcDbLine
 10
-158.2249995708161
 20
-145.5875001906286
 30
0.0
 11
-158.7249995708165
 21
-144.0875001906288
 31
0.0
  0
LINE
  5
1D3
330
55
100
AcDbEntity
  8
0
  6
Continuous
 62
     7
100
AcDbLine
 10
-158.7249995708208
 20
-134.5875001903049
 30
0.0
 11
-158.7249995708165
 21
-144.0875001906288
 31
0.0
  0
LINE
  5
1D4
330
55
100
AcDbEntity
  8
0
  6
Continuous
 62
     7
100
AcDbLine
 10
-158.7249995708208
 20
-134.5875001903049
 30
0.0
 11
-158.7749995707495
 21
-134.3039360997288
 31
0.0
  0
LINE
  5
1D5
330
55
100
AcDbEntity
  8
0
  6
Continuous
 62
     7
100
AcDbLine
 10
-158.7749995707495
 20
-134.3039360997288
 30
0.0
 11
-158.77499957075
 21
-131.8141624779236
 31
0.0
  0
LINE
  5
1D6
330
55
100
AcDbEntity
  8
0
  6
Continuous
 62
     7
100
AcDbLine
 10
-160.5249995896622
 20
-104.4125001906302
 30
0.0
 11
-162.1658092248129
 21
-104.4125001906305
 31
0.0
  0
LINE
  5
1D7
330
55
100
AcDbEntity
  8
0
  6
Continuous
 62
     7
100
AcDbLine
 10
-162.9749995706408
 20
-129.9875001907093
 30
0.0
 11
-162.9749995706641
 21
-125.8041668575216
 31
0.0
  0
LINE
  5
1D8
330
55
100
AcDbEntity
  8
0
  6
Continuous
 62
     7
100
AcDbLine
 10
-159.2644522554505
 20
-129.9875001907087
 30
0.0
 11
-162.9749995706408
 21
-129.9875001907093
 31
0.0
  0
LINE
  5
1D9
330
55
100
AcDbEntity
  8
0
  6
Continuous
 62
     7
100
AcDbLine
 10
-158.9831056033688
 20
-131.0375001908163
 30
0.0
 11
-159.2644522554505
 21
-129.9875001907087
 31
0.0
  0
LINE
  5
1DA
330
55
100
AcDbEntity
  8
0
  6
Continuous
 62
     7
100
AcDbLine
 10
-158.77499957075
 20
-131.8141624779236
 30
0.0
 11
-158.9831056033688
 21
-131.0375001908163
 31
0.0
  0
LINE
  5
1DB
330
55
100
AcDbEntity
  8
0
  6
Continuous
 62
     7
100
AcDbLine
 10
-158.5499995894663
 20
-106.3875001908254
 30
0.0
 11
-160.5249995896622
 21
-104.4125001906302
 31
0.0
  0
LINE
  5
1DC
330
55
100
AcDbEntity
  8
0
  6
Continuous
 62
     7
100
AcDbLine
 10
-150.7890433628927
 20
-143.0796315670874
 30
0.0
 11
-151.1249995707465
 21
-144.0875001907005
 31
0.0
  0
LINE
  5
1DD
330
55
100
AcDbEntity
  8
0
  6
Continuous
 62
     7
100
AcDbLine
 10
-149.6249995707614
 20
-130.9875001907056
 30
0.0
 11
-150.1249995707586
 21
-130.9875001907056
 31
0.0
  0
LINE
  5
1DE
330
55
100
AcDbEntity
  8
0
  6
Continuous
 62
     7
100
AcDbLine
 10
-148.2249995707612
 20
-130.9875001907054
 30
0.0
 11
-149.6249995707614
 21
-130.9875001907056
 31
0.0
  0
LINE
  5
1DF
330
55
100
AcDbEntity
  8
0
  6
Continuous
 62
     7
100
AcDbLine
 10
-148.2249995707614
 20
-129.9875001906886
 30
0.0
 11
-148.2249995707612
 21
-130.9875001907054
 31
0.0
  0
LINE
  5
1E0
330
55
100
AcDbEntity
  8
0
  6
Continuous
 62
     7
100
AcDbLine
 10
-149.6249995707616
 20
-129.9875001906888
 30
0.0
 11
-149.6249995707614
 21
-130.9875001907056
 31
0.0
  0
LINE
  5
1E1
330
55
100
AcDbEntity
  8
0
  6
Continuous
 62
     7
100
AcDbLine
 10
-151.1249995707634
 20
-140.017170881878
 30
0.0
 11
-151.1249995707465
 21
-144.0875001907005
 31
0.0
  0
LINE
  5
1E2
330
55
100
AcDbEntity
  8
0
  6
Continuous
 62
     7
100
AcDbLine
 10
-148.2166663382096
 20
-105.3875002348871
 30
0.0
 11
-149.9749995247697
 21
-105.3875002348957
 31
0.0
  0
LINE
  5
1E3
330
55
100
AcDbEntity
  8
0
  6
Continuous
 62
     7
100
AcDbLine
 10
-151.1249995707465
 20
-144.0875001907005
 30
0.0
 11
-151.6249995707215
 21
-145.5875001906274
 31
0.0
  0
LINE
  5
1E4
330
55
100
AcDbEntity
  8
0
  6
Continuous
 62
     7
100
AcDbLine
 10
-149.5249994806864
 20
-112.4700001582618
 30
0.0
 11
-147.90528797184
 21
-112.2711245919275
 31
0.0
  0
LINE
  5
1E5
330
55
100
AcDbEntity
  8
0
  6
Continuous
 62
     7
100
AcDbLine
 10
-162.5981534832274
 20
-112.2825815613159
 30
0.0
 11
-160.924999918639
 21
-112.4880189870627
 31
0.0
  0
LINE
  5
1E6
330
55
100
AcDbEntity
  8
0
  6
Continuous
 62
     7
100
AcDbLine
 10
-162.5649675322212
 20
-112.0123036797855
 30
0.0
 11
-162.5981534832274
 21
-112.2825815613159
 31
0.0
  0
LINE
  5
1E7
330
55
100
AcDbEntity
  8
0
  6
Continuous
 62
     7
100
AcDbLine
 10
-163.4249995896298
 20
-112.377365629287
 30
0.0
 11
-162.5649675322212
 21
-112.0123036797855
 31
0.0
  0
LINE
  5
1E8
330
55
100
AcDbEntity
  8
0
  6
Continuous
 62
     7
100
AcDbLine
 10
-150.1249995707572
 20
-139.087500190706
 30
0.0
 11
-151.1249995707607
 21
-139.0875001907065
 31
0.0
  0
LINE
  5
1E9
330
55
100
AcDbEntity
  8
0
  6
Continuous
 62
     7
100
AcDbLine
 10
-151.1249995707499
 20
-134.5875001909092
 30
0.0
 11
-151.1249995707611
 21
-137.8875001907065
 31
0.0
  0
LINE
  5
1EA
330
55
100
AcDbEntity
  8
0
  6
Continuous
 62
     7
100
AcDbLine
 10
-151.0749995706934
 20
-134.3039360996078
 30
0.0
 11
-151.1249995707499
 21
-134.5875001909092
 31
0.0
  0
LINE
  5
1EB
330
55
100
AcDbEntity
  8
0
  6
Continuous
 62
     7
100
AcDbLine
 10
-151.1249995707611
 20
-137.8875001907065
 30
0.0
 11
-150.1249995707634
 21
-138.0875001907061
 31
0.0
  0
LINE
  5
1EC
330
55
100
AcDbEntity
  8
0
  6
Continuous
 62
     7
100
AcDbLine
 10
-151.1249995707611
 20
-137.8875001907065
 30
0.0
 11
-151.1249995707607
 21
-139.0875001907065
 31
0.0
  0
LINE
  5
1ED
330
55
100
AcDbEntity
  8
0
  6
Continuous
 62
     7
100
AcDbLine
 10
-151.1249995707607
 20
-139.0875001907065
 30
0.0
 11
-151.1249995707634
 21
-140.017170881878
 31
0.0
  0
LINE
  5
1EE
330
55
100
AcDbEntity
  8
0
  6
Continuous
 62
     7
100
AcDbLine
 10
-151.0749995706943
 20
-131.8141624772311
 30
0.0
 11
-151.0749995706934
 21
-134.3039360996078
 31
0.0
  0
LINE
  5
1EF
330
55
100
AcDbEntity
  8
0
  6
Continuous
 62
     7
100
AcDbLine
 10
-150.1249995707634
 20
-138.0875001907061
 30
0.0
 11
-150.1249995707572
 21
-139.087500190706
 31
0.0
  0
LINE
  5
1F0
330
55
100
AcDbEntity
  8
0
  6
Continuous
 62
     7
100
AcDbLine
 10
-150.8668935382518
 20
-131.0375001908162
 30
0.0
 11
-151.0749995706943
 21
-131.8141624772311
 31
0.0
  0
LINE
  5
1F1
330
55
100
AcDbEntity
  8
0
  6
Continuous
 62
     7
100
AcDbLine
 10
-150.1249995707586
 20
-130.9875001907056
 30
0.0
 11
-150.1249995707634
 21
-138.0875001907061
 31
0.0
  0
LINE
  5
1F2
330
55
100
AcDbEntity
  8
0
  6
Continuous
 62
     7
100
AcDbLine
 10
-150.5855468861701
 20
-129.9875001907072
 30
0.0
 11
-150.8668935382518
 21
-131.0375001908162
 31
0.0
  0
LINE
  5
1F3
330
55
100
AcDbEntity
  8
0
  6
Continuous
 62
     7
100
AcDbLine
 10
-149.9749995247697
 20
-105.3875002348957
 30
0.0
 11
-150.9749994806959
 21
-106.3875001908223
 31
0.0
  0
LINE
  5
1F4
330
55
100
AcDbEntity
  8
0
  6
Continuous
 62
     7
100
AcDbLine
 10
-148.6430791165068
 20
-106.2635666429934
 30
0.0
 11
-148.6762650674608
 21
-105.9932887614787
 31
0.0
  0
LINE
  5
1F5
330
55
100
AcDbEntity
  8
0
  6
Continuous
 62
     7
100
AcDbLine
 10
-148.1543211441185
 20
-105.8952610934128
 30
0.0
 11
-148.6430791165068
 21
-106.2635666429934
 31
0.0
  0
LINE
  5
1F6
330
55
100
AcDbEntity
  8
0
  6
Continuous
 62
     7
100
AcDbLine
 10
-162.9749995706641
 20
-125.8041668575216
 30
0.0
 11
-163.4249995896277
 21
-124.3041667944877
 31
0.0
  0
LINE
  5
1F7
330
55
100
AcDbEntity
  8
0
  6
Continuous
 62
     7
100
AcDbLine
 10
-163.4249995896298
 20
-112.377365629287
 30
0.0
 11
-163.4249995896277
 21
-124.3041667944877
 31
0.0
  0
LINE
  5
1F8
330
55
100
AcDbEntity
  8
0
  6
Continuous
 62
     7
100
AcDbLine
 10
-162.1658092248129
 20
-104.4125001906305
 30
0.0
 11
-162.3492738272849
 21
-105.9066994706151
 31
0.0
  0
LINE
  5
1F9
330
55
100
AcDbEntity
  8
0
  6
Continuous
 62
     7
100
AcDbLine
 10
-161.8605158371666
 20
-106.2750050335894
 30
0.0
 11
-162.3492738272849
 21
-105.9066994706151
 31
0.0
  0
LINE
  5
1FA
330
55
100
AcDbEntity
  8
0
  6
Continuous
 62
     7
100
AcDbLine
 10
-161.8273298861745
 20
-106.0047271521843
 30
0.0
 11
-161.8605158371666
 21
-106.2750050335894
 31
0.0
  0
LINE
  5
1FB
330
55
100
AcDbEntity
  8
0
  6
Continuous
 62
     7
100
AcDbLine
 10
-160.924999918639
 20
-112.4880189870627
 30
0.0
 11
-160.9249999186401
 21
-106.115519341034
 31
0.0
  0
LINE
  5
1FC
330
55
100
AcDbEntity
  8
0
  6
Continuous
 62
     7
100
AcDbLine
 10
-148.6762650674608
 20
-105.9932887614787
 30
0.0
 11
-149.5249994806871
 21
-106.0975002436939
 31
0.0
  0
LINE
  5
1FD
330
55
100
AcDbEntity
  8
0
  6
Continuous
 62
     7
100
AcDbLine
 10
-160.9249999186401
 20
-106.115519341034
 30
0.0
 11
-161.8273298861745
 21
-106.0047271521843
 31
0.0
  0
LINE
  5
1FE
330
55
100
AcDbEntity
  8
0
  6
Continuous
 62
     7
100
AcDbLine
 10
-148.2166663382096
 20
-105.3875002348871
 30
0.0
 11
-148.1543211441185
 21
-105.8952610934128
 31
0.0
  0
ARC
  5
1FF
330
55
100
AcDbEntity
  8
0
  6
Continuous
 62
     7
100
AcDbCircle
 10
-152.2249995707699
 20
-141.6875001907227
 30
0.0
 40
2.000000000000055
100
AcDbArc
 50
315.8878002702478
 51
56.63298703054458
  0
ENDBLK
  5
57
330
55
100
AcDbEntity
  8
0
100
AcDbBlockEnd
  0
BLOCK
  5
5A
330
58
100
AcDbEntity
  8
0
100
AcDbBlockBegin
  2
Rckans1
 70
     0
 10
-154.9249997733818
 20
-124.99999999994
 30
0.0
  3
Rckans1
  1

  0
INSERT
  5
59
330
58
100
AcDbEntity
  8
0
100
AcDbBlockReference
  2
PP_2_5_1-select__3
 10
-163.4249995896298
 20
-145.5875001906286
 30
0.0
  0
MTEXT
  5
200
330
58
100
AcDbEntity
  8
1
 62
     6
100
AcDbMText
 10
-154.9249997733815
 20
-150.5875005721446
 30
0.0
 40
5.0
 41
0.0
 71
     2
 72
     1
  1
 
  7
CONVERTER_11
 73
     1
 44
1.32052821128451
  0
ENDBLK
  5
5B
330
58
100
AcDbEntity
  8
0
100
AcDbBlockEnd
  0
BLOCK
  5
5D
330
5C
100
AcDbEntity
  8
0
100
AcDbBlockBegin
  2
PP_2_5_1-select__4
 70
     0
 10
-208.5750000478923
 20
-145.5875001906274
 30
0.0
  3
PP_2_5_1-select__4
  1

  0
LINE
  5
201
330
5C
100
AcDbEntity
  8
0
  6
Continuous
 62
     7
100
AcDbLine
 10
-206.0500000584389
 20
-143.0796315670874
 30
0.0
 11
-206.0500000584358
 21
-144.0875001906874
 31
0.0
  0
LINE
  5
202
330
5C
100
AcDbEntity
  8
0
  6
Continuous
 62
     7
100
AcDbLine
 10
-205.050000058465
 20
-140.0171708818732
 30
0.0
 11
-206.050000058465
 21
-140.017170881878
 31
0.0
  0
LINE
  5
203
330
5C
100
AcDbEntity
  8
0
  6
Continuous
 62
     7
100
AcDbLine
 10
-206.550000053022
 20
-130.9875001907052
 30
0.0
 11
-206.5500000530235
 21
-139.0875001907052
 31
0.0
  0
LINE
  5
204
330
5C
100
AcDbEntity
  8
0
  6
Continuous
 62
     7
100
AcDbLine
 10
-208.5750000476351
 20
-131.0375001908162
 30
0.0
 11
-207.8750000530501
 21
-131.0375001908088
 31
0.0
  0
LINE
  5
205
330
5C
100
AcDbEntity
  8
0
  6
Continuous
 62
     7
100
AcDbLine
 10
-204.9500000530219
 20
-130.9875001907055
 30
0.0
 11
-205.4500000530323
 21
-130.9875001907055
 31
0.0
  0
LINE
  5
206
330
5C
100
AcDbEntity
  8
0
  6
Continuous
 62
     7
100
AcDbLine
 10
-207.325000064049
 20
-127.1939104969957
 30
0.0
 11
-206.875000058571
 21
-127.4537181212851
 31
0.0
  0
LINE
  5
207
330
5C
100
AcDbEntity
  8
0
  6
Continuous
 62
     7
100
AcDbLine
 10
-208.5750000476408
 20
-129.9875001907072
 30
0.0
 11
-208.5750000476351
 21
-131.0375001908162
 31
0.0
  0
LINE
  5
208
330
5C
100
AcDbEntity
  8
0
  6
Continuous
 62
     7
100
AcDbLine
 10
-208.5750000476408
 20
-129.9875001907072
 30
0.0
 11
-208.5750000476439
 21
-125.6320071113569
 31
0.0
  0
LINE
  5
209
330
5C
100
AcDbEntity
  8
0
  6
Continuous
 62
     7
100
AcDbLine
 10
-207.7750000476439
 20
-125.6320071113512
 30
0.0
 11
-207.7750000476126
 21
-129.9875001907007
 31
0.0
  0
LINE
  5
20A
330
5C
100
AcDbEntity
  8
0
  6
Continuous
 62
     7
100
AcDbLine
 10
-204.9500000530221
 20
-131.8141624772101
 30
0.0
 11
-203.625000053046
 21
-131.8141624772005
 31
0.0
  0
LINE
  5
20B
330
5C
100
AcDbEntity
  8
0
  6
Continuous
 62
     7
100
AcDbLine
 10
-207.8750000530459
 20
-131.8141624772311
 30
0.0
 11
-206.5500000530221
 21
-131.8141624772216
 31
0.0
  0
LINE
  5
20C
330
5C
100
AcDbEntity
  8
0
  6
Continuous
 62
     7
100
AcDbLine
 10
-205.1750000585657
 20
-126.297500335464
 30
0.0
 11
-206.9750000585657
 21
-126.2975003354769
 31
0.0
  0
LINE
  5
20D
330
5C
100
AcDbEntity
  8
0
  6
Continuous
 62
     7
100
AcDbLine
 10
-205.4500000530323
 20
-130.9875001907055
 30
0.0
 11
-206.0500000530323
 21
-130.9875001907054
 31
0.0
  0
LINE
  5
20E
330
5C
100
AcDbEntity
  8
0
  6
Continuous
 62
     7
100
AcDbLine
 10
-206.0500000530323
 20
-130.9875001907054
 30
0.0
 11
-206.550000053022
 21
-130.9875001907052
 31
0.0
  0
LINE
  5
20F
330
5C
100
AcDbEntity
  8
0
  6
Continuous
 62
     7
100
AcDbLine
 10
-207.7750000476126
 20
-129.9875001907007
 30
0.0
 11
-208.5750000476408
 21
-129.9875001907072
 31
0.0
  0
LINE
  5
210
330
5C
100
AcDbEntity
  8
0
  6
Continuous
 62
     7
100
AcDbLine
 10
-206.0500000530321
 20
-129.9875001906886
 30
0.0
 11
-206.0500000530323
 21
-130.9875001907054
 31
0.0
  0
LINE
  5
211
330
5C
100
AcDbEntity
  8
0
  6
Continuous
 62
     7
100
AcDbLine
 10
-206.0500000530321
 20
-129.9875001906886
 30
0.0
 11
-207.7750000476126
 21
-129.9875001907007
 31
0.0
  0
LINE
  5
212
330
5C
100
AcDbEntity
  8
0
  6
Continuous
 62
     7
100
AcDbLine
 10
-205.4500000530321
 20
-129.9875001906842
 30
0.0
 11
-206.0500000530321
 21
-129.9875001906886
 31
0.0
  0
LINE
  5
213
330
5C
100
AcDbEntity
  8
0
  6
Continuous
 62
     7
100
AcDbLine
 10
-205.4500000530321
 20
-129.9875001906842
 30
0.0
 11
-205.4500000530323
 21
-130.9875001907055
 31
0.0
  0
LINE
  5
214
330
5C
100
AcDbEntity
  8
0
  6
Continuous
 62
     7
100
AcDbLine
 10
-206.6250000585648
 20
-127.886730823181
 30
0.0
 11
-206.6250000585711
 21
-128.0375003355065
 31
0.0
  0
LINE
  5
215
330
5C
100
AcDbEntity
  8
0
  6
Continuous
 62
     7
100
AcDbLine
 10
-205.3250000585672
 20
-127.5691881719581
 30
0.0
 11
-204.9000000585584
 21
-127.3238143075435
 31
0.0
  0
LINE
  5
216
330
5C
100
AcDbEntity
  8
0
  6
Continuous
 62
     7
100
AcDbLine
 10
-205.5250000585648
 20
-128.0375003355067
 30
0.0
 11
-205.5250000585648
 21
-127.9155983334704
 31
0.0
  0
LINE
  5
217
330
5C
100
AcDbEntity
  8
0
  6
Continuous
 62
     7
100
AcDbLine
 10
-203.625000053046
 20
-131.8141624772005
 30
0.0
 11
-203.6250000530501
 21
-131.0375001828537
 31
0.0
  0
LINE
  5
218
330
5C
100
AcDbEntity
  8
0
  6
Continuous
 62
     7
100
AcDbLine
 10
-207.7750000476439
 20
-125.6320071113512
 30
0.0
 11
-208.5750000476439
 21
-125.6320071113569
 31
0.0
  0
LINE
  5
219
330
5C
100
AcDbEntity
  8
0
  6
Continuous
 62
     7
100
AcDbLine
 10
-203.4250000476408
 20
-129.9875001906701
 30
0.0
 11
-205.4500000530321
 21
-129.9875001906842
 31
0.0
  0
LINE
  5
21A
330
5C
100
AcDbEntity
  8
0
  6
Continuous
 62
     7
100
AcDbLine
 10
-207.8750000529579
 20
-144.0875001907005
 30
0.0
 11
-207.8750000529505
 21
-145.5875001906274
 31
0.0
  0
LINE
  5
21B
330
5C
100
AcDbEntity
  8
0
  6
Continuous
 62
     7
100
AcDbLine
 10
-207.8750000529505
 20
-145.5875001906274
 30
0.0
 11
-203.6250000529529
 21
-145.5875001905968
 31
0.0
  0
LINE
  5
21C
330
5C
100
AcDbEntity
  8
0
  6
Continuous
 62
     7
100
AcDbLine
 10
-208.0200000531638
 20
-105.2124998615239
 30
0.0
 11
-208.0200000531607
 21
-105.3875002348831
 31
0.0
  0
LINE
  5
21D
330
5C
100
AcDbEntity
  8
0
  6
Continuous
 62
     7
100
AcDbLine
 10
-207.1200002850883
 20
-105.2124999774958
 30
0.0
 11
-208.0200000531638
 21
-105.2124998615239
 31
0.0
  0
LINE
  5
21E
330
5C
100
AcDbEntity
  8
0
  6
Continuous
 62
     7
100
AcDbLine
 10
-208.5750000477977
 20
-105.8952610934128
 30
0.0
 11
-208.5750000478006
 21
-105.9932887614787
 31
0.0
  0
LINE
  5
21F
330
5C
100
AcDbEntity
  8
0
  6
Continuous
 62
     7
100
AcDbLine
 10
-208.5750000478018
 20
-105.3875002348871
 30
0.0
 11
-208.5750000477977
 21
-105.8952610934128
 31
0.0
  0
LINE
  5
220
330
5C
100
AcDbEntity
  8
0
  6
Continuous
 62
     7
100
AcDbLine
 10
-207.1200004010668
 20
-105.3875002348767
 30
0.0
 11
-207.1200002850883
 21
-105.2124999774958
 31
0.0
  0
LINE
  5
221
330
5C
100
AcDbEntity
  8
0
  6
Continuous
 62
     7
100
AcDbLine
 10
-208.5750000478056
 20
-106.0975002436939
 30
0.0
 11
-208.5750000477984
 21
-106.2635666429934
 31
0.0
  0
LINE
  5
222
330
5C
100
AcDbEntity
  8
0
  6
Continuous
 62
     7
100
AcDbLine
 10
-208.5750000477523
 20
-112.0008467105657
 30
0.0
 11
-208.5750000477473
 21
-112.2188036418097
 31
0.0
  0
LINE
  5
223
330
5C
100
AcDbEntity
  8
0
  6
Continuous
 62
     7
100
AcDbLine
 10
-208.5750000478006
 20
-105.9932887614787
 30
0.0
 11
-208.5750000478056
 21
-106.0975002436939
 31
0.0
  0
LINE
  5
224
330
5C
100
AcDbEntity
  8
0
  6
Continuous
 62
     7
100
AcDbLine
 10
-207.7750000476661
 20
-123.4875001907589
 30
0.0
 11
-207.7750000476439
 21
-125.6320071113512
 31
0.0
  0
LINE
  5
225
330
5C
100
AcDbEntity
  8
0
  6
Continuous
 62
     7
100
AcDbLine
 10
-207.8750000530459
 20
-131.8141624772311
 30
0.0
 11
-207.875000053028
 21
-134.3039360996078
 31
0.0
  0
LINE
  5
226
330
5C
100
AcDbEntity
  8
0
  6
Continuous
 62
     7
100
AcDbLine
 10
-207.875000053028
 20
-134.3039360996078
 30
0.0
 11
-207.8750000530263
 21
-134.5875001909092
 31
0.0
  0
LINE
  5
227
330
5C
100
AcDbEntity
  8
0
  6
Continuous
 62
     7
100
AcDbLine
 10
-207.8750000530263
 20
-134.5875001909092
 30
0.0
 11
-207.8750000529579
 21
-144.0875001907005
 31
0.0
  0
LINE
  5
228
330
5C
100
AcDbEntity
  8
0
  6
Continuous
 62
     7
100
AcDbLine
 10
-207.8750000530501
 20
-131.0375001908088
 30
0.0
 11
-207.8750000530459
 21
-131.8141624772311
 31
0.0
  0
LINE
  5
229
330
5C
100
AcDbEntity
  8
0
  6
Continuous
 62
     7
100
AcDbLine
 10
-208.5750000477523
 20
-112.0008467105657
 30
0.0
 11
-208.5750000478647
 21
-106.3875001908254
 31
0.0
  0
LINE
  5
22A
330
5C
100
AcDbEntity
  8
0
  6
Continuous
 62
     7
100
AcDbLine
 10
-207.1200002850883
 20
-105.2124999774958
 30
0.0
 11
-207.0383962011037
 21
-105.3875002348761
 31
0.0
  0
LINE
  5
22B
330
5C
100
AcDbEntity
  8
0
  6
Continuous
 62
     7
100
AcDbLine
 10
-206.0500000584358
 20
-144.0875001906874
 30
0.0
 11
-207.8750000529579
 21
-144.0875001907005
 31
0.0
  0
LINE
  5
22C
330
5C
100
AcDbEntity
  8
0
  6
Continuous
 62
     7
100
AcDbLine
 10
-203.6250000529601
 20
-144.0875001906699
 30
0.0
 11
-205.0500000584358
 21
-144.0875001906802
 31
0.0
  0
LINE
  5
22D
330
5C
100
AcDbEntity
  8
0
  6
Continuous
 62
     7
100
AcDbLine
 10
-204.9500000530226
 20
-134.3039360995867
 30
0.0
 11
-203.6250000530285
 21
-134.3039360995772
 31
0.0
  0
LINE
  5
22E
330
5C
100
AcDbEntity
  8
0
  6
Continuous
 62
     7
100
AcDbLine
 10
-207.875000053028
 20
-134.3039360996078
 30
0.0
 11
-206.5500000530226
 21
-134.3039360995983
 31
0.0
  0
LINE
  5
22F
330
5C
100
AcDbEntity
  8
0
  6
Continuous
 62
     7
100
AcDbLine
 10
-204.9500000530226
 20
-134.5875001908881
 30
0.0
 11
-203.6250000530269
 21
-134.5875001908786
 31
0.0
  0
LINE
  5
230
330
5C
100
AcDbEntity
  8
0
  6
Continuous
 62
     7
100
AcDbLine
 10
-206.5500000530235
 20
-139.0875001907052
 30
0.0
 11
-204.9500000530235
 21
-139.0875001907054
 31
0.0
  0
LINE
  5
231
330
5C
100
AcDbEntity
  8
0
  6
Continuous
 62
     7
100
AcDbLine
 10
-207.8750000530263
 20
-134.5875001909092
 30
0.0
 11
-206.5500000530226
 21
-134.5875001908997
 31
0.0
  0
LINE
  5
232
330
5C
100
AcDbEntity
  8
0
  6
Continuous
 62
     7
100
AcDbLine
 10
-205.0500000584389
 20
-143.0796315670818
 30
0.0
 11
-206.0500000584389
 21
-143.0796315670874
 31
0.0
  0
LINE
  5
233
330
5C
100
AcDbEntity
  8
0
  6
Continuous
 62
     7
100
AcDbLine
 10
-206.0500000584389
 20
-143.0796315670874
 30
0.0
 11
-206.050000058465
 21
-140.017170881878
 31
0.0
  0
LINE
  5
234
330
5C
100
AcDbEntity
  8
0
  6
Continuous
 62
     7
100
AcDbLine
 10
-204.2200000531348
 20
-105.2124998614965
 30
0.0
 11
-205.119999705201
 21
-105.212499861503
 31
0.0
  0
LINE
  5
235
330
5C
100
AcDbEntity
  8
0
  6
Continuous
 62
     7
100
AcDbLine
 10
-205.119999705201
 20
-105.212499861503
 30
0.0
 11
-205.119999705201
 21
-105.3875002348623
 31
0.0
  0
LINE
  5
236
330
5C
100
AcDbEntity
  8
0
  6
Continuous
 62
     7
100
AcDbLine
 10
-205.0500000584389
 20
-143.0796315670818
 30
0.0
 11
-205.0500000584358
 21
-144.0875001906802
 31
0.0
  0
LINE
  5
237
330
5C
100
AcDbEntity
  8
0
  6
Continuous
 62
     7
100
AcDbLine
 10
-205.2016039051505
 20
-105.3875002348629
 30
0.0
 11
-205.119999705201
 21
-105.212499861503
 31
0.0
  0
LINE
  5
238
330
5C
100
AcDbEntity
  8
0
  6
Continuous
 62
     7
100
AcDbLine
 10
-205.0500000584389
 20
-143.0796315670818
 30
0.0
 11
-205.050000058465
 21
-140.0171708818732
 31
0.0
  0
LINE
  5
239
330
5C
100
AcDbEntity
  8
0
  6
Continuous
 62
     7
100
AcDbLine
 10
-204.9500000530219
 20
-130.9875001907055
 30
0.0
 11
-204.9500000530235
 21
-139.0875001907054
 31
0.0
  0
LINE
  5
23A
330
5C
100
AcDbEntity
  8
0
  6
Continuous
 62
     7
100
AcDbLine
 10
-205.119999705201
 20
-105.212499861503
 30
0.0
 11
-207.1200002850883
 21
-105.2124999774958
 31
0.0
  0
LINE
  5
23B
330
5C
100
AcDbEntity
  8
0
  6
Continuous
 62
     7
100
AcDbLine
 10
-203.4250000478923
 20
-104.4125001905932
 30
0.0
 11
-208.5750000478923
 21
-104.4125001906302
 31
0.0
  0
LINE
  5
23C
330
5C
100
AcDbEntity
  8
0
  6
Continuous
 62
     7
100
AcDbLine
 10
-208.5750000478497
 20
-112.2825815613159
 30
0.0
 11
-208.5750000478369
 21
-112.4880189870627
 31
0.0
  0
LINE
  5
23D
330
5C
100
AcDbEntity
  8
0
  6
Continuous
 62
     7
100
AcDbLine
 10
-204.220000053133
 20
-105.3875002348558
 30
0.0
 11
-204.2200000531348
 21
-105.2124998614965
 31
0.0
  0
LINE
  5
23E
330
5C
100
AcDbEntity
  8
0
  6
Continuous
 62
     7
100
AcDbLine
 10
-208.5750000477473
 20
-112.2188036418097
 30
0.0
 11
-208.5750000478497
 21
-112.2825815613159
 31
0.0
  0
LINE
  5
23F
330
5C
100
AcDbEntity
  8
0
  6
Continuous
 62
     7
100
AcDbLine
 10
-208.5750000478647
 20
-106.3875001908254
 30
0.0
 11
-208.5750000477984
 21
-106.2635666429934
 31
0.0
  0
LINE
  5
240
330
5C
100
AcDbEntity
  8
0
  6
Continuous
 62
     7
100
AcDbLine
 10
-208.5750000478018
 20
-105.3875002348871
 30
0.0
 11
-208.5750000478923
 21
-104.4125001906302
 31
0.0
  0
LINE
  5
241
330
5C
100
AcDbEntity
  8
0
  6
Continuous
 62
     7
100
AcDbLine
 10
-203.4250000478018
 20
-105.3875002348501
 30
0.0
 11
-203.4250000477977
 21
-105.8952610933908
 31
0.0
  0
LINE
  5
242
330
5C
100
AcDbEntity
  8
0
  6
Continuous
 62
     7
100
AcDbLine
 10
-203.4250000478018
 20
-105.3875002348501
 30
0.0
 11
-208.5750000478018
 21
-105.3875002348871
 31
0.0
  0
LINE
  5
243
330
5C
100
AcDbEntity
  8
0
  6
Continuous
 62
     7
100
AcDbLine
 10
-208.5750000477977
 20
-105.8952610934128
 30
0.0
 11
-203.4250000477977
 21
-105.8952610933908
 31
0.0
  0
LINE
  5
244
330
5C
100
AcDbEntity
  8
0
  6
Continuous
 62
     7
100
AcDbLine
 10
-203.4250000477977
 20
-105.8952610933908
 30
0.0
 11
-203.4250000478006
 21
-105.9932887614422
 31
0.0
  0
LINE
  5
245
330
5C
100
AcDbEntity
  8
0
  6
Continuous
 62
     7
100
AcDbLine
 10
-208.5750000477984
 20
-106.2635666429934
 30
0.0
 11
-203.4250000477984
 21
-106.2635666429778
 31
0.0
  0
LINE
  5
246
330
5C
100
AcDbEntity
  8
0
  6
Continuous
 62
     7
100
AcDbLine
 10
-203.4250000477523
 20
-112.0008467105291
 30
0.0
 11
-208.5750000477523
 21
-112.0008467105657
 31
0.0
  0
LINE
  5
247
330
5C
100
AcDbEntity
  8
0
  6
Continuous
 62
     7
100
AcDbLine
 10
-203.4250000478497
 20
-112.2825815612794
 30
0.0
 11
-203.4250000478369
 21
-112.4880189870332
 31
0.0
  0
LINE
  5
248
330
5C
100
AcDbEntity
  8
0
  6
Continuous
 62
     7
100
AcDbLine
 10
-203.4250000476408
 20
-129.9875001906701
 30
0.0
 11
-203.4250000478463
 21
-112.7830401889506
 31
0.0
  0
LINE
  5
249
330
5C
100
AcDbEntity
  8
0
  6
Continuous
 62
     7
100
AcDbLine
 10
-203.4250000477473
 20
-112.2188036417731
 30
0.0
 11
-203.4250000478497
 21
-112.2825815612794
 31
0.0
  0
LINE
  5
24A
330
5C
100
AcDbEntity
  8
0
  6
Continuous
 62
     7
100
AcDbLine
 10
-203.4250000478369
 20
-112.4880189870332
 30
0.0
 11
-203.4250000478463
 21
-112.7830401889506
 31
0.0
  0
LINE
  5
24B
330
5C
100
AcDbEntity
  8
0
  6
Continuous
 62
     7
100
AcDbLine
 10
-208.5750000477473
 20
-112.2188036418097
 30
0.0
 11
-203.4250000477473
 21
-112.2188036417731
 31
0.0
  0
LINE
  5
24C
330
5C
100
AcDbEntity
  8
0
  6
Continuous
 62
     7
100
AcDbLine
 10
-208.5750000476662
 20
-123.4875001907646
 30
0.0
 11
-207.7750000476661
 21
-123.4875001907589
 31
0.0
  0
LINE
  5
24D
330
5C
100
AcDbEntity
  8
0
  6
Continuous
 62
     7
100
AcDbLine
 10
-208.5750000476662
 20
-123.4875001907646
 30
0.0
 11
-208.5750000476439
 21
-125.6320071113569
 31
0.0
  0
LINE
  5
24E
330
5C
100
AcDbEntity
  8
0
  6
Continuous
 62
     7
100
AcDbLine
 10
-208.5750000478369
 20
-112.4880189870627
 30
0.0
 11
-208.5750000476662
 21
-123.4875001907646
 31
0.0
  0
LINE
  5
24F
330
5C
100
AcDbEntity
  8
0
  6
Continuous
 62
     7
100
AcDbLine
 10
-203.4250000478018
 20
-105.3875002348501
 30
0.0
 11
-203.4250000478923
 21
-104.4125001905932
 31
0.0
  0
LINE
  5
250
330
5C
100
AcDbEntity
  8
0
  6
Continuous
 62
     7
100
AcDbLine
 10
-203.4250000478056
 20
-106.0975002436535
 30
0.0
 11
-203.4250000477984
 21
-106.2635666429778
 31
0.0
  0
LINE
  5
251
330
5C
100
AcDbEntity
  8
0
  6
Continuous
 62
     7
100
AcDbLine
 10
-203.4250000478647
 20
-106.3875001907884
 30
0.0
 11
-203.4250000477984
 21
-106.2635666429778
 31
0.0
  0
LINE
  5
252
330
5C
100
AcDbEntity
  8
0
  6
Continuous
 62
     7
100
AcDbLine
 10
-203.4250000478006
 20
-105.9932887614422
 30
0.0
 11
-203.4250000478056
 21
-106.0975002436535
 31
0.0
  0
LINE
  5
253
330
5C
100
AcDbEntity
  8
0
  6
Continuous
 62
     7
100
AcDbLine
 10
-203.4250000477523
 20
-112.0008467105291
 30
0.0
 11
-203.4250000477473
 21
-112.2188036417731
 31
0.0
  0
LINE
  5
254
330
5C
100
AcDbEntity
  8
0
  6
Continuous
 62
     7
100
AcDbLine
 10
-203.6250000530269
 20
-134.5875001908786
 30
0.0
 11
-203.6250000530285
 21
-134.3039360995772
 31
0.0
  0
LINE
  5
255
330
5C
100
AcDbEntity
  8
0
  6
Continuous
 62
     7
100
AcDbLine
 10
-203.6250000529529
 20
-145.5875001905968
 30
0.0
 11
-203.6250000529601
 21
-144.0875001906699
 31
0.0
  0
LINE
  5
256
330
5C
100
AcDbEntity
  8
0
  6
Continuous
 62
     7
100
AcDbLine
 10
-203.6250000529601
 20
-144.0875001906699
 30
0.0
 11
-203.6250000530269
 21
-134.5875001908786
 31
0.0
  0
LINE
  5
257
330
5C
100
AcDbEntity
  8
0
  6
Continuous
 62
     7
100
AcDbLine
 10
-203.6250000530285
 20
-134.3039360995772
 30
0.0
 11
-203.625000053046
 21
-131.8141624772005
 31
0.0
  0
LINE
  5
258
330
5C
100
AcDbEntity
  8
0
  6
Continuous
 62
     7
100
AcDbLine
 10
-203.4250000476408
 20
-129.9875001906701
 30
0.0
 11
-203.4250000476367
 21
-130.7518705817575
 31
0.0
  0
LINE
  5
259
330
5C
100
AcDbEntity
  8
0
  6
Continuous
 62
     7
100
AcDbLine
 10
-203.4250000478647
 20
-106.3875001907884
 30
0.0
 11
-203.4250000535277
 21
-111.7875002349277
 31
0.0
  0
LINE
  5
25A
330
5C
100
AcDbEntity
  8
0
  6
Continuous
 62
     7
100
AcDbLine
 10
-203.4250000535277
 20
-111.7875002349277
 30
0.0
 11
-203.4250000477523
 21
-112.0008467105291
 31
0.0
  0
LINE
  5
25B
330
5C
100
AcDbEntity
  8
0
  6
Continuous
 62
     7
100
AcDbLine
 10
-203.6250000530501
 20
-131.0375001828537
 30
0.0
 11
-203.4250000476367
 21
-130.7518705817575
 31
0.0
  0
ARC
  5
25C
330
5C
100
AcDbEntity
  8
0
  6
Continuous
 62
     7
100
AcDbCircle
 10
-207.1250000613079
 20
-126.8475003402353
 30
0.0
 40
0.3999999972539854
100
AcDbArc
 50
179.9999993195404
 51
239.9999993195347
  0
ARC
  5
25D
330
5C
100
AcDbEntity
  8
0
  6
Continuous
 62
     7
100
AcDbCircle
 10
-206.9750000585619
 20
-126.8475003354769
 30
0.0
 40
0.5499999999999972
100
AcDbArc
 50
90.00000000039677
 51
180.0000000008231
  0
ARC
  5
25E
330
5C
100
AcDbEntity
  8
0
  6
Continuous
 62
     7
100
AcDbCircle
 10
-205.1750000585618
 20
-126.847500335464
 30
0.0
 40
0.5500000000000229
100
AcDbArc
 50
300.0000000004096
 51
90.00000000040563
  0
ARC
  5
25F
330
5C
100
AcDbEntity
  8
0
  6
Continuous
 62
     7
100
AcDbCircle
 10
-205.1250000585648
 20
-127.9155983334705
 30
0.0
 40
0.4000000000000069
100
AcDbArc
 50
120.0000000003971
 51
179.9999999999858
  0
ARC
  5
260
330
5C
100
AcDbEntity
  8
0
  6
Continuous
 62
     7
100
AcDbCircle
 10
-207.1250000585648
 20
-127.8867308231809
 30
0.0
 40
0.5
100
AcDbArc
 50
359.9999999999886
 51
60.00000000081952
  0
ARC
  5
261
330
5C
100
AcDbEntity
  8
0
  6
Continuous
 62
     7
100
AcDbCircle
 10
-206.075000058568
 20
-128.0375003355066
 30
0.0
 40
0.5500000000030809
100
AcDbArc
 50
179.9999999999911
 51
359.9999999999881
  0
ENDBLK
  5
5E
330
5C
100
AcDbEntity
  8
0
100
AcDbBlockEnd
  0
BLOCK
  5
61
330
5F
100
AcDbEntity
  8
0
100
AcDbBlockBegin
  2
SA_Links1
 70
     0
 10
-206.000000000005
 20
-124.99999999994
 30
0.0
  3
SA_Links1
  1

  0
INSERT
  5
60
330
5F
100
AcDbEntity
  8
0
100
AcDbBlockReference
  2
PP_2_5_1-select__4
 10
-208.5750000478923
 20
-145.5875001906274
 30
0.0
  0
MTEXT
  5
262
330
5F
100
AcDbEntity
  8
1
 62
     6
100
AcDbMText
 10
-206.000000000005
 20
-150.5875005721446
 30
0.0
 40
5.0
 41
0.0
 71
     2
 72
     1
  1
 
  7
CONVERTER_11
 73
     1
 44
1.32052821128451
  0
ENDBLK
  5
62
330
5F
100
AcDbEntity
  8
0
100
AcDbBlockEnd
  0
BLOCK
  5
64
330
63
100
AcDbEntity
  8
0
100
AcDbBlockBegin
  2
PP_2_5_1-select__5
 70
     0
 10
-342.7250004057194
 20
-145.5875001906286
 30
0.0
  3
PP_2_5_1-select__5
  1

  0
LINE
  5
263
330
63
100
AcDbEntity
  8
0
  6
Continuous
 62
     7
100
AcDbLine
 10
-342.7250004055086
 20
-104.4125001905935
 30
0.0
 11
-342.7250004055182
 21
-105.9066994705699
 31
0.0
  0
LINE
  5
264
330
63
100
AcDbEntity
  8
0
  6
Continuous
 62
     7
100
AcDbLine
 10
-342.1250004002634
 20
-124.3041667944549
 30
0.0
 11
-342.1250004002638
 21
-119.459966660209
 31
0.0
  0
LINE
  5
265
330
63
100
AcDbEntity
  8
0
  6
Continuous
 62
     7
100
AcDbLine
 10
-342.7250004057124
 20
-129.9875001906716
 30
0.0
 11
-342.7250004056572
 21
-125.8041668574845
 31
0.0
  0
LINE
  5
266
330
63
100
AcDbEntity
  8
0
  6
Continuous
 62
     7
100
AcDbLine
 10
-342.7250004057194
 20
-130.7518705817575
 30
0.0
 11
-342.7250004057124
 21
-129.9875001906716
 31
0.0
  0
LINE
  5
267
330
63
100
AcDbEntity
  8
0
  6
Continuous
 62
     7
100
AcDbLine
 10
-342.125000400265
 20
-125.2515417377152
 30
0.0
 11
-342.1250004002634
 21
-124.3041667944549
 31
0.0
  0
LINE
  5
268
330
63
100
AcDbEntity
  8
0
  6
Continuous
 62
     7
100
AcDbLine
 10
-342.7250004056572
 20
-125.8041668574845
 30
0.0
 11
-342.7250004056433
 21
-124.3041667944507
 31
0.0
  0
LINE
  5
269
330
63
100
AcDbEntity
  8
0
  6
Continuous
 62
     7
100
AcDbLine
 10
-342.1250004002809
 20
-125.8041668574888
 30
0.0
 11
-342.7250004056572
 21
-125.8041668574845
 31
0.0
  0
LINE
  5
26A
330
63
100
AcDbEntity
  8
0
  6
Continuous
 62
     7
100
AcDbLine
 10
-342.1250004002695
 20
-118.0375002342679
 30
0.0
 11
-342.1250004002696
 21
-117.8875002343416
 31
0.0
  0
LINE
  5
26B
330
63
100
AcDbEntity
  8
0
  6
Continuous
 62
     7
100
AcDbLine
 10
-342.7250004056091
 20
-118.0375002342678
 30
0.0
 11
-342.1250004002695
 21
-118.0375002342679
 31
0.0
  0
LINE
  5
26C
330
63
100
AcDbEntity
  8
0
  6
Continuous
 62
     7
100
AcDbLine
 10
-342.125000400267
 20
-115.158500190687
 30
0.0
 11
-342.1250004002643
 21
-114.8764450988581
 31
0.0
  0
LINE
  5
26D
330
63
100
AcDbEntity
  8
0
  6
Continuous
 62
     7
100
AcDbLine
 10
-342.1250004002765
 20
-114.551041785669
 30
0.0
 11
-342.1250004002644
 21
-113.3875003353938
 31
0.0
  0
LINE
  5
26E
330
63
100
AcDbEntity
  8
0
  6
Continuous
 62
     7
100
AcDbLine
 10
-342.1250004002643
 20
-114.8764450988581
 30
0.0
 11
-342.1250004002765
 21
-114.551041785669
 31
0.0
  0
LINE
  5
26F
330
63
100
AcDbEntity
  8
0
  6
Continuous
 62
     7
100
AcDbLine
 10
-342.7250004055869
 20
-114.5510417856691
 30
0.0
 11
-342.1250004002765
 21
-114.551041785669
 31
0.0
  0
LINE
  5
270
330
63
100
AcDbEntity
  8
0
  6
Continuous
 62
     7
100
AcDbLine
 10
-342.1250004002803
 20
-128.787500190612
 30
0.0
 11
-342.1250004002852
 21
-128.0875001907099
 31
0.0
  0
LINE
  5
271
330
63
100
AcDbEntity
  8
0
  6
Continuous
 62
     7
100
AcDbLine
 10
-342.1250004003115
 20
-126.87851602364
 30
0.0
 11
-342.1250004002906
 21
-126.2875001907098
 31
0.0
  0
LINE
  5
272
330
63
100
AcDbEntity
  8
0
  6
Continuous
 62
     7
100
AcDbLine
 10
-342.1250004002906
 20
-126.2875001907098
 30
0.0
 11
-342.1250004002809
 21
-125.8041668574888
 31
0.0
  0
LINE
  5
273
330
63
100
AcDbEntity
  8
0
  6
Continuous
 62
     7
100
AcDbLine
 10
-342.1250004002852
 20
-128.0875001907099
 30
0.0
 11
-342.1250004003115
 21
-126.87851602364
 31
0.0
  0
LINE
  5
274
330
63
100
AcDbEntity
  8
0
  6
Continuous
 62
     7
100
AcDbLine
 10
-342.7250004056085
 20
-119.4599666602098
 30
0.0
 11
-342.1250004002638
 21
-119.459966660209
 31
0.0
  0
LINE
  5
275
330
63
100
AcDbEntity
  8
0
  6
Continuous
 62
     7
100
AcDbLine
 10
-342.5250004003068
 20
-131.0375001828551
 30
0.0
 11
-342.5250004003137
 21
-131.814162477893
 31
0.0
  0
LINE
  5
276
330
63
100
AcDbEntity
  8
0
  6
Continuous
 62
     7
100
AcDbLine
 10
-342.1250004002634
 20
-124.3041667944549
 30
0.0
 11
-342.7250004056433
 21
-124.3041667944507
 31
0.0
  0
LINE
  5
277
330
63
100
AcDbEntity
  8
0
  6
Continuous
 62
     7
100
AcDbLine
 10
-342.1250004002644
 20
-113.3875003353938
 30
0.0
 11
-342.7250004055647
 21
-113.3875003353938
 31
0.0
  0
LINE
  5
278
330
63
100
AcDbEntity
  8
0
  6
Continuous
 62
     7
100
AcDbLine
 10
-342.7250004056115
 20
-105.9932887614422
 30
0.0
 11
-342.7250004055182
 21
-105.9066994705699
 31
0.0
  0
LINE
  5
279
330
63
100
AcDbEntity
  8
0
  6
Continuous
 62
     7
100
AcDbLine
 10
-342.7250004056137
 20
-106.2635666429778
 30
0.0
 11
-342.7250004056115
 21
-105.9932887614422
 31
0.0
  0
LINE
  5
27A
330
63
100
AcDbEntity
  8
0
  6
Continuous
 62
     7
100
AcDbLine
 10
-342.5250004003312
 20
-134.3039360996982
 30
0.0
 11
-342.5250004003335
 21
-134.5875001902743
 31
0.0
  0
LINE
  5
27B
330
63
100
AcDbEntity
  8
0
  6
Continuous
 62
     7
100
AcDbLine
 10
-342.5250004004003
 20
-144.0875001905982
 30
0.0
 11
-342.5250004004143
 21
-145.587500190598
 31
0.0
  0
LINE
  5
27C
330
63
100
AcDbEntity
  8
0
  6
Continuous
 62
     7
100
AcDbLine
 10
-342.5250004004003
 20
-144.0875001905982
 30
0.0
 11
-342.5250004003335
 21
-134.5875001902743
 31
0.0
  0
LINE
  5
27D
330
63
100
AcDbEntity
  8
0
  6
Continuous
 62
     7
100
AcDbLine
 10
-342.5250004003137
 20
-131.814162477893
 30
0.0
 11
-342.5250004003312
 21
-134.3039360996982
 31
0.0
  0
LINE
  5
27E
330
63
100
AcDbEntity
  8
0
  6
Continuous
 62
     7
100
AcDbLine
 10
-342.7250004055869
 20
-114.5510417856691
 30
0.0
 11
-342.7250004055932
 21
-115.8286779490768
 31
0.0
  0
LINE
  5
27F
330
63
100
AcDbEntity
  8
0
  6
Continuous
 62
     7
100
AcDbLine
 10
-342.7250004055932
 20
-115.8286779490768
 30
0.0
 11
-342.7250004056091
 21
-118.0375002342678
 31
0.0
  0
LINE
  5
280
330
63
100
AcDbEntity
  8
0
  6
Continuous
 62
     7
100
AcDbLine
 10
-342.7250004056091
 20
-118.0375002342678
 30
0.0
 11
-342.7250004056085
 21
-119.4599666602098
 31
0.0
  0
LINE
  5
281
330
63
100
AcDbEntity
  8
0
  6
Continuous
 62
     7
100
AcDbLine
 10
-342.7250004056085
 20
-119.4599666602098
 30
0.0
 11
-342.7250004056433
 21
-124.3041667944507
 31
0.0
  0
LINE
  5
282
330
63
100
AcDbEntity
  8
0
  6
Continuous
 62
     7
100
AcDbLine
 10
-342.1250004002638
 20
-119.459966660209
 30
0.0
 11
-342.1250004002695
 21
-118.0375002342679
 31
0.0
  0
LINE
  5
283
330
63
100
AcDbEntity
  8
0
  6
Continuous
 62
     7
100
AcDbLine
 10
-342.7250004057194
 20
-130.7518705817575
 30
0.0
 11
-342.5250004003068
 21
-131.0375001828551
 31
0.0
  0
LINE
  5
284
330
63
100
AcDbEntity
  8
0
  6
Continuous
 62
     7
100
AcDbLine
 10
-338.2750004004168
 20
-145.5875001906286
 30
0.0
 11
-342.5250004004143
 21
-145.587500190598
 31
0.0
  0
LINE
  5
285
330
63
100
AcDbEntity
  8
0
  6
Continuous
 62
     7
100
AcDbLine
 10
-338.0750004002904
 20
-126.287500190709
 30
0.0
 11
-342.1250004002906
 21
-126.2875001907098
 31
0.0
  0
LINE
  5
286
330
63
100
AcDbEntity
  8
0
  6
Continuous
 62
     7
100
AcDbLine
 10
-338.0750004002802
 20
-128.7875001906112
 30
0.0
 11
-342.1250004002803
 21
-128.787500190612
 31
0.0
  0
LINE
  5
287
330
63
100
AcDbEntity
  8
0
  6
Continuous
 62
     7
100
AcDbLine
 10
-338.275000400314
 20
-131.8141624779236
 30
0.0
 11
-338.275000400307
 21
-131.0375001908103
 31
0.0
  0
LINE
  5
288
330
63
100
AcDbEntity
  8
0
  6
Continuous
 62
     7
100
AcDbLine
 10
-342.1250004002809
 20
-125.8041668574888
 30
0.0
 11
-338.0750004002807
 21
-125.8041668575179
 31
0.0
  0
LINE
  5
289
330
63
100
AcDbEntity
  8
0
  6
Continuous
 62
     7
100
AcDbLine
 10
-338.075000400265
 20
-125.2515417377169
 30
0.0
 11
-342.125000400265
 21
-125.2515417377152
 31
0.0
  0
LINE
  5
28A
330
63
100
AcDbEntity
  8
0
  6
Continuous
 62
     7
100
AcDbLine
 10
-338.075000400285
 20
-128.0875001907091
 30
0.0
 11
-342.1250004002852
 21
-128.0875001907099
 31
0.0
  0
LINE
  5
28B
330
63
100
AcDbEntity
  8
0
  6
Continuous
 62
     7
100
AcDbLine
 10
-342.5250004004003
 20
-144.0875001905982
 30
0.0
 11
-338.2750004004026
 21
-144.0875001906288
 31
0.0
  0
LINE
  5
28C
330
63
100
AcDbEntity
  8
0
  6
Continuous
 62
     7
100
AcDbLine
 10
-342.7250004055242
 20
-106.2750050335376
 30
0.0
 11
-342.7250004056137
 21
-106.2635666429778
 31
0.0
  0
LINE
  5
28D
330
63
100
AcDbEntity
  8
0
  6
Continuous
 62
     7
100
AcDbLine
 10
-342.7250004055932
 20
-115.8286779490768
 30
0.0
 11
-338.0750004002738
 21
-115.8286779490764
 31
0.0
  0
LINE
  5
28E
330
63
100
AcDbEntity
  8
0
  6
Continuous
 62
     7
100
AcDbLine
 10
-338.075000400267
 20
-115.1585001906867
 30
0.0
 11
-342.125000400267
 21
-115.158500190687
 31
0.0
  0
LINE
  5
28F
330
63
100
AcDbEntity
  8
0
  6
Continuous
 62
     7
100
AcDbLine
 10
-342.1250004002696
 20
-117.8875002343416
 30
0.0
 11
-338.0750004002696
 21
-117.8875002343413
 31
0.0
  0
LINE
  5
290
330
63
100
AcDbEntity
  8
0
  6
Continuous
 62
     7
100
AcDbLine
 10
-342.7250004055575
 20
-112.37736562925
 30
0.0
 11
-342.7250004055647
 21
-113.3875003353938
 31
0.0
  0
LINE
  5
291
330
63
100
AcDbEntity
  8
0
  6
Continuous
 62
     7
100
AcDbLine
 10
-342.7250004055647
 20
-113.3875003353938
 30
0.0
 11
-342.7250004055869
 21
-114.5510417856691
 31
0.0
  0
LINE
  5
292
330
63
100
AcDbEntity
  8
0
  6
Continuous
 62
     7
100
AcDbLine
 10
-342.1250004002643
 20
-114.8764450988581
 30
0.0
 11
-338.0750004002643
 21
-114.8764450988589
 31
0.0
  0
LINE
  5
293
330
63
100
AcDbEntity
  8
0
  6
Continuous
 62
     7
100
AcDbLine
 10
-342.7250004055575
 20
-112.37736562925
 30
0.0
 11
-342.7250004056619
 21
-112.2711245918909
 31
0.0
  0
LINE
  5
294
330
63
100
AcDbEntity
  8
0
  6
Continuous
 62
     7
100
AcDbLine
 10
-337.5750004055575
 20
-112.377365629287
 30
0.0
 11
-342.7250004055575
 21
-112.37736562925
 31
0.0
  0
LINE
  5
295
330
63
100
AcDbEntity
  8
0
  6
Continuous
 62
     7
100
AcDbLine
 10
-337.5750004056619
 20
-112.2711245919275
 30
0.0
 11
-337.5750004055607
 21
-112.0123036797855
 31
0.0
  0
LINE
  5
296
330
63
100
AcDbEntity
  8
0
  6
Continuous
 62
     7
100
AcDbLine
 10
-337.5750004055575
 20
-112.377365629287
 30
0.0
 11
-337.5750004056619
 21
-112.2711245919275
 31
0.0
  0
LINE
  5
297
330
63
100
AcDbEntity
  8
0
  6
Continuous
 62
     7
100
AcDbLine
 10
-342.7250004055607
 20
-112.0123036797592
 30
0.0
 11
-342.7250004055242
 21
-106.2750050335376
 31
0.0
  0
LINE
  5
298
330
63
100
AcDbEntity
  8
0
  6
Continuous
 62
     7
100
AcDbLine
 10
-342.7250004055242
 20
-106.2750050335376
 30
0.0
 11
-337.5750004055241
 21
-106.2750050335894
 31
0.0
  0
LINE
  5
299
330
63
100
AcDbEntity
  8
0
  6
Continuous
 62
     7
100
AcDbLine
 10
-337.5750004055607
 20
-112.0123036797855
 30
0.0
 11
-337.5750004055241
 21
-106.2750050335894
 31
0.0
  0
LINE
  5
29A
330
63
100
AcDbEntity
  8
0
  6
Continuous
 62
     7
100
AcDbLine
 10
-342.7250004056619
 20
-112.2711245918909
 30
0.0
 11
-342.7250004055607
 21
-112.0123036797592
 31
0.0
  0
LINE
  5
29B
330
63
100
AcDbEntity
  8
0
  6
Continuous
 62
     7
100
AcDbLine
 10
-337.5750004055607
 20
-112.0123036797855
 30
0.0
 11
-342.7250004055607
 21
-112.0123036797592
 31
0.0
  0
LINE
  5
29C
330
63
100
AcDbEntity
  8
0
  6
Continuous
 62
     2
100
AcDbLine
 10
-338.0750004003114
 20
-126.8785160236393
 30
0.0
 11
-342.1250004003115
 21
-126.87851602364
 31
0.0
  0
LINE
  5
29D
330
63
100
AcDbEntity
  8
0
  6
Continuous
 62
     7
100
AcDbLine
 10
-342.7250004057124
 20
-129.9875001906716
 30
0.0
 11
-337.5750004057124
 21
-129.9875001907087
 31
0.0
  0
LINE
  5
29E
330
63
100
AcDbEntity
  8
0
  6
Continuous
 62
     7
100
AcDbLine
 10
-338.2750004003343
 20
-134.5875001903049
 30
0.0
 11
-342.5250004003335
 21
-134.5875001902743
 31
0.0
  0
LINE
  5
29F
330
63
100
AcDbEntity
  8
0
  6
Continuous
 62
     7
100
AcDbLine
 10
-338.2750004003319
 20
-134.3039360997288
 30
0.0
 11
-342.5250004003312
 21
-134.3039360996982
 31
0.0
  0
LINE
  5
2A0
330
63
100
AcDbEntity
  8
0
  6
Continuous
 62
     7
100
AcDbLine
 10
-338.275000400314
 20
-131.8141624779236
 30
0.0
 11
-342.5250004003137
 21
-131.814162477893
 31
0.0
  0
LINE
  5
2A1
330
63
100
AcDbEntity
  8
0
  6
Continuous
 62
     7
100
AcDbLine
 10
-342.7250004055086
 20
-104.4125001905935
 30
0.0
 11
-337.5750004055087
 21
-104.4125001906305
 31
0.0
  0
LINE
  5
2A2
330
63
100
AcDbEntity
  8
0
  6
Continuous
 62
     7
100
AcDbLine
 10
-337.5750004055087
 20
-104.4125001906305
 30
0.0
 11
-337.5750004055182
 21
-105.9066994706151
 31
0.0
  0
LINE
  5
2A3
330
63
100
AcDbEntity
  8
0
  6
Continuous
 62
     7
100
AcDbLine
 10
-342.7250004055182
 20
-105.9066994705699
 30
0.0
 11
-337.5750004055182
 21
-105.9066994706151
 31
0.0
  0
LINE
  5
2A4
330
63
100
AcDbEntity
  8
0
  6
Continuous
 62
     7
100
AcDbLine
 10
-337.5750004055241
 20
-106.2750050335894
 30
0.0
 11
-337.5750004056137
 21
-106.2635666429934
 31
0.0
  0
LINE
  5
2A5
330
63
100
AcDbEntity
  8
0
  6
Continuous
 62
     7
100
AcDbLine
 10
-337.5750004056115
 20
-105.9932887614787
 30
0.0
 11
-337.5750004055182
 21
-105.9066994706151
 31
0.0
  0
LINE
  5
2A6
330
63
100
AcDbEntity
  8
0
  6
Continuous
 62
     7
100
AcDbLine
 10
-337.5750004056137
 20
-106.2635666429934
 30
0.0
 11
-337.5750004056115
 21
-105.9932887614787
 31
0.0
  0
LINE
  5
2A7
330
63
100
AcDbEntity
  8
0
  6
Continuous
 62
     7
100
AcDbLine
 10
-337.5750004055575
 20
-112.377365629287
 30
0.0
 11
-337.5750004056433
 21
-124.3041667944877
 31
0.0
  0
LINE
  5
2A8
330
63
100
AcDbEntity
  8
0
  6
Continuous
 62
     7
100
AcDbLine
 10
-338.075000400267
 20
-115.1585001906867
 30
0.0
 11
-338.0750004002643
 21
-114.8764450988589
 31
0.0
  0
LINE
  5
2A9
330
63
100
AcDbEntity
  8
0
  6
Continuous
 62
     7
100
AcDbLine
 10
-338.0750004002738
 20
-115.8286779490764
 30
0.0
 11
-338.075000400267
 21
-115.1585001906867
 31
0.0
  0
LINE
  5
2AA
330
63
100
AcDbEntity
  8
0
  6
Continuous
 62
     7
100
AcDbLine
 10
-338.0750004002696
 20
-117.8875002343413
 30
0.0
 11
-338.0750004002738
 21
-115.8286779490764
 31
0.0
  0
LINE
  5
2AB
330
63
100
AcDbEntity
  8
0
  6
Continuous
 62
     7
100
AcDbLine
 10
-338.0750004002634
 20
-124.3041667944841
 30
0.0
 11
-338.0750004002696
 21
-117.8875002343413
 31
0.0
  0
LINE
  5
2AC
330
63
100
AcDbEntity
  8
0
  6
Continuous
 62
     7
100
AcDbLine
 10
-338.075000400265
 20
-125.2515417377169
 30
0.0
 11
-338.0750004002634
 21
-124.3041667944841
 31
0.0
  0
LINE
  5
2AD
330
63
100
AcDbEntity
  8
0
  6
Continuous
 62
     7
100
AcDbLine
 10
-337.5750004056433
 20
-124.3041667944877
 30
0.0
 11
-338.0750004002634
 21
-124.3041667944841
 31
0.0
  0
LINE
  5
2AE
330
63
100
AcDbEntity
  8
0
  6
Continuous
 62
     7
100
AcDbLine
 10
-337.5750004056572
 20
-125.8041668575216
 30
0.0
 11
-337.5750004056433
 21
-124.3041667944877
 31
0.0
  0
LINE
  5
2AF
330
63
100
AcDbEntity
  8
0
  6
Continuous
 62
     7
100
AcDbLine
 10
-338.0750004003114
 20
-126.8785160236393
 30
0.0
 11
-338.0750004002904
 21
-126.287500190709
 31
0.0
  0
LINE
  5
2B0
330
63
100
AcDbEntity
  8
0
  6
Continuous
 62
     7
100
AcDbLine
 10
-338.0750004002802
 20
-128.7875001906112
 30
0.0
 11
-338.075000400285
 21
-128.0875001907091
 31
0.0
  0
LINE
  5
2B1
330
63
100
AcDbEntity
  8
0
  6
Continuous
 62
     7
100
AcDbLine
 10
-338.0750004002904
 20
-126.287500190709
 30
0.0
 11
-338.0750004002807
 21
-125.8041668575179
 31
0.0
  0
LINE
  5
2B2
330
63
100
AcDbEntity
  8
0
  6
Continuous
 62
     7
100
AcDbLine
 10
-338.275000400307
 20
-131.0375001908103
 30
0.0
 11
-337.5750004057219
 21
-131.0375001908163
 31
0.0
  0
LINE
  5
2B3
330
63
100
AcDbEntity
  8
0
  6
Continuous
 62
     7
100
AcDbLine
 10
-337.5750004056572
 20
-125.8041668575216
 30
0.0
 11
-338.0750004002807
 21
-125.8041668575179
 31
0.0
  0
LINE
  5
2B4
330
63
100
AcDbEntity
  8
0
  6
Continuous
 62
     7
100
AcDbLine
 10
-338.2750004003343
 20
-134.5875001903049
 30
0.0
 11
-338.2750004003319
 21
-134.3039360997288
 31
0.0
  0
LINE
  5
2B5
330
63
100
AcDbEntity
  8
0
  6
Continuous
 62
     7
100
AcDbLine
 10
-338.2750004004168
 20
-145.5875001906286
 30
0.0
 11
-338.2750004004026
 21
-144.0875001906288
 31
0.0
  0
LINE
  5
2B6
330
63
100
AcDbEntity
  8
0
  6
Continuous
 62
     7
100
AcDbLine
 10
-338.2750004003319
 20
-134.3039360997288
 30
0.0
 11
-338.275000400314
 21
-131.8141624779236
 31
0.0
  0
LINE
  5
2B7
330
63
100
AcDbEntity
  8
0
  6
Continuous
 62
     7
100
AcDbLine
 10
-337.5750004057219
 20
-131.0375001908163
 30
0.0
 11
-337.5750004057124
 21
-129.9875001907087
 31
0.0
  0
LINE
  5
2B8
330
63
100
AcDbEntity
  8
0
  6
Continuous
 62
     7
100
AcDbLine
 10
-338.075000400285
 20
-128.0875001907091
 30
0.0
 11
-338.0750004003114
 21
-126.8785160236393
 31
0.0
  0
LINE
  5
2B9
330
63
100
AcDbEntity
  8
0
  6
Continuous
 62
     7
100
AcDbLine
 10
-337.5750004057124
 20
-129.9875001907087
 30
0.0
 11
-337.5750004056572
 21
-125.8041668575216
 31
0.0
  0
LINE
  5
2BA
330
63
100
AcDbEntity
  8
0
  6
Continuous
 62
     7
100
AcDbLine
 10
-338.2750004003343
 20
-134.5875001903049
 30
0.0
 11
-338.2750004004026
 21
-144.0875001906288
 31
0.0
  0
ENDBLK
  5
65
330
63
100
AcDbEntity
  8
0
100
AcDbBlockEnd
  0
BLOCK
  5
68
330
66
100
AcDbEntity
  8
0
100
AcDbBlockBegin
  2
SA_Rechts1
 70
     0
 10
-340.1500004534071
 20
-124.99999999994
 30
0.0
  3
SA_Rechts1
  1

  0
INSERT
  5
67
330
66
100
AcDbEntity
  8
0
100
AcDbBlockReference
  2
PP_2_5_1-select__5
 10
-342.7250004057194
 20
-145.5875001906286
 30
0.0
  0
MTEXT
  5
2BB
330
66
100
AcDbEntity
  8
1
 62
     6
100
AcDbMText
 10
-340.1500004534071
 20
-150.5875005721446
 30
0.0
 40
5.0
 41
0.0
 71
     2
 72
     1
  1
 
  7
CONVERTER_11
 73
     1
 44
1.32052821128451
  0
ENDBLK
  5
69
330
66
100
AcDbEntity
  8
0
100
AcDbBlockEnd
  0
BLOCK
  5
6B
330
6A
100
AcDbEntity
  8
0
100
AcDbBlockBegin
  2
PP_2_5_1-select__6
 70
     0
 10
-271.5750004292825
 20
-145.587500190598
 30
0.0
  3
PP_2_5_1-select__6
  1

  0
LINE
  5
2BC
330
6A
100
AcDbEntity
  8
0
  6
Continuous
 62
     7
100
AcDbLine
 10
-265.0250004291702
 20
-106.3875001908206
 30
0.0
 11
-264.0250004281159
 21
-106.3875001907865
 31
0.0
  0
LINE
  5
2BD
330
6A
100
AcDbEntity
  8
0
  6
Continuous
 62
     7
100
AcDbLine
 10
-267.0250005191689
 20
-106.3875001907852
 30
0.0
 11
-266.6250004274772
 21
-106.3875001907854
 31
0.0
  0
LINE
  5
2BE
330
6A
100
AcDbEntity
  8
0
  6
Continuous
 62
     7
100
AcDbLine
 10
-266.6250004274772
 20
-106.3875001907854
 30
0.0
 11
-266.6250004274794
 21
-111.7875002349012
 31
0.0
  0
LINE
  5
2BF
330
6A
100
AcDbEntity
  8
0
  6
Continuous
 62
     7
100
AcDbLine
 10
-266.6250004274772
 20
-106.3875001907854
 30
0.0
 11
-265.6250004291687
 21
-106.3875001908204
 31
0.0
  0
LINE
  5
2C0
330
6A
100
AcDbEntity
  8
0
  6
Continuous
 62
     2
100
AcDbLine
 10
-265.6250004291687
 20
-106.3875001908204
 30
0.0
 11
-265.6250004291462
 21
-112.7875002332891
 31
0.0
  0
LINE
  5
2C1
330
6A
100
AcDbEntity
  8
0
  6
Continuous
 62
     2
100
AcDbLine
 10
-265.0250004291401
 20
-112.7875002348342
 30
0.0
 11
-265.0250004291702
 21
-106.3875001908206
 31
0.0
  0
LINE
  5
2C2
330
6A
100
AcDbEntity
  8
0
  6
Continuous
 62
     7
100
AcDbLine
 10
-265.0250004291702
 20
-106.3875001908206
 30
0.0
 11
-265.6250004291687
 21
-106.3875001908204
 31
0.0
  0
LINE
  5
2C3
330
6A
100
AcDbEntity
  8
0
  6
Continuous
 62
     7
100
AcDbLine
 10
-265.6250004291462
 20
-112.7875002332891
 30
0.0
 11
-265.0250004291401
 21
-112.7875002348342
 31
0.0
  0
LINE
  5
2C4
330
6A
100
AcDbEntity
  8
0
  6
Continuous
 62
     7
100
AcDbLine
 10
-264.0250004281159
 20
-106.3875001907865
 30
0.0
 11
-264.0250004281181
 21
-111.7875002349277
 31
0.0
  0
LINE
  5
2C5
330
6A
100
AcDbEntity
  8
0
  6
Continuous
 62
     7
100
AcDbLine
 10
-267.4144531137905
 20
-129.9875001906701
 30
0.0
 11
-267.2096406847805
 21
-130.7518705817575
 31
0.0
  0
LINE
  5
2C6
330
6A
100
AcDbEntity
  8
0
  6
Continuous
 62
     7
100
AcDbLine
 10
-255.3750004292822
 20
-113.3875003353937
 30
0.0
 11
-255.3750004292789
 21
-112.7830401889506
 31
0.0
  0
LINE
  5
2C7
330
6A
100
AcDbEntity
  8
0
  6
Continuous
 62
     7
100
AcDbLine
 10
-255.3962617842692
 20
-118.0375002342679
 30
0.0
 11
-254.575000410332
 21
-119.4599666602098
 31
0.0
  0
LINE
  5
2C8
330
6A
100
AcDbEntity
  8
0
  6
Continuous
 62
     7
100
AcDbLine
 10
-255.4903597430889
 20
-118.0375002342679
 30
0.0
 11
-255.3962617842692
 21
-118.0375002342679
 31
0.0
  0
LINE
  5
2C9
330
6A
100
AcDbEntity
  8
0
  6
Continuous
 62
     7
100
AcDbLine
 10
-256.1750004102858
 20
-117.8875002343383
 30
0.0
 11
-256.1750004102822
 21
-118.0375002342678
 31
0.0
  0
LINE
  5
2CA
330
6A
100
AcDbEntity
  8
0
  6
Continuous
 62
     7
100
AcDbLine
 10
-256.6008791314099
 20
-114.5510417856691
 30
0.0
 11
-256.1750004102818
 21
-115.8286779490768
 31
0.0
  0
LINE
  5
2CB
330
6A
100
AcDbEntity
  8
0
  6
Continuous
 62
     7
100
AcDbLine
 10
-257.4729148096052
 20
-113.040631685034
 30
0.0
 11
-256.6008791314099
 21
-114.5510417856691
 31
0.0
  0
LINE
  5
2CC
330
6A
100
AcDbEntity
  8
0
  6
Continuous
 62
     7
100
AcDbLine
 10
-255.3750004292789
 20
-112.7830401889506
 30
0.0
 11
-257.4729148096052
 21
-113.040631685034
 31
0.0
  0
LINE
  5
2CD
330
6A
100
AcDbEntity
  8
0
  6
Continuous
 62
     7
100
AcDbLine
 10
-257.4750004102984
 20
-104.4125001905932
 30
0.0
 11
-255.8341907751476
 21
-104.4125001905935
 31
0.0
  0
LINE
  5
2CE
330
6A
100
AcDbEntity
  8
0
  6
Continuous
 62
     7
100
AcDbLine
 10
-259.4500004104891
 20
-106.3875001907884
 30
0.0
 11
-257.4750004102984
 21
-104.4125001905932
 31
0.0
  0
LINE
  5
2CF
330
6A
100
AcDbEntity
  8
0
  6
Continuous
 62
     7
100
AcDbLine
 10
-257.0750000813196
 20
-106.1155193410044
 30
0.0
 11
-256.172670113755
 21
-106.0047271521478
 31
0.0
  0
LINE
  5
2D0
330
6A
100
AcDbEntity
  8
0
  6
Continuous
 62
     7
100
AcDbLine
 10
-256.1750004102818
 20
-115.8286779490768
 30
0.0
 11
-256.1750004102858
 21
-117.8875002343383
 31
0.0
  0
LINE
  5
2D1
330
6A
100
AcDbEntity
  8
0
  6
Continuous
 62
     7
100
AcDbLine
 10
-255.5034830426111
 20
-117.8875002343416
 30
0.0
 11
-256.1750004102858
 21
-117.8875002343383
 31
0.0
  0
LINE
  5
2D2
330
6A
100
AcDbEntity
  8
0
  6
Continuous
 62
     7
100
AcDbLine
 10
-256.1750004102822
 20
-118.0375002342678
 30
0.0
 11
-255.4903597430889
 21
-118.0375002342679
 31
0.0
  0
LINE
  5
2D3
330
6A
100
AcDbEntity
  8
0
  6
Continuous
 62
     7
100
AcDbLine
 10
-255.4903597430889
 20
-118.0375002342679
 30
0.0
 11
-255.5034830426111
 21
-117.8875002343416
 31
0.0
  0
LINE
  5
2D4
330
6A
100
AcDbEntity
  8
0
  6
Continuous
 62
     7
100
AcDbLine
 10
-255.5250004292028
 20
-114.3517738531487
 30
0.0
 11
-255.5250004292045
 21
-114.6585001906843
 31
0.0
  0
LINE
  5
2D5
330
6A
100
AcDbEntity
  8
0
  6
Continuous
 62
     7
100
AcDbLine
 10
-256.1402554988903
 20
-113.8517738531453
 30
0.0
 11
-256.0250004292
 21
-113.8517738531459
 31
0.0
  0
LINE
  5
2D6
330
6A
100
AcDbEntity
  8
0
  6
Continuous
 62
     7
100
AcDbLine
 10
-256.6008791314099
 20
-114.5510417856691
 30
0.0
 11
-256.6145971479193
 21
-114.5098877361511
 31
0.0
  0
LINE
  5
2D7
330
6A
100
AcDbEntity
  8
0
  6
Continuous
 62
     7
100
AcDbLine
 10
-255.435032467707
 20
-112.0123036797592
 30
0.0
 11
-255.4018465167021
 21
-112.2825815612794
 31
0.0
  0
LINE
  5
2D8
330
6A
100
AcDbEntity
  8
0
  6
Continuous
 62
     7
100
AcDbLine
 10
-254.5750004103379
 20
-114.8764450988589
 30
0.0
 11
-254.5750004103309
 21
-113.3875003353938
 31
0.0
  0
LINE
  5
2D9
330
6A
100
AcDbEntity
  8
0
  6
Continuous
 62
     7
100
AcDbLine
 10
-254.575000410332
 20
-119.4599666602098
 30
0.0
 11
-254.5750004103328
 21
-124.3041667944507
 31
0.0
  0
LINE
  5
2DA
330
6A
100
AcDbEntity
  8
0
  6
Continuous
 62
     7
100
AcDbLine
 10
-254.575000410332
 20
-119.4599666602098
 30
0.0
 11
-254.5750004103379
 21
-114.8764450988589
 31
0.0
  0
LINE
  5
2DB
330
6A
100
AcDbEntity
  8
0
  6
Continuous
 62
     7
100
AcDbLine
 10
-254.5750004103309
 20
-113.3875003353938
 30
0.0
 11
-255.3750004292822
 21
-113.3875003353937
 31
0.0
  0
LINE
  5
2DC
330
6A
100
AcDbEntity
  8
0
  6
Continuous
 62
     7
100
AcDbLine
 10
-255.0250004292964
 20
-125.8041668574845
 30
0.0
 11
-254.5750004103328
 21
-124.3041667944507
 31
0.0
  0
LINE
  5
2DD
330
6A
100
AcDbEntity
  8
0
  6
Continuous
 62
     7
100
AcDbLine
 10
-254.5750004103307
 20
-112.37736562925
 30
0.0
 11
-255.435032467707
 21
-112.0123036797592
 31
0.0
  0
LINE
  5
2DE
330
6A
100
AcDbEntity
  8
0
  6
Continuous
 62
     7
100
AcDbLine
 10
-255.4018465167021
 20
-112.2825815612794
 30
0.0
 11
-257.0750000813207
 21
-112.4880189870332
 31
0.0
  0
LINE
  5
2DF
330
6A
100
AcDbEntity
  8
0
  6
Continuous
 62
     7
100
AcDbLine
 10
-266.3750004292451
 20
-145.5875001905968
 30
0.0
 11
-266.8750004292201
 21
-144.0875001906699
 31
0.0
  0
LINE
  5
2E0
330
6A
100
AcDbEntity
  8
0
  6
Continuous
 62
     7
100
AcDbLine
 10
-266.8750004292237
 20
-140.0171708818732
 30
0.0
 11
-266.8750004292307
 21
-139.0875001907066
 31
0.0
  0
LINE
  5
2E1
330
6A
100
AcDbEntity
  8
0
  6
Continuous
 62
     7
100
AcDbLine
 10
-266.8750004292303
 20
-137.8875001907066
 30
0.0
 11
-266.8750004292168
 21
-134.5875001908786
 31
0.0
  0
LINE
  5
2E2
330
6A
100
AcDbEntity
  8
0
  6
Continuous
 62
     7
100
AcDbLine
 10
-266.8750004292201
 20
-144.0875001906699
 30
0.0
 11
-266.8750004292237
 21
-140.0171708818732
 31
0.0
  0
LINE
  5
2E3
330
6A
100
AcDbEntity
  8
0
  6
Continuous
 62
     7
100
AcDbLine
 10
-259.2750004291502
 20
-144.0875001905982
 30
0.0
 11
-259.2750004291458
 21
-134.5875001902743
 31
0.0
  0
LINE
  5
2E4
330
6A
100
AcDbEntity
  8
0
  6
Continuous
 62
     7
100
AcDbLine
 10
-259.7750004291506
 20
-145.587500190598
 30
0.0
 11
-266.3750004292451
 21
-145.5875001905968
 31
0.0
  0
LINE
  5
2E5
330
6A
100
AcDbEntity
  8
0
  6
Continuous
 62
     7
100
AcDbLine
 10
-266.8750004292307
 20
-139.0875001907066
 30
0.0
 11
-266.8750004292303
 21
-137.8875001907066
 31
0.0
  0
LINE
  5
2E6
330
6A
100
AcDbEntity
  8
0
  6
Continuous
 62
     7
100
AcDbLine
 10
-266.8750004292168
 20
-134.5875001908786
 30
0.0
 11
-266.9250004292733
 21
-134.3039360995772
 31
0.0
  0
LINE
  5
2E7
330
6A
100
AcDbEntity
  8
0
  6
Continuous
 62
     7
100
AcDbLine
 10
-266.9250004292733
 20
-134.3039360995772
 30
0.0
 11
-266.9250004292724
 21
-131.8141624772005
 31
0.0
  0
LINE
  5
2E8
330
6A
100
AcDbEntity
  8
0
  6
Continuous
 62
     7
100
AcDbLine
 10
-266.9250004292724
 20
-131.8141624772005
 30
0.0
 11
-267.1331064638342
 21
-131.0375001828537
 31
0.0
  0
LINE
  5
2E9
330
6A
100
AcDbEntity
  8
0
  6
Continuous
 62
     7
100
AcDbLine
 10
-259.0168943944694
 20
-131.0375001828551
 30
0.0
 11
-267.1331064638342
 21
-131.0375001828537
 31
0.0
  0
LINE
  5
2EA
330
6A
100
AcDbEntity
  8
0
  6
Continuous
 62
     7
100
AcDbLine
 10
-259.2250004292171
 20
-134.3039360996982
 30
0.0
 11
-259.2750004291458
 21
-134.5875001902743
 31
0.0
  0
LINE
  5
2EB
330
6A
100
AcDbEntity
  8
0
  6
Continuous
 62
     7
100
AcDbLine
 10
-259.2250004292167
 20
-131.814162477893
 30
0.0
 11
-259.2250004292171
 21
-134.3039360996982
 31
0.0
  0
LINE
  5
2EC
330
6A
100
AcDbEntity
  8
0
  6
Continuous
 62
     7
100
AcDbLine
 10
-267.2096406847805
 20
-130.7518705817575
 30
0.0
 11
-258.9403601735199
 21
-130.7518705817575
 31
0.0
  0
LINE
  5
2ED
330
6A
100
AcDbEntity
  8
0
  6
Continuous
 62
     7
100
AcDbLine
 10
-259.0168943944694
 20
-131.0375001828551
 30
0.0
 11
-259.2250004292167
 21
-131.814162477893
 31
0.0
  0
LINE
  5
2EE
330
6A
100
AcDbEntity
  8
0
  6
Continuous
 62
     7
100
AcDbLine
 10
-259.2750004291502
 20
-144.0875001905982
 30
0.0
 11
-259.7750004291506
 21
-145.587500190598
 31
0.0
  0
LINE
  5
2EF
330
6A
100
AcDbEntity
  8
0
  6
Continuous
 62
     7
100
AcDbLine
 10
-267.8750004292176
 20
-130.9875001907059
 30
0.0
 11
-268.37500042923
 21
-130.9875001907057
 31
0.0
  0
LINE
  5
2F0
330
6A
100
AcDbEntity
  8
0
  6
Continuous
 62
     7
100
AcDbLine
 10
-269.7750004292302
 20
-130.9875001907055
 30
0.0
 11
-270.2750004292203
 21
-130.9875001907055
 31
0.0
  0
LINE
  5
2F1
330
6A
100
AcDbEntity
  8
0
  6
Continuous
 62
     7
100
AcDbLine
 10
-268.37500042923
 20
-130.9875001907057
 30
0.0
 11
-269.7750004292302
 21
-130.9875001907055
 31
0.0
  0
LINE
  5
2F2
330
6A
100
AcDbEntity
  8
0
  6
Continuous
 62
     7
100
AcDbLine
 10
-268.3750004292298
 20
-129.9875001906845
 30
0.0
 11
-268.37500042923
 21
-130.9875001907057
 31
0.0
  0
LINE
  5
2F3
330
6A
100
AcDbEntity
  8
0
  6
Continuous
 62
     7
100
AcDbLine
 10
-269.77500042923
 20
-129.9875001906842
 30
0.0
 11
-269.7750004292302
 21
-130.9875001907055
 31
0.0
  0
LINE
  5
2F4
330
6A
100
AcDbEntity
  8
0
  6
Continuous
 62
     7
100
AcDbLine
 10
-271.5750004292825
 20
-129.9875001907006
 30
0.0
 11
-270.5750004292439
 21
-129.9875001907008
 31
0.0
  0
LINE
  5
2F5
330
6A
100
AcDbEntity
  8
0
  6
Continuous
 62
     7
100
AcDbLine
 10
-267.1331064638342
 20
-131.0375001828537
 30
0.0
 11
-267.2096406847805
 21
-130.7518705817575
 31
0.0
  0
LINE
  5
2F6
330
6A
100
AcDbEntity
  8
0
  6
Continuous
 62
     7
100
AcDbLine
 10
-270.5750004292427
 20
-123.4875001907589
 30
0.0
 11
-270.5750004292439
 21
-129.9875001907008
 31
0.0
  0
LINE
  5
2F7
330
6A
100
AcDbEntity
  8
0
  6
Continuous
 62
     7
100
AcDbLine
 10
-270.5750004292123
 20
-112.2188036417731
 30
0.0
 11
-270.5750004292427
 21
-123.4875001907589
 31
0.0
  0
LINE
  5
2F8
330
6A
100
AcDbEntity
  8
0
  6
Continuous
 62
     7
100
AcDbLine
 10
-270.0947120280894
 20
-112.2711245918909
 30
0.0
 11
-270.0615260771039
 21
-112.0008467105291
 31
0.0
  0
LINE
  5
2F9
330
6A
100
AcDbEntity
  8
0
  6
Continuous
 62
     7
100
AcDbLine
 10
-270.0615260771039
 20
-112.0008467105291
 30
0.0
 11
-270.5750004292123
 21
-112.2188036417731
 31
0.0
  0
LINE
  5
2FA
330
6A
100
AcDbEntity
  8
0
  6
Continuous
 62
     7
100
AcDbLine
 10
-268.4750005192742
 20
-112.4700001582214
 30
0.0
 11
-270.0947120280894
 21
-112.2711245918909
 31
0.0
  0
LINE
  5
2FB
330
6A
100
AcDbEntity
  8
0
  6
Continuous
 62
     7
100
AcDbLine
 10
-268.4750005192742
 20
-112.4700001582214
 30
0.0
 11
-268.4750005192734
 21
-106.0975002436535
 31
0.0
  0
LINE
  5
2FC
330
6A
100
AcDbEntity
  8
0
  6
Continuous
 62
     7
100
AcDbLine
 10
-269.3237349324687
 20
-105.9932887614422
 30
0.0
 11
-268.4750005192734
 21
-106.0975002436535
 31
0.0
  0
LINE
  5
2FD
330
6A
100
AcDbEntity
  8
0
  6
Continuous
 62
     7
100
AcDbLine
 10
-269.3569208834252
 20
-106.2635666429778
 30
0.0
 11
-269.3237349324687
 21
-105.9932887614422
 31
0.0
  0
LINE
  5
2FE
330
6A
100
AcDbEntity
  8
0
  6
Continuous
 62
     7
100
AcDbLine
 10
-269.845678855822
 20
-105.8952610933908
 30
0.0
 11
-269.3569208834252
 21
-106.2635666429778
 31
0.0
  0
LINE
  5
2FF
330
6A
100
AcDbEntity
  8
0
  6
Continuous
 62
     7
100
AcDbLine
 10
-269.7833336617509
 20
-105.3875002348501
 30
0.0
 11
-269.845678855822
 21
-105.8952610933908
 31
0.0
  0
LINE
  5
300
330
6A
100
AcDbEntity
  8
0
  6
Continuous
 62
     7
100
AcDbLine
 10
-269.7833336617509
 20
-105.3875002348501
 30
0.0
 11
-268.025000475119
 21
-105.3875002348347
 31
0.0
  0
LINE
  5
301
330
6A
100
AcDbEntity
  8
0
  6
Continuous
 62
     7
100
AcDbLine
 10
-267.4144531137905
 20
-129.9875001906701
 30
0.0
 11
-268.3750004292298
 21
-129.9875001906845
 31
0.0
  0
LINE
  5
302
330
6A
100
AcDbEntity
  8
0
  6
Continuous
 62
     7
100
AcDbLine
 10
-269.77500042923
 20
-129.9875001906842
 30
0.0
 11
-270.5750004292439
 21
-129.9875001907008
 31
0.0
  0
LINE
  5
303
330
6A
100
AcDbEntity
  8
0
  6
Continuous
 62
     7
100
AcDbLine
 10
-268.3750004292298
 20
-129.9875001906845
 30
0.0
 11
-269.77500042923
 21
-129.9875001906842
 31
0.0
  0
LINE
  5
304
330
6A
100
AcDbEntity
  8
0
  6
Continuous
 62
     7
100
AcDbLine
 10
-268.025000475119
 20
-105.3875002348347
 30
0.0
 11
-267.0250005191689
 21
-106.3875001907852
 31
0.0
  0
LINE
  5
305
330
6A
100
AcDbEntity
  8
0
  6
Continuous
 62
     7
100
AcDbLine
 10
-264.0250004281159
 20
-106.3875001907865
 30
0.0
 11
-259.4500004104891
 21
-106.3875001907884
 31
0.0
  0
LINE
  5
306
330
6A
100
AcDbEntity
  8
0
  6
Continuous
 62
     7
100
AcDbLine
 10
-258.9403601735199
 20
-130.7518705817575
 30
0.0
 11
-258.7355477445101
 21
-129.9875001906716
 31
0.0
  0
LINE
  5
307
330
6A
100
AcDbEntity
  8
0
  6
Continuous
 62
     7
100
AcDbLine
 10
-257.0750000813207
 20
-112.4880189870332
 30
0.0
 11
-257.0750000813196
 21
-106.1155193410044
 31
0.0
  0
LINE
  5
308
330
6A
100
AcDbEntity
  8
0
  6
Continuous
 62
     7
100
AcDbLine
 10
-254.5750004103307
 20
-112.37736562925
 30
0.0
 11
-254.5750004103309
 21
-113.3875003353938
 31
0.0
  0
LINE
  5
309
330
6A
100
AcDbEntity
  8
0
  6
Continuous
 62
     7
100
AcDbLine
 10
-255.0250004293197
 20
-129.9875001906723
 30
0.0
 11
-255.0250004292964
 21
-125.8041668574845
 31
0.0
  0
LINE
  5
30A
330
6A
100
AcDbEntity
  8
0
  6
Continuous
 62
     7
100
AcDbLine
 10
-256.172670113755
 20
-106.0047271521478
 30
0.0
 11
-256.1394841627744
 21
-106.2750050335376
 31
0.0
  0
LINE
  5
30B
330
6A
100
AcDbEntity
  8
0
  6
Continuous
 62
     7
100
AcDbLine
 10
-256.1394841627744
 20
-106.2750050335376
 30
0.0
 11
-255.6507261726767
 21
-105.9066994705699
 31
0.0
  0
LINE
  5
30C
330
6A
100
AcDbEntity
  8
0
  6
Continuous
 62
     7
100
AcDbLine
 10
-255.8341907751476
 20
-104.4125001905935
 30
0.0
 11
-255.6507261726767
 21
-105.9066994705699
 31
0.0
  0
LINE
  5
30D
330
6A
100
AcDbEntity
  8
0
  6
Continuous
 62
     7
100
AcDbLine
 10
-258.7355477445101
 20
-129.9875001906716
 30
0.0
 11
-255.0250004293197
 21
-129.9875001906723
 31
0.0
  0
LINE
  5
30E
330
6A
100
AcDbEntity
  8
0
  6
Continuous
 62
     7
100
AcDbLine
 10
-258.9403601735199
 20
-130.7518705817575
 30
0.0
 11
-259.0168943944694
 21
-131.0375001828551
 31
0.0
  0
LINE
  5
30F
330
6A
100
AcDbEntity
  8
0
  6
Continuous
 62
     7
100
AcDbLine
 10
-267.875000429219
 20
-139.0875001907063
 30
0.0
 11
-266.8750004292307
 21
-139.0875001907066
 31
0.0
  0
LINE
  5
310
330
6A
100
AcDbEntity
  8
0
  6
Continuous
 62
     7
100
AcDbLine
 10
-271.5750004292817
 20
-125.6320071113512
 30
0.0
 11
-271.5750004292825
 21
-129.9875001907006
 31
0.0
  0
LINE
  5
311
330
6A
100
AcDbEntity
  8
0
  6
Continuous
 62
     7
100
AcDbLine
 10
-270.5750004292427
 20
-123.4875001907589
 30
0.0
 11
-271.5750004292817
 21
-125.6320071113512
 31
0.0
  0
LINE
  5
312
330
6A
100
AcDbEntity
  8
0
  6
Continuous
 62
     7
100
AcDbLine
 10
-270.2750004292203
 20
-130.9875001907055
 30
0.0
 11
-270.2750004292217
 21
-139.0875001907054
 31
0.0
  0
LINE
  5
313
330
6A
100
AcDbEntity
  8
0
  6
Continuous
 62
     7
100
AcDbLine
 10
-270.2750004292217
 20
-139.0875001907054
 30
0.0
 11
-267.875000429219
 21
-139.0875001907063
 31
0.0
  0
LINE
  5
314
330
6A
100
AcDbEntity
  8
0
  6
Continuous
 62
     7
100
AcDbLine
 10
-267.8750004292248
 20
-138.0875001907062
 30
0.0
 11
-267.875000429219
 21
-139.0875001907063
 31
0.0
  0
LINE
  5
315
330
6A
100
AcDbEntity
  8
0
  6
Continuous
 62
     7
100
AcDbLine
 10
-267.8750004292176
 20
-130.9875001907059
 30
0.0
 11
-267.8750004292248
 21
-138.0875001907062
 31
0.0
  0
LINE
  5
316
330
6A
100
AcDbEntity
  8
0
  6
Continuous
 62
     7
100
AcDbLine
 10
-266.8750004292303
 20
-137.8875001907066
 30
0.0
 11
-267.8750004292248
 21
-138.0875001907062
 31
0.0
  0
LINE
  5
317
330
6A
100
AcDbEntity
  8
0
  6
Continuous
 62
     7
100
AcDbLine
 10
-267.2109566370955
 20
-143.0796315670818
 30
0.0
 11
-266.8750004292201
 21
-144.0875001906699
 31
0.0
  0
ARC
  5
318
330
6A
100
AcDbEntity
  8
0
  6
Continuous
 62
     7
100
AcDbCircle
 10
-265.0250004285883
 20
-111.787500234364
 30
0.0
 40
1.000000000470195
100
AcDbArc
 50
269.9999999683854
 51
359.9999999677023
  0
ARC
  5
319
330
6A
100
AcDbEntity
  8
0
  6
Continuous
 62
     7
100
AcDbCircle
 10
-265.625000429124
 20
-111.7875002349337
 30
0.0
 40
0.9999999983554062
100
AcDbArc
 50
179.9999999981379
 51
269.9999999987265
  0
ARC
  5
31A
330
6A
100
AcDbEntity
  8
0
  6
Continuous
 62
     7
100
AcDbCircle
 10
-256.0250004292028
 20
-114.3517738531459
 30
0.0
 40
0.5
100
AcDbArc
 50
359.9999999996792
 51
89.99999999968082
  0
ARC
  5
31B
330
6A
100
AcDbEntity
  8
0
  6
Continuous
 62
     7
100
AcDbCircle
 10
-256.1402554988931
 20
-114.3517738531453
 30
0.0
 40
0.5
100
AcDbArc
 50
89.99999999968082
 51
198.4349488226027
  0
ARC
  5
31C
330
6A
100
AcDbEntity
  8
0
  6
Continuous
 62
     7
100
AcDbCircle
 10
-255.0250004292155
 20
-114.6585001906845
 30
0.0
 40
0.4999999999890008
100
AcDbArc
 50
179.9999999999756
 51
334.1580722021925
  0
ARC
  5
31D
330
6A
100
AcDbEntity
  8
0
  6
Continuous
 62
     7
100
AcDbCircle
 10
-265.7750004292139
 20
-141.6875001907185
 30
0.0
 40
2.000000000002303
100
AcDbArc
 50
123.3670129695245
 51
224.1121997296357
  0
ENDBLK
  5
6C
330
6A
100
AcDbEntity
  8
0
100
AcDbBlockEnd
  0
BLOCK
  5
6F
330
6D
100
AcDbEntity
  8
0
100
AcDbBlockBegin
  2
Vordans1
 70
     0
 10
-263.0750002266136
 20
-124.99999999994
 30
0.0
  3
Vordans1
  1

  0
INSERT
  5
6E
330
6D
100
AcDbEntity
  8
0
100
AcDbBlockReference
  2
PP_2_5_1-select__6
 10
-271.5750004292825
 20
-145.587500190598
 30
0.0
  0
MTEXT
  5
31E
330
6D
100
AcDbEntity
  8
1
 62
     6
100
AcDbMText
 10
-263.0750002266135
 20
-150.5875005721446
 30
0.0
 40
5.0
 41
0.0
 71
     2
 72
     1
  1
 
  7
CONVERTER_11
 73
     1
 44
1.32052821128451
  0
DIMENSION
  5
329
330
6D
100
AcDbEntity
  8
1
100
AcDbDimension
  2
*D18
 10
-281.5750004292825
 20
-104.4125001905931
 30
0.0
 11
-285.0000004292825
 21
-117.88672342302
 31
0.0
 70
    32
  1
<>
 71
     5
 42
-1.0
 53
90.0
  3
ME10_DIM_11
100
AcDbAlignedDimension
 13
-271.5750004292825
 23
-129.9875001907006
 33
0.0
 14
-257.4750004102984
 24
-104.4125001905932
 34
0.0
 50
90.0
100
AcDbRotatedDimension
  0
DIMENSION
  5
334
330
6D
100
AcDbEntity
  8
1
100
AcDbDimension
  2
*D19
 10
-271.5750004292825
 20
-155.4917086408501
 30
0.0
 11
-263.0750002266135
 21
-152.2417086408501
 31
0.0
 70
    32
  1
<>
 71
     5
 42
-1.0
 53
0.00013888888889
  3
ME10_DIM_12
100
AcDbAlignedDimension
 13
-254.5750004103328
 23
-124.3041667944507
 33
0.0
 14
-271.5750004292825
 24
-129.9875001907006
 34
0.0
100
AcDbRotatedDimension
  0
DIMENSION
  5
33F
330
6D
100
AcDbEntity
  8
1
100
AcDbDimension
  2
*D20
 10
-289.5750004292825
 20
-145.5875001905969
 30
0.0
 11
-293.0000004292825
 21
-124.3041667944841
 31
0.0
 70
    32
  1
<>
 71
     5
 42
-1.0
 53
90.0
  3
ME10_DIM_13
100
AcDbAlignedDimension
 13
-257.4750004102984
 23
-104.4125001905932
 33
0.0
 14
-266.3750004292451
 24
-145.5875001905968
 34
0.0
 50
90.0
100
AcDbRotatedDimension
  0
ENDBLK
  5
70
330
6D
100
AcDbEntity
  8
0
100
AcDbBlockEnd
  0
BLOCK
  5
72
330
71
100
AcDbEntity
  8
0
100
AcDbBlockBegin
  2
_rahmen
 70
     0
 10
-99.03844030434034
 20
-271.2409032296659
 30
0.0
  3
_rahmen
  1

  0
LINE
  5
340
330
71
100
AcDbEntity
  8
1
  6
DOT_CENTER
 62
     2
100
AcDbLine
 10
-224.5965899445278
 20
-245.1159032296659
 30
0.0
 11
-219.0965899445278
 21
-245.1159032296659
 31
0.0
  0
LINE
  5
341
330
71
100
AcDbEntity
  8
1
  6
PHANTOM
 62
     2
100
AcDbLine
 10
-215.8465899445278
 20
-242.3659032296659
 30
0.0
 11
-215.8465899445278
 21
-247.8659032296659
 31
0.0
  0
LINE
  5
342
330
71
100
AcDbEntity
  8
1
  6
PHANTOM
 62
     2
100
AcDbLine
 10
-213.0965899445278
 20
-245.1159032296659
 30
0.0
 11
-218.5965899445278
 21
-245.1159032296659
 31
0.0
  0
LINE
  5
343
330
71
100
AcDbEntity
  8
1
  6
Continuous
 62
     7
100
AcDbLine
 10
-164.2832448310903
 20
-257.7409032296658
 30
0.0
 11
-164.2832448310903
 21
-249.2409032296658
 31
0.0
  0
LINE
  5
344
330
71
100
AcDbEntity
  8
1
  6
Continuous
 62
     6
100
AcDbLine
 10
-192.1832448310904
 20
-249.2409032296658
 30
0.0
 11
-99.03844030433865
 21
-249.2409032296658
 31
0.0
  0
LINE
  5
345
330
71
100
AcDbEntity
  8
1
  6
Continuous
 62
     7
100
AcDbLine
 10
-228.5832448310904
 20
-249.2409032296658
 30
0.0
 11
-228.5832448310904
 21
-240.7409032296658
 31
0.0
  0
LINE
  5
346
330
71
100
AcDbEntity
  8
1
  6
Continuous
 62
     7
100
AcDbLine
 10
-192.1832448310904
 20
-249.2409032296658
 30
0.0
 11
-192.1832448310904
 21
-240.7409032296658
 31
0.0
  0
LINE
  5
347
330
71
100
AcDbEntity
  8
1
  6
Continuous
 62
     7
100
AcDbLine
 10
-134.4568485860175
 20
-240.7409032296658
 30
0.0
 11
-134.4568485860175
 21
-249.2409032296658
 31
0.0
  0
LINE
  5
348
330
71
100
AcDbEntity
  8
1
  6
Continuous
 62
     7
100
AcDbLine
 10
-107.9568485860179
 20
-240.7409032296658
 30
0.0
 11
-107.9568485860179
 21
-249.2409032296658
 31
0.0
  0
LINE
  5
349
330
71
100
AcDbEntity
  8
1
  6
Continuous
 62
     6
100
AcDbLine
 10
-297.5832448310903
 20
-266.2409032296658
 30
0.0
 11
-342.5384403043403
 21
-266.2409032296658
 31
0.0
  0
LINE
  5
34A
330
71
100
AcDbEntity
  8
1
  6
Continuous
 62
     7
100
AcDbLine
 10
-99.03844030433905
 20
-257.7409032296658
 30
0.0
 11
-192.1832448310904
 21
-257.7409032296658
 31
0.0
  0
LINE
  5
34B
102
{ACAD_REACTORS
330
45D
330
45E
102
}
330
71
100
AcDbEntity
  8
0
  6
Continuous
 62
     2
100
AcDbLine
 10
-214.875815889323
 20
-256.9406141140025
 30
0.0
 11
-214.875815889323
 21
-256.0680971071992
 31
0.0
  0
LINE
  5
34C
102
{ACAD_REACTORS
330
45D
330
45E
102
}
330
71
100
AcDbEntity
  8
0
  6
Continuous
 62
     2
100
AcDbLine
 10
-214.875815889323
 20
-257.9003828214854
 30
0.0
 11
-214.875815889323
 21
-258.7728998282886
 31
0.0
  0
LINE
  5
34D
102
{ACAD_REACTORS
330
45F
330
460
102
}
330
71
100
AcDbEntity
  8
0
  6
Continuous
 62
     2
100
AcDbLine
 10
-199.5427717530324
 20
-256.678859011962
 30
0.0
 11
-198.4391324534643
 21
-256.678859011962
 31
0.0
  0
LINE
  5
34E
102
{ACAD_REACTORS
330
45F
330
460
102
}
330
71
100
AcDbEntity
  8
0
  6
Continuous
 62
     2
100
AcDbLine
 10
-198.773114410071
 20
-257.9003828214859
 30
0.0
 11
-198.773114410071
 21
-258.7728998282892
 31
0.0
  0
LINE
  5
34F
102
{ACAD_REACTORS
330
469
330
46A
102
}
330
71
100
AcDbEntity
  8
0
  6
Continuous
 62
     2
100
AcDbLine
 10
-200.633871025451
 20
-255.5882127534752
 30
0.0
 11
-199.2359179785107
 21
-254.0073537597002
 31
0.0
  0
LINE
  5
350
102
{ACAD_REACTORS
330
469
330
46A
102
}
330
71
100
AcDbEntity
  8
0
  6
Continuous
 62
     2
100
AcDbLine
 10
-200.5384476092781
 20
-252.534403229664
 30
0.0
 11
-199.2359179785107
 21
-254.0073537597002
 31
0.0
  0
LINE
  5
351
102
{ACAD_REACTORS
330
469
330
46A
102
}
330
71
100
AcDbEntity
  8
0
  6
Continuous
 62
     2
100
AcDbLine
 10
-197.9333883477443
 20
-252.534403229664
 30
0.0
 11
-196.530664129997
 21
-252.534403229664
 31
0.0
  0
LINE
  5
352
102
{ACAD_REACTORS
330
469
330
46A
102
}
330
71
100
AcDbEntity
  8
0
  6
Continuous
 62
     2
100
AcDbLine
 10
-199.2311468077027
 20
-255.5882127534752
 30
0.0
 11
-198.5345558696371
 21
-254.8004809681815
 31
0.0
  0
LINE
  5
353
102
{ACAD_REACTORS
330
469
330
46A
102
}
330
71
100
AcDbEntity
  8
0
  6
Continuous
 62
     2
100
AcDbLine
 10
-199.2311468077027
 20
-255.5882127534752
 30
0.0
 11
-200.633871025451
 21
-255.5882127534752
 31
0.0
  0
LINE
  5
354
102
{ACAD_REACTORS
330
46B
330
46C
102
}
330
71
100
AcDbEntity
  8
0
  6
Continuous
 62
     2
100
AcDbLine
 10
-200.7531502956678
 20
-255.5882127534752
 30
0.0
 11
-201.9936547059207
 21
-255.5882127534752
 31
0.0
  0
LINE
  5
355
102
{ACAD_REACTORS
330
46D
330
46E
102
}
330
71
100
AcDbEntity
  8
0
  6
Continuous
 62
     2
100
AcDbLine
 10
-202.8616343140758
 20
-257.725879420125
 30
0.0
 11
-203.1617995512659
 21
-256.9580644541383
 31
0.0
  0
LINE
  5
356
102
{ACAD_REACTORS
330
46D
330
46E
102
}
330
71
100
AcDbEntity
  8
0
  6
Continuous
 62
     2
100
AcDbLine
 10
-203.4619647884584
 20
-257.725879420125
 30
0.0
 11
-202.8616343140758
 21
-257.725879420125
 31
0.0
  0
LINE
  5
357
102
{ACAD_REACTORS
330
46D
330
46E
102
}
330
71
100
AcDbEntity
  8
0
  6
Continuous
 62
     2
100
AcDbLine
 10
-205.1800048033321
 20
-258.9474032296495
 30
0.0
 11
-203.9395003930792
 21
-258.9474032296495
 31
0.0
  0
LINE
  5
358
102
{ACAD_REACTORS
330
46D
330
46E
102
}
330
71
100
AcDbEntity
  8
0
  6
Continuous
 62
     2
100
AcDbLine
 10
-203.7820517563928
 20
-255.8935937058384
 30
0.0
 11
-202.5415473461401
 21
-255.8935937058384
 31
0.0
  0
LINE
  5
359
102
{ACAD_REACTORS
330
46D
330
46E
102
}
330
71
100
AcDbEntity
  8
0
  6
Continuous
 62
     2
100
AcDbLine
 10
-202.5415473461401
 20
-255.8935937058384
 30
0.0
 11
-201.1435942991998
 21
-258.9474032296495
 31
0.0
  0
LINE
  5
35A
102
{ACAD_REACTORS
330
46D
330
46E
102
}
330
71
100
AcDbEntity
  8
0
  6
Continuous
 62
     2
100
AcDbLine
 10
-202.3840987094538
 20
-258.9474032296495
 30
0.0
 11
-202.5955787629295
 21
-258.4064426854316
 31
0.0
  0
LINE
  5
35B
102
{ACAD_REACTORS
330
46F
330
470
102
}
330
71
100
AcDbEntity
  8
0
  6
Continuous
 62
     2
100
AcDbLine
 10
-206.5264179050398
 20
-258.9474032296495
 30
0.0
 11
-205.3336252028732
 21
-258.9474032296495
 31
0.0
  0
LINE
  5
35C
102
{ACAD_REACTORS
330
46F
330
470
102
}
330
71
100
AcDbEntity
  8
0
  6
Continuous
 62
     2
100
AcDbLine
 10
-206.5264179050398
 20
-256.678859011962
 30
0.0
 11
-206.5264179050398
 21
-258.9474032296495
 31
0.0
  0
LINE
  5
35D
102
{ACAD_REACTORS
330
46F
330
470
102
}
330
71
100
AcDbEntity
  8
0
  6
Continuous
 62
     2
100
AcDbLine
 10
-207.3375169425144
 20
-255.8935937058384
 30
0.0
 11
-207.3375169425144
 21
-256.678859011962
 31
0.0
  0
LINE
  5
35E
102
{ACAD_REACTORS
330
471
330
472
102
}
330
71
100
AcDbEntity
  8
0
  6
Continuous
 62
     2
100
AcDbLine
 10
-205.8583030609418
 20
-255.5882127534752
 30
0.0
 11
-204.6655103587752
 21
-255.5882127534752
 31
0.0
  0
LINE
  5
35F
102
{ACAD_REACTORS
330
471
330
472
102
}
330
71
100
AcDbEntity
  8
0
  6
Continuous
 62
     2
100
AcDbLine
 10
-203.4250059485212
 20
-253.8431787398692
 30
0.0
 11
-204.6655103587752
 21
-252.534403229664
 31
0.0
  0
LINE
  5
360
102
{ACAD_REACTORS
330
471
330
472
102
}
330
71
100
AcDbEntity
  8
0
  6
Continuous
 62
     2
100
AcDbLine
 10
-202.2322132463546
 20
-252.534403229664
 30
0.0
 11
-203.4250059485212
 21
-252.534403229664
 31
0.0
  0
LINE
  5
361
102
{ACAD_REACTORS
330
471
330
472
102
}
330
71
100
AcDbEntity
  8
0
  6
Continuous
 62
     2
100
AcDbLine
 10
-202.2322132463546
 20
-255.5882127534752
 30
0.0
 11
-202.2322132463546
 21
-252.534403229664
 31
0.0
  0
LINE
  5
362
102
{ACAD_REACTORS
330
471
330
472
102
}
330
71
100
AcDbEntity
  8
0
  6
Continuous
 62
     2
100
AcDbLine
 10
-203.4250059485212
 20
-255.5882127534752
 30
0.0
 11
-202.2322132463546
 21
-255.5882127534752
 31
0.0
  0
LINE
  5
363
102
{ACAD_REACTORS
330
471
330
472
102
}
330
71
100
AcDbEntity
  8
0
  6
Continuous
 62
     2
100
AcDbLine
 10
-204.6655103587752
 20
-254.2794372432705
 30
0.0
 11
-203.4250059485212
 21
-255.5882127534752
 31
0.0
  0
LINE
  5
364
102
{ACAD_REACTORS
330
473
330
474
102
}
330
71
100
AcDbEntity
  8
0
  6
Continuous
 62
     2
100
AcDbLine
 10
-208.673444768941
 20
-257.2023692160435
 30
0.0
 11
-209.9139491791939
 21
-255.8935937058384
 31
0.0
  0
LINE
  5
365
102
{ACAD_REACTORS
330
473
330
474
102
}
330
71
100
AcDbEntity
  8
0
  6
Continuous
 62
     2
100
AcDbLine
 10
-208.673444768941
 20
-255.8935937058384
 30
0.0
 11
-208.673444768941
 21
-257.2023692160435
 31
0.0
  0
LINE
  5
366
102
{ACAD_REACTORS
330
473
330
474
102
}
330
71
100
AcDbEntity
  8
0
  6
Continuous
 62
     2
100
AcDbLine
 10
-207.4806520667746
 20
-255.8935937058384
 30
0.0
 11
-208.673444768941
 21
-255.8935937058384
 31
0.0
  0
LINE
  5
367
102
{ACAD_REACTORS
330
473
330
474
102
}
330
71
100
AcDbEntity
  8
0
  6
Continuous
 62
     2
100
AcDbLine
 10
-207.4806520667746
 20
-258.9474032296495
 30
0.0
 11
-207.4806520667746
 21
-255.8935937058384
 31
0.0
  0
LINE
  5
368
102
{ACAD_REACTORS
330
473
330
474
102
}
330
71
100
AcDbEntity
  8
0
  6
Continuous
 62
     2
100
AcDbLine
 10
-209.9139491791939
 20
-257.6386277194449
 30
0.0
 11
-208.673444768941
 21
-258.9474032296495
 31
0.0
  0
LINE
  5
369
102
{ACAD_REACTORS
330
473
330
474
102
}
330
71
100
AcDbEntity
  8
0
  6
Continuous
 62
     2
100
AcDbLine
 10
-209.9139491791939
 20
-258.9474032296495
 30
0.0
 11
-209.9139491791939
 21
-257.6386277194449
 31
0.0
  0
LINE
  5
36A
102
{ACAD_REACTORS
330
463
330
464
102
}
330
71
100
AcDbEntity
  8
0
  6
Continuous
 62
     2
100
AcDbLine
 10
-207.4327894278023
 20
-253.232416835107
 30
0.0
 11
-206.0968616013747
 21
-253.232416835107
 31
0.0
  0
LINE
  5
36B
102
{ACAD_REACTORS
330
463
330
464
102
}
330
71
100
AcDbEntity
  8
0
  6
Continuous
 62
     2
100
AcDbLine
 10
-207.4327894278023
 20
-254.8901991480327
 30
0.0
 11
-207.4327894278023
 21
-254.410314794291
 31
0.0
  0
LINE
  5
36C
102
{ACAD_REACTORS
330
463
330
464
102
}
330
71
100
AcDbEntity
  8
0
  6
Continuous
 62
     2
100
AcDbLine
 10
-206.0968616013747
 20
-254.8901991480327
 30
0.0
 11
-207.4327894278023
 21
-254.8901991480327
 31
0.0
  0
LINE
  5
36D
102
{ACAD_REACTORS
330
463
330
464
102
}
330
71
100
AcDbEntity
  8
0
  6
Continuous
 62
     2
100
AcDbLine
 10
-206.0968616013747
 20
-255.5882127534752
 30
0.0
 11
-206.0968616013747
 21
-254.8901991480327
 31
0.0
  0
LINE
  5
36E
102
{ACAD_REACTORS
330
463
330
464
102
}
330
71
100
AcDbEntity
  8
0
  6
Continuous
 62
     2
100
AcDbLine
 10
-209.2471813251557
 20
-255.5882127534752
 30
0.0
 11
-206.0968616013747
 21
-255.5882127534752
 31
0.0
  0
LINE
  5
36F
102
{ACAD_REACTORS
330
463
330
464
102
}
330
71
100
AcDbEntity
  8
0
  6
Continuous
 62
     2
100
AcDbLine
 10
-209.2471813251557
 20
-252.534403229664
 30
0.0
 11
-206.0968616013747
 21
-252.534403229664
 31
0.0
  0
LINE
  5
370
102
{ACAD_REACTORS
330
463
330
464
102
}
330
71
100
AcDbEntity
  8
0
  6
Continuous
 62
     2
100
AcDbLine
 10
-206.0968616013747
 20
-253.232416835107
 30
0.0
 11
-206.0968616013747
 21
-252.534403229664
 31
0.0
  0
LINE
  5
371
102
{ACAD_REACTORS
330
475
330
476
102
}
330
71
100
AcDbEntity
  8
0
  6
Continuous
 62
     2
100
AcDbLine
 10
-212.1085368202957
 20
-253.6032365629986
 30
0.0
 11
-212.1085368202957
 21
-252.534403229664
 31
0.0
  0
LINE
  5
372
102
{ACAD_REACTORS
330
475
330
476
102
}
330
71
100
AcDbEntity
  8
0
  6
Continuous
 62
     2
100
AcDbLine
 10
-212.1085368202957
 20
-252.534403229664
 30
0.0
 11
-210.9157441181293
 21
-252.534403229664
 31
0.0
  0
LINE
  5
373
102
{ACAD_REACTORS
330
475
330
476
102
}
330
71
100
AcDbEntity
  8
0
  6
Continuous
 62
     2
100
AcDbLine
 10
-212.1085368202957
 20
-254.4539406446314
 30
0.0
 11
-213.1581943982031
 21
-254.4539406446314
 31
0.0
  0
LINE
  5
374
102
{ACAD_REACTORS
330
475
330
476
102
}
330
71
100
AcDbEntity
  8
0
  6
Continuous
 62
     2
100
AcDbLine
 10
-213.1581943982031
 20
-254.4539406446314
 30
0.0
 11
-213.1581943982031
 21
-255.5882127534752
 31
0.0
  0
LINE
  5
375
102
{ACAD_REACTORS
330
475
330
476
102
}
330
71
100
AcDbEntity
  8
0
  6
Continuous
 62
     2
100
AcDbLine
 10
-214.3509871003697
 20
-252.534403229664
 30
0.0
 11
-214.3509871003697
 21
-255.5882127534752
 31
0.0
  0
LINE
  5
376
102
{ACAD_REACTORS
330
467
330
468
102
}
330
71
100
AcDbEntity
  8
0
  6
Continuous
 62
     2
100
AcDbLine
 10
-216.3071671319233
 20
-253.9032367244463
 30
0.0
 11
-216.3071671319233
 21
-253.1975090751041
 31
0.0
  0
LINE
  5
377
102
{ACAD_REACTORS
330
467
330
468
102
}
330
71
100
AcDbEntity
  8
0
  6
Continuous
 62
     2
100
AcDbLine
 10
-217.5476715421775
 20
-255.5882127534752
 30
0.0
 11
-216.3071671319233
 21
-255.5882127534752
 31
0.0
  0
LINE
  5
378
102
{ACAD_REACTORS
330
467
330
468
102
}
330
71
100
AcDbEntity
  8
0
  6
Continuous
 62
     2
100
AcDbLine
 10
-216.3071671319233
 20
-255.5882127534752
 30
0.0
 11
-216.3071671319233
 21
-254.6451345123314
 31
0.0
  0
LINE
  5
379
102
{ACAD_REACTORS
330
461
330
462
102
}
330
71
100
AcDbEntity
  8
0
  6
Continuous
 62
     2
100
AcDbLine
 10
-221.8526173913888
 20
-258.2348476740926
 30
0.0
 11
-223.3284506523985
 21
-258.2348476740926
 31
0.0
  0
LINE
  5
37A
102
{ACAD_REACTORS
330
461
330
462
102
}
330
71
100
AcDbEntity
  8
0
  6
Continuous
 62
     2
100
AcDbLine
 10
-224.3465899445278
 20
-252.958647845066
 30
0.0
 11
-224.3465899445278
 21
-258.5231586142662
 31
0.0
  0
LINE
  5
37B
102
{ACAD_REACTORS
330
461
330
462
102
}
330
71
100
AcDbEntity
  8
0
  6
Continuous
 62
     2
100
AcDbLine
 10
-223.922345329145
 20
-252.5344032296822
 30
0.0
 11
-218.4490332384281
 21
-252.5344032296822
 31
0.0
  0
LINE
  5
37C
102
{ACAD_REACTORS
330
461
330
462
102
}
330
71
100
AcDbEntity
  8
0
  6
Continuous
 62
     2
100
AcDbLine
 10
-218.0247886230443
 20
-252.958647845066
 30
0.0
 11
-218.0247886230443
 21
-258.5231586142662
 31
0.0
  0
LINE
  5
37D
102
{ACAD_REACTORS
330
461
330
462
102
}
330
71
100
AcDbEntity
  8
0
  6
Continuous
 62
     2
100
AcDbLine
 10
-218.4490332384281
 20
-258.9474032296495
 30
0.0
 11
-223.922345329145
 21
-258.9474032296495
 31
0.0
  0
LINE
  5
37E
102
{ACAD_REACTORS
330
461
330
462
102
}
330
71
100
AcDbEntity
  8
0
  6
Continuous
 62
     2
100
AcDbLine
 10
-221.5369004683122
 20
-257.9191307510159
 30
0.0
 11
-221.5369004683122
 21
-256.3883598194843
 31
0.0
  0
LINE
  5
37F
102
{ACAD_REACTORS
330
461
330
462
102
}
330
71
100
AcDbEntity
  8
0
  6
Continuous
 62
     2
100
AcDbLine
 10
-221.5369004683122
 20
-254.1667003273593
 30
0.0
 11
-221.5369004683122
 21
-253.5626757082988
 31
0.0
  0
LINE
  5
380
102
{ACAD_REACTORS
330
461
330
462
102
}
330
71
100
AcDbEntity
  8
0
  6
Continuous
 62
     2
100
AcDbLine
 10
-223.3284506523985
 20
-253.2469587852226
 30
0.0
 11
-221.8526173913888
 21
-253.2469587852226
 31
0.0
  0
LINE
  5
381
102
{ACAD_REACTORS
330
461
330
462
102
}
330
71
100
AcDbEntity
  8
0
  6
Continuous
 62
     2
100
AcDbLine
 10
-223.6441675754741
 20
-253.5626757082988
 30
0.0
 11
-223.6441675754741
 21
-257.9191307510159
 31
0.0
  0
LINE
  5
382
102
{ACAD_REACTORS
330
467
330
468
102
}
330
71
100
AcDbEntity
  8
0
  6
Continuous
 62
     2
100
AcDbLine
 10
-216.3071671319233
 20
-254.6451345123314
 30
0.0
 11
-215.5483995441431
 21
-254.6451345123314
 31
0.0
  0
LINE
  5
383
102
{ACAD_REACTORS
330
467
330
468
102
}
330
71
100
AcDbEntity
  8
0
  6
Continuous
 62
     2
100
AcDbLine
 10
-217.5476715421775
 20
-252.534403229664
 30
0.0
 11
-215.5483995441431
 21
-252.534403229664
 31
0.0
  0
LINE
  5
384
102
{ACAD_REACTORS
330
467
330
468
102
}
330
71
100
AcDbEntity
  8
0
  6
Continuous
 62
     2
100
AcDbLine
 10
-217.5476715421775
 20
-252.534403229664
 30
0.0
 11
-217.5476715421775
 21
-255.5882127534752
 31
0.0
  0
LINE
  5
385
102
{ACAD_REACTORS
330
467
330
468
102
}
330
71
100
AcDbEntity
  8
0
  6
Continuous
 62
     2
100
AcDbLine
 10
-216.3071671319233
 20
-253.9032367244463
 30
0.0
 11
-215.9898720703814
 21
-253.9032367244463
 31
0.0
  0
LINE
  5
386
102
{ACAD_REACTORS
330
467
330
468
102
}
330
71
100
AcDbEntity
  8
0
  6
Continuous
 62
     2
100
AcDbLine
 10
-216.3071671319233
 20
-253.1975090751041
 30
0.0
 11
-215.9898720703814
 21
-253.1975090751041
 31
0.0
  0
LINE
  5
387
102
{ACAD_REACTORS
330
475
330
476
102
}
330
71
100
AcDbEntity
  8
0
  6
Continuous
 62
     2
100
AcDbLine
 10
-213.1581943982031
 20
-253.6032365629986
 30
0.0
 11
-212.1085368202957
 21
-253.6032365629986
 31
0.0
  0
LINE
  5
388
102
{ACAD_REACTORS
330
475
330
476
102
}
330
71
100
AcDbEntity
  8
0
  6
Continuous
 62
     2
100
AcDbLine
 10
-213.1581943982031
 20
-252.534403229664
 30
0.0
 11
-213.1581943982031
 21
-253.6032365629986
 31
0.0
  0
LINE
  5
389
102
{ACAD_REACTORS
330
475
330
476
102
}
330
71
100
AcDbEntity
  8
0
  6
Continuous
 62
     2
100
AcDbLine
 10
-214.3509871003697
 20
-252.534403229664
 30
0.0
 11
-213.1581943982031
 21
-252.534403229664
 31
0.0
  0
LINE
  5
38A
102
{ACAD_REACTORS
330
475
330
476
102
}
330
71
100
AcDbEntity
  8
0
  6
Continuous
 62
     2
100
AcDbLine
 10
-213.1581943982031
 20
-255.5882127534752
 30
0.0
 11
-214.3509871003697
 21
-255.5882127534752
 31
0.0
  0
LINE
  5
38B
102
{ACAD_REACTORS
330
475
330
476
102
}
330
71
100
AcDbEntity
  8
0
  6
Continuous
 62
     2
100
AcDbLine
 10
-212.1085368202957
 20
-255.5882127534752
 30
0.0
 11
-212.1085368202957
 21
-254.4539406446314
 31
0.0
  0
LINE
  5
38C
102
{ACAD_REACTORS
330
475
330
476
102
}
330
71
100
AcDbEntity
  8
0
  6
Continuous
 62
     2
100
AcDbLine
 10
-210.9157441181293
 20
-255.5882127534752
 30
0.0
 11
-212.1085368202957
 21
-255.5882127534752
 31
0.0
  0
LINE
  5
38D
102
{ACAD_REACTORS
330
475
330
476
102
}
330
71
100
AcDbEntity
  8
0
  6
Continuous
 62
     2
100
AcDbLine
 10
-210.9157441181293
 20
-252.534403229664
 30
0.0
 11
-210.9157441181293
 21
-255.5882127534752
 31
0.0
  0
LINE
  5
38E
102
{ACAD_REACTORS
330
463
330
464
102
}
330
71
100
AcDbEntity
  8
0
  6
Continuous
 62
     2
100
AcDbLine
 10
-207.4327894278023
 20
-254.410314794291
 30
0.0
 11
-206.0968616013747
 21
-254.410314794291
 31
0.0
  0
LINE
  5
38F
102
{ACAD_REACTORS
330
463
330
464
102
}
330
71
100
AcDbEntity
  8
0
  6
Continuous
 62
     2
100
AcDbLine
 10
-206.0968616013747
 20
-254.410314794291
 30
0.0
 11
-206.0968616013747
 21
-253.7123011888487
 31
0.0
  0
LINE
  5
390
102
{ACAD_REACTORS
330
463
330
464
102
}
330
71
100
AcDbEntity
  8
0
  6
Continuous
 62
     2
100
AcDbLine
 10
-206.0968616013747
 20
-253.7123011888487
 30
0.0
 11
-207.4327894278023
 21
-253.7123011888487
 31
0.0
  0
LINE
  5
391
102
{ACAD_REACTORS
330
463
330
464
102
}
330
71
100
AcDbEntity
  8
0
  6
Continuous
 62
     2
100
AcDbLine
 10
-207.4327894278023
 20
-253.7123011888487
 30
0.0
 11
-207.4327894278023
 21
-253.232416835107
 31
0.0
  0
LINE
  5
392
102
{ACAD_REACTORS
330
473
330
474
102
}
330
71
100
AcDbEntity
  8
0
  6
Continuous
 62
     2
100
AcDbLine
 10
-211.1067418813614
 20
-258.9474032296495
 30
0.0
 11
-209.9139491791939
 21
-258.9474032296495
 31
0.0
  0
LINE
  5
393
102
{ACAD_REACTORS
330
473
330
474
102
}
330
71
100
AcDbEntity
  8
0
  6
Continuous
 62
     2
100
AcDbLine
 10
-208.673444768941
 20
-258.9474032296495
 30
0.0
 11
-207.4806520667746
 21
-258.9474032296495
 31
0.0
  0
LINE
  5
394
102
{ACAD_REACTORS
330
473
330
474
102
}
330
71
100
AcDbEntity
  8
0
  6
Continuous
 62
     2
100
AcDbLine
 10
-209.9139491791939
 20
-255.8935937058384
 30
0.0
 11
-211.1067418813614
 21
-255.8935937058384
 31
0.0
  0
LINE
  5
395
102
{ACAD_REACTORS
330
473
330
474
102
}
330
71
100
AcDbEntity
  8
0
  6
Continuous
 62
     2
100
AcDbLine
 10
-211.1067418813614
 20
-255.8935937058384
 30
0.0
 11
-211.1067418813614
 21
-258.9474032296495
 31
0.0
  0
LINE
  5
396
102
{ACAD_REACTORS
330
471
330
472
102
}
330
71
100
AcDbEntity
  8
0
  6
Continuous
 62
     2
100
AcDbLine
 10
-203.4250059485212
 20
-252.534403229664
 30
0.0
 11
-203.4250059485212
 21
-253.8431787398692
 31
0.0
  0
LINE
  5
397
102
{ACAD_REACTORS
330
471
330
472
102
}
330
71
100
AcDbEntity
  8
0
  6
Continuous
 62
     2
100
AcDbLine
 10
-204.6655103587752
 20
-252.534403229664
 30
0.0
 11
-205.8583030609418
 21
-252.534403229664
 31
0.0
  0
LINE
  5
398
102
{ACAD_REACTORS
330
471
330
472
102
}
330
71
100
AcDbEntity
  8
0
  6
Continuous
 62
     2
100
AcDbLine
 10
-205.8583030609418
 20
-252.534403229664
 30
0.0
 11
-205.8583030609418
 21
-255.5882127534752
 31
0.0
  0
LINE
  5
399
102
{ACAD_REACTORS
330
471
330
472
102
}
330
71
100
AcDbEntity
  8
0
  6
Continuous
 62
     2
100
AcDbLine
 10
-204.6655103587752
 20
-255.5882127534752
 30
0.0
 11
-204.6655103587752
 21
-254.2794372432705
 31
0.0
  0
LINE
  5
39A
102
{ACAD_REACTORS
330
46F
330
470
102
}
330
71
100
AcDbEntity
  8
0
  6
Continuous
 62
     2
100
AcDbLine
 10
-205.3336252028732
 20
-258.9474032296495
 30
0.0
 11
-205.3336252028732
 21
-256.678859011962
 31
0.0
  0
LINE
  5
39B
102
{ACAD_REACTORS
330
46F
330
470
102
}
330
71
100
AcDbEntity
  8
0
  6
Continuous
 62
     2
100
AcDbLine
 10
-205.3336252028732
 20
-256.678859011962
 30
0.0
 11
-204.5225261654007
 21
-256.678859011962
 31
0.0
  0
LINE
  5
39C
102
{ACAD_REACTORS
330
46F
330
470
102
}
330
71
100
AcDbEntity
  8
0
  6
Continuous
 62
     2
100
AcDbLine
 10
-204.5225261654007
 20
-256.678859011962
 30
0.0
 11
-204.5225261654007
 21
-255.8935937058384
 31
0.0
  0
LINE
  5
39D
102
{ACAD_REACTORS
330
46F
330
470
102
}
330
71
100
AcDbEntity
  8
0
  6
Continuous
 62
     2
100
AcDbLine
 10
-204.5225261654007
 20
-255.8935937058384
 30
0.0
 11
-207.3375169425144
 21
-255.8935937058384
 31
0.0
  0
LINE
  5
39E
102
{ACAD_REACTORS
330
46F
330
470
102
}
330
71
100
AcDbEntity
  8
0
  6
Continuous
 62
     2
100
AcDbLine
 10
-207.3375169425144
 20
-256.678859011962
 30
0.0
 11
-206.5264179050398
 21
-256.678859011962
 31
0.0
  0
LINE
  5
39F
102
{ACAD_REACTORS
330
46D
330
46E
102
}
330
71
100
AcDbEntity
  8
0
  6
Continuous
 62
     2
100
AcDbLine
 10
-203.7280203396034
 20
-258.4064426854316
 30
0.0
 11
-202.5955787629295
 21
-258.4064426854316
 31
0.0
  0
LINE
  5
3A0
102
{ACAD_REACTORS
330
46D
330
46E
102
}
330
71
100
AcDbEntity
  8
0
  6
Continuous
 62
     2
100
AcDbLine
 10
-201.1435942991998
 20
-258.9474032296495
 30
0.0
 11
-202.3840987094538
 21
-258.9474032296495
 31
0.0
  0
LINE
  5
3A1
102
{ACAD_REACTORS
330
46D
330
46E
102
}
330
71
100
AcDbEntity
  8
0
  6
Continuous
 62
     2
100
AcDbLine
 10
-203.7820517563928
 20
-255.8935937058384
 30
0.0
 11
-205.1800048033321
 21
-258.9474032296495
 31
0.0
  0
LINE
  5
3A2
102
{ACAD_REACTORS
330
46D
330
46E
102
}
330
71
100
AcDbEntity
  8
0
  6
Continuous
 62
     2
100
AcDbLine
 10
-203.9395003930792
 20
-258.9474032296495
 30
0.0
 11
-203.7280203396034
 21
-258.4064426854316
 31
0.0
  0
LINE
  5
3A3
102
{ACAD_REACTORS
330
46D
330
46E
102
}
330
71
100
AcDbEntity
  8
0
  6
Continuous
 62
     2
100
AcDbLine
 10
-203.4619647884584
 20
-257.725879420125
 30
0.0
 11
-203.1617995512659
 21
-256.9580644541383
 31
0.0
  0
LINE
  5
3A4
102
{ACAD_REACTORS
330
46B
330
46C
102
}
330
71
100
AcDbEntity
  8
0
  6
Continuous
 62
     2
100
AcDbLine
 10
-201.9936547059207
 20
-255.5882127534752
 30
0.0
 11
-201.9936547059207
 21
-252.534403229664
 31
0.0
  0
LINE
  5
3A5
102
{ACAD_REACTORS
330
46B
330
46C
102
}
330
71
100
AcDbEntity
  8
0
  6
Continuous
 62
     2
100
AcDbLine
 10
-200.7531502956678
 20
-252.534403229664
 30
0.0
 11
-200.7531502956678
 21
-255.5882127534752
 31
0.0
  0
LINE
  5
3A6
102
{ACAD_REACTORS
330
46B
330
46C
102
}
330
71
100
AcDbEntity
  8
0
  6
Continuous
 62
     2
100
AcDbLine
 10
-201.9936547059207
 20
-252.534403229664
 30
0.0
 11
-200.7531502956678
 21
-252.534403229664
 31
0.0
  0
LINE
  5
3A7
102
{ACAD_REACTORS
330
469
330
46A
102
}
330
71
100
AcDbEntity
  8
0
  6
Continuous
 62
     2
100
AcDbLine
 10
-198.5345558696371
 20
-254.8004809681815
 30
0.0
 11
-197.8379649315716
 21
-255.5882127534752
 31
0.0
  0
LINE
  5
3A8
102
{ACAD_REACTORS
330
469
330
46A
102
}
330
71
100
AcDbEntity
  8
0
  6
Continuous
 62
     2
100
AcDbLine
 10
-197.8379649315716
 20
-255.5882127534752
 30
0.0
 11
-196.4352407138233
 21
-255.5882127534752
 31
0.0
  0
LINE
  5
3A9
102
{ACAD_REACTORS
330
469
330
46A
102
}
330
71
100
AcDbEntity
  8
0
  6
Continuous
 62
     2
100
AcDbLine
 10
-197.8331937607636
 20
-254.0073537597002
 30
0.0
 11
-196.4352407138233
 21
-255.5882127534752
 31
0.0
  0
LINE
  5
3AA
102
{ACAD_REACTORS
330
469
330
46A
102
}
330
71
100
AcDbEntity
  8
0
  6
Continuous
 62
     2
100
AcDbLine
 10
-197.8331937607636
 20
-254.0073537597002
 30
0.0
 11
-196.530664129997
 21
-252.534403229664
 31
0.0
  0
LINE
  5
3AB
102
{ACAD_REACTORS
330
469
330
46A
102
}
330
71
100
AcDbEntity
  8
0
  6
Continuous
 62
     2
100
AcDbLine
 10
-198.5345558696371
 20
-253.2142265512195
 30
0.0
 11
-197.9333883477443
 21
-252.534403229664
 31
0.0
  0
LINE
  5
3AC
102
{ACAD_REACTORS
330
469
330
46A
102
}
330
71
100
AcDbEntity
  8
0
  6
Continuous
 62
     2
100
AcDbLine
 10
-199.1357233915288
 20
-252.534403229664
 30
0.0
 11
-198.5345558696371
 21
-253.2142265512195
 31
0.0
  0
LINE
  5
3AD
102
{ACAD_REACTORS
330
469
330
46A
102
}
330
71
100
AcDbEntity
  8
0
  6
Continuous
 62
     2
100
AcDbLine
 10
-199.1357233915288
 20
-252.534403229664
 30
0.0
 11
-200.5384476092781
 21
-252.534403229664
 31
0.0
  0
LINE
  5
3AE
102
{ACAD_REACTORS
330
45F
330
460
102
}
330
71
100
AcDbEntity
  8
0
  6
Continuous
 62
     2
100
AcDbLine
 10
-198.4391324534643
 20
-258.9474032296495
 30
0.0
 11
-197.2463397512966
 21
-258.9474032296495
 31
0.0
  0
LINE
  5
3AF
102
{ACAD_REACTORS
330
45F
330
460
102
}
330
71
100
AcDbEntity
  8
0
  6
Continuous
 62
     2
100
AcDbLine
 10
-197.2463397512966
 20
-258.9474032296495
 30
0.0
 11
-197.2463397512966
 21
-256.678859011962
 31
0.0
  0
LINE
  5
3B0
102
{ACAD_REACTORS
330
45F
330
460
102
}
330
71
100
AcDbEntity
  8
0
  6
Continuous
 62
     2
100
AcDbLine
 10
-197.2463397512966
 20
-256.678859011962
 30
0.0
 11
-196.4352407138233
 21
-256.678859011962
 31
0.0
  0
LINE
  5
3B1
102
{ACAD_REACTORS
330
45F
330
460
102
}
330
71
100
AcDbEntity
  8
0
  6
Continuous
 62
     2
100
AcDbLine
 10
-196.4352407138233
 20
-256.678859011962
 30
0.0
 11
-196.4352407138233
 21
-255.8935937058384
 31
0.0
  0
LINE
  5
3B2
102
{ACAD_REACTORS
330
45F
330
460
102
}
330
71
100
AcDbEntity
  8
0
  6
Continuous
 62
     2
100
AcDbLine
 10
-199.8201862324519
 20
-255.8935937058389
 30
0.0
 11
-196.4352407138233
 21
-255.8935937058384
 31
0.0
  0
LINE
  5
3B3
102
{ACAD_REACTORS
330
45F
330
460
102
}
330
71
100
AcDbEntity
  8
0
  6
Continuous
 62
     2
100
AcDbLine
 10
-198.4391324534643
 20
-256.678859011962
 30
0.0
 11
-198.4391324534643
 21
-258.9474032296495
 31
0.0
  0
LINE
  5
3B4
102
{ACAD_REACTORS
330
461
330
462
102
}
330
71
100
AcDbEntity
  8
0
  6
Continuous
 62
     2
100
AcDbLine
 10
-221.0686188889436
 20
-256.968523080085
 30
0.0
 11
-221.0686188889436
 21
-256.3866716733899
 31
0.0
  0
LINE
  5
3B5
102
{ACAD_REACTORS
330
461
330
462
102
}
330
71
100
AcDbEntity
  8
0
  6
Continuous
 62
     2
100
AcDbLine
 10
-221.0686188889436
 20
-254.1683884734537
 30
0.0
 11
-221.0686188889436
 21
-253.5628531849469
 31
0.0
  0
LINE
  5
3B6
330
71
100
AcDbEntity
  8
1
  6
Continuous
 62
     6
100
AcDbLine
 10
-242.5384403043403
 20
-266.2409032296658
 30
0.0
 11
-228.5832448310904
 21
-266.2409032296659
 31
0.0
  0
LINE
  5
3B7
330
71
100
AcDbEntity
  8
1
  6
Continuous
 62
     6
100
AcDbLine
 10
-292.5384403043406
 20
-266.2409032296658
 30
0.0
 11
-297.5832448310903
 21
-266.2409032296658
 31
0.0
  0
LINE
  5
3B8
330
71
100
AcDbEntity
  8
1
  6
Continuous
 62
     6
100
AcDbLine
 10
-142.5384403043404
 20
-266.2409032296658
 30
0.0
 11
-99.03844030434034
 21
-266.2409032296658
 31
0.0
  0
LINE
  5
3B9
330
71
100
AcDbEntity
  8
1
  6
Continuous
 62
     6
100
AcDbLine
 10
-192.5384403043404
 20
-266.2409032296658
 30
0.0
 11
-210.3832448310903
 21
-266.2409032296658
 31
0.0
  0
LINE
  5
3BA
330
71
100
AcDbEntity
  8
1
  6
Continuous
 62
     2
100
AcDbLine
 10
-99.03844030434034
 20
-266.2409032296658
 30
0.0
 11
-94.03844030434135
 21
-266.2409032296658
 31
0.0
  0
LINE
  5
3BB
330
71
100
AcDbEntity
  8
1
  6
Continuous
 62
     2
100
AcDbLine
 10
-99.03844030434034
 20
-266.2409032296658
 30
0.0
 11
-99.03844030434034
 21
-271.2409032296659
 31
0.0
  0
LINE
  5
3BC
330
71
100
AcDbEntity
  8
1
  6
Continuous
 62
     6
100
AcDbLine
 10
-228.5832448310904
 20
-249.2409032296658
 30
0.0
 11
-192.1832448310904
 21
-249.2409032296658
 31
0.0
  0
LINE
  5
3BD
330
71
100
AcDbEntity
  8
1
  6
Continuous
 62
     2
100
AcDbLine
 10
-94.03844030434135
 20
-271.2409032296659
 30
0.0
 11
-94.03844030434135
 21
-266.2409032296658
 31
0.0
  0
LINE
  5
3BE
330
71
100
AcDbEntity
  8
1
  6
Continuous
 62
     2
100
AcDbLine
 10
-94.03844030434135
 20
-271.2409032296659
 30
0.0
 11
-99.03844030434034
 21
-271.2409032296659
 31
0.0
  0
LINE
  5
3BF
330
71
100
AcDbEntity
  8
1
  6
Continuous
 62
     2
100
AcDbLine
 10
-99.03844030434034
 20
-271.2409032296659
 30
0.0
 11
-142.5384403043404
 21
-271.2409032296659
 31
0.0
  0
LINE
  5
3C0
330
71
100
AcDbEntity
  8
1
  6
Continuous
 62
     6
100
AcDbLine
 10
-99.03844030433865
 20
-249.2409032296658
 30
0.0
 11
-99.03844030433945
 21
-216.2409032296657
 31
0.0
  0
LINE
  5
3C1
330
71
100
AcDbEntity
  8
1
  6
Continuous
 62
     2
100
AcDbLine
 10
-94.03844030434135
 20
-61.24090322966578
 30
0.0
 11
-242.5384403043403
 21
-61.24090322966578
 31
0.0
  0
LINE
  5
3C2
330
71
100
AcDbEntity
  8
1
  6
Continuous
 62
     6
100
AcDbLine
 10
-99.03844030434135
 20
-81.24090322966578
 30
0.0
 11
-386.0384403043394
 21
-81.24090322966578
 31
0.0
  0
LINE
  5
3C3
330
71
100
AcDbEntity
  8
1
  6
Continuous
 62
     2
100
AcDbLine
 10
-99.03844030433945
 20
-216.2409032296657
 30
0.0
 11
-94.03844030434135
 21
-216.2409032296657
 31
0.0
  0
LINE
  5
3C4
330
71
100
AcDbEntity
  8
1
  6
Continuous
 62
     6
100
AcDbLine
 10
-99.03844030433945
 20
-216.2409032296657
 30
0.0
 11
-99.03844030433994
 21
-166.2409032296659
 31
0.0
  0
LINE
  5
3C5
330
71
100
AcDbEntity
  8
1
  6
Continuous
 62
     2
100
AcDbLine
 10
-94.03844030434135
 20
-216.2409032296657
 30
0.0
 11
-94.03844030434135
 21
-166.2409032296659
 31
0.0
  0
LINE
  5
3C6
330
71
100
AcDbEntity
  8
1
  6
Continuous
 62
     2
100
AcDbLine
 10
-99.03844030433994
 20
-166.2409032296659
 30
0.0
 11
-94.03844030434135
 21
-166.2409032296659
 31
0.0
  0
LINE
  5
3C7
330
71
100
AcDbEntity
  8
1
  6
Continuous
 62
     6
100
AcDbLine
 10
-99.03844030433994
 20
-166.2409032296659
 30
0.0
 11
-99.03844030434115
 21
-116.2409032296658
 31
0.0
  0
LINE
  5
3C8
330
71
100
AcDbEntity
  8
1
  6
Continuous
 62
     2
100
AcDbLine
 10
-94.03844030434135
 20
-166.2409032296659
 30
0.0
 11
-94.03844030434135
 21
-116.2409032296658
 31
0.0
  0
LINE
  5
3C9
330
71
100
AcDbEntity
  8
1
  6
Continuous
 62
     2
100
AcDbLine
 10
-99.03844030434115
 20
-116.2409032296658
 30
0.0
 11
-94.03844030434135
 21
-116.2409032296658
 31
0.0
  0
LINE
  5
3CA
330
71
100
AcDbEntity
  8
1
  6
Continuous
 62
     6
100
AcDbLine
 10
-99.03844030434115
 20
-116.2409032296658
 30
0.0
 11
-99.03844030434135
 21
-81.24090322966578
 31
0.0
  0
LINE
  5
3CB
330
71
100
AcDbEntity
  8
1
  6
Continuous
 62
     2
100
AcDbLine
 10
-94.03844030434135
 20
-116.2409032296658
 30
0.0
 11
-94.03844030434135
 21
-61.24090322966578
 31
0.0
  0
LINE
  5
3CC
330
71
100
AcDbEntity
  8
1
  6
Continuous
 62
     2
100
AcDbLine
 10
-94.03844030434135
 20
-266.2409032296658
 30
0.0
 11
-94.03844030434135
 21
-216.2409032296657
 31
0.0
  0
LINE
  5
3CD
330
71
100
AcDbEntity
  8
1
  6
Continuous
 62
     2
100
AcDbLine
 10
-242.5384403043403
 20
-61.24090322966578
 30
0.0
 11
-391.0384403043394
 21
-61.24090322966578
 31
0.0
  0
LINE
  5
3CE
330
71
100
AcDbEntity
  8
1
  6
Continuous
 62
     2
100
AcDbLine
 10
-242.5384403043403
 20
-61.24090322966578
 30
0.0
 11
-242.5384403043403
 21
-70.4495950743671
 31
0.0
  0
LINE
  5
3CF
330
71
100
AcDbEntity
  8
1
  6
Continuous
 62
     2
100
AcDbLine
 10
-391.0384403043394
 20
-271.2409032296659
 30
0.0
 11
-386.0384403043385
 21
-271.2409032296659
 31
0.0
  0
LINE
  5
3D0
330
71
100
AcDbEntity
  8
1
  6
Continuous
 62
     2
100
AcDbLine
 10
-391.0384403043394
 20
-61.24090322966578
 30
0.0
 11
-391.0384403043394
 21
-116.2409032296658
 31
0.0
  0
LINE
  5
3D1
330
71
100
AcDbEntity
  8
1
  6
Continuous
 62
     6
100
AcDbLine
 10
-386.0384403043394
 20
-81.24090322966578
 30
0.0
 11
-386.0384403043394
 21
-116.2409032296658
 31
0.0
  0
LINE
  5
3D2
330
71
100
AcDbEntity
  8
1
  6
Continuous
 62
     2
100
AcDbLine
 10
-391.0384403043394
 20
-116.2409032296658
 30
0.0
 11
-386.0384403043394
 21
-116.2409032296658
 31
0.0
  0
LINE
  5
3D3
330
71
100
AcDbEntity
  8
1
  6
Continuous
 62
     2
100
AcDbLine
 10
-391.0384403043394
 20
-116.2409032296658
 30
0.0
 11
-391.0384403043394
 21
-166.2409032296659
 31
0.0
  0
LINE
  5
3D4
330
71
100
AcDbEntity
  8
1
  6
Continuous
 62
     6
100
AcDbLine
 10
-386.0384403043394
 20
-116.2409032296658
 30
0.0
 11
-386.0384403043389
 21
-166.2409032296659
 31
0.0
  0
LINE
  5
3D5
330
71
100
AcDbEntity
  8
1
  6
Continuous
 62
     2
100
AcDbLine
 10
-391.0384403043394
 20
-166.2409032296659
 30
0.0
 11
-386.0384403043389
 21
-166.2409032296659
 31
0.0
  0
LINE
  5
3D6
330
71
100
AcDbEntity
  8
1
  6
Continuous
 62
     2
100
AcDbLine
 10
-391.0384403043394
 20
-166.2409032296659
 30
0.0
 11
-391.0384403043394
 21
-216.2409032296657
 31
0.0
  0
LINE
  5
3D7
330
71
100
AcDbEntity
  8
1
  6
Continuous
 62
     6
100
AcDbLine
 10
-386.0384403043389
 20
-166.2409032296659
 30
0.0
 11
-386.0384403043386
 21
-216.2409032296657
 31
0.0
  0
LINE
  5
3D8
330
71
100
AcDbEntity
  8
1
  6
Continuous
 62
     2
100
AcDbLine
 10
-391.0384403043394
 20
-216.2409032296657
 30
0.0
 11
-386.0384403043386
 21
-216.2409032296657
 31
0.0
  0
LINE
  5
3D9
330
71
100
AcDbEntity
  8
1
  6
Continuous
 62
     2
100
AcDbLine
 10
-391.0384403043394
 20
-216.2409032296657
 30
0.0
 11
-391.0384403043394
 21
-266.2409032296658
 31
0.0
  0
LINE
  5
3DA
330
71
100
AcDbEntity
  8
1
  6
Continuous
 62
     6
100
AcDbLine
 10
-386.0384403043386
 20
-216.2409032296657
 30
0.0
 11
-386.0384403043385
 21
-266.2409032296658
 31
0.0
  0
LINE
  5
3DB
330
71
100
AcDbEntity
  8
1
  6
Continuous
 62
     2
100
AcDbLine
 10
-342.5384403043403
 20
-271.2409032296659
 30
0.0
 11
-342.5384403043403
 21
-266.2409032296658
 31
0.0
  0
LINE
  5
3DC
330
71
100
AcDbEntity
  8
1
  6
Continuous
 62
     2
100
AcDbLine
 10
-342.5384403043403
 20
-271.2409032296659
 30
0.0
 11
-292.5384403043406
 21
-271.2409032296659
 31
0.0
  0
LINE
  5
3DD
330
71
100
AcDbEntity
  8
1
  6
Continuous
 62
     2
100
AcDbLine
 10
-292.5384403043406
 20
-271.2409032296659
 30
0.0
 11
-292.5384403043406
 21
-266.2409032296658
 31
0.0
  0
LINE
  5
3DE
330
71
100
AcDbEntity
  8
1
  6
Continuous
 62
     2
100
AcDbLine
 10
-292.5384403043406
 20
-271.2409032296659
 30
0.0
 11
-242.5384403043403
 21
-271.2409032296659
 31
0.0
  0
LINE
  5
3DF
330
71
100
AcDbEntity
  8
1
  6
Continuous
 62
     2
100
AcDbLine
 10
-242.5384403043403
 20
-271.2409032296659
 30
0.0
 11
-242.5384403043403
 21
-266.2409032296658
 31
0.0
  0
LINE
  5
3E0
330
71
100
AcDbEntity
  8
1
  6
Continuous
 62
     2
100
AcDbLine
 10
-242.5384403043403
 20
-271.2409032296659
 30
0.0
 11
-192.5384403043404
 21
-271.2409032296659
 31
0.0
  0
LINE
  5
3E1
330
71
100
AcDbEntity
  8
1
  6
Continuous
 62
     2
100
AcDbLine
 10
-192.5384403043404
 20
-271.2409032296659
 30
0.0
 11
-192.5384403043404
 21
-266.2409032296658
 31
0.0
  0
LINE
  5
3E2
330
71
100
AcDbEntity
  8
1
  6
Continuous
 62
     2
100
AcDbLine
 10
-142.5384403043404
 20
-271.2409032296659
 30
0.0
 11
-142.5384403043404
 21
-266.2409032296658
 31
0.0
  0
LINE
  5
3E3
330
71
100
AcDbEntity
  8
1
  6
Continuous
 62
     2
100
AcDbLine
 10
-142.5384403043404
 20
-271.2409032296659
 30
0.0
 11
-192.5384403043404
 21
-271.2409032296659
 31
0.0
  0
LINE
  5
3E4
330
71
100
AcDbEntity
  8
1
  6
Continuous
 62
     2
100
AcDbLine
 10
-386.0384403043385
 20
-266.2409032296658
 30
0.0
 11
-386.0384403043385
 21
-271.2409032296659
 31
0.0
  0
LINE
  5
3E5
330
71
100
AcDbEntity
  8
1
  6
Continuous
 62
     2
100
AcDbLine
 10
-386.0384403043385
 20
-271.2409032296659
 30
0.0
 11
-342.5384403043403
 21
-271.2409032296659
 31
0.0
  0
LINE
  5
3E6
330
71
100
AcDbEntity
  8
1
  6
Continuous
 62
     2
100
AcDbLine
 10
-386.0384403043385
 20
-266.2409032296658
 30
0.0
 11
-391.0384403043394
 21
-266.2409032296658
 31
0.0
  0
LINE
  5
3E7
330
71
100
AcDbEntity
  8
1
  6
Continuous
 62
     2
100
AcDbLine
 10
-391.0384403043394
 20
-266.2409032296658
 30
0.0
 11
-391.0384403043394
 21
-271.2409032296659
 31
0.0
  0
LINE
  5
3E8
330
71
100
AcDbEntity
  8
1
  6
Continuous
 62
     6
100
AcDbLine
 10
-99.03844030434034
 20
-266.2409032296658
 30
0.0
 11
-99.03844030433905
 21
-257.7409032296658
 31
0.0
  0
LINE
  5
3E9
330
71
100
AcDbEntity
  8
1
  6
Continuous
 62
     6
100
AcDbLine
 10
-192.1832448310904
 20
-266.2409032296659
 30
0.0
 11
-142.5384403043404
 21
-266.2409032296658
 31
0.0
  0
LINE
  5
3EA
330
71
100
AcDbEntity
  8
1
  6
Continuous
 62
     6
100
AcDbLine
 10
-344.8384403043406
 20
-266.2409032296659
 30
0.0
 11
-342.5384403043403
 21
-266.2409032296658
 31
0.0
  0
LINE
  5
3EB
330
71
100
AcDbEntity
  8
1
  6
Continuous
 62
     6
100
AcDbLine
 10
-242.5384403043403
 20
-266.2409032296658
 30
0.0
 11
-292.5384403043406
 21
-266.2409032296658
 31
0.0
  0
LINE
  5
3EC
330
71
100
AcDbEntity
  8
1
  6
Continuous
 62
     7
100
AcDbLine
 10
-228.5832448310904
 20
-249.2409032296658
 30
0.0
 11
-228.5832448310904
 21
-261.9909032296659
 31
0.0
  0
LINE
  5
3ED
330
71
100
AcDbEntity
  8
1
  6
Continuous
 62
     7
100
AcDbLine
 10
-192.1832448310904
 20
-249.2409032296658
 30
0.0
 11
-192.1832448310904
 21
-261.9909032296658
 31
0.0
  0
LINE
  5
3EE
330
71
100
AcDbEntity
  8
1
  6
Continuous
 62
     6
100
AcDbLine
 10
-344.8384403043406
 20
-266.2409032296659
 30
0.0
 11
-351.0384403043386
 21
-266.2409032296658
 31
0.0
  0
LINE
  5
3EF
330
71
100
AcDbEntity
  8
1
  6
Continuous
 62
     6
100
AcDbLine
 10
-192.1832448310904
 20
-266.2409032296659
 30
0.0
 11
-192.5384403043404
 21
-266.2409032296658
 31
0.0
  0
LINE
  5
3F0
330
71
100
AcDbEntity
  8
1
  6
Continuous
 62
     6
100
AcDbLine
 10
-99.03844030433865
 20
-249.2409032296658
 30
0.0
 11
-99.03844030433905
 21
-257.7409032296658
 31
0.0
  0
LINE
  5
3F1
330
71
100
AcDbEntity
  8
1
  6
Continuous
 62
     6
100
AcDbLine
 10
-351.0384403043386
 20
-266.2409032296658
 30
0.0
 11
-386.0384403043385
 21
-266.2409032296658
 31
0.0
  0
LINE
  5
3F2
330
71
100
AcDbEntity
  8
1
  6
Continuous
 62
     2
100
AcDbLine
 10
-224.3465899445278
 20
-243.8659032296659
 30
0.0
 11
-219.3465899445278
 21
-242.6159032296659
 31
0.0
  0
LINE
  5
3F3
330
71
100
AcDbEntity
  8
1
  6
Continuous
 62
     2
100
AcDbLine
 10
-224.3465899445278
 20
-246.3659032296659
 30
0.0
 11
-224.3465899445278
 21
-243.8659032296659
 31
0.0
  0
LINE
  5
3F4
330
71
100
AcDbEntity
  8
1
  6
Continuous
 62
     2
100
AcDbLine
 10
-219.3465899445278
 20
-247.6159032296659
 30
0.0
 11
-224.3465899445278
 21
-246.3659032296659
 31
0.0
  0
LINE
  5
3F5
330
71
100
AcDbEntity
  8
1
  6
Continuous
 62
     2
100
AcDbLine
 10
-219.3465899445278
 20
-242.6159032296659
 30
0.0
 11
-219.3465899445278
 21
-247.6159032296659
 31
0.0
  0
LINE
  5
3F6
330
71
100
AcDbEntity
  8
1
  6
Continuous
 62
     7
100
AcDbLine
 10
-228.5832448310904
 20
-261.9909032296659
 30
0.0
 11
-210.3832448310903
 21
-261.9909032296658
 31
0.0
  0
LINE
  5
3F7
330
71
100
AcDbEntity
  8
1
  6
Continuous
 62
     7
100
AcDbLine
 10
-228.5832448310904
 20
-261.9909032296659
 30
0.0
 11
-228.5832448310904
 21
-266.2409032296659
 31
0.0
  0
LINE
  5
3F8
330
71
100
AcDbEntity
  8
1
  6
Continuous
 62
     7
100
AcDbLine
 10
-192.1832448310904
 20
-261.9909032296658
 30
0.0
 11
-192.1832448310904
 21
-266.2409032296659
 31
0.0
  0
LINE
  5
3F9
330
71
100
AcDbEntity
  8
1
  6
Continuous
 62
     7
100
AcDbLine
 10
-210.3832448310903
 20
-261.9909032296658
 30
0.0
 11
-210.3832448310903
 21
-266.2409032296658
 31
0.0
  0
LINE
  5
3FA
330
71
100
AcDbEntity
  8
1
  6
Continuous
 62
     6
100
AcDbLine
 10
-210.3832448310903
 20
-266.2409032296658
 30
0.0
 11
-228.5832448310904
 21
-266.2409032296659
 31
0.0
  0
LINE
  5
3FB
330
71
100
AcDbEntity
  8
1
  6
Continuous
 62
     7
100
AcDbLine
 10
-210.3832448310903
 20
-261.9909032296658
 30
0.0
 11
-192.1832448310904
 21
-261.9909032296658
 31
0.0
  0
LINE
  5
3FC
330
71
100
AcDbEntity
  8
1
  6
Continuous
 62
     6
100
AcDbLine
 10
-228.5832448310904
 20
-240.7409032296658
 30
0.0
 11
-99.03844030433865
 21
-240.7409032296658
 31
0.0
  0
ARC
  5
3FD
102
{ACAD_REACTORS
330
465
330
466
102
}
330
71
100
AcDbEntity
  8
0
  6
Continuous
 62
     2
100
AcDbCircle
 10
-213.1915968321304
 20
-257.4204984677442
 30
0.0
 40
0.7717997786796692
100
AcDbArc
 50
321.879580202851
 51
38.12041979715234
  0
ARC
  5
3FE
102
{ACAD_REACTORS
330
465
330
466
102
}
330
71
100
AcDbEntity
  8
0
  6
Continuous
 62
     2
100
AcDbCircle
 10
-212.991856795784
 20
-257.5772296458642
 30
0.0
 40
0.5179085730136157
100
AcDbArc
 50
218.1204197971915
 51
321.8795802028143
  0
ARC
  5
3FF
102
{ACAD_REACTORS
330
465
330
466
102
}
330
71
100
AcDbEntity
  8
0
  6
Continuous
 62
     2
100
AcDbCircle
 10
-212.7921167594379
 20
-257.4204984677442
 30
0.0
 40
0.7717997786794137
100
AcDbArc
 50
141.8795802028307
 51
218.120419797166
  0
ARC
  5
400
102
{ACAD_REACTORS
330
465
330
466
102
}
330
71
100
AcDbEntity
  8
0
  6
Continuous
 62
     2
100
AcDbCircle
 10
-212.991856795784
 20
-257.2637672896237
 30
0.0
 40
0.5179085730133669
100
AcDbArc
 50
38.12041979714121
 51
141.879580202853
  0
ARC
  5
401
102
{ACAD_REACTORS
330
45D
330
45E
102
}
330
71
100
AcDbEntity
  8
0
  6
Continuous
 62
     2
100
AcDbCircle
 10
-216.0538709313478
 20
-258.8309648331524
 30
0.0
 40
2.227384008973408
100
AcDbArc
 50
58.06909105004219
 51
71.55192388186885
  0
ARC
  5
402
102
{ACAD_REACTORS
330
45D
330
45E
102
}
330
71
100
AcDbEntity
  8
0
  6
Continuous
 62
     2
100
AcDbCircle
 10
-215.7921432303891
 20
-257.2154270384052
 30
0.0
 40
0.5115800601948814
100
AcDbArc
 50
113.372277888192
 51
151.4785267423059
  0
ARC
  5
403
102
{ACAD_REACTORS
330
45D
330
45E
102
}
330
71
100
AcDbEntity
  8
0
  6
Continuous
 62
     2
100
AcDbCircle
 10
-215.4147859723088
 20
-257.4204984677442
 30
0.0
 40
0.9410597353332545
100
AcDbArc
 50
151.4785267422669
 51
208.5214732576997
  0
ARC
  5
404
102
{ACAD_REACTORS
330
45D
330
45E
102
}
330
71
100
AcDbEntity
  8
0
  6
Continuous
 62
     2
100
AcDbCircle
 10
-216.2117438064408
 20
-254.1078175224878
 30
0.0
 40
4.852596863498027
100
AcDbArc
 50
275.1581447696254
 51
285.979991258353
  0
ARC
  5
405
102
{ACAD_REACTORS
330
45D
330
45E
102
}
330
71
100
AcDbEntity
  8
0
  6
Continuous
 62
     2
100
AcDbCircle
 10
-215.9228877117049
 20
-257.3077081057094
 30
0.0
 40
1.639695123939298
100
AcDbArc
 50
195.0618917770894
 51
275.158144769641
  0
ARC
  5
406
102
{ACAD_REACTORS
330
45D
330
45E
102
}
330
71
100
AcDbEntity
  8
0
  6
Continuous
 62
     2
100
AcDbCircle
 10
-216.3420155551677
 20
-257.4204984677442
 30
0.0
 40
1.205656168390891
100
AcDbArc
 50
164.9381082228702
 51
195.0618917770959
  0
ARC
  5
407
102
{ACAD_REACTORS
330
45D
330
45E
102
}
330
71
100
AcDbEntity
  8
0
  6
Continuous
 62
     2
100
AcDbCircle
 10
-215.9228877117049
 20
-257.5332888297791
 30
0.0
 40
1.639695123940509
100
AcDbArc
 50
84.84185523036136
 51
164.9381082228819
  0
ARC
  5
408
102
{ACAD_REACTORS
330
461
330
462
102
}
330
71
100
AcDbEntity
  8
0
  6
Continuous
 62
     2
100
AcDbCircle
 10
-220.7529019658668
 20
-256.3866716733899
 30
0.0
 40
0.3157169230764963
100
AcDbArc
 50
115.3740086783378
 51
180.0
  0
ARC
  5
409
102
{ACAD_REACTORS
330
461
330
462
102
}
330
71
100
AcDbEntity
  8
0
  6
Continuous
 62
     2
100
AcDbCircle
 10
-220.7529019658668
 20
-254.1683884734537
 30
0.0
 40
0.315716923076792
100
AcDbArc
 50
180.0
 51
244.6259913216621
  0
ARC
  5
40A
102
{ACAD_REACTORS
330
461
330
462
102
}
330
71
100
AcDbEntity
  8
0
  6
Continuous
 62
     2
100
AcDbCircle
 10
-220.7472858305567
 20
-255.265688132516
 30
0.0
 40
2.018561131933266
100
AcDbArc
 50
269.8110329575866
 51
90.18896704241334
  0
ARC
  5
40B
102
{ACAD_REACTORS
330
461
330
462
102
}
330
71
100
AcDbEntity
  8
0
  6
Continuous
 62
     2
100
AcDbCircle
 10
-220.7529019658668
 20
-256.968523080085
 30
0.0
 40
0.315716923076792
100
AcDbArc
 50
180.0
 51
269.8110329574748
  0
ARC
  5
40C
102
{ACAD_REACTORS
330
45F
330
460
102
}
330
71
100
AcDbEntity
  8
0
  6
Continuous
 62
     2
100
AcDbCircle
 10
-199.6894417511361
 20
-257.2154270384052
 30
0.0
 40
0.5115800601944519
100
AcDbArc
 50
109.3371432194973
 51
151.4785267424257
  0
ARC
  5
40D
102
{ACAD_REACTORS
330
45F
330
460
102
}
330
71
100
AcDbEntity
  8
0
  6
Continuous
 62
     2
100
AcDbCircle
 10
-199.6894417511361
 20
-257.6255698970826
 30
0.0
 40
0.5115800601961757
100
AcDbArc
 50
208.5214732576917
 51
246.6277221118382
  0
ARC
  5
40E
102
{ACAD_REACTORS
330
45F
330
460
102
}
330
71
100
AcDbEntity
  8
0
  6
Continuous
 62
     2
100
AcDbCircle
 10
-200.2393140759135
 20
-257.4204984677442
 30
0.0
 40
1.205656168393114
100
AcDbArc
 50
164.9381082228986
 51
195.0618917770936
  0
ARC
  5
40F
102
{ACAD_REACTORS
330
45F
330
460
102
}
330
71
100
AcDbEntity
  8
0
  6
Continuous
 62
     2
100
AcDbCircle
 10
-199.8201862324519
 20
-257.5332888297791
 30
0.0
 40
1.639695123940214
100
AcDbArc
 50
90.0
 51
164.9381082228919
  0
ARC
  5
410
102
{ACAD_REACTORS
330
463
330
464
102
}
330
71
100
AcDbEntity
  8
0
  6
Continuous
 62
     2
100
AcDbCircle
 10
-209.2471813251557
 20
-254.0613079915699
 30
0.0
 40
1.526904761905882
100
AcDbArc
 50
90.0
 51
270.0
  0
ARC
  5
411
102
{ACAD_REACTORS
330
467
330
468
102
}
330
71
100
AcDbEntity
  8
0
  6
Continuous
 62
     2
100
AcDbCircle
 10
-215.9898720703814
 20
-253.5503728997752
 30
0.0
 40
0.3528638246710898
100
AcDbArc
 50
270.0
 51
90.0
  0
ARC
  5
412
102
{ACAD_REACTORS
330
461
330
462
102
}
330
71
100
AcDbEntity
  8
0
  6
Continuous
 62
     2
100
AcDbCircle
 10
-223.3284506523985
 20
-253.5626757082988
 30
0.0
 40
0.3157169230761951
100
AcDbArc
 50
90.0
 51
180.0
  0
ARC
  5
413
102
{ACAD_REACTORS
330
461
330
462
102
}
330
71
100
AcDbEntity
  8
0
  6
Continuous
 62
     2
100
AcDbCircle
 10
-221.3300329438139
 20
-255.2775300734215
 30
0.0
 40
0.9118975235575784
100
AcDbArc
 50
115.1944106485234
 51
244.8055893514918
  0
ARC
  5
414
102
{ACAD_REACTORS
330
461
330
462
102
}
330
71
100
AcDbEntity
  8
0
  6
Continuous
 62
     2
100
AcDbCircle
 10
-221.8526173913888
 20
-256.3883598194843
 30
0.0
 40
0.315716923076593
100
AcDbArc
 50
0.0
 51
64.80558935146468
  0
ARC
  5
415
102
{ACAD_REACTORS
330
461
330
462
102
}
330
71
100
AcDbEntity
  8
0
  6
Continuous
 62
     2
100
AcDbCircle
 10
-223.922345329145
 20
-258.5231586142662
 30
0.0
 40
0.4242446153828041
100
AcDbArc
 50
180.0
 51
270.0
  0
ARC
  5
416
102
{ACAD_REACTORS
330
463
330
464
102
}
330
71
100
AcDbEntity
  8
0
  6
Continuous
 62
     2
100
AcDbCircle
 10
-209.0309093149905
 20
-253.9045768134494
 30
0.0
 40
0.5179085730135266
100
AcDbArc
 50
38.12041979714334
 51
141.8795802028411
  0
ARC
  5
417
102
{ACAD_REACTORS
330
463
330
464
102
}
330
71
100
AcDbEntity
  8
0
  6
Continuous
 62
     2
100
AcDbCircle
 10
-208.8311692786442
 20
-254.0613079915699
 30
0.0
 40
0.7717997786795829
100
AcDbArc
 50
141.8795802028352
 51
218.1204197971614
  0
ARC
  5
418
102
{ACAD_REACTORS
330
465
330
466
102
}
330
71
100
AcDbEntity
  8
0
  6
Continuous
 62
     2
100
AcDbCircle
 10
-212.991856795784
 20
-256.8819234574409
 30
0.0
 40
2.065479772208444
100
AcDbArc
 50
242.4518518243419
 51
297.5481481756875
  0
ARC
  5
419
102
{ACAD_REACTORS
330
465
330
466
102
}
330
71
100
AcDbEntity
  8
0
  6
Continuous
 62
     2
100
AcDbCircle
 10
-212.991856795784
 20
-257.959073478047
 30
0.0
 40
2.065479772208593
100
AcDbArc
 50
62.45185182430674
 51
117.5481481756639
  0
ARC
  5
41A
102
{ACAD_REACTORS
330
465
330
466
102
}
330
71
100
AcDbEntity
  8
0
  6
Continuous
 62
     2
100
AcDbCircle
 10
-213.2727966876172
 20
-257.4204984677442
 30
0.0
 40
1.458034083651528
100
AcDbArc
 50
117.5481481756629
 51
242.451851824336
  0
ARC
  5
41B
102
{ACAD_REACTORS
330
465
330
466
102
}
330
71
100
AcDbEntity
  8
0
  6
Continuous
 62
     2
100
AcDbCircle
 10
-212.7109169039507
 20
-257.4204984677442
 30
0.0
 40
1.458034083651977
100
AcDbArc
 50
297.5481481757016
 51
62.45185182429947
  0
ARC
  5
41C
102
{ACAD_REACTORS
330
463
330
464
102
}
330
71
100
AcDbEntity
  8
0
  6
Continuous
 62
     2
100
AcDbCircle
 10
-209.0309093149905
 20
-254.2180391696903
 30
0.0
 40
0.5179085730133652
100
AcDbArc
 50
218.1204197971613
 51
321.8795802028542
  0
ARC
  5
41D
102
{ACAD_REACTORS
330
463
330
464
102
}
330
71
100
AcDbEntity
  8
0
  6
Continuous
 62
     2
100
AcDbCircle
 10
-209.2306493513366
 20
-254.0613079915699
 30
0.0
 40
0.7717997786795702
100
AcDbArc
 50
321.8795802028399
 51
38.12041979716347
  0
ARC
  5
41E
102
{ACAD_REACTORS
330
461
330
462
102
}
330
71
100
AcDbEntity
  8
0
  6
Continuous
 62
     2
100
AcDbCircle
 10
-218.4490332384281
 20
-258.5231586142662
 30
0.0
 40
0.4242446153833157
100
AcDbArc
 50
270.0
 51
0.0
  0
ARC
  5
41F
102
{ACAD_REACTORS
330
461
330
462
102
}
330
71
100
AcDbEntity
  8
0
  6
Continuous
 62
     2
100
AcDbCircle
 10
-218.4490332384281
 20
-252.958647845066
 30
0.0
 40
0.4242446153837989
100
AcDbArc
 50
0.0
 51
90.0
  0
ARC
  5
420
102
{ACAD_REACTORS
330
461
330
462
102
}
330
71
100
AcDbEntity
  8
0
  6
Continuous
 62
     2
100
AcDbCircle
 10
-223.922345329145
 20
-252.958647845066
 30
0.0
 40
0.4242446153837989
100
AcDbArc
 50
90.0
 51
180.0
  0
ARC
  5
421
102
{ACAD_REACTORS
330
461
330
462
102
}
330
71
100
AcDbEntity
  8
0
  6
Continuous
 62
     2
100
AcDbCircle
 10
-221.8526173913888
 20
-257.9191307510159
 30
0.0
 40
0.3157169230766499
100
AcDbArc
 50
270.0
 51
0.0
  0
ARC
  5
422
102
{ACAD_REACTORS
330
461
330
462
102
}
330
71
100
AcDbEntity
  8
0
  6
Continuous
 62
     2
100
AcDbCircle
 10
-221.8526173913888
 20
-254.1667003273593
 30
0.0
 40
0.3157169230761203
100
AcDbArc
 50
295.1944106485397
 51
0.0
  0
ARC
  5
423
102
{ACAD_REACTORS
330
461
330
462
102
}
330
71
100
AcDbEntity
  8
0
  6
Continuous
 62
     2
100
AcDbCircle
 10
-221.8526173913888
 20
-253.5626757082988
 30
0.0
 40
0.315716923076593
100
AcDbArc
 50
0.0
 51
90.0
  0
ARC
  5
424
102
{ACAD_REACTORS
330
461
330
462
102
}
330
71
100
AcDbEntity
  8
0
  6
Continuous
 62
     2
100
AcDbCircle
 10
-223.3284506523985
 20
-257.9191307510159
 30
0.0
 40
0.3157169230756267
100
AcDbArc
 50
180.0
 51
270.0
  0
ARC
  5
425
102
{ACAD_REACTORS
330
467
330
468
102
}
330
71
100
AcDbEntity
  8
0
  6
Continuous
 62
     2
100
AcDbCircle
 10
-215.5483995441431
 20
-253.5897688709977
 30
0.0
 40
1.055365641333708
100
AcDbArc
 50
270.0
 51
90.0
  0
ARC
  5
426
102
{ACAD_REACTORS
330
45F
330
460
102
}
330
71
100
AcDbEntity
  8
0
  6
Continuous
 62
     2
100
AcDbCircle
 10
-199.8201862324519
 20
-257.3077081057094
 30
0.0
 40
1.639695123940516
100
AcDbArc
 50
195.0618917770985
 51
275.1581447696762
  0
ARC
  5
427
102
{ACAD_REACTORS
330
45F
330
460
102
}
330
71
100
AcDbEntity
  8
0
  6
Continuous
 62
     2
100
AcDbCircle
 10
-200.1090423271878
 20
-254.1078175224878
 30
0.0
 40
4.852596863498861
100
AcDbArc
 50
275.1581447696373
 51
285.9799912583397
  0
ARC
  5
428
102
{ACAD_REACTORS
330
45F
330
460
102
}
330
71
100
AcDbEntity
  8
0
  6
Continuous
 62
     2
100
AcDbCircle
 10
-199.9511694520949
 20
-256.0100321023361
 30
0.0
 40
2.227384008972773
100
AcDbArc
 50
288.4480761181333
 51
301.9309089499387
  0
ARC
  5
429
102
{ACAD_REACTORS
330
45F
330
460
102
}
330
71
100
AcDbEntity
  8
0
  6
Continuous
 62
     2
100
AcDbCircle
 10
-199.533001718433
 20
-257.2635778783726
 30
0.0
 40
0.9059297849854182
100
AcDbArc
 50
246.6277221118162
 51
288.4480761180811
  0
ARC
  5
42A
102
{ACAD_REACTORS
330
45F
330
460
102
}
330
71
100
AcDbEntity
  8
0
  6
Continuous
 62
     2
100
AcDbCircle
 10
-199.3120844930548
 20
-257.4204984677442
 30
0.0
 40
0.941059735334906
100
AcDbArc
 50
151.4785267423609
 51
208.5214732576695
  0
ARC
  5
42B
102
{ACAD_REACTORS
330
45F
330
460
102
}
330
71
100
AcDbEntity
  8
0
  6
Continuous
 62
     2
100
AcDbCircle
 10
-199.5427717530324
 20
-257.6333820187881
 30
0.0
 40
0.9545230068260935
100
AcDbArc
 50
90.0
 51
109.3371432194368
  0
ARC
  5
42C
102
{ACAD_REACTORS
330
461
330
462
102
}
330
71
100
AcDbEntity
  8
0
  6
Continuous
 62
     2
100
AcDbCircle
 10
-220.7529019658668
 20
-253.5628531849469
 30
0.0
 40
0.3157169230760707
100
AcDbArc
 50
90.1889670425253
 51
180.0
  0
ARC
  5
42D
102
{ACAD_REACTORS
330
461
330
462
102
}
330
71
100
AcDbEntity
  8
0
  6
Continuous
 62
     2
100
AcDbCircle
 10
-221.2789446639546
 20
-255.2775300734215
 30
0.0
 40
0.911848150144459
100
AcDbArc
 50
295.3740086781764
 51
64.62599132180748
  0
ARC
  5
42E
102
{ACAD_REACTORS
330
45D
330
45E
102
}
330
71
100
AcDbEntity
  8
0
  6
Continuous
 62
     2
100
AcDbCircle
 10
-216.0538709313478
 20
-256.0100321023355
 30
0.0
 40
2.227384008972746
100
AcDbArc
 50
288.4480761181312
 51
301.9309089499578
  0
ARC
  5
42F
102
{ACAD_REACTORS
330
45D
330
45E
102
}
330
71
100
AcDbEntity
  8
0
  6
Continuous
 62
     2
100
AcDbCircle
 10
-215.635703197687
 20
-257.2635778783726
 30
0.0
 40
0.9059297849850236
100
AcDbArc
 50
246.6277221118739
 51
288.4480761181522
  0
ARC
  5
430
102
{ACAD_REACTORS
330
45D
330
45E
102
}
330
71
100
AcDbEntity
  8
0
  6
Continuous
 62
     2
100
AcDbCircle
 10
-215.7921432303891
 20
-257.6255698970826
 30
0.0
 40
0.5115800601948284
100
AcDbArc
 50
208.521473257694
 51
246.6277221118382
  0
ARC
  5
431
102
{ACAD_REACTORS
330
45D
330
45E
102
}
330
71
100
AcDbEntity
  8
0
  6
Continuous
 62
     2
100
AcDbCircle
 10
-215.635703197687
 20
-257.5774190571158
 30
0.0
 40
0.9059297849853049
100
AcDbArc
 50
71.5519238818569
 51
113.372277888129
  0
ARC
  5
432
102
{ACAD_REACTORS
330
45D
330
45E
102
}
330
71
100
AcDbEntity
  8
0
  6
Continuous
 62
     2
100
AcDbCircle
 10
-216.2117438064408
 20
-260.7331794130001
 30
0.0
 40
4.85259686349804
100
AcDbArc
 50
74.02000874164729
 51
84.84185523037469
  0
CIRCLE
  5
433
102
{ACAD_REACTORS
330
461
330
462
102
}
330
71
100
AcDbEntity
  8
0
  6
Continuous
 62
     2
100
AcDbCircle
 10
-221.3027596786274
 20
-255.2775300734215
 30
0.0
 40
0.4709789327785074
  0
CIRCLE
  5
434
330
71
100
AcDbEntity
  8
1
  6
Continuous
 62
     2
100
AcDbCircle
 10
-215.8465899445278
 20
-245.1159032296659
 30
0.0
 40
1.25
  0
CIRCLE
  5
435
330
71
100
AcDbEntity
  8
1
  6
Continuous
 62
     2
100
AcDbCircle
 10
-215.8465899445278
 20
-245.1159032296659
 30
0.0
 40
2.5
  0
TEXT
  5
436
330
71
100
AcDbEntity
  8
1
 62
     7
100
AcDbText
 10
-173.2096971090766
 20
-247.9409032296659
 30
0.0
 40
2.5
  1
/
 41
0.9
  7
CONVERTER_11
100
AcDbText
  0
TEXT
  5
438
330
71
100
AcDbEntity
  8
1
 62
     7
100
AcDbText
 10
-171.0533326120346
 20
-247.9409032296659
 30
0.0
 40
2.5
  1
01
 41
0.81
  7
CONVERTER_12
100
AcDbText
  0
TEXT
  5
439
330
71
100
AcDbEntity
  8
1
 62
     3
100
AcDbText
 10
-133.4568485860175
 20
-247.9409032296659
 30
0.0
 40
2.5
  1
19.11.2017
 41
0.81
  7
CONVERTER_12
100
AcDbText
  0
MTEXT
  5
43A
330
71
100
AcDbEntity
  8
1
 62
     2
100
AcDbMText
 10
-133.4568485860175
 20
-241.7409032296659
 30
0.0
 40
1.8
 41
0.0
 71
     1
 72
     1
  1
date
  7
CONVERTER_11
 73
     1
 44
1.32052821128451
  0
MTEXT
  5
43B
330
71
100
AcDbEntity
  8
1
 62
     2
100
AcDbMText
 10
-163.2832448310903
 20
-250.2409032296659
 30
0.0
 40
1.8
 41
0.0
 71
     1
 72
     1
  1
document-type
  7
CONVERTER_11
 73
     1
 44
1.20048019207683
  0
TEXT
  5
43C
330
71
100
AcDbEntity
  8
1
 62
     3
100
AcDbText
 10
-163.2832448310903
 20
-256.4409032296659
 30
0.0
 40
2.5
  1
TECDOC 2D_Productdrawing
 41
0.81
  7
CONVERTER_12
100
AcDbText
  0
MTEXT
  5
43E
330
71
100
AcDbEntity
  8
1
 62
     2
100
AcDbMText
 10
-191.0832448310904
 20
-241.7409032296658
 30
0.0
 40
1.8
 41
0.0
 71
     1
 72
     1
  1
document-No. / RI
  7
CONVERTER_13
 73
     1
 44
1.32052821128451
  0
TEXT
  5
43F
330
71
100
AcDbEntity
  8
1
 62
     7
100
AcDbText
 10
-191.0832448310904
 20
-247.9409032296659
 30
0.0
 40
2.5
  1
01034897
 41
0.81
  7
CONVERTER_12
100
AcDbText
  0
MTEXT
  5
441
330
71
100
AcDbEntity
  8
1
 62
     3
100
AcDbMText
 10
-103.497644445178
 20
-247.9409032296657
 30
0.0
 40
2.5
 41
0.0
 71
     8
 72
     1
  1
1:1
  7
CONVERTER_14
 73
     1
 44
1.32052821128451
  0
MTEXT
  5
442
330
71
100
AcDbEntity
  8
1
 62
     2
100
AcDbMText
 10
-106.8568485860176
 20
-241.7409032296658
 30
0.0
 40
1.8
 41
0.0
 71
     1
 72
     1
  1
scale
  7
CONVERTER_11
 73
     1
 44
1.20048019207683
  0
MTEXT
  5
443
330
71
100
AcDbEntity
  8
1
 62
     2
100
AcDbMText
 10
-191.0832448310904
 20
-250.2409032296658
 30
0.0
 40
1.8
 41
0.0
 71
     1
 72
     1
  1
ident.-No.
  7
CONVERTER_11
 73
     1
 44
1.20048019207683
  0
TEXT
  5
444
330
71
100
AcDbEntity
  8
1
 62
     7
100
AcDbText
 10
-190.6832448310906
 20
-256.4409032296659
 30
0.0
 40
2.5
  1
3211280
 41
0.81
  7
CONVERTER_12
100
AcDbText
  0
MTEXT
  5
445
330
71
100
AcDbEntity
  8
1
 62
     2
100
AcDbMText
 10
-263.0212595561379
 20
-253.4909032296659
 30
0.0
 40
2.0
 41
0.0
 71
     5
 72
     1
  1
General Information\P- Simplified representation\P- Document excluded from change process\P- Linear dimensions [mm]
  7
CONVERTER_11
 73
     1
 44
1.20048019207683
  0
MTEXT
  5
446
330
71
100
AcDbEntity
  8
1
 62
     7
100
AcDbMText
 10
-96.53844030434135
 20
-191.2409032296639
 30
0.0
 40
3.5
 41
0.0
 71
     5
 72
     1
  1
C
  7
CONVERTER_11
 73
     1
 44
1.20048019207683
  0
MTEXT
  5
447
330
71
100
AcDbEntity
  8
1
 62
     7
100
AcDbMText
 10
-96.53844030434135
 20
-88.74090322966578
 30
0.0
 40
3.5
 41
0.0
 71
     5
 72
     1
  1
A
  7
CONVERTER_11
 73
     1
 44
1.20048019207683
  0
MTEXT
  5
448
330
71
100
AcDbEntity
  8
1
 62
     7
100
AcDbMText
 10
-96.53844030434135
 20
-141.2409032296639
 30
0.0
 40
3.5
 41
0.0
 71
     5
 72
     1
  1
B
  7
CONVERTER_11
 73
     1
 44
1.20048019207683
  0
MTEXT
  5
449
330
71
100
AcDbEntity
  8
1
 62
     7
100
AcDbMText
 10
-96.53844030434135
 20
-243.7409032296658
 30
0.0
 40
3.5
 41
0.0
 71
     5
 72
     1
  1
D
  7
CONVERTER_11
 73
     1
 44
1.20048019207683
  0
MTEXT
  5
44A
330
71
100
AcDbEntity
  8
1
 62
     7
100
AcDbMText
 10
-366.7884403043399
 20
-268.7409032296659
 30
0.0
 40
3.5
 41
0.0
 71
     5
 72
     1
  1
1
  7
CONVERTER_11
 73
     1
 44
1.20048019207683
  0
MTEXT
  5
44B
330
71
100
AcDbEntity
  8
1
 62
     7
100
AcDbMText
 10
-317.5384403043403
 20
-268.7409032296659
 30
0.0
 40
3.5
 41
0.0
 71
     5
 72
     1
  1
2
  7
CONVERTER_11
 73
     1
 44
1.20048019207683
  0
MTEXT
  5
44C
330
71
100
AcDbEntity
  8
1
 62
     7
100
AcDbMText
 10
-267.5384403043403
 20
-268.7409032296659
 30
0.0
 40
3.5
 41
0.0
 71
     5
 72
     1
  1
3
  7
CONVERTER_11
 73
     1
 44
1.20048019207683
  0
MTEXT
  5
44D
330
71
100
AcDbEntity
  8
1
 62
     7
100
AcDbMText
 10
-217.5384403043404
 20
-268.7409032296659
 30
0.0
 40
3.5
 41
0.0
 71
     5
 72
     1
  1
4
  7
CONVERTER_11
 73
     1
 44
1.20048019207683
  0
MTEXT
  5
44E
330
71
100
AcDbEntity
  8
1
 62
     7
100
AcDbMText
 10
-167.5384403043404
 20
-268.7409032296659
 30
0.0
 40
3.5
 41
0.0
 71
     5
 72
     1
  1
5
  7
CONVERTER_11
 73
     1
 44
1.20048019207683
  0
MTEXT
  5
44F
330
71
100
AcDbEntity
  8
1
 62
     7
100
AcDbMText
 10
-118.2884403043412
 20
-268.7409032296659
 30
0.0
 40
3.5
 41
0.0
 71
     5
 72
     1
  1
6
  7
CONVERTER_11
 73
     1
 44
1.20048019207683
  0
MTEXT
  5
450
330
71
100
AcDbEntity
  8
1
 62
     7
100
AcDbMText
 10
-388.5384403043394
 20
-88.74090322966578
 30
0.0
 40
3.5
 41
0.0
 71
     5
 72
     1
  1
A
  7
CONVERTER_11
 73
     1
 44
1.20048019207683
  0
MTEXT
  5
451
330
71
100
AcDbEntity
  8
1
 62
     7
100
AcDbMText
 10
-388.5384403043394
 20
-141.2409032296658
 30
0.0
 40
3.5
 41
0.0
 71
     5
 72
     1
  1
B
  7
CONVERTER_11
 73
     1
 44
1.20048019207683
  0
MTEXT
  5
452
330
71
100
AcDbEntity
  8
1
 62
     7
100
AcDbMText
 10
-388.5384403043394
 20
-191.2409032296658
 30
0.0
 40
3.5
 41
0.0
 71
     5
 72
     1
  1
C
  7
CONVERTER_11
 73
     1
 44
1.20048019207683
  0
MTEXT
  5
453
330
71
100
AcDbEntity
  8
1
 62
     7
100
AcDbMText
 10
-388.5384403043394
 20
-243.7409032296658
 30
0.0
 40
3.5
 41
0.0
 71
     5
 72
     1
  1
D
  7
CONVERTER_11
 73
     1
 44
1.20048019207683
  0
MTEXT
  5
454
330
71
100
AcDbEntity
  8
1
 62
     3
100
AcDbMText
 10
-202.3832448310905
 20
-245.1159032296658
 30
0.0
 40
2.5
 41
0.0
 71
     5
 72
     1
  1
DIN A4
  7
CONVERTER_11
 73
     1
 44
1.20048019207683
  0
MTEXT
  5
455
330
71
100
AcDbEntity
  8
1
 62
     2
100
AcDbMText
 10
-191.1832448310904
 20
-258.7409032296658
 30
0.0
 40
1.8
 41
0.0
 71
     1
 72
     1
  1
description
  7
CONVERTER_11
 73
     1
 44
1.20048019207683
  0
MTEXT
  5
456
330
71
100
AcDbEntity
  8
1
 62
     7
100
AcDbMText
 10
-145.6108425677149
 20
-262.9909032296656
 30
0.0
 40
3.0
 41
0.0
 71
     5
 72
     1
  1
PP 2,5/ 1
  7
CONVERTER_12
 73
     1
 44
1.20048019207683
  0
TEXT
  5
457
330
71
100
AcDbEntity
  8
1
 62
     2
100
AcDbText
 10
-204.1479360212769
 20
-264.9909032296659
 30
0.0
 40
1.8
  1
1
 41
0.9
  7
CONVERTER_11
100
AcDbText
  0
TEXT
  5
458
330
71
100
AcDbEntity
  8
1
 62
     2
100
AcDbText
 10
-218.9369798607484
 20
-265.0401518834678
 30
0.0
 40
1.8
  1
1
 41
0.9
  7
CONVERTER_11
100
AcDbText
  0
TEXT
  5
459
330
71
100
AcDbEntity
  8
1
 62
     2
100
AcDbText
 10
-227.5832448310904
 20
-264.9999204446575
 30
0.0
 40
1.8
  1
page
 41
0.9
  7
CONVERTER_11
100
AcDbText
  0
TEXT
  5
45A
330
71
100
AcDbEntity
  8
1
 62
     2
100
AcDbText
 10
-209.3832448310905
 20
-264.9999204446574
 30
0.0
 40
1.8
  1
of
 41
0.9
  7
CONVERTER_11
100
AcDbText
  0
MTEXT
  5
45B
330
71
100
AcDbEntity
  8
1
 62
     3
100
AcDbMText
 10
-203.1802626794805
 20
-79.44959507436698
 30
0.0
 40
1.8
 41
0.0
 71
     7
 72
     1
  3
Transfer or duplication of this document as well as the utilisation or\Pcommunication of its content are not permitted unless express consent\Pis granted. Violations give rise to claims for damages. All rights reserved\Pin case of patent, utility mo
  1
del or design patent registrations.
  7
CONVERTER_11
 73
     1
 44
0.99639855942377
  0
MTEXT
  5
45C
330
71
100
AcDbEntity
  8
1
 62
     3
100
AcDbMText
 10
-386.0333725182686
 20
-79.44959507436698
 30
0.0
 40
1.8
 41
0.0
 71
     7
 72
     1
  3
Weitergabe sowie Vervielf\U+00e4ltigung dieses Dokuments, Verwertung und \PMitteilung seines Inhalts sind verboten, soweit nicht ausdr\U+00fccklich gestattet. \PZuwiderhandlungen verpflichten zu Schadenersatz. Alle Rechte f\U+00fcr den Fall\Pder Pat
  1
ent-, Gebrauchsmuster- oder Designeintragung vorbehalten.
  7
CONVERTER_11
 73
     1
 44
0.99639855942377
  0
HATCH
  5
45D
330
71
100
AcDbEntity
  8
1
  6
Continuous
 62
     2
100
AcDbHatch
 10
0.0
 20
0.0
 30
0.0
210
0.0
220
0.0
230
1.0
  2
_USER
 70
     0
 71
     1
 91
        1
 92
        1
 93
       14
 72
     2
 10
-216.3420155551677
 20
-257.4204984677442
 40
1.205656168390891
 50
164.9381082228702
 51
195.0618917770959
 73
     1
 72
     2
 10
-215.9228877117049
 20
-257.3077081057094
 40
1.639695123939298
 50
195.0618917770894
 51
275.158144769641
 73
     1
 72
     2
 10
-216.2117438064408
 20
-254.1078175224878
 40
4.852596863498027
 50
275.1581447696254
 51
285.979991258353
 73
     1
 72
     1
 10
-214.875815889323
 20
-258.7728998282886
 11
-214.875815889323
 21
-257.9003828214854
 72
     2
 10
-216.0538709313478
 20
-256.0100321023355
 40
2.227384008972746
 50
58.06909105004218
 51
71.55192388186886
 73
     0
 72
     2
 10
-215.635703197687
 20
-257.2635778783726
 40
0.9059297849850236
 50
71.55192388184778
 51
113.3722778881261
 73
     0
 72
     2
 10
-215.7921432303891
 20
-257.6255698970826
 40
0.5115800601948284
 50
113.3722778881617
 51
151.4785267423059
 73
     0
 72
     2
 10
-215.4147859723088
 20
-257.4204984677442
 40
0.9410597353332545
 50
151.4785267423003
 51
208.5214732577331
 73
     0
 72
     2
 10
-215.7921432303891
 20
-257.2154270384052
 40
0.5115800601948814
 50
208.521473257694
 51
246.627722111808
 73
     0
 72
     2
 10
-215.635703197687
 20
-257.5774190571158
 40
0.9059297849853049
 50
246.627722111871
 51
288.4480761181431
 73
     0
 72
     2
 10
-216.0538709313478
 20
-258.8309648331524
 40
2.227384008973408
 50
288.4480761181312
 51
301.9309089499578
 73
     0
 72
     1
 10
-214.875815889323
 20
-256.9406141140025
 11
-214.875815889323
 21
-256.0680971071992
 72
     2
 10
-216.2117438064408
 20
-260.7331794130001
 40
4.85259686349804
 50
74.02000874164729
 51
84.84185523037469
 73
     1
 72
     2
 10
-215.9228877117049
 20
-257.5332888297791
 40
1.639695123940509
 50
84.84185523036136
 51
164.9381082228819
 73
     1
 97
       14
330
432
330
34B
330
401
330
431
330
402
330
403
330
430
330
42F
330
42E
330
34C
330
404
330
405
330
406
330
407
 75
     1
 76
     0
 52
45.0
 41
0.1
 77
     0
 78
     1
 53
45.0
 43
0.0
 44
0.0
 45
-0.0707106781186548
 46
0.0707106781186548
 79
     0
 98
        1
 10
0.0
 20
0.0
  0
HATCH
  5
45E
330
71
100
AcDbEntity
  8
1
  6
Continuous
 62
     2
100
AcDbHatch
 10
0.0
 20
0.0
 30
0.0
210
0.0
220
0.0
230
1.0
  2
_USER
 70
     0
 71
     1
 91
        1
 92
        1
 93
       14
 72
     2
 10
-216.3420155551677
 20
-257.4204984677442
 40
1.205656168390891
 50
164.9381082228702
 51
195.0618917770959
 73
     1
 72
     2
 10
-215.9228877117049
 20
-257.3077081057094
 40
1.639695123939298
 50
195.0618917770894
 51
275.158144769641
 73
     1
 72
     2
 10
-216.2117438064408
 20
-254.1078175224878
 40
4.852596863498027
 50
275.1581447696254
 51
285.979991258353
 73
     1
 72
     1
 10
-214.875815889323
 20
-258.7728998282886
 11
-214.875815889323
 21
-257.9003828214854
 72
     2
 10
-216.0538709313478
 20
-256.0100321023355
 40
2.227384008972746
 50
58.06909105004218
 51
71.55192388186886
 73
     0
 72
     2
 10
-215.635703197687
 20
-257.2635778783726
 40
0.9059297849850236
 50
71.55192388184778
 51
113.3722778881261
 73
     0
 72
     2
 10
-215.7921432303891
 20
-257.6255698970826
 40
0.5115800601948284
 50
113.3722778881617
 51
151.4785267423059
 73
     0
 72
     2
 10
-215.4147859723088
 20
-257.4204984677442
 40
0.9410597353332545
 50
151.4785267423003
 51
208.5214732577331
 73
     0
 72
     2
 10
-215.7921432303891
 20
-257.2154270384052
 40
0.5115800601948814
 50
208.521473257694
 51
246.627722111808
 73
     0
 72
     2
 10
-215.635703197687
 20
-257.5774190571158
 40
0.9059297849853049
 50
246.627722111871
 51
288.4480761181431
 73
     0
 72
     2
 10
-216.0538709313478
 20
-258.8309648331524
 40
2.227384008973408
 50
288.4480761181312
 51
301.9309089499578
 73
     0
 72
     1
 10
-214.875815889323
 20
-256.9406141140025
 11
-214.875815889323
 21
-256.0680971071992
 72
     2
 10
-216.2117438064408
 20
-260.7331794130001
 40
4.85259686349804
 50
74.02000874164729
 51
84.84185523037469
 73
     1
 72
     2
 10
-215.9228877117049
 20
-257.5332888297791
 40
1.639695123940509
 50
84.84185523036136
 51
164.9381082228819
 73
     1
 97
       14
330
432
330
34B
330
401
330
431
330
402
330
403
330
430
330
42F
330
42E
330
34C
330
404
330
405
330
406
330
407
 75
     1
 76
     0
 52
45.0
 41
0.1
 77
     0
 78
     1
 53
45.0
 43
0.0
 44
0.0
 45
-0.0707106781186548
 46
0.0707106781186548
 79
     0
 98
        1
 10
0.0
 20
0.0
  0
HATCH
  5
45F
330
71
100
AcDbEntity
  8
1
  6
Continuous
 62
     2
100
AcDbHatch
 10
0.0
 20
0.0
 30
0.0
210
0.0
220
0.0
230
1.0
  2
_USER
 70
     0
 71
     1
 91
        1
 92
        1
 93
       18
 72
     2
 10
-199.8201862324519
 20
-257.5332888297791
 40
1.639695123940214
 50
90.0
 51
164.9381082228919
 73
     1
 72
     2
 10
-200.2393140759135
 20
-257.4204984677442
 40
1.205656168393114
 50
164.9381082228986
 51
195.0618917770936
 73
     1
 72
     2
 10
-199.8201862324519
 20
-257.3077081057094
 40
1.639695123940516
 50
195.0618917770985
 51
275.1581447696762
 73
     1
 72
     2
 10
-200.1090423271878
 20
-254.1078175224878
 40
4.852596863498861
 50
275.1581447696373
 51
285.9799912583397
 73
     1
 72
     1
 10
-198.773114410071
 20
-258.7728998282892
 11
-198.773114410071
 21
-257.9003828214859
 72
     2
 10
-199.9511694520949
 20
-256.0100321023361
 40
2.227384008972773
 50
58.06909105006127
 51
71.55192388186677
 73
     0
 72
     2
 10
-199.533001718433
 20
-257.2635778783726
 40
0.9059297849854182
 50
71.55192388191882
 51
113.3722778881838
 73
     0
 72
     2
 10
-199.6894417511361
 20
-257.6255698970826
 40
0.5115800601961757
 50
113.3722778881617
 51
151.4785267423083
 73
     0
 72
     2
 10
-199.3120844930548
 20
-257.4204984677442
 40
0.941059735334906
 50
151.4785267423305
 51
208.5214732576391
 73
     0
 72
     2
 10
-199.6894417511361
 20
-257.2154270384052
 40
0.5115800601944519
 50
208.5214732575743
 51
250.6628567805027
 73
     0
 72
     2
 10
-199.5427717530324
 20
-257.6333820187881
 40
0.9545230068260935
 50
250.6628567805631
 51
270.0
 73
     0
 72
     1
 10
-199.5427717530324
 20
-256.678859011962
 11
-198.4391324534643
 21
-256.678859011962
 72
     1
 10
-198.4391324534643
 20
-256.678859011962
 11
-198.4391324534643
 21
-258.9474032296495
 72
     1
 10
-198.4391324534643
 20
-258.9474032296495
 11
-197.2463397512966
 21
-258.9474032296495
 72
     1
 10
-197.2463397512966
 20
-258.9474032296495
 11
-197.2463397512966
 21
-256.678859011962
 72
     1
 10
-197.2463397512966
 20
-256.678859011962
 11
-196.4352407138233
 21
-256.678859011962
 72
     1
 10
-196.4352407138233
 20
-256.678859011962
 11
-196.4352407138233
 21
-255.8935937058384
 72
     1
 10
-196.4352407138233
 20
-255.8935937058384
 11
-199.8201862324519
 21
-255.8935937058389
 97
       18
330
3B1
330
3B0
330
3AF
330
3AE
330
3B3
330
34D
330
42B
330
40C
330
42A
330
40D
330
429
330
428
330
34E
330
427
330
426
330
40E
330
40F
330
3B2
 75
     1
 76
     0
 52
45.0
 41
0.1
 77
     0
 78
     1
 53
45.0
 43
0.0
 44
0.0
 45
-0.0707106781186548
 46
0.0707106781186548
 79
     0
 98
        1
 10
0.0
 20
0.0
  0
HATCH
  5
460
330
71
100
AcDbEntity
  8
1
  6
Continuous
 62
     2
100
AcDbHatch
 10
0.0
 20
0.0
 30
0.0
210
0.0
220
0.0
230
1.0
  2
_USER
 70
     0
 71
     1
 91
        1
 92
        1
 93
       18
 72
     2
 10
-199.8201862324519
 20
-257.5332888297791
 40
1.639695123940214
 50
90.0
 51
164.9381082228919
 73
     1
 72
     2
 10
-200.2393140759135
 20
-257.4204984677442
 40
1.205656168393114
 50
164.9381082228986
 51
195.0618917770936
 73
     1
 72
     2
 10
-199.8201862324519
 20
-257.3077081057094
 40
1.639695123940516
 50
195.0618917770985
 51
275.1581447696762
 73
     1
 72
     2
 10
-200.1090423271878
 20
-254.1078175224878
 40
4.852596863498861
 50
275.1581447696373
 51
285.9799912583397
 73
     1
 72
     1
 10
-198.773114410071
 20
-258.7728998282892
 11
-198.773114410071
 21
-257.9003828214859
 72
     2
 10
-199.9511694520949
 20
-256.0100321023361
 40
2.227384008972773
 50
58.06909105006127
 51
71.55192388186677
 73
     0
 72
     2
 10
-199.533001718433
 20
-257.2635778783726
 40
0.9059297849854182
 50
71.55192388191882
 51
113.3722778881838
 73
     0
 72
     2
 10
-199.6894417511361
 20
-257.6255698970826
 40
0.5115800601961757
 50
113.3722778881617
 51
151.4785267423083
 73
     0
 72
     2
 10
-199.3120844930548
 20
-257.4204984677442
 40
0.941059735334906
 50
151.4785267423305
 51
208.5214732576391
 73
     0
 72
     2
 10
-199.6894417511361
 20
-257.2154270384052
 40
0.5115800601944519
 50
208.5214732575743
 51
250.6628567805027
 73
     0
 72
     2
 10
-199.5427717530324
 20
-257.6333820187881
 40
0.9545230068260935
 50
250.6628567805631
 51
270.0
 73
     0
 72
     1
 10
-199.5427717530324
 20
-256.678859011962
 11
-198.4391324534643
 21
-256.678859011962
 72
     1
 10
-198.4391324534643
 20
-256.678859011962
 11
-198.4391324534643
 21
-258.9474032296495
 72
     1
 10
-198.4391324534643
 20
-258.9474032296495
 11
-197.2463397512966
 21
-258.9474032296495
 72
     1
 10
-197.2463397512966
 20
-258.9474032296495
 11
-197.2463397512966
 21
-256.678859011962
 72
     1
 10
-197.2463397512966
 20
-256.678859011962
 11
-196.4352407138233
 21
-256.678859011962
 72
     1
 10
-196.4352407138233
 20
-256.678859011962
 11
-196.4352407138233
 21
-255.8935937058384
 72
     1
 10
-196.4352407138233
 20
-255.8935937058384
 11
-199.8201862324519
 21
-255.8935937058389
 97
       18
330
3B1
330
3B0
330
3AF
330
3AE
330
3B3
330
34D
330
42B
330
40C
330
42A
330
40D
330
429
330
428
330
34E
330
427
330
426
330
40E
330
40F
330
3B2
 75
     1
 76
     0
 52
45.0
 41
0.1
 77
     0
 78
     1
 53
45.0
 43
0.0
 44
0.0
 45
-0.0707106781186548
 46
0.0707106781186548
 79
     0
 98
        1
 10
0.0
 20
0.0
  0
HATCH
  5
461
330
71
100
AcDbEntity
  8
1
  6
Continuous
 62
     2
100
AcDbHatch
 10
0.0
 20
0.0
 30
0.0
210
0.0
220
0.0
230
1.0
  2
_USER
 70
     0
 71
     1
 91
        4
 92
        1
 93
        8
 72
     2
 10
-223.922345329145
 20
-252.958647845066
 40
0.4242446153837989
 50
90.0
 51
180.0
 73
     1
 72
     1
 10
-224.3465899445278
 20
-252.958647845066
 11
-224.3465899445278
 21
-258.5231586142662
 72
     2
 10
-223.922345329145
 20
-258.5231586142662
 40
0.4242446153828041
 50
180.0
 51
270.0
 73
     1
 72
     1
 10
-223.922345329145
 20
-258.9474032296495
 11
-218.4490332384281
 21
-258.9474032296495
 72
     2
 10
-218.4490332384281
 20
-258.5231586142662
 40
0.4242446153833157
 50
270.0
 51
360.0
 73
     1
 72
     1
 10
-218.0247886230443
 20
-258.5231586142662
 11
-218.0247886230443
 21
-252.958647845066
 72
     2
 10
-218.4490332384281
 20
-252.958647845066
 40
0.4242446153837989
 50
0.0
 51
90.0
 73
     1
 72
     1
 10
-218.4490332384281
 20
-252.5344032296822
 11
-223.922345329145
 21
-252.5344032296822
 97
        8
330
41F
330
37C
330
41E
330
37D
330
415
330
37A
330
420
330
37B
 92
       16
 93
        1
 72
     2
 10
-221.3027596786274
 20
-255.2775300734215
 40
0.4709789327785074
 50
0.0
 51
360.0
 73
     1
 97
        1
330
433
 92
       16
 93
        8
 72
     2
 10
-221.2789446639546
 20
-255.2775300734215
 40
0.911848150144459
 50
295.3740086781764
 51
424.6259913218075
 73
     1
 72
     2
 10
-220.7529019658668
 20
-254.1683884734537
 40
0.315716923076792
 50
115.3740086783379
 51
180.0
 73
     0
 72
     1
 10
-221.0686188889436
 20
-254.1683884734537
 11
-221.0686188889436
 21
-253.5628531849469
 72
     2
 10
-220.7529019658668
 20
-253.5628531849469
 40
0.3157169230760707
 50
180.0
 51
269.8110329574747
 73
     0
 72
     2
 10
-220.7472858305567
 20
-255.265688132516
 40
2.018561131933266
 50
269.8110329575866
 51
450.1889670424133
 73
     0
 72
     2
 10
-220.7529019658668
 20
-256.968523080085
 40
0.315716923076792
 50
90.18896704252523
 51
180.0
 73
     0
 72
     1
 10
-221.0686188889436
 20
-256.968523080085
 11
-221.0686188889436
 21
-256.3866716733899
 72
     2
 10
-220.7529019658668
 20
-256.3866716733899
 40
0.3157169230764963
 50
180.0
 51
244.6259913216621
 73
     0
 97
        8
330
42D
330
409
330
3B5
330
42C
330
40A
330
40B
330
3B4
330
408
 92
       16
 93
       12
 72
     1
 10
-223.3284506523985
 20
-258.2348476740926
 11
-221.8526173913888
 21
-258.2348476740926
 72
     2
 10
-221.8526173913888
 20
-257.9191307510159
 40
0.3157169230766499
 50
270.0
 51
360.0
 73
     1
 72
     1
 10
-221.5369004683122
 20
-257.9191307510159
 11
-221.5369004683122
 21
-256.3883598194843
 72
     2
 10
-221.8526173913888
 20
-256.3883598194843
 40
0.315716923076593
 50
0.0
 51
64.80558935146468
 73
     1
 72
     2
 10
-221.3300329438139
 20
-255.2775300734215
 40
0.9118975235575784
 50
115.1944106485082
 51
244.8055893514766
 73
     0
 72
     2
 10
-221.8526173913888
 20
-254.1667003273593
 40
0.3157169230761203
 50
295.1944106485397
 51
360.0
 73
     1
 72
     1
 10
-221.5369004683122
 20
-254.1667003273593
 11
-221.5369004683122
 21
-253.5626757082988
 72
     2
 10
-221.8526173913888
 20
-253.5626757082988
 40
0.315716923076593
 50
0.0
 51
90.0
 73
     1
 72
     1
 10
-221.8526173913888
 20
-253.2469587852226
 11
-223.3284506523985
 21
-253.2469587852226
 72
     2
 10
-223.3284506523985
 20
-253.5626757082988
 40
0.3157169230761951
 50
90.0
 51
180.0
 73
     1
 72
     1
 10
-223.6441675754741
 20
-253.5626757082988
 11
-223.6441675754741
 21
-257.9191307510159
 72
     2
 10
-223.3284506523985
 20
-257.9191307510159
 40
0.3157169230756267
 50
180.0
 51
270.0
 73
     1
 97
       12
330
381
330
412
330
380
330
423
330
37F
330
422
330
413
330
414
330
37E
330
421
330
379
330
424
 75
     1
 76
     0
 52
45.0
 41
0.1
 77
     0
 78
     1
 53
45.0
 43
0.0
 44
0.0
 45
-0.0707106781186548
 46
0.0707106781186548
 79
     0
 98
        1
 10
0.0
 20
0.0
  0
HATCH
  5
462
330
71
100
AcDbEntity
  8
1
  6
Continuous
 62
     2
100
AcDbHatch
 10
0.0
 20
0.0
 30
0.0
210
0.0
220
0.0
230
1.0
  2
_USER
 70
     0
 71
     1
 91
        4
 92
        1
 93
        8
 72
     2
 10
-223.922345329145
 20
-252.958647845066
 40
0.4242446153837989
 50
90.0
 51
180.0
 73
     1
 72
     1
 10
-224.3465899445278
 20
-252.958647845066
 11
-224.3465899445278
 21
-258.5231586142662
 72
     2
 10
-223.922345329145
 20
-258.5231586142662
 40
0.4242446153828041
 50
180.0
 51
270.0
 73
     1
 72
     1
 10
-223.922345329145
 20
-258.9474032296495
 11
-218.4490332384281
 21
-258.9474032296495
 72
     2
 10
-218.4490332384281
 20
-258.5231586142662
 40
0.4242446153833157
 50
270.0
 51
360.0
 73
     1
 72
     1
 10
-218.0247886230443
 20
-258.5231586142662
 11
-218.0247886230443
 21
-252.958647845066
 72
     2
 10
-218.4490332384281
 20
-252.958647845066
 40
0.4242446153837989
 50
0.0
 51
90.0
 73
     1
 72
     1
 10
-218.4490332384281
 20
-252.5344032296822
 11
-223.922345329145
 21
-252.5344032296822
 97
        8
330
41F
330
37C
330
41E
330
37D
330
415
330
37A
330
420
330
37B
 92
       16
 93
        1
 72
     2
 10
-221.3027596786274
 20
-255.2775300734215
 40
0.4709789327785074
 50
0.0
 51
360.0
 73
     1
 97
        1
330
433
 92
       16
 93
        8
 72
     2
 10
-221.2789446639546
 20
-255.2775300734215
 40
0.911848150144459
 50
295.3740086781764
 51
424.6259913218075
 73
     1
 72
     2
 10
-220.7529019658668
 20
-254.1683884734537
 40
0.315716923076792
 50
115.3740086783379
 51
180.0
 73
     0
 72
     1
 10
-221.0686188889436
 20
-254.1683884734537
 11
-221.0686188889436
 21
-253.5628531849469
 72
     2
 10
-220.7529019658668
 20
-253.5628531849469
 40
0.3157169230760707
 50
180.0
 51
269.8110329574747
 73
     0
 72
     2
 10
-220.7472858305567
 20
-255.265688132516
 40
2.018561131933266
 50
269.8110329575866
 51
450.1889670424133
 73
     0
 72
     2
 10
-220.7529019658668
 20
-256.968523080085
 40
0.315716923076792
 50
90.18896704252523
 51
180.0
 73
     0
 72
     1
 10
-221.0686188889436
 20
-256.968523080085
 11
-221.0686188889436
 21
-256.3866716733899
 72
     2
 10
-220.7529019658668
 20
-256.3866716733899
 40
0.3157169230764963
 50
180.0
 51
244.6259913216621
 73
     0
 97
        8
330
42D
330
409
330
3B5
330
42C
330
40A
330
40B
330
3B4
330
408
 92
       16
 93
       12
 72
     1
 10
-223.3284506523985
 20
-258.2348476740926
 11
-221.8526173913888
 21
-258.2348476740926
 72
     2
 10
-221.8526173913888
 20
-257.9191307510159
 40
0.3157169230766499
 50
270.0
 51
360.0
 73
     1
 72
     1
 10
-221.5369004683122
 20
-257.9191307510159
 11
-221.5369004683122
 21
-256.3883598194843
 72
     2
 10
-221.8526173913888
 20
-256.3883598194843
 40
0.315716923076593
 50
0.0
 51
64.80558935146468
 73
     1
 72
     2
 10
-221.3300329438139
 20
-255.2775300734215
 40
0.9118975235575784
 50
115.1944106485082
 51
244.8055893514766
 73
     0
 72
     2
 10
-221.8526173913888
 20
-254.1667003273593
 40
0.3157169230761203
 50
295.1944106485397
 51
360.0
 73
     1
 72
     1
 10
-221.5369004683122
 20
-254.1667003273593
 11
-221.5369004683122
 21
-253.5626757082988
 72
     2
 10
-221.8526173913888
 20
-253.5626757082988
 40
0.315716923076593
 50
0.0
 51
90.0
 73
     1
 72
     1
 10
-221.8526173913888
 20
-253.2469587852226
 11
-223.3284506523985
 21
-253.2469587852226
 72
     2
 10
-223.3284506523985
 20
-253.5626757082988
 40
0.3157169230761951
 50
90.0
 51
180.0
 73
     1
 72
     1
 10
-223.6441675754741
 20
-253.5626757082988
 11
-223.6441675754741
 21
-257.9191307510159
 72
     2
 10
-223.3284506523985
 20
-257.9191307510159
 40
0.3157169230756267
 50
180.0
 51
270.0
 73
     1
 97
       12
330
381
330
412
330
380
330
423
330
37F
330
422
330
413
330
414
330
37E
330
421
330
379
330
424
 75
     1
 76
     0
 52
45.0
 41
0.1
 77
     0
 78
     1
 53
45.0
 43
0.0
 44
0.0
 45
-0.0707106781186548
 46
0.0707106781186548
 79
     0
 98
        1
 10
0.0
 20
0.0
  0
HATCH
  5
463
330
71
100
AcDbEntity
  8
1
  6
Continuous
 62
     2
100
AcDbHatch
 10
0.0
 20
0.0
 30
0.0
210
0.0
220
0.0
230
1.0
  2
_USER
 70
     0
 71
     1
 91
        2
 92
        1
 93
       12
 72
     2
 10
-209.2471813251557
 20
-254.0613079915699
 40
1.526904761905882
 50
90.0
 51
270.0
 73
     1
 72
     1
 10
-209.2471813251557
 20
-255.5882127534752
 11
-206.0968616013747
 21
-255.5882127534752
 72
     1
 10
-206.0968616013747
 20
-255.5882127534752
 11
-206.0968616013747
 21
-254.8901991480327
 72
     1
 10
-206.0968616013747
 20
-254.8901991480327
 11
-207.4327894278023
 21
-254.8901991480327
 72
     1
 10
-207.4327894278023
 20
-254.8901991480327
 11
-207.4327894278023
 21
-254.410314794291
 72
     1
 10
-207.4327894278023
 20
-254.410314794291
 11
-206.0968616013747
 21
-254.410314794291
 72
     1
 10
-206.0968616013747
 20
-254.410314794291
 11
-206.0968616013747
 21
-253.7123011888487
 72
     1
 10
-206.0968616013747
 20
-253.7123011888487
 11
-207.4327894278023
 21
-253.7123011888487
 72
     1
 10
-207.4327894278023
 20
-253.7123011888487
 11
-207.4327894278023
 21
-253.232416835107
 72
     1
 10
-207.4327894278023
 20
-253.232416835107
 11
-206.0968616013747
 21
-253.232416835107
 72
     1
 10
-206.0968616013747
 20
-253.232416835107
 11
-206.0968616013747
 21
-252.534403229664
 72
     1
 10
-206.0968616013747
 20
-252.534403229664
 11
-209.2471813251557
 21
-252.534403229664
 97
       12
330
370
330
36A
330
391
330
390
330
38F
330
38E
330
36B
330
36C
330
36D
330
36E
330
410
330
36F
 92
       16
 93
        4
 72
     2
 10
-208.8311692786442
 20
-254.0613079915699
 40
0.7717997786795829
 50
141.8795802028352
 51
218.1204197971614
 73
     1
 72
     2
 10
-209.0309093149905
 20
-254.2180391696903
 40
0.5179085730133652
 50
218.1204197971613
 51
321.8795802028542
 73
     1
 72
     2
 10
-209.2306493513366
 20
-254.0613079915699
 40
0.7717997786795702
 50
321.8795802028399
 51
398.1204197971634
 73
     1
 72
     2
 10
-209.0309093149905
 20
-253.9045768134494
 40
0.5179085730135266
 50
38.12041979714334
 51
141.8795802028411
 73
     1
 97
        4
330
41D
330
41C
330
417
330
416
 75
     1
 76
     0
 52
45.0
 41
0.1
 77
     0
 78
     1
 53
45.0
 43
0.0
 44
0.0
 45
-0.0707106781186548
 46
0.0707106781186548
 79
     0
 98
        1
 10
0.0
 20
0.0
  0
HATCH
  5
464
330
71
100
AcDbEntity
  8
1
  6
Continuous
 62
     2
100
AcDbHatch
 10
0.0
 20
0.0
 30
0.0
210
0.0
220
0.0
230
1.0
  2
_USER
 70
     0
 71
     1
 91
        2
 92
        1
 93
       12
 72
     2
 10
-209.2471813251557
 20
-254.0613079915699
 40
1.526904761905882
 50
90.0
 51
270.0
 73
     1
 72
     1
 10
-209.2471813251557
 20
-255.5882127534752
 11
-206.0968616013747
 21
-255.5882127534752
 72
     1
 10
-206.0968616013747
 20
-255.5882127534752
 11
-206.0968616013747
 21
-254.8901991480327
 72
     1
 10
-206.0968616013747
 20
-254.8901991480327
 11
-207.4327894278023
 21
-254.8901991480327
 72
     1
 10
-207.4327894278023
 20
-254.8901991480327
 11
-207.4327894278023
 21
-254.410314794291
 72
     1
 10
-207.4327894278023
 20
-254.410314794291
 11
-206.0968616013747
 21
-254.410314794291
 72
     1
 10
-206.0968616013747
 20
-254.410314794291
 11
-206.0968616013747
 21
-253.7123011888487
 72
     1
 10
-206.0968616013747
 20
-253.7123011888487
 11
-207.4327894278023
 21
-253.7123011888487
 72
     1
 10
-207.4327894278023
 20
-253.7123011888487
 11
-207.4327894278023
 21
-253.232416835107
 72
     1
 10
-207.4327894278023
 20
-253.232416835107
 11
-206.0968616013747
 21
-253.232416835107
 72
     1
 10
-206.0968616013747
 20
-253.232416835107
 11
-206.0968616013747
 21
-252.534403229664
 72
     1
 10
-206.0968616013747
 20
-252.534403229664
 11
-209.2471813251557
 21
-252.534403229664
 97
       12
330
370
330
36A
330
391
330
390
330
38F
330
38E
330
36B
330
36C
330
36D
330
36E
330
410
330
36F
 92
       16
 93
        4
 72
     2
 10
-208.8311692786442
 20
-254.0613079915699
 40
0.7717997786795829
 50
141.8795802028352
 51
218.1204197971614
 73
     1
 72
     2
 10
-209.0309093149905
 20
-254.2180391696903
 40
0.5179085730133652
 50
218.1204197971613
 51
321.8795802028542
 73
     1
 72
     2
 10
-209.2306493513366
 20
-254.0613079915699
 40
0.7717997786795702
 50
321.8795802028399
 51
398.1204197971634
 73
     1
 72
     2
 10
-209.0309093149905
 20
-253.9045768134494
 40
0.5179085730135266
 50
38.12041979714334
 51
141.8795802028411
 73
     1
 97
        4
330
41D
330
41C
330
417
330
416
 75
     1
 76
     0
 52
45.0
 41
0.1
 77
     0
 78
     1
 53
45.0
 43
0.0
 44
0.0
 45
-0.0707106781186548
 46
0.0707106781186548
 79
     0
 98
        1
 10
0.0
 20
0.0
  0
HATCH
  5
465
330
71
100
AcDbEntity
  8
1
  6
Continuous
 62
     2
100
AcDbHatch
 10
0.0
 20
0.0
 30
0.0
210
0.0
220
0.0
230
1.0
  2
_USER
 70
     0
 71
     1
 91
        2
 92
        1
 93
        4
 72
     2
 10
-213.2727966876172
 20
-257.4204984677442
 40
1.458034083651528
 50
117.5481481756629
 51
242.451851824336
 73
     1
 72
     2
 10
-212.991856795784
 20
-256.8819234574409
 40
2.065479772208444
 50
242.4518518243419
 51
297.5481481756875
 73
     1
 72
     2
 10
-212.7109169039507
 20
-257.4204984677442
 40
1.458034083651977
 50
297.5481481757016
 51
422.4518518242994
 73
     1
 72
     2
 10
-212.991856795784
 20
-257.959073478047
 40
2.065479772208593
 50
62.45185182430674
 51
117.5481481756639
 73
     1
 97
        4
330
41B
330
418
330
41A
330
419
 92
       16
 93
        4
 72
     2
 10
-212.991856795784
 20
-257.2637672896237
 40
0.5179085730133669
 50
38.12041979714121
 51
141.879580202853
 73
     1
 72
     2
 10
-212.7921167594379
 20
-257.4204984677442
 40
0.7717997786794137
 50
141.8795802028307
 51
218.120419797166
 73
     1
 72
     2
 10
-212.991856795784
 20
-257.5772296458642
 40
0.5179085730136157
 50
218.1204197971915
 51
321.8795802028143
 73
     1
 72
     2
 10
-213.1915968321304
 20
-257.4204984677442
 40
0.7717997786796692
 50
321.879580202851
 51
398.1204197971524
 73
     1
 97
        4
330
3FE
330
3FF
330
400
330
3FD
 75
     1
 76
     0
 52
45.0
 41
0.1
 77
     0
 78
     1
 53
45.0
 43
0.0
 44
0.0
 45
-0.0707106781186548
 46
0.0707106781186548
 79
     0
 98
        1
 10
0.0
 20
0.0
  0
HATCH
  5
466
330
71
100
AcDbEntity
  8
1
  6
Continuous
 62
     2
100
AcDbHatch
 10
0.0
 20
0.0
 30
0.0
210
0.0
220
0.0
230
1.0
  2
_USER
 70
     0
 71
     1
 91
        2
 92
        1
 93
        4
 72
     2
 10
-213.2727966876172
 20
-257.4204984677442
 40
1.458034083651528
 50
117.5481481756629
 51
242.451851824336
 73
     1
 72
     2
 10
-212.991856795784
 20
-256.8819234574409
 40
2.065479772208444
 50
242.4518518243419
 51
297.5481481756875
 73
     1
 72
     2
 10
-212.7109169039507
 20
-257.4204984677442
 40
1.458034083651977
 50
297.5481481757016
 51
422.4518518242994
 73
     1
 72
     2
 10
-212.991856795784
 20
-257.959073478047
 40
2.065479772208593
 50
62.45185182430674
 51
117.5481481756639
 73
     1
 97
        4
330
41B
330
418
330
41A
330
419
 92
       16
 93
        4
 72
     2
 10
-212.991856795784
 20
-257.2637672896237
 40
0.5179085730133669
 50
38.12041979714121
 51
141.879580202853
 73
     1
 72
     2
 10
-212.7921167594379
 20
-257.4204984677442
 40
0.7717997786794137
 50
141.8795802028307
 51
218.120419797166
 73
     1
 72
     2
 10
-212.991856795784
 20
-257.5772296458642
 40
0.5179085730136157
 50
218.1204197971915
 51
321.8795802028143
 73
     1
 72
     2
 10
-213.1915968321304
 20
-257.4204984677442
 40
0.7717997786796692
 50
321.879580202851
 51
398.1204197971524
 73
     1
 97
        4
330
3FE
330
3FF
330
400
330
3FD
 75
     1
 76
     0
 52
45.0
 41
0.1
 77
     0
 78
     1
 53
45.0
 43
0.0
 44
0.0
 45
-0.0707106781186548
 46
0.0707106781186548
 79
     0
 98
        1
 10
0.0
 20
0.0
  0
HATCH
  5
467
330
71
100
AcDbEntity
  8
1
  6
Continuous
 62
     2
100
AcDbHatch
 10
0.0
 20
0.0
 30
0.0
210
0.0
220
0.0
230
1.0
  2
_USER
 70
     0
 71
     1
 91
        2
 92
        1
 93
        6
 72
     1
 10
-217.5476715421775
 20
-252.534403229664
 11
-217.5476715421775
 21
-255.5882127534752
 72
     1
 10
-217.5476715421775
 20
-255.5882127534752
 11
-216.3071671319233
 21
-255.5882127534752
 72
     1
 10
-216.3071671319233
 20
-255.5882127534752
 11
-216.3071671319233
 21
-254.6451345123314
 72
     1
 10
-216.3071671319233
 20
-254.6451345123314
 11
-215.5483995441431
 21
-254.6451345123314
 72
     2
 10
-215.5483995441431
 20
-253.5897688709977
 40
1.055365641333708
 50
270.0
 51
450.0
 73
     1
 72
     1
 10
-215.5483995441431
 20
-252.534403229664
 11
-217.5476715421775
 21
-252.534403229664
 97
        6
330
425
330
382
330
378
330
377
330
384
330
383
 92
       16
 93
        4
 72
     1
 10
-215.9898720703814
 20
-253.1975090751041
 11
-216.3071671319233
 21
-253.1975090751041
 72
     1
 10
-216.3071671319233
 20
-253.1975090751041
 11
-216.3071671319233
 21
-253.9032367244463
 72
     1
 10
-216.3071671319233
 20
-253.9032367244463
 11
-215.9898720703814
 21
-253.9032367244463
 72
     2
 10
-215.9898720703814
 20
-253.5503728997752
 40
0.3528638246710898
 50
270.0
 51
450.0
 73
     1
 97
        4
330
385
330
376
330
386
330
411
 75
     1
 76
     0
 52
45.0
 41
0.1
 77
     0
 78
     1
 53
45.0
 43
0.0
 44
0.0
 45
-0.0707106781186548
 46
0.0707106781186548
 79
     0
 98
        1
 10
0.0
 20
0.0
  0
HATCH
  5
468
330
71
100
AcDbEntity
  8
1
  6
Continuous
 62
     2
100
AcDbHatch
 10
0.0
 20
0.0
 30
0.0
210
0.0
220
0.0
230
1.0
  2
_USER
 70
     0
 71
     1
 91
        2
 92
        1
 93
        6
 72
     1
 10
-217.5476715421775
 20
-252.534403229664
 11
-217.5476715421775
 21
-255.5882127534752
 72
     1
 10
-217.5476715421775
 20
-255.5882127534752
 11
-216.3071671319233
 21
-255.5882127534752
 72
     1
 10
-216.3071671319233
 20
-255.5882127534752
 11
-216.3071671319233
 21
-254.6451345123314
 72
     1
 10
-216.3071671319233
 20
-254.6451345123314
 11
-215.5483995441431
 21
-254.6451345123314
 72
     2
 10
-215.5483995441431
 20
-253.5897688709977
 40
1.055365641333708
 50
270.0
 51
450.0
 73
     1
 72
     1
 10
-215.5483995441431
 20
-252.534403229664
 11
-217.5476715421775
 21
-252.534403229664
 97
        6
330
425
330
382
330
378
330
377
330
384
330
383
 92
       16
 93
        4
 72
     1
 10
-215.9898720703814
 20
-253.1975090751041
 11
-216.3071671319233
 21
-253.1975090751041
 72
     1
 10
-216.3071671319233
 20
-253.1975090751041
 11
-216.3071671319233
 21
-253.9032367244463
 72
     1
 10
-216.3071671319233
 20
-253.9032367244463
 11
-215.9898720703814
 21
-253.9032367244463
 72
     2
 10
-215.9898720703814
 20
-253.5503728997752
 40
0.3528638246710898
 50
270.0
 51
450.0
 73
     1
 97
        4
330
385
330
376
330
386
330
411
 75
     1
 76
     0
 52
45.0
 41
0.1
 77
     0
 78
     1
 53
45.0
 43
0.0
 44
0.0
 45
-0.0707106781186548
 46
0.0707106781186548
 79
     0
 98
        1
 10
0.0
 20
0.0
  0
HATCH
  5
469
330
71
100
AcDbEntity
  8
1
  6
Continuous
 62
     2
100
AcDbHatch
 10
0.0
 20
0.0
 30
0.0
210
0.0
220
0.0
230
1.0
  2
_USER
 70
     0
 71
     1
 91
        1
 92
        1
 93
       12
 72
     1
 10
-197.9333883477443
 20
-252.534403229664
 11
-196.530664129997
 21
-252.534403229664
 72
     1
 10
-196.530664129997
 20
-252.534403229664
 11
-197.8331937607636
 21
-254.0073537597002
 72
     1
 10
-197.8331937607636
 20
-254.0073537597002
 11
-196.4352407138233
 21
-255.5882127534752
 72
     1
 10
-196.4352407138233
 20
-255.5882127534752
 11
-197.8379649315716
 21
-255.5882127534752
 72
     1
 10
-197.8379649315716
 20
-255.5882127534752
 11
-198.5345558696371
 21
-254.8004809681815
 72
     1
 10
-198.5345558696371
 20
-254.8004809681815
 11
-199.2311468077027
 21
-255.5882127534752
 72
     1
 10
-199.2311468077027
 20
-255.5882127534752
 11
-200.633871025451
 21
-255.5882127534752
 72
     1
 10
-200.633871025451
 20
-255.5882127534752
 11
-199.2359179785107
 21
-254.0073537597002
 72
     1
 10
-199.2359179785107
 20
-254.0073537597002
 11
-200.5384476092781
 21
-252.534403229664
 72
     1
 10
-200.5384476092781
 20
-252.534403229664
 11
-199.1357233915288
 21
-252.534403229664
 72
     1
 10
-199.1357233915288
 20
-252.534403229664
 11
-198.5345558696371
 21
-253.2142265512195
 72
     1
 10
-198.5345558696371
 20
-253.2142265512195
 11
-197.9333883477443
 21
-252.534403229664
 97
       12
330
351
330
3AA
330
3A9
330
3A8
330
3A7
330
352
330
353
330
34F
330
350
330
3AD
330
3AC
330
3AB
 75
     1
 76
     0
 52
45.0
 41
0.1
 77
     0
 78
     1
 53
45.0
 43
0.0
 44
0.0
 45
-0.0707106781186548
 46
0.0707106781186548
 79
     0
 98
        1
 10
0.0
 20
0.0
  0
HATCH
  5
46A
330
71
100
AcDbEntity
  8
1
  6
Continuous
 62
     2
100
AcDbHatch
 10
0.0
 20
0.0
 30
0.0
210
0.0
220
0.0
230
1.0
  2
_USER
 70
     0
 71
     1
 91
        1
 92
        1
 93
       12
 72
     1
 10
-197.9333883477443
 20
-252.534403229664
 11
-196.530664129997
 21
-252.534403229664
 72
     1
 10
-196.530664129997
 20
-252.534403229664
 11
-197.8331937607636
 21
-254.0073537597002
 72
     1
 10
-197.8331937607636
 20
-254.0073537597002
 11
-196.4352407138233
 21
-255.5882127534752
 72
     1
 10
-196.4352407138233
 20
-255.5882127534752
 11
-197.8379649315716
 21
-255.5882127534752
 72
     1
 10
-197.8379649315716
 20
-255.5882127534752
 11
-198.5345558696371
 21
-254.8004809681815
 72
     1
 10
-198.5345558696371
 20
-254.8004809681815
 11
-199.2311468077027
 21
-255.5882127534752
 72
     1
 10
-199.2311468077027
 20
-255.5882127534752
 11
-200.633871025451
 21
-255.5882127534752
 72
     1
 10
-200.633871025451
 20
-255.5882127534752
 11
-199.2359179785107
 21
-254.0073537597002
 72
     1
 10
-199.2359179785107
 20
-254.0073537597002
 11
-200.5384476092781
 21
-252.534403229664
 72
     1
 10
-200.5384476092781
 20
-252.534403229664
 11
-199.1357233915288
 21
-252.534403229664
 72
     1
 10
-199.1357233915288
 20
-252.534403229664
 11
-198.5345558696371
 21
-253.2142265512195
 72
     1
 10
-198.5345558696371
 20
-253.2142265512195
 11
-197.9333883477443
 21
-252.534403229664
 97
       12
330
351
330
3AA
330
3A9
330
3A8
330
3A7
330
352
330
353
330
34F
330
350
330
3AD
330
3AC
330
3AB
 75
     1
 76
     0
 52
45.0
 41
0.1
 77
     0
 78
     1
 53
45.0
 43
0.0
 44
0.0
 45
-0.0707106781186548
 46
0.0707106781186548
 79
     0
 98
        1
 10
0.0
 20
0.0
  0
HATCH
  5
46B
330
71
100
AcDbEntity
  8
1
  6
Continuous
 62
     2
100
AcDbHatch
 10
0.0
 20
0.0
 30
0.0
210
0.0
220
0.0
230
1.0
  2
_USER
 70
     0
 71
     1
 91
        1
 92
        1
 93
        4
 72
     1
 10
-200.7531502956678
 20
-252.534403229664
 11
-200.7531502956678
 21
-255.5882127534752
 72
     1
 10
-200.7531502956678
 20
-255.5882127534752
 11
-201.9936547059207
 21
-255.5882127534752
 72
     1
 10
-201.9936547059207
 20
-255.5882127534752
 11
-201.9936547059207
 21
-252.534403229664
 72
     1
 10
-201.9936547059207
 20
-252.534403229664
 11
-200.7531502956678
 21
-252.534403229664
 97
        4
330
3A5
330
354
330
3A4
330
3A6
 75
     1
 76
     0
 52
45.0
 41
0.1
 77
     0
 78
     1
 53
45.0
 43
0.0
 44
0.0
 45
-0.0707106781186548
 46
0.0707106781186548
 79
     0
 98
        1
 10
0.0
 20
0.0
  0
HATCH
  5
46C
330
71
100
AcDbEntity
  8
1
  6
Continuous
 62
     2
100
AcDbHatch
 10
0.0
 20
0.0
 30
0.0
210
0.0
220
0.0
230
1.0
  2
_USER
 70
     0
 71
     1
 91
        1
 92
        1
 93
        4
 72
     1
 10
-200.7531502956678
 20
-252.534403229664
 11
-200.7531502956678
 21
-255.5882127534752
 72
     1
 10
-200.7531502956678
 20
-255.5882127534752
 11
-201.9936547059207
 21
-255.5882127534752
 72
     1
 10
-201.9936547059207
 20
-255.5882127534752
 11
-201.9936547059207
 21
-252.534403229664
 72
     1
 10
-201.9936547059207
 20
-252.534403229664
 11
-200.7531502956678
 21
-252.534403229664
 97
        4
330
3A5
330
354
330
3A4
330
3A6
 75
     1
 76
     0
 52
45.0
 41
0.1
 77
     0
 78
     1
 53
45.0
 43
0.0
 44
0.0
 45
-0.0707106781186548
 46
0.0707106781186548
 79
     0
 98
        1
 10
0.0
 20
0.0
  0
HATCH
  5
46D
330
71
100
AcDbEntity
  8
1
  6
Continuous
 62
     2
100
AcDbHatch
 10
0.0
 20
0.0
 30
0.0
210
0.0
220
0.0
230
1.0
  2
_USER
 70
     0
 71
     1
 91
        2
 92
        1
 93
        8
 72
     1
 10
-201.1435942991998
 20
-258.9474032296495
 11
-202.3840987094538
 21
-258.9474032296495
 72
     1
 10
-202.3840987094538
 20
-258.9474032296495
 11
-202.5955787629295
 21
-258.4064426854316
 72
     1
 10
-202.5955787629295
 20
-258.4064426854316
 11
-203.7280203396034
 21
-258.4064426854316
 72
     1
 10
-203.7280203396034
 20
-258.4064426854316
 11
-203.9395003930792
 21
-258.9474032296495
 72
     1
 10
-203.9395003930792
 20
-258.9474032296495
 11
-205.1800048033321
 21
-258.9474032296495
 72
     1
 10
-205.1800048033321
 20
-258.9474032296495
 11
-203.7820517563928
 21
-255.8935937058384
 72
     1
 10
-203.7820517563928
 20
-255.8935937058384
 11
-202.5415473461401
 21
-255.8935937058384
 72
     1
 10
-202.5415473461401
 20
-255.8935937058384
 11
-201.1435942991998
 21
-258.9474032296495
 97
        8
330
3A0
330
35A
330
39F
330
3A2
330
357
330
3A1
330
358
330
359
 92
       16
 93
        3
 72
     1
 10
-203.4619647884584
 20
-257.725879420125
 11
-202.8616343140758
 21
-257.725879420125
 72
     1
 10
-202.8616343140758
 20
-257.725879420125
 11
-203.1617995512659
 21
-256.9580644541383
 72
     1
 10
-203.1617995512659
 20
-256.9580644541383
 11
-203.4619647884584
 21
-257.725879420125
 97
        3
330
356
330
355
330
3A3
 75
     1
 76
     0
 52
45.0
 41
0.1
 77
     0
 78
     1
 53
45.0
 43
0.0
 44
0.0
 45
-0.0707106781186548
 46
0.0707106781186548
 79
     0
 98
        1
 10
0.0
 20
0.0
  0
HATCH
  5
46E
330
71
100
AcDbEntity
  8
1
  6
Continuous
 62
     2
100
AcDbHatch
 10
0.0
 20
0.0
 30
0.0
210
0.0
220
0.0
230
1.0
  2
_USER
 70
     0
 71
     1
 91
        2
 92
        1
 93
        8
 72
     1
 10
-201.1435942991998
 20
-258.9474032296495
 11
-202.3840987094538
 21
-258.9474032296495
 72
     1
 10
-202.3840987094538
 20
-258.9474032296495
 11
-202.5955787629295
 21
-258.4064426854316
 72
     1
 10
-202.5955787629295
 20
-258.4064426854316
 11
-203.7280203396034
 21
-258.4064426854316
 72
     1
 10
-203.7280203396034
 20
-258.4064426854316
 11
-203.9395003930792
 21
-258.9474032296495
 72
     1
 10
-203.9395003930792
 20
-258.9474032296495
 11
-205.1800048033321
 21
-258.9474032296495
 72
     1
 10
-205.1800048033321
 20
-258.9474032296495
 11
-203.7820517563928
 21
-255.8935937058384
 72
     1
 10
-203.7820517563928
 20
-255.8935937058384
 11
-202.5415473461401
 21
-255.8935937058384
 72
     1
 10
-202.5415473461401
 20
-255.8935937058384
 11
-201.1435942991998
 21
-258.9474032296495
 97
        8
330
3A0
330
35A
330
39F
330
3A2
330
357
330
3A1
330
358
330
359
 92
       16
 93
        3
 72
     1
 10
-203.4619647884584
 20
-257.725879420125
 11
-202.8616343140758
 21
-257.725879420125
 72
     1
 10
-202.8616343140758
 20
-257.725879420125
 11
-203.1617995512659
 21
-256.9580644541383
 72
     1
 10
-203.1617995512659
 20
-256.9580644541383
 11
-203.4619647884584
 21
-257.725879420125
 97
        3
330
356
330
355
330
3A3
 75
     1
 76
     0
 52
45.0
 41
0.1
 77
     0
 78
     1
 53
45.0
 43
0.0
 44
0.0
 45
-0.0707106781186548
 46
0.0707106781186548
 79
     0
 98
        1
 10
0.0
 20
0.0
  0
HATCH
  5
46F
330
71
100
AcDbEntity
  8
1
  6
Continuous
 62
     2
100
AcDbHatch
 10
0.0
 20
0.0
 30
0.0
210
0.0
220
0.0
230
1.0
  2
_USER
 70
     0
 71
     1
 91
        1
 92
        1
 93
        8
 72
     1
 10
-207.3375169425144
 20
-255.8935937058384
 11
-207.3375169425144
 21
-256.678859011962
 72
     1
 10
-207.3375169425144
 20
-256.678859011962
 11
-206.5264179050398
 21
-256.678859011962
 72
     1
 10
-206.5264179050398
 20
-256.678859011962
 11
-206.5264179050398
 21
-258.9474032296495
 72
     1
 10
-206.5264179050398
 20
-258.9474032296495
 11
-205.3336252028732
 21
-258.9474032296495
 72
     1
 10
-205.3336252028732
 20
-258.9474032296495
 11
-205.3336252028732
 21
-256.678859011962
 72
     1
 10
-205.3336252028732
 20
-256.678859011962
 11
-204.5225261654007
 21
-256.678859011962
 72
     1
 10
-204.5225261654007
 20
-256.678859011962
 11
-204.5225261654007
 21
-255.8935937058384
 72
     1
 10
-204.5225261654007
 20
-255.8935937058384
 11
-207.3375169425144
 21
-255.8935937058384
 97
        8
330
39C
330
39B
330
39A
330
35B
330
35C
330
39E
330
35D
330
39D
 75
     1
 76
     0
 52
45.0
 41
0.1
 77
     0
 78
     1
 53
45.0
 43
0.0
 44
0.0
 45
-0.0707106781186548
 46
0.0707106781186548
 79
     0
 98
        1
 10
0.0
 20
0.0
  0
HATCH
  5
470
330
71
100
AcDbEntity
  8
1
  6
Continuous
 62
     2
100
AcDbHatch
 10
0.0
 20
0.0
 30
0.0
210
0.0
220
0.0
230
1.0
  2
_USER
 70
     0
 71
     1
 91
        1
 92
        1
 93
        8
 72
     1
 10
-207.3375169425144
 20
-255.8935937058384
 11
-207.3375169425144
 21
-256.678859011962
 72
     1
 10
-207.3375169425144
 20
-256.678859011962
 11
-206.5264179050398
 21
-256.678859011962
 72
     1
 10
-206.5264179050398
 20
-256.678859011962
 11
-206.5264179050398
 21
-258.9474032296495
 72
     1
 10
-206.5264179050398
 20
-258.9474032296495
 11
-205.3336252028732
 21
-258.9474032296495
 72
     1
 10
-205.3336252028732
 20
-258.9474032296495
 11
-205.3336252028732
 21
-256.678859011962
 72
     1
 10
-205.3336252028732
 20
-256.678859011962
 11
-204.5225261654007
 21
-256.678859011962
 72
     1
 10
-204.5225261654007
 20
-256.678859011962
 11
-204.5225261654007
 21
-255.8935937058384
 72
     1
 10
-204.5225261654007
 20
-255.8935937058384
 11
-207.3375169425144
 21
-255.8935937058384
 97
        8
330
39C
330
39B
330
39A
330
35B
330
35C
330
39E
330
35D
330
39D
 75
     1
 76
     0
 52
45.0
 41
0.1
 77
     0
 78
     1
 53
45.0
 43
0.0
 44
0.0
 45
-0.0707106781186548
 46
0.0707106781186548
 79
     0
 98
        1
 10
0.0
 20
0.0
  0
HATCH
  5
471
330
71
100
AcDbEntity
  8
1
  6
Continuous
 62
     2
100
AcDbHatch
 10
0.0
 20
0.0
 30
0.0
210
0.0
220
0.0
230
1.0
  2
_USER
 70
     0
 71
     1
 91
        1
 92
        1
 93
       10
 72
     1
 10
-204.6655103587752
 20
-252.534403229664
 11
-205.8583030609418
 21
-252.534403229664
 72
     1
 10
-205.8583030609418
 20
-252.534403229664
 11
-205.8583030609418
 21
-255.5882127534752
 72
     1
 10
-205.8583030609418
 20
-255.5882127534752
 11
-204.6655103587752
 21
-255.5882127534752
 72
     1
 10
-204.6655103587752
 20
-255.5882127534752
 11
-204.6655103587752
 21
-254.2794372432705
 72
     1
 10
-204.6655103587752
 20
-254.2794372432705
 11
-203.4250059485212
 21
-255.5882127534752
 72
     1
 10
-203.4250059485212
 20
-255.5882127534752
 11
-202.2322132463546
 21
-255.5882127534752
 72
     1
 10
-202.2322132463546
 20
-255.5882127534752
 11
-202.2322132463546
 21
-252.534403229664
 72
     1
 10
-202.2322132463546
 20
-252.534403229664
 11
-203.4250059485212
 21
-252.534403229664
 72
     1
 10
-203.4250059485212
 20
-252.534403229664
 11
-203.4250059485212
 21
-253.8431787398692
 72
     1
 10
-203.4250059485212
 20
-253.8431787398692
 11
-204.6655103587752
 21
-252.534403229664
 97
       10
330
396
330
360
330
361
330
362
330
363
330
399
330
35E
330
398
330
397
330
35F
 75
     1
 76
     0
 52
45.0
 41
0.1
 77
     0
 78
     1
 53
45.0
 43
0.0
 44
0.0
 45
-0.0707106781186548
 46
0.0707106781186548
 79
     0
 98
        1
 10
0.0
 20
0.0
  0
HATCH
  5
472
330
71
100
AcDbEntity
  8
1
  6
Continuous
 62
     2
100
AcDbHatch
 10
0.0
 20
0.0
 30
0.0
210
0.0
220
0.0
230
1.0
  2
_USER
 70
     0
 71
     1
 91
        1
 92
        1
 93
       10
 72
     1
 10
-204.6655103587752
 20
-252.534403229664
 11
-205.8583030609418
 21
-252.534403229664
 72
     1
 10
-205.8583030609418
 20
-252.534403229664
 11
-205.8583030609418
 21
-255.5882127534752
 72
     1
 10
-205.8583030609418
 20
-255.5882127534752
 11
-204.6655103587752
 21
-255.5882127534752
 72
     1
 10
-204.6655103587752
 20
-255.5882127534752
 11
-204.6655103587752
 21
-254.2794372432705
 72
     1
 10
-204.6655103587752
 20
-254.2794372432705
 11
-203.4250059485212
 21
-255.5882127534752
 72
     1
 10
-203.4250059485212
 20
-255.5882127534752
 11
-202.2322132463546
 21
-255.5882127534752
 72
     1
 10
-202.2322132463546
 20
-255.5882127534752
 11
-202.2322132463546
 21
-252.534403229664
 72
     1
 10
-202.2322132463546
 20
-252.534403229664
 11
-203.4250059485212
 21
-252.534403229664
 72
     1
 10
-203.4250059485212
 20
-252.534403229664
 11
-203.4250059485212
 21
-253.8431787398692
 72
     1
 10
-203.4250059485212
 20
-253.8431787398692
 11
-204.6655103587752
 21
-252.534403229664
 97
       10
330
396
330
360
330
361
330
362
330
363
330
399
330
35E
330
398
330
397
330
35F
 75
     1
 76
     0
 52
45.0
 41
0.1
 77
     0
 78
     1
 53
45.0
 43
0.0
 44
0.0
 45
-0.0707106781186548
 46
0.0707106781186548
 79
     0
 98
        1
 10
0.0
 20
0.0
  0
HATCH
  5
473
330
71
100
AcDbEntity
  8
1
  6
Continuous
 62
     2
100
AcDbHatch
 10
0.0
 20
0.0
 30
0.0
210
0.0
220
0.0
230
1.0
  2
_USER
 70
     0
 71
     1
 91
        1
 92
        1
 93
       10
 72
     1
 10
-209.9139491791939
 20
-255.8935937058384
 11
-211.1067418813614
 21
-255.8935937058384
 72
     1
 10
-211.1067418813614
 20
-255.8935937058384
 11
-211.1067418813614
 21
-258.9474032296495
 72
     1
 10
-211.1067418813614
 20
-258.9474032296495
 11
-209.9139491791939
 21
-258.9474032296495
 72
     1
 10
-209.9139491791939
 20
-258.9474032296495
 11
-209.9139491791939
 21
-257.6386277194449
 72
     1
 10
-209.9139491791939
 20
-257.6386277194449
 11
-208.673444768941
 21
-258.9474032296495
 72
     1
 10
-208.673444768941
 20
-258.9474032296495
 11
-207.4806520667746
 21
-258.9474032296495
 72
     1
 10
-207.4806520667746
 20
-258.9474032296495
 11
-207.4806520667746
 21
-255.8935937058384
 72
     1
 10
-207.4806520667746
 20
-255.8935937058384
 11
-208.673444768941
 21
-255.8935937058384
 72
     1
 10
-208.673444768941
 20
-255.8935937058384
 11
-208.673444768941
 21
-257.2023692160435
 72
     1
 10
-208.673444768941
 20
-257.2023692160435
 11
-209.9139491791939
 21
-255.8935937058384
 97
       10
330
365
330
366
330
367
330
393
330
368
330
369
330
392
330
395
330
394
330
364
 75
     1
 76
     0
 52
45.0
 41
0.1
 77
     0
 78
     1
 53
45.0
 43
0.0
 44
0.0
 45
-0.0707106781186548
 46
0.0707106781186548
 79
     0
 98
        1
 10
0.0
 20
0.0
  0
HATCH
  5
474
330
71
100
AcDbEntity
  8
1
  6
Continuous
 62
     2
100
AcDbHatch
 10
0.0
 20
0.0
 30
0.0
210
0.0
220
0.0
230
1.0
  2
_USER
 70
     0
 71
     1
 91
        1
 92
        1
 93
       10
 72
     1
 10
-209.9139491791939
 20
-255.8935937058384
 11
-211.1067418813614
 21
-255.8935937058384
 72
     1
 10
-211.1067418813614
 20
-255.8935937058384
 11
-211.1067418813614
 21
-258.9474032296495
 72
     1
 10
-211.1067418813614
 20
-258.9474032296495
 11
-209.9139491791939
 21
-258.9474032296495
 72
     1
 10
-209.9139491791939
 20
-258.9474032296495
 11
-209.9139491791939
 21
-257.6386277194449
 72
     1
 10
-209.9139491791939
 20
-257.6386277194449
 11
-208.673444768941
 21
-258.9474032296495
 72
     1
 10
-208.673444768941
 20
-258.9474032296495
 11
-207.4806520667746
 21
-258.9474032296495
 72
     1
 10
-207.4806520667746
 20
-258.9474032296495
 11
-207.4806520667746
 21
-255.8935937058384
 72
     1
 10
-207.4806520667746
 20
-255.8935937058384
 11
-208.673444768941
 21
-255.8935937058384
 72
     1
 10
-208.673444768941
 20
-255.8935937058384
 11
-208.673444768941
 21
-257.2023692160435
 72
     1
 10
-208.673444768941
 20
-257.2023692160435
 11
-209.9139491791939
 21
-255.8935937058384
 97
       10
330
365
330
366
330
367
330
393
330
368
330
369
330
392
330
395
330
394
330
364
 75
     1
 76
     0
 52
45.0
 41
0.1
 77
     0
 78
     1
 53
45.0
 43
0.0
 44
0.0
 45
-0.0707106781186548
 46
0.0707106781186548
 79
     0
 98
        1
 10
0.0
 20
0.0
  0
HATCH
  5
475
330
71
100
AcDbEntity
  8
1
  6
Continuous
 62
     2
100
AcDbHatch
 10
0.0
 20
0.0
 30
0.0
210
0.0
220
0.0
230
1.0
  2
_USER
 70
     0
 71
     1
 91
        1
 92
        1
 93
       12
 72
     1
 10
-210.9157441181293
 20
-252.534403229664
 11
-210.9157441181293
 21
-255.5882127534752
 72
     1
 10
-210.9157441181293
 20
-255.5882127534752
 11
-212.1085368202957
 21
-255.5882127534752
 72
     1
 10
-212.1085368202957
 20
-255.5882127534752
 11
-212.1085368202957
 21
-254.4539406446314
 72
     1
 10
-212.1085368202957
 20
-254.4539406446314
 11
-213.1581943982031
 21
-254.4539406446314
 72
     1
 10
-213.1581943982031
 20
-254.4539406446314
 11
-213.1581943982031
 21
-255.5882127534752
 72
     1
 10
-213.1581943982031
 20
-255.5882127534752
 11
-214.3509871003697
 21
-255.5882127534752
 72
     1
 10
-214.3509871003697
 20
-255.5882127534752
 11
-214.3509871003697
 21
-252.534403229664
 72
     1
 10
-214.3509871003697
 20
-252.534403229664
 11
-213.1581943982031
 21
-252.534403229664
 72
     1
 10
-213.1581943982031
 20
-252.534403229664
 11
-213.1581943982031
 21
-253.6032365629986
 72
     1
 10
-213.1581943982031
 20
-253.6032365629986
 11
-212.1085368202957
 21
-253.6032365629986
 72
     1
 10
-212.1085368202957
 20
-253.6032365629986
 11
-212.1085368202957
 21
-252.534403229664
 72
     1
 10
-212.1085368202957
 20
-252.534403229664
 11
-210.9157441181293
 21
-252.534403229664
 97
       12
330
38D
330
38C
330
38B
330
373
330
374
330
38A
330
375
330
389
330
388
330
387
330
371
330
372
 75
     1
 76
     0
 52
45.0
 41
0.1
 77
     0
 78
     1
 53
45.0
 43
0.0
 44
0.0
 45
-0.0707106781186548
 46
0.0707106781186548
 79
     0
 98
        1
 10
0.0
 20
0.0
  0
HATCH
  5
476
330
71
100
AcDbEntity
  8
1
  6
Continuous
 62
     2
100
AcDbHatch
 10
0.0
 20
0.0
 30
0.0
210
0.0
220
0.0
230
1.0
  2
_USER
 70
     0
 71
     1
 91
        1
 92
        1
 93
       12
 72
     1
 10
-210.9157441181293
 20
-252.534403229664
 11
-210.9157441181293
 21
-255.5882127534752
 72
     1
 10
-210.9157441181293
 20
-255.5882127534752
 11
-212.1085368202957
 21
-255.5882127534752
 72
     1
 10
-212.1085368202957
 20
-255.5882127534752
 11
-212.1085368202957
 21
-254.4539406446314
 72
     1
 10
-212.1085368202957
 20
-254.4539406446314
 11
-213.1581943982031
 21
-254.4539406446314
 72
     1
 10
-213.1581943982031
 20
-254.4539406446314
 11
-213.1581943982031
 21
-255.5882127534752
 72
     1
 10
-213.1581943982031
 20
-255.5882127534752
 11
-214.3509871003697
 21
-255.5882127534752
 72
     1
 10
-214.3509871003697
 20
-255.5882127534752
 11
-214.3509871003697
 21
-252.534403229664
 72
     1
 10
-214.3509871003697
 20
-252.534403229664
 11
-213.1581943982031
 21
-252.534403229664
 72
     1
 10
-213.1581943982031
 20
-252.534403229664
 11
-213.1581943982031
 21
-253.6032365629986
 72
     1
 10
-213.1581943982031
 20
-253.6032365629986
 11
-212.1085368202957
 21
-253.6032365629986
 72
     1
 10
-212.1085368202957
 20
-253.6032365629986
 11
-212.1085368202957
 21
-252.534403229664
 72
     1
 10
-212.1085368202957
 20
-252.534403229664
 11
-210.9157441181293
 21
-252.534403229664
 97
       12
330
38D
330
38C
330
38B
330
373
330
374
330
38A
330
375
330
389
330
388
330
387
330
371
330
372
 75
     1
 76
     0
 52
45.0
 41
0.1
 77
     0
 78
     1
 53
45.0
 43
0.0
 44
0.0
 45
-0.0707106781186548
 46
0.0707106781186548
 79
     0
 98
        1
 10
0.0
 20
0.0
  0
ENDBLK
  5
73
330
71
100
AcDbEntity
  8
0
100
AcDbBlockEnd
  0
BLOCK
  5
75
330
74
100
AcDbEntity
  8
0
100
AcDbBlockBegin
  2
_punkt
 70
     0
 10
-99.03844030434034
 20
-266.2409032296658
 30
0.0
  3
_punkt
  1

  0
LINE
  5
477
330
74
100
AcDbEntity
  8
1
  6
Continuous
 62
     2
100
AcDbLine
 10
-99.03844030434034
 20
-266.2409032296658
 30
0.0
 11
-99.03844030434034
 21
-271.2409032296659
 31
0.0
  0
LINE
  5
478
330
74
100
AcDbEntity
  8
1
  6
Continuous
 62
     2
100
AcDbLine
 10
-99.03844030434034
 20
-266.2409032296658
 30
0.0
 11
-94.03844030434135
 21
-266.2409032296658
 31
0.0
  0
ENDBLK
  5
76
330
74
100
AcDbEntity
  8
0
100
AcDbBlockEnd
  0
BLOCK
  5
7A
330
77
100
AcDbEntity
  8
0
100
AcDbBlockBegin
  2
A4I_CS
 70
     0
 10
-99.03844030434034
 20
-271.2409032296659
 30
0.0
  3
A4I_CS
  1

  0
INSERT
  5
78
330
77
100
AcDbEntity
  8
1
100
AcDbBlockReference
  2
_rahmen
 10
-99.03844030434034
 20
-271.2409032296659
 30
0.0
  0
INSERT
  5
79
330
77
100
AcDbEntity
  8
1
100
AcDbBlockReference
  2
_punkt
 10
-99.03844030434034
 20
-266.2409032296658
 30
0.0
  0
ENDBLK
  5
7B
330
77
100
AcDbEntity
  8
0
100
AcDbBlockEnd
  0
BLOCK
  5
84
330
7C
100
AcDbEntity
  8
0
100
AcDbBlockBegin
  2
1
 70
     0
 10
0.0
 20
0.0
 30
0.0
  3
1
  1

  0
INSERT
  5
7D
330
7C
100
AcDbEntity
  8
0
100
AcDbBlockReference
  2
Allg1
 10
-155.0005959999201
 20
-196.99200099997
 30
0.0
  0
INSERT
  5
7E
330
7C
100
AcDbEntity
  8
0
100
AcDbBlockReference
  2
Drfsicht1
 10
-263.0750002266136
 20
-189.1625006200942
 30
0.0
  0
INSERT
  5
7F
330
7C
100
AcDbEntity
  8
0
100
AcDbBlockReference
  2
Rckans1
 10
-154.9249997733818
 20
-124.99999999994
 30
0.0
  0
INSERT
  5
80
330
7C
100
AcDbEntity
  8
0
100
AcDbBlockReference
  2
SA_Links1
 10
-206.000000000005
 20
-124.99999999994
 30
0.0
  0
INSERT
  5
81
330
7C
100
AcDbEntity
  8
0
100
AcDbBlockReference
  2
SA_Rechts1
 10
-340.1500004534071
 20
-124.99999999994
 30
0.0
  0
INSERT
  5
82
330
7C
100
AcDbEntity
  8
0
100
AcDbBlockReference
  2
Vordans1
 10
-263.0750002266136
 20
-124.99999999994
 30
0.0
  0
INSERT
  5
83
330
7C
100
AcDbEntity
  8
0
100
AcDbBlockReference
  2
A4I_CS
 10
-99.03844030434034
 20
-271.2409032296659
 30
0.0
  0
ENDBLK
  5
85
330
7C
100
AcDbEntity
  8
0
100
AcDbBlockEnd
  0
BLOCK
  5
1BF
330
1B6
100
AcDbEntity
  8
0
100
AcDbBlockBegin
  2
*D17
 70
     1
 10
0.0
 20
0.0
 30
0.0
  3
*D17
  1

  0
LINE
  5
1B7
330
1B6
100
AcDbEntity
  8
1
  6
Continuous
 62
     2
100
AcDbLine
 10
-281.5750004292872
 20
-173.027114227747
 30
0.0
 11
-281.5750004292872
 21
-186.5875005724553
 31
0.0
  0
LINE
  5
1B8
330
1B6
100
AcDbEntity
  8
1
  6
Continuous
 62
     2
100
AcDbLine
 10
-281.5750004292872
 20
-186.5875005724553
 30
0.0
 11
-281.5750004292872
 21
-191.737500572352
 31
0.0
  0
LINE
  5
1B9
330
1B6
100
AcDbEntity
  8
1
  6
Continuous
 62
     2
100
AcDbLine
 10
-281.5750004292872
 20
-191.737500572352
 30
0.0
 11
-281.5750004292872
 21
-198.737500572352
 31
0.0
  0
LINE
  5
1BA
330
1B6
100
AcDbEntity
  8
1
  6
Continuous
 62
     2
100
AcDbLine
 10
-271.5750004292872
 20
-186.5875005724553
 30
0.0
 11
-283.0750004292872
 21
-186.5875005724553
 31
0.0
  0
LINE
  5
1BB
330
1B6
100
AcDbEntity
  8
1
  6
Continuous
 62
     2
100
AcDbLine
 10
-270.5750004292123
 20
-191.737500572352
 30
0.0
 11
-283.0750004292872
 21
-191.737500572352
 31
0.0
  0
SOLID
  5
1BC
330
1B6
100
AcDbEntity
  8
1
 62
     2
100
AcDbTrace
 10
-282.035784170843
 20
-183.0875005724553
 30
0.0
 11
-281.1142166877313
 21
-183.0875005724553
 31
0.0
 12
-281.5750004292872
 22
-186.5875005724553
 32
0.0
 13
-281.5750004292872
 23
-186.5875005724553
 33
0.0
  0
SOLID
  5
1BD
330
1B6
100
AcDbEntity
  8
1
 62
     2
100
AcDbTrace
 10
-281.1142166877313
 20
-195.237500572352
 30
0.0
 11
-282.035784170843
 21
-195.237500572352
 31
0.0
 12
-281.5750004292872
 22
-191.737500572352
 32
0.0
 13
-281.5750004292872
 23
-191.737500572352
 33
0.0
  0
MTEXT
  5
1BE
330
1B6
100
AcDbEntity
  8
1
 62
     3
100
AcDbMText
 10
-283.4250004292872
 20
-181.602114227747
 30
0.0
 40
3.5
 41
0.0
 71
     7
 72
     1
  1
5,15
  7
CONVERTER_11
 11
0.0
 21
1.0
 31
0.0
 73
     1
 44
0.60024009603842
  0
ENDBLK
  5
1C0
330
1B6
100
AcDbEntity
  8
0
100
AcDbBlockEnd
  0
BLOCK
  5
326
330
31F
100
AcDbEntity
  8
0
100
AcDbBlockBegin
  2
*D18
 70
     1
 10
0.0
 20
0.0
 30
0.0
  3
*D18
  1

  0
LINE
  5
320
330
31F
100
AcDbEntity
  8
1
  6
Continuous
 62
     2
100
AcDbLine
 10
-281.5750004292825
 20
-104.4125001905931
 30
0.0
 11
-281.5750004292825
 21
-129.9875001907007
 31
0.0
  0
LINE
  5
321
330
31F
100
AcDbEntity
  8
1
  6
Continuous
 62
     2
100
AcDbLine
 10
-257.4750004102984
 20
-104.4125001905931
 30
0.0
 11
-283.0750004292825
 21
-104.4125001905931
 31
0.0
  0
LINE
  5
322
330
31F
100
AcDbEntity
  8
1
  6
Continuous
 62
     2
100
AcDbLine
 10
-271.5750004292825
 20
-129.9875001907007
 30
0.0
 11
-283.0750004292825
 21
-129.9875001907007
 31
0.0
  0
SOLID
  5
323
330
31F
100
AcDbEntity
  8
1
 62
     2
100
AcDbTrace
 10
-281.1142166877266
 20
-107.9125001905931
 30
0.0
 11
-282.0357841708384
 21
-107.9125001905931
 31
0.0
 12
-281.5750004292825
 22
-104.4125001905931
 32
0.0
 13
-281.5750004292825
 23
-104.4125001905931
 33
0.0
  0
SOLID
  5
324
330
31F
100
AcDbEntity
  8
1
 62
     2
100
AcDbTrace
 10
-282.0357841708384
 20
-126.4875001907007
 30
0.0
 11
-281.1142166877266
 21
-126.4875001907007
 31
0.0
 12
-281.5750004292825
 22
-129.9875001907007
 32
0.0
 13
-281.5750004292825
 23
-129.9875001907007
 33
0.0
  0
MTEXT
  5
325
330
31F
100
AcDbEntity
  8
1
 62
     3
100
AcDbMText
 10
-283.4250004292825
 20
-124.27422342302
 30
0.0
 40
3.5
 41
0.0
 71
     7
 72
     1
  1
25,58
  7
CONVERTER_11
 11
0.0
 21
1.0
 31
0.0
 73
     1
 44
0.60024009603842
  0
ENDBLK
  5
327
330
31F
100
AcDbEntity
  8
0
100
AcDbBlockEnd
  0
BLOCK
  5
331
330
32A
100
AcDbEntity
  8
0
100
AcDbBlockBegin
  2
*D19
 70
     1
 10
0.0
 20
0.0
 30
0.0
  3
*D19
  1

  0
LINE
  5
32B
330
32A
100
AcDbEntity
  8
1
  6
Continuous
 62
     2
100
AcDbLine
 10
-271.5750004292825
 20
-155.4917086408501
 30
0.0
 11
-254.5750004103328
 21
-155.4917086408501
 31
0.0
  0
LINE
  5
32C
330
32A
100
AcDbEntity
  8
1
  6
Continuous
 62
     2
100
AcDbLine
 10
-271.5750004292825
 20
-129.9875001907008
 30
0.0
 11
-271.5750004292825
 21
-156.9917086408501
 31
0.0
  0
LINE
  5
32D
330
32A
100
AcDbEntity
  8
1
  6
Continuous
 62
     2
100
AcDbLine
 10
-254.5750004103328
 20
-124.3041667944507
 30
0.0
 11
-254.5750004103328
 21
-156.9917086408501
 31
0.0
  0
SOLID
  5
32E
330
32A
100
AcDbEntity
  8
1
 62
     2
100
AcDbTrace
 10
-268.0750004292825
 20
-155.0309248992942
 30
0.0
 11
-268.0750004292825
 21
-155.952492382406
 31
0.0
 12
-271.5750004292825
 22
-155.4917086408501
 32
0.0
 13
-271.5750004292825
 23
-155.4917086408501
 33
0.0
  0
SOLID
  5
32F
330
32A
100
AcDbEntity
  8
1
 62
     2
100
AcDbTrace
 10
-258.0750004103328
 20
-155.952492382406
 30
0.0
 11
-258.0750004103328
 21
-155.0309248992942
 31
0.0
 12
-254.5750004103328
 22
-155.4917086408501
 32
0.0
 13
-254.5750004103328
 23
-155.4917086408501
 33
0.0
  0
MTEXT
  5
330
330
32A
100
AcDbEntity
  8
1
 62
     3
100
AcDbMText
 10
-265.1750002266135
 20
-153.9917086408501
 30
0.0
 40
3.5
 41
0.0
 71
     7
 72
     1
  1
17
  7
CONVERTER_11
 11
0.9999999999970619
 21
2.424068405545306E-6
 31
0.0
 73
     1
 44
0.60024009603842
  0
ENDBLK
  5
332
330
32A
100
AcDbEntity
  8
0
100
AcDbBlockEnd
  0
BLOCK
  5
33C
330
335
100
AcDbEntity
  8
0
100
AcDbBlockBegin
  2
*D20
 70
     1
 10
0.0
 20
0.0
 30
0.0
  3
*D20
  1

  0
LINE
  5
336
330
335
100
AcDbEntity
  8
1
  6
Continuous
 62
     2
100
AcDbLine
 10
-289.5750004292825
 20
-145.5875001905969
 30
0.0
 11
-289.5750004292825
 21
-104.4125001905931
 31
0.0
  0
LINE
  5
337
330
335
100
AcDbEntity
  8
1
  6
Continuous
 62
     2
100
AcDbLine
 10
-266.3750004292451
 20
-145.5875001905969
 30
0.0
 11
-291.0750004292825
 21
-145.5875001905969
 31
0.0
  0
LINE
  5
338
330
335
100
AcDbEntity
  8
1
  6
Continuous
 62
     2
100
AcDbLine
 10
-257.4750004102984
 20
-104.4125001905931
 30
0.0
 11
-291.0750004292825
 21
-104.4125001905931
 31
0.0
  0
SOLID
  5
339
330
335
100
AcDbEntity
  8
1
 62
     2
100
AcDbTrace
 10
-290.0357841708384
 20
-142.0875001905969
 30
0.0
 11
-289.1142166877266
 21
-142.0875001905969
 31
0.0
 12
-289.5750004292825
 22
-145.5875001905969
 32
0.0
 13
-289.5750004292825
 23
-145.5875001905969
 33
0.0
  0
SOLID
  5
33A
330
335
100
AcDbEntity
  8
1
 62
     2
100
AcDbTrace
 10
-289.1142166877266
 20
-107.9125001905931
 30
0.0
 11
-290.0357841708384
 21
-107.9125001905931
 31
0.0
 12
-289.5750004292825
 22
-104.4125001905931
 32
0.0
 13
-289.5750004292825
 23
-104.4125001905931
 33
0.0
  0
MTEXT
  5
33B
330
335
100
AcDbEntity
  8
1
 62
     3
100
AcDbMText
 10
-291.4250004292825
 20
-129.6416667944841
 30
0.0
 40
3.5
 41
0.0
 71
     7
 72
     1
  1
41,18
  7
CONVERTER_11
 11
0.0
 21
1.0
 31
0.0
 73
     1
 44
0.60024009603842
  0
ENDBLK
  5
33D
330
335
100
AcDbEntity
  8
0
100
AcDbBlockEnd
  0
ENDSEC
  0
SECTION
  2
ENTITIES
  0
INSERT
  5
86
330
1F
100
AcDbEntity
  8
1
100
AcDbBlockReference
  2
1
 10
0.0
 20
0.0
 30
0.0
  0
ENDSEC
  0
SECTION
  2
OBJECTS
  0
DICTIONARY
  5
C
330
0
100
AcDbDictionary
281
     1
  3
ACAD_GROUP
350
D
  3
ACAD_LAYOUT
350
1A
  3
ACAD_MATERIAL
350
3B
  3
ACAD_MLEADERSTYLE
350
4A0
  3
ACAD_MLINESTYLE
350
17
  3
ACAD_PLOTSETTINGS
350
19
  3
ACAD_PLOTSTYLENAME
350
E
  3
ACAD_TABLESTYLE
350
49F
  3
ACAD_VISUALSTYLE
350
2A
  0
DICTIONARY
  5
D
102
{ACAD_REACTORS
330
C
102
}
330
C
100
AcDbDictionary
281
     1
  0
DICTIONARY
  5
1A
102
{ACAD_REACTORS
330
C
102
}
330
C
100
AcDbDictionary
281
     1
  3
Layout1
350
1E
  3
Layout2
350
26
  3
Model
350
22
  0
DICTIONARY
  5
3B
102
{ACAD_REACTORS
330
C
102
}
330
C
100
AcDbDictionary
281
     1
  3
ByBlock
350
3D
  3
ByLayer
350
3C
  3
Global
350
3E
  0
DICTIONARY
  5
4A0
102
{ACAD_REACTORS
330
C
102
}
330
C
100
AcDbDictionary
281
     1
  0
DICTIONARY
  5
17
102
{ACAD_REACTORS
330
C
102
}
330
C
100
AcDbDictionary
281
     1
  3
Standard
350
18
  0
DICTIONARY
  5
19
102
{ACAD_REACTORS
330
C
102
}
330
C
100
AcDbDictionary
281
     1
  0
ACDBDICTIONARYWDFLT
  5
E
102
{ACAD_REACTORS
330
C
102
}
330
C
100
AcDbDictionary
281
     1
  3
Normal
350
F
100
AcDbDictionaryWithDefault
340
F
  0
DICTIONARY
  5
49F
102
{ACAD_REACTORS
330
C
102
}
330
C
100
AcDbDictionary
281
     1
  0
DICTIONARY
  5
2A
102
{ACAD_REACTORS
330
C
102
}
330
C
100
AcDbDictionary
281
     1
  3
2dWireframe
350
2F
  3
3D Hidden
350
31
  3
3dWireframe
350
30
  3
Basic
350
32
  3
Brighten
350
36
  3
ColorChange
350
3A
  3
Conceptual
350
34
  3
Dim
350
35
  3
Facepattern
350
39
  3
Flat
350
2B
  3
FlatWithEdges
350
2C
  3
Gouraud
350
2D
  3
GouraudWithEdges
350
2E
  3
Linepattern
350
38
  3
Realistic
350
33
  3
Thicken
350
37
  0
LAYOUT
  5
1E
102
{ACAD_REACTORS
330
1A
102
}
330
1A
100
AcDbPlotSettings
  1

  2
none_device
  4

  6

 40
0.0
 41
0.0
 42
0.0
 43
0.0
 44
0.0
 45
0.0
 46
0.0
 47
0.0
 48
0.0
 49
0.0
140
0.0
141
0.0
142
1.0
143
1.0
 70
   688
 72
     0
 73
     0
 74
     5
  7

 75
    16
 76
     0
 77
     2
 78
   300
147
1.0
148
0.0
149
0.0
100
AcDbLayout
  1
Layout1
 70
     1
 71
     1
 10
0.0
 20
0.0
 11
12.0
 21
9.0
 12
0.0
 22
0.0
 32
0.0
 14
1.00000000000000E+20
 24
1.00000000000000E+20
 34
1.00000000000000E+20
 15
-1.00000000000000E+20
 25
-1.00000000000000E+20
 35
-1.00000000000000E+20
146
0.0
 13
0.0
 23
0.0
 33
0.0
 16
1.0
 26
0.0
 36
0.0
 17
0.0
 27
1.0
 37
0.0
 76
     0
330
1B
  0
LAYOUT
  5
26
102
{ACAD_REACTORS
330
1A
102
}
330
1A
100
AcDbPlotSettings
  1

  2
none_device
  4

  6

 40
0.0
 41
0.0
 42
0.0
 43
0.0
 44
0.0
 45
0.0
 46
0.0
 47
0.0
 48
0.0
 49
0.0
140
0.0
141
0.0
142
1.0
143
1.0
 70
   688
 72
     0
 73
     0
 74
     5
  7

 75
    16
 76
     0
 77
     2
 78
   300
147
1.0
148
0.0
149
0.0
100
AcDbLayout
  1
Layout2
 70
     1
 71
     2
 10
0.0
 20
0.0
 11
0.0
 21
0.0
 12
0.0
 22
0.0
 32
0.0
 14
0.0
 24
0.0
 34
0.0
 15
0.0
 25
0.0
 35
0.0
146
0.0
 13
0.0
 23
0.0
 33
0.0
 16
1.0
 26
0.0
 36
0.0
 17
0.0
 27
1.0
 37
0.0
 76
     0
330
23
  0
LAYOUT
  5
22
102
{ACAD_REACTORS
330
1A
102
}
330
1A
100
AcDbPlotSettings
  1

  2
none_device
  4

  6

 40
0.0
 41
0.0
 42
0.0
 43
0.0
 44
0.0
 45
0.0
 46
0.0
 47
0.0
 48
0.0
 49
0.0
140
0.0
141
0.0
142
1.0
143
1.0
 70
  1712
 72
     0
 73
     0
 74
     0
  7

 75
     0
 76
     0
 77
     2
 78
   300
147
1.0
148
0.0
149
0.0
100
AcDbLayout
  1
Model
 70
     1
 71
     0
 10
0.0
 20
0.0
 11
12.0
 21
9.0
 12
0.0
 22
0.0
 32
0.0
 14
-391.0384403043394
 24
-271.2409032296659
 34
0.0
 15
-94.03844030434135
 25
-61.24090322966578
 35
0.0
146
0.0
 13
0.0
 23
0.0
 33
0.0
 16
1.0
 26
0.0
 36
0.0
 17
0.0
 27
1.0
 37
0.0
 76
     0
330
1F
331
29
  0
MATERIAL
  5
3D
102
{ACAD_REACTORS
330
3B
102
}
102
{ACAD_XDICTIONARY
360
49B
102
}
330
3B
100
AcDbMaterial
  1
ByBlock
  0
MATERIAL
  5
3C
102
{ACAD_REACTORS
330
3B
102
}
102
{ACAD_XDICTIONARY
360
499
102
}
330
3B
100
AcDbMaterial
  1
ByLayer
  0
MATERIAL
  5
3E
102
{ACAD_REACTORS
330
3B
102
}
102
{ACAD_XDICTIONARY
360
49D
102
}
330
3B
100
AcDbMaterial
  1
Global
  0
MLINESTYLE
  5
18
102
{ACAD_REACTORS
330
17
102
}
330
17
100
AcDbMlineStyle
  2
Standard
 70
     0
  3

 62
   256
 51
90.0
 52
90.0
 71
     2
 49
0.5
 62
   256
  6
BYLAYER
 49
-0.5
 62
   256
  6
BYLAYER
  0
ACDBPLACEHOLDER
  5
F
102
{ACAD_REACTORS
330
E
102
}
330
E
  0
VISUALSTYLE
  5
2F
102
{ACAD_REACTORS
330
2A
102
}
102
{ACAD_XDICTIONARY
360
481
102
}
330
2A
100
AcDbVisualStyle
  2
2dWireframe
 70
     4
 71
     0
 72
     2
 73
     0
 90
        0
 40
-0.6
 41
-30.0
 62
     5
 63
     7
421
 16777215
 74
     1
 91
        4
 64
     7
 65
   257
 75
     1
175
     1
 42
1.0
 92
        0
 66
   257
 43
1.0
 76
     1
 77
     6
 78
     2
 67
     7
 79
     5
170
     0
171
     0
290
     0
174
     0
 93
        1
 44
0.0
173
     0
291
     0
 45
0.0
1001
ACAD
1000
AcDbSavedByObjectVersion
1070
     0
  0
VISUALSTYLE
  5
31
102
{ACAD_REACTORS
330
2A
102
}
102
{ACAD_XDICTIONARY
360
485
102
}
330
2A
100
AcDbVisualStyle
  2
3D Hidden
 70
     6
 71
     1
 72
     2
 73
     2
 90
        0
 40
-0.6
 41
-30.0
 62
     5
 63
     7
421
 16777215
 74
     2
 91
        2
 64
     7
 65
   257
 75
     2
175
     1
 42
40.0
 92
        0
 66
   257
 43
1.0
 76
     1
 77
     6
 78
     2
 67
     7
 79
     3
170
     0
171
     0
290
     0
174
     0
 93
        1
 44
0.0
173
     0
291
     0
 45
0.0
1001
ACAD
1000
AcDbSavedByObjectVersion
1070
     0
  0
VISUALSTYLE
  5
30
102
{ACAD_REACTORS
330
2A
102
}
102
{ACAD_XDICTIONARY
360
483
102
}
330
2A
100
AcDbVisualStyle
  2
3dWireframe
 70
     5
 71
     0
 72
     2
 73
     0
 90
        0
 40
-0.6
 41
-30.0
 62
     5
 63
     7
421
 16777215
 74
     1
 91
        4
 64
     7
 65
   257
 75
     1
175
     1
 42
1.0
 92
        0
 66
   257
 43
1.0
 76
     1
 77
     6
 78
     2
 67
     7
 79
     5
170
     0
171
     0
290
     0
174
     0
 93
        1
 44
0.0
173
     0
291
     0
 45
0.0
1001
ACAD
1000
AcDbSavedByObjectVersion
1070
     0
  0
VISUALSTYLE
  5
32
102
{ACAD_REACTORS
330
2A
102
}
102
{ACAD_XDICTIONARY
360
487
102
}
330
2A
100
AcDbVisualStyle
  2
Basic
 70
     7
 71
     1
 72
     0
 73
     1
 90
        0
 40
-0.6
 41
-30.0
 62
     5
 63
     7
421
 16777215
 74
     0
 91
        4
 64
     7
 65
   257
 75
     1
175
     1
 42
1.0
 92
        8
 66
     7
 43
1.0
 76
     1
 77
     6
 78
     2
 67
     7
 79
     5
170
     0
171
     0
290
     0
174
     0
 93
        1
 44
0.0
173
     0
291
     1
 45
0.0
1001
ACAD
1000
AcDbSavedByObjectVersion
1070
     0
  0
VISUALSTYLE
  5
36
102
{ACAD_REACTORS
330
2A
102
}
102
{ACAD_XDICTIONARY
360
48F
102
}
330
2A
100
AcDbVisualStyle
  2
Brighten
 70
    12
 71
     2
 72
     2
 73
     0
 90
        0
 40
-0.6
 41
-30.0
 62
     5
 63
     7
421
 16777215
 74
     1
 91
        4
 64
     7
 65
   257
 75
     1
175
     1
 42
1.0
 92
        8
 66
     7
 43
1.0
 76
     1
 77
     6
 78
     2
 67
     7
 79
     5
170
     0
171
     0
290
     0
174
     0
 93
        1
 44
50.0
173
     0
291
     1
 45
0.0
1001
ACAD
1000
AcDbSavedByObjectVersion
1070
     0
  0
VISUALSTYLE
  5
3A
102
{ACAD_REACTORS
330
2A
102
}
102
{ACAD_XDICTIONARY
360
497
102
}
330
2A
100
AcDbVisualStyle
  2
ColorChange
 70
    16
 71
     2
 72
     2
 73
     3
 90
        0
 40
-0.6
 41
-30.0
 62
     5
 63
     8
421
  8421504
 74
     1
 91
        4
 64
     7
 65
   257
 75
     1
175
     1
 42
1.0
 92
        8
 66
     8
424
  8421504
 43
1.0
 76
     1
 77
     6
 78
     2
 67
     7
 79
     5
170
     0
171
     0
290
     0
174
     0
 93
        1
 44
0.0
173
     0
291
     1
 45
0.0
1001
ACAD
1000
AcDbSavedByObjectVersion
1070
     0
  0
VISUALSTYLE
  5
34
102
{ACAD_REACTORS
330
2A
102
}
102
{ACAD_XDICTIONARY
360
48B
102
}
330
2A
100
AcDbVisualStyle
  2
Conceptual
 70
     9
 71
     3
 72
     2
 73
     0
 90
        0
 40
-0.6
 41
-30.0
 62
     5
 63
     7
421
 16777215
 74
     2
 91
        2
 64
     7
 65
   257
 75
     1
175
     1
 42
40.0
 92
        8
 66
     7
 43
1.0
 76
     1
 77
     6
 78
     2
 67
     7
 79
     3
170
     0
171
     0
290
     0
174
     0
 93
        1
 44
0.0
173
     0
291
     0
 45
0.0
1001
ACAD
1000
AcDbSavedByObjectVersion
1070
     0
  0
VISUALSTYLE
  5
35
102
{ACAD_REACTORS
330
2A
102
}
102
{ACAD_XDICTIONARY
360
48D
102
}
330
2A
100
AcDbVisualStyle
  2
Dim
 70
    11
 71
     2
 72
     2
 73
     0
 90
        0
 40
-0.6
 41
-30.0
 62
     5
 63
     7
421
 16777215
 74
     1
 91
        4
 64
     7
 65
   257
 75
     1
175
     1
 42
1.0
 92
        8
 66
     7
 43
1.0
 76
     1
 77
     6
 78
     2
 67
     7
 79
     5
170
     0
171
     0
290
     0
174
     0
 93
        1
 44
-50.0
173
     0
291
     1
 45
0.0
1001
ACAD
1000
AcDbSavedByObjectVersion
1070
     0
  0
VISUALSTYLE
  5
39
102
{ACAD_REACTORS
330
2A
102
}
102
{ACAD_XDICTIONARY
360
495
102
}
330
2A
100
AcDbVisualStyle
  2
Facepattern
 70
    15
 71
     2
 72
     2
 73
     0
 90
        0
 40
-0.6
 41
-30.0
 62
     5
 63
     7
421
 16777215
 74
     1
 91
        4
 64
     7
 65
   257
 75
     1
175
     1
 42
1.0
 92
        8
 66
     7
 43
1.0
 76
     1
 77
     6
 78
     2
 67
     7
 79
     5
170
     0
171
     0
290
     0
174
     0
 93
        1
 44
0.0
173
     0
291
     1
 45
0.0
1001
ACAD
1000
AcDbSavedByObjectVersion
1070
     0
  0
VISUALSTYLE
  5
2B
102
{ACAD_REACTORS
330
2A
102
}
102
{ACAD_XDICTIONARY
360
479
102
}
330
2A
100
AcDbVisualStyle
  2
Flat
 70
     0
 71
     2
 72
     1
 73
     1
 90
        2
 40
-0.6
 41
30.0
 62
     5
 63
     7
421
 16777215
 74
     0
 91
        4
 64
     7
 65
   257
 75
     1
175
     1
 42
1.0
 92
        8
 66
     7
 43
1.0
 76
     1
 77
     6
 78
     2
 67
     7
 79
     5
170
     0
171
     0
290
     0
174
     0
 93
       13
 44
0.0
173
     0
291
     1
 45
0.0
1001
ACAD
1000
AcDbSavedByObjectVersion
1070
     0
  0
VISUALSTYLE
  5
2C
102
{ACAD_REACTORS
330
2A
102
}
102
{ACAD_XDICTIONARY
360
47B
102
}
330
2A
100
AcDbVisualStyle
  2
FlatWithEdges
 70
     1
 71
     2
 72
     1
 73
     1
 90
        2
 40
-0.6
 41
30.0
 62
     5
 63
     7
421
 16777215
 74
     1
 91
        4
 64
     7
 65
   257
 75
     1
175
     1
 42
1.0
 92
        0
 66
   257
 43
1.0
 76
     1
 77
     6
 78
     2
 67
     7
 79
     5
170
     0
171
     0
290
     0
174
     0
 93
       13
 44
0.0
173
     0
291
     1
 45
0.0
1001
ACAD
1000
AcDbSavedByObjectVersion
1070
     0
  0
VISUALSTYLE
  5
2D
102
{ACAD_REACTORS
330
2A
102
}
102
{ACAD_XDICTIONARY
360
47D
102
}
330
2A
100
AcDbVisualStyle
  2
Gouraud
 70
     2
 71
     2
 72
     2
 73
     1
 90
        2
 40
-0.6
 41
30.0
 62
     5
 63
     7
421
 16777215
 74
     0
 91
        4
 64
     7
 65
   257
 75
     1
175
     1
 42
1.0
 92
        0
 66
     7
 43
1.0
 76
     1
 77
     6
 78
     2
 67
     7
 79
     5
170
     0
171
     0
290
     0
174
     0
 93
       13
 44
0.0
173
     0
291
     1
 45
0.0
1001
ACAD
1000
AcDbSavedByObjectVersion
1070
     0
  0
VISUALSTYLE
  5
2E
102
{ACAD_REACTORS
330
2A
102
}
102
{ACAD_XDICTIONARY
360
47F
102
}
330
2A
100
AcDbVisualStyle
  2
GouraudWithEdges
 70
     3
 71
     2
 72
     2
 73
     1
 90
        2
 40
-0.6
 41
30.0
 62
     5
 63
     7
421
 16777215
 74
     1
 91
        4
 64
     7
 65
   257
 75
     1
175
     1
 42
1.0
 92
        0
 66
   257
 43
1.0
 76
     1
 77
     6
 78
     2
 67
     7
 79
     5
170
     0
171
     0
290
     0
174
     0
 93
       13
 44
0.0
173
     0
291
     1
 45
0.0
1001
ACAD
1000
AcDbSavedByObjectVersion
1070
     0
  0
VISUALSTYLE
  5
38
102
{ACAD_REACTORS
330
2A
102
}
102
{ACAD_XDICTIONARY
360
493
102
}
330
2A
100
AcDbVisualStyle
  2
Linepattern
 70
    14
 71
     2
 72
     2
 73
     0
 90
        0
 40
-0.6
 41
-30.0
 62
     5
 63
     7
421
 16777215
 74
     1
 91
        4
 64
     7
 65
   257
 75
     7
175
     7
 42
1.0
 92
        8
 66
     7
 43
1.0
 76
     1
 77
     6
 78
     2
 67
     7
 79
     5
170
     0
171
     0
290
     0
174
     0
 93
        1
 44
0.0
173
     0
291
     1
 45
0.0
1001
ACAD
1000
AcDbSavedByObjectVersion
1070
     0
  0
VISUALSTYLE
  5
33
102
{ACAD_REACTORS
330
2A
102
}
102
{ACAD_XDICTIONARY
360
489
102
}
330
2A
100
AcDbVisualStyle
  2
Realistic
 70
     8
 71
     2
 72
     2
 73
     0
 90
        0
 40
-0.6
 41
-30.0
 62
     5
 63
     7
421
 16777215
 74
     1
 91
        0
 64
     7
 65
   257
 75
     1
175
     1
 42
1.0
 92
        8
 66
     8
424
  7895160
 43
1.0
 76
     1
 77
     6
 78
     2
 67
     7
 79
     5
170
     0
171
     0
290
     0
174
     0
 93
       13
 44
0.0
173
     0
291
     0
 45
0.0
1001
ACAD
1000
AcDbSavedByObjectVersion
1070
     0
  0
VISUALSTYLE
  5
37
102
{ACAD_REACTORS
330
2A
102
}
102
{ACAD_XDICTIONARY
360
491
102
}
330
2A
100
AcDbVisualStyle
  2
Thicken
 70
    13
 71
     2
 72
     2
 73
     0
 90
        0
 40
-0.6
 41
-30.0
 62
     5
 63
     7
421
 16777215
 74
     1
 91
        4
 64
     7
 65
   257
 75
     1
175
     1
 42
1.0
 92
       12
 66
     7
 43
1.0
 76
     1
 77
     6
 78
     2
 67
     7
 79
     5
170
     0
171
     0
290
     0
174
     0
 93
        1
 44
0.0
173
     0
291
     1
 45
0.0
1001
ACAD
1000
AcDbSavedByObjectVersion
1070
     0
  0
DICTIONARY
  5
49B
330
3D
100
AcDbDictionary
280
     1
281
     1
  3
ACAD_XREC_ROUNDTRIP
360
49C
  0
DICTIONARY
  5
499
330
3C
100
AcDbDictionary
280
     1
281
     1
  3
ACAD_XREC_ROUNDTRIP
360
49A
  0
DICTIONARY
  5
49D
330
3E
100
AcDbDictionary
280
     1
281
     1
  3
ACAD_XREC_ROUNDTRIP
360
49E
  0
DICTIONARY
  5
481
330
2F
100
AcDbDictionary
280
     1
281
     1
  3
ACAD_XREC_ROUNDTRIP
360
482
  0
DICTIONARY
  5
485
330
31
100
AcDbDictionary
280
     1
281
     1
  3
ACAD_XREC_ROUNDTRIP
360
486
  0
DICTIONARY
  5
483
330
30
100
AcDbDictionary
280
     1
281
     1
  3
ACAD_XREC_ROUNDTRIP
360
484
  0
DICTIONARY
  5
487
330
32
100
AcDbDictionary
280
     1
281
     1
  3
ACAD_XREC_ROUNDTRIP
360
488
  0
DICTIONARY
  5
48F
330
36
100
AcDbDictionary
280
     1
281
     1
  3
ACAD_XREC_ROUNDTRIP
360
490
  0
DICTIONARY
  5
497
330
3A
100
AcDbDictionary
280
     1
281
     1
  3
ACAD_XREC_ROUNDTRIP
360
498
  0
DICTIONARY
  5
48B
330
34
100
AcDbDictionary
280
     1
281
     1
  3
ACAD_XREC_ROUNDTRIP
360
48C
  0
DICTIONARY
  5
48D
330
35
100
AcDbDictionary
280
     1
281
     1
  3
ACAD_XREC_ROUNDTRIP
360
48E
  0
DICTIONARY
  5
495
330
39
100
AcDbDictionary
280
     1
281
     1
  3
ACAD_XREC_ROUNDTRIP
360
496
  0
DICTIONARY
  5
479
330
2B
100
AcDbDictionary
280
     1
281
     1
  3
ACAD_XREC_ROUNDTRIP
360
47A
  0
DICTIONARY
  5
47B
330
2C
100
AcDbDictionary
280
     1
281
     1
  3
ACAD_XREC_ROUNDTRIP
360
47C
  0
DICTIONARY
  5
47D
330
2D
100
AcDbDictionary
280
     1
281
     1
  3
ACAD_XREC_ROUNDTRIP
360
47E
  0
DICTIONARY
  5
47F
330
2E
100
AcDbDictionary
280
     1
281
     1
  3
ACAD_XREC_ROUNDTRIP
360
480
  0
DICTIONARY
  5
493
330
38
100
AcDbDictionary
280
     1
281
     1
  3
ACAD_XREC_ROUNDTRIP
360
494
  0
DICTIONARY
  5
489
330
33
100
AcDbDictionary
280
     1
281
     1
  3
ACAD_XREC_ROUNDTRIP
360
48A
  0
DICTIONARY
  5
491
330
37
100
AcDbDictionary
280
     1
281
     1
  3
ACAD_XREC_ROUNDTRIP
360
492
  0
XRECORD
  5
49C
102
{ACAD_REACTORS
330
49B
102
}
330
49B
100
AcDbXrecord
280
     1
102
MATERIAL
148
0.0
149
0.0
149
0.0
 93
        0
 94
      127
282
     0
 72
     1
 77
     1
171
     1
175
     1
179
     1
273
     0
  0
XRECORD
  5
49A
102
{ACAD_REACTORS
330
499
102
}
330
499
100
AcDbXrecord
280
     1
102
MATERIAL
148
0.0
149
0.0
149
0.0
 93
        0
 94
      127
282
     0
 72
     1
 77
     1
171
     1
175
     1
179
     1
273
     0
  0
XRECORD
  5
49E
102
{ACAD_REACTORS
330
49D
102
}
330
49D
100
AcDbXrecord
280
     1
102
MATERIAL
148
0.0
149
0.0
149
0.0
 93
        0
 94
      127
282
     0
 72
     1
 77
     1
171
     1
175
     1
179
     1
273
     0
  0
XRECORD
  5
482
102
{ACAD_REACTORS
330
481
102
}
330
481
100
AcDbXrecord
280
     1
102
RTVSPropertyOp0
 70
     1
102
RTVSPropertyOp1
 70
     1
102
RTVSPropertyOp2
 70
     1
102
RTVSPropertyOp3
 70
     1
102
RTVSPropertyOp4
 70
     1
102
RTVSPropertyOp5
 70
     1
102
RTVSPropertyOp6
 70
     1
102
RTVSPropertyOp7
 70
     1
102
RTVSPropertyOp8
 70
     1
102
RTVSPropertyOp9
 70
     1
102
RTVSPropertyOp10
 70
     1
102
RTVSPropertyOp11
 70
     1
102
RTVSPropertyOp12
 70
     1
102
RTVSPropertyOp13
 70
     1
102
RTVSPropertyOp14
 70
     1
102
RTVSPropertyOp15
 70
     1
102
RTVSPropertyOp16
 70
     1
102
RTVSPropertyOp17
 70
     1
102
RTVSPropertyOp18
 70
     1
102
RTVSPropertyOp19
 70
     1
102
RTVSPropertyOp20
 70
     1
102
RTVSPropertyOp21
 70
     1
102
RTVSPropertyOp22
 70
     1
102
RTVSPropertyOp23
 70
     1
102
RTVSPropertyOp24
 70
     1
102
RTVSPropertyOp25
 70
     1
102
RTVSPropertyOp26
 70
     1
102
RTVSPropertyOp27
 70
     1
102
RTVSPropertyOp28
 70
     1
102
RTVSPropertyOp29
 70
     1
102
RTVSPropertyOp30
 70
     1
102
RTVSPropertyOp31
 70
     1
102
RTVSPropertyOp32
 70
     1
  0
XRECORD
  5
486
102
{ACAD_REACTORS
330
485
102
}
330
485
100
AcDbXrecord
280
     1
102
RTVSPropertyOp0
 70
     1
102
RTVSPropertyOp1
 70
     1
102
RTVSPropertyOp2
 70
     1
102
RTVSPropertyOp3
 70
     1
102
RTVSPropertyOp4
 70
     1
102
RTVSPropertyOp5
 70
     1
102
RTVSPropertyOp6
 70
     1
102
RTVSPropertyOp7
 70
     1
102
RTVSPropertyOp8
 70
     1
102
RTVSPropertyOp9
 70
     1
102
RTVSPropertyOp10
 70
     1
102
RTVSPropertyOp11
 70
     1
102
RTVSPropertyOp12
 70
     1
102
RTVSPropertyOp13
 70
     1
102
RTVSPropertyOp14
 70
     1
102
RTVSPropertyOp15
 70
     1
102
RTVSPropertyOp16
 70
     1
102
RTVSPropertyOp17
 70
     1
102
RTVSPropertyOp18
 70
     1
102
RTVSPropertyOp19
 70
     1
102
RTVSPropertyOp20
 70
     1
102
RTVSPropertyOp21
 70
     1
102
RTVSPropertyOp22
 70
     1
102
RTVSPropertyOp23
 70
     1
102
RTVSPropertyOp24
 70
     1
102
RTVSPropertyOp25
 70
     1
102
RTVSPropertyOp26
 70
     1
102
RTVSPropertyOp27
 70
     1
102
RTVSPropertyOp28
 70
     1
102
RTVSPropertyOp29
 70
     1
102
RTVSPropertyOp30
 70
     1
102
RTVSPropertyOp31
 70
     1
102
RTVSPropertyOp32
 70
     1
  0
XRECORD
  5
484
102
{ACAD_REACTORS
330
483
102
}
330
483
100
AcDbXrecord
280
     1
102
RTVSPropertyOp0
 70
     1
102
RTVSPropertyOp1
 70
     1
102
RTVSPropertyOp2
 70
     1
102
RTVSPropertyOp3
 70
     1
102
RTVSPropertyOp4
 70
     1
102
RTVSPropertyOp5
 70
     1
102
RTVSPropertyOp6
 70
     1
102
RTVSPropertyOp7
 70
     1
102
RTVSPropertyOp8
 70
     1
102
RTVSPropertyOp9
 70
     1
102
RTVSPropertyOp10
 70
     1
102
RTVSPropertyOp11
 70
     1
102
RTVSPropertyOp12
 70
     1
102
RTVSPropertyOp13
 70
     1
102
RTVSPropertyOp14
 70
     1
102
RTVSPropertyOp15
 70
     1
102
RTVSPropertyOp16
 70
     1
102
RTVSPropertyOp17
 70
     1
102
RTVSPropertyOp18
 70
     1
102
RTVSPropertyOp19
 70
     1
102
RTVSPropertyOp20
 70
     1
102
RTVSPropertyOp21
 70
     1
102
RTVSPropertyOp22
 70
     1
102
RTVSPropertyOp23
 70
     1
102
RTVSPropertyOp24
 70
     1
102
RTVSPropertyOp25
 70
     1
102
RTVSPropertyOp26
 70
     1
102
RTVSPropertyOp27
 70
     1
102
RTVSPropertyOp28
 70
     1
102
RTVSPropertyOp29
 70
     1
102
RTVSPropertyOp30
 70
     1
102
RTVSPropertyOp31
 70
     1
102
RTVSPropertyOp32
 70
     1
  0
XRECORD
  5
488
102
{ACAD_REACTORS
330
487
102
}
330
487
100
AcDbXrecord
280
     1
102
RTVSPropertyOp0
 70
     1
102
RTVSPropertyOp1
 70
     1
102
RTVSPropertyOp2
 70
     1
102
RTVSPropertyOp3
 70
     1
102
RTVSPropertyOp4
 70
     1
102
RTVSPropertyOp5
 70
     1
102
RTVSPropertyOp6
 70
     1
102
RTVSPropertyOp7
 70
     1
102
RTVSPropertyOp8
 70
     1
102
RTVSPropertyOp9
 70
     1
102
RTVSPropertyOp10
 70
     1
102
RTVSPropertyOp11
 70
     1
102
RTVSPropertyOp12
 70
     1
102
RTVSPropertyOp13
 70
     1
102
RTVSPropertyOp14
 70
     1
102
RTVSPropertyOp15
 70
     1
102
RTVSPropertyOp16
 70
     1
102
RTVSPropertyOp17
 70
     1
102
RTVSPropertyOp18
 70
     1
102
RTVSPropertyOp19
 70
     1
102
RTVSPropertyOp20
 70
     1
102
RTVSPropertyOp21
 70
     1
102
RTVSPropertyOp22
 70
     1
102
RTVSPropertyOp23
 70
     1
102
RTVSPropertyOp24
 70
     1
102
RTVSPropertyOp25
 70
     1
102
RTVSPropertyOp26
 70
     1
102
RTVSPropertyOp27
 70
     1
102
RTVSPropertyOp28
 70
     1
102
RTVSPropertyOp29
 70
     1
102
RTVSPropertyOp30
 70
     1
102
RTVSPropertyOp31
 70
     1
102
RTVSPropertyOp32
 70
     1
  0
XRECORD
  5
490
102
{ACAD_REACTORS
330
48F
102
}
330
48F
100
AcDbXrecord
280
     1
102
RTVSPropertyOp0
 70
     1
102
RTVSPropertyOp1
 70
     1
102
RTVSPropertyOp2
 70
     1
102
RTVSPropertyOp3
 70
     1
102
RTVSPropertyOp4
 70
     1
102
RTVSPropertyOp5
 70
     1
102
RTVSPropertyOp6
 70
     1
102
RTVSPropertyOp7
 70
     1
102
RTVSPropertyOp8
 70
     1
102
RTVSPropertyOp9
 70
     1
102
RTVSPropertyOp10
 70
     1
102
RTVSPropertyOp11
 70
     1
102
RTVSPropertyOp12
 70
     1
102
RTVSPropertyOp13
 70
     1
102
RTVSPropertyOp14
 70
     1
102
RTVSPropertyOp15
 70
     1
102
RTVSPropertyOp16
 70
     1
102
RTVSPropertyOp17
 70
     1
102
RTVSPropertyOp18
 70
     1
102
RTVSPropertyOp19
 70
     1
102
RTVSPropertyOp20
 70
     1
102
RTVSPropertyOp21
 70
     1
102
RTVSPropertyOp22
 70
     1
102
RTVSPropertyOp23
 70
     1
102
RTVSPropertyOp24
 70
     1
102
RTVSPropertyOp25
 70
     1
102
RTVSPropertyOp26
 70
     1
102
RTVSPropertyOp27
 70
     1
102
RTVSPropertyOp28
 70
     1
102
RTVSPropertyOp29
 70
     1
102
RTVSPropertyOp30
 70
     1
102
RTVSPropertyOp31
 70
     1
102
RTVSPropertyOp32
 70
     1
  0
XRECORD
  5
498
102
{ACAD_REACTORS
330
497
102
}
330
497
100
AcDbXrecord
280
     1
102
RTVSPropertyOp0
 70
     1
102
RTVSPropertyOp1
 70
     1
102
RTVSPropertyOp2
 70
     1
102
RTVSPropertyOp3
 70
     1
102
RTVSPropertyOp4
 70
     1
102
RTVSPropertyOp5
 70
     1
102
RTVSPropertyOp6
 70
     1
102
RTVSPropertyOp7
 70
     1
102
RTVSPropertyOp8
 70
     1
102
RTVSPropertyOp9
 70
     1
102
RTVSPropertyOp10
 70
     1
102
RTVSPropertyOp11
 70
     1
102
RTVSPropertyOp12
 70
     1
102
RTVSPropertyOp13
 70
     1
102
RTVSPropertyOp14
 70
     1
102
RTVSPropertyOp15
 70
     1
102
RTVSPropertyOp16
 70
     1
102
RTVSPropertyOp17
 70
     1
102
RTVSPropertyOp18
 70
     1
102
RTVSPropertyOp19
 70
     1
102
RTVSPropertyOp20
 70
     1
102
RTVSPropertyOp21
 70
     1
102
RTVSPropertyOp22
 70
     1
102
RTVSPropertyOp23
 70
     1
102
RTVSPropertyOp24
 70
     1
102
RTVSPropertyOp25
 70
     1
102
RTVSPropertyOp26
 70
     1
102
RTVSPropertyOp27
 70
     1
102
RTVSPropertyOp28
 70
     1
102
RTVSPropertyOp29
 70
     1
102
RTVSPropertyOp30
 70
     1
102
RTVSPropertyOp31
 70
     1
102
RTVSPropertyOp32
 70
     1
  0
XRECORD
  5
48C
102
{ACAD_REACTORS
330
48B
102
}
330
48B
100
AcDbXrecord
280
     1
102
RTVSPropertyOp0
 70
     1
102
RTVSPropertyOp1
 70
     1
102
RTVSPropertyOp2
 70
     1
102
RTVSPropertyOp3
 70
     1
102
RTVSPropertyOp4
 70
     1
102
RTVSPropertyOp5
 70
     1
102
RTVSPropertyOp6
 70
     1
102
RTVSPropertyOp7
 70
     1
102
RTVSPropertyOp8
 70
     1
102
RTVSPropertyOp9
 70
     1
102
RTVSPropertyOp10
 70
     1
102
RTVSPropertyOp11
 70
     1
102
RTVSPropertyOp12
 70
     1
102
RTVSPropertyOp13
 70
     1
102
RTVSPropertyOp14
 70
     1
102
RTVSPropertyOp15
 70
     1
102
RTVSPropertyOp16
 70
     1
102
RTVSPropertyOp17
 70
     1
102
RTVSPropertyOp18
 70
     1
102
RTVSPropertyOp19
 70
     1
102
RTVSPropertyOp20
 70
     1
102
RTVSPropertyOp21
 70
     1
102
RTVSPropertyOp22
 70
     1
102
RTVSPropertyOp23
 70
     1
102
RTVSPropertyOp24
 70
     1
102
RTVSPropertyOp25
 70
     1
102
RTVSPropertyOp26
 70
     1
102
RTVSPropertyOp27
 70
     1
102
RTVSPropertyOp28
 70
     1
102
RTVSPropertyOp29
 70
     1
102
RTVSPropertyOp30
 70
     1
102
RTVSPropertyOp31
 70
     1
102
RTVSPropertyOp32
 70
     1
  0
XRECORD
  5
48E
102
{ACAD_REACTORS
330
48D
102
}
330
48D
100
AcDbXrecord
280
     1
102
RTVSPropertyOp0
 70
     1
102
RTVSPropertyOp1
 70
     1
102
RTVSPropertyOp2
 70
     1
102
RTVSPropertyOp3
 70
     1
102
RTVSPropertyOp4
 70
     1
102
RTVSPropertyOp5
 70
     1
102
RTVSPropertyOp6
 70
     1
102
RTVSPropertyOp7
 70
     1
102
RTVSPropertyOp8
 70
     1
102
RTVSPropertyOp9
 70
     1
102
RTVSPropertyOp10
 70
     1
102
RTVSPropertyOp11
 70
     1
102
RTVSPropertyOp12
 70
     1
102
RTVSPropertyOp13
 70
     1
102
RTVSPropertyOp14
 70
     1
102
RTVSPropertyOp15
 70
     1
102
RTVSPropertyOp16
 70
     1
102
RTVSPropertyOp17
 70
     1
102
RTVSPropertyOp18
 70
     1
102
RTVSPropertyOp19
 70
     1
102
RTVSPropertyOp20
 70
     1
102
RTVSPropertyOp21
 70
     1
102
RTVSPropertyOp22
 70
     1
102
RTVSPropertyOp23
 70
     1
102
RTVSPropertyOp24
 70
     1
102
RTVSPropertyOp25
 70
     1
102
RTVSPropertyOp26
 70
     1
102
RTVSPropertyOp27
 70
     1
102
RTVSPropertyOp28
 70
     1
102
RTVSPropertyOp29
 70
     1
102
RTVSPropertyOp30
 70
     1
102
RTVSPropertyOp31
 70
     1
102
RTVSPropertyOp32
 70
     1
  0
XRECORD
  5
496
102
{ACAD_REACTORS
330
495
102
}
330
495
100
AcDbXrecord
280
     1
102
RTVSPropertyOp0
 70
     1
102
RTVSPropertyOp1
 70
     1
102
RTVSPropertyOp2
 70
     1
102
RTVSPropertyOp3
 70
     1
102
RTVSPropertyOp4
 70
     1
102
RTVSPropertyOp5
 70
     1
102
RTVSPropertyOp6
 70
     1
102
RTVSPropertyOp7
 70
     1
102
RTVSPropertyOp8
 70
     1
102
RTVSPropertyOp9
 70
     1
102
RTVSPropertyOp10
 70
     1
102
RTVSPropertyOp11
 70
     1
102
RTVSPropertyOp12
 70
     1
102
RTVSPropertyOp13
 70
     1
102
RTVSPropertyOp14
 70
     1
102
RTVSPropertyOp15
 70
     1
102
RTVSPropertyOp16
 70
     1
102
RTVSPropertyOp17
 70
     1
102
RTVSPropertyOp18
 70
     1
102
RTVSPropertyOp19
 70
     1
102
RTVSPropertyOp20
 70
     1
102
RTVSPropertyOp21
 70
     1
102
RTVSPropertyOp22
 70
     1
102
RTVSPropertyOp23
 70
     1
102
RTVSPropertyOp24
 70
     1
102
RTVSPropertyOp25
 70
     1
102
RTVSPropertyOp26
 70
     1
102
RTVSPropertyOp27
 70
     1
102
RTVSPropertyOp28
 70
     1
102
RTVSPropertyOp29
 70
     1
102
RTVSPropertyOp30
 70
     1
102
RTVSPropertyOp31
 70
     1
102
RTVSPropertyOp32
 70
     1
  0
XRECORD
  5
47A
102
{ACAD_REACTORS
330
479
102
}
330
479
100
AcDbXrecord
280
     1
102
RTVSPropertyOp0
 70
     1
102
RTVSPropertyOp1
 70
     1
102
RTVSPropertyOp2
 70
     1
102
RTVSPropertyOp3
 70
     1
102
RTVSPropertyOp4
 70
     1
102
RTVSPropertyOp5
 70
     1
102
RTVSPropertyOp6
 70
     1
102
RTVSPropertyOp7
 70
     1
102
RTVSPropertyOp8
 70
     1
102
RTVSPropertyOp9
 70
     1
102
RTVSPropertyOp10
 70
     1
102
RTVSPropertyOp11
 70
     1
102
RTVSPropertyOp12
 70
     1
102
RTVSPropertyOp13
 70
     1
102
RTVSPropertyOp14
 70
     1
102
RTVSPropertyOp15
 70
     1
102
RTVSPropertyOp16
 70
     1
102
RTVSPropertyOp17
 70
     1
102
RTVSPropertyOp18
 70
     1
102
RTVSPropertyOp19
 70
     1
102
RTVSPropertyOp20
 70
     1
102
RTVSPropertyOp21
 70
     1
102
RTVSPropertyOp22
 70
     1
102
RTVSPropertyOp23
 70
     1
102
RTVSPropertyOp24
 70
     1
102
RTVSPropertyOp25
 70
     1
102
RTVSPropertyOp26
 70
     1
102
RTVSPropertyOp27
 70
     1
102
RTVSPropertyOp28
 70
     1
102
RTVSPropertyOp29
 70
     1
102
RTVSPropertyOp30
 70
     1
102
RTVSPropertyOp31
 70
     1
102
RTVSPropertyOp32
 70
     1
  0
XRECORD
  5
47C
102
{ACAD_REACTORS
330
47B
102
}
330
47B
100
AcDbXrecord
280
     1
102
RTVSPropertyOp0
 70
     1
102
RTVSPropertyOp1
 70
     1
102
RTVSPropertyOp2
 70
     1
102
RTVSPropertyOp3
 70
     1
102
RTVSPropertyOp4
 70
     1
102
RTVSPropertyOp5
 70
     1
102
RTVSPropertyOp6
 70
     1
102
RTVSPropertyOp7
 70
     1
102
RTVSPropertyOp8
 70
     1
102
RTVSPropertyOp9
 70
     1
102
RTVSPropertyOp10
 70
     1
102
RTVSPropertyOp11
 70
     1
102
RTVSPropertyOp12
 70
     1
102
RTVSPropertyOp13
 70
     1
102
RTVSPropertyOp14
 70
     1
102
RTVSPropertyOp15
 70
     1
102
RTVSPropertyOp16
 70
     1
102
RTVSPropertyOp17
 70
     1
102
RTVSPropertyOp18
 70
     1
102
RTVSPropertyOp19
 70
     1
102
RTVSPropertyOp20
 70
     1
102
RTVSPropertyOp21
 70
     1
102
RTVSPropertyOp22
 70
     1
102
RTVSPropertyOp23
 70
     1
102
RTVSPropertyOp24
 70
     1
102
RTVSPropertyOp25
 70
     1
102
RTVSPropertyOp26
 70
     1
102
RTVSPropertyOp27
 70
     1
102
RTVSPropertyOp28
 70
     1
102
RTVSPropertyOp29
 70
     1
102
RTVSPropertyOp30
 70
     1
102
RTVSPropertyOp31
 70
     1
102
RTVSPropertyOp32
 70
     1
  0
XRECORD
  5
47E
102
{ACAD_REACTORS
330
47D
102
}
330
47D
100
AcDbXrecord
280
     1
102
RTVSPropertyOp0
 70
     1
102
RTVSPropertyOp1
 70
     1
102
RTVSPropertyOp2
 70
     1
102
RTVSPropertyOp3
 70
     1
102
RTVSPropertyOp4
 70
     1
102
RTVSPropertyOp5
 70
     1
102
RTVSPropertyOp6
 70
     1
102
RTVSPropertyOp7
 70
     1
102
RTVSPropertyOp8
 70
     1
102
RTVSPropertyOp9
 70
     1
102
RTVSPropertyOp10
 70
     1
102
RTVSPropertyOp11
 70
     1
102
RTVSPropertyOp12
 70
     1
102
RTVSPropertyOp13
 70
     1
102
RTVSPropertyOp14
 70
     1
102
RTVSPropertyOp15
 70
     1
102
RTVSPropertyOp16
 70
     1
102
RTVSPropertyOp17
 70
     1
102
RTVSPropertyOp18
 70
     1
102
RTVSPropertyOp19
 70
     1
102
RTVSPropertyOp20
 70
     1
102
RTVSPropertyOp21
 70
     1
102
RTVSPropertyOp22
 70
     1
102
RTVSPropertyOp23
 70
     1
102
RTVSPropertyOp24
 70
     1
102
RTVSPropertyOp25
 70
     1
102
RTVSPropertyOp26
 70
     1
102
RTVSPropertyOp27
 70
     1
102
RTVSPropertyOp28
 70
     1
102
RTVSPropertyOp29
 70
     1
102
RTVSPropertyOp30
 70
     1
102
RTVSPropertyOp31
 70
     1
102
RTVSPropertyOp32
 70
     1
  0
XRECORD
  5
480
102
{ACAD_REACTORS
330
47F
102
}
330
47F
100
AcDbXrecord
280
     1
102
RTVSPropertyOp0
 70
     1
102
RTVSPropertyOp1
 70
     1
102
RTVSPropertyOp2
 70
     1
102
RTVSPropertyOp3
 70
     1
102
RTVSPropertyOp4
 70
     1
102
RTVSPropertyOp5
 70
     1
102
RTVSPropertyOp6
 70
     1
102
RTVSPropertyOp7
 70
     1
102
RTVSPropertyOp8
 70
     1
102
RTVSPropertyOp9
 70
     1
102
RTVSPropertyOp10
 70
     1
102
RTVSPropertyOp11
 70
     1
102
RTVSPropertyOp12
 70
     1
102
RTVSPropertyOp13
 70
     1
102
RTVSPropertyOp14
 70
     1
102
RTVSPropertyOp15
 70
     1
102
RTVSPropertyOp16
 70
     1
102
RTVSPropertyOp17
 70
     1
102
RTVSPropertyOp18
 70
     1
102
RTVSPropertyOp19
 70
     1
102
RTVSPropertyOp20
 70
     1
102
RTVSPropertyOp21
 70
     1
102
RTVSPropertyOp22
 70
     1
102
RTVSPropertyOp23
 70
     1
102
RTVSPropertyOp24
 70
     1
102
RTVSPropertyOp25
 70
     1
102
RTVSPropertyOp26
 70
     1
102
RTVSPropertyOp27
 70
     1
102
RTVSPropertyOp28
 70
     1
102
RTVSPropertyOp29
 70
     1
102
RTVSPropertyOp30
 70
     1
102
RTVSPropertyOp31
 70
     1
102
RTVSPropertyOp32
 70
     1
  0
XRECORD
  5
494
102
{ACAD_REACTORS
330
493
102
}
330
493
100
AcDbXrecord
280
     1
102
RTVSPropertyOp0
 70
     1
102
RTVSPropertyOp1
 70
     1
102
RTVSPropertyOp2
 70
     1
102
RTVSPropertyOp3
 70
     1
102
RTVSPropertyOp4
 70
     1
102
RTVSPropertyOp5
 70
     1
102
RTVSPropertyOp6
 70
     1
102
RTVSPropertyOp7
 70
     1
102
RTVSPropertyOp8
 70
     1
102
RTVSPropertyOp9
 70
     1
102
RTVSPropertyOp10
 70
     1
102
RTVSPropertyOp11
 70
     1
102
RTVSPropertyOp12
 70
     1
102
RTVSPropertyOp13
 70
     1
102
RTVSPropertyOp14
 70
     1
102
RTVSPropertyOp15
 70
     1
102
RTVSPropertyOp16
 70
     1
102
RTVSPropertyOp17
 70
     1
102
RTVSPropertyOp18
 70
     1
102
RTVSPropertyOp19
 70
     1
102
RTVSPropertyOp20
 70
     1
102
RTVSPropertyOp21
 70
     1
102
RTVSPropertyOp22
 70
     1
102
RTVSPropertyOp23
 70
     1
102
RTVSPropertyOp24
 70
     1
102
RTVSPropertyOp25
 70
     1
102
RTVSPropertyOp26
 70
     1
102
RTVSPropertyOp27
 70
     1
102
RTVSPropertyOp28
 70
     1
102
RTVSPropertyOp29
 70
     1
102
RTVSPropertyOp30
 70
     1
102
RTVSPropertyOp31
 70
     1
102
RTVSPropertyOp32
 70
     1
  0
XRECORD
  5
48A
102
{ACAD_REACTORS
330
489
102
}
330
489
100
AcDbXrecord
280
     1
102
RTVSPropertyOp0
 70
     1
102
RTVSPropertyOp1
 70
     1
102
RTVSPropertyOp2
 70
     1
102
RTVSPropertyOp3
 70
     1
102
RTVSPropertyOp4
 70
     1
102
RTVSPropertyOp5
 70
     1
102
RTVSPropertyOp6
 70
     1
102
RTVSPropertyOp7
 70
     1
102
RTVSPropertyOp8
 70
     1
102
RTVSPropertyOp9
 70
     1
102
RTVSPropertyOp10
 70
     1
102
RTVSPropertyOp11
 70
     1
102
RTVSPropertyOp12
 70
     1
102
RTVSPropertyOp13
 70
     1
102
RTVSPropertyOp14
 70
     1
102
RTVSPropertyOp15
 70
     1
102
RTVSPropertyOp16
 70
     1
102
RTVSPropertyOp17
 70
     1
102
RTVSPropertyOp18
 70
     1
102
RTVSPropertyOp19
 70
     1
102
RTVSPropertyOp20
 70
     1
102
RTVSPropertyOp21
 70
     1
102
RTVSPropertyOp22
 70
     1
102
RTVSPropertyOp23
 70
     1
102
RTVSPropertyOp24
 70
     1
102
RTVSPropertyOp25
 70
     1
102
RTVSPropertyOp26
 70
     1
102
RTVSPropertyOp27
 70
     1
102
RTVSPropertyOp28
 70
     1
102
RTVSPropertyOp29
 70
     1
102
RTVSPropertyOp30
 70
     1
102
RTVSPropertyOp31
 70
     1
102
RTVSPropertyOp32
 70
     1
  0
XRECORD
  5
492
102
{ACAD_REACTORS
330
491
102
}
330
491
100
AcDbXrecord
280
     1
102
RTVSPropertyOp0
 70
     1
102
RTVSPropertyOp1
 70
     1
102
RTVSPropertyOp2
 70
     1
102
RTVSPropertyOp3
 70
     1
102
RTVSPropertyOp4
 70
     1
102
RTVSPropertyOp5
 70
     1
102
RTVSPropertyOp6
 70
     1
102
RTVSPropertyOp7
 70
     1
102
RTVSPropertyOp8
 70
     1
102
RTVSPropertyOp9
 70
     1
102
RTVSPropertyOp10
 70
     1
102
RTVSPropertyOp11
 70
     1
102
RTVSPropertyOp12
 70
     1
102
RTVSPropertyOp13
 70
     1
102
RTVSPropertyOp14
 70
     1
102
RTVSPropertyOp15
 70
     1
102
RTVSPropertyOp16
 70
     1
102
RTVSPropertyOp17
 70
     1
102
RTVSPropertyOp18
 70
     1
102
RTVSPropertyOp19
 70
     1
102
RTVSPropertyOp20
 70
     1
102
RTVSPropertyOp21
 70
     1
102
RTVSPropertyOp22
 70
     1
102
RTVSPropertyOp23
 70
     1
102
RTVSPropertyOp24
 70
     1
102
RTVSPropertyOp25
 70
     1
102
RTVSPropertyOp26
 70
     1
102
RTVSPropertyOp27
 70
     1
102
RTVSPropertyOp28
 70
     1
102
RTVSPropertyOp29
 70
     1
102
RTVSPropertyOp30
 70
     1
102
RTVSPropertyOp31
 70
     1
102
RTVSPropertyOp32
 70
     1
  0
ENDSEC
  0
EOF
