  0
SECTION
  2
HEADER
  9
$ACADVER
  1
AC1018
  9
$ACADMAINTVER
 70
     0
  9
$DWGCODEPAGE
  3
ANSI_1252
  9
$INSBASE
 10
0.0
 20
0.0
 30
0.0
  9
$EXTMIN
 10
-225.5396966241022
 20
2.80685313077333
 30
0.0
  9
$EXTMAX
 10
71.4603033758959
 20
212.8068531307735
 30
0.0
  9
$LIMMIN
 10
0.0
 20
0.0
  9
$LIMMAX
 10
12.0
 20
9.0
  9
$ORTHOMODE
 70
     0
  9
$REGENMODE
 70
     1
  9
$FILLMODE
 70
     1
  9
$QTEXTMODE
 70
     0
  9
$MIRRTEXT
 70
     1
  9
$LTSCALE
 40
1.0
  9
$ATTMODE
 70
     1
  9
$TEXTSIZE
 40
0.2
  9
$TRACEWID
 40
0.05
  9
$TEXTSTYLE
  7
Standard
  9
$CLAYER
  8
0
  9
$CELTYPE
  6
ByLayer
  9
$CECOLOR
 62
   256
  9
$CELTSCALE
 40
1.0
  9
$DISPSILH
 70
     0
  9
$DIMSCALE
 40
1.0
  9
$DIMASZ
 40
0.18
  9
$DIMEXO
 40
0.0625
  9
$DIMDLI
 40
0.38
  9
$DIMRND
 40
0.0
  9
$DIMDLE
 40
0.0
  9
$DIMEXE
 40
0.18
  9
$DIMTP
 40
0.0
  9
$DIMTM
 40
0.0
  9
$DIMTXT
 40
0.18
  9
$DIMCEN
 40
0.09
  9
$DIMTSZ
 40
0.0
  9
$DIMTOL
 70
     0
  9
$DIMLIM
 70
     0
  9
$DIMTIH
 70
     1
  9
$DIMTOH
 70
     1
  9
$DIMSE1
 70
     0
  9
$DIMSE2
 70
     0
  9
$DIMTAD
 70
     0
  9
$DIMZIN
 70
     0
  9
$DIMBLK
  1

  9
$DIMASO
 70
     1
  9
$DIMSHO
 70
     1
  9
$DIMPOST
  1

  9
$DIMAPOST
  1

  9
$DIMALT
 70
     0
  9
$DIMALTD
 70
     2
  9
$DIMALTF
 40
25.4
  9
$DIMLFAC
 40
1.0
  9
$DIMTOFL
 70
     0
  9
$DIMTVP
 40
0.0
  9
$DIMTIX
 70
     0
  9
$DIMSOXD
 70
     0
  9
$DIMSAH
 70
     0
  9
$DIMBLK1
  1

  9
$DIMBLK2
  1

  9
$DIMSTYLE
  2
Standard
  9
$DIMCLRD
 70
     0
  9
$DIMCLRE
 70
     0
  9
$DIMCLRT
 70
     0
  9
$DIMTFAC
 40
1.0
  9
$DIMGAP
 40
0.09
  9
$DIMJUST
 70
     0
  9
$DIMSD1
 70
     0
  9
$DIMSD2
 70
     0
  9
$DIMTOLJ
 70
     1
  9
$DIMTZIN
 70
     0
  9
$DIMALTZ
 70
     0
  9
$DIMALTTZ
 70
     0
  9
$DIMUPT
 70
     0
  9
$DIMDEC
 70
     4
  9
$DIMTDEC
 70
     4
  9
$DIMALTU
 70
     2
  9
$DIMALTTD
 70
     2
  9
$DIMTXSTY
  7
Standard
  9
$DIMAUNIT
 70
     0
  9
$DIMADEC
 70
     0
  9
$DIMALTRND
 40
0.0
  9
$DIMAZIN
 70
     0
  9
$DIMDSEP
 70
    46
  9
$DIMATFIT
 70
     3
  9
$DIMFRAC
 70
     0
  9
$DIMLDRBLK
  1

  9
$DIMLUNIT
 70
     2
  9
$DIMLWD
 70
    -2
  9
$DIMLWE
 70
    -2
  9
$DIMTMOVE
 70
     0
  9
$LUNITS
 70
     2
  9
$LUPREC
 70
     4
  9
$SKETCHINC
 40
0.1
  9
$FILLETRAD
 40
0.5
  9
$AUNITS
 70
     0
  9
$AUPREC
 70
     0
  9
$MENU
  1
.
  9
$ELEVATION
 40
0.0
  9
$PELEVATION
 40
0.0
  9
$THICKNESS
 40
0.0
  9
$LIMCHECK
 70
     0
  9
$CHAMFERA
 40
0.5
  9
$CHAMFERB
 40
0.5
  9
$CHAMFERC
 40
1.0
  9
$CHAMFERD
 40
0.0
  9
$SKPOLY
 70
     0
  9
$TDCREATE
 40
2458194.608742523
  9
$TDUCREATE
 40
2458194.567075856
  9
$TDUPDATE
 40
2458194.608743067
  9
$TDUUPDATE
 40
2458194.5670764
  9
$TDINDWG
 40
0.0000000116
  9
$TDUSRTIMER
 40
0.0000000116
  9
$USRTIMER
 70
     1
  9
$ANGBASE
 50
0.0
  9
$ANGDIR
 70
     0
  9
$PDMODE
 70
     0
  9
$PDSIZE
 40
0.0
  9
$PLINEWID
 40
0.0
  9
$SPLFRAME
 70
     0
  9
$SPLINETYPE
 70
     6
  9
$SPLINESEGS
 70
     8
  9
$HANDSEED
  5
4A5
  9
$SURFTAB1
 70
     6
  9
$SURFTAB2
 70
     6
  9
$SURFTYPE
 70
     6
  9
$SURFU
 70
     6
  9
$SURFV
 70
     6
  9
$UCSBASE
  2

  9
$UCSNAME
  2

  9
$UCSORG
 10
0.0
 20
0.0
 30
0.0
  9
$UCSXDIR
 10
1.0
 20
0.0
 30
0.0
  9
$UCSYDIR
 10
0.0
 20
1.0
 30
0.0
  9
$UCSORTHOREF
  2

  9
$UCSORTHOVIEW
 70
     0
  9
$UCSORGTOP
 10
0.0
 20
0.0
 30
0.0
  9
$UCSORGBOTTOM
 10
0.0
 20
0.0
 30
0.0
  9
$UCSORGLEFT
 10
0.0
 20
0.0
 30
0.0
  9
$UCSORGRIGHT
 10
0.0
 20
0.0
 30
0.0
  9
$UCSORGFRONT
 10
0.0
 20
0.0
 30
0.0
  9
$UCSORGBACK
 10
0.0
 20
0.0
 30
0.0
  9
$PUCSBASE
  2

  9
$PUCSNAME
  2

  9
$PUCSORG
 10
0.0
 20
0.0
 30
0.0
  9
$PUCSXDIR
 10
1.0
 20
0.0
 30
0.0
  9
$PUCSYDIR
 10
0.0
 20
1.0
 30
0.0
  9
$PUCSORTHOREF
  2

  9
$PUCSORTHOVIEW
 70
     0
  9
$PUCSORGTOP
 10
0.0
 20
0.0
 30
0.0
  9
$PUCSORGBOTTOM
 10
0.0
 20
0.0
 30
0.0
  9
$PUCSORGLEFT
 10
0.0
 20
0.0
 30
0.0
  9
$PUCSORGRIGHT
 10
0.0
 20
0.0
 30
0.0
  9
$PUCSORGFRONT
 10
0.0
 20
0.0
 30
0.0
  9
$PUCSORGBACK
 10
0.0
 20
0.0
 30
0.0
  9
$USERI1
 70
     0
  9
$USERI2
 70
     0
  9
$USERI3
 70
     0
  9
$USERI4
 70
     0
  9
$USERI5
 70
     0
  9
$USERR1
 40
18.1
  9
$USERR2
 40
0.0
  9
$USERR3
 40
0.0
  9
$USERR4
 40
0.0
  9
$USERR5
 40
0.0
  9
$WORLDVIEW
 70
     1
  9
$SHADEDGE
 70
     3
  9
$SHADEDIF
 70
    70
  9
$TILEMODE
 70
     1
  9
$MAXACTVP
 70
    64
  9
$PINSBASE
 10
0.0
 20
0.0
 30
0.0
  9
$PLIMCHECK
 70
     0
  9
$PEXTMIN
 10
1.00000000000000E+20
 20
1.00000000000000E+20
 30
1.00000000000000E+20
  9
$PEXTMAX
 10
-1.00000000000000E+20
 20
-1.00000000000000E+20
 30
-1.00000000000000E+20
  9
$PLIMMIN
 10
0.0
 20
0.0
  9
$PLIMMAX
 10
12.0
 20
9.0
  9
$UNITMODE
 70
     0
  9
$VISRETAIN
 70
     1
  9
$PLINEGEN
 70
     0
  9
$PSLTSCALE
 70
     1
  9
$TREEDEPTH
 70
  3020
  9
$CMLSTYLE
  2
Standard
  9
$CMLJUST
 70
     0
  9
$CMLSCALE
 40
1.0
  9
$PROXYGRAPHICS
 70
     1
  9
$MEASUREMENT
 70
     1
  9
$CELWEIGHT
370
    -1
  9
$ENDCAPS
280
     0
  9
$JOINSTYLE
280
     0
  9
$LWDISPLAY
290
     0
  9
$INSUNITS
 70
     4
  9
$HYPERLINKBASE
  1

  9
$STYLESHEET
  1

  9
$XEDIT
290
     1
  9
$CEPSNTYPE
380
     0
  9
$PSTYLEMODE
290
     1
  9
$FINGERPRINTGUID
  2
{061A4E76-EE09-4A0B-9093-99F4DE19CDDE}
  9
$VERSIONGUID
  2
{FAEB1C32-E019-11D5-929B-00C0DF256EC4}
  9
$EXTNAMES
290
     1
  9
$PSVPSCALE
 40
0.0
  9
$OLESTARTUP
290
     0
  9
$SORTENTS
280
   127
  9
$INDEXCTL
280
     0
  9
$HIDETEXT
280
     1
  9
$XCLIPFRAME
290
     0
  9
$HALOGAP
280
     0
  9
$OBSCOLOR
 70
   257
  9
$OBSLTYPE
280
     0
  9
$INTERSECTIONDISPLAY
280
     0
  9
$INTERSECTIONCOLOR
 70
   257
  9
$DIMASSOC
280
     2
  9
$PROJECTNAME
  1

  0
ENDSEC
  0
SECTION
  2
CLASSES
  0
CLASS
  1
ACDBDICTIONARYWDFLT
  2
AcDbDictionaryWithDefault
  3
ObjectDBX Classes
 90
        0
 91
        4
280
     0
281
     0
  0
CLASS
  1
VISUALSTYLE
  2
AcDbVisualStyle
  3
ObjectDBX Classes
 90
     4095
 91
        4
280
     0
281
     0
  0
CLASS
  1
MATERIAL
  2
AcDbMaterial
  3
ObjectDBX Classes
 90
     1153
 91
        4
280
     0
281
     0
  0
ENDSEC
  0
SECTION
  2
TABLES
  0
TABLE
  2
VPORT
  5
8
330
0
100
AcDbSymbolTable
 70
     1
  0
VPORT
  5
29
330
8
100
AcDbSymbolTableRecord
100
AcDbViewportTableRecord
  2
*Active
 70
     0
 10
0.0
 20
0.0
 11
1.0
 21
1.0
 12
-77.03969662410314
 22
107.8068531307734
 13
0.0
 23
0.0
 14
0.5
 24
0.5
 15
0.5
 25
0.5
 16
0.0
 26
0.0
 36
1.0
 17
0.0
 27
0.0
 37
0.0
 40
231.0000000000002
 41
1.60267857142857
 42
50.0
 43
0.0
 44
0.0
 50
0.0
 51
0.0
 71
     0
 72
   100
 73
     1
 74
     3
 75
     0
 76
     0
 77
     0
 78
     0
281
     0
 65
     1
110
0.0
120
0.0
130
0.0
111
1.0
121
0.0
131
0.0
112
0.0
122
1.0
132
0.0
 79
     0
146
0.0
  0
ENDTAB
  0
TABLE
  2
LTYPE
  5
5
330
0
100
AcDbSymbolTable
 70
     8
  0
LTYPE
  5
14
330
5
100
AcDbSymbolTableRecord
100
AcDbLinetypeTableRecord
  2
ByBlock
 70
     0
  3

 72
    65
 73
     0
 40
0.0
  0
LTYPE
  5
15
330
5
100
AcDbSymbolTableRecord
100
AcDbLinetypeTableRecord
  2
ByLayer
 70
     0
  3

 72
    65
 73
     0
 40
0.0
  0
LTYPE
  5
16
330
5
100
AcDbSymbolTableRecord
100
AcDbLinetypeTableRecord
  2
Continuous
 70
     0
  3
Solid line
 72
    65
 73
     0
 40
0.0
  0
LTYPE
  5
3F
330
5
100
AcDbSymbolTableRecord
100
AcDbLinetypeTableRecord
  2
DASHED
 70
     0
  3
Dashed
 72
    65
 73
     2
 40
15.0
 49
7.0
 74
     0
 49
-8.0
 74
     0
  0
LTYPE
  5
40
330
5
100
AcDbSymbolTableRecord
100
AcDbLinetypeTableRecord
  2
DOTTED
 70
     0
  3
Dotted
 72
    65
 73
     2
 40
1.0
 49
0.0
 74
     0
 49
-1.0
 74
     0
  0
LTYPE
  5
41
330
5
100
AcDbSymbolTableRecord
100
AcDbLinetypeTableRecord
  2
DOT_CENTER
 70
     0
  3
Dot_Center
 72
    65
 73
     4
 40
14.0
 49
12.0
 74
     0
 49
-1.0
 74
     0
 49
0.0
 74
     0
 49
-1.0
 74
     0
  0
LTYPE
  5
42
330
5
100
AcDbSymbolTableRecord
100
AcDbLinetypeTableRecord
  2
LONG_DASHED
 70
     0
  3
Long_Dashed
 72
    65
 73
     2
 40
15.0
 49
10.0
 74
     0
 49
-5.0
 74
     0
  0
LTYPE
  5
43
330
5
100
AcDbSymbolTableRecord
100
AcDbLinetypeTableRecord
  2
DASH_CENTER
 70
     0
  3
Dash_Center
 72
    65
 73
     4
 40
14.0
 49
11.0
 74
     0
 49
-1.0
 74
     0
 49
1.0
 74
     0
 49
-1.0
 74
     0
  0
LTYPE
  5
44
330
5
100
AcDbSymbolTableRecord
100
AcDbLinetypeTableRecord
  2
PHANTOM
 70
     0
  3
Phantom
 72
    65
 73
     6
 40
13.0
 49
10.0
 74
     0
 49
-1.0
 74
     0
 49
0.0
 74
     0
 49
-1.0
 74
     0
 49
0.0
 74
     0
 49
-1.0
 74
     0
  0
LTYPE
  5
45
330
5
100
AcDbSymbolTableRecord
100
AcDbLinetypeTableRecord
  2
CENTER_DASH_DASH
 70
     0
  3
Center_Dash_Dash
 72
    65
 73
     6
 40
14.0
 49
9.0
 74
     0
 49
-1.0
 74
     0
 49
1.0
 74
     0
 49
-1.0
 74
     0
 49
1.0
 74
     0
 49
-1.0
 74
     0
  0
ENDTAB
  0
TABLE
  2
LAYER
  5
2
330
0
100
AcDbSymbolTable
 70
     2
  0
LAYER
  5
10
330
2
100
AcDbSymbolTableRecord
100
AcDbLayerTableRecord
  2
0
 70
     0
 62
     7
  6
Continuous
370
    -3
390
F
  0
LAYER
  5
46
330
2
100
AcDbSymbolTableRecord
100
AcDbLayerTableRecord
  2
1
 70
     0
 62
     7
  6
Continuous
370
    -3
390
F
  0
ENDTAB
  0
TABLE
  2
STYLE
  5
3
330
0
100
AcDbSymbolTable
 70
     5
  0
STYLE
  5
11
330
3
100
AcDbSymbolTableRecord
100
AcDbTextStyleTableRecord
  2
Standard
 70
     0
 40
0.0
 41
1.0
 50
0.0
 71
     0
 42
0.2
  3
txt
  4

  0
STYLE
  5
141
330
3
100
AcDbSymbolTableRecord
100
AcDbTextStyleTableRecord
  2
CONVERTER_11
 70
     0
 40
0.0
 41
0.9
 50
0.0
 71
     0
 42
0.2
  3
txt.shx
  4

  0
STYLE
  5
43B
330
3
100
AcDbSymbolTableRecord
100
AcDbTextStyleTableRecord
  2
CONVERTER_12
 70
     0
 40
0.0
 41
0.81
 50
0.0
 71
     0
 42
0.2
  3
txt.shx
  4

  0
STYLE
  5
441
330
3
100
AcDbSymbolTableRecord
100
AcDbTextStyleTableRecord
  2
CONVERTER_13
 70
     0
 40
0.0
 41
0.855
 50
0.0
 71
     0
 42
0.2
  3
txt.shx
  4

  0
STYLE
  5
444
330
3
100
AcDbSymbolTableRecord
100
AcDbTextStyleTableRecord
  2
CONVERTER_14
 70
     0
 40
0.0
 41
0.72
 50
0.0
 71
     0
 42
0.2
  3
txt.shx
  4

  0
ENDTAB
  0
TABLE
  2
VIEW
  5
6
330
0
100
AcDbSymbolTable
 70
     0
  0
ENDTAB
  0
TABLE
  2
UCS
  5
7
330
0
100
AcDbSymbolTable
 70
     0
  0
ENDTAB
  0
TABLE
  2
APPID
  5
9
330
0
100
AcDbSymbolTable
 70
     1
  0
APPID
  5
12
330
9
100
AcDbSymbolTableRecord
100
AcDbRegAppTableRecord
  2
ACAD
 70
     0
  0
ENDTAB
  0
TABLE
  2
DIMSTYLE
  5
A
330
0
100
AcDbSymbolTable
 70
     5
100
AcDbDimStyleTable
  0
DIMSTYLE
105
27
330
A
100
AcDbSymbolTableRecord
100
AcDbDimStyleTableRecord
  2
Standard
 70
     0
178
     0
340
11
  0
DIMSTYLE
105
1AE
102
{ACAD_REACTORS
330
1AF
102
}
330
A
100
AcDbSymbolTableRecord
100
AcDbDimStyleTableRecord
  2
ME10_DIM_10
 70
     0
 41
3.5
 42
0.0
 44
1.5
 73
     0
 74
     0
 77
     1
 78
     8
140
3.5
147
1.5
172
     1
173
     1
174
     1
175
     1
176
     2
177
     2
178
     3
340
141
  0
DIMSTYLE
105
32C
102
{ACAD_REACTORS
330
32D
102
}
330
A
100
AcDbSymbolTableRecord
100
AcDbDimStyleTableRecord
  2
ME10_DIM_11
 70
     0
 41
3.5
 42
0.0
 44
1.5
 73
     0
 74
     0
 77
     1
 78
     8
140
3.5
147
1.5
172
     1
173
     1
174
     1
175
     1
176
     2
177
     2
271
     2
178
     3
271
     2
340
141
  0
DIMSTYLE
105
337
102
{ACAD_REACTORS
330
338
102
}
330
A
100
AcDbSymbolTableRecord
100
AcDbDimStyleTableRecord
  2
ME10_DIM_12
 70
     0
 41
3.5
 42
0.0
 44
1.5
 73
     0
 74
     0
 77
     1
 78
     8
140
3.5
147
1.5
172
     1
173
     1
174
     1
175
     1
176
     2
177
     2
271
     2
178
     3
271
     2
340
141
  0
DIMSTYLE
105
342
102
{ACAD_REACTORS
330
343
102
}
330
A
100
AcDbSymbolTableRecord
100
AcDbDimStyleTableRecord
  2
ME10_DIM_13
 70
     0
 41
3.5
 42
0.0
 44
1.5
 73
     0
 74
     0
 77
     1
 78
     8
140
3.5
147
1.5
172
     1
173
     1
174
     1
175
     1
176
     2
177
     2
178
     3
340
141
  0
ENDTAB
  0
TABLE
  2
BLOCK_RECORD
  5
1
330
0
100
AcDbSymbolTable
 70
    21
  0
BLOCK_RECORD
  5
1F
330
1
100
AcDbSymbolTableRecord
100
AcDbBlockTableRecord
  2
*Model_Space
340
22
  0
BLOCK_RECORD
  5
1B
330
1
100
AcDbSymbolTableRecord
100
AcDbBlockTableRecord
  2
*Paper_Space
340
1E
  0
BLOCK_RECORD
  5
23
330
1
100
AcDbSymbolTableRecord
100
AcDbBlockTableRecord
  2
*Paper_Space0
340
26
  0
BLOCK_RECORD
  5
47
330
1
100
AcDbSymbolTableRecord
100
AcDbBlockTableRecord
  2
PP_H_2_5_1_GNYE-select__1
340
0
102
{BLKREFS
331
4B
102
}
  0
BLOCK_RECORD
  5
4A
330
1
100
AcDbSymbolTableRecord
100
AcDbBlockTableRecord
  2
Allg1
340
0
102
{BLKREFS
331
7D
102
}
  0
BLOCK_RECORD
  5
4E
330
1
100
AcDbSymbolTableRecord
100
AcDbBlockTableRecord
  2
PP_H_2_5_1_GNYE-select__2
340
0
102
{BLKREFS
331
52
102
}
  0
BLOCK_RECORD
  5
51
330
1
100
AcDbSymbolTableRecord
100
AcDbBlockTableRecord
  2
Drfsicht1
340
0
102
{BLKREFS
331
7E
102
}
  0
BLOCK_RECORD
  5
55
330
1
100
AcDbSymbolTableRecord
100
AcDbBlockTableRecord
  2
PP_H_2_5_1_GNYE-select__3
340
0
102
{BLKREFS
331
59
102
}
  0
BLOCK_RECORD
  5
58
330
1
100
AcDbSymbolTableRecord
100
AcDbBlockTableRecord
  2
Rckans1
340
0
102
{BLKREFS
331
7F
102
}
  0
BLOCK_RECORD
  5
5C
330
1
100
AcDbSymbolTableRecord
100
AcDbBlockTableRecord
  2
PP_H_2_5_1_GNYE-select__4
340
0
102
{BLKREFS
331
60
102
}
  0
BLOCK_RECORD
  5
5F
330
1
100
AcDbSymbolTableRecord
100
AcDbBlockTableRecord
  2
SA_Links1
340
0
102
{BLKREFS
331
80
102
}
  0
BLOCK_RECORD
  5
63
330
1
100
AcDbSymbolTableRecord
100
AcDbBlockTableRecord
  2
PP_H_2_5_1_GNYE-select__5
340
0
102
{BLKREFS
331
67
102
}
  0
BLOCK_RECORD
  5
66
330
1
100
AcDbSymbolTableRecord
100
AcDbBlockTableRecord
  2
SA_Rechts1
340
0
102
{BLKREFS
331
81
102
}
  0
BLOCK_RECORD
  5
6A
330
1
100
AcDbSymbolTableRecord
100
AcDbBlockTableRecord
  2
PP_H_2_5_1_GNYE-select__6
340
0
102
{BLKREFS
331
6E
102
}
  0
BLOCK_RECORD
  5
6D
330
1
100
AcDbSymbolTableRecord
100
AcDbBlockTableRecord
  2
Vordans1
340
0
102
{BLKREFS
331
82
102
}
  0
BLOCK_RECORD
  5
71
330
1
100
AcDbSymbolTableRecord
100
AcDbBlockTableRecord
  2
_rahmen
340
0
102
{BLKREFS
331
78
102
}
  0
BLOCK_RECORD
  5
74
330
1
100
AcDbSymbolTableRecord
100
AcDbBlockTableRecord
  2
_punkt
340
0
102
{BLKREFS
331
79
102
}
  0
BLOCK_RECORD
  5
77
330
1
100
AcDbSymbolTableRecord
100
AcDbBlockTableRecord
  2
A4I_CS
340
0
102
{BLKREFS
331
83
102
}
  0
BLOCK_RECORD
  5
7C
330
1
100
AcDbSymbolTableRecord
100
AcDbBlockTableRecord
  2
1
340
0
102
{BLKREFS
331
86
102
}
  0
BLOCK_RECORD
  5
1A3
330
1
100
AcDbSymbolTableRecord
100
AcDbBlockTableRecord
  2
*D17
340
0
  0
BLOCK_RECORD
  5
323
330
1
100
AcDbSymbolTableRecord
100
AcDbBlockTableRecord
  2
*D18
340
0
  0
BLOCK_RECORD
  5
32E
330
1
100
AcDbSymbolTableRecord
100
AcDbBlockTableRecord
  2
*D19
340
0
  0
BLOCK_RECORD
  5
339
330
1
100
AcDbSymbolTableRecord
100
AcDbBlockTableRecord
  2
*D20
340
0
  0
ENDTAB
  0
ENDSEC
  0
SECTION
  2
BLOCKS
  0
BLOCK
  5
20
330
1F
100
AcDbEntity
  8
0
100
AcDbBlockBegin
  2
*Model_Space
 70
     0
 10
0.0
 20
0.0
 30
0.0
  3
*Model_Space
  1

  0
ENDBLK
  5
21
330
1F
100
AcDbEntity
  8
0
100
AcDbBlockEnd
  0
BLOCK
  5
1C
330
1B
100
AcDbEntity
 67
     1
  8
0
100
AcDbBlockBegin
  2
*Paper_Space
 70
     0
 10
0.0
 20
0.0
 30
0.0
  3
*Paper_Space
  1

  0
ENDBLK
  5
1D
330
1B
100
AcDbEntity
 67
     1
  8
0
100
AcDbBlockEnd
  0
BLOCK
  5
24
330
23
100
AcDbEntity
  8
0
100
AcDbBlockBegin
  2
*Paper_Space0
 70
     0
 10
0.0
 20
0.0
 30
0.0
  3
*Paper_Space0
  1

  0
ENDBLK
  5
25
330
23
100
AcDbEntity
  8
0
100
AcDbBlockEnd
  0
BLOCK
  5
48
330
47
100
AcDbEntity
  8
0
100
AcDbBlockBegin
  2
PP_H_2_5_1_GNYE-select__1
 70
     0
 10
-10.08579947450122
 20
59.83780941442545
 30
0.0
  3
PP_H_2_5_1_GNYE-select__1
  1

  0
LINE
  5
87
330
47
100
AcDbEntity
  8
0
  6
Continuous
 62
     7
100
AcDbLine
 10
-6.78150548041388
 20
62.9118475200238
 30
0.0
 11
-6.34849277853132
 21
61.48780941443116
 31
0.0
  0
LINE
  5
88
330
47
100
AcDbEntity
  8
0
  6
Continuous
 62
     7
100
AcDbLine
 10
-0.24301368188151
 20
69.006015149551
 30
0.0
 11
-0.15641114150686
 21
69.47216256232878
 31
0.0
  0
LINE
  5
89
330
47
100
AcDbEntity
  8
0
  6
Continuous
 62
     7
100
AcDbLine
 10
-0.15641114152839
 20
72.01210406277588
 30
0.0
 11
-0.19971241172499
 21
72.27017776919496
 31
0.0
  0
LINE
  5
8A
330
47
100
AcDbEntity
  8
0
  6
Continuous
 62
     7
100
AcDbLine
 10
-0.15641114150686
 20
69.47216256232878
 30
0.0
 11
-0.15641114152839
 21
72.01210406277588
 31
0.0
  0
LINE
  5
8B
330
47
100
AcDbEntity
  8
0
  6
Continuous
 62
     7
100
AcDbLine
 10
-0.15641114152839
 20
72.01210406277588
 30
0.0
 11
0.78126192677131
 21
72.82415276039299
 31
0.0
  0
LINE
  5
8C
330
47
100
AcDbEntity
  8
0
  6
Continuous
 62
     7
100
AcDbLine
 10
1.96858885843597
 20
72.48140099859218
 30
0.0
 11
1.96858885844588
 21
71.31246654541566
 31
0.0
  0
LINE
  5
8D
330
47
100
AcDbEntity
  8
0
  6
Continuous
 62
     7
100
AcDbLine
 10
1.96858885844588
 20
71.31246654541566
 30
0.0
 11
1.88198631807155
 21
70.84631913263895
 31
0.0
  0
LINE
  5
8E
330
47
100
AcDbEntity
  8
0
  6
Continuous
 62
     7
100
AcDbLine
 10
1.88198631808171
 20
69.60541573768032
 30
0.0
 11
1.92528758833367
 21
69.3473420309303
 31
0.0
  0
LINE
  5
8F
330
47
100
AcDbEntity
  8
0
  6
Continuous
 62
     7
100
AcDbLine
 10
1.88198631807155
 20
70.84631913263895
 30
0.0
 11
1.88198631808171
 21
69.60541573768032
 31
0.0
  0
LINE
  5
90
330
47
100
AcDbEntity
  8
0
  6
Continuous
 62
     7
100
AcDbLine
 10
-0.19971241172499
 20
72.27017776919496
 30
0.0
 11
-0.19971241172387
 21
72.31347903941435
 31
0.0
  0
LINE
  5
91
330
47
100
AcDbEntity
  8
0
  6
Continuous
 62
     7
100
AcDbLine
 10
-0.19971241172387
 20
72.31347903941435
 30
0.0
 11
-0.29971241160273
 21
72.4742389896757
 31
0.0
  0
LINE
  5
92
330
47
100
AcDbEntity
  8
0
  6
Continuous
 62
     7
100
AcDbLine
 10
-0.19971241172499
 20
72.27017776919496
 30
0.0
 11
0.52528758832003
 21
72.89804618699705
 31
0.0
  0
LINE
  5
93
330
47
100
AcDbEntity
  8
0
  6
Continuous
 62
     7
100
AcDbLine
 10
-0.29971241164026
 20
73.13620317302247
 30
0.0
 11
-0.29971241160273
 21
72.4742389896757
 31
0.0
  0
LINE
  5
94
330
47
100
AcDbEntity
  8
0
  6
Continuous
 62
     7
100
AcDbLine
 10
3.38089555439652
 20
72.07370317305319
 30
0.0
 11
-0.29971241164026
 21
73.13620317302247
 31
0.0
  0
LINE
  5
95
330
47
100
AcDbEntity
  8
0
  6
Continuous
 62
     7
100
AcDbLine
 10
-0.15641114150686
 20
69.47216256232878
 30
0.0
 11
1.96858885844588
 21
71.31246654541566
 31
0.0
  0
LINE
  5
96
330
47
100
AcDbEntity
  8
0
  6
Continuous
 62
     7
100
AcDbLine
 10
-0.24301368188151
 20
69.006015149551
 30
0.0
 11
1.88198631807155
 21
70.84631913263895
 31
0.0
  0
LINE
  5
97
330
47
100
AcDbEntity
  8
0
  6
Continuous
 62
     7
100
AcDbLine
 10
1.92528758838689
 20
62.85215150314501
 30
0.0
 11
1.49227488650777
 21
61.67811339748474
 31
0.0
  0
LINE
  5
98
330
47
100
AcDbEntity
  8
0
  6
Continuous
 62
     7
100
AcDbLine
 10
-0.24301368187133
 20
67.76511175462221
 30
0.0
 11
-0.24301368188151
 21
69.006015149551
 31
0.0
  0
LINE
  5
99
330
47
100
AcDbEntity
  8
0
  6
Continuous
 62
     7
100
AcDbLine
 10
-0.19971241161922
 20
67.50703804787231
 30
0.0
 11
-0.24301368187133
 21
67.76511175462221
 31
0.0
  0
LINE
  5
9A
330
47
100
AcDbEntity
  8
0
  6
Continuous
 62
     7
100
AcDbLine
 10
1.92528758833367
 20
69.3473420309303
 30
0.0
 11
1.92528758838689
 21
62.85215150314501
 31
0.0
  0
LINE
  5
9B
330
47
100
AcDbEntity
  8
0
  6
Continuous
 62
     7
100
AcDbLine
 10
-0.19971241161922
 20
67.50703804787231
 30
0.0
 11
1.92528758833367
 21
69.3473420309303
 31
0.0
  0
LINE
  5
9C
330
47
100
AcDbEntity
  8
0
  6
Continuous
 62
     7
100
AcDbLine
 10
-0.24301368187133
 20
67.76511175462221
 30
0.0
 11
1.88198631808171
 21
69.60541573768032
 31
0.0
  0
LINE
  5
9D
330
47
100
AcDbEntity
  8
0
  6
Continuous
 62
     7
100
AcDbLine
 10
-6.34849277853132
 20
61.48780941443116
 30
0.0
 11
-0.63272511344663
 21
59.83780941442545
 31
0.0
  0
LINE
  5
9E
330
47
100
AcDbEntity
  8
0
  6
Continuous
 62
     7
100
AcDbLine
 10
-6.55587034204861
 20
95.50641096619194
 30
0.0
 11
-6.66499912951642
 21
95.4119026639707
 31
0.0
  0
LINE
  5
9F
330
47
100
AcDbEntity
  8
0
  6
Continuous
 62
     7
100
AcDbLine
 10
-9.64111764138777
 20
90.54370802402282
 30
0.0
 11
-9.66985751798904
 21
90.31793700042954
 31
0.0
  0
LINE
  5
A0
330
47
100
AcDbEntity
  8
0
  6
Continuous
 62
     7
100
AcDbLine
 10
-8.26714620448669
 20
91.73360219249011
 30
0.0
 11
-9.64111764138777
 21
90.54370802402282
 31
0.0
  0
LINE
  5
A1
330
47
100
AcDbEntity
  8
0
  6
Continuous
 62
     7
100
AcDbLine
 10
-9.66985751798904
 20
90.31793700042954
 30
0.0
 11
-8.26714620448583
 21
91.53272063213669
 31
0.0
  0
LINE
  5
A2
330
47
100
AcDbEntity
  8
0
  6
Continuous
 62
     7
100
AcDbLine
 10
-9.33597275419778
 20
84.75141104291632
 30
0.0
 11
-9.54020347005984
 21
84.57454205474122
 31
0.0
  0
LINE
  5
A3
330
47
100
AcDbEntity
  8
0
  6
Continuous
 62
     7
100
AcDbLine
 10
-9.54020347005984
 20
84.57454205474122
 30
0.0
 11
-9.5402034700935
 21
84.81036737231494
 31
0.0
  0
LINE
  5
A4
330
47
100
AcDbEntity
  8
0
  6
Continuous
 62
     7
100
AcDbLine
 10
-9.5402034700935
 20
84.81036737231494
 30
0.0
 11
-8.61355628803876
 21
84.54286737231779
 31
0.0
  0
LINE
  5
A5
330
47
100
AcDbEntity
  8
0
  6
Continuous
 62
     7
100
AcDbLine
 10
-8.6135562880166
 20
79.06525669339736
 30
0.0
 11
-8.61355628803876
 21
84.54286737231779
 31
0.0
  0
LINE
  5
A6
330
47
100
AcDbEntity
  8
0
  6
Continuous
 62
     7
100
AcDbLine
 10
-9.03091164403877
 20
95.33618701274739
 30
0.0
 11
-9.45418846440778
 21
95.77733846810771
 31
0.0
  0
LINE
  5
A7
330
47
100
AcDbEntity
  8
0
  6
Continuous
 62
     7
100
AcDbLine
 10
-9.40019594257112
 20
96.2014859721227
 30
0.0
 11
-6.66499912951642
 21
95.4119026639707
 31
0.0
  0
LINE
  5
A8
330
47
100
AcDbEntity
  8
0
  6
Continuous
 62
     7
100
AcDbLine
 10
-9.54020347006878
 20
79.33275669339348
 30
0.0
 11
-9.54020347006921
 21
79.56858201094438
 31
0.0
  0
LINE
  5
A9
330
47
100
AcDbEntity
  8
0
  6
Continuous
 62
     7
100
AcDbLine
 10
-9.54020347006921
 20
79.56858201094438
 30
0.0
 11
-10.08579947445399
 21
79.41108201094477
 31
0.0
  0
LINE
  5
AA
330
47
100
AcDbEntity
  8
0
  6
Continuous
 62
     7
100
AcDbLine
 10
-9.54020347006878
 20
79.33275669339348
 30
0.0
 11
-8.61355628802094
 21
80.13525669341698
 31
0.0
  0
LINE
  5
AB
330
47
100
AcDbEntity
  8
0
  6
Continuous
 62
     7
100
AcDbLine
 10
-8.61355628802188
 20
80.37108201096741
 30
0.0
 11
-9.54020347006921
 21
79.56858201094438
 31
0.0
  0
LINE
  5
AC
330
47
100
AcDbEntity
  8
0
  6
Continuous
 62
     7
100
AcDbLine
 10
-9.66985751798904
 20
90.31793700042954
 30
0.0
 11
-8.26714620447809
 21
89.7407778305691
 31
0.0
  0
LINE
  5
AD
330
47
100
AcDbEntity
  8
0
  6
Continuous
 62
     7
100
AcDbLine
 10
-8.26714620450193
 20
95.25952464217877
 30
0.0
 11
-8.26714620447809
 21
89.7407778305691
 31
0.0
  0
LINE
  5
AE
330
47
100
AcDbEntity
  8
0
  6
Continuous
 62
     7
100
AcDbLine
 10
-8.6135562880166
 20
79.06525669339736
 30
0.0
 11
-9.54020347006878
 21
79.33275669339348
 31
0.0
  0
LINE
  5
AF
330
47
100
AcDbEntity
  8
0
  6
Continuous
 62
     7
100
AcDbLine
 10
-9.00217176746698
 20
95.56195803646379
 30
0.0
 11
-9.03091164403877
 21
95.33618701274739
 31
0.0
  0
LINE
  5
B0
330
47
100
AcDbEntity
  8
0
  6
Continuous
 62
     7
100
AcDbLine
 10
-8.26714620450193
 20
95.25952464217877
 30
0.0
 11
-9.00217176746698
 21
95.56195803646379
 31
0.0
  0
LINE
  5
B1
330
47
100
AcDbEntity
  8
0
  6
Continuous
 62
     7
100
AcDbLine
 10
-10.08579947445399
 20
79.41108201094477
 30
0.0
 11
-10.08579947443928
 21
75.961203172987
 31
0.0
  0
LINE
  5
B2
330
47
100
AcDbEntity
  8
0
  6
Continuous
 62
     7
100
AcDbLine
 10
-6.82519594538564
 20
98.43150138449907
 30
0.0
 11
-9.40019594257112
 21
96.2014859721227
 31
0.0
  0
LINE
  5
B3
330
47
100
AcDbEntity
  8
0
  6
Continuous
 62
     7
100
AcDbLine
 10
2.41381346722383
 20
95.62832296757644
 30
0.0
 11
2.86381329324715
 21
96.01803424861907
 31
0.0
  0
LINE
  5
B4
330
47
100
AcDbEntity
  8
0
  6
Continuous
 62
     7
100
AcDbLine
 10
6.09560700227662
 20
87.06126981947098
 30
0.0
 11
4.07060700246212
 21
85.30756837691644
 31
0.0
  0
LINE
  5
B5
330
47
100
AcDbEntity
  8
0
  6
Continuous
 62
     7
100
AcDbLine
 10
4.07060700249979
 20
77.14292188874508
 30
0.0
 11
4.07060700246212
 21
85.30756837691644
 31
0.0
  0
LINE
  5
B6
330
47
100
AcDbEntity
  8
0
  6
Continuous
 62
     7
100
AcDbLine
 10
6.09560700232152
 20
78.89662333131166
 30
0.0
 11
6.09560700227662
 21
87.06126981947098
 31
0.0
  0
LINE
  5
B7
330
47
100
AcDbEntity
  8
0
  6
Continuous
 62
     7
100
AcDbLine
 10
3.77060700250384
 20
76.88311426760474
 30
0.0
 11
3.7706070024571
 21
86.34600165877181
 31
0.0
  0
LINE
  5
B8
330
47
100
AcDbEntity
  8
0
  6
Continuous
 62
     7
100
AcDbLine
 10
5.70960056613657
 20
77.7102506350739
 30
0.0
 11
4.75326761008456
 21
84.22516764787068
 31
0.0
  0
LINE
  5
B9
330
47
100
AcDbEntity
  8
0
  6
Continuous
 62
     7
100
AcDbLine
 10
3.66092838937256
 20
96.24879283778077
 30
0.0
 11
5.25511613869144
 21
95.78859047467773
 31
0.0
  0
LINE
  5
BA
330
47
100
AcDbEntity
  8
0
  6
Continuous
 62
     7
100
AcDbLine
 10
1.08592826030385
 20
94.01877742786395
 30
0.0
 11
3.66092838937256
 21
96.24879283778077
 31
0.0
  0
LINE
  5
BB
330
47
100
AcDbEntity
  8
0
  6
Continuous
 62
     7
100
AcDbLine
 10
-10.08579947450122
 20
90.48332037264339
 30
0.0
 11
-9.64111764138777
 21
90.54370802402282
 31
0.0
  0
LINE
  5
BC
330
47
100
AcDbEntity
  8
0
  6
Continuous
 62
     7
100
AcDbLine
 10
3.05453726937227
 20
86.63479859613575
 30
0.0
 11
3.02579739276253
 21
86.87716259527602
 31
0.0
  0
LINE
  5
BD
330
47
100
AcDbEntity
  8
0
  6
Continuous
 62
     7
100
AcDbLine
 10
1.60554377802541
 20
86.87517295768649
 30
0.0
 11
3.05453726937227
 21
86.63479859613575
 31
0.0
  0
LINE
  5
BE
330
47
100
AcDbEntity
  8
0
  6
Continuous
 62
     7
100
AcDbLine
 10
-0.199712411566
 20
61.01184752008702
 30
0.0
 11
-0.19971241161922
 21
67.50703804787231
 31
0.0
  0
LINE
  5
BF
330
47
100
AcDbEntity
  8
0
  6
Continuous
 62
     7
100
AcDbLine
 10
-0.63272511344663
 20
59.83780941442545
 30
0.0
 11
-0.199712411566
 21
61.01184752008702
 31
0.0
  0
LINE
  5
C0
330
47
100
AcDbEntity
  8
0
  6
Continuous
 62
     7
100
AcDbLine
 10
3.38089555440674
 20
75.63302334179001
 30
0.0
 11
3.38089555439652
 21
72.07370317305319
 31
0.0
  0
LINE
  5
C1
330
47
100
AcDbEntity
  8
0
  6
Continuous
 62
     7
100
AcDbLine
 10
1.92528758838689
 20
62.85215150314501
 30
0.0
 11
-0.199712411566
 21
61.01184752008702
 31
0.0
  0
LINE
  5
C2
330
47
100
AcDbEntity
  8
0
  6
Continuous
 62
     7
100
AcDbLine
 10
1.49227488650777
 20
61.67811339748474
 30
0.0
 11
-0.63272511344663
 21
59.83780941442545
 31
0.0
  0
LINE
  5
C3
330
47
100
AcDbEntity
  8
0
  6
Continuous
 62
     7
100
AcDbLine
 10
0.53674132013669
 20
96.30629315346589
 30
0.0
 11
3.66092838937256
 21
96.24879283778077
 31
0.0
  0
LINE
  5
C4
330
47
100
AcDbEntity
  8
0
  6
Continuous
 62
     7
100
AcDbLine
 10
5.25511613869144
 20
95.78859047467773
 30
0.0
 11
5.41400114654976
 21
94.44870977733497
 31
0.0
  0
LINE
  5
C5
330
47
100
AcDbEntity
  8
0
  6
Continuous
 62
     7
100
AcDbLine
 10
5.25511613869144
 20
95.78859047467773
 30
0.0
 11
2.680116141548
 21
93.55857506233777
 31
0.0
  0
LINE
  5
C6
330
47
100
AcDbEntity
  8
0
  6
Continuous
 62
     7
100
AcDbLine
 10
5.41400114654976
 20
94.44870977733497
 30
0.0
 11
2.83900114940693
 21
92.21869436499554
 31
0.0
  0
LINE
  5
C7
330
47
100
AcDbEntity
  8
0
  6
Continuous
 62
     7
100
AcDbLine
 10
1.95770481801995
 20
95.489064300737
 30
0.0
 11
1.47817234565621
 21
95.6274934017375
 31
0.0
  0
LINE
  5
C8
330
47
100
AcDbEntity
  8
0
  6
Continuous
 62
     7
100
AcDbLine
 10
2.86381329324715
 20
96.01803424861907
 30
0.0
 11
0.25924132275612
 21
96.06597110617678
 31
0.0
  0
LINE
  5
C9
330
47
100
AcDbEntity
  8
0
  6
Continuous
 62
     7
100
AcDbLine
 10
4.75326761008456
 20
84.22516764787068
 30
0.0
 11
4.75326761007055
 21
85.87607782350776
 31
0.0
  0
LINE
  5
CA
330
47
100
AcDbEntity
  8
0
  6
Continuous
 62
     7
100
AcDbLine
 10
6.03322238956665
 20
86.98455117828165
 30
0.0
 11
4.07060700246507
 21
85.28487639513982
 31
0.0
  0
LINE
  5
CB
330
47
100
AcDbEntity
  8
0
  6
Continuous
 62
     7
100
AcDbLine
 10
4.75326761008456
 20
84.22516764787068
 30
0.0
 11
4.0706070024721
 21
83.63396621949671
 31
0.0
  0
LINE
  5
CC
330
47
100
AcDbEntity
  8
0
  6
Continuous
 62
     7
100
AcDbLine
 10
4.18054377517222
 20
89.10518837002937
 30
0.0
 11
5.37054964716032
 21
88.90777761322806
 31
0.0
  0
LINE
  5
CD
330
47
100
AcDbEntity
  8
0
  6
Continuous
 62
     7
100
AcDbLine
 10
5.60079738990441
 20
89.10717800761462
 30
0.0
 11
6.34560699959638
 21
88.57601707110817
 31
0.0
  0
LINE
  5
CE
330
47
100
AcDbEntity
  8
0
  6
Continuous
 62
     7
100
AcDbLine
 10
6.34560699959638
 20
88.57601707110817
 30
0.0
 11
3.7706070024571
 21
86.34600165877181
 31
0.0
  0
LINE
  5
CF
330
47
100
AcDbEntity
  8
0
  6
Continuous
 62
     7
100
AcDbLine
 10
6.34560699959638
 20
88.57601707110817
 30
0.0
 11
6.34560699963623
 21
79.11312967993891
 31
0.0
  0
LINE
  5
D0
330
47
100
AcDbEntity
  8
0
  6
Continuous
 62
     7
100
AcDbLine
 10
4.18054377515411
 20
93.38050435918818
 30
0.0
 11
4.18054377517222
 21
89.10518837002937
 31
0.0
  0
LINE
  5
D1
330
47
100
AcDbEntity
  8
0
  6
Continuous
 62
     7
100
AcDbLine
 10
3.02579739276253
 20
86.87716259527602
 30
0.0
 11
3.7706070024571
 21
86.34600165877181
 31
0.0
  0
LINE
  5
D2
330
47
100
AcDbEntity
  8
0
  6
Continuous
 62
     7
100
AcDbLine
 10
2.680116141548
 20
93.55857506233777
 30
0.0
 11
2.83900114940693
 21
92.21869436499554
 31
0.0
  0
LINE
  5
D3
330
47
100
AcDbEntity
  8
0
  6
Continuous
 62
     7
100
AcDbLine
 10
5.60079738990441
 20
89.10717800761462
 30
0.0
 11
3.02579739276253
 21
86.87716259527602
 31
0.0
  0
LINE
  5
D4
330
47
100
AcDbEntity
  8
0
  6
Continuous
 62
     7
100
AcDbLine
 10
1.60554377802541
 20
86.87517295768649
 30
0.0
 11
4.18054377517222
 21
89.10518837002937
 31
0.0
  0
LINE
  5
D5
330
47
100
AcDbEntity
  8
0
  6
Continuous
 62
     7
100
AcDbLine
 10
-6.98503088423431
 20
68.0657163689422
 30
0.0
 11
-6.78150548045812
 21
68.24197453893345
 31
0.0
  0
LINE
  5
D6
330
47
100
AcDbEntity
  8
0
  6
Continuous
 62
     7
100
AcDbLine
 10
-6.98503088429243
 20
75.06608838288962
 30
0.0
 11
-6.98503088423431
 21
68.0657163689422
 31
0.0
  0
LINE
  5
D7
330
47
100
AcDbEntity
  8
0
  6
Continuous
 62
     7
100
AcDbLine
 10
-6.88150548035639
 20
74.37423898960776
 30
0.0
 11
-6.78150548050702
 21
74.21347903938991
 31
0.0
  0
LINE
  5
D8
330
47
100
AcDbEntity
  8
0
  6
Continuous
 62
     7
100
AcDbLine
 10
-6.82480675064608
 20
73.93710406280798
 30
0.0
 11
-6.82480675062455
 21
71.39716256232747
 31
0.0
  0
LINE
  5
D9
330
47
100
AcDbEntity
  8
0
  6
Continuous
 62
     7
100
AcDbLine
 10
-6.78150548050702
 20
74.21347903938991
 30
0.0
 11
-6.78150548050815
 21
74.17017776914112
 31
0.0
  0
LINE
  5
DA
330
47
100
AcDbEntity
  8
0
  6
Continuous
 62
     7
100
AcDbLine
 10
-6.78150548050815
 20
74.17017776914112
 30
0.0
 11
-6.82480675064608
 21
73.93710406280798
 31
0.0
  0
LINE
  5
DB
330
47
100
AcDbEntity
  8
0
  6
Continuous
 62
     7
100
AcDbLine
 10
-6.82480675062455
 20
71.39716256232747
 30
0.0
 11
-6.78150548048217
 21
71.1390888559139
 31
0.0
  0
LINE
  5
DC
330
47
100
AcDbEntity
  8
0
  6
Continuous
 62
     7
100
AcDbLine
 10
-6.66499913042446
 20
90.73536548379568
 30
0.0
 11
-6.66499912951642
 21
95.4119026639707
 31
0.0
  0
LINE
  5
DD
330
47
100
AcDbEntity
  8
0
  6
Continuous
 62
     7
100
AcDbLine
 10
-5.27935848446015
 20
89.46934007799268
 30
0.0
 11
-5.79897372670999
 21
89.6193400778547
 31
0.0
  0
LINE
  5
DE
330
47
100
AcDbEntity
  8
0
  6
Continuous
 62
     7
100
AcDbLine
 10
-4.41333307966995
 20
94.7619026639686
 30
0.0
 11
-4.41333307880358
 21
90.08536548321024
 31
0.0
  0
LINE
  5
DF
330
47
100
AcDbEntity
  8
0
  6
Continuous
 62
     7
100
AcDbLine
 10
-6.88150548035639
 20
74.37423898960776
 30
0.0
 11
-6.88150548042343
 21
75.03620317299803
 31
0.0
  0
LINE
  5
E0
330
47
100
AcDbEntity
  8
0
  6
Continuous
 62
     7
100
AcDbLine
 10
-2.87935848449158
 20
97.09036363218681
 30
0.0
 11
-3.39897372676465
 21
97.24036363216243
 31
0.0
  0
LINE
  5
E1
330
47
100
AcDbEntity
  8
0
  6
Continuous
 62
     2
100
AcDbLine
 10
-2.87935848449158
 20
97.09036363218681
 30
0.0
 11
-2.87935848448639
 21
95.01190266303611
 31
0.0
  0
LINE
  5
E2
330
47
100
AcDbEntity
  8
0
  6
Continuous
 62
     2
100
AcDbLine
 10
-3.39897372676465
 20
97.24036363216243
 30
0.0
 11
-3.39897372676565
 21
94.90036421100984
 31
0.0
  0
LINE
  5
E3
330
47
100
AcDbEntity
  8
0
  6
Continuous
 62
     7
100
AcDbLine
 10
-4.69740294095678
 20
89.53853220822806
 30
0.0
 11
-4.69740294096538
 21
90.28134106464384
 31
0.0
  0
LINE
  5
E4
330
47
100
AcDbEntity
  8
0
  6
Continuous
 62
     7
100
AcDbLine
 10
-4.98159487859507
 20
90.89786750881119
 30
0.0
 11
-4.69740294096538
 21
90.28134106464384
 31
0.0
  0
LINE
  5
E5
330
47
100
AcDbEntity
  8
0
  6
Continuous
 62
     7
100
AcDbLine
 10
-5.54610530918455
 20
89.54634325352785
 30
0.0
 11
-4.69740294096538
 21
90.28134106464384
 31
0.0
  0
LINE
  5
E6
330
47
100
AcDbEntity
  8
0
  6
Continuous
 62
     7
100
AcDbLine
 10
-6.55587034204861
 20
95.50641096619194
 30
0.0
 11
-6.55587034271083
 21
90.8298737862332
 31
0.0
  0
LINE
  5
E7
330
47
100
AcDbEntity
  8
0
  6
Continuous
 62
     7
100
AcDbLine
 10
-4.41333307966995
 20
94.7619026639686
 30
0.0
 11
-4.30420429219863
 21
94.85641096619287
 31
0.0
  0
LINE
  5
E8
330
47
100
AcDbEntity
  8
0
  6
Continuous
 62
     2
100
AcDbLine
 10
-6.66499913042446
 20
90.73536548379568
 30
0.0
 11
-6.55587034271083
 21
90.8298737862332
 31
0.0
  0
LINE
  5
E9
330
47
100
AcDbEntity
  8
0
  6
Continuous
 62
     7
100
AcDbLine
 10
-4.41333307969396
 20
90.73382445752723
 30
0.0
 11
-4.98159487859507
 21
90.89786750881119
 31
0.0
  0
LINE
  5
EA
330
47
100
AcDbEntity
  8
0
  6
Continuous
 62
     7
100
AcDbLine
 10
-4.98159487859507
 20
90.89786750881119
 30
0.0
 11
-4.99797204624868
 21
91.01692722180763
 31
0.0
  0
LINE
  5
EB
330
47
100
AcDbEntity
  8
0
  6
Continuous
 62
     7
100
AcDbLine
 10
0.2936095911607
 20
95.05522180245796
 30
0.0
 11
0.29360959115788
 21
95.40163196396952
 31
0.0
  0
LINE
  5
EC
330
47
100
AcDbEntity
  8
0
  6
Continuous
 62
     7
100
AcDbLine
 10
0.2936095911607
 20
95.05522180245796
 30
0.0
 11
0.78535202263001
 21
95.48108324022428
 31
0.0
  0
LINE
  5
ED
330
47
100
AcDbEntity
  8
0
  6
Continuous
 62
     7
100
AcDbLine
 10
-0.4270835424751
 20
96.2640960290184
 30
0.0
 11
-2.3270835424574
 21
94.61864776181541
 31
0.0
  0
LINE
  5
EE
330
47
100
AcDbEntity
  8
0
  6
Continuous
 62
     7
100
AcDbLine
 10
-0.42708354247409
 20
96.17749340166876
 30
0.0
 11
-2.25208346712269
 21
94.59699710497341
 31
0.0
  0
LINE
  5
EF
330
47
100
AcDbEntity
  8
0
  6
Continuous
 62
     7
100
AcDbLine
 10
1.26740283042256
 20
94.9418781399312
 30
0.0
 11
1.26740283042516
 21
94.63550249941106
 31
0.0
  0
LINE
  5
F0
330
47
100
AcDbEntity
  8
0
  6
Continuous
 62
     7
100
AcDbLine
 10
0.98642991418009
 20
94.85522180245128
 30
0.0
 11
0.98642991417726
 21
95.20163196396284
 31
0.0
  0
LINE
  5
F1
330
47
100
AcDbEntity
  8
0
  6
Continuous
 62
     7
100
AcDbLine
 10
1.41381299194123
 20
94.76229741866025
 30
0.0
 11
1.26740283042256
 21
94.9418781399312
 31
0.0
  0
LINE
  5
F2
330
47
100
AcDbEntity
  8
0
  6
Continuous
 62
     7
100
AcDbLine
 10
0.96381299194947
 20
94.37258598695183
 30
0.0
 11
1.41381299194123
 21
94.76229741866025
 31
0.0
  0
LINE
  5
F3
330
47
100
AcDbEntity
  8
0
  6
Continuous
 62
     7
100
AcDbLine
 10
1.17817234565052
 20
95.36768578060018
 30
0.0
 11
0.78535202263001
 21
95.48108324022428
 31
0.0
  0
LINE
  5
F4
330
47
100
AcDbEntity
  8
0
  6
Continuous
 62
     7
100
AcDbLine
 10
1.47817234565621
 20
95.6274934017375
 30
0.0
 11
0.98642991417726
 21
95.20163196396284
 31
0.0
  0
LINE
  5
F5
330
47
100
AcDbEntity
  8
0
  6
Continuous
 62
     7
100
AcDbLine
 10
1.86740283042185
 20
95.46149338221176
 30
0.0
 11
2.41381346722383
 21
95.62832296757644
 31
0.0
  0
LINE
  5
F6
330
47
100
AcDbEntity
  8
0
  6
Continuous
 62
     7
100
AcDbLine
 10
1.26740283042256
 20
94.9418781399312
 30
0.0
 11
1.86740283042185
 21
95.46149338221176
 31
0.0
  0
LINE
  5
F7
330
47
100
AcDbEntity
  8
0
  6
Continuous
 62
     7
100
AcDbLine
 10
0.25924132275612
 20
96.06597110617678
 30
0.0
 11
-0.4270835424751
 21
96.2640960290184
 31
0.0
  0
LINE
  5
F8
330
47
100
AcDbEntity
  8
0
  6
Continuous
 62
     7
100
AcDbLine
 10
-0.4270835424751
 20
96.2640960290184
 30
0.0
 11
-0.42708354247409
 21
96.17749340166876
 31
0.0
  0
LINE
  5
F9
330
47
100
AcDbEntity
  8
0
  6
Continuous
 62
     7
100
AcDbLine
 10
0.25924132275612
 20
96.06597110617678
 30
0.0
 11
0.53674132013669
 21
96.30629315346589
 31
0.0
  0
LINE
  5
FA
330
47
100
AcDbEntity
  8
0
  6
Continuous
 62
     7
100
AcDbLine
 10
0.7853520226269
 20
95.82749340173558
 30
0.0
 11
-0.42708354247409
 21
96.17749340166876
 31
0.0
  0
LINE
  5
FB
330
47
100
AcDbEntity
  8
0
  6
Continuous
 62
     7
100
AcDbLine
 10
0.78535202263001
 20
95.48108324022428
 30
0.0
 11
0.7853520226269
 21
95.82749340173558
 31
0.0
  0
LINE
  5
FC
330
47
100
AcDbEntity
  8
0
  6
Continuous
 62
     7
100
AcDbLine
 10
0.29360959115788
 20
95.40163196396952
 30
0.0
 11
0.7853520226269
 21
95.82749340173558
 31
0.0
  0
LINE
  5
FD
330
47
100
AcDbEntity
  8
0
  6
Continuous
 62
     7
100
AcDbLine
 10
-2.03825867711367
 20
94.07627774111339
 30
0.0
 11
-1.64075867721147
 21
94.42052283896359
 31
0.0
  0
LINE
  5
FE
330
47
100
AcDbEntity
  8
0
  6
Continuous
 62
     7
100
AcDbLine
 10
-0.85595636835343
 20
94.40607863971822
 30
0.0
 11
-0.6229055478608
 21
94.60790657063534
 31
0.0
  0
LINE
  5
FF
330
47
100
AcDbEntity
  8
0
  6
Continuous
 62
     7
100
AcDbLine
 10
0.06991477516186
 20
94.40790657063151
 30
0.0
 11
0.0485807180459
 21
94.38943073520352
 31
0.0
  0
LINE
  5
100
330
47
100
AcDbEntity
  8
0
  6
Continuous
 62
     7
100
AcDbLine
 10
-0.62290554785913
 20
94.40178936527607
 30
0.0
 11
-0.6229055478608
 21
94.60790657063534
 31
0.0
  0
LINE
  5
101
330
47
100
AcDbEntity
  8
0
  6
Continuous
 62
     7
100
AcDbLine
 10
-2.3270835424574
 20
94.61864776181541
 30
0.0
 11
-1.64075867721147
 21
94.42052283896359
 31
0.0
  0
LINE
  5
102
330
47
100
AcDbEntity
  8
0
  6
Continuous
 62
     7
100
AcDbLine
 10
-1.64075867721147
 20
94.42052283896359
 30
0.0
 11
0.96381299194947
 21
94.37258598695183
 31
0.0
  0
LINE
  5
103
330
47
100
AcDbEntity
  8
0
  6
Continuous
 62
     7
100
AcDbLine
 10
1.60554377800173
 20
92.39391953673436
 30
0.0
 11
1.60554377802541
 21
86.87517295768649
 31
0.0
  0
LINE
  5
104
330
47
100
AcDbEntity
  8
0
  6
Continuous
 62
     7
100
AcDbLine
 10
1.60554377800173
 20
92.39391953673436
 30
0.0
 11
2.38698445247542
 21
92.26428589494246
 31
0.0
  0
LINE
  5
105
330
47
100
AcDbEntity
  8
0
  6
Continuous
 62
     7
100
AcDbLine
 10
2.41572432908421
 20
92.02192189580443
 30
0.0
 11
2.38698445247542
 21
92.26428589494246
 31
0.0
  0
LINE
  5
106
330
47
100
AcDbEntity
  8
0
  6
Continuous
 62
     7
100
AcDbLine
 10
2.83900114940693
 20
92.21869436499554
 30
0.0
 11
2.41572432908421
 21
92.02192189580443
 31
0.0
  0
LINE
  5
107
330
47
100
AcDbEntity
  8
0
  6
Continuous
 62
     7
100
AcDbLine
 10
2.680116141548
 20
93.55857506233777
 30
0.0
 11
1.08592826030385
 21
94.01877742786395
 31
0.0
  0
LINE
  5
108
330
47
100
AcDbEntity
  8
0
  6
Continuous
 62
     7
100
AcDbLine
 10
-2.03825867711367
 20
94.07627774111339
 30
0.0
 11
1.08592826030385
 21
94.01877742786395
 31
0.0
  0
LINE
  5
109
330
47
100
AcDbEntity
  8
0
  6
Continuous
 62
     7
100
AcDbLine
 10
-4.41333307966995
 20
94.7619026639686
 30
0.0
 11
-2.03825867711367
 21
94.07627774111339
 31
0.0
  0
LINE
  5
10A
330
47
100
AcDbEntity
  8
0
  6
Continuous
 62
     7
100
AcDbLine
 10
6.34560699963623
 20
79.11312967993891
 30
0.0
 11
5.97415730572737
 21
77.98219232410027
 31
0.0
  0
LINE
  5
10B
330
47
100
AcDbEntity
  8
0
  6
Continuous
 62
     7
100
AcDbLine
 10
6.09560700232152
 20
78.89662333131166
 30
0.0
 11
6.34560699963623
 21
79.11312967993891
 31
0.0
  0
LINE
  5
10C
330
47
100
AcDbEntity
  8
0
  6
Continuous
 62
     7
100
AcDbLine
 10
5.72415730841894
 20
77.76568597547744
 30
0.0
 11
6.09560700232152
 21
78.89662333131166
 31
0.0
  0
LINE
  5
10D
330
47
100
AcDbEntity
  8
0
  6
Continuous
 62
     7
100
AcDbLine
 10
5.09967777166911
 20
75.90766050395887
 30
0.0
 11
5.70589555423945
 21
75.12644272142303
 31
0.0
  0
LINE
  5
10E
330
47
100
AcDbEntity
  8
0
  6
Continuous
 62
     2
100
AcDbLine
 10
3.38089555440674
 20
75.63302334179001
 30
0.0
 11
3.68089555440268
 21
75.89283096293035
 31
0.0
  0
LINE
  5
10F
330
47
100
AcDbEntity
  8
0
  6
Continuous
 62
     7
100
AcDbLine
 10
5.09967777166911
 20
75.90766050395887
 30
0.0
 11
3.68089555440132
 21
74.67895906132858
 31
0.0
  0
LINE
  5
110
330
47
100
AcDbEntity
  8
0
  6
Continuous
 62
     7
100
AcDbLine
 10
3.68089555439698
 20
73.37274127879505
 30
0.0
 11
3.68089555440268
 21
75.89283096293035
 31
0.0
  0
LINE
  5
111
330
47
100
AcDbEntity
  8
0
  6
Continuous
 62
     7
100
AcDbLine
 10
5.70589555423945
 20
75.12644272142303
 30
0.0
 11
3.68089555439698
 21
73.37274127879505
 31
0.0
  0
LINE
  5
112
330
47
100
AcDbEntity
  8
0
  6
Continuous
 62
     7
100
AcDbLine
 10
5.70589555423945
 20
75.12644272142303
 30
0.0
 11
5.70589555423169
 21
77.64653240550449
 31
0.0
  0
LINE
  5
113
330
47
100
AcDbEntity
  8
0
  6
Continuous
 62
     7
100
AcDbLine
 10
5.95589555154057
 20
77.86303875412672
 30
0.0
 11
5.95589555153636
 21
74.30371858539003
 31
0.0
  0
LINE
  5
114
330
47
100
AcDbEntity
  8
0
  6
Continuous
 62
     2
100
AcDbLine
 10
5.72415730841894
 20
77.76568597547744
 30
0.0
 11
5.97415730572737
 21
77.98219232410027
 31
0.0
  0
LINE
  5
115
330
47
100
AcDbEntity
  8
0
  6
Continuous
 62
     7
100
AcDbLine
 10
3.77060700250384
 20
76.88311426760474
 30
0.0
 11
4.07060700249979
 21
77.14292188874508
 31
0.0
  0
LINE
  5
116
330
47
100
AcDbEntity
  8
0
  6
Continuous
 62
     2
100
AcDbLine
 10
5.70589555423169
 20
77.64653240550449
 30
0.0
 11
5.95589555154057
 21
77.86303875412672
 31
0.0
  0
LINE
  5
117
330
47
100
AcDbEntity
  8
0
  6
Continuous
 62
     7
100
AcDbLine
 10
3.39915730859458
 20
75.75217691176474
 30
0.0
 11
3.77060700250384
 21
76.88311426760474
 31
0.0
  0
LINE
  5
118
330
47
100
AcDbEntity
  8
0
  6
Continuous
 62
     2
100
AcDbLine
 10
3.39915730859458
 20
75.75217691176474
 30
0.0
 11
3.69915730859054
 21
76.01198453290507
 31
0.0
  0
LINE
  5
119
330
47
100
AcDbEntity
  8
0
  6
Continuous
 62
     7
100
AcDbLine
 10
3.99603102140289
 20
76.2262558781364
 30
0.0
 11
5.09967777166911
 21
75.90766050395887
 31
0.0
  0
LINE
  5
11A
330
47
100
AcDbEntity
  8
0
  6
Continuous
 62
     7
100
AcDbLine
 10
3.69915730859054
 20
76.01198453290507
 30
0.0
 11
4.07060700249979
 21
77.14292188874508
 31
0.0
  0
LINE
  5
11B
330
47
100
AcDbEntity
  8
0
  6
Continuous
 62
     7
100
AcDbLine
 10
5.95589555153636
 20
74.30371858539003
 30
0.0
 11
3.38089555439652
 21
72.07370317305319
 31
0.0
  0
LINE
  5
11C
330
47
100
AcDbEntity
  8
0
  6
Continuous
 62
     7
100
AcDbLine
 10
5.70960056613657
 20
77.7102506350739
 30
0.0
 11
3.68602125148106
 21
75.95777954195427
 31
0.0
  0
LINE
  5
11D
330
47
100
AcDbEntity
  8
0
  6
Continuous
 62
     7
100
AcDbLine
 10
-6.88150548035639
 20
74.37423898960776
 30
0.0
 11
-0.29971241160273
 21
72.4742389896757
 31
0.0
  0
LINE
  5
11E
330
47
100
AcDbEntity
  8
0
  6
Continuous
 62
     7
100
AcDbLine
 10
-6.78150548050702
 20
74.21347903938991
 30
0.0
 11
-0.19971241172387
 21
72.31347903941435
 31
0.0
  0
LINE
  5
11F
330
47
100
AcDbEntity
  8
0
  6
Continuous
 62
     7
100
AcDbLine
 10
-6.78150548048217
 20
71.1390888559139
 30
0.0
 11
-6.78150548041388
 21
62.9118475200238
 31
0.0
  0
LINE
  5
120
330
47
100
AcDbEntity
  8
0
  6
Continuous
 62
     7
100
AcDbLine
 10
-9.06349185331742
 20
68.66571636894132
 30
0.0
 11
-6.98503088423431
 21
68.0657163689422
 31
0.0
  0
LINE
  5
121
330
47
100
AcDbEntity
  8
0
  6
Continuous
 62
     7
100
AcDbLine
 10
-9.06349185337373
 20
75.66608838287956
 30
0.0
 11
-9.06349185331742
 21
68.66571636894132
 31
0.0
  0
LINE
  5
122
330
47
100
AcDbEntity
  8
0
  6
Continuous
 62
     7
100
AcDbLine
 10
-10.08579947447804
 20
85.04704205476419
 30
0.0
 11
-9.54020347005984
 21
84.57454205474122
 31
0.0
  0
LINE
  5
123
330
47
100
AcDbEntity
  8
0
  6
Continuous
 62
     7
100
AcDbLine
 10
-10.08579947450122
 20
90.48332037264339
 30
0.0
 11
-10.08579947447804
 21
85.04704205476419
 31
0.0
  0
LINE
  5
124
330
47
100
AcDbEntity
  8
0
  6
Continuous
 62
     7
100
AcDbLine
 10
-8.84492409340869
 20
95.49725695638567
 30
0.0
 11
-9.03091164403877
 21
95.33618701274739
 31
0.0
  0
LINE
  5
125
330
47
100
AcDbEntity
  8
0
  6
Continuous
 62
     7
100
AcDbLine
 10
-9.45418846440778
 20
95.77733846810771
 30
0.0
 11
-9.40019594257112
 21
96.2014859721227
 31
0.0
  0
LINE
  5
126
330
47
100
AcDbEntity
  8
0
  6
Continuous
 62
     7
100
AcDbLine
 10
-6.88150548042343
 20
75.03620317299803
 30
0.0
 11
-10.08579947443928
 21
75.961203172987
 31
0.0
  0
LINE
  5
127
330
47
100
AcDbEntity
  8
0
  6
Continuous
 62
     7
100
AcDbLine
 10
-8.26714620448809
 20
92.05832030519906
 30
0.0
 11
-10.08579947450122
 21
90.48332037264339
 31
0.0
  0
LINE
  5
128
330
47
100
AcDbEntity
  8
0
  6
Continuous
 62
     7
100
AcDbLine
 10
-8.61355628802316
 20
80.68608201098182
 30
0.0
 11
-10.08579947445399
 21
79.41108201094477
 31
0.0
  0
LINE
  5
129
330
47
100
AcDbEntity
  8
0
  6
Continuous
 62
     7
100
AcDbLine
 10
-6.82519594538564
 20
98.43150138449907
 30
0.0
 11
0.53674132013669
 21
96.30629315346589
 31
0.0
  0
SPLINE
  5
12A
330
47
100
AcDbEntity
  8
0
  6
Continuous
 62
     7
100
AcDbSpline
210
0.0
220
0.0
230
1.0
 70
     8
 71
     3
 72
    11
 73
     7
 74
     5
 42
0.000000001
 43
0.0000000001
 44
0.00000001
 40
0.0
 40
0.0
 40
0.0
 40
0.0
 40
0.2478229566589761
 40
0.4687141655261624
 40
0.6678368693867676
 40
0.8545223928971933
 40
0.8545223928971933
 40
0.8545223928971933
 40
0.8545223928971933
 10
-6.555870342048614
 20
95.50641096619194
 30
0.0
 10
-6.621661622301914
 20
95.5568320989882
 30
0.0
 10
-6.746094415412583
 20
95.65219494257349
 30
0.0
 10
-6.887600321465469
 20
95.82592009947494
 30
0.0
 10
-6.981178281175627
 20
96.00961038952826
 30
0.0
 10
-6.993170782473755
 20
96.13867914393663
 30
0.0
 10
-6.998973726793267
 20
96.20113314758659
 30
0.0
 11
-6.555870342048614
 21
95.50641096619194
 31
0.0
 11
-6.746222213914688
 21
95.6651005446447
 31
0.0
 11
-6.885516081157931
 21
95.83653608858936
 31
0.0
 11
-6.970439665689779
 21
96.01664116150029
 31
0.0
 11
-6.998973726793267
 21
96.20113314758659
 31
0.0
  0
SPLINE
  5
12B
330
47
100
AcDbEntity
  8
0
  6
Continuous
 62
     7
100
AcDbSpline
210
0.0
220
0.0
230
1.0
 70
     8
 71
     3
 72
     9
 73
     5
 74
     3
 42
0.000000001
 43
0.0000000001
 44
0.00000001
 40
0.0
 40
0.0
 40
0.0
 40
0.0
 40
0.0493027802790185
 40
0.0992512682153486
 40
0.0992512682153486
 40
0.0992512682153486
 40
0.0992512682153486
 10
6.033222389566646
 20
86.98455117828165
 30
0.0
 10
6.045204030538485
 20
86.99590966723525
 30
0.0
 10
6.069324218549394
 20
87.01877541797974
 30
0.0
 10
6.086808164100975
 20
87.04704371248413
 30
0.0
 10
6.095607002276623
 20
87.06126981947098
 30
0.0
 11
6.033222389566646
 21
86.98455117828165
 31
0.0
 11
6.067529761643996
 21
87.01995977115688
 31
0.0
 11
6.095607002276623
 21
87.06126981947098
 31
0.0
  0
SPLINE
  5
12C
330
47
100
AcDbEntity
  8
0
  6
Continuous
 62
     7
100
AcDbSpline
210
0.0
220
0.0
230
1.0
 70
     8
 71
     3
 72
    11
 73
     7
 74
     5
 42
0.000000001
 43
0.0000000001
 44
0.00000001
 40
0.0
 40
0.0
 40
0.0
 40
0.0
 40
0.150367986316387
 40
0.2933609135798892
 40
0.4305936804828234
 40
0.5646514908988036
 40
0.5646514908988036
 40
0.5646514908988036
 40
0.5646514908988036
 10
-4.413333078803582
 20
90.08536548321024
 30
0.0
 10
-4.415817195177964
 20
90.035124774441
 30
0.0
 10
-4.420663604704698
 20
89.93710750130677
 30
0.0
 10
-4.462958238700351
 20
89.79873608962973
 30
0.0
 10
-4.528466894559953
 20
89.67524292520656
 30
0.0
 10
-4.592876768896454
 20
89.6111218566838
 30
0.0
 10
-4.624704812075073
 20
89.57943653678034
 30
0.0
 11
-4.413333078803582
 21
90.08536548321024
 31
0.0
 11
-4.427082673193278
 21
89.93562744490289
 31
0.0
 11
-4.467894771349375
 21
89.79858237763341
 31
0.0
 11
-4.53447354294077
 21
89.67858196040686
 31
0.0
 11
-4.624704812075073
 21
89.57943653678034
 31
0.0
  0
SPLINE
  5
12D
330
47
100
AcDbEntity
  8
0
  6
Continuous
 62
     7
100
AcDbSpline
210
0.0
220
0.0
230
1.0
 70
     8
 71
     3
 72
     9
 73
     5
 74
     3
 42
0.000000001
 43
0.0000000001
 44
0.00000001
 40
0.0
 40
0.0
 40
0.0
 40
0.0
 40
0.5006231479523837
 40
0.9629843797212299
 40
0.9629843797212299
 40
0.9629843797212299
 40
0.9629843797212299
 10
-6.781505480433992
 20
65.33622141317156
 30
0.0
 10
-6.815889579859992
 20
65.50166552893933
 30
0.0
 10
-6.882029831180837
 20
65.81990910283933
 30
0.0
 10
-6.81411411327867
 20
66.13740389217446
 30
0.0
 10
-6.781505480441915
 20
66.28984383224991
 30
0.0
 11
-6.781505480433992
 21
65.33622141317156
 31
0.0
 11
-6.84842766891185
 21
65.83235139447578
 31
0.0
 11
-6.781505480441915
 21
66.28984383224991
 31
0.0
  0
SPLINE
  5
12E
330
47
100
AcDbEntity
  8
0
  6
Continuous
 62
     7
100
AcDbSpline
210
0.0
220
0.0
230
1.0
 70
     8
 71
     3
 72
    11
 73
     7
 74
     5
 42
0.000000001
 43
0.0000000001
 44
0.00000001
 40
0.0
 40
0.0
 40
0.0
 40
0.0
 40
0.161105362094195
 40
0.3276072812400858
 40
0.5035023661983715
 40
0.6906435579279658
 40
0.6906435579279658
 40
0.6906435579279658
 40
0.6906435579279658
 10
-4.624704812075073
 20
89.57943653678034
 30
0.0
 10
-4.668417456297981
 20
89.5475866707341
 30
0.0
 10
-4.757306997898349
 20
89.48282007406968
 30
0.0
 10
-4.921781474605756
 20
89.43689085112126
 30
0.0
 10
-5.099846028061925
 20
89.42794386625101
 30
0.0
 10
-5.218297869448846
 20
89.45525927763987
 30
0.0
 10
-5.279358484460154
 20
89.46934007799268
 30
0.0
 11
-4.624704812075073
 21
89.57943653678034
 31
0.0
 11
-4.76022640669459
 21
89.49232261295204
 31
0.0
 11
-4.919490627475398
 21
89.44376545070904
 31
0.0
 11
-5.095213601077146
 21
89.43598610219489
 31
0.0
 11
-5.279358484460154
 21
89.46934007799268
 31
0.0
  0
SPLINE
  5
12F
330
47
100
AcDbEntity
  8
0
  6
Continuous
 62
     7
100
AcDbSpline
210
0.0
220
0.0
230
1.0
 70
     8
 71
     3
 72
    13
 73
     9
 74
     7
 42
0.000000001
 43
0.0000000001
 44
0.00000001
 40
0.0
 40
0.0
 40
0.0
 40
0.0
 40
0.2345263300960348
 40
0.4838614799881295
 40
0.7425920348451662
 40
1.003444238618465
 40
1.258747553429381
 40
1.501886889678632
 40
1.501886889678632
 40
1.501886889678632
 40
1.501886889678632
 10
-6.664999130424462
 20
90.73536548379568
 30
0.0
 10
-6.658850381875419
 20
90.65706475822304
 30
0.0
 10
-6.646164616414926
 20
90.49551912493638
 30
0.0
 10
-6.554424542953681
 20
90.26222329505683
 30
0.0
 10
-6.417885584465315
 20
90.04380779085858
 30
0.0
 10
-6.238688741239149
 20
89.85593097974431
 30
0.0
 10
-6.031884873407892
 20
89.70512491355971
 30
0.0
 10
-5.875337316955542
 20
89.64746598308516
 30
0.0
 10
-5.798973726709995
 20
89.6193400778547
 30
0.0
 11
-6.664999130424462
 21
90.73536548379568
 31
0.0
 11
-6.635489807327525
 21
90.50270306745539
 31
0.0
 11
-6.548973726518525
 21
90.2688591323512
 31
0.0
 11
-6.411345998806122
 21
90.04976985879529
 31
0.0
 11
-6.231986428073295
 21
89.86036548285759
 31
0.0
 11
-6.023117534365654
 21
89.71355414588555
 31
0.0
 11
-5.798973726709995
 21
89.6193400778547
 31
0.0
  0
SPLINE
  5
130
330
47
100
AcDbEntity
  8
0
  6
Continuous
 62
     7
100
AcDbSpline
210
0.0
220
0.0
230
1.0
 70
     8
 71
     3
 72
    19
 73
    15
 74
    13
 42
0.000000001
 43
0.0000000001
 44
0.00000001
 40
0.0
 40
0.0
 40
0.0
 40
0.0
 40
0.0891265686210652
 40
0.1805972309179179
 40
0.2720268881971101
 40
0.3661377723111925
 40
0.5559041048317669
 40
0.7523999975845443
 40
0.8418237624379882
 40
0.950809782591236
 40
1.058011815041211
 40
1.148281760253372
 40
1.339704710089248
 40
1.520513330972126
 40
1.520513330972126
 40
1.520513330972126
 40
1.520513330972126
 10
-5.798973726709995
 20
89.6193400778547
 30
0.0
 10
-5.827252970085046
 20
89.62855019911049
 30
0.0
 10
-5.884555216730159
 20
89.64721268804125
 30
0.0
 10
-5.96607096134079
 20
89.68760247385822
 30
0.0
 10
-6.04436149286368
 20
89.73680356649851
 30
0.0
 10
-6.142835762259219
 20
89.8143102706132
 30
0.0
 10
-6.253565076214473
 20
89.93127576774575
 30
0.0
 10
-6.342144790331808
 20
90.06359687716541
 30
0.0
 10
-6.403567766635244
 20
90.18009248546535
 30
0.0
 10
-6.444831228486352
 20
90.27333367730321
 30
0.0
 10
-6.479618178043572
 20
90.3694827315848
 30
0.0
 10
-6.515893754289374
 20
90.4939348667136
 30
0.0
 10
-6.547834986465956
 20
90.64545670063447
 30
0.0
 10
-6.553243302115238
 20
90.7695812439954
 30
0.0
 10
-6.555870342710826
 20
90.8298737862332
 30
0.0
 11
-5.798973726709995
 21
89.6193400778547
 31
0.0
 11
-5.883035898027892
 21
89.64895590467226
 31
0.0
 11
-5.965303993299663
 21
89.68894144244304
 31
0.0
 11
-6.042691707487059
 21
89.73762947372302
 31
0.0
 11
-6.116742844065364
 21
89.7957094873766
 31
0.0
 11
-6.247884507970459
 21
89.93287043511863
 31
0.0
 11
-6.357940663439358
 21
90.09565335440243
 31
0.0
 11
-6.399698099758936
 21
90.17472880104921
 31
0.0
 11
-6.443890497387656
 21
90.27435301795182
 31
0.0
 11
-6.480362619187545
 21
90.37516006162105
 31
0.0
 11
-6.505757823335024
 21
90.46178422988996
 31
0.0
 11
-6.543199826957643
 21
90.64950967074289
 31
0.0
 11
-6.555870342710826
 21
90.8298737862332
 31
0.0
  0
SPLINE
  5
131
330
47
100
AcDbEntity
  8
0
  6
Continuous
 62
     7
100
AcDbSpline
210
0.0
220
0.0
230
1.0
 70
     8
 71
     3
 72
    11
 73
     7
 74
     5
 42
0.000000001
 43
0.0000000001
 44
0.00000001
 40
0.0
 40
0.0
 40
0.0
 40
0.0
 40
0.6602418103831893
 40
1.1889266052918
 40
1.589309892776196
 40
1.89996803772966
 40
1.89996803772966
 40
1.89996803772966
 40
1.89996803772966
 10
-4.997972046248677
 20
91.01692722180763
 30
0.0
 10
-5.144622033675665
 20
91.18244614352517
 30
0.0
 10
-5.408701146166652
 20
91.48050337940938
 30
0.0
 10
-5.825075043493515
 20
91.80213642587032
 30
0.0
 10
-6.213893414035387
 20
91.99760480450288
 30
0.0
 10
-6.45188878057281
 20
91.95059699367314
 30
0.0
 10
-6.555870342710342
 20
91.93005900000429
 30
0.0
 11
-4.997972046248677
 21
91.01692722180763
 31
0.0
 11
-5.452539767955509
 21
91.49576688323602
 31
0.0
 11
-5.874226256865565
 21
91.8146526273321
 31
0.0
 11
-6.246786987130194
 21
91.96129943901181
 31
0.0
 11
-6.555870342710342
 21
91.93005900000429
 31
0.0
  0
SPLINE
  5
132
330
47
100
AcDbEntity
  8
0
  6
Continuous
 62
     7
100
AcDbSpline
210
0.0
220
0.0
230
1.0
 70
     8
 71
     3
 72
    15
 73
    11
 74
     9
 42
0.000000001
 43
0.0000000001
 44
0.00000001
 40
0.0
 40
0.0
 40
0.0
 40
0.0
 40
0.0674904832053776
 40
0.1459033692709817
 40
0.2408674692416546
 40
0.3364536707798102
 40
0.4423286861111914
 40
0.5276763982590404
 40
0.6157875720062206
 40
0.7210064983194363
 40
0.7210064983194363
 40
0.7210064983194363
 40
0.7210064983194363
 10
-4.597637159188352
 20
89.60447582860458
 30
0.0
 10
-4.615770494018054
 20
89.59113858314016
 30
0.0
 10
-4.654971802427986
 20
89.56230565570652
 30
0.0
 10
-4.724780312892924
 20
89.52227885170097
 30
0.0
 10
-4.806895953759784
 20
89.48581219315292
 30
0.0
 10
-4.901707729074575
 20
89.45711976735444
 30
0.0
 10
-4.996387268044957
 20
89.44154668500278
 30
0.0
 10
-5.089592235466599
 20
89.43848221802084
 30
0.0
 10
-5.182570341817335
 20
89.44548707319845
 30
0.0
 10
-5.245247021202398
 20
89.46093345544935
 30
0.0
 10
-5.279358484460154
 20
89.46934007799268
 30
0.0
 11
-4.597637159188352
 21
89.60447582860458
 31
0.0
 11
-4.652697178451361
 21
89.56544558762776
 31
0.0
 11
-4.720532503970098
 21
89.52611430874579
 31
0.0
 11
-4.807394443251835
 21
89.4877322293174
 31
0.0
 11
-4.898882303511293
 21
89.46004299745178
 31
0.0
 11
-5.003372006106929
 21
89.44297193484235
 31
0.0
 11
-5.088668958095482
 21
89.44002878781708
 31
0.0
 11
-5.176483225978046
 21
89.44725606115443
 31
0.0
 11
-5.279358484460154
 21
89.46934007799268
 31
0.0
  0
SPLINE
  5
133
330
47
100
AcDbEntity
  8
0
  6
Continuous
 62
     7
100
AcDbSpline
210
0.0
220
0.0
230
1.0
 70
     8
 71
     3
 72
     9
 73
     5
 74
     3
 42
0.000000001
 43
0.0000000001
 44
0.00000001
 40
0.0
 40
0.0
 40
0.0
 40
0.0
 40
0.3613048351616628
 40
0.7616468317727701
 40
0.7616468317727701
 40
0.7616468317727701
 40
0.7616468317727701
 10
-4.413333079689387
 20
91.50255661153734
 30
0.0
 10
-4.513414380376458
 20
91.43502209998023
 30
0.0
 10
-4.724390248338263
 20
91.29265629834302
 30
0.0
 10
-4.9037144464601
 20
91.11192463688116
 30
0.0
 10
-4.997972046248677
 20
91.01692722180763
 30
0.0
 11
-4.413333079689387
 21
91.50255661153734
 31
0.0
 11
-4.706454403826914
 21
91.29131960313461
 31
0.0
 11
-4.997972046248677
 21
91.01692722180763
 31
0.0
  0
SPLINE
  5
134
330
47
100
AcDbEntity
  8
0
  6
Continuous
 62
     7
100
AcDbSpline
210
0.0
220
0.0
230
1.0
 70
     8
 71
     3
 72
    11
 73
     7
 74
     5
 42
0.000000001
 43
0.0000000001
 44
0.00000001
 40
0.0
 40
0.0
 40
0.0
 40
0.0
 40
0.5323832905902421
 40
0.9876151058121241
 40
1.363444022354445
 40
1.684612826144174
 40
1.684612826144174
 40
1.684612826144174
 40
1.684612826144174
 10
-2.879358484491583
 20
97.09036363218681
 30
0.0
 10
-2.710203627531173
 20
97.0338645492999
 30
0.0
 10
-2.396407359776986
 20
96.92905406011432
 30
0.0
 10
-2.012649393178811
 20
96.68361434527543
 30
0.0
 10
-1.737305923895645
 20
96.39215740542589
 30
0.0
 10
-1.697637326668055
 20
96.15870528995166
 30
0.0
 10
-1.679358484465737
 20
96.05113314761601
 30
0.0
 11
-2.879358484491583
 21
97.09036363218681
 31
0.0
 11
-2.382302662079558
 21
96.89966105884388
 31
0.0
 11
-2.000897515391575
 21
96.65113314763607
 31
0.0
 11
-1.761137119426071
 21
96.36171591894674
 31
0.0
 11
-1.679358484465737
 21
96.05113314761601
 31
0.0
  0
SPLINE
  5
135
330
47
100
AcDbEntity
  8
0
  6
Continuous
 62
     7
100
AcDbSpline
210
0.0
220
0.0
230
1.0
 70
     8
 71
     3
 72
    13
 73
     9
 74
     7
 42
0.000000001
 43
0.0000000001
 44
0.00000001
 40
0.0
 40
0.0
 40
0.0
 40
0.0
 40
0.2210699612649289
 40
0.4381487987673127
 40
0.6435100527124767
 40
0.8305338563198295
 40
0.9946268509626806
 40
1.134533627571131
 40
1.134533627571131
 40
1.134533627571131
 40
1.134533627571131
 10
0.2936095911607026
 20
95.05522180245796
 30
0.0
 10
0.2198619010496903
 20
95.05700823235549
 30
0.0
 10
0.0736979373410468
 20
95.0605488287128
 30
0.0
 10
-0.1399743984055495
 20
95.03567182005956
 30
0.0
 10
-0.3386660903814704
 20
94.99028442342644
 30
0.0
 10
-0.511793587763481
 20
94.92322129072116
 30
0.0
 10
-0.6562668817293829
 20
94.84166005305917
 30
0.0
 10
-0.724786756653682
 20
94.7662632903957
 30
0.0
 10
-0.7563209688107619
 20
94.73156418653731
 30
0.0
 11
0.2936095911607026
 21
95.05522180245796
 31
0.0
 11
0.0725396851365474
 21
95.05536771997765
 31
0.0
 11
-0.1431923205435766
 21
95.03122393069968
 31
0.0
 11
-0.3430430898724737
 21
94.98397020461202
 31
0.0
 11
-0.5172456795845974
 21
94.91591609699151
 31
0.0
 11
-0.6572862282937137
 21
94.8303873982463
 31
0.0
 11
-0.7563209688107619
 21
94.73156418653731
 31
0.0
  0
SPLINE
  5
136
330
47
100
AcDbEntity
  8
0
  6
Continuous
 62
     7
100
AcDbSpline
210
0.0
220
0.0
230
1.0
 70
     8
 71
     3
 72
     9
 73
     5
 74
     3
 42
0.000000001
 43
0.0000000001
 44
0.00000001
 40
0.0
 40
0.0
 40
0.0
 40
0.0
 40
0.1640893791835858
 40
0.366241715402084
 40
0.366241715402084
 40
0.366241715402084
 40
0.366241715402084
 10
-0.8182378168442241
 20
94.9047692672926
 30
0.0
 10
-0.8066051323223112
 20
94.8495375994771
 30
0.0
 10
-0.7806413724612751
 20
94.72626246970314
 30
0.0
 10
-0.6790051295148471
 20
94.65000046498132
 30
0.0
 10
-0.6229055478608032
 20
94.60790657063534
 30
0.0
 11
-0.8182378168442241
 21
94.9047692672926
 31
0.0
 11
-0.7681495622928711
 21
94.74851149335754
 31
0.0
 11
-0.6229055478608032
 21
94.60790657063534
 31
0.0
  0
SPLINE
  5
137
330
47
100
AcDbEntity
  8
0
  6
Continuous
 62
     7
100
AcDbSpline
210
0.0
220
0.0
230
1.0
 70
     8
 71
     3
 72
    13
 73
     9
 74
     7
 42
0.000000001
 43
0.0000000001
 44
0.00000001
 40
0.0
 40
0.0
 40
0.0
 40
0.0
 40
0.2794780709294687
 40
0.5491926934649184
 40
0.7942608272823823
 40
1.003866458942075
 40
1.17508546848154
 40
1.318904477972127
 40
1.318904477972127
 40
1.318904477972127
 40
1.318904477972127
 10
0.2936095911578818
 20
95.40163196396952
 30
0.0
 10
0.200294544884215
 20
95.40311912559409
 30
0.0
 10
0.0169243743777182
 20
95.40604149122149
 30
0.0
 10
-0.2455085458644695
 20
95.36337346513616
 30
0.0
 10
-0.4773722296695048
 20
95.28953604694604
 30
0.0
 10
-0.6583053524323441
 20
95.18616963490766
 30
0.0
 10
-0.7898723614633163
 20
95.05831682336347
 30
0.0
 10
-0.8093472705876488
 20
94.95289549587554
 30
0.0
 10
-0.8182378168442241
 20
94.9047692672926
 30
0.0
 11
0.2936095911578818
 21
95.40163196396952
 31
0.0
 11
0.0141592419289793
 21
95.39769635311387
 31
0.0
 11
-0.2521923155645922
 21
95.355236661532
 31
0.0
 11
-0.4846280462835986
 21
95.2775705735298
 31
0.0
 11
-0.6649829079796952
 21
95.17076868019382
 31
0.0
 11
-0.7791601867314024
 21
95.04317753352272
 31
0.0
 11
-0.8182378168442241
 21
94.9047692672926
 31
0.0
  0
SPLINE
  5
138
330
47
100
AcDbEntity
  8
0
  6
Continuous
 62
     7
100
AcDbSpline
210
0.0
220
0.0
230
1.0
 70
     8
 71
     3
 72
     9
 73
     5
 74
     3
 42
0.000000001
 43
0.0000000001
 44
0.00000001
 40
0.0
 40
0.0
 40
0.0
 40
0.0
 40
0.1640893791813246
 40
0.3662417153962879
 40
0.3662417153962879
 40
0.3662417153962879
 40
0.3662417153962879
 10
1.181762183155783
 20
94.9047692673089
 30
0.0
 10
1.17012949863422
 20
94.96000093512362
 30
0.0
 10
1.144165738774019
 20
95.0832760648957
 30
0.0
 10
1.042529495829926
 20
95.15953806961714
 30
0.0
 10
0.9864299141772648
 20
95.20163196396284
 30
0.0
 11
1.181762183155783
 21
94.9047692673089
 31
0.0
 11
1.13167392860572
 21
95.06102704124199
 31
0.0
 11
0.9864299141772648
 21
95.20163196396284
 31
0.0
  0
SPLINE
  5
139
330
47
100
AcDbEntity
  8
0
  6
Continuous
 62
     7
100
AcDbSpline
210
0.0
220
0.0
230
1.0
 70
     8
 71
     3
 72
     9
 73
     5
 74
     3
 42
0.000000001
 43
0.0000000001
 44
0.00000001
 40
0.0
 40
0.0
 40
0.0
 40
0.0
 40
0.0864922230507458
 40
0.1825550507348202
 40
0.1825550507348202
 40
0.1825550507348202
 40
0.1825550507348202
 10
1.119845335125142
 20
94.73156418655262
 30
0.0
 10
1.101304885275431
 20
94.75379852151795
 30
0.0
 10
1.062172419041794
 20
94.80072746843518
 30
0.0
 10
1.012544679276801
 20
94.8364330642635
 30
0.0
 10
0.9864299141800856
 20
94.85522180245128
 30
0.0
 11
1.119845335125142
 21
94.73156418655262
 31
0.0
 11
1.061868060850423
 21
94.79574783292409
 31
0.0
 11
0.9864299141800856
 21
94.85522180245128
 31
0.0
  0
SPLINE
  5
13A
330
47
100
AcDbEntity
  8
0
  6
Continuous
 62
     7
100
AcDbSpline
210
0.0
220
0.0
230
1.0
 70
     8
 71
     3
 72
    13
 73
     9
 74
     7
 42
0.000000001
 43
0.0000000001
 44
0.00000001
 40
0.0
 40
0.0
 40
0.0
 40
0.0
 40
0.2794780709280598
 40
0.5491926934618028
 40
0.7942608272775479
 40
1.003866458935741
 40
1.175085468474133
 40
1.318904477963963
 40
1.318904477963963
 40
1.318904477963963
 40
1.318904477963963
 10
0.0699147751618625
 20
94.40790657063151
 30
0.0
 10
0.1632298214350626
 20
94.40641940900731
 30
0.0
 10
0.3465999919405267
 20
94.40349704338068
 30
0.0
 10
0.6090329121809822
 20
94.44616506946656
 30
0.0
 10
0.8408965959841936
 20
94.52000248765688
 30
0.0
 10
1.021829718745523
 20
94.62336889969511
 30
0.0
 10
1.153396727775175
 20
94.75122171123883
 30
0.0
 10
1.172871636899298
 20
94.85664303872619
 30
0.0
 10
1.181762183155783
 20
94.9047692673089
 30
0.0
 11
0.0699147751618625
 21
94.40790657063151
 31
0.0
 11
0.3493651243893412
 21
94.41184218148821
 31
0.0
 11
0.6157166818810893
 21
94.45430187307068
 31
0.0
 11
0.8481524125982216
 21
94.53196796107306
 31
0.0
 11
1.028507274292711
 21
94.63876985440882
 31
0.0
 11
1.142684553043332
 21
94.76636100107945
 31
0.0
 11
1.181762183155783
 21
94.9047692673089
 31
0.0
  0
SPLINE
  5
13B
330
47
100
AcDbEntity
  8
0
  6
Continuous
 62
     7
100
AcDbSpline
210
0.0
220
0.0
230
1.0
 70
     8
 71
     3
 72
    13
 73
     9
 74
     7
 42
0.000000001
 43
0.0000000001
 44
0.00000001
 40
0.0
 40
0.0
 40
0.0
 40
0.0
 40
0.3412421351258354
 40
0.746358431005699
 40
1.241496562496948
 40
1.820507059644413
 40
2.458756987213973
 40
3.121969793641676
 40
3.121969793641676
 40
3.121969793641676
 40
3.121969793641676
 10
-1.679358484465737
 20
96.05113314761601
 30
0.0
 10
-1.700179933191445
 20
95.93692909104996
 30
0.0
 10
-1.745720231688054
 20
95.68714411497278
 30
0.0
 10
-2.054708626529286
 20
95.38259859447862
 30
0.0
 10
-2.480756828604489
 20
95.13534876281047
 30
0.0
 10
-3.027609222971521
 20
94.95702125944541
 30
0.0
 10
-3.648172984948732
 20
94.8515877419635
 30
0.0
 10
-4.082748710523816
 20
94.85478279562255
 30
0.0
 10
-4.304204292198627
 20
94.85641096619287
 30
0.0
 11
-1.679358484465737
 21
96.05113314761601
 31
0.0
 11
-1.771133707842074
 21
95.72246384951146
 31
0.0
 11
-2.039437114800837
 21
95.41893048911093
 31
0.0
 11
-2.463752387904238
 21
95.16374757887982
 31
0.0
 11
-3.011625822456725
 21
94.9764300534115
 31
0.0
 11
-3.641158759978774
 21
94.87130512505504
 31
0.0
 11
-4.304204292198627
 21
94.85641096619287
 31
0.0
  0
SPLINE
  5
13C
330
47
100
AcDbEntity
  8
0
  6
Continuous
 62
     7
100
AcDbSpline
210
0.0
220
0.0
230
1.0
 70
     8
 71
     3
 72
    15
 73
    11
 74
     9
 42
0.000000001
 43
0.0000000001
 44
0.00000001
 40
0.0
 40
0.0
 40
0.0
 40
0.0
 40
0.3211687994072134
 40
0.6969977198818964
 40
1.152229539608157
 40
1.684612825016453
 40
2.275730910576331
 40
2.898240804107403
 40
3.520750697913913
 40
4.111868792727332
 40
4.111868792727332
 40
4.111868792727332
 40
4.111868792727332
 10
-6.998973726793267
 20
96.20113314758659
 30
0.0
 10
-6.980686224224275
 20
96.30867045314777
 30
0.0
 10
-6.940998833706301
 20
96.54204696802472
 30
0.0
 10
-6.665826595635579
 20
96.83419260847933
 30
0.0
 10
-6.281212598593536
 20
97.07618915752656
 30
0.0
 10
-5.783602807102701
 20
97.25983395802898
 30
0.0
 10
-5.21152161337565
 20
97.37546870505987
 30
0.0
 10
-4.599273757184161
 20
97.4132362052726
 30
0.0
 10
-3.985256033032349
 20
97.37960602904081
 30
0.0
 10
-3.591001892087319
 20
97.28597043777472
 30
0.0
 10
-3.398973726764645
 20
97.24036363216243
 30
0.0
 11
-6.998973726793267
 21
96.20113314758659
 31
0.0
 11
-6.917195091835689
 21
96.51171591891702
 31
0.0
 11
-6.677434695873824
 21
96.80113314760739
 31
0.0
 11
-6.296029549189993
 21
97.04966105881766
 31
0.0
 11
-5.798973726782133
 21
97.24036363216446
 31
0.0
 11
-5.220139269416169
 21
97.36024383014846
 31
0.0
 11
-4.598973726771135
 21
97.40113314762833
 31
0.0
 11
-3.977808184127253
 21
97.36024383014743
 31
0.0
 11
-3.398973726764645
 21
97.24036363216243
 31
0.0
  0
SPLINE
  5
13D
330
47
100
AcDbEntity
  8
0
  6
Continuous
 62
     7
100
AcDbSpline
210
0.0
220
0.0
230
1.0
 70
     8
 71
     3
 72
     9
 73
     5
 74
     3
 42
0.000000001
 43
0.0000000001
 44
0.00000001
 40
0.0
 40
0.0
 40
0.0
 40
0.0
 40
0.0617250633105321
 40
0.120924830198799
 40
0.120924830198799
 40
0.120924830198799
 40
0.120924830198799
 10
5.955895551540571
 20
77.86303875412672
 30
0.0
 10
5.956603200927811
 20
77.88368423587696
 30
0.0
 10
5.957989568107172
 20
77.92413054891992
 30
0.0
 10
5.968843609155785
 20
77.96310973691898
 30
0.0
 10
5.974157305727367
 20
77.98219232410027
 30
0.0
 11
5.955895551540571
 21
77.86303875412672
 31
0.0
 11
5.960485318320157
 21
77.92459293822013
 31
0.0
 11
5.974157305727367
 21
77.98219232410027
 31
0.0
  0
SPLINE
  5
13E
330
47
100
AcDbEntity
  8
0
  6
Continuous
 62
     7
100
AcDbSpline
210
0.0
220
0.0
230
1.0
 70
     8
 71
     3
 72
     9
 73
     5
 74
     3
 42
0.000000001
 43
0.0000000001
 44
0.00000001
 40
0.0
 40
0.0
 40
0.0
 40
0.0
 40
0.05919976688789
 40
0.1209248301981862
 40
0.1209248301981862
 40
0.1209248301981862
 40
0.1209248301981862
 10
5.724157308418938
 20
77.76568597547744
 30
0.0
 10
5.718843611847579
 20
77.74660338829628
 30
0.0
 10
5.707989570799395
 20
77.70762420029726
 30
0.0
 10
5.706603203619305
 20
77.66717788725464
 30
0.0
 10
5.705895554231688
 20
77.64653240550449
 30
0.0
 11
5.724157308418938
 21
77.76568597547744
 31
0.0
 11
5.710485321012103
 21
77.7080865895976
 31
0.0
 11
5.705895554231688
 21
77.64653240550449
 31
0.0
  0
SPLINE
  5
13F
330
47
100
AcDbEntity
  8
0
  6
Continuous
 62
     7
100
AcDbSpline
210
0.0
220
0.0
230
1.0
 70
     8
 71
     3
 72
     9
 73
     5
 74
     3
 42
0.000000001
 43
0.0000000001
 44
0.00000001
 40
0.0
 40
0.0
 40
0.0
 40
0.0
 40
0.0591997668883637
 40
0.1209248302000418
 40
0.1209248302000418
 40
0.1209248302000418
 40
0.1209248302000418
 10
3.699157308590536
 20
76.01198453290507
 30
0.0
 10
3.693843612019068
 20
75.99290194572376
 30
0.0
 10
3.682989570970587
 20
75.95392275772424
 30
0.0
 10
3.681603203790368
 20
75.91347644468095
 30
0.0
 10
3.680895554402682
 20
75.89283096293035
 30
0.0
 11
3.699157308590536
 21
76.01198453290507
 31
0.0
 11
3.685485321183386
 21
75.95438514702482
 31
0.0
 11
3.680895554402682
 21
75.89283096293035
 31
0.0
  0
SPLINE
  5
140
330
47
100
AcDbEntity
  8
0
  6
Continuous
 62
     7
100
AcDbSpline
210
0.0
220
0.0
230
1.0
 70
     8
 71
     3
 72
     9
 73
     5
 74
     3
 42
0.000000001
 43
0.0000000001
 44
0.00000001
 40
0.0
 40
0.0
 40
0.0
 40
0.0
 40
0.0591997668883621
 40
0.1209248302000397
 40
0.1209248302000397
 40
0.1209248302000397
 40
0.1209248302000397
 10
3.399157308594582
 20
75.75217691176474
 30
0.0
 10
3.393843612023116
 20
75.73309432458343
 30
0.0
 10
3.38298957097464
 20
75.69411513658387
 30
0.0
 10
3.381603203794425
 20
75.65366882354061
 30
0.0
 10
3.380895554406742
 20
75.63302334179001
 30
0.0
 11
3.399157308594582
 21
75.75217691176474
 31
0.0
 11
3.385485321187439
 21
75.69457752588448
 31
0.0
 11
3.380895554406742
 21
75.63302334179001
 31
0.0
  0
ENDBLK
  5
49
330
47
100
AcDbEntity
  8
0
100
AcDbBlockEnd
  0
BLOCK
  5
4C
330
4A
100
AcDbEntity
  8
0
100
AcDbBlockBegin
  2
Allg1
 70
     0
 10
-1.99999999990975
 20
79.00000000010004
 30
0.0
  3
Allg1
  1

  0
INSERT
  5
4B
330
4A
100
AcDbEntity
  8
0
100
AcDbBlockReference
  2
PP_H_2_5_1_GNYE-select__1
 10
-10.08579947450122
 20
59.83780941442545
 30
0.0
  0
MTEXT
  5
142
330
4A
100
AcDbEntity
  8
1
 62
     6
100
AcDbMText
 10
-1.99999999990996
 20
53.52620645217917
 30
0.0
 40
5.0
 41
0.0
 71
     2
 72
     1
  1
 
  7
CONVERTER_11
 73
     1
 44
1.32052821128451
  0
ENDBLK
  5
4D
330
4A
100
AcDbEntity
  8
0
100
AcDbBlockEnd
  0
BLOCK
  5
4F
330
4E
100
AcDbEntity
  8
0
100
AcDbBlockBegin
  2
PP_H_2_5_1_GNYE-select__2
 70
     0
 10
-110.2750002416686
 20
91.76249942528477
 30
0.0
  3
PP_H_2_5_1_GNYE-select__2
  1

  0
LINE
  5
143
330
4E
100
AcDbEntity
  8
0
  6
Continuous
 62
     2
100
AcDbLine
 10
-104.7250002415627
 20
92.95749942579614
 30
0.0
 11
-104.725000241547
 21
91.76249942537522
 31
0.0
  0
LINE
  5
144
330
4E
100
AcDbEntity
  8
0
  6
Continuous
 62
     7
100
AcDbLine
 10
-95.53419060690254
 20
91.76249942749394
 30
0.0
 11
-97.37500021164541
 21
91.76249942748109
 31
0.0
  0
LINE
  5
145
330
4E
100
AcDbEntity
  8
0
  6
Continuous
 62
     7
100
AcDbLine
 10
-103.72500024158
 20
91.76249942744397
 30
0.0
 11
-100.9825005502685
 21
91.76249942746313
 31
0.0
  0
LINE
  5
146
330
4E
100
AcDbEntity
  8
0
  6
Continuous
 62
     7
100
AcDbLine
 10
-100.9825005502685
 20
91.76249942746313
 30
0.0
 11
-100.9825005501695
 21
92.55749942709608
 31
0.0
  0
LINE
  5
147
330
4E
100
AcDbEntity
  8
0
  6
Continuous
 62
     7
100
AcDbLine
 10
-100.9825005502685
 20
91.76249942746313
 30
0.0
 11
-97.37500021164541
 21
91.76249942748109
 31
0.0
  0
LINE
  5
148
330
4E
100
AcDbEntity
  8
0
  6
Continuous
 62
     7
100
AcDbLine
 10
-104.725000241547
 20
91.76249942537522
 30
0.0
 11
-105.3250002415538
 21
91.76249942533207
 31
0.0
  0
LINE
  5
149
330
4E
100
AcDbEntity
  8
0
  6
Continuous
 62
     7
100
AcDbLine
 10
-110.2750002416686
 20
96.91249942188608
 30
0.0
 11
-109.7615258895662
 21
96.91249942188497
 31
0.0
  0
LINE
  5
14A
330
4E
100
AcDbEntity
  8
0
  6
Continuous
 62
     7
100
AcDbLine
 10
-97.37500021164541
 20
91.76249942748109
 30
0.0
 11
-97.37500005935362
 21
96.91249942184135
 31
0.0
  0
LINE
  5
14B
330
4E
100
AcDbEntity
  8
0
  6
Continuous
 62
     7
100
AcDbLine
 10
-101.7750002415736
 20
96.35749942706337
 30
0.0
 11
-101.77500024157
 21
92.55749942709257
 31
0.0
  0
LINE
  5
14C
330
4E
100
AcDbEntity
  8
0
  6
Continuous
 62
     7
100
AcDbLine
 10
-109.7615258895662
 20
96.91249942188497
 30
0.0
 11
-109.5456786682434
 21
96.91249942184066
 31
0.0
  0
LINE
  5
14D
330
4E
100
AcDbEntity
  8
0
  6
Continuous
 62
     7
100
AcDbLine
 10
-109.5456786682434
 20
96.91249942184066
 30
0.0
 11
-109.4833334742082
 21
96.91249942183703
 31
0.0
  0
LINE
  5
14E
330
4E
100
AcDbEntity
  8
0
  6
Continuous
 62
     7
100
AcDbLine
 10
-109.4833334742082
 20
96.91249942183703
 30
0.0
 11
-100.9825005501999
 21
96.91249942184504
 31
0.0
  0
LINE
  5
14F
330
4E
100
AcDbEntity
  8
0
  6
Continuous
 62
     7
100
AcDbLine
 10
-95.13503228008756
 20
96.91249942189887
 30
0.0
 11
-95.1350322800516
 21
91.76249942755287
 31
0.0
  0
LINE
  5
150
330
4E
100
AcDbEntity
  8
0
  6
Continuous
 62
     7
100
AcDbLine
 10
-95.53419060690254
 20
91.76249942749394
 30
0.0
 11
-95.35072600279457
 21
91.76249942750626
 31
0.0
  0
LINE
  5
151
330
4E
100
AcDbEntity
  8
0
  6
Continuous
 62
     7
100
AcDbLine
 10
-95.35072600283051
 20
96.91249942185414
 30
0.0
 11
-95.13503228008756
 21
96.91249942189887
 31
0.0
  0
LINE
  5
152
330
4E
100
AcDbEntity
  8
0
  6
Continuous
 62
     7
100
AcDbLine
 10
-94.27500022278821
 20
96.91249942190235
 30
0.0
 11
-94.27500022275225
 21
91.76249942756156
 31
0.0
  0
LINE
  5
153
330
4E
100
AcDbEntity
  8
0
  6
Continuous
 62
     7
100
AcDbLine
 10
-95.13503228008756
 20
96.91249942189887
 30
0.0
 11
-94.27500022278821
 21
96.91249942190235
 31
0.0
  0
LINE
  5
154
330
4E
100
AcDbEntity
  8
0
  6
Continuous
 62
     7
100
AcDbLine
 10
-97.97500024154289
 20
92.55749942709755
 30
0.0
 11
-97.97500024154986
 21
93.45749942709315
 31
0.0
  0
LINE
  5
155
330
4E
100
AcDbEntity
  8
0
  6
Continuous
 62
     7
100
AcDbLine
 10
-98.37500024155497
 20
93.85749942709226
 30
0.0
 11
-98.37500024155614
 21
95.05749942709281
 31
0.0
  0
LINE
  5
156
330
4E
100
AcDbEntity
  8
0
  6
Continuous
 62
     7
100
AcDbLine
 10
-100.3750002418725
 20
92.55749942710024
 30
0.0
 11
-100.3750002418565
 21
93.54098428618545
 31
0.0
  0
LINE
  5
157
330
4E
100
AcDbEntity
  8
0
  6
Continuous
 62
     7
100
AcDbLine
 10
-99.57500024185649
 20
93.5409842861757
 30
0.0
 11
-99.57500024187252
 21
92.55749942710378
 31
0.0
  0
LINE
  5
158
330
4E
100
AcDbEntity
  8
0
  6
Continuous
 62
     7
100
AcDbLine
 10
-101.77500024157
 20
92.55749942709257
 30
0.0
 11
-100.9825005501695
 21
92.55749942709608
 31
0.0
  0
LINE
  5
159
330
4E
100
AcDbEntity
  8
0
  6
Continuous
 62
     7
100
AcDbLine
 10
-95.35072600283051
 20
96.91249942185414
 30
0.0
 11
-95.35072600279457
 21
91.76249942750626
 31
0.0
  0
LINE
  5
15A
330
4E
100
AcDbEntity
  8
0
  6
Continuous
 62
     7
100
AcDbLine
 10
-95.53419060693848
 20
96.91249942184308
 30
0.0
 11
-95.53419060690254
 21
91.76249942749394
 31
0.0
  0
LINE
  5
15B
330
4E
100
AcDbEntity
  8
0
  6
Continuous
 62
     7
100
AcDbLine
 10
-97.97500024154986
 20
93.45749942709315
 30
0.0
 11
-98.37500024155497
 21
93.85749942709226
 31
0.0
  0
LINE
  5
15C
330
4E
100
AcDbEntity
  8
0
  6
Continuous
 62
     7
100
AcDbLine
 10
-95.1350322800516
 20
91.76249942755287
 30
0.0
 11
-94.27500022275225
 21
91.76249942756156
 31
0.0
  0
LINE
  5
15D
330
4E
100
AcDbEntity
  8
0
  6
Continuous
 62
     7
100
AcDbLine
 10
-95.35072600279457
 20
91.76249942750626
 30
0.0
 11
-95.1350322800516
 21
91.76249942755287
 31
0.0
  0
LINE
  5
15E
330
4E
100
AcDbEntity
  8
0
  6
Continuous
 62
     7
100
AcDbLine
 10
-100.3750002418725
 20
92.55749942710024
 30
0.0
 11
-99.57500024187252
 21
92.55749942710378
 31
0.0
  0
LINE
  5
15F
330
4E
100
AcDbEntity
  8
0
  6
Continuous
 62
     7
100
AcDbLine
 10
-100.9825005501695
 20
92.55749942709608
 30
0.0
 11
-100.3750002418725
 21
92.55749942710024
 31
0.0
  0
LINE
  5
160
330
4E
100
AcDbEntity
  8
0
  6
Continuous
 62
     7
100
AcDbLine
 10
-99.57500024187252
 20
92.55749942710378
 30
0.0
 11
-97.97500024154289
 21
92.55749942709755
 31
0.0
  0
LINE
  5
161
330
4E
100
AcDbEntity
  8
0
  6
Continuous
 62
     7
100
AcDbLine
 10
-110.2750002416686
 20
96.91249942188608
 30
0.0
 11
-110.2750002416327
 21
91.76249942744872
 31
0.0
  0
LINE
  5
162
330
4E
100
AcDbEntity
  8
0
  6
Continuous
 62
     7
100
AcDbLine
 10
-109.7615258895302
 20
91.7624994274507
 30
0.0
 11
-109.5456786682074
 21
91.76249942740709
 31
0.0
  0
LINE
  5
163
330
4E
100
AcDbEntity
  8
0
  6
Continuous
 62
     7
100
AcDbLine
 10
-110.2750002416327
 20
91.76249942744872
 30
0.0
 11
-109.7615258895302
 21
91.7624994274507
 31
0.0
  0
LINE
  5
164
330
4E
100
AcDbEntity
  8
0
  6
Continuous
 62
     7
100
AcDbLine
 10
-109.7615258895662
 20
96.91249942188497
 30
0.0
 11
-109.7615258895302
 21
91.7624994274507
 31
0.0
  0
LINE
  5
165
330
4E
100
AcDbEntity
  8
0
  6
Continuous
 62
     7
100
AcDbLine
 10
-109.4833334741722
 20
91.76249942740378
 30
0.0
 11
-106.3250002415775
 21
91.76249942742582
 31
0.0
  0
LINE
  5
166
330
4E
100
AcDbEntity
  8
0
  6
Continuous
 62
     7
100
AcDbLine
 10
-97.37500005935362
 20
96.91249942184135
 30
0.0
 11
-95.53419060693848
 21
96.91249942184308
 31
0.0
  0
LINE
  5
167
330
4E
100
AcDbEntity
  8
0
  6
Continuous
 62
     7
100
AcDbLine
 10
-100.9825005501999
 20
96.91249942184504
 30
0.0
 11
-97.37500005935362
 21
96.91249942184135
 31
0.0
  0
LINE
  5
168
330
4E
100
AcDbEntity
  8
0
  6
Continuous
 62
     7
100
AcDbLine
 10
-97.97499989362338
 20
96.35749942707868
 30
0.0
 11
-99.57500024181056
 21
96.35749942708489
 31
0.0
  0
LINE
  5
169
330
4E
100
AcDbEntity
  8
0
  6
Continuous
 62
     7
100
AcDbLine
 10
-95.53419060693848
 20
96.91249942184308
 30
0.0
 11
-95.35072600283051
 21
96.91249942185414
 31
0.0
  0
LINE
  5
16A
330
4E
100
AcDbEntity
  8
0
  6
Continuous
 62
     7
100
AcDbLine
 10
-97.97499989362254
 20
95.45749977503058
 30
0.0
 11
-97.97499989362338
 21
96.35749942707868
 31
0.0
  0
LINE
  5
16B
330
4E
100
AcDbEntity
  8
0
  6
Continuous
 62
     7
100
AcDbLine
 10
-99.57500024181056
 20
96.35749942708489
 30
0.0
 11
-100.3750002418106
 21
96.35749942708134
 31
0.0
  0
LINE
  5
16C
330
4E
100
AcDbEntity
  8
0
  6
Continuous
 62
     7
100
AcDbLine
 10
-100.3750002418106
 20
96.35749942708134
 30
0.0
 11
-100.982500550196
 21
96.35749942707719
 31
0.0
  0
LINE
  5
16D
330
4E
100
AcDbEntity
  8
0
  6
Continuous
 62
     7
100
AcDbLine
 10
-100.3750002418266
 20
95.37401456417109
 30
0.0
 11
-100.3750002418106
 21
96.35749942708134
 31
0.0
  0
LINE
  5
16E
330
4E
100
AcDbEntity
  8
0
  6
Continuous
 62
     7
100
AcDbLine
 10
-99.57500024181056
 20
96.35749942708489
 30
0.0
 11
-99.5750002418266
 21
95.37401456415475
 31
0.0
  0
LINE
  5
16F
330
4E
100
AcDbEntity
  8
0
  6
Continuous
 62
     7
100
AcDbLine
 10
-100.982500550196
 20
96.35749942707719
 30
0.0
 11
-101.7750002415736
 21
96.35749942706337
 31
0.0
  0
LINE
  5
170
330
4E
100
AcDbEntity
  8
0
  6
Continuous
 62
     7
100
AcDbLine
 10
-100.982500550196
 20
96.35749942707719
 30
0.0
 11
-100.9825005501999
 21
96.91249942184504
 31
0.0
  0
LINE
  5
171
330
4E
100
AcDbEntity
  8
0
  6
Continuous
 62
     7
100
AcDbLine
 10
-98.37500024155614
 20
95.05749942709281
 30
0.0
 11
-97.97499989362254
 21
95.45749977503058
 31
0.0
  0
LINE
  5
172
330
4E
100
AcDbEntity
  8
0
  6
Continuous
 62
     7
100
AcDbLine
 10
-109.4833334741722
 20
91.76249942740378
 30
0.0
 11
-109.5456786682074
 21
91.76249942740709
 31
0.0
  0
LINE
  5
173
330
4E
100
AcDbEntity
  8
0
  6
Continuous
 62
     7
100
AcDbLine
 10
-109.5456786682434
 20
96.91249942184066
 30
0.0
 11
-109.5456786682074
 21
91.76249942740709
 31
0.0
  0
LINE
  5
174
330
4E
100
AcDbEntity
  8
0
  6
Continuous
 62
     7
100
AcDbLine
 10
-103.72500024158
 20
91.76249942744397
 30
0.0
 11
-104.725000241547
 21
91.76249942537522
 31
0.0
  0
LINE
  5
175
330
4E
100
AcDbEntity
  8
0
  6
Continuous
 62
     7
100
AcDbLine
 10
-106.3250002415775
 20
91.76249942742582
 30
0.0
 11
-105.3250002415538
 21
91.76249942533207
 31
0.0
  0
LINE
  5
176
330
4E
100
AcDbEntity
  8
0
  6
Continuous
 62
     7
100
AcDbLine
 10
-103.72500024158
 20
91.76249942744397
 30
0.0
 11
-103.7250002415815
 21
91.98075700238925
 31
0.0
  0
LINE
  5
177
330
4E
100
AcDbEntity
  8
0
  6
Continuous
 62
     7
100
AcDbLine
 10
-109.4833334742082
 20
96.91249942183703
 30
0.0
 11
-109.4833334741722
 21
91.76249942740378
 31
0.0
  0
LINE
  5
178
330
4E
100
AcDbEntity
  8
0
  6
Continuous
 62
     7
100
AcDbLine
 10
-106.325000241579
 20
91.9807570023641
 30
0.0
 11
-106.3250002415775
 21
91.76249942742582
 31
0.0
  0
LINE
  5
179
330
4E
100
AcDbEntity
  8
0
  6
Continuous
 62
     2
100
AcDbLine
 10
-104.7250002415674
 20
95.957499425307
 30
0.0
 11
-104.7250002415647
 21
96.5624994253431
 31
0.0
  0
LINE
  5
17A
330
4E
100
AcDbEntity
  8
0
  6
Continuous
 62
     7
100
AcDbLine
 10
-106.3250010664181
 20
95.95749942535485
 30
0.0
 11
-106.4750002413786
 21
95.95749942531864
 31
0.0
  0
LINE
  5
17B
330
4E
100
AcDbEntity
  8
0
  6
Continuous
 62
     7
100
AcDbLine
 10
-106.4750002413786
 20
95.95749942531864
 30
0.0
 11
-106.8031568247579
 21
95.95749942531037
 31
0.0
  0
LINE
  5
17C
330
4E
100
AcDbEntity
  8
0
  6
Continuous
 62
     7
100
AcDbLine
 10
-104.7250002415647
 20
96.5624994253431
 30
0.0
 11
-105.3250002415399
 21
96.56249942529547
 31
0.0
  0
LINE
  5
17D
330
4E
100
AcDbEntity
  8
0
  6
Continuous
 62
     7
100
AcDbLine
 10
-106.075001064317
 20
95.95749942536915
 30
0.0
 11
-106.3215936490081
 21
95.95749942535642
 31
0.0
  0
LINE
  5
17E
330
4E
100
AcDbEntity
  8
0
  6
Continuous
 62
     7
100
AcDbLine
 10
-104.7250002415674
 20
95.957499425307
 30
0.0
 11
-106.075001064317
 21
95.95749942536915
 31
0.0
  0
LINE
  5
17F
330
4E
100
AcDbEntity
  8
0
  6
Continuous
 62
     7
100
AcDbLine
 10
-104.4027953950322
 20
92.98249942269629
 30
0.0
 11
-106.1250010615809
 21
92.9824994241984
 31
0.0
  0
LINE
  5
180
330
4E
100
AcDbEntity
  8
0
  6
Continuous
 62
     7
100
AcDbLine
 10
-103.6250002417305
 20
93.95749942579954
 30
0.0
 11
-103.6250002417333
 21
94.95749942531916
 31
0.0
  0
LINE
  5
181
330
4E
100
AcDbEntity
  8
0
  6
Continuous
 62
     7
100
AcDbLine
 10
-106.3215936492298
 20
93.18249942196925
 30
0.0
 11
-106.3250010615808
 21
93.18249942214806
 31
0.0
  0
LINE
  5
182
330
4E
100
AcDbEntity
  8
0
  6
Continuous
 62
     7
100
AcDbLine
 10
-106.0750010643127
 20
93.18249942196064
 30
0.0
 11
-106.3215936492298
 21
93.18249942196925
 31
0.0
  0
LINE
  5
183
330
4E
100
AcDbEntity
  8
0
  6
Continuous
 62
     7
100
AcDbLine
 10
-106.1250010577337
 20
92.95749942582938
 30
0.0
 11
-104.7250002415627
 21
92.95749942579614
 31
0.0
  0
LINE
  5
184
330
4E
100
AcDbEntity
  8
0
  6
Continuous
 62
     7
100
AcDbLine
 10
-106.2725416804757
 20
92.9574994258285
 30
0.0
 11
-106.2597976517327
 21
92.95749942579866
 31
0.0
  0
LINE
  5
185
330
4E
100
AcDbEntity
  8
0
  6
Continuous
 62
     7
100
AcDbLine
 10
-106.8031568247579
 20
95.95749942531037
 30
0.0
 11
-106.8538434273955
 21
96.0125368610345
 31
0.0
  0
LINE
  5
186
330
4E
100
AcDbEntity
  8
0
  6
Continuous
 62
     7
100
AcDbLine
 10
-106.2597976517327
 20
92.95749942579866
 30
0.0
 11
-106.1250010577337
 21
92.95749942582938
 31
0.0
  0
LINE
  5
187
330
4E
100
AcDbEntity
  8
0
  6
Continuous
 62
     7
100
AcDbLine
 10
-106.1250010577337
 20
92.95749942582938
 30
0.0
 11
-106.1250010615809
 21
92.9824994241984
 31
0.0
  0
LINE
  5
188
330
4E
100
AcDbEntity
  8
0
  6
Continuous
 62
     7
100
AcDbLine
 10
-106.4750002413835
 20
92.95749942579309
 30
0.0
 11
-106.2725416804757
 21
92.9574994258285
 31
0.0
  0
LINE
  5
189
330
4E
100
AcDbEntity
  8
0
  6
Continuous
 62
     7
100
AcDbLine
 10
-106.0750010643127
 20
93.18249942196064
 30
0.0
 11
-106.075001064317
 21
95.95749942536915
 31
0.0
  0
LINE
  5
18A
330
4E
100
AcDbEntity
  8
0
  6
Continuous
 62
     7
100
AcDbLine
 10
-106.3215936490081
 20
95.95749942535642
 30
0.0
 11
-106.3250010664181
 21
95.95749942535485
 31
0.0
  0
LINE
  5
18B
330
4E
100
AcDbEntity
  8
0
  6
Continuous
 62
     7
100
AcDbLine
 10
-106.3250010615808
 20
93.18249942214806
 30
0.0
 11
-106.3250010664181
 21
95.95749942535485
 31
0.0
  0
LINE
  5
18C
330
4E
100
AcDbEntity
  8
0
  6
Continuous
 62
     7
100
AcDbLine
 10
-106.3250010615808
 20
93.18249942214806
 30
0.0
 11
-106.3940609569008
 21
93.18249942220189
 31
0.0
  0
LINE
  5
18D
330
4E
100
AcDbEntity
  8
0
  6
Continuous
 62
     2
100
AcDbLine
 10
-106.3215936490081
 20
95.95749942535642
 30
0.0
 11
-106.3215936492298
 21
93.18249942196925
 31
0.0
  0
LINE
  5
18E
330
4E
100
AcDbEntity
  8
0
  6
Continuous
 62
     7
100
AcDbLine
 10
-106.4750002413835
 20
92.95749942579309
 30
0.0
 11
-106.4750002413756
 21
93.18249942309393
 31
0.0
  0
LINE
  5
18F
330
4E
100
AcDbEntity
  8
0
  6
Continuous
 62
     7
100
AcDbLine
 10
-106.4750002413756
 20
93.18249942309393
 30
0.0
 11
-106.4750002413786
 21
95.95749942531864
 31
0.0
  0
LINE
  5
190
330
4E
100
AcDbEntity
  8
0
  6
Continuous
 62
     7
100
AcDbLine
 10
-106.8538434274611
 20
92.31246198975924
 30
0.0
 11
-106.2597976517327
 21
92.95749942579866
 31
0.0
  0
ARC
  5
191
330
4E
100
AcDbEntity
  8
0
  6
Continuous
 62
     7
100
AcDbCircle
 10
-105.3250002416721
 20
94.16249942531377
 30
0.0
 40
2.399999999981687
100
AcDbArc
 50
245.3756816500803
 51
270.0000000028243
  0
ARC
  5
192
330
4E
100
AcDbEntity
  8
0
  6
Continuous
 62
     7
100
AcDbCircle
 10
-104.7250002414496
 20
94.16249942535916
 30
0.0
 40
2.399999999983933
100
AcDbArc
 50
269.999999997675
 51
294.6243183488764
  0
ARC
  5
193
330
4E
100
AcDbEntity
  8
0
  6
Continuous
 62
     7
100
AcDbCircle
 10
-99.97500024184532
 20
94.45749942517175
 30
0.0
 40
1.000000000000006
100
AcDbArc
 50
293.5781784775037
 51
66.4218215206279
  0
ARC
  5
194
330
4E
100
AcDbEntity
  8
0
  6
Continuous
 62
     7
100
AcDbCircle
 10
-99.97500024184532
 20
94.45749942517175
 30
0.0
 40
1.000000000000004
100
AcDbArc
 50
113.5781784770312
 51
246.4218215210997
  0
ARC
  5
195
330
4E
100
AcDbEntity
  8
0
  6
Continuous
 62
     7
100
AcDbCircle
 10
-104.6250002418111
 20
93.95749942589075
 30
0.0
 40
1.000000000080607
100
AcDbArc
 50
282.8385673375557
 51
359.9999999947743
  0
ARC
  5
196
330
4E
100
AcDbEntity
  8
0
  6
Continuous
 62
     7
100
AcDbCircle
 10
-105.3250002417068
 20
94.16249942523865
 30
0.0
 40
2.400000000056821
100
AcDbArc
 50
89.9999999960154
 51
129.5698165149029
  0
ARC
  5
197
330
4E
100
AcDbEntity
  8
0
  6
Continuous
 62
     7
100
AcDbCircle
 10
-106.1250010615782
 20
93.18249942420094
 30
0.0
 40
0.2000000000026034
100
AcDbArc
 50
180.0000005881085
 51
269.9999999992265
  0
ARC
  5
198
330
4E
100
AcDbEntity
  8
0
  6
Continuous
 62
     7
100
AcDbCircle
 10
-104.6250002418762
 20
93.9574994260595
 30
0.0
 40
1.000000000259604
100
AcDbArc
 50
270.0000000083189
 51
282.838567339044
  0
ARC
  5
199
330
4E
100
AcDbEntity
  8
0
  6
Continuous
 62
     7
100
AcDbCircle
 10
-105.3250002414991
 20
94.1624994252496
 30
0.0
 40
2.399999999995461
100
AcDbArc
 50
230.4301834754218
 51
245.3756816456876
  0
ARC
  5
19A
330
4E
100
AcDbEntity
  8
0
  6
Continuous
 62
     7
100
AcDbCircle
 10
-104.6250002415435
 20
94.95749942549591
 30
0.0
 40
0.9999999998101998
100
AcDbArc
 50
359.9999999898727
 51
90.00000001077134
  0
ARC
  5
19B
330
4E
100
AcDbEntity
  8
0
  6
Continuous
 62
     7
100
AcDbCircle
 10
-105.3250002415637
 20
94.16249942536975
 30
0.0
 40
2.400000000046954
100
AcDbArc
 50
129.5698165195301
 51
230.4301834784377
  0
ARC
  5
19C
330
4E
100
AcDbEntity
  8
0
  6
Continuous
 62
     7
100
AcDbCircle
 10
-104.7250002415365
 20
94.1624994253402
 30
0.0
 40
2.400000000002893
100
AcDbArc
 50
294.6243183509509
 51
90.0000000006731
  0
SPLINE
  5
19D
330
4E
100
AcDbEntity
  8
0
  6
Continuous
 62
     7
100
AcDbSpline
210
0.0
220
0.0
230
1.0
 70
    24
 71
     3
 72
    11
 73
     7
 74
     5
 42
0.000000001
 43
0.0000000001
 44
0.00000001
 40
0.0
 40
0.0
 40
0.0
 40
0.0
 40
0.0249089242132357
 40
0.0498608670411897
 40
0.0749231137354229
 40
0.0999999998359016
 40
0.0999999998359016
 40
0.0999999998359016
 40
0.0999999998359016
 10
-104.6250002417315
 20
95.95749942530611
 30
0.0
 10
-104.6333032164692
 20
95.95749942530638
 30
0.0
 10
-104.6499235054829
 20
95.95749942530672
 30
0.0
 10
-104.6748978767281
 20
95.95749942530699
 30
0.0
 10
-104.699928235269
 20
95.95749942530702
 30
0.0
 10
-104.7166412795339
 20
95.95749942530699
 30
0.0
 10
-104.7250002415674
 20
95.957499425307
 30
0.0
 11
-104.6250002417315
 21
95.95749942530611
 31
0.0
 11
-104.6499091659447
 21
95.95749942530676
 31
0.0
 11
-104.6748611087727
 21
95.9574994253069
 31
0.0
 11
-104.699923355467
 21
95.95749942530696
 31
0.0
 11
-104.7250002415674
 21
95.957499425307
 31
0.0
  0
SPLINE
  5
19E
330
4E
100
AcDbEntity
  8
0
  6
Continuous
 62
     7
100
AcDbSpline
210
0.0
220
0.0
230
1.0
 70
    24
 71
     3
 72
    11
 73
     7
 74
     5
 42
0.000000001
 43
0.0000000001
 44
0.00000001
 40
0.0
 40
0.0
 40
0.0
 40
0.0
 40
0.025137320750801
 40
0.0502420400904242
 40
0.0751680243695745
 40
0.0999999998316952
 40
0.0999999998316952
 40
0.0999999998316952
 40
0.0999999998316952
 10
-104.7250002415627
 20
92.95749942579614
 30
0.0
 10
-104.7166211346458
 20
92.95749942579634
 30
0.0
 10
-104.6998737879489
 20
92.9574994257964
 30
0.0
 10
-104.6748177798258
 20
92.9574994257964
 30
0.0
 10
-104.6498635534655
 20
92.95749942579715
 30
0.0
 10
-104.633277566885
 20
92.9574994257987
 30
0.0
 10
-104.625000241731
 20
92.9574994257999
 30
0.0
 11
-104.7250002415627
 21
92.95749942579614
 31
0.0
 11
-104.6998629208119
 21
92.95749942579664
 31
0.0
 11
-104.6747582014723
 21
92.95749942579667
 31
0.0
 11
-104.6498322171932
 21
92.95749942579702
 31
0.0
 11
-104.625000241731
 21
92.9574994257999
 31
0.0
  0
SPLINE
  5
19F
330
4E
100
AcDbEntity
  8
0
  6
Continuous
 62
     2
100
AcDbSpline
210
0.0
220
0.0
230
1.0
 70
    24
 71
     3
 72
    11
 73
     7
 74
     5
 42
0.000000001
 43
0.0000000001
 44
0.00000001
 40
0.0
 40
0.0
 40
0.0
 40
0.0
 40
0.0202348218724637
 40
0.0404696426607956
 40
0.0607044633432849
 40
0.0809392844747947
 40
0.0809392844747947
 40
0.0809392844747947
 40
0.0809392844747947
 10
-106.4750002413756
 20
93.18249942309393
 30
0.0
 10
-106.4682553007514
 20
93.18249942301958
 30
0.0
 10
-106.4547654198645
 20
93.1824994228709
 30
0.0
 10
-106.4345305987501
 20
93.18249942264785
 30
0.0
 10
-106.4142957778827
 20
93.18249942242491
 30
0.0
 10
-106.400805897278
 20
93.18249942227622
 30
0.0
 10
-106.3940609569008
 20
93.18249942220189
 30
0.0
 11
-106.4750002413756
 21
93.18249942309393
 31
0.0
 11
-106.4547654195031
 21
93.1824994228709
 31
0.0
 11
-106.4345305987148
 21
93.18249942264794
 31
0.0
 11
-106.4142957780323
 21
93.18249942242494
 31
0.0
 11
-106.3940609569008
 21
93.18249942220189
 31
0.0
  0
SPLINE
  5
1A0
330
4E
100
AcDbEntity
  8
0
  6
Continuous
 62
     7
100
AcDbSpline
210
0.0
220
0.0
230
1.0
 70
     8
 71
     3
 72
    16
 73
    12
 74
    10
 42
0.000000001
 43
0.0000000001
 44
0.00000001
 40
0.0
 40
0.0
 40
0.0
 40
0.0
 40
0.0138421098147262
 40
0.026098837190107
 40
0.0327376114114923
 40
0.0391507957863628
 40
0.0421577845467003
 40
0.0444438773055744
 40
0.0456769599864087
 40
0.0494643188124651
 40
0.0522016184933113
 40
0.0522016184933113
 40
0.0522016184933113
 40
0.0522016184933113
 10
-106.389010466716
 20
93.1306125261184
 30
0.0
 10
-106.3898310064373
 20
93.13515419670784
 30
0.0
 10
-106.391378091121
 20
93.14371736784739
 30
0.0
 10
-106.3925999499807
 20
93.15456847170587
 30
0.0
 10
-106.393273586492
 20
93.16297789394184
 30
0.0
 10
-106.3935833657771
 20
93.16832235292443
 30
0.0
 10
-106.3937663779469
 20
93.17222013736657
 30
0.0
 10
-106.3938571845882
 20
93.17439365071544
 30
0.0
 10
-106.3939485359229
 20
93.17682742519116
 30
0.0
 10
-106.3940361774881
 20
93.17941210700312
 30
0.0
 10
-106.3940536403573
 20
93.18158699010183
 30
0.0
 10
-106.3940609569008
 20
93.18249942220189
 30
0.0
 11
-106.389010466716
 21
93.1306125261184
 31
0.0
 11
-106.3913108960565
 21
93.14426214246555
 31
0.0
 11
-106.3927245203788
 21
93.15643707703
 31
0.0
 11
-106.3932548601874
 21
93.16305463326016
 31
0.0
 11
-106.3936330977108
 21
93.1694566537904
 31
0.0
 11
-106.3937747009568
 21
93.17246030778016
 31
0.0
 11
-106.3938697301777
 21
93.17474442481061
 31
0.0
 11
-106.393916225541
 21
93.1759766306082
 31
0.0
 11
-106.3940290978427
 21
93.17976230755478
 31
0.0
 11
-106.3940609569008
 21
93.18249942220189
 31
0.0
  0
SPLINE
  5
1A1
330
4E
100
AcDbEntity
  8
0
  6
Continuous
 62
     7
100
AcDbSpline
210
0.0
220
0.0
230
1.0
 70
     8
 71
     3
 72
    44
 73
    40
 74
    38
 42
0.000000001
 43
0.0000000001
 44
0.00000001
 40
0.0
 40
0.0
 40
0.0
 40
0.0
 40
0.000101081761304
 40
0.0002021633378853
 40
0.0061404573828717
 40
0.0120787336199101
 40
0.0180170183476495
 40
0.0239553186074049
 40
0.0298936175355725
 40
0.0358318940432726
 40
0.0415563182566414
 40
0.0472807740739062
 40
0.0530052111978473
 40
0.0587296266580461
 40
0.0644540701995391
 40
0.0706959190643366
 40
0.0769377555110294
 40
0.0831795843808547
 40
0.0894214093697043
 40
0.0956632331882764
 40
0.1019050577137539
 40
0.1081468841320899
 40
0.1143887130695555
 40
0.1206305447135647
 40
0.1268723789215147
 40
0.1331142153181323
 40
0.1393560533804036
 40
0.1455978925101808
 40
0.1518397320958413
 40
0.1580815715611441
 40
0.164323410403504
 40
0.1705652482217444
 40
0.1768070847330702
 40
0.1830489197817763
 40
0.1892907533392552
 40
0.1955325854963483
 40
0.2017744164492961
 40
0.2080162464807677
 40
0.2142580760527536
 40
0.2142580760527536
 40
0.2142580760527536
 40
0.2142580760527536
 10
-106.389010466716
 20
93.1306125261184
 30
0.0
 10
-106.3890039715037
 20
93.13057946416686
 30
0.0
 10
-106.3889909670608
 20
93.13051334308251
 30
0.0
 10
-106.3885953485173
 20
93.1285051218009
 30
0.0
 10
-106.3877788446564
 20
93.12459655855199
 30
0.0
 10
-106.3864371037679
 20
93.11881137462635
 30
0.0
 10
-106.3849678798666
 20
93.11305720602336
 30
0.0
 10
-106.3833720571035
 20
93.10733685671073
 30
0.0
 10
-106.3816503261591
 20
93.10165313589881
 30
0.0
 10
-106.3798257439754
 20
93.09607655941625
 30
0.0
 10
-106.3779044706381
 20
93.09060809541377
 30
0.0
 10
-106.3758922804889
 20
93.08524850077482
 30
0.0
 10
-106.3737665110977
 20
93.07993293791533
 30
0.0
 10
-106.3715281591191
 20
93.07466379482729
 30
0.0
 10
-106.3691074199943
 20
93.06928618909976
 30
0.0
 10
-106.3664933775621
 20
93.06380797589577
 30
0.0
 10
-106.3636750984095
 20
93.05823798428392
 30
0.0
 10
-106.3607283726132
 20
93.05273487171807
 30
0.0
 10
-106.3576547855048
 20
93.0473016000572
 30
0.0
 10
-106.3544559890085
 20
93.04194109036303
 30
0.0
 10
-106.3511337036772
 20
93.03665622625482
 30
0.0
 10
-106.3476897168282
 20
93.03144985088163
 30
0.0
 10
-106.3441258816962
 20
93.02632476564837
 30
0.0
 10
-106.3404441162841
 20
93.02128372851776
 30
0.0
 10
-106.3366464022657
 20
93.01632945247104
 30
0.0
 10
-106.3327347838466
 20
93.01146460396882
 30
0.0
 10
-106.3287113666011
 20
93.0066918014671
 30
0.0
 10
-106.3245783163121
 20
93.00201361392442
 30
0.0
 10
-106.3203378576836
 20
92.99743255950406
 30
0.0
 10
-106.3159922734219
 20
92.99295110371617
 30
0.0
 10
-106.311543901833
 20
92.98857165982113
 30
0.0
 10
-106.3069951398476
 20
92.9842965809587
 30
0.0
 10
-106.3023484256831
 20
92.98012818332951
 30
0.0
 10
-106.2976062973908
 20
92.97606865365216
 30
0.0
 10
-106.2927711680894
 20
92.97212038868135
 30
0.0
 10
-106.287846158428
 20
92.96828472241907
 30
0.0
 10
-106.2828319833095
 20
92.9645666707054
 30
0.0
 10
-106.277738564173
 20
92.96095721879632
 30
0.0
 10
-106.274273977722
 20
92.95865201940673
 30
0.0
 10
-106.2725416804757
 20
92.9574994258285
 30
0.0
 11
-106.389010466716
 21
93.1306125261184
 31
0.0
 11
-106.3889909716086
 21
93.13051334162151
 31
0.0
 11
-106.3889714327043
 21
93.1304141656726
 31
0.0
 11
-106.3877576308309
 21
93.12460124349083
 31
0.0
 11
-106.3864158651871
 21
93.11881654069015
 31
0.0
 11
-106.3849467895655
 21
93.11306284260284
 31
0.0
 11
-106.3833510799845
 21
93.10734295440986
 31
0.0
 11
-106.3816294946973
 21
93.10165968610953
 31
0.0
 11
-106.3797829138414
 21
93.09601581620774
 31
0.0
 11
-106.3778853910191
 21
93.09061503476579
 31
0.0
 11
-106.3758733559089
 21
93.08525582683413
 31
0.0
 11
-106.3737477520633
 21
93.07994066086701
 31
0.0
 11
-106.3715095728601
 21
93.07467193361771
 31
0.0
 11
-106.3691598038045
 21
93.06945198726874
 31
0.0
 11
-106.3664717235694
 21
93.06381861326155
 31
0.0
 11
-106.3636536964176
 21
93.05824912082204
 31
0.0
 11
-106.3607072356119
 21
93.05274650351517
 31
0.0
 11
-106.3576339244194
 21
93.0473137198454
 31
0.0
 11
-106.3544354151121
 21
93.04195369151311
 31
0.0
 11
-106.3511134279451
 21
93.0366693017062
 31
0.0
 11
-106.34766975011
 21
93.03146339342773
 31
0.0
 11
-106.3441062346685
 21
93.02633876785897
 31
0.0
 11
-106.3404247994603
 21
93.02129818275817
 31
0.0
 11
-106.3366274259896
 21
93.01634435089504
 31
0.0
 11
-106.3327161582887
 21
93.01147993852064
 31
0.0
 11
-106.328693101758
 21
93.00670756387305
 31
0.0
 11
-106.3245604219842
 21
93.00202979571908
 31
0.0
 11
-106.3203203435345
 21
92.99744915193061
 31
0.0
 11
-106.3159751487285
 21
92.99296809809772
 31
0.0
 11
-106.3115271763879
 21
92.98858904617668
 31
0.0
 11
-106.3069788205614
 21
92.98431435317387
 31
0.0
 11
-106.3023325292294
 21
92.98014631986547
 31
0.0
 11
-106.2975908029835
 21
92.97608718955249
 31
0.0
 11
-106.2927561936839
 21
92.97213914685153
 31
0.0
 11
-106.2878313030949
 21
92.96830431652128
 31
0.0
 11
-106.2828187814961
 21
92.96458476232482
 31
0.0
 11
-106.2777213262716
 21
92.96098248592718
 31
0.0
 11
-106.2725416804757
 21
92.9574994258285
 31
0.0
  0
ENDBLK
  5
50
330
4E
100
AcDbEntity
  8
0
100
AcDbBlockEnd
  0
BLOCK
  5
53
330
51
100
AcDbEntity
  8
0
100
AcDbBlockBegin
  2
Drfsicht1
 70
     0
 10
-102.4250001491889
 20
94.33749937709851
 30
0.0
  3
Drfsicht1
  1

  0
INSERT
  5
52
330
51
100
AcDbEntity
  8
0
100
AcDbBlockReference
  2
PP_H_2_5_1_GNYE-select__2
 10
-110.2750002416686
 20
91.76249942528477
 30
0.0
  0
MTEXT
  5
1A2
330
51
100
AcDbEntity
  8
1
 62
     6
100
AcDbMText
 10
-102.4250001491889
 20
86.76249932626115
 30
0.0
 40
5.0
 41
0.0
 71
     2
 72
     1
  1
 
  7
CONVERTER_11
 73
     1
 44
1.32052821128451
  0
DIMENSION
  5
1AF
330
51
100
AcDbEntity
  8
1
100
AcDbDimension
  2
*D17
 10
-120.2750002416686
 20
96.91249942188608
 30
0.0
 11
-123.7000002416686
 21
105.296398364275
 31
0.0
 70
    32
  1
<>
 71
     5
 42
-1.0
 53
90.0
  3
ME10_DIM_10
100
AcDbAlignedDimension
 13
-110.2750002416327
 23
91.76249942744872
 33
0.0
 14
-110.2750002416686
 24
96.91249942188608
 34
0.0
 50
90.0
100
AcDbRotatedDimension
  0
ENDBLK
  5
54
330
51
100
AcDbEntity
  8
0
100
AcDbBlockEnd
  0
BLOCK
  5
56
330
55
100
AcDbEntity
  8
0
100
AcDbBlockBegin
  2
PP_H_2_5_1_GNYE-select__3
 70
     0
 10
-39.72499977721545
 20
126.9124998093579
 30
0.0
  3
PP_H_2_5_1_GNYE-select__3
  1

  0
LINE
  5
1B0
330
55
100
AcDbEntity
  8
0
  6
Continuous
 62
     7
100
AcDbLine
 10
-23.724999758335
 20
153.0039228577469
 30
0.0
 11
-23.72499975833505
 21
159.2811963582047
 31
0.0
  0
LINE
  5
1B1
330
55
100
AcDbEntity
  8
0
  6
Continuous
 62
     7
100
AcDbLine
 10
-27.42499975835263
 20
133.4124998092903
 30
0.0
 11
-26.42499975836685
 21
133.4124998092978
 31
0.0
  0
LINE
  5
1B2
330
55
100
AcDbEntity
  8
0
  6
Continuous
 62
     7
100
AcDbLine
 10
-25.42499975833294
 20
146.5874998092885
 30
0.0
 11
-25.42499975833437
 21
152.9124998092936
 31
0.0
  0
LINE
  5
1B3
330
55
100
AcDbEntity
  8
0
  6
Continuous
 62
     7
100
AcDbLine
 10
-24.52499975836626
 20
142.5124998092743
 30
0.0
 11
-23.72499975833492
 21
142.5124998092929
 31
0.0
  0
LINE
  5
1B4
330
55
100
AcDbEntity
  8
0
  6
Continuous
 62
     7
100
AcDbLine
 10
-25.82499966834642
 20
159.0299998417654
 30
0.0
 11
-25.82499966834614
 21
165.4024997563333
 31
0.0
  0
LINE
  5
1B5
330
55
100
AcDbEntity
  8
0
  6
Continuous
 62
     7
100
AcDbLine
 10
-25.82499966834614
 20
165.4024997563333
 30
0.0
 11
-24.97626525507174
 21
165.5067112385542
 31
0.0
  0
LINE
  5
1B6
330
55
100
AcDbEntity
  8
0
  6
Continuous
 62
     7
100
AcDbLine
 10
-34.52499975841049
 20
126.9124998093579
 30
0.0
 11
-27.92499975831318
 21
126.9124998093591
 31
0.0
  0
LINE
  5
1B7
330
55
100
AcDbEntity
  8
0
  6
Continuous
 62
     7
100
AcDbLine
 10
-27.42499975834681
 20
128.4124998092839
 30
0.0
 11
-27.42499975835246
 21
132.4828291181393
 31
0.0
  0
LINE
  5
1B8
330
55
100
AcDbEntity
  8
0
  6
Continuous
 62
     7
100
AcDbLine
 10
-34.9749997583404
 20
137.6289357183381
 30
0.0
 11
-34.97499975833998
 21
136.1960639000921
 31
0.0
  0
LINE
  5
1B9
330
55
100
AcDbEntity
  8
0
  6
Continuous
 62
     7
100
AcDbLine
 10
-35.02499975835929
 20
142.4624998018597
 30
0.0
 11
-35.02499975833454
 21
141.4624998095784
 31
0.0
  0
LINE
  5
1BA
330
55
100
AcDbEntity
  8
0
  6
Continuous
 62
     7
100
AcDbLine
 10
-27.42499975834041
 20
141.4624998095785
 30
0.0
 11
-27.42499975833554
 21
142.4624998018598
 31
0.0
  0
LINE
  5
1BB
330
55
100
AcDbEntity
  8
0
  6
Continuous
 62
     7
100
AcDbLine
 10
-27.42499975834041
 20
141.4624998095785
 30
0.0
 11
-35.02499975833454
 21
141.4624998095784
 31
0.0
  0
LINE
  5
1BC
330
55
100
AcDbEntity
  8
0
  6
Continuous
 62
     7
100
AcDbLine
 10
-27.42499975833554
 20
142.4624998018598
 30
0.0
 11
-27.42499975833554
 21
142.5124998092929
 31
0.0
  0
LINE
  5
1BD
330
55
100
AcDbEntity
  8
0
  6
Continuous
 62
     7
100
AcDbLine
 10
-35.02499975832966
 20
142.5124998092928
 30
0.0
 11
-35.02499975835929
 21
142.4624998018597
 31
0.0
  0
LINE
  5
1BE
330
55
100
AcDbEntity
  8
0
  6
Continuous
 62
     7
100
AcDbLine
 10
-24.35499975833466
 20
146.8598074304287
 30
0.0
 11
-24.35499975833398
 21
146.5874998092881
 31
0.0
  0
LINE
  5
1BF
330
55
100
AcDbEntity
  8
0
  6
Continuous
 62
     7
100
AcDbLine
 10
-23.72499975833495
 20
146.4960767608407
 30
0.0
 11
-24.35499975833466
 21
146.8598074304287
 31
0.0
  0
LINE
  5
1C0
330
55
100
AcDbEntity
  8
0
  6
Continuous
 62
     7
100
AcDbLine
 10
-35.02499975835929
 20
142.4624998018597
 30
0.0
 11
-27.42499975833554
 21
142.4624998018598
 31
0.0
  0
LINE
  5
1C1
330
55
100
AcDbEntity
  8
0
  6
Continuous
 62
     7
100
AcDbLine
 10
-35.02499975840998
 20
135.9124998087141
 30
0.0
 11
-35.02499975840782
 21
128.412499809349
 31
0.0
  0
LINE
  5
1C2
330
55
100
AcDbEntity
  8
0
  6
Continuous
 62
     7
100
AcDbLine
 10
-35.02499975840782
 20
128.412499809349
 30
0.0
 11
-34.52499975841049
 21
126.9124998093579
 31
0.0
  0
LINE
  5
1C3
330
55
100
AcDbEntity
  8
0
  6
Continuous
 62
     7
100
AcDbLine
 10
-27.92499975831318
 20
126.9124998093591
 30
0.0
 11
-27.42499975834681
 21
128.4124998092839
 31
0.0
  0
LINE
  5
1C4
330
55
100
AcDbEntity
  8
0
  6
Continuous
 62
     7
100
AcDbLine
 10
-27.33711251791522
 20
128.6761615305789
 30
0.0
 11
-27.42499975834681
 21
128.4124998092839
 31
0.0
  0
LINE
  5
1C5
330
55
100
AcDbEntity
  8
0
  6
Continuous
 62
     7
100
AcDbLine
 10
-26.42499975836751
 20
134.4124998092905
 30
0.0
 11
-27.42499975836741
 21
134.6124998092902
 31
0.0
  0
LINE
  5
1C6
330
55
100
AcDbEntity
  8
0
  6
Continuous
 62
     7
100
AcDbLine
 10
-24.02499975836766
 20
133.4124998092982
 30
0.0
 11
-26.42499975836685
 21
133.4124998092978
 31
0.0
  0
LINE
  5
1C7
330
55
100
AcDbEntity
  8
0
  6
Continuous
 62
     7
100
AcDbLine
 10
-26.42499975836685
 20
133.4124998092978
 30
0.0
 11
-26.42499975836751
 21
134.4124998092905
 31
0.0
  0
LINE
  5
1C8
330
55
100
AcDbEntity
  8
0
  6
Continuous
 62
     7
100
AcDbLine
 10
-26.42499975836751
 20
134.4124998092905
 30
0.0
 11
-26.42499975836846
 21
141.5124998093004
 31
0.0
  0
LINE
  5
1C9
330
55
100
AcDbEntity
  8
0
  6
Continuous
 62
     7
100
AcDbLine
 10
-24.02499975837068
 20
141.5124998093004
 30
0.0
 11
-24.02499975836766
 21
133.4124998092982
 31
0.0
  0
LINE
  5
1CA
330
55
100
AcDbEntity
  8
0
  6
Continuous
 62
     7
100
AcDbLine
 10
-27.42499975835263
 20
133.4124998092903
 30
0.0
 11
-27.42499975836741
 21
134.6124998092902
 31
0.0
  0
LINE
  5
1CB
330
55
100
AcDbEntity
  8
0
  6
Continuous
 62
     7
100
AcDbLine
 10
-27.42499975835246
 20
132.4828291181393
 30
0.0
 11
-27.42499975835263
 21
133.4124998092903
 31
0.0
  0
LINE
  5
1CC
330
55
100
AcDbEntity
  8
0
  6
Continuous
 62
     7
100
AcDbLine
 10
-27.42499975836741
 20
134.6124998092902
 30
0.0
 11
-27.42499975834072
 21
137.9124998092812
 31
0.0
  0
LINE
  5
1CD
330
55
100
AcDbEntity
  8
0
  6
Continuous
 62
     7
100
AcDbLine
 10
-24.35499975833247
 20
152.9124998092935
 30
0.0
 11
-24.35499975837016
 21
152.6401921881375
 31
0.0
  0
LINE
  5
1CE
330
55
100
AcDbEntity
  8
0
  6
Continuous
 62
     7
100
AcDbLine
 10
-24.35499975837016
 20
152.6401921881375
 30
0.0
 11
-23.724999758335
 21
153.0039228577469
 31
0.0
  0
LINE
  5
1CF
330
55
100
AcDbEntity
  8
0
  6
Continuous
 62
     7
100
AcDbLine
 10
-23.72499975833505
 20
159.2811963582047
 30
0.0
 11
-24.23847411043749
 21
159.4991532894671
 31
0.0
  0
LINE
  5
1D0
330
55
100
AcDbEntity
  8
0
  6
Continuous
 62
     7
100
AcDbLine
 10
-24.20528815945203
 20
159.2288754081053
 30
0.0
 11
-25.82499966834642
 21
159.0299998417654
 31
0.0
  0
LINE
  5
1D1
330
55
100
AcDbEntity
  8
0
  6
Continuous
 62
     7
100
AcDbLine
 10
-37.22500010634865
 20
165.3844806590756
 30
0.0
 11
-37.22500010634865
 21
159.0119810130469
 31
0.0
  0
LINE
  5
1D2
330
55
100
AcDbEntity
  8
0
  6
Continuous
 62
     7
100
AcDbLine
 10
-34.97499975833998
 20
136.1960639000921
 30
0.0
 11
-35.02499975840998
 21
135.9124998087141
 31
0.0
  0
LINE
  5
1D3
330
55
100
AcDbEntity
  8
0
  6
Continuous
 62
     7
100
AcDbLine
 10
-35.07499975834043
 20
138.196063900299
 30
0.0
 11
-34.9749997583404
 21
137.6289357183381
 31
0.0
  0
LINE
  5
1D4
330
55
100
AcDbEntity
  8
0
  6
Continuous
 62
     7
100
AcDbLine
 10
-27.37499975834368
 20
138.1960639002454
 30
0.0
 11
-27.3749997583437
 21
141.1289357183235
 31
0.0
  0
LINE
  5
1D5
330
55
100
AcDbEntity
  8
0
  6
Continuous
 62
     7
100
AcDbLine
 10
-27.42499975834072
 20
137.9124998092812
 30
0.0
 11
-27.37499975834368
 21
138.1960639002454
 31
0.0
  0
LINE
  5
1D6
330
55
100
AcDbEntity
  8
0
  6
Continuous
 62
     7
100
AcDbLine
 10
-35.02499975833454
 20
141.4624998095784
 30
0.0
 11
-35.02499975833454
 21
141.4124998093458
 31
0.0
  0
LINE
  5
1D7
330
55
100
AcDbEntity
  8
0
  6
Continuous
 62
     7
100
AcDbLine
 10
-35.02499975833454
 20
141.4124998093458
 30
0.0
 11
-35.07499975834045
 21
141.1289357183317
 31
0.0
  0
LINE
  5
1D8
330
55
100
AcDbEntity
  8
0
  6
Continuous
 62
     2
100
AcDbLine
 10
-25.92499975836891
 20
142.012499809289
 30
0.0
 11
-24.52499975836624
 21
142.0124998092891
 31
0.0
  0
LINE
  5
1D9
330
55
100
AcDbEntity
  8
0
  6
Continuous
 62
     7
100
AcDbLine
 10
-25.92499975836891
 20
142.012499809289
 30
0.0
 11
-25.92499975836647
 21
142.5124998092742
 31
0.0
  0
LINE
  5
1DA
330
55
100
AcDbEntity
  8
0
  6
Continuous
 62
     7
100
AcDbLine
 10
-24.52499975836626
 20
142.5124998092743
 30
0.0
 11
-24.52499975836624
 21
142.0124998092891
 31
0.0
  0
LINE
  5
1DB
330
55
100
AcDbEntity
  8
0
  6
Continuous
 62
     7
100
AcDbLine
 10
-27.42499975834041
 20
141.4124998092857
 30
0.0
 11
-27.42499975834041
 21
141.4624998095785
 31
0.0
  0
LINE
  5
1DC
330
55
100
AcDbEntity
  8
0
  6
Continuous
 62
     7
100
AcDbLine
 10
-27.3749997583437
 20
141.1289357183235
 30
0.0
 11
-27.42499975834041
 21
141.4124998092857
 31
0.0
  0
LINE
  5
1DD
330
55
100
AcDbEntity
  8
0
  6
Continuous
 62
     7
100
AcDbLine
 10
-26.42499975836846
 20
141.5124998093004
 30
0.0
 11
-24.02499975837068
 21
141.5124998093004
 31
0.0
  0
LINE
  5
1DE
330
55
100
AcDbEntity
  8
0
  6
Continuous
 62
     7
100
AcDbLine
 10
-35.07499975834045
 20
141.1289357183317
 30
0.0
 11
-35.07499975834043
 21
138.196063900299
 31
0.0
  0
LINE
  5
1DF
330
55
100
AcDbEntity
  8
0
  6
Continuous
 62
     7
100
AcDbLine
 10
-25.92499975836647
 20
142.5124998092742
 30
0.0
 11
-24.52499975836626
 21
142.5124998092743
 31
0.0
  0
LINE
  5
1E0
330
55
100
AcDbEntity
  8
0
  6
Continuous
 62
     7
100
AcDbLine
 10
-27.42499975833554
 20
142.5124998092929
 30
0.0
 11
-25.92499975836647
 21
142.5124998092742
 31
0.0
  0
LINE
  5
1E1
330
55
100
AcDbEntity
  8
0
  6
Continuous
 62
     7
100
AcDbLine
 10
-39.27499975825817
 20
142.5124998092928
 30
0.0
 11
-35.02499975832966
 21
142.5124998092928
 31
0.0
  0
LINE
  5
1E2
330
55
100
AcDbEntity
  8
0
  6
Continuous
 62
     7
100
AcDbLine
 10
-39.27499975828037
 20
146.6224487244186
 30
0.0
 11
-39.27499975825817
 21
142.5124998092928
 31
0.0
  0
LINE
  5
1E3
330
55
100
AcDbEntity
  8
0
  6
Continuous
 62
     7
100
AcDbLine
 10
-23.72499975833492
 20
142.5124998092929
 30
0.0
 11
-23.72499975833495
 21
146.4960767608407
 31
0.0
  0
LINE
  5
1E4
330
55
100
AcDbEntity
  8
0
  6
Continuous
 62
     7
100
AcDbLine
 10
-39.72499977721545
 20
159.1226343707614
 30
0.0
 11
-39.72499977721535
 21
148.1958332055162
 31
0.0
  0
LINE
  5
1E5
330
55
100
AcDbEntity
  8
0
  6
Continuous
 62
     7
100
AcDbLine
 10
-38.89815367090903
 20
159.2174184387938
 30
0.0
 11
-38.8649677199161
 21
159.4876963202164
 31
0.0
  0
LINE
  5
1E6
330
55
100
AcDbEntity
  8
0
  6
Continuous
 62
     7
100
AcDbLine
 10
-25.42499975833437
 20
152.9124998092936
 30
0.0
 11
-24.35499975833247
 21
152.9124998092935
 31
0.0
  0
LINE
  5
1E7
330
55
100
AcDbEntity
  8
0
  6
Continuous
 62
     7
100
AcDbLine
 10
-37.22500010634865
 20
159.0119810130469
 30
0.0
 11
-38.89815367090903
 21
159.2174184387938
 31
0.0
  0
LINE
  5
1E8
330
55
100
AcDbEntity
  8
0
  6
Continuous
 62
     7
100
AcDbLine
 10
-38.8649677199161
 20
159.4876963202164
 30
0.0
 11
-39.72499977721545
 21
159.1226343707614
 31
0.0
  0
LINE
  5
1E9
330
55
100
AcDbEntity
  8
0
  6
Continuous
 62
     7
100
AcDbLine
 10
-38.46580939306517
 20
167.0874998093676
 30
0.0
 11
-38.64927399717313
 21
165.5933005160607
 31
0.0
  0
LINE
  5
1EA
330
55
100
AcDbEntity
  8
0
  6
Continuous
 62
     7
100
AcDbLine
 10
-38.64927399717313
 20
165.5933005160607
 30
0.0
 11
-38.16051602486343
 21
165.224994966507
 31
0.0
  0
LINE
  5
1EB
330
55
100
AcDbEntity
  8
0
  6
Continuous
 62
     7
100
AcDbLine
 10
-24.51666652579547
 20
166.1124997651385
 30
0.0
 11
-33.01749944980376
 21
166.1124997650985
 31
0.0
  0
LINE
  5
1EC
330
55
100
AcDbEntity
  8
0
  6
Continuous
 62
     7
100
AcDbLine
 10
-33.01749944980376
 20
166.1124997650985
 30
0.0
 11
-36.62499994065004
 21
167.0874998093676
 31
0.0
  0
LINE
  5
1ED
330
55
100
AcDbEntity
  8
0
  6
Continuous
 62
     7
100
AcDbLine
 10
-24.23847411043749
 20
159.4991532894671
 30
0.0
 11
-24.20528815945203
 21
159.2288754081053
 31
0.0
  0
LINE
  5
1EE
330
55
100
AcDbEntity
  8
0
  6
Continuous
 62
     7
100
AcDbLine
 10
-24.97626525507174
 20
165.5067112385542
 30
0.0
 11
-24.9430793041203
 21
165.2364333570599
 31
0.0
  0
LINE
  5
1EF
330
55
100
AcDbEntity
  8
0
  6
Continuous
 62
     7
100
AcDbLine
 10
-24.9430793041203
 20
165.2364333570599
 30
0.0
 11
-24.45432133176031
 21
165.6047389066191
 31
0.0
  0
LINE
  5
1F0
330
55
100
AcDbEntity
  8
0
  6
Continuous
 62
     7
100
AcDbLine
 10
-24.45432133176031
 20
165.6047389066191
 30
0.0
 11
-24.51666652579547
 21
166.1124997651385
 31
0.0
  0
LINE
  5
1F1
330
55
100
AcDbEntity
  8
0
  6
Continuous
 62
     7
100
AcDbLine
 10
-38.16051602486343
 20
165.224994966507
 30
0.0
 11
-38.12733007387158
 21
165.4952728479273
 31
0.0
  0
LINE
  5
1F2
330
55
100
AcDbEntity
  8
0
  6
Continuous
 62
     7
100
AcDbLine
 10
-38.12733007387158
 20
165.4952728479273
 30
0.0
 11
-37.22500010634865
 21
165.3844806590756
 31
0.0
  0
LINE
  5
1F3
330
55
100
AcDbEntity
  8
0
  6
Continuous
 62
     7
100
AcDbLine
 10
-36.62499994065004
 20
167.0874998093676
 30
0.0
 11
-38.46580939306517
 21
167.0874998093676
 31
0.0
  0
LINE
  5
1F4
330
55
100
AcDbEntity
  8
0
  6
Continuous
 62
     7
100
AcDbLine
 10
-24.35499975833398
 20
146.5874998092881
 30
0.0
 11
-25.42499975833294
 21
146.5874998092885
 31
0.0
  0
LINE
  5
1F5
330
55
100
AcDbEntity
  8
0
  6
Continuous
 62
     7
100
AcDbLine
 10
-39.72499977721535
 20
148.1958332055162
 30
0.0
 11
-39.29608661567387
 21
146.766122667215
 31
0.0
  0
ARC
  5
1F6
330
55
100
AcDbEntity
  8
0
  6
Continuous
 62
     7
100
AcDbCircle
 10
-28.5249997583679
 20
130.8124998092957
 30
0.0
 40
2.000000000003987
100
AcDbArc
 50
327.9223455679722
 51
56.63298703031369
  0
ARC
  5
1F7
330
55
100
AcDbEntity
  8
0
  6
Continuous
 62
     7
100
AcDbCircle
 10
-22.59369602764499
 20
127.0950227005801
 30
0.0
 40
4.999999999989726
100
AcDbArc
 50
147.9223455690722
 51
161.5650511780703
  0
ARC
  5
1F8
330
55
100
AcDbEntity
  8
0
  6
Continuous
 62
     7
100
AcDbCircle
 10
-24.02499975836879
 20
142.0124998092979
 30
0.0
 40
0.4999999999974492
100
AcDbArc
 50
180.0000000010096
 51
269.9999999997834
  0
ARC
  5
1F9
330
55
100
AcDbEntity
  8
0
  6
Continuous
 62
     7
100
AcDbCircle
 10
-26.42499975836846
 20
142.0124998092992
 30
0.0
 40
0.4999999999987779
100
AcDbArc
 50
270.0
 51
359.999999998834
  0
ARC
  5
1FA
330
55
100
AcDbEntity
  8
0
  6
Continuous
 62
     7
100
AcDbCircle
 10
-39.77499975828262
 20
146.622448724418
 30
0.0
 40
0.5000000000022453
100
AcDbArc
 50
0.00000000006839
 51
16.69924423557086
  0
ENDBLK
  5
57
330
55
100
AcDbEntity
  8
0
100
AcDbBlockEnd
  0
BLOCK
  5
5A
330
58
100
AcDbEntity
  8
0
100
AcDbBlockBegin
  2
Rckans1
 70
     0
 10
-31.57499985081476
 20
147.00000000004
 30
0.0
  3
Rckans1
  1

  0
INSERT
  5
59
330
58
100
AcDbEntity
  8
0
100
AcDbBlockReference
  2
PP_H_2_5_1_GNYE-select__3
 10
-39.72499977721545
 20
126.9124998093579
 30
0.0
  0
MTEXT
  5
1FB
330
58
100
AcDbEntity
  8
1
 62
     6
100
AcDbMText
 10
-31.57499985081506
 20
121.9124994278163
 30
0.0
 40
5.0
 41
0.0
 71
     2
 72
     1
  1
 
  7
CONVERTER_11
 73
     1
 44
1.32052821128451
  0
ENDBLK
  5
5B
330
58
100
AcDbEntity
  8
0
100
AcDbBlockEnd
  0
BLOCK
  5
5D
330
5C
100
AcDbEntity
  8
0
100
AcDbBlockBegin
  2
PP_H_2_5_1_GNYE-select__4
 70
     0
 10
-72.57500004507676
 20
126.9124998093281
 30
0.0
  3
PP_H_2_5_1_GNYE-select__4
  1

  0
LINE
  5
1FC
330
5C
100
AcDbEntity
  8
0
  6
Continuous
 62
     7
100
AcDbLine
 10
-72.57500004507676
 20
142.4624998018598
 30
0.0
 11
-72.5750000450764
 21
142.5124998092929
 31
0.0
  0
LINE
  5
1FD
330
5C
100
AcDbEntity
  8
0
  6
Continuous
 62
     7
100
AcDbLine
 10
-70.05000005066954
 20
129.7503634924935
 30
0.0
 11
-70.05000005062999
 21
132.4828291181393
 31
0.0
  0
LINE
  5
1FE
330
5C
100
AcDbEntity
  8
0
  6
Continuous
 62
     7
100
AcDbLine
 10
-71.87500005049819
 20
141.4624998095785
 30
0.0
 11
-72.57500004507676
 21
142.4624998018598
 31
0.0
  0
LINE
  5
1FF
330
5C
100
AcDbEntity
  8
0
  6
Continuous
 62
     7
100
AcDbLine
 10
-72.5750000450764
 20
142.5124998092929
 30
0.0
 11
-70.0500000504802
 21
142.5124998092743
 31
0.0
  0
LINE
  5
200
330
5C
100
AcDbEntity
  8
0
  6
Continuous
 62
     7
100
AcDbLine
 10
-67.42500005052763
 20
166.1124997650322
 30
0.0
 11
-67.64325762545378
 21
166.1124997650599
 31
0.0
  0
LINE
  5
201
330
5C
100
AcDbEntity
  8
0
  6
Continuous
 62
     7
100
AcDbLine
 10
-68.22000005016059
 20
166.1124997650663
 30
0.0
 11
-67.64325762545378
 21
166.1124997650599
 31
0.0
  0
LINE
  5
202
330
5C
100
AcDbEntity
  8
0
  6
Continuous
 62
     7
100
AcDbLine
 10
-72.0200000501417
 20
166.1124997650944
 30
0.0
 11
-68.22000005016059
 21
166.1124997650663
 31
0.0
  0
LINE
  5
203
330
5C
100
AcDbEntity
  8
0
  6
Continuous
 62
     7
100
AcDbLine
 10
-67.42500005052763
 20
166.1124997650322
 30
0.0
 11
-67.42500005047161
 21
165.604738906581
 31
0.0
  0
LINE
  5
204
330
5C
100
AcDbEntity
  8
0
  6
Continuous
 62
     7
100
AcDbLine
 10
-67.4250000505456
 20
167.0874997681599
 30
0.0
 11
-72.57500004490586
 21
167.0874998093676
 31
0.0
  0
LINE
  5
205
330
5C
100
AcDbEntity
  8
0
  6
Continuous
 62
     7
100
AcDbLine
 10
-67.42500005052763
 20
166.1124997650322
 30
0.0
 11
-67.4250000505456
 21
167.0874997681599
 31
0.0
  0
LINE
  5
206
330
5C
100
AcDbEntity
  8
0
  6
Continuous
 62
     7
100
AcDbLine
 10
-68.22000005016059
 20
166.1124997650663
 30
0.0
 11
-68.22000005016208
 21
166.9253376126261
 31
0.0
  0
LINE
  5
207
330
5C
100
AcDbEntity
  8
0
  6
Continuous
 62
     7
100
AcDbLine
 10
-72.0200000501432
 20
166.9253377066936
 30
0.0
 11
-72.0200000501417
 21
166.1124997650944
 31
0.0
  0
LINE
  5
208
330
5C
100
AcDbEntity
  8
0
  6
Continuous
 62
     7
100
AcDbLine
 10
-72.57500004490956
 20
166.1124997650985
 30
0.0
 11
-72.57500004490586
 21
167.0874998093676
 31
0.0
  0
LINE
  5
209
330
5C
100
AcDbEntity
  8
0
  6
Continuous
 62
     7
100
AcDbLine
 10
-72.57500004490832
 20
165.23643335706
 30
0.0
 11
-72.57500004490517
 21
165.6047389066191
 31
0.0
  0
LINE
  5
20A
330
5C
100
AcDbEntity
  8
0
  6
Continuous
 62
     7
100
AcDbLine
 10
-72.57500004490832
 20
165.23643335706
 30
0.0
 11
-67.42500005047775
 21
165.2364333570219
 31
0.0
  0
LINE
  5
20B
330
5C
100
AcDbEntity
  8
0
  6
Continuous
 62
     7
100
AcDbLine
 10
-67.42500005047775
 20
165.2364333570219
 30
0.0
 11
-67.42500005051521
 21
159.4991532894291
 31
0.0
  0
LINE
  5
20C
330
5C
100
AcDbEntity
  8
0
  6
Continuous
 62
     7
100
AcDbLine
 10
-72.5750000449506
 20
159.2811963582047
 30
0.0
 11
-67.42500005051325
 21
159.2811963581667
 31
0.0
  0
LINE
  5
20D
330
5C
100
AcDbEntity
  8
0
  6
Continuous
 62
     7
100
AcDbLine
 10
-67.42500005051325
 20
159.2811963581667
 30
0.0
 11
-67.42500005051521
 21
159.4991532894291
 31
0.0
  0
LINE
  5
20E
330
5C
100
AcDbEntity
  8
0
  6
Continuous
 62
     7
100
AcDbLine
 10
-67.42500005051325
 20
159.2811963581667
 30
0.0
 11
-67.42500005055962
 21
153.0039228577089
 31
0.0
  0
LINE
  5
20F
330
5C
100
AcDbEntity
  8
0
  6
Continuous
 62
     7
100
AcDbLine
 10
-72.57500004494949
 20
159.4991532894671
 30
0.0
 11
-67.42500005051521
 21
159.4991532894291
 31
0.0
  0
LINE
  5
210
330
5C
100
AcDbEntity
  8
0
  6
Continuous
 62
     7
100
AcDbLine
 10
-72.57500004499964
 20
152.6401921881376
 30
0.0
 11
-67.42500005056671
 21
152.6401921880995
 31
0.0
  0
LINE
  5
211
330
5C
100
AcDbEntity
  8
0
  6
Continuous
 62
     7
100
AcDbLine
 10
-72.57500004499964
 20
152.6401921881376
 30
0.0
 11
-72.57500004499639
 21
153.0039228577469
 31
0.0
  0
LINE
  5
212
330
5C
100
AcDbEntity
  8
0
  6
Continuous
 62
     7
100
AcDbLine
 10
-67.42500005079104
 20
141.7481294102433
 30
0.0
 11
-67.42500005066294
 21
142.5124998092549
 31
0.0
  0
LINE
  5
213
330
5C
100
AcDbEntity
  8
0
  6
Continuous
 62
     7
100
AcDbLine
 10
-67.42500005060941
 20
146.8598074303907
 30
0.0
 11
-67.4250000506077
 21
146.4960767608026
 31
0.0
  0
LINE
  5
214
330
5C
100
AcDbEntity
  8
0
  6
Continuous
 62
     7
100
AcDbLine
 10
-67.62500005049816
 20
141.4624998093219
 30
0.0
 11
-67.6250000504959
 21
141.4124998092543
 31
0.0
  0
LINE
  5
215
330
5C
100
AcDbEntity
  8
0
  6
Continuous
 62
     7
100
AcDbLine
 10
-67.6250000504959
 20
141.4124998092543
 30
0.0
 11
-67.62500005059279
 21
141.1289357182921
 31
0.0
  0
LINE
  5
216
330
5C
100
AcDbEntity
  8
0
  6
Continuous
 62
     7
100
AcDbLine
 10
-67.62500005054729
 20
137.9124998092498
 30
0.0
 11
-68.95000005054678
 21
137.9124998092596
 31
0.0
  0
LINE
  5
217
330
5C
100
AcDbEntity
  8
0
  6
Continuous
 62
     7
100
AcDbLine
 10
-67.62500005063585
 20
138.1960639002139
 30
0.0
 11
-68.95000005054261
 21
138.1960639002238
 31
0.0
  0
LINE
  5
218
330
5C
100
AcDbEntity
  8
0
  6
Continuous
 62
     7
100
AcDbLine
 10
-67.62500005063585
 20
138.1960639002139
 30
0.0
 11
-67.62500005054729
 21
137.9124998092498
 31
0.0
  0
LINE
  5
219
330
5C
100
AcDbEntity
  8
0
  6
Continuous
 62
     7
100
AcDbLine
 10
-67.62500005059279
 20
141.1289357182921
 30
0.0
 11
-68.95000005049955
 21
141.1289357183019
 31
0.0
  0
LINE
  5
21A
330
5C
100
AcDbEntity
  8
0
  6
Continuous
 62
     7
100
AcDbLine
 10
-67.62500005059279
 20
141.1289357182921
 30
0.0
 11
-67.62500005063585
 21
138.1960639002139
 31
0.0
  0
LINE
  5
21B
330
5C
100
AcDbEntity
  8
0
  6
Continuous
 62
     7
100
AcDbLine
 10
-70.0500000504802
 20
142.5124998092743
 30
0.0
 11
-70.05000005048697
 21
142.0124998092891
 31
0.0
  0
LINE
  5
21C
330
5C
100
AcDbEntity
  8
0
  6
Continuous
 62
     2
100
AcDbLine
 10
-69.45000005048718
 20
142.0124998092803
 30
0.0
 11
-70.05000005048697
 21
142.0124998092891
 31
0.0
  0
LINE
  5
21D
330
5C
100
AcDbEntity
  8
0
  6
Continuous
 62
     7
100
AcDbLine
 10
-70.55000005049415
 20
141.5124998093005
 30
0.0
 11
-68.95000005049393
 21
141.512499809277
 31
0.0
  0
LINE
  5
21E
330
5C
100
AcDbEntity
  8
0
  6
Continuous
 62
     7
100
AcDbLine
 10
-67.42500005055962
 20
153.0039228577089
 30
0.0
 11
-67.42500005056671
 21
152.6401921880995
 31
0.0
  0
LINE
  5
21F
330
5C
100
AcDbEntity
  8
0
  6
Continuous
 62
     7
100
AcDbLine
 10
-72.57500004499639
 20
153.0039228577469
 30
0.0
 11
-67.42500005055962
 21
153.0039228577089
 31
0.0
  0
LINE
  5
220
330
5C
100
AcDbEntity
  8
0
  6
Continuous
 62
     7
100
AcDbLine
 10
-67.6250000504959
 20
141.4124998092543
 30
0.0
 11
-68.95000005049539
 21
141.4124998092641
 31
0.0
  0
LINE
  5
221
330
5C
100
AcDbEntity
  8
0
  6
Continuous
 62
     7
100
AcDbLine
 10
-70.55000005049561
 20
141.4124998092759
 30
0.0
 11
-71.87500005049893
 21
141.4124998092857
 31
0.0
  0
LINE
  5
222
330
5C
100
AcDbEntity
  8
0
  6
Continuous
 62
     7
100
AcDbLine
 10
-69.45000005048718
 20
142.0124998092803
 30
0.0
 11
-69.45000005047984
 21
142.5124998092698
 31
0.0
  0
LINE
  5
223
330
5C
100
AcDbEntity
  8
0
  6
Continuous
 62
     7
100
AcDbLine
 10
-67.42500005060941
 20
146.8598074303907
 30
0.0
 11
-67.42500005056671
 21
152.6401921880995
 31
0.0
  0
LINE
  5
224
330
5C
100
AcDbEntity
  8
0
  6
Continuous
 62
     7
100
AcDbLine
 10
-67.42500005079104
 20
141.7481294102433
 30
0.0
 11
-67.62500005049816
 21
141.4624998093219
 31
0.0
  0
LINE
  5
225
330
5C
100
AcDbEntity
  8
0
  6
Continuous
 62
     7
100
AcDbLine
 10
-72.57500004490517
 20
165.6047389066191
 30
0.0
 11
-67.42500005047161
 21
165.604738906581
 31
0.0
  0
LINE
  5
226
330
5C
100
AcDbEntity
  8
0
  6
Continuous
 62
     7
100
AcDbLine
 10
-72.57500004490517
 20
165.6047389066191
 30
0.0
 11
-72.57500004490956
 21
166.1124997650985
 31
0.0
  0
LINE
  5
227
330
5C
100
AcDbEntity
  8
0
  6
Continuous
 62
     7
100
AcDbLine
 10
-72.57500004490956
 20
166.1124997650985
 30
0.0
 11
-72.22500004840761
 21
166.11249976513
 31
0.0
  0
LINE
  5
228
330
5C
100
AcDbEntity
  8
0
  6
Continuous
 62
     7
100
AcDbLine
 10
-72.22500004840761
 20
166.11249976513
 30
0.0
 11
-72.0200000501417
 21
166.1124997650944
 31
0.0
  0
LINE
  5
229
330
5C
100
AcDbEntity
  8
0
  6
Continuous
 62
     7
100
AcDbLine
 10
-71.1200003980951
 20
166.9253377066855
 30
0.0
 11
-72.0200000501432
 21
166.9253377066936
 31
0.0
  0
LINE
  5
22A
330
5C
100
AcDbEntity
  8
0
  6
Continuous
 62
     7
100
AcDbLine
 10
-71.87500005071226
 20
126.9124998093592
 30
0.0
 11
-71.87500005068976
 21
128.4124998092827
 31
0.0
  0
LINE
  5
22B
330
5C
100
AcDbEntity
  8
0
  6
Continuous
 62
     7
100
AcDbLine
 10
-71.87500005068976
 20
128.4124998092827
 30
0.0
 11
-71.87500005055031
 21
137.9124998092813
 31
0.0
  0
LINE
  5
22C
330
5C
100
AcDbEntity
  8
0
  6
Continuous
 62
     7
100
AcDbLine
 10
-72.57500004499639
 20
153.0039228577469
 30
0.0
 11
-72.5750000449506
 21
159.2811963582047
 31
0.0
  0
LINE
  5
22D
330
5C
100
AcDbEntity
  8
0
  6
Continuous
 62
     7
100
AcDbLine
 10
-70.72000005015734
 20
166.8172295143385
 30
0.0
 11
-71.1200003980951
 21
166.9253377066855
 31
0.0
  0
LINE
  5
22E
330
5C
100
AcDbEntity
  8
0
  6
Continuous
 62
     7
100
AcDbLine
 10
-71.1200003980951
 20
166.9253377066855
 30
0.0
 11
-71.12000039810695
 21
166.1124997651404
 31
0.0
  0
LINE
  5
22F
330
5C
100
AcDbEntity
  8
0
  6
Continuous
 62
     7
100
AcDbLine
 10
-72.5750000449506
 20
159.2811963582047
 30
0.0
 11
-72.57500004494949
 21
159.4991532894671
 31
0.0
  0
LINE
  5
230
330
5C
100
AcDbEntity
  8
0
  6
Continuous
 62
     7
100
AcDbLine
 10
-72.57500004494949
 20
159.4991532894671
 30
0.0
 11
-72.57500004490832
 21
165.23643335706
 31
0.0
  0
LINE
  5
231
330
5C
100
AcDbEntity
  8
0
  6
Continuous
 62
     7
100
AcDbLine
 10
-72.57500004504385
 20
146.4960767608407
 30
0.0
 11
-72.57500004504179
 21
146.8598074304287
 31
0.0
  0
LINE
  5
232
330
5C
100
AcDbEntity
  8
0
  6
Continuous
 62
     7
100
AcDbLine
 10
-72.5750000450764
 20
142.5124998092929
 30
0.0
 11
-72.57500004504385
 21
146.4960767608407
 31
0.0
  0
LINE
  5
233
330
5C
100
AcDbEntity
  8
0
  6
Continuous
 62
     7
100
AcDbLine
 10
-71.87500005049893
 20
141.4124998092857
 30
0.0
 11
-71.87500005049819
 21
141.4624998095785
 31
0.0
  0
LINE
  5
234
330
5C
100
AcDbEntity
  8
0
  6
Continuous
 62
     7
100
AcDbLine
 10
-71.87500005050303
 20
141.1289357183235
 30
0.0
 11
-71.87500005049893
 21
141.4124998092857
 31
0.0
  0
LINE
  5
235
330
5C
100
AcDbEntity
  8
0
  6
Continuous
 62
     7
100
AcDbLine
 10
-71.87500005055031
 20
137.9124998092813
 30
0.0
 11
-71.87500005054609
 21
138.1960639002454
 31
0.0
  0
LINE
  5
236
330
5C
100
AcDbEntity
  8
0
  6
Continuous
 62
     7
100
AcDbLine
 10
-71.87500005054609
 20
138.1960639002454
 30
0.0
 11
-71.87500005050303
 21
141.1289357183235
 31
0.0
  0
LINE
  5
237
330
5C
100
AcDbEntity
  8
0
  6
Continuous
 62
     7
100
AcDbLine
 10
-70.55000005054283
 20
138.1960639002356
 30
0.0
 11
-71.87500005054609
 21
138.1960639002454
 31
0.0
  0
LINE
  5
238
330
5C
100
AcDbEntity
  8
0
  6
Continuous
 62
     7
100
AcDbLine
 10
-70.550000050547
 20
137.9124998092715
 30
0.0
 11
-71.87500005055031
 21
137.9124998092813
 31
0.0
  0
LINE
  5
239
330
5C
100
AcDbEntity
  8
0
  6
Continuous
 62
     7
100
AcDbLine
 10
-72.57500004504179
 20
146.8598074304287
 30
0.0
 11
-72.57500004499964
 21
152.6401921881376
 31
0.0
  0
LINE
  5
23A
330
5C
100
AcDbEntity
  8
0
  6
Continuous
 62
     7
100
AcDbLine
 10
-70.55000005049978
 20
141.1289357183137
 30
0.0
 11
-71.87500005050303
 21
141.1289357183235
 31
0.0
  0
LINE
  5
23B
330
5C
100
AcDbEntity
  8
0
  6
Continuous
 62
     7
100
AcDbLine
 10
-70.55000005049415
 20
141.5124998093005
 30
0.0
 11
-70.55000005061306
 21
133.4124998092983
 31
0.0
  0
LINE
  5
23C
330
5C
100
AcDbEntity
  8
0
  6
Continuous
 62
     7
100
AcDbLine
 10
-70.72000005015734
 20
166.8172295143385
 30
0.0
 11
-70.72000005016761
 21
166.1124997651347
 31
0.0
  0
LINE
  5
23D
330
5C
100
AcDbEntity
  8
0
  6
Continuous
 62
     7
100
AcDbLine
 10
-69.52000005015678
 20
166.8172295143277
 30
0.0
 11
-70.72000005015734
 21
166.8172295143385
 31
0.0
  0
LINE
  5
23E
330
5C
100
AcDbEntity
  8
0
  6
Continuous
 62
     7
100
AcDbLine
 10
-69.52000005015678
 20
166.8172295143277
 30
0.0
 11
-69.52000005016706
 21
166.1124997651176
 31
0.0
  0
LINE
  5
23F
330
5C
100
AcDbEntity
  8
0
  6
Continuous
 62
     2
100
AcDbLine
 10
-69.05000005066954
 20
129.7503634924788
 30
0.0
 11
-70.05000005066954
 21
129.7503634924935
 31
0.0
  0
LINE
  5
240
330
5C
100
AcDbEntity
  8
0
  6
Continuous
 62
     7
100
AcDbLine
 10
-70.05000005066954
 20
129.7503634924935
 30
0.0
 11
-70.0500000506858
 21
128.6761615305789
 31
0.0
  0
LINE
  5
241
330
5C
100
AcDbEntity
  8
0
  6
Continuous
 62
     7
100
AcDbLine
 10
-69.05000005066954
 20
129.7503634924788
 30
0.0
 11
-69.0500000506858
 21
128.6761615305707
 31
0.0
  0
LINE
  5
242
330
5C
100
AcDbEntity
  8
0
  6
Continuous
 62
     7
100
AcDbLine
 10
-67.42500005047775
 20
165.2364333570219
 30
0.0
 11
-67.42500005047161
 21
165.604738906581
 31
0.0
  0
LINE
  5
243
330
5C
100
AcDbEntity
  8
0
  6
Continuous
 62
     7
100
AcDbLine
 10
-67.62500005068675
 20
128.4124998092513
 30
0.0
 11
-67.62500005071226
 21
126.9124998093281
 31
0.0
  0
LINE
  5
244
330
5C
100
AcDbEntity
  8
0
  6
Continuous
 62
     7
100
AcDbLine
 10
-67.62500005054729
 20
137.9124998092498
 30
0.0
 11
-67.62500005068675
 21
128.4124998092513
 31
0.0
  0
LINE
  5
245
330
5C
100
AcDbEntity
  8
0
  6
Continuous
 62
     7
100
AcDbLine
 10
-69.05000005062999
 20
132.4828291181246
 30
0.0
 11
-70.05000005062999
 21
132.4828291181393
 31
0.0
  0
LINE
  5
246
330
5C
100
AcDbEntity
  8
0
  6
Continuous
 62
     7
100
AcDbLine
 10
-72.57500004504179
 20
146.8598074304287
 30
0.0
 11
-67.42500005060941
 21
146.8598074303907
 31
0.0
  0
LINE
  5
247
330
5C
100
AcDbEntity
  8
0
  6
Continuous
 62
     7
100
AcDbLine
 10
-69.05000005068975
 20
128.4124998092618
 30
0.0
 11
-67.62500005068675
 21
128.4124998092513
 31
0.0
  0
LINE
  5
248
330
5C
100
AcDbEntity
  8
0
  6
Continuous
 62
     7
100
AcDbLine
 10
-70.0500000506858
 20
128.6761615305789
 30
0.0
 11
-70.05000005068975
 21
128.412499809284
 31
0.0
  0
LINE
  5
249
330
5C
100
AcDbEntity
  8
0
  6
Continuous
 62
     2
100
AcDbLine
 10
-69.0500000506858
 20
128.6761615305707
 30
0.0
 11
-70.0500000506858
 21
128.6761615305789
 31
0.0
  0
LINE
  5
24A
330
5C
100
AcDbEntity
  8
0
  6
Continuous
 62
     7
100
AcDbLine
 10
-69.0500000506858
 20
128.6761615305707
 30
0.0
 11
-69.05000005068975
 21
128.4124998092618
 31
0.0
  0
LINE
  5
24B
330
5C
100
AcDbEntity
  8
0
  6
Continuous
 62
     7
100
AcDbLine
 10
-71.87500005068976
 20
128.4124998092827
 30
0.0
 11
-70.05000005068975
 21
128.412499809284
 31
0.0
  0
LINE
  5
24C
330
5C
100
AcDbEntity
  8
0
  6
Continuous
 62
     7
100
AcDbLine
 10
-71.87500005071226
 20
126.9124998093592
 30
0.0
 11
-67.62500005071226
 21
126.9124998093281
 31
0.0
  0
LINE
  5
24D
330
5C
100
AcDbEntity
  8
0
  6
Continuous
 62
     7
100
AcDbLine
 10
-70.05000005598922
 20
144.3176857447149
 30
0.0
 11
-70.05000005598593
 21
144.5416431608988
 31
0.0
  0
LINE
  5
24E
330
5C
100
AcDbEntity
  8
0
  6
Continuous
 62
     7
100
AcDbLine
 10
-70.55000005599736
 20
144.3416431609771
 30
0.0
 11
-70.55000005598922
 21
144.3176857447223
 31
0.0
  0
LINE
  5
24F
330
5C
100
AcDbEntity
  8
0
  6
Continuous
 62
     7
100
AcDbLine
 10
-70.62500005051174
 20
144.497768106477
 30
0.0
 11
-70.62500005050684
 21
144.4648587447479
 31
0.0
  0
LINE
  5
250
330
5C
100
AcDbEntity
  8
0
  6
Continuous
 62
     7
100
AcDbLine
 10
-70.6250000505039
 20
144.5982689806928
 30
0.0
 11
-70.62500005051174
 21
144.497768106477
 31
0.0
  0
LINE
  5
251
330
5C
100
AcDbEntity
  8
0
  6
Continuous
 62
     7
100
AcDbLine
 10
-71.32500005048615
 20
145.2910893037183
 30
0.0
 11
-70.8750000504975
 21
145.0312816825924
 31
0.0
  0
LINE
  5
252
330
5C
100
AcDbEntity
  8
0
  6
Continuous
 62
     7
100
AcDbLine
 10
-69.52500005050685
 20
144.4648587447236
 30
0.0
 11
-69.52500005050453
 21
144.569401460953
 31
0.0
  0
LINE
  5
253
330
5C
100
AcDbEntity
  8
0
  6
Continuous
 62
     7
100
AcDbLine
 10
-69.17500005046882
 20
146.1874994589502
 30
0.0
 11
-70.97500005046882
 21
146.18749945899
 31
0.0
  0
LINE
  5
254
330
5C
100
AcDbEntity
  8
0
  6
Continuous
 62
     7
100
AcDbLine
 10
-72.57500004504385
 20
146.4960767608407
 30
0.0
 11
-67.4250000506077
 21
146.4960767608026
 31
0.0
  0
LINE
  5
255
330
5C
100
AcDbEntity
  8
0
  6
Continuous
 62
     7
100
AcDbLine
 10
-67.4250000506077
 20
146.4960767608026
 30
0.0
 11
-67.42500005066294
 21
142.5124998092549
 31
0.0
  0
LINE
  5
256
330
5C
100
AcDbEntity
  8
0
  6
Continuous
 62
     7
100
AcDbLine
 10
-70.0500000504802
 20
142.5124998092743
 30
0.0
 11
-69.45000005047984
 21
142.5124998092698
 31
0.0
  0
LINE
  5
257
330
5C
100
AcDbEntity
  8
0
  6
Continuous
 62
     7
100
AcDbLine
 10
-69.45000005047984
 20
142.5124998092698
 30
0.0
 11
-67.42500005066294
 21
142.5124998092549
 31
0.0
  0
LINE
  5
258
330
5C
100
AcDbEntity
  8
0
  6
Continuous
 62
     7
100
AcDbLine
 10
-68.95000005061283
 20
133.4124998092748
 30
0.0
 11
-70.55000005061306
 21
133.4124998092983
 31
0.0
  0
LINE
  5
259
330
5C
100
AcDbEntity
  8
0
  6
Continuous
 62
     7
100
AcDbLine
 10
-68.22000005016208
 20
166.9253376126261
 30
0.0
 11
-69.12000005015767
 21
166.9253376126326
 31
0.0
  0
LINE
  5
25A
330
5C
100
AcDbEntity
  8
0
  6
Continuous
 62
     7
100
AcDbLine
 10
-69.32500005049945
 20
144.9158116224608
 30
0.0
 11
-68.90000005048795
 21
145.1611854868648
 31
0.0
  0
LINE
  5
25B
330
5C
100
AcDbEntity
  8
0
  6
Continuous
 62
     7
100
AcDbLine
 10
-69.12000005015767
 20
166.9253376126326
 30
0.0
 11
-69.52000005015678
 21
166.8172295143277
 31
0.0
  0
LINE
  5
25C
330
5C
100
AcDbEntity
  8
0
  6
Continuous
 62
     7
100
AcDbLine
 10
-69.12000005015767
 20
166.9253376126326
 30
0.0
 11
-69.12000005016952
 21
166.1124997651118
 31
0.0
  0
LINE
  5
25D
330
5C
100
AcDbEntity
  8
0
  6
Continuous
 62
     7
100
AcDbLine
 10
-68.64500004588412
 20
145.5024998093404
 30
0.0
 11
-68.64182550626535
 21
145.5024998093405
 31
0.0
  0
LINE
  5
25E
330
5C
100
AcDbEntity
  8
0
  6
Continuous
 62
     7
100
AcDbLine
 10
-68.84500005033007
 20
145.5024998093443
 30
0.0
 11
-68.64500004588412
 21
145.5024998093404
 31
0.0
  0
LINE
  5
25F
330
5C
100
AcDbEntity
  8
0
  6
Continuous
 62
     7
100
AcDbLine
 10
-68.64500004588513
 20
145.7844688269187
 30
0.0
 11
-68.64500004588412
 21
145.5024998093404
 31
0.0
  0
LINE
  5
260
330
5C
100
AcDbEntity
  8
0
  6
Continuous
 62
     2
100
AcDbLine
 10
-68.84500005032928
 20
145.1974994590671
 30
0.0
 11
-68.84500005033007
 21
145.5024998093443
 31
0.0
  0
LINE
  5
261
330
5C
100
AcDbEntity
  8
0
  6
Continuous
 62
     7
100
AcDbLine
 10
-69.1502966127842
 20
145.502499809348
 30
0.0
 11
-68.84500005033007
 21
145.5024998093443
 31
0.0
  0
LINE
  5
262
330
5C
100
AcDbEntity
  8
0
  6
Continuous
 62
     7
100
AcDbLine
 10
-69.05000005066954
 20
129.7503634924788
 30
0.0
 11
-69.05000005062999
 21
132.4828291181246
 31
0.0
  0
LINE
  5
263
330
5C
100
AcDbEntity
  8
0
  6
Continuous
 62
     7
100
AcDbLine
 10
-68.95000005049393
 20
141.512499809277
 30
0.0
 11
-68.95000005061283
 21
133.4124998092748
 31
0.0
  0
ARC
  5
264
330
5C
100
AcDbEntity
  8
0
  6
Continuous
 62
     7
100
AcDbCircle
 10
-70.55000005048657
 20
142.0124998093005
 30
0.0
 40
0.5
100
AcDbArc
 50
269.9999999991321
 51
359.999999998694
  0
ARC
  5
265
330
5C
100
AcDbEntity
  8
0
  6
Continuous
 62
     7
100
AcDbCircle
 10
-68.95000005048658
 20
142.012499809277
 30
0.0
 40
0.5000000000005969
100
AcDbArc
 50
179.999999999619
 51
269.9999999991581
  0
ARC
  5
266
330
5C
100
AcDbEntity
  8
0
  6
Continuous
 62
     7
100
AcDbCircle
 10
-71.1250000505039
 20
144.5982689807038
 30
0.0
 40
0.5
100
AcDbArc
 50
359.9999999987396
 51
59.99999999915803
  0
ARC
  5
267
330
5C
100
AcDbEntity
  8
0
  6
Continuous
 62
     7
100
AcDbCircle
 10
-70.75000005599736
 20
144.3416431609091
 30
0.0
 40
0.2000000000000028
100
AcDbArc
 50
0.00000001948433
 51
51.3178105333547
  0
ARC
  5
268
330
5C
100
AcDbEntity
  8
0
  6
Continuous
 62
     7
100
AcDbCircle
 10
-70.30000005598922
 20
144.3176857447186
 30
0.0
 40
0.25
100
AcDbArc
 50
179.9999999991532
 51
359.9999999991532
  0
ARC
  5
269
330
5C
100
AcDbEntity
  8
0
  6
Continuous
 62
     7
100
AcDbCircle
 10
-69.12500005050454
 20
144.5694014609441
 30
0.0
 40
0.3999999999999913
100
AcDbArc
 50
119.9999999991597
 51
179.9999999987257
  0
ARC
  5
26A
330
5C
100
AcDbEntity
  8
0
  6
Continuous
 62
     7
100
AcDbCircle
 10
-69.35000005598593
 20
144.5416431608885
 30
0.0
 40
0.7000000000000343
100
AcDbArc
 50
93.01696130897402
 51
179.9999999991579
  0
ARC
  5
26B
330
5C
100
AcDbEntity
  8
0
  6
Continuous
 62
     7
100
AcDbCircle
 10
-71.12500005048105
 20
145.6374994652291
 30
0.0
 40
0.400000000000006
100
AcDbArc
 50
179.9999976168089
 51
239.9999999991529
  0
ARC
  5
26C
330
5C
100
AcDbEntity
  8
0
  6
Continuous
 62
     7
100
AcDbCircle
 10
-70.97500005048109
 20
145.63749945899
 30
0.0
 40
0.5500000000000114
100
AcDbArc
 50
89.99999999872242
 51
179.9999976168166
  0
ARC
  5
26D
330
5C
100
AcDbEntity
  8
0
  6
Continuous
 62
     7
100
AcDbCircle
 10
-70.07500005050684
 20
144.4648587447357
 30
0.0
 40
0.5499999999999972
100
AcDbArc
 50
179.9999999987298
 51
359.9999999987417
  0
ARC
  5
26E
330
5C
100
AcDbEntity
  8
0
  6
Continuous
 62
     7
100
AcDbCircle
 10
-69.400000055972
 20
145.4903264589398
 30
0.0
 40
0.2500000000000107
100
AcDbArc
 50
273.0169613089761
 51
2.79103008964329
  0
ARC
  5
26F
330
5C
100
AcDbEntity
  8
0
  6
Continuous
 62
     7
100
AcDbCircle
 10
-69.17500005049844
 20
145.6374994589387
 30
0.0
 40
0.5499999999987002
100
AcDbArc
 50
300.0000000013404
 51
306.8698976679684
  0
ARC
  5
270
330
5C
100
AcDbEntity
  8
0
  6
Continuous
 62
     7
100
AcDbCircle
 10
-69.17500005048093
 20
145.6374994589473
 30
0.0
 40
0.5499999999940519
100
AcDbArc
 50
345.7913401189466
 51
15.4987309626974
  0
ARC
  5
271
330
5C
100
AcDbEntity
  8
0
  6
Continuous
 62
     7
100
AcDbCircle
 10
-69.1750000504832
 20
145.6374994589469
 30
0.0
 40
0.5499999999962
100
AcDbArc
 50
306.8698976661854
 51
345.7913401190449
  0
ARC
  5
272
330
5C
100
AcDbEntity
  8
0
  6
Continuous
 62
     7
100
AcDbCircle
 10
-69.17500005048535
 20
145.6374994589536
 30
0.0
 40
0.5499999999966321
100
AcDbArc
 50
15.49873096194098
 51
89.99999999827828
  0
ENDBLK
  5
5E
330
5C
100
AcDbEntity
  8
0
100
AcDbBlockEnd
  0
BLOCK
  5
61
330
5F
100
AcDbEntity
  8
0
100
AcDbBlockBegin
  2
SA_Links1
 70
     0
 10
-70.00000000016303
 20
147.00000000004
 30
0.0
  3
SA_Links1
  1

  0
INSERT
  5
60
330
5F
100
AcDbEntity
  8
0
100
AcDbBlockReference
  2
PP_H_2_5_1_GNYE-select__4
 10
-72.57500004507676
 20
126.9124998093281
 30
0.0
  0
MTEXT
  5
273
330
5F
100
AcDbEntity
  8
1
 62
     6
100
AcDbMText
 10
-70.00000000016303
 20
121.9124994278163
 30
0.0
 40
5.0
 41
0.0
 71
     2
 72
     1
  1
 
  7
CONVERTER_11
 73
     1
 44
1.32052821128451
  0
ENDBLK
  5
62
330
5F
100
AcDbEntity
  8
0
100
AcDbBlockEnd
  0
BLOCK
  5
64
330
63
100
AcDbEntity
  8
0
100
AcDbBlockBegin
  2
PP_H_2_5_1_GNYE-select__5
 70
     0
 10
-160.4250002478424
 20
126.9124998093265
 30
0.0
  3
PP_H_2_5_1_GNYE-select__5
  1

  0
LINE
  5
274
330
63
100
AcDbEntity
  8
0
  6
Continuous
 62
     7
100
AcDbLine
 10
-155.2750002534932
 20
167.0874998093676
 30
0.0
 11
-160.4250002478424
 21
167.0874998093295
 31
0.0
  0
LINE
  5
275
330
63
100
AcDbEntity
  8
0
  6
Continuous
 62
     7
100
AcDbLine
 10
-160.4250002478424
 20
167.0874998093295
 30
0.0
 11
-160.4250002478301
 21
165.5933005160226
 31
0.0
  0
LINE
  5
276
330
63
100
AcDbEntity
  8
0
  6
Continuous
 62
     7
100
AcDbLine
 10
-160.4250002478308
 20
165.224994966469
 30
0.0
 11
-160.4250002477834
 21
159.4876963201784
 31
0.0
  0
LINE
  5
277
330
63
100
AcDbEntity
  8
0
  6
Continuous
 62
     7
100
AcDbLine
 10
-160.4250002478301
 20
165.5933005160226
 30
0.0
 11
-160.4250002478308
 21
165.224994966469
 31
0.0
  0
LINE
  5
278
330
63
100
AcDbEntity
  8
0
  6
Continuous
 62
     7
100
AcDbLine
 10
-155.2750002534799
 20
165.224994966507
 30
0.0
 11
-160.4250002478308
 21
165.224994966469
 31
0.0
  0
LINE
  5
279
330
63
100
AcDbEntity
  8
0
  6
Continuous
 62
     7
100
AcDbLine
 10
-155.2750002534822
 20
165.5933005160607
 30
0.0
 11
-160.4250002478301
 21
165.5933005160226
 31
0.0
  0
LINE
  5
27A
330
63
100
AcDbEntity
  8
0
  6
Continuous
 62
     7
100
AcDbLine
 10
-155.2750002534374
 20
159.4876963202164
 30
0.0
 11
-160.4250002477834
 21
159.4876963201784
 31
0.0
  0
LINE
  5
27B
330
63
100
AcDbEntity
  8
0
  6
Continuous
 62
     7
100
AcDbLine
 10
-160.4250002477834
 20
159.4876963201784
 30
0.0
 11
-160.4250002477747
 21
159.1226343707233
 31
0.0
  0
LINE
  5
27C
330
63
100
AcDbEntity
  8
0
  6
Continuous
 62
     7
100
AcDbLine
 10
-155.7750002481281
 20
157.6235549011436
 30
0.0
 11
-159.8250002477575
 21
157.6235549010841
 31
0.0
  0
LINE
  5
27D
330
63
100
AcDbEntity
  8
0
  6
Continuous
 62
     7
100
AcDbLine
 10
-155.7750002481244
 20
157.3414998093038
 30
0.0
 11
-159.8250002477553
 21
157.3414998092443
 31
0.0
  0
LINE
  5
27E
330
63
100
AcDbEntity
  8
0
  6
Continuous
 62
     7
100
AcDbLine
 10
-155.7750002481244
 20
157.3414998093038
 30
0.0
 11
-155.7750002481281
 21
157.6235549011436
 31
0.0
  0
LINE
  5
27F
330
63
100
AcDbEntity
  8
0
  6
Continuous
 62
     7
100
AcDbLine
 10
-159.8250002477553
 20
157.3414998092443
 30
0.0
 11
-159.8250002477575
 21
157.6235549010841
 31
0.0
  0
LINE
  5
280
330
63
100
AcDbEntity
  8
0
  6
Continuous
 62
     7
100
AcDbLine
 10
-160.4250002476878
 20
148.1958332054781
 30
0.0
 11
-160.4250002477747
 21
159.1226343707233
 31
0.0
  0
LINE
  5
281
330
63
100
AcDbEntity
  8
0
  6
Continuous
 62
     7
100
AcDbLine
 10
-155.7750002481134
 20
156.5213221076266
 30
0.0
 11
-159.8250002477614
 21
156.5213221075671
 31
0.0
  0
LINE
  5
282
330
63
100
AcDbEntity
  8
0
  6
Continuous
 62
     7
100
AcDbLine
 10
-155.775000248075
 20
153.9012597325987
 30
0.0
 11
-159.8250002477421
 21
153.9012597325392
 31
0.0
  0
LINE
  5
283
330
63
100
AcDbEntity
  8
0
  6
Continuous
 62
     7
100
AcDbLine
 10
-155.2750002534339
 20
159.1226343707614
 30
0.0
 11
-160.4250002477747
 21
159.1226343707233
 31
0.0
  0
LINE
  5
284
330
63
100
AcDbEntity
  8
0
  6
Continuous
 62
     7
100
AcDbLine
 10
-155.7750002479681
 20
146.6972592023723
 30
0.0
 11
-159.8250002476802
 21
146.6972592023128
 31
0.0
  0
LINE
  5
285
330
63
100
AcDbEntity
  8
0
  6
Continuous
 62
     7
100
AcDbLine
 10
-155.7750002479624
 20
146.2124998093188
 30
0.0
 11
-159.825000247688
 21
146.2124998092594
 31
0.0
  0
LINE
  5
286
330
63
100
AcDbEntity
  8
0
  6
Continuous
 62
     2
100
AcDbLine
 10
-155.7750002479567
 20
145.6214839763929
 30
0.0
 11
-159.8250002477012
 21
145.6214839763334
 31
0.0
  0
LINE
  5
287
330
63
100
AcDbEntity
  8
0
  6
Continuous
 62
     7
100
AcDbLine
 10
-160.4250002476878
 20
148.1958332054781
 30
0.0
 11
-159.8250002476878
 21
148.1958332054826
 31
0.0
  0
LINE
  5
288
330
63
100
AcDbEntity
  8
0
  6
Continuous
 62
     7
100
AcDbLine
 10
-160.4250002476797
 20
146.622448724379
 30
0.0
 11
-160.4250002476552
 21
142.5124998092547
 31
0.0
  0
LINE
  5
289
330
63
100
AcDbEntity
  8
0
  6
Continuous
 62
     7
100
AcDbLine
 10
-160.2250002478474
 20
141.1289357182737
 30
0.0
 11
-160.2250002478519
 21
141.4124998092882
 31
0.0
  0
LINE
  5
28A
330
63
100
AcDbEntity
  8
0
  6
Continuous
 62
     7
100
AcDbLine
 10
-160.2250002478519
 20
141.4124998092882
 30
0.0
 11
-160.2250002478496
 21
141.4624998093219
 31
0.0
  0
LINE
  5
28B
330
63
100
AcDbEntity
  8
0
  6
Continuous
 62
     7
100
AcDbLine
 10
-160.2250002478043
 20
138.1960639002341
 30
0.0
 11
-160.2250002478474
 21
141.1289357182737
 31
0.0
  0
LINE
  5
28C
330
63
100
AcDbEntity
  8
0
  6
Continuous
 62
     7
100
AcDbLine
 10
-160.2250002478043
 20
138.1960639002341
 30
0.0
 11
-155.9750002478475
 21
138.196063900299
 31
0.0
  0
LINE
  5
28D
330
63
100
AcDbEntity
  8
0
  6
Continuous
 62
     7
100
AcDbLine
 10
-160.2250002477711
 20
135.9124998086828
 30
0.0
 11
-160.2250002477757
 21
136.1960639000607
 31
0.0
  0
LINE
  5
28E
330
63
100
AcDbEntity
  8
0
  6
Continuous
 62
     7
100
AcDbLine
 10
-160.2250002477757
 20
136.1960639000607
 30
0.0
 11
-160.2250002477967
 21
137.6289357182722
 31
0.0
  0
LINE
  5
28F
330
63
100
AcDbEntity
  8
0
  6
Continuous
 62
     7
100
AcDbLine
 10
-160.2250002477757
 20
136.1960639000607
 30
0.0
 11
-155.9750002478182
 21
136.1960639000921
 31
0.0
  0
LINE
  5
290
330
63
100
AcDbEntity
  8
0
  6
Continuous
 62
     7
100
AcDbLine
 10
-160.2250002477711
 20
135.9124998086828
 30
0.0
 11
-155.975000247814
 21
135.9124998087142
 31
0.0
  0
LINE
  5
291
330
63
100
AcDbEntity
  8
0
  6
Continuous
 62
     7
100
AcDbLine
 10
-155.2750002533132
 20
142.5124998092928
 30
0.0
 11
-160.4250002476552
 21
142.5124998092547
 31
0.0
  0
LINE
  5
292
330
63
100
AcDbEntity
  8
0
  6
Continuous
 62
     7
100
AcDbLine
 10
-160.2250002477967
 20
137.6289357182722
 30
0.0
 11
-160.2250002478043
 21
138.1960639002341
 31
0.0
  0
LINE
  5
293
330
63
100
AcDbEntity
  8
0
  6
Continuous
 62
     7
100
AcDbLine
 10
-160.2250002477967
 20
137.6289357182722
 30
0.0
 11
-155.9750002478392
 21
137.6289357183381
 31
0.0
  0
LINE
  5
294
330
63
100
AcDbEntity
  8
0
  6
Continuous
 62
     7
100
AcDbLine
 10
-160.4250002476552
 20
142.5124998092547
 30
0.0
 11
-160.4250002476098
 21
141.748129410319
 31
0.0
  0
LINE
  5
295
330
63
100
AcDbEntity
  8
0
  6
Continuous
 62
     7
100
AcDbLine
 10
-160.2250002478474
 20
141.1289357182737
 30
0.0
 11
-155.9750002478905
 21
141.1289357183317
 31
0.0
  0
LINE
  5
296
330
63
100
AcDbEntity
  8
0
  6
Continuous
 62
     7
100
AcDbLine
 10
-160.2250002478519
 20
141.4124998092882
 30
0.0
 11
-155.9750002478947
 21
141.4124998093458
 31
0.0
  0
LINE
  5
297
330
63
100
AcDbEntity
  8
0
  6
Continuous
 62
     7
100
AcDbLine
 10
-155.7750002479353
 20
144.4124998093189
 30
0.0
 11
-159.8250002476688
 21
144.4124998092594
 31
0.0
  0
LINE
  5
298
330
63
100
AcDbEntity
  8
0
  6
Continuous
 62
     7
100
AcDbLine
 10
-160.2250002478496
 20
141.4624998093219
 30
0.0
 11
-160.4250002476098
 21
141.748129410319
 31
0.0
  0
LINE
  5
299
330
63
100
AcDbEntity
  8
0
  6
Continuous
 62
     7
100
AcDbLine
 10
-160.4250002476806
 20
146.7661226671752
 30
0.0
 11
-160.4250002476878
 21
148.1958332054781
 31
0.0
  0
LINE
  5
29A
330
63
100
AcDbEntity
  8
0
  6
Continuous
 62
     2
100
AcDbLine
 10
-160.4250002476797
 20
146.622448724379
 30
0.0
 11
-159.8250002476797
 21
146.6224487243835
 31
0.0
  0
LINE
  5
29B
330
63
100
AcDbEntity
  8
0
  6
Continuous
 62
     7
100
AcDbLine
 10
-159.825000247688
 20
146.2124998092594
 30
0.0
 11
-159.8250002476797
 21
146.6224487243835
 31
0.0
  0
LINE
  5
29C
330
63
100
AcDbEntity
  8
0
  6
Continuous
 62
     7
100
AcDbLine
 10
-160.4250002476797
 20
146.622448724379
 30
0.0
 11
-160.4250002476806
 21
146.7661226671752
 31
0.0
  0
LINE
  5
29D
330
63
100
AcDbEntity
  8
0
  6
Continuous
 62
     2
100
AcDbLine
 10
-160.4250002476806
 20
146.7661226671752
 30
0.0
 11
-159.8250002476806
 21
146.7661226671797
 31
0.0
  0
LINE
  5
29E
330
63
100
AcDbEntity
  8
0
  6
Continuous
 62
     7
100
AcDbLine
 10
-155.7750002479243
 20
143.7124998094161
 30
0.0
 11
-159.8250002476582
 21
143.7124998093322
 31
0.0
  0
LINE
  5
29F
330
63
100
AcDbEntity
  8
0
  6
Continuous
 62
     7
100
AcDbLine
 10
-155.2750002534339
 20
159.1226343707614
 30
0.0
 11
-155.2750002533543
 21
148.1958332055162
 31
0.0
  0
LINE
  5
2A0
330
63
100
AcDbEntity
  8
0
  6
Continuous
 62
     7
100
AcDbLine
 10
-159.8250002476806
 20
146.7661226671797
 30
0.0
 11
-159.8250002476802
 21
146.6972592023128
 31
0.0
  0
LINE
  5
2A1
330
63
100
AcDbEntity
  8
0
  6
Continuous
 62
     7
100
AcDbLine
 10
-159.8250002476802
 20
146.6972592023128
 30
0.0
 11
-159.8250002476797
 21
146.6224487243835
 31
0.0
  0
LINE
  5
2A2
330
63
100
AcDbEntity
  8
0
  6
Continuous
 62
     7
100
AcDbLine
 10
-159.8250002476582
 20
143.7124998093322
 30
0.0
 11
-159.8250002476688
 21
144.4124998092594
 31
0.0
  0
LINE
  5
2A3
330
63
100
AcDbEntity
  8
0
  6
Continuous
 62
     7
100
AcDbLine
 10
-159.8250002477012
 20
145.6214839763334
 30
0.0
 11
-159.825000247688
 21
146.2124998092594
 31
0.0
  0
LINE
  5
2A4
330
63
100
AcDbEntity
  8
0
  6
Continuous
 62
     7
100
AcDbLine
 10
-159.8250002476688
 20
144.4124998092594
 30
0.0
 11
-159.8250002477012
 21
145.6214839763334
 31
0.0
  0
LINE
  5
2A5
330
63
100
AcDbEntity
  8
0
  6
Continuous
 62
     7
100
AcDbLine
 10
-159.8250002476806
 20
146.7661226671797
 30
0.0
 11
-159.8250002476878
 21
148.1958332054826
 31
0.0
  0
LINE
  5
2A6
330
63
100
AcDbEntity
  8
0
  6
Continuous
 62
     7
100
AcDbLine
 10
-159.8250002477421
 20
153.9012597325392
 30
0.0
 11
-159.8250002477614
 21
156.5213221075671
 31
0.0
  0
LINE
  5
2A7
330
63
100
AcDbEntity
  8
0
  6
Continuous
 62
     7
100
AcDbLine
 10
-159.8250002476878
 20
148.1958332054826
 30
0.0
 11
-159.8250002477421
 21
153.9012597325392
 31
0.0
  0
LINE
  5
2A8
330
63
100
AcDbEntity
  8
0
  6
Continuous
 62
     7
100
AcDbLine
 10
-159.8250002477614
 20
156.5213221075671
 30
0.0
 11
-159.8250002477553
 21
157.3414998092443
 31
0.0
  0
LINE
  5
2A9
330
63
100
AcDbEntity
  8
0
  6
Continuous
 62
     7
100
AcDbLine
 10
-160.2250002476425
 20
126.9124998093265
 30
0.0
 11
-160.225000247661
 21
128.4124998093176
 31
0.0
  0
LINE
  5
2AA
330
63
100
AcDbEntity
  8
0
  6
Continuous
 62
     7
100
AcDbLine
 10
-160.225000247661
 20
128.4124998093176
 30
0.0
 11
-160.2250002477711
 21
135.9124998086828
 31
0.0
  0
LINE
  5
2AB
330
63
100
AcDbEntity
  8
0
  6
Continuous
 62
     7
100
AcDbLine
 10
-155.2750002534822
 20
165.5933005160607
 30
0.0
 11
-155.2750002534799
 21
165.224994966507
 31
0.0
  0
LINE
  5
2AC
330
63
100
AcDbEntity
  8
0
  6
Continuous
 62
     7
100
AcDbLine
 10
-155.2750002534799
 20
165.224994966507
 30
0.0
 11
-155.2750002534374
 21
159.4876963202164
 31
0.0
  0
LINE
  5
2AD
330
63
100
AcDbEntity
  8
0
  6
Continuous
 62
     7
100
AcDbLine
 10
-155.2750002534932
 20
167.0874998093676
 30
0.0
 11
-155.2750002534822
 21
165.5933005160607
 31
0.0
  0
LINE
  5
2AE
330
63
100
AcDbEntity
  8
0
  6
Continuous
 62
     7
100
AcDbLine
 10
-155.2750002534374
 20
159.4876963202164
 30
0.0
 11
-155.2750002534339
 21
159.1226343707614
 31
0.0
  0
LINE
  5
2AF
330
63
100
AcDbEntity
  8
0
  6
Continuous
 62
     7
100
AcDbLine
 10
-155.7750002481134
 20
156.5213221076266
 30
0.0
 11
-155.7750002481244
 21
157.3414998093038
 31
0.0
  0
LINE
  5
2B0
330
63
100
AcDbEntity
  8
0
  6
Continuous
 62
     7
100
AcDbLine
 10
-155.775000248075
 20
153.9012597325987
 30
0.0
 11
-155.7750002481134
 21
156.5213221076266
 31
0.0
  0
LINE
  5
2B1
330
63
100
AcDbEntity
  8
0
  6
Continuous
 62
     7
100
AcDbLine
 10
-155.7750002479691
 20
146.7661226672096
 30
0.0
 11
-155.7750002479897
 21
148.1958332055125
 31
0.0
  0
LINE
  5
2B2
330
63
100
AcDbEntity
  8
0
  6
Continuous
 62
     7
100
AcDbLine
 10
-155.2750002533543
 20
148.1958332055162
 30
0.0
 11
-155.2750002533471
 21
146.7661226672151
 31
0.0
  0
LINE
  5
2B3
330
63
100
AcDbEntity
  8
0
  6
Continuous
 62
     7
100
AcDbLine
 10
-155.7750002479897
 20
148.1958332055125
 30
0.0
 11
-155.2750002533543
 21
148.1958332055162
 31
0.0
  0
LINE
  5
2B4
330
63
100
AcDbEntity
  8
0
  6
Continuous
 62
     7
100
AcDbLine
 10
-155.2750002533132
 20
142.5124998092928
 30
0.0
 11
-155.2750002533169
 21
142.4624998018597
 31
0.0
  0
LINE
  5
2B5
330
63
100
AcDbEntity
  8
0
  6
Continuous
 62
     7
100
AcDbLine
 10
-155.2750002533432
 20
146.6224487244186
 30
0.0
 11
-155.2750002533132
 21
142.5124998092928
 31
0.0
  0
LINE
  5
2B6
330
63
100
AcDbEntity
  8
0
  6
Continuous
 62
     2
100
AcDbLine
 10
-155.7750002479691
 20
146.7661226672096
 30
0.0
 11
-155.2750002533471
 21
146.7661226672151
 31
0.0
  0
LINE
  5
2B7
330
63
100
AcDbEntity
  8
0
  6
Continuous
 62
     7
100
AcDbLine
 10
-155.7750002479691
 20
146.7661226672096
 30
0.0
 11
-155.7750002479681
 21
146.6972592023723
 31
0.0
  0
LINE
  5
2B8
330
63
100
AcDbEntity
  8
0
  6
Continuous
 62
     7
100
AcDbLine
 10
-155.7750002479681
 20
146.6972592023723
 30
0.0
 11
-155.775000247967
 21
146.6224487244149
 31
0.0
  0
LINE
  5
2B9
330
63
100
AcDbEntity
  8
0
  6
Continuous
 62
     7
100
AcDbLine
 10
-155.2750002533432
 20
146.6224487244186
 30
0.0
 11
-155.2750002533471
 21
146.7661226672151
 31
0.0
  0
LINE
  5
2BA
330
63
100
AcDbEntity
  8
0
  6
Continuous
 62
     7
100
AcDbLine
 10
-155.7750002479243
 20
143.7124998094161
 30
0.0
 11
-155.7750002479353
 21
144.4124998093189
 31
0.0
  0
LINE
  5
2BB
330
63
100
AcDbEntity
  8
0
  6
Continuous
 62
     7
100
AcDbLine
 10
-155.7750002479624
 20
146.2124998093188
 30
0.0
 11
-155.775000247967
 21
146.6224487244149
 31
0.0
  0
LINE
  5
2BC
330
63
100
AcDbEntity
  8
0
  6
Continuous
 62
     7
100
AcDbLine
 10
-155.7750002479567
 20
145.6214839763929
 30
0.0
 11
-155.7750002479624
 21
146.2124998093188
 31
0.0
  0
LINE
  5
2BD
330
63
100
AcDbEntity
  8
0
  6
Continuous
 62
     7
100
AcDbLine
 10
-155.9750002478475
 20
138.196063900299
 30
0.0
 11
-155.9750002478392
 21
137.6289357183381
 31
0.0
  0
LINE
  5
2BE
330
63
100
AcDbEntity
  8
0
  6
Continuous
 62
     7
100
AcDbLine
 10
-155.9750002478182
 20
136.1960639000921
 30
0.0
 11
-155.975000247814
 21
135.9124998087142
 31
0.0
  0
LINE
  5
2BF
330
63
100
AcDbEntity
  8
0
  6
Continuous
 62
     7
100
AcDbLine
 10
-155.9750002478392
 20
137.6289357183381
 30
0.0
 11
-155.9750002478182
 21
136.1960639000921
 31
0.0
  0
LINE
  5
2C0
330
63
100
AcDbEntity
  8
0
  6
Continuous
 62
     7
100
AcDbLine
 10
-155.9750002478955
 20
141.4624998095784
 30
0.0
 11
-155.9750002478947
 21
141.4124998093458
 31
0.0
  0
LINE
  5
2C1
330
63
100
AcDbEntity
  8
0
  6
Continuous
 62
     7
100
AcDbLine
 10
-155.9750002478947
 20
141.4124998093458
 30
0.0
 11
-155.9750002478905
 21
141.1289357183317
 31
0.0
  0
LINE
  5
2C2
330
63
100
AcDbEntity
  8
0
  6
Continuous
 62
     2
100
AcDbLine
 10
-155.775000247967
 20
146.6224487244149
 30
0.0
 11
-155.2750002533432
 21
146.6224487244186
 31
0.0
  0
LINE
  5
2C3
330
63
100
AcDbEntity
  8
0
  6
Continuous
 62
     7
100
AcDbLine
 10
-155.9750002477039
 20
128.412499809349
 30
0.0
 11
-155.9750002476823
 21
126.9124998093579
 31
0.0
  0
LINE
  5
2C4
330
63
100
AcDbEntity
  8
0
  6
Continuous
 62
     7
100
AcDbLine
 10
-155.7750002479353
 20
144.4124998093189
 30
0.0
 11
-155.7750002479567
 21
145.6214839763929
 31
0.0
  0
LINE
  5
2C5
330
63
100
AcDbEntity
  8
0
  6
Continuous
 62
     7
100
AcDbLine
 10
-155.9750002478905
 20
141.1289357183317
 30
0.0
 11
-155.9750002478475
 21
138.196063900299
 31
0.0
  0
LINE
  5
2C6
330
63
100
AcDbEntity
  8
0
  6
Continuous
 62
     7
100
AcDbLine
 10
-155.975000247814
 20
135.9124998087142
 30
0.0
 11
-155.9750002477039
 21
128.412499809349
 31
0.0
  0
LINE
  5
2C7
330
63
100
AcDbEntity
  8
0
  6
Continuous
 62
     7
100
AcDbLine
 10
-155.7750002479897
 20
148.1958332055125
 30
0.0
 11
-155.775000248075
 21
153.9012597325987
 31
0.0
  0
LINE
  5
2C8
330
63
100
AcDbEntity
  8
0
  6
Continuous
 62
     7
100
AcDbLine
 10
-155.2750002533169
 20
142.4624998018597
 30
0.0
 11
-155.9750002478955
 21
141.4624998095784
 31
0.0
  0
LINE
  5
2C9
330
63
100
AcDbEntity
  8
0
  6
Continuous
 62
     7
100
AcDbLine
 10
-155.9750002477039
 20
128.412499809349
 30
0.0
 11
-160.225000247661
 21
128.4124998093176
 31
0.0
  0
LINE
  5
2CA
330
63
100
AcDbEntity
  8
0
  6
Continuous
 62
     7
100
AcDbLine
 10
-155.9750002476823
 20
126.9124998093579
 30
0.0
 11
-160.2250002476425
 21
126.9124998093265
 31
0.0
  0
ENDBLK
  5
65
330
63
100
AcDbEntity
  8
0
100
AcDbBlockEnd
  0
BLOCK
  5
68
330
66
100
AcDbEntity
  8
0
100
AcDbBlockBegin
  2
SA_Rechts1
 70
     0
 10
-157.8500002982378
 20
147.00000000004
 30
0.0
  3
SA_Rechts1
  1

  0
INSERT
  5
67
330
66
100
AcDbEntity
  8
0
100
AcDbBlockReference
  2
PP_H_2_5_1_GNYE-select__5
 10
-160.4250002478424
 20
126.9124998093265
 30
0.0
  0
MTEXT
  5
2CB
330
66
100
AcDbEntity
  8
1
 62
     6
100
AcDbMText
 10
-157.8500002982378
 20
121.9124994278163
 30
0.0
 40
5.0
 41
0.0
 71
     2
 72
     1
  1
 
  7
CONVERTER_11
 73
     1
 44
1.32052821128451
  0
ENDBLK
  5
69
330
66
100
AcDbEntity
  8
0
100
AcDbBlockEnd
  0
BLOCK
  5
6B
330
6A
100
AcDbEntity
  8
0
100
AcDbBlockBegin
  2
PP_H_2_5_1_GNYE-select__6
 70
     0
 10
-110.2750002416328
 20
126.9124998093265
 30
0.0
  3
PP_H_2_5_1_GNYE-select__6
  1

  0
LINE
  5
2CC
330
6A
100
AcDbEntity
  8
0
  6
Continuous
 62
     2
100
AcDbLine
 10
-104.7250002415647
 20
166.11249976513
 30
0.0
 11
-104.725000241547
 21
159.7124997640902
 31
0.0
  0
LINE
  5
2CD
330
6A
100
AcDbEntity
  8
0
  6
Continuous
 62
     7
100
AcDbLine
 10
-104.7250002415647
 20
166.11249976513
 30
0.0
 11
-105.3250002415399
 21
166.1124997651328
 31
0.0
  0
LINE
  5
2CE
330
6A
100
AcDbEntity
  8
0
  6
Continuous
 62
     7
100
AcDbLine
 10
-104.7250002415647
 20
166.11249976513
 30
0.0
 11
-103.72500024158
 21
166.1124997650733
 31
0.0
  0
LINE
  5
2CF
330
6A
100
AcDbEntity
  8
0
  6
Continuous
 62
     7
100
AcDbLine
 10
-106.3250002426491
 20
160.7124997650576
 30
0.0
 11
-106.3250002415775
 21
166.1124997650855
 31
0.0
  0
LINE
  5
2D0
330
6A
100
AcDbEntity
  8
0
  6
Continuous
 62
     7
100
AcDbLine
 10
-103.72500024158
 20
166.1124997650733
 30
0.0
 11
-103.7250002406026
 21
160.7124997649632
 31
0.0
  0
LINE
  5
2D1
330
6A
100
AcDbEntity
  8
0
  6
Continuous
 62
     7
100
AcDbLine
 10
-104.725000241547
 20
159.7124997640902
 30
0.0
 11
-105.3250002415538
 21
159.7124997639666
 31
0.0
  0
LINE
  5
2D2
330
6A
100
AcDbEntity
  8
0
  6
Continuous
 62
     7
100
AcDbLine
 10
-106.5750002416287
 20
141.7481294102433
 30
0.0
 11
-106.5750002416322
 21
142.5124998092549
 31
0.0
  0
LINE
  5
2D3
330
6A
100
AcDbEntity
  8
0
  6
Continuous
 62
     2
100
AcDbLine
 10
-105.3250002415399
 20
166.1124997651328
 30
0.0
 11
-105.3250002415538
 21
159.7124997639666
 31
0.0
  0
LINE
  5
2D4
330
6A
100
AcDbEntity
  8
0
  6
Continuous
 62
     7
100
AcDbLine
 10
-106.3250002415775
 20
166.1124997650855
 30
0.0
 11
-105.3250002415399
 21
166.1124997651328
 31
0.0
  0
LINE
  5
2D5
330
6A
100
AcDbEntity
  8
0
  6
Continuous
 62
     7
100
AcDbLine
 10
-94.27500022274856
 20
148.1958332054781
 30
0.0
 11
-94.27500022275225
 21
159.1226343707233
 31
0.0
  0
LINE
  5
2D6
330
6A
100
AcDbEntity
  8
0
  6
Continuous
 62
     7
100
AcDbLine
 10
-109.9750002416344
 20
133.4124998092748
 30
0.0
 11
-107.5750002416358
 21
133.4124998092817
 31
0.0
  0
LINE
  5
2D7
330
6A
100
AcDbEntity
  8
0
  6
Continuous
 62
     7
100
AcDbLine
 10
-109.9750002416314
 20
141.5124998092769
 30
0.0
 11
-109.9750002416344
 21
133.4124998092748
 31
0.0
  0
LINE
  5
2D8
330
6A
100
AcDbEntity
  8
0
  6
Continuous
 62
     7
100
AcDbLine
 10
-109.4750002416368
 20
142.5124998092698
 30
0.0
 11
-110.2750002416328
 21
142.5124998092549
 31
0.0
  0
LINE
  5
2D9
330
6A
100
AcDbEntity
  8
0
  6
Continuous
 62
     7
100
AcDbLine
 10
-106.5750002416322
 20
142.5124998092549
 30
0.0
 11
-108.0750002416366
 21
142.5124998092698
 31
0.0
  0
LINE
  5
2DA
330
6A
100
AcDbEntity
  8
0
  6
Continuous
 62
     7
100
AcDbLine
 10
-108.0750002416366
 20
142.5124998092698
 30
0.0
 11
-109.4750002416368
 21
142.5124998092698
 31
0.0
  0
LINE
  5
2DB
330
6A
100
AcDbEntity
  8
0
  6
Continuous
 62
     7
100
AcDbLine
 10
-109.5456786682074
 20
165.604738906581
 30
0.0
 11
-109.4833334741722
 21
166.1124997651004
 31
0.0
  0
LINE
  5
2DC
330
6A
100
AcDbEntity
  8
0
  6
Continuous
 62
     7
100
AcDbLine
 10
-106.5750002416287
 20
141.7481294102433
 30
0.0
 11
-106.5750002416336
 21
141.4624998093219
 31
0.0
  0
LINE
  5
2DD
330
6A
100
AcDbEntity
  8
0
  6
Continuous
 62
     7
100
AcDbLine
 10
-98.97500024163946
 20
141.4624998093219
 30
0.0
 11
-98.97500024163806
 21
141.748129410319
 31
0.0
  0
LINE
  5
2DE
330
6A
100
AcDbEntity
  8
0
  6
Continuous
 62
     7
100
AcDbLine
 10
-98.97500024163804
 20
142.5124998092548
 30
0.0
 11
-98.97500024163806
 21
141.748129410319
 31
0.0
  0
LINE
  5
2DF
330
6A
100
AcDbEntity
  8
0
  6
Continuous
 62
     7
100
AcDbLine
 10
-106.662887482068
 20
128.6761615305707
 30
0.0
 11
-106.575000241645
 21
128.4124998092618
 31
0.0
  0
LINE
  5
2E0
330
6A
100
AcDbEntity
  8
0
  6
Continuous
 62
     7
100
AcDbLine
 10
-106.5750002416442
 20
132.4828291181246
 30
0.0
 11
-106.575000241645
 21
128.4124998092618
 31
0.0
  0
LINE
  5
2E1
330
6A
100
AcDbEntity
  8
0
  6
Continuous
 62
     7
100
AcDbLine
 10
-106.575000241645
 20
128.4124998092618
 30
0.0
 11
-106.0750002416609
 21
126.9124998093281
 31
0.0
  0
LINE
  5
2E2
330
6A
100
AcDbEntity
  8
0
  6
Continuous
 62
     7
100
AcDbLine
 10
-106.0750002416609
 20
126.9124998093281
 30
0.0
 11
-99.47500024156349
 21
126.9124998093265
 31
0.0
  0
LINE
  5
2E3
330
6A
100
AcDbEntity
  8
0
  6
Continuous
 62
     7
100
AcDbLine
 10
-109.4750002416368
 20
142.0124998092803
 30
0.0
 11
-109.4750002416368
 21
142.5124998092698
 31
0.0
  0
LINE
  5
2E4
330
6A
100
AcDbEntity
  8
0
  6
Continuous
 62
     7
100
AcDbLine
 10
-94.72500024170955
 20
142.5124998092547
 30
0.0
 11
-98.97500024163804
 21
142.5124998092548
 31
0.0
  0
LINE
  5
2E5
330
6A
100
AcDbEntity
  8
0
  6
Continuous
 62
     7
100
AcDbLine
 10
-108.0750002416366
 20
142.5124998092698
 30
0.0
 11
-108.0750002416341
 21
142.0124998092802
 31
0.0
  0
LINE
  5
2E6
330
6A
100
AcDbEntity
  8
0
  6
Continuous
 62
     2
100
AcDbLine
 10
-108.0750002416341
 20
142.0124998092802
 30
0.0
 11
-109.4750002416368
 21
142.0124998092803
 31
0.0
  0
LINE
  5
2E7
330
6A
100
AcDbEntity
  8
0
  6
Continuous
 62
     7
100
AcDbLine
 10
-109.9750002416314
 20
141.5124998092769
 30
0.0
 11
-107.5750002416336
 21
141.5124998092769
 31
0.0
  0
LINE
  5
2E8
330
6A
100
AcDbEntity
  8
0
  6
Continuous
 62
     7
100
AcDbLine
 10
-107.5750002416356
 20
134.4124998092817
 30
0.0
 11
-107.5750002416358
 21
133.4124998092817
 31
0.0
  0
LINE
  5
2E9
330
6A
100
AcDbEntity
  8
0
  6
Continuous
 62
     7
100
AcDbLine
 10
-107.5750002416336
 20
141.5124998092769
 30
0.0
 11
-107.5750002416356
 21
134.4124998092817
 31
0.0
  0
LINE
  5
2EA
330
6A
100
AcDbEntity
  8
0
  6
Continuous
 62
     7
100
AcDbLine
 10
-107.5750002416358
 20
133.4124998092817
 30
0.0
 11
-106.5750002416468
 21
133.4124998092815
 31
0.0
  0
LINE
  5
2EB
330
6A
100
AcDbEntity
  8
0
  6
Continuous
 62
     7
100
AcDbLine
 10
-99.025000241634
 20
136.1960639000607
 30
0.0
 11
-99.02500024163359
 21
137.6289357182722
 31
0.0
  0
LINE
  5
2EC
330
6A
100
AcDbEntity
  8
0
  6
Continuous
 62
     7
100
AcDbLine
 10
-106.5750002416357
 20
134.6124998092815
 30
0.0
 11
-106.5750002416468
 21
133.4124998092815
 31
0.0
  0
LINE
  5
2ED
330
6A
100
AcDbEntity
  8
0
  6
Continuous
 62
     7
100
AcDbLine
 10
-106.5750002416468
 20
133.4124998092815
 30
0.0
 11
-106.5750002416442
 21
132.4828291181246
 31
0.0
  0
LINE
  5
2EE
330
6A
100
AcDbEntity
  8
0
  6
Continuous
 62
     7
100
AcDbLine
 10
-106.5750002416333
 20
137.9124998092498
 30
0.0
 11
-106.5750002416357
 21
134.6124998092815
 31
0.0
  0
LINE
  5
2EF
330
6A
100
AcDbEntity
  8
0
  6
Continuous
 62
     7
100
AcDbLine
 10
-106.6250002416303
 20
138.1960639002139
 30
0.0
 11
-106.5750002416333
 21
137.9124998092498
 31
0.0
  0
LINE
  5
2F0
330
6A
100
AcDbEntity
  8
0
  6
Continuous
 62
     7
100
AcDbLine
 10
-106.6250002416303
 20
141.1289357182921
 30
0.0
 11
-106.6250002416303
 21
138.1960639002139
 31
0.0
  0
LINE
  5
2F1
330
6A
100
AcDbEntity
  8
0
  6
Continuous
 62
     7
100
AcDbLine
 10
-106.5750002416336
 20
141.4624998093219
 30
0.0
 11
-106.5750002416336
 21
141.4124998092543
 31
0.0
  0
LINE
  5
2F2
330
6A
100
AcDbEntity
  8
0
  6
Continuous
 62
     7
100
AcDbLine
 10
-106.5750002416336
 20
141.4124998092543
 30
0.0
 11
-106.6250002416303
 21
141.1289357182921
 31
0.0
  0
LINE
  5
2F3
330
6A
100
AcDbEntity
  8
0
  6
Continuous
 62
     7
100
AcDbLine
 10
-98.97500024163946
 20
141.4124998092882
 30
0.0
 11
-98.97500024163946
 21
141.4624998093219
 31
0.0
  0
LINE
  5
2F4
330
6A
100
AcDbEntity
  8
0
  6
Continuous
 62
     7
100
AcDbLine
 10
-106.5750002416336
 20
141.4624998093219
 30
0.0
 11
-98.97500024163946
 21
141.4624998093219
 31
0.0
  0
LINE
  5
2F5
330
6A
100
AcDbEntity
  8
0
  6
Continuous
 62
     7
100
AcDbLine
 10
-106.5750002416287
 20
141.7481294102433
 30
0.0
 11
-98.97500024163806
 21
141.748129410319
 31
0.0
  0
LINE
  5
2F6
330
6A
100
AcDbEntity
  8
0
  6
Continuous
 62
     7
100
AcDbLine
 10
-106.5750002416357
 20
134.6124998092815
 30
0.0
 11
-107.5750002416356
 21
134.4124998092817
 31
0.0
  0
LINE
  5
2F7
330
6A
100
AcDbEntity
  8
0
  6
Continuous
 62
     7
100
AcDbLine
 10
-103.72500024158
 20
166.1124997650733
 30
0.0
 11
-100.9825005502685
 21
166.1124997650322
 31
0.0
  0
LINE
  5
2F8
330
6A
100
AcDbEntity
  8
0
  6
Continuous
 62
     7
100
AcDbLine
 10
-95.83948397510429
 20
165.224994966469
 30
0.0
 11
-95.87266992609612
 21
165.4952728478893
 31
0.0
  0
LINE
  5
2F9
330
6A
100
AcDbEntity
  8
0
  6
Continuous
 62
     7
100
AcDbLine
 10
-95.1350322800516
 20
159.4876963201784
 30
0.0
 11
-94.27500022275225
 21
159.1226343707233
 31
0.0
  0
LINE
  5
2FA
330
6A
100
AcDbEntity
  8
0
  6
Continuous
 62
     7
100
AcDbLine
 10
-95.10184632905867
 20
159.2174184387558
 30
0.0
 11
-95.1350322800516
 21
159.4876963201784
 31
0.0
  0
LINE
  5
2FB
330
6A
100
AcDbEntity
  8
0
  6
Continuous
 62
     7
100
AcDbLine
 10
-96.77499989361905
 20
159.0119810130088
 30
0.0
 11
-95.10184632905867
 21
159.2174184387558
 31
0.0
  0
LINE
  5
2FC
330
6A
100
AcDbEntity
  8
0
  6
Continuous
 62
     7
100
AcDbLine
 10
-96.77499989361917
 20
165.3844806590375
 30
0.0
 11
-96.77499989361905
 21
159.0119810130088
 31
0.0
  0
LINE
  5
2FD
330
6A
100
AcDbEntity
  8
0
  6
Continuous
 62
     7
100
AcDbLine
 10
-96.77499989361917
 20
165.3844806590375
 30
0.0
 11
-95.87266992609612
 21
165.4952728478893
 31
0.0
  0
LINE
  5
2FE
330
6A
100
AcDbEntity
  8
0
  6
Continuous
 62
     7
100
AcDbLine
 10
-95.35072600279457
 20
165.5933005160226
 30
0.0
 11
-95.83948397510429
 21
165.224994966469
 31
0.0
  0
LINE
  5
2FF
330
6A
100
AcDbEntity
  8
0
  6
Continuous
 62
     7
100
AcDbLine
 10
-95.53419060690254
 20
167.0874998093295
 30
0.0
 11
-97.37500021164541
 21
167.0874997681599
 31
0.0
  0
LINE
  5
300
330
6A
100
AcDbEntity
  8
0
  6
Continuous
 62
     7
100
AcDbLine
 10
-100.9825005502685
 20
166.1124997650322
 30
0.0
 11
-97.37500021164541
 21
167.0874997681599
 31
0.0
  0
LINE
  5
301
330
6A
100
AcDbEntity
  8
0
  6
Continuous
 62
     7
100
AcDbLine
 10
-95.53419060690254
 20
167.0874998093295
 30
0.0
 11
-95.35072600279457
 21
165.5933005160226
 31
0.0
  0
LINE
  5
302
330
6A
100
AcDbEntity
  8
0
  6
Continuous
 62
     7
100
AcDbLine
 10
-98.975000241564
 20
135.9124998086827
 30
0.0
 11
-99.025000241634
 21
136.1960639000607
 31
0.0
  0
LINE
  5
303
330
6A
100
AcDbEntity
  8
0
  6
Continuous
 62
     7
100
AcDbLine
 10
-98.97500024156618
 20
128.4124998093176
 30
0.0
 11
-98.975000241564
 21
135.9124998086827
 31
0.0
  0
LINE
  5
304
330
6A
100
AcDbEntity
  8
0
  6
Continuous
 62
     7
100
AcDbLine
 10
-98.92500024163354
 20
141.1289357182737
 30
0.0
 11
-98.97500024163946
 21
141.4124998092882
 31
0.0
  0
LINE
  5
305
330
6A
100
AcDbEntity
  8
0
  6
Continuous
 62
     7
100
AcDbLine
 10
-98.92500024163355
 20
138.1960639002341
 30
0.0
 11
-98.92500024163354
 21
141.1289357182737
 31
0.0
  0
LINE
  5
306
330
6A
100
AcDbEntity
  8
0
  6
Continuous
 62
     7
100
AcDbLine
 10
-94.72500024168355
 20
146.622448724379
 30
0.0
 11
-94.72500024170955
 21
142.5124998092547
 31
0.0
  0
LINE
  5
307
330
6A
100
AcDbEntity
  8
0
  6
Continuous
 62
     7
100
AcDbLine
 10
-94.70391338429057
 20
146.7661226671752
 30
0.0
 11
-94.27500022274856
 21
148.1958332054781
 31
0.0
  0
LINE
  5
308
330
6A
100
AcDbEntity
  8
0
  6
Continuous
 62
     7
100
AcDbLine
 10
-99.02500024163359
 20
137.6289357182722
 30
0.0
 11
-98.92500024163355
 21
138.1960639002341
 31
0.0
  0
LINE
  5
309
330
6A
100
AcDbEntity
  8
0
  6
Continuous
 62
     7
100
AcDbLine
 10
-99.47500024156349
 20
126.9124998093265
 30
0.0
 11
-98.97500024156618
 21
128.4124998093176
 31
0.0
  0
LINE
  5
30A
330
6A
100
AcDbEntity
  8
0
  6
Continuous
 62
     7
100
AcDbLine
 10
-109.6450002416352
 20
152.9124998092555
 30
0.0
 11
-108.5750002416333
 21
152.9124998092556
 31
0.0
  0
LINE
  5
30B
330
6A
100
AcDbEntity
  8
0
  6
Continuous
 62
     7
100
AcDbLine
 10
-109.6450002416337
 20
146.58749980925
 30
0.0
 11
-109.6450002416331
 21
146.8598074303907
 31
0.0
  0
LINE
  5
30C
330
6A
100
AcDbEntity
  8
0
  6
Continuous
 62
     7
100
AcDbLine
 10
-110.2750002416328
 20
146.4960767608026
 30
0.0
 11
-110.2750002416328
 21
142.5124998092549
 31
0.0
  0
LINE
  5
30D
330
6A
100
AcDbEntity
  8
0
  6
Continuous
 62
     7
100
AcDbLine
 10
-109.6450002416331
 20
146.8598074303907
 30
0.0
 11
-110.2750002416328
 21
146.4960767608026
 31
0.0
  0
LINE
  5
30E
330
6A
100
AcDbEntity
  8
0
  6
Continuous
 62
     7
100
AcDbLine
 10
-110.2750002416327
 20
153.0039228577089
 30
0.0
 11
-109.6450002415975
 21
152.6401921880995
 31
0.0
  0
LINE
  5
30F
330
6A
100
AcDbEntity
  8
0
  6
Continuous
 62
     7
100
AcDbLine
 10
-110.2750002416327
 20
159.2811963581666
 30
0.0
 11
-110.2750002416327
 21
153.0039228577089
 31
0.0
  0
LINE
  5
310
330
6A
100
AcDbEntity
  8
0
  6
Continuous
 62
     7
100
AcDbLine
 10
-109.7615258895302
 20
159.4991532894291
 30
0.0
 11
-109.7947118405157
 21
159.2288754080672
 31
0.0
  0
LINE
  5
311
330
6A
100
AcDbEntity
  8
0
  6
Continuous
 62
     7
100
AcDbLine
 10
-110.2750002416327
 20
159.2811963581666
 30
0.0
 11
-109.7615258895302
 21
159.4991532894291
 31
0.0
  0
LINE
  5
312
330
6A
100
AcDbEntity
  8
0
  6
Continuous
 62
     7
100
AcDbLine
 10
-109.023734744896
 20
165.5067112385161
 30
0.0
 11
-109.0569206958474
 21
165.2364333570219
 31
0.0
  0
LINE
  5
313
330
6A
100
AcDbEntity
  8
0
  6
Continuous
 62
     7
100
AcDbLine
 10
-109.0569206958474
 20
165.2364333570219
 30
0.0
 11
-109.5456786682074
 21
165.604738906581
 31
0.0
  0
LINE
  5
314
330
6A
100
AcDbEntity
  8
0
  6
Continuous
 62
     7
100
AcDbLine
 10
-108.1750003316216
 20
165.4024997562952
 30
0.0
 11
-109.023734744896
 21
165.5067112385161
 31
0.0
  0
LINE
  5
315
330
6A
100
AcDbEntity
  8
0
  6
Continuous
 62
     7
100
AcDbLine
 10
-108.1750003316216
 20
165.4024997562952
 30
0.0
 11
-108.1750003316213
 21
159.0299998417273
 31
0.0
  0
LINE
  5
316
330
6A
100
AcDbEntity
  8
0
  6
Continuous
 62
     7
100
AcDbLine
 10
-109.4833334741722
 20
166.1124997651004
 30
0.0
 11
-106.3250002415775
 21
166.1124997650855
 31
0.0
  0
LINE
  5
317
330
6A
100
AcDbEntity
  8
0
  6
Continuous
 62
     7
100
AcDbLine
 10
-109.6450002415975
 20
152.6401921880995
 30
0.0
 11
-109.6450002416352
 21
152.9124998092555
 31
0.0
  0
LINE
  5
318
330
6A
100
AcDbEntity
  8
0
  6
Continuous
 62
     7
100
AcDbLine
 10
-108.5750002416348
 20
146.5874998092504
 30
0.0
 11
-108.5750002416333
 21
152.9124998092556
 31
0.0
  0
LINE
  5
319
330
6A
100
AcDbEntity
  8
0
  6
Continuous
 62
     7
100
AcDbLine
 10
-108.5750002416348
 20
146.5874998092504
 30
0.0
 11
-109.6450002416337
 21
146.58749980925
 31
0.0
  0
LINE
  5
31A
330
6A
100
AcDbEntity
  8
0
  6
Continuous
 62
     7
100
AcDbLine
 10
-109.7947118405157
 20
159.2288754080672
 30
0.0
 11
-108.1750003316213
 21
159.0299998417273
 31
0.0
  0
ARC
  5
31B
330
6A
100
AcDbEntity
  8
0
  6
Continuous
 62
     7
100
AcDbCircle
 10
-104.7250002415587
 20
160.7124997650462
 30
0.0
 40
1.000000000955993
100
AcDbArc
 50
270.0000000006709
 51
359.9999999952449
  0
ARC
  5
31C
330
6A
100
AcDbEntity
  8
0
  6
Continuous
 62
     7
100
AcDbCircle
 10
-105.3250002415681
 20
160.7124997650475
 30
0.0
 40
1.000000001080991
100
AcDbArc
 50
179.9999999994219
 51
270.0000000008199
  0
ARC
  5
31D
330
6A
100
AcDbEntity
  8
0
  6
Continuous
 62
     7
100
AcDbCircle
 10
-109.9750002416338
 20
142.0124998092739
 30
0.0
 40
0.4999999999969873
100
AcDbArc
 50
270.0000000002736
 51
0.00000000073606
  0
ARC
  5
31E
330
6A
100
AcDbEntity
  8
0
  6
Continuous
 62
     7
100
AcDbCircle
 10
-107.5750002416336
 20
142.0124998092757
 30
0.0
 40
0.5000000000004974
100
AcDbArc
 50
179.9999999994854
 51
270.0
  0
ARC
  5
31F
330
6A
100
AcDbEntity
  8
0
  6
Continuous
 62
     7
100
AcDbCircle
 10
-111.4063039723209
 20
127.0950227004874
 30
0.0
 40
5.000000000000032
100
AcDbArc
 50
18.4349488229112
 51
32.07765443190914
  0
ARC
  5
320
330
6A
100
AcDbEntity
  8
0
  6
Continuous
 62
     7
100
AcDbCircle
 10
-105.4750002416353
 20
130.8124998092787
 30
0.0
 40
2.000000000002309
100
AcDbArc
 50
123.3670129694936
 51
212.0776544319795
  0
ARC
  5
321
330
6A
100
AcDbEntity
  8
0
  6
Continuous
 62
     7
100
AcDbCircle
 10
-94.2250002416813
 20
146.6224487243799
 30
0.0
 40
0.5000000000022412
100
AcDbArc
 50
163.3007557646305
 51
180.000000000101
  0
ENDBLK
  5
6C
330
6A
100
AcDbEntity
  8
0
100
AcDbBlockEnd
  0
BLOCK
  5
6F
330
6D
100
AcDbEntity
  8
0
100
AcDbBlockBegin
  2
Vordans1
 70
     0
 10
-102.4250001491889
 20
147.00000000004
 30
0.0
  3
Vordans1
  1

  0
INSERT
  5
6E
330
6D
100
AcDbEntity
  8
0
100
AcDbBlockReference
  2
PP_H_2_5_1_GNYE-select__6
 10
-110.2750002416328
 20
126.9124998093265
 30
0.0
  0
MTEXT
  5
322
330
6D
100
AcDbEntity
  8
1
 62
     6
100
AcDbMText
 10
-102.4250001491889
 20
121.9124994278163
 30
0.0
 40
5.0
 41
0.0
 71
     2
 72
     1
  1
 
  7
CONVERTER_11
 73
     1
 44
1.32052821128451
  0
DIMENSION
  5
32D
330
6D
100
AcDbEntity
  8
1
100
AcDbDimension
  2
*D18
 10
-120.2750002416328
 20
167.0874997681599
 30
0.0
 11
-123.7000002416328
 21
154.740569142407
 31
0.0
 70
    32
  1
<>
 71
     5
 42
-1.0
 53
90.0
  3
ME10_DIM_11
100
AcDbAlignedDimension
 13
-110.2750002416328
 23
142.5124998092549
 33
0.0
 14
-97.37500021164541
 24
167.0874997681599
 34
0.0
 50
90.0
100
AcDbRotatedDimension
  0
DIMENSION
  5
338
330
6D
100
AcDbEntity
  8
1
100
AcDbDimension
  2
*D19
 10
-127.399444374637
 20
167.08749976816
 30
0.0
 11
-130.824444374637
 21
147.5699325649069
 31
0.0
 70
    32
  1
<>
 71
     5
 42
-1.0
 53
90.0
  3
ME10_DIM_12
100
AcDbAlignedDimension
 13
-106.0750002416609
 23
126.9124998093281
 33
0.0
 14
-97.37500021164541
 24
167.0874997681599
 34
0.0
 50
90.0
100
AcDbRotatedDimension
  0
DIMENSION
  5
343
330
6D
100
AcDbEntity
  8
1
100
AcDbDimension
  2
*D20
 10
-110.2750002416327
 20
117.7791667865814
 30
0.0
 11
-102.4250001491711
 21
121.0291667865814
 31
0.0
 70
    32
  1
<>
 71
     5
 42
-1.0
 53
0.00013888888889
  3
ME10_DIM_13
100
AcDbAlignedDimension
 13
-94.27500022274856
 23
148.1958332054781
 33
0.0
 14
-110.2750002416328
 24
142.5124998092549
 34
0.0
100
AcDbRotatedDimension
  0
ENDBLK
  5
70
330
6D
100
AcDbEntity
  8
0
100
AcDbBlockEnd
  0
BLOCK
  5
72
330
71
100
AcDbEntity
  8
0
100
AcDbBlockBegin
  2
_rahmen
 70
     0
 10
66.46030337589691
 20
2.80685313077333
 30
0.0
  3
_rahmen
  1

  0
LINE
  5
344
330
71
100
AcDbEntity
  8
1
  6
DOT_CENTER
 62
     2
100
AcDbLine
 10
-59.0978462642905
 20
28.93185313077336
 30
0.0
 11
-53.5978462642905
 21
28.93185313077336
 31
0.0
  0
LINE
  5
345
330
71
100
AcDbEntity
  8
1
  6
PHANTOM
 62
     2
100
AcDbLine
 10
-50.3478462642905
 20
31.68185313077336
 30
0.0
 11
-50.3478462642905
 21
26.18185313077336
 31
0.0
  0
LINE
  5
346
330
71
100
AcDbEntity
  8
1
  6
PHANTOM
 62
     2
100
AcDbLine
 10
-47.5978462642905
 20
28.93185313077336
 30
0.0
 11
-53.0978462642905
 21
28.93185313077336
 31
0.0
  0
LINE
  5
347
330
71
100
AcDbEntity
  8
1
  6
Continuous
 62
     7
100
AcDbLine
 10
1.21549884914691
 20
16.30685313077336
 30
0.0
 11
1.21549884914691
 21
24.80685313077345
 31
0.0
  0
LINE
  5
348
330
71
100
AcDbEntity
  8
1
  6
Continuous
 62
     6
100
AcDbLine
 10
-26.68450115085318
 20
24.80685313077345
 30
0.0
 11
66.4603033758986
 21
24.80685313077345
 31
0.0
  0
LINE
  5
349
330
71
100
AcDbEntity
  8
1
  6
Continuous
 62
     7
100
AcDbLine
 10
-63.0845011508531
 20
24.80685313077345
 30
0.0
 11
-63.0845011508531
 21
33.30685313077345
 31
0.0
  0
LINE
  5
34A
330
71
100
AcDbEntity
  8
1
  6
Continuous
 62
     7
100
AcDbLine
 10
-26.68450115085318
 20
24.80685313077345
 30
0.0
 11
-26.68450115085318
 21
33.30685313077345
 31
0.0
  0
LINE
  5
34B
330
71
100
AcDbEntity
  8
1
  6
Continuous
 62
     7
100
AcDbLine
 10
31.0418950942198
 20
33.30685313077345
 30
0.0
 11
31.0418950942198
 21
24.80685313077345
 31
0.0
  0
LINE
  5
34C
330
71
100
AcDbEntity
  8
1
  6
Continuous
 62
     7
100
AcDbLine
 10
57.5418950942194
 20
33.30685313077345
 30
0.0
 11
57.5418950942194
 21
24.80685313077345
 31
0.0
  0
LINE
  5
34D
330
71
100
AcDbEntity
  8
1
  6
Continuous
 62
     6
100
AcDbLine
 10
-132.0845011508531
 20
7.80685313077345
 30
0.0
 11
-177.0396966241031
 21
7.80685313077345
 31
0.0
  0
LINE
  5
34E
330
71
100
AcDbEntity
  8
1
  6
Continuous
 62
     7
100
AcDbLine
 10
66.4603033758982
 20
16.30685313077345
 30
0.0
 11
-26.68450115085318
 21
16.30685313077345
 31
0.0
  0
LINE
  5
34F
102
{ACAD_REACTORS
330
461
330
462
102
}
330
71
100
AcDbEntity
  8
0
  6
Continuous
 62
     2
100
AcDbLine
 10
-49.3770722090857
 20
17.10714224643675
 30
0.0
 11
-49.3770722090857
 21
17.97965925324004
 31
0.0
  0
LINE
  5
350
102
{ACAD_REACTORS
330
461
330
462
102
}
330
71
100
AcDbEntity
  8
0
  6
Continuous
 62
     2
100
AcDbLine
 10
-49.3770722090857
 20
16.14737353895384
 30
0.0
 11
-49.3770722090857
 21
15.27485653215064
 31
0.0
  0
LINE
  5
351
102
{ACAD_REACTORS
330
463
330
464
102
}
330
71
100
AcDbEntity
  8
0
  6
Continuous
 62
     2
100
AcDbLine
 10
-34.04402807279519
 20
17.36889734847725
 30
0.0
 11
-32.94038877322709
 21
17.36889734847725
 31
0.0
  0
LINE
  5
352
102
{ACAD_REACTORS
330
463
330
464
102
}
330
71
100
AcDbEntity
  8
0
  6
Continuous
 62
     2
100
AcDbLine
 10
-33.27437072983378
 20
16.14737353895336
 30
0.0
 11
-33.27437072983378
 21
15.27485653215004
 31
0.0
  0
LINE
  5
353
102
{ACAD_REACTORS
330
46D
330
46E
102
}
330
71
100
AcDbEntity
  8
0
  6
Continuous
 62
     2
100
AcDbLine
 10
-35.1351273452137
 20
18.45954360696405
 30
0.0
 11
-33.7371742982734
 21
20.04040260073904
 31
0.0
  0
LINE
  5
354
102
{ACAD_REACTORS
330
46D
330
46E
102
}
330
71
100
AcDbEntity
  8
0
  6
Continuous
 62
     2
100
AcDbLine
 10
-35.03970392904088
 20
21.51335313077524
 30
0.0
 11
-33.7371742982734
 21
20.04040260073904
 31
0.0
  0
LINE
  5
355
102
{ACAD_REACTORS
330
46D
330
46E
102
}
330
71
100
AcDbEntity
  8
0
  6
Continuous
 62
     2
100
AcDbLine
 10
-32.434644667507
 20
21.51335313077524
 30
0.0
 11
-31.03192044975978
 21
21.51335313077524
 31
0.0
  0
LINE
  5
356
102
{ACAD_REACTORS
330
46D
330
46E
102
}
330
71
100
AcDbEntity
  8
0
  6
Continuous
 62
     2
100
AcDbLine
 10
-33.73240312746549
 20
18.45954360696405
 30
0.0
 11
-33.03581218939979
 21
19.24727539225776
 31
0.0
  0
LINE
  5
357
102
{ACAD_REACTORS
330
46D
330
46E
102
}
330
71
100
AcDbEntity
  8
0
  6
Continuous
 62
     2
100
AcDbLine
 10
-33.73240312746549
 20
18.45954360696405
 30
0.0
 11
-35.1351273452137
 21
18.45954360696405
 31
0.0
  0
LINE
  5
358
102
{ACAD_REACTORS
330
46F
330
470
102
}
330
71
100
AcDbEntity
  8
0
  6
Continuous
 62
     2
100
AcDbLine
 10
-35.25440661543058
 20
18.45954360696405
 30
0.0
 11
-36.49491102568348
 21
18.45954360696405
 31
0.0
  0
LINE
  5
359
102
{ACAD_REACTORS
330
471
330
472
102
}
330
71
100
AcDbEntity
  8
0
  6
Continuous
 62
     2
100
AcDbLine
 10
-37.36289063383859
 20
16.32187694031424
 30
0.0
 11
-37.66305587102869
 21
17.08969190630094
 31
0.0
  0
LINE
  5
35A
102
{ACAD_REACTORS
330
471
330
472
102
}
330
71
100
AcDbEntity
  8
0
  6
Continuous
 62
     2
100
AcDbLine
 10
-37.96322110822109
 20
16.32187694031424
 30
0.0
 11
-37.36289063383859
 21
16.32187694031424
 31
0.0
  0
LINE
  5
35B
102
{ACAD_REACTORS
330
471
330
472
102
}
330
71
100
AcDbEntity
  8
0
  6
Continuous
 62
     2
100
AcDbLine
 10
-39.68126112309489
 20
15.10035313078976
 30
0.0
 11
-38.4407567128419
 21
15.10035313078976
 31
0.0
  0
LINE
  5
35C
102
{ACAD_REACTORS
330
471
330
472
102
}
330
71
100
AcDbEntity
  8
0
  6
Continuous
 62
     2
100
AcDbLine
 10
-38.28330807615558
 20
18.15416265460084
 30
0.0
 11
-37.04280366590288
 21
18.15416265460084
 31
0.0
  0
LINE
  5
35D
102
{ACAD_REACTORS
330
471
330
472
102
}
330
71
100
AcDbEntity
  8
0
  6
Continuous
 62
     2
100
AcDbLine
 10
-37.04280366590288
 20
18.15416265460084
 30
0.0
 11
-35.64485061896258
 21
15.10035313078976
 31
0.0
  0
LINE
  5
35E
102
{ACAD_REACTORS
330
471
330
472
102
}
330
71
100
AcDbEntity
  8
0
  6
Continuous
 62
     2
100
AcDbLine
 10
-36.8853550292165
 20
15.10035313078976
 30
0.0
 11
-37.09683508269228
 21
15.64131367500764
 31
0.0
  0
LINE
  5
35F
102
{ACAD_REACTORS
330
473
330
474
102
}
330
71
100
AcDbEntity
  8
0
  6
Continuous
 62
     2
100
AcDbLine
 10
-41.0276742248025
 20
15.10035313078976
 30
0.0
 11
-39.83488152263598
 21
15.10035313078976
 31
0.0
  0
LINE
  5
360
102
{ACAD_REACTORS
330
473
330
474
102
}
330
71
100
AcDbEntity
  8
0
  6
Continuous
 62
     2
100
AcDbLine
 10
-41.0276742248025
 20
17.36889734847725
 30
0.0
 11
-41.0276742248025
 21
15.10035313078976
 31
0.0
  0
LINE
  5
361
102
{ACAD_REACTORS
330
473
330
474
102
}
330
71
100
AcDbEntity
  8
0
  6
Continuous
 62
     2
100
AcDbLine
 10
-41.8387732622771
 20
18.15416265460084
 30
0.0
 11
-41.8387732622771
 21
17.36889734847725
 31
0.0
  0
LINE
  5
362
102
{ACAD_REACTORS
330
475
330
476
102
}
330
71
100
AcDbEntity
  8
0
  6
Continuous
 62
     2
100
AcDbLine
 10
-40.3595593807045
 20
18.45954360696405
 30
0.0
 11
-39.16676667853798
 21
18.45954360696405
 31
0.0
  0
LINE
  5
363
102
{ACAD_REACTORS
330
475
330
476
102
}
330
71
100
AcDbEntity
  8
0
  6
Continuous
 62
     2
100
AcDbLine
 10
-37.92626226828398
 20
20.20457762057006
 30
0.0
 11
-39.16676667853798
 21
21.51335313077524
 31
0.0
  0
LINE
  5
364
102
{ACAD_REACTORS
330
475
330
476
102
}
330
71
100
AcDbEntity
  8
0
  6
Continuous
 62
     2
100
AcDbLine
 10
-36.73346956611738
 20
21.51335313077524
 30
0.0
 11
-37.92626226828398
 21
21.51335313077524
 31
0.0
  0
LINE
  5
365
102
{ACAD_REACTORS
330
475
330
476
102
}
330
71
100
AcDbEntity
  8
0
  6
Continuous
 62
     2
100
AcDbLine
 10
-36.73346956611738
 20
18.45954360696405
 30
0.0
 11
-36.73346956611738
 21
21.51335313077524
 31
0.0
  0
LINE
  5
366
102
{ACAD_REACTORS
330
475
330
476
102
}
330
71
100
AcDbEntity
  8
0
  6
Continuous
 62
     2
100
AcDbLine
 10
-37.92626226828398
 20
18.45954360696405
 30
0.0
 11
-36.73346956611738
 21
18.45954360696405
 31
0.0
  0
LINE
  5
367
102
{ACAD_REACTORS
330
475
330
476
102
}
330
71
100
AcDbEntity
  8
0
  6
Continuous
 62
     2
100
AcDbLine
 10
-39.16676667853798
 20
19.76831911716874
 30
0.0
 11
-37.92626226828398
 21
18.45954360696405
 31
0.0
  0
LINE
  5
368
102
{ACAD_REACTORS
330
477
330
478
102
}
330
71
100
AcDbEntity
  8
0
  6
Continuous
 62
     2
100
AcDbLine
 10
-43.1747010887037
 20
16.84538714439574
 30
0.0
 11
-44.4152054989566
 21
18.15416265460084
 31
0.0
  0
LINE
  5
369
102
{ACAD_REACTORS
330
477
330
478
102
}
330
71
100
AcDbEntity
  8
0
  6
Continuous
 62
     2
100
AcDbLine
 10
-43.1747010887037
 20
18.15416265460084
 30
0.0
 11
-43.1747010887037
 21
16.84538714439574
 31
0.0
  0
LINE
  5
36A
102
{ACAD_REACTORS
330
477
330
478
102
}
330
71
100
AcDbEntity
  8
0
  6
Continuous
 62
     2
100
AcDbLine
 10
-41.9819083865373
 20
18.15416265460084
 30
0.0
 11
-43.1747010887037
 21
18.15416265460084
 31
0.0
  0
LINE
  5
36B
102
{ACAD_REACTORS
330
477
330
478
102
}
330
71
100
AcDbEntity
  8
0
  6
Continuous
 62
     2
100
AcDbLine
 10
-41.9819083865373
 20
15.10035313078976
 30
0.0
 11
-41.9819083865373
 21
18.15416265460084
 31
0.0
  0
LINE
  5
36C
102
{ACAD_REACTORS
330
477
330
478
102
}
330
71
100
AcDbEntity
  8
0
  6
Continuous
 62
     2
100
AcDbLine
 10
-44.4152054989566
 20
16.40912864099434
 30
0.0
 11
-43.1747010887037
 21
15.10035313078976
 31
0.0
  0
LINE
  5
36D
102
{ACAD_REACTORS
330
477
330
478
102
}
330
71
100
AcDbEntity
  8
0
  6
Continuous
 62
     2
100
AcDbLine
 10
-44.4152054989566
 20
15.10035313078976
 30
0.0
 11
-44.4152054989566
 21
16.40912864099434
 31
0.0
  0
LINE
  5
36E
102
{ACAD_REACTORS
330
467
330
468
102
}
330
71
100
AcDbEntity
  8
0
  6
Continuous
 62
     2
100
AcDbLine
 10
-41.93404574756508
 20
20.81533952533226
 30
0.0
 11
-40.5981179211374
 21
20.81533952533226
 31
0.0
  0
LINE
  5
36F
102
{ACAD_REACTORS
330
467
330
468
102
}
330
71
100
AcDbEntity
  8
0
  6
Continuous
 62
     2
100
AcDbLine
 10
-41.93404574756508
 20
19.15755721240655
 30
0.0
 11
-41.93404574756508
 21
19.63744156614825
 31
0.0
  0
LINE
  5
370
102
{ACAD_REACTORS
330
467
330
468
102
}
330
71
100
AcDbEntity
  8
0
  6
Continuous
 62
     2
100
AcDbLine
 10
-40.5981179211374
 20
19.15755721240655
 30
0.0
 11
-41.93404574756508
 21
19.15755721240655
 31
0.0
  0
LINE
  5
371
102
{ACAD_REACTORS
330
467
330
468
102
}
330
71
100
AcDbEntity
  8
0
  6
Continuous
 62
     2
100
AcDbLine
 10
-40.5981179211374
 20
18.45954360696405
 30
0.0
 11
-40.5981179211374
 21
19.15755721240655
 31
0.0
  0
LINE
  5
372
102
{ACAD_REACTORS
330
467
330
468
102
}
330
71
100
AcDbEntity
  8
0
  6
Continuous
 62
     2
100
AcDbLine
 10
-43.7484376449184
 20
18.45954360696405
 30
0.0
 11
-40.5981179211374
 21
18.45954360696405
 31
0.0
  0
LINE
  5
373
102
{ACAD_REACTORS
330
467
330
468
102
}
330
71
100
AcDbEntity
  8
0
  6
Continuous
 62
     2
100
AcDbLine
 10
-43.7484376449184
 20
21.51335313077524
 30
0.0
 11
-40.5981179211374
 21
21.51335313077524
 31
0.0
  0
LINE
  5
374
102
{ACAD_REACTORS
330
467
330
468
102
}
330
71
100
AcDbEntity
  8
0
  6
Continuous
 62
     2
100
AcDbLine
 10
-40.5981179211374
 20
20.81533952533226
 30
0.0
 11
-40.5981179211374
 21
21.51335313077524
 31
0.0
  0
LINE
  5
375
102
{ACAD_REACTORS
330
479
330
47A
102
}
330
71
100
AcDbEntity
  8
0
  6
Continuous
 62
     2
100
AcDbLine
 10
-46.6097931400584
 20
20.44451979744065
 30
0.0
 11
-46.6097931400584
 21
21.51335313077524
 31
0.0
  0
LINE
  5
376
102
{ACAD_REACTORS
330
479
330
47A
102
}
330
71
100
AcDbEntity
  8
0
  6
Continuous
 62
     2
100
AcDbLine
 10
-46.6097931400584
 20
21.51335313077524
 30
0.0
 11
-45.417000437892
 21
21.51335313077524
 31
0.0
  0
LINE
  5
377
102
{ACAD_REACTORS
330
479
330
47A
102
}
330
71
100
AcDbEntity
  8
0
  6
Continuous
 62
     2
100
AcDbLine
 10
-46.6097931400584
 20
19.59381571580786
 30
0.0
 11
-47.65945071796588
 21
19.59381571580786
 31
0.0
  0
LINE
  5
378
102
{ACAD_REACTORS
330
479
330
47A
102
}
330
71
100
AcDbEntity
  8
0
  6
Continuous
 62
     2
100
AcDbLine
 10
-47.65945071796588
 20
19.59381571580786
 30
0.0
 11
-47.65945071796588
 21
18.45954360696405
 31
0.0
  0
LINE
  5
379
102
{ACAD_REACTORS
330
479
330
47A
102
}
330
71
100
AcDbEntity
  8
0
  6
Continuous
 62
     2
100
AcDbLine
 10
-48.85224342013248
 20
21.51335313077524
 30
0.0
 11
-48.85224342013248
 21
18.45954360696405
 31
0.0
  0
LINE
  5
37A
102
{ACAD_REACTORS
330
46B
330
46C
102
}
330
71
100
AcDbEntity
  8
0
  6
Continuous
 62
     2
100
AcDbLine
 10
-50.80842345168608
 20
20.14451963599294
 30
0.0
 11
-50.80842345168608
 21
20.85024728533514
 31
0.0
  0
LINE
  5
37B
102
{ACAD_REACTORS
330
46B
330
46C
102
}
330
71
100
AcDbEntity
  8
0
  6
Continuous
 62
     2
100
AcDbLine
 10
-52.0489278619402
 20
18.45954360696405
 30
0.0
 11
-50.80842345168608
 21
18.45954360696405
 31
0.0
  0
LINE
  5
37C
102
{ACAD_REACTORS
330
46B
330
46C
102
}
330
71
100
AcDbEntity
  8
0
  6
Continuous
 62
     2
100
AcDbLine
 10
-50.80842345168608
 20
18.45954360696405
 30
0.0
 11
-50.80842345168608
 21
19.40262184810786
 31
0.0
  0
LINE
  5
37D
102
{ACAD_REACTORS
330
465
330
466
102
}
330
71
100
AcDbEntity
  8
0
  6
Continuous
 62
     2
100
AcDbLine
 10
-56.35387371115158
 20
15.81290868634665
 30
0.0
 11
-57.82970697216121
 21
15.81290868634665
 31
0.0
  0
LINE
  5
37E
102
{ACAD_REACTORS
330
465
330
466
102
}
330
71
100
AcDbEntity
  8
0
  6
Continuous
 62
     2
100
AcDbLine
 10
-58.8478462642905
 20
21.08910851537326
 30
0.0
 11
-58.8478462642905
 21
15.52459774617304
 31
0.0
  0
LINE
  5
37F
102
{ACAD_REACTORS
330
465
330
466
102
}
330
71
100
AcDbEntity
  8
0
  6
Continuous
 62
     2
100
AcDbLine
 10
-58.42360164890769
 20
21.51335313075705
 30
0.0
 11
-52.95028955819089
 21
21.51335313075705
 31
0.0
  0
LINE
  5
380
102
{ACAD_REACTORS
330
465
330
466
102
}
330
71
100
AcDbEntity
  8
0
  6
Continuous
 62
     2
100
AcDbLine
 10
-52.52604494280701
 20
21.08910851537326
 30
0.0
 11
-52.52604494280701
 21
15.52459774617304
 31
0.0
  0
LINE
  5
381
102
{ACAD_REACTORS
330
465
330
466
102
}
330
71
100
AcDbEntity
  8
0
  6
Continuous
 62
     2
100
AcDbLine
 10
-52.95028955819089
 20
15.10035313078976
 30
0.0
 11
-58.42360164890769
 21
15.10035313078976
 31
0.0
  0
LINE
  5
382
102
{ACAD_REACTORS
330
465
330
466
102
}
330
71
100
AcDbEntity
  8
0
  6
Continuous
 62
     2
100
AcDbLine
 10
-56.03815678807499
 20
16.12862560942335
 30
0.0
 11
-56.03815678807499
 21
17.65939654095496
 31
0.0
  0
LINE
  5
383
102
{ACAD_REACTORS
330
465
330
466
102
}
330
71
100
AcDbEntity
  8
0
  6
Continuous
 62
     2
100
AcDbLine
 10
-56.03815678807499
 20
19.88105603307994
 30
0.0
 11
-56.03815678807499
 21
20.48508065214045
 31
0.0
  0
LINE
  5
384
102
{ACAD_REACTORS
330
465
330
466
102
}
330
71
100
AcDbEntity
  8
0
  6
Continuous
 62
     2
100
AcDbLine
 10
-57.82970697216121
 20
20.80079757521665
 30
0.0
 11
-56.35387371115158
 21
20.80079757521665
 31
0.0
  0
LINE
  5
385
102
{ACAD_REACTORS
330
465
330
466
102
}
330
71
100
AcDbEntity
  8
0
  6
Continuous
 62
     2
100
AcDbLine
 10
-58.14542389523689
 20
20.48508065214045
 30
0.0
 11
-58.14542389523689
 21
16.12862560942335
 31
0.0
  0
LINE
  5
386
102
{ACAD_REACTORS
330
46B
330
46C
102
}
330
71
100
AcDbEntity
  8
0
  6
Continuous
 62
     2
100
AcDbLine
 10
-50.80842345168608
 20
19.40262184810786
 30
0.0
 11
-50.0496558639058
 21
19.40262184810786
 31
0.0
  0
LINE
  5
387
102
{ACAD_REACTORS
330
46B
330
46C
102
}
330
71
100
AcDbEntity
  8
0
  6
Continuous
 62
     2
100
AcDbLine
 10
-52.0489278619402
 20
21.51335313077524
 30
0.0
 11
-50.0496558639058
 21
21.51335313077524
 31
0.0
  0
LINE
  5
388
102
{ACAD_REACTORS
330
46B
330
46C
102
}
330
71
100
AcDbEntity
  8
0
  6
Continuous
 62
     2
100
AcDbLine
 10
-52.0489278619402
 20
21.51335313077524
 30
0.0
 11
-52.0489278619402
 21
18.45954360696405
 31
0.0
  0
LINE
  5
389
102
{ACAD_REACTORS
330
46B
330
46C
102
}
330
71
100
AcDbEntity
  8
0
  6
Continuous
 62
     2
100
AcDbLine
 10
-50.80842345168608
 20
20.14451963599294
 30
0.0
 11
-50.49112839014418
 21
20.14451963599294
 31
0.0
  0
LINE
  5
38A
102
{ACAD_REACTORS
330
46B
330
46C
102
}
330
71
100
AcDbEntity
  8
0
  6
Continuous
 62
     2
100
AcDbLine
 10
-50.80842345168608
 20
20.85024728533514
 30
0.0
 11
-50.49112839014418
 21
20.85024728533514
 31
0.0
  0
LINE
  5
38B
102
{ACAD_REACTORS
330
479
330
47A
102
}
330
71
100
AcDbEntity
  8
0
  6
Continuous
 62
     2
100
AcDbLine
 10
-47.65945071796588
 20
20.44451979744065
 30
0.0
 11
-46.6097931400584
 21
20.44451979744065
 31
0.0
  0
LINE
  5
38C
102
{ACAD_REACTORS
330
479
330
47A
102
}
330
71
100
AcDbEntity
  8
0
  6
Continuous
 62
     2
100
AcDbLine
 10
-47.65945071796588
 20
21.51335313077524
 30
0.0
 11
-47.65945071796588
 21
20.44451979744065
 31
0.0
  0
LINE
  5
38D
102
{ACAD_REACTORS
330
479
330
47A
102
}
330
71
100
AcDbEntity
  8
0
  6
Continuous
 62
     2
100
AcDbLine
 10
-48.85224342013248
 20
21.51335313077524
 30
0.0
 11
-47.65945071796588
 21
21.51335313077524
 31
0.0
  0
LINE
  5
38E
102
{ACAD_REACTORS
330
479
330
47A
102
}
330
71
100
AcDbEntity
  8
0
  6
Continuous
 62
     2
100
AcDbLine
 10
-47.65945071796588
 20
18.45954360696405
 30
0.0
 11
-48.85224342013248
 21
18.45954360696405
 31
0.0
  0
LINE
  5
38F
102
{ACAD_REACTORS
330
479
330
47A
102
}
330
71
100
AcDbEntity
  8
0
  6
Continuous
 62
     2
100
AcDbLine
 10
-46.6097931400584
 20
18.45954360696405
 30
0.0
 11
-46.6097931400584
 21
19.59381571580786
 31
0.0
  0
LINE
  5
390
102
{ACAD_REACTORS
330
479
330
47A
102
}
330
71
100
AcDbEntity
  8
0
  6
Continuous
 62
     2
100
AcDbLine
 10
-45.417000437892
 20
18.45954360696405
 30
0.0
 11
-46.6097931400584
 21
18.45954360696405
 31
0.0
  0
LINE
  5
391
102
{ACAD_REACTORS
330
479
330
47A
102
}
330
71
100
AcDbEntity
  8
0
  6
Continuous
 62
     2
100
AcDbLine
 10
-45.417000437892
 20
21.51335313077524
 30
0.0
 11
-45.417000437892
 21
18.45954360696405
 31
0.0
  0
LINE
  5
392
102
{ACAD_REACTORS
330
467
330
468
102
}
330
71
100
AcDbEntity
  8
0
  6
Continuous
 62
     2
100
AcDbLine
 10
-41.93404574756508
 20
19.63744156614825
 30
0.0
 11
-40.5981179211374
 21
19.63744156614825
 31
0.0
  0
LINE
  5
393
102
{ACAD_REACTORS
330
467
330
468
102
}
330
71
100
AcDbEntity
  8
0
  6
Continuous
 62
     2
100
AcDbLine
 10
-40.5981179211374
 20
19.63744156614825
 30
0.0
 11
-40.5981179211374
 21
20.33545517159055
 31
0.0
  0
LINE
  5
394
102
{ACAD_REACTORS
330
467
330
468
102
}
330
71
100
AcDbEntity
  8
0
  6
Continuous
 62
     2
100
AcDbLine
 10
-40.5981179211374
 20
20.33545517159055
 30
0.0
 11
-41.93404574756508
 21
20.33545517159055
 31
0.0
  0
LINE
  5
395
102
{ACAD_REACTORS
330
467
330
468
102
}
330
71
100
AcDbEntity
  8
0
  6
Continuous
 62
     2
100
AcDbLine
 10
-41.93404574756508
 20
20.33545517159055
 30
0.0
 11
-41.93404574756508
 21
20.81533952533226
 31
0.0
  0
LINE
  5
396
102
{ACAD_REACTORS
330
477
330
478
102
}
330
71
100
AcDbEntity
  8
0
  6
Continuous
 62
     2
100
AcDbLine
 10
-45.60799820112419
 20
15.10035313078976
 30
0.0
 11
-44.4152054989566
 21
15.10035313078976
 31
0.0
  0
LINE
  5
397
102
{ACAD_REACTORS
330
477
330
478
102
}
330
71
100
AcDbEntity
  8
0
  6
Continuous
 62
     2
100
AcDbLine
 10
-43.1747010887037
 20
15.10035313078976
 30
0.0
 11
-41.9819083865373
 21
15.10035313078976
 31
0.0
  0
LINE
  5
398
102
{ACAD_REACTORS
330
477
330
478
102
}
330
71
100
AcDbEntity
  8
0
  6
Continuous
 62
     2
100
AcDbLine
 10
-44.4152054989566
 20
18.15416265460084
 30
0.0
 11
-45.60799820112419
 21
18.15416265460084
 31
0.0
  0
LINE
  5
399
102
{ACAD_REACTORS
330
477
330
478
102
}
330
71
100
AcDbEntity
  8
0
  6
Continuous
 62
     2
100
AcDbLine
 10
-45.60799820112419
 20
18.15416265460084
 30
0.0
 11
-45.60799820112419
 21
15.10035313078976
 31
0.0
  0
LINE
  5
39A
102
{ACAD_REACTORS
330
475
330
476
102
}
330
71
100
AcDbEntity
  8
0
  6
Continuous
 62
     2
100
AcDbLine
 10
-37.92626226828398
 20
21.51335313077524
 30
0.0
 11
-37.92626226828398
 21
20.20457762057006
 31
0.0
  0
LINE
  5
39B
102
{ACAD_REACTORS
330
475
330
476
102
}
330
71
100
AcDbEntity
  8
0
  6
Continuous
 62
     2
100
AcDbLine
 10
-39.16676667853798
 20
21.51335313077524
 30
0.0
 11
-40.3595593807045
 21
21.51335313077524
 31
0.0
  0
LINE
  5
39C
102
{ACAD_REACTORS
330
475
330
476
102
}
330
71
100
AcDbEntity
  8
0
  6
Continuous
 62
     2
100
AcDbLine
 10
-40.3595593807045
 20
21.51335313077524
 30
0.0
 11
-40.3595593807045
 21
18.45954360696405
 31
0.0
  0
LINE
  5
39D
102
{ACAD_REACTORS
330
475
330
476
102
}
330
71
100
AcDbEntity
  8
0
  6
Continuous
 62
     2
100
AcDbLine
 10
-39.16676667853798
 20
18.45954360696405
 30
0.0
 11
-39.16676667853798
 21
19.76831911716874
 31
0.0
  0
LINE
  5
39E
102
{ACAD_REACTORS
330
473
330
474
102
}
330
71
100
AcDbEntity
  8
0
  6
Continuous
 62
     2
100
AcDbLine
 10
-39.83488152263598
 20
15.10035313078976
 30
0.0
 11
-39.83488152263598
 21
17.36889734847725
 31
0.0
  0
LINE
  5
39F
102
{ACAD_REACTORS
330
473
330
474
102
}
330
71
100
AcDbEntity
  8
0
  6
Continuous
 62
     2
100
AcDbLine
 10
-39.83488152263598
 20
17.36889734847725
 30
0.0
 11
-39.02378248516348
 21
17.36889734847725
 31
0.0
  0
LINE
  5
3A0
102
{ACAD_REACTORS
330
473
330
474
102
}
330
71
100
AcDbEntity
  8
0
  6
Continuous
 62
     2
100
AcDbLine
 10
-39.02378248516348
 20
17.36889734847725
 30
0.0
 11
-39.02378248516348
 21
18.15416265460084
 31
0.0
  0
LINE
  5
3A1
102
{ACAD_REACTORS
330
473
330
474
102
}
330
71
100
AcDbEntity
  8
0
  6
Continuous
 62
     2
100
AcDbLine
 10
-39.02378248516348
 20
18.15416265460084
 30
0.0
 11
-41.8387732622771
 21
18.15416265460084
 31
0.0
  0
LINE
  5
3A2
102
{ACAD_REACTORS
330
473
330
474
102
}
330
71
100
AcDbEntity
  8
0
  6
Continuous
 62
     2
100
AcDbLine
 10
-41.8387732622771
 20
17.36889734847725
 30
0.0
 11
-41.0276742248025
 21
17.36889734847725
 31
0.0
  0
LINE
  5
3A3
102
{ACAD_REACTORS
330
471
330
472
102
}
330
71
100
AcDbEntity
  8
0
  6
Continuous
 62
     2
100
AcDbLine
 10
-38.22927665936609
 20
15.64131367500764
 30
0.0
 11
-37.09683508269228
 21
15.64131367500764
 31
0.0
  0
LINE
  5
3A4
102
{ACAD_REACTORS
330
471
330
472
102
}
330
71
100
AcDbEntity
  8
0
  6
Continuous
 62
     2
100
AcDbLine
 10
-35.64485061896258
 20
15.10035313078976
 30
0.0
 11
-36.8853550292165
 21
15.10035313078976
 31
0.0
  0
LINE
  5
3A5
102
{ACAD_REACTORS
330
471
330
472
102
}
330
71
100
AcDbEntity
  8
0
  6
Continuous
 62
     2
100
AcDbLine
 10
-38.28330807615558
 20
18.15416265460084
 30
0.0
 11
-39.68126112309489
 21
15.10035313078976
 31
0.0
  0
LINE
  5
3A6
102
{ACAD_REACTORS
330
471
330
472
102
}
330
71
100
AcDbEntity
  8
0
  6
Continuous
 62
     2
100
AcDbLine
 10
-38.4407567128419
 20
15.10035313078976
 30
0.0
 11
-38.22927665936609
 21
15.64131367500764
 31
0.0
  0
LINE
  5
3A7
102
{ACAD_REACTORS
330
471
330
472
102
}
330
71
100
AcDbEntity
  8
0
  6
Continuous
 62
     2
100
AcDbLine
 10
-37.96322110822109
 20
16.32187694031424
 30
0.0
 11
-37.66305587102869
 21
17.08969190630094
 31
0.0
  0
LINE
  5
3A8
102
{ACAD_REACTORS
330
46F
330
470
102
}
330
71
100
AcDbEntity
  8
0
  6
Continuous
 62
     2
100
AcDbLine
 10
-36.49491102568348
 20
18.45954360696405
 30
0.0
 11
-36.49491102568348
 21
21.51335313077524
 31
0.0
  0
LINE
  5
3A9
102
{ACAD_REACTORS
330
46F
330
470
102
}
330
71
100
AcDbEntity
  8
0
  6
Continuous
 62
     2
100
AcDbLine
 10
-35.25440661543058
 20
21.51335313077524
 30
0.0
 11
-35.25440661543058
 21
18.45954360696405
 31
0.0
  0
LINE
  5
3AA
102
{ACAD_REACTORS
330
46F
330
470
102
}
330
71
100
AcDbEntity
  8
0
  6
Continuous
 62
     2
100
AcDbLine
 10
-36.49491102568348
 20
21.51335313077524
 30
0.0
 11
-35.25440661543058
 21
21.51335313077524
 31
0.0
  0
LINE
  5
3AB
102
{ACAD_REACTORS
330
46D
330
46E
102
}
330
71
100
AcDbEntity
  8
0
  6
Continuous
 62
     2
100
AcDbLine
 10
-33.03581218939979
 20
19.24727539225776
 30
0.0
 11
-32.33922125133429
 21
18.45954360696405
 31
0.0
  0
LINE
  5
3AC
102
{ACAD_REACTORS
330
46D
330
46E
102
}
330
71
100
AcDbEntity
  8
0
  6
Continuous
 62
     2
100
AcDbLine
 10
-32.33922125133429
 20
18.45954360696405
 30
0.0
 11
-30.93649703358599
 21
18.45954360696405
 31
0.0
  0
LINE
  5
3AD
102
{ACAD_REACTORS
330
46D
330
46E
102
}
330
71
100
AcDbEntity
  8
0
  6
Continuous
 62
     2
100
AcDbLine
 10
-32.3344500805263
 20
20.04040260073904
 30
0.0
 11
-30.93649703358599
 21
18.45954360696405
 31
0.0
  0
LINE
  5
3AE
102
{ACAD_REACTORS
330
46D
330
46E
102
}
330
71
100
AcDbEntity
  8
0
  6
Continuous
 62
     2
100
AcDbLine
 10
-32.3344500805263
 20
20.04040260073904
 30
0.0
 11
-31.03192044975978
 21
21.51335313077524
 31
0.0
  0
LINE
  5
3AF
102
{ACAD_REACTORS
330
46D
330
46E
102
}
330
71
100
AcDbEntity
  8
0
  6
Continuous
 62
     2
100
AcDbLine
 10
-33.03581218939979
 20
20.83352980921976
 30
0.0
 11
-32.434644667507
 21
21.51335313077524
 31
0.0
  0
LINE
  5
3B0
102
{ACAD_REACTORS
330
46D
330
46E
102
}
330
71
100
AcDbEntity
  8
0
  6
Continuous
 62
     2
100
AcDbLine
 10
-33.63697971129159
 20
21.51335313077524
 30
0.0
 11
-33.03581218939979
 21
20.83352980921976
 31
0.0
  0
LINE
  5
3B1
102
{ACAD_REACTORS
330
46D
330
46E
102
}
330
71
100
AcDbEntity
  8
0
  6
Continuous
 62
     2
100
AcDbLine
 10
-33.63697971129159
 20
21.51335313077524
 30
0.0
 11
-35.03970392904088
 21
21.51335313077524
 31
0.0
  0
LINE
  5
3B2
102
{ACAD_REACTORS
330
463
330
464
102
}
330
71
100
AcDbEntity
  8
0
  6
Continuous
 62
     2
100
AcDbLine
 10
-32.94038877322709
 20
15.10035313078976
 30
0.0
 11
-31.74759607105938
 21
15.10035313078976
 31
0.0
  0
LINE
  5
3B3
102
{ACAD_REACTORS
330
463
330
464
102
}
330
71
100
AcDbEntity
  8
0
  6
Continuous
 62
     2
100
AcDbLine
 10
-31.74759607105938
 20
15.10035313078976
 30
0.0
 11
-31.74759607105938
 21
17.36889734847725
 31
0.0
  0
LINE
  5
3B4
102
{ACAD_REACTORS
330
463
330
464
102
}
330
71
100
AcDbEntity
  8
0
  6
Continuous
 62
     2
100
AcDbLine
 10
-31.74759607105938
 20
17.36889734847725
 30
0.0
 11
-30.93649703358599
 21
17.36889734847725
 31
0.0
  0
LINE
  5
3B5
102
{ACAD_REACTORS
330
463
330
464
102
}
330
71
100
AcDbEntity
  8
0
  6
Continuous
 62
     2
100
AcDbLine
 10
-30.93649703358599
 20
17.36889734847725
 30
0.0
 11
-30.93649703358599
 21
18.15416265460084
 31
0.0
  0
LINE
  5
3B6
102
{ACAD_REACTORS
330
463
330
464
102
}
330
71
100
AcDbEntity
  8
0
  6
Continuous
 62
     2
100
AcDbLine
 10
-34.32144255221468
 20
18.15416265460036
 30
0.0
 11
-30.93649703358599
 21
18.15416265460084
 31
0.0
  0
LINE
  5
3B7
102
{ACAD_REACTORS
330
463
330
464
102
}
330
71
100
AcDbEntity
  8
0
  6
Continuous
 62
     2
100
AcDbLine
 10
-32.94038877322709
 20
17.36889734847725
 30
0.0
 11
-32.94038877322709
 21
15.10035313078976
 31
0.0
  0
LINE
  5
3B8
102
{ACAD_REACTORS
330
465
330
466
102
}
330
71
100
AcDbEntity
  8
0
  6
Continuous
 62
     2
100
AcDbLine
 10
-55.56987520870629
 20
17.07923328035426
 30
0.0
 11
-55.56987520870629
 21
17.66108468704934
 31
0.0
  0
LINE
  5
3B9
102
{ACAD_REACTORS
330
465
330
466
102
}
330
71
100
AcDbEntity
  8
0
  6
Continuous
 62
     2
100
AcDbLine
 10
-55.56987520870629
 20
19.87936788698556
 30
0.0
 11
-55.56987520870629
 21
20.48490317549235
 31
0.0
  0
LINE
  5
3BA
330
71
100
AcDbEntity
  8
1
  6
Continuous
 62
     6
100
AcDbLine
 10
-77.03969662410307
 20
7.80685313077345
 30
0.0
 11
-63.0845011508531
 21
7.80685313077333
 31
0.0
  0
LINE
  5
3BB
330
71
100
AcDbEntity
  8
1
  6
Continuous
 62
     6
100
AcDbLine
 10
-127.0396966241033
 20
7.80685313077345
 30
0.0
 11
-132.0845011508531
 21
7.80685313077345
 31
0.0
  0
LINE
  5
3BC
330
71
100
AcDbEntity
  8
1
  6
Continuous
 62
     6
100
AcDbLine
 10
22.9603033758969
 20
7.80685313077345
 30
0.0
 11
66.46030337589691
 21
7.80685313077345
 31
0.0
  0
LINE
  5
3BD
330
71
100
AcDbEntity
  8
1
  6
Continuous
 62
     6
100
AcDbLine
 10
-27.0396966241031
 20
7.80685313077345
 30
0.0
 11
-44.88450115085308
 21
7.80685313077345
 31
0.0
  0
LINE
  5
3BE
330
71
100
AcDbEntity
  8
1
  6
Continuous
 62
     2
100
AcDbLine
 10
66.46030337589691
 20
7.80685313077345
 30
0.0
 11
71.4603033758959
 21
7.80685313077345
 31
0.0
  0
LINE
  5
3BF
330
71
100
AcDbEntity
  8
1
  6
Continuous
 62
     2
100
AcDbLine
 10
66.46030337589691
 20
7.80685313077345
 30
0.0
 11
66.46030337589691
 21
2.80685313077333
 31
0.0
  0
LINE
  5
3C0
330
71
100
AcDbEntity
  8
1
  6
Continuous
 62
     6
100
AcDbLine
 10
-63.0845011508531
 20
24.80685313077345
 30
0.0
 11
-26.68450115085318
 21
24.80685313077345
 31
0.0
  0
LINE
  5
3C1
330
71
100
AcDbEntity
  8
1
  6
Continuous
 62
     2
100
AcDbLine
 10
71.4603033758959
 20
2.80685313077333
 30
0.0
 11
71.4603033758959
 21
7.80685313077345
 31
0.0
  0
LINE
  5
3C2
330
71
100
AcDbEntity
  8
1
  6
Continuous
 62
     2
100
AcDbLine
 10
71.4603033758959
 20
2.80685313077333
 30
0.0
 11
66.46030337589691
 21
2.80685313077333
 31
0.0
  0
LINE
  5
3C3
330
71
100
AcDbEntity
  8
1
  6
Continuous
 62
     2
100
AcDbLine
 10
66.46030337589691
 20
2.80685313077333
 30
0.0
 11
22.9603033758969
 21
2.80685313077333
 31
0.0
  0
LINE
  5
3C4
330
71
100
AcDbEntity
  8
1
  6
Continuous
 62
     6
100
AcDbLine
 10
66.4603033758986
 20
24.80685313077345
 30
0.0
 11
66.46030337589781
 21
57.80685313077356
 31
0.0
  0
LINE
  5
3C5
330
71
100
AcDbEntity
  8
1
  6
Continuous
 62
     2
100
AcDbLine
 10
71.4603033758959
 20
212.8068531307735
 30
0.0
 11
-77.03969662410307
 21
212.8068531307735
 31
0.0
  0
LINE
  5
3C6
330
71
100
AcDbEntity
  8
1
  6
Continuous
 62
     6
100
AcDbLine
 10
66.4603033758959
 20
192.8068531307735
 30
0.0
 11
-220.5396966241022
 21
192.8068531307735
 31
0.0
  0
LINE
  5
3C7
330
71
100
AcDbEntity
  8
1
  6
Continuous
 62
     2
100
AcDbLine
 10
66.46030337589781
 20
57.80685313077356
 30
0.0
 11
71.4603033758959
 21
57.80685313077356
 31
0.0
  0
LINE
  5
3C8
330
71
100
AcDbEntity
  8
1
  6
Continuous
 62
     6
100
AcDbLine
 10
66.46030337589781
 20
57.80685313077356
 30
0.0
 11
66.46030337589731
 21
107.8068531307734
 31
0.0
  0
LINE
  5
3C9
330
71
100
AcDbEntity
  8
1
  6
Continuous
 62
     2
100
AcDbLine
 10
71.4603033758959
 20
57.80685313077356
 30
0.0
 11
71.4603033758959
 21
107.8068531307734
 31
0.0
  0
LINE
  5
3CA
330
71
100
AcDbEntity
  8
1
  6
Continuous
 62
     2
100
AcDbLine
 10
66.46030337589731
 20
107.8068531307734
 30
0.0
 11
71.4603033758959
 21
107.8068531307734
 31
0.0
  0
LINE
  5
3CB
330
71
100
AcDbEntity
  8
1
  6
Continuous
 62
     6
100
AcDbLine
 10
66.46030337589731
 20
107.8068531307734
 30
0.0
 11
66.4603033758961
 21
157.8068531307735
 31
0.0
  0
LINE
  5
3CC
330
71
100
AcDbEntity
  8
1
  6
Continuous
 62
     2
100
AcDbLine
 10
71.4603033758959
 20
107.8068531307734
 30
0.0
 11
71.4603033758959
 21
157.8068531307735
 31
0.0
  0
LINE
  5
3CD
330
71
100
AcDbEntity
  8
1
  6
Continuous
 62
     2
100
AcDbLine
 10
66.4603033758961
 20
157.8068531307735
 30
0.0
 11
71.4603033758959
 21
157.8068531307735
 31
0.0
  0
LINE
  5
3CE
330
71
100
AcDbEntity
  8
1
  6
Continuous
 62
     6
100
AcDbLine
 10
66.4603033758961
 20
157.8068531307735
 30
0.0
 11
66.4603033758959
 21
192.8068531307735
 31
0.0
  0
LINE
  5
3CF
330
71
100
AcDbEntity
  8
1
  6
Continuous
 62
     2
100
AcDbLine
 10
71.4603033758959
 20
157.8068531307735
 30
0.0
 11
71.4603033758959
 21
212.8068531307735
 31
0.0
  0
LINE
  5
3D0
330
71
100
AcDbEntity
  8
1
  6
Continuous
 62
     2
100
AcDbLine
 10
71.4603033758959
 20
7.80685313077345
 30
0.0
 11
71.4603033758959
 21
57.80685313077356
 31
0.0
  0
LINE
  5
3D1
330
71
100
AcDbEntity
  8
1
  6
Continuous
 62
     2
100
AcDbLine
 10
-77.03969662410307
 20
212.8068531307735
 30
0.0
 11
-225.5396966241022
 21
212.8068531307735
 31
0.0
  0
LINE
  5
3D2
330
71
100
AcDbEntity
  8
1
  6
Continuous
 62
     2
100
AcDbLine
 10
-77.03969662410307
 20
212.8068531307735
 30
0.0
 11
-77.03969662410307
 21
203.5981612860721
 31
0.0
  0
LINE
  5
3D3
330
71
100
AcDbEntity
  8
1
  6
Continuous
 62
     2
100
AcDbLine
 10
-225.5396966241022
 20
2.80685313077333
 30
0.0
 11
-220.5396966241012
 21
2.80685313077333
 31
0.0
  0
LINE
  5
3D4
330
71
100
AcDbEntity
  8
1
  6
Continuous
 62
     2
100
AcDbLine
 10
-225.5396966241022
 20
212.8068531307735
 30
0.0
 11
-225.5396966241022
 21
157.8068531307735
 31
0.0
  0
LINE
  5
3D5
330
71
100
AcDbEntity
  8
1
  6
Continuous
 62
     6
100
AcDbLine
 10
-220.5396966241022
 20
192.8068531307735
 30
0.0
 11
-220.5396966241021
 21
157.8068531307735
 31
0.0
  0
LINE
  5
3D6
330
71
100
AcDbEntity
  8
1
  6
Continuous
 62
     2
100
AcDbLine
 10
-225.5396966241022
 20
157.8068531307735
 30
0.0
 11
-220.5396966241021
 21
157.8068531307735
 31
0.0
  0
LINE
  5
3D7
330
71
100
AcDbEntity
  8
1
  6
Continuous
 62
     2
100
AcDbLine
 10
-225.5396966241022
 20
157.8068531307735
 30
0.0
 11
-225.5396966241022
 21
107.8068531307734
 31
0.0
  0
LINE
  5
3D8
330
71
100
AcDbEntity
  8
1
  6
Continuous
 62
     6
100
AcDbLine
 10
-220.5396966241021
 20
157.8068531307735
 30
0.0
 11
-220.5396966241016
 21
107.8068531307734
 31
0.0
  0
LINE
  5
3D9
330
71
100
AcDbEntity
  8
1
  6
Continuous
 62
     2
100
AcDbLine
 10
-225.5396966241022
 20
107.8068531307734
 30
0.0
 11
-220.5396966241016
 21
107.8068531307734
 31
0.0
  0
LINE
  5
3DA
330
71
100
AcDbEntity
  8
1
  6
Continuous
 62
     2
100
AcDbLine
 10
-225.5396966241022
 20
107.8068531307734
 30
0.0
 11
-225.5396966241022
 21
57.80685313077356
 31
0.0
  0
LINE
  5
3DB
330
71
100
AcDbEntity
  8
1
  6
Continuous
 62
     6
100
AcDbLine
 10
-220.5396966241016
 20
107.8068531307734
 30
0.0
 11
-220.5396966241014
 21
57.80685313077356
 31
0.0
  0
LINE
  5
3DC
330
71
100
AcDbEntity
  8
1
  6
Continuous
 62
     2
100
AcDbLine
 10
-225.5396966241022
 20
57.80685313077356
 30
0.0
 11
-220.5396966241014
 21
57.80685313077356
 31
0.0
  0
LINE
  5
3DD
330
71
100
AcDbEntity
  8
1
  6
Continuous
 62
     2
100
AcDbLine
 10
-225.5396966241022
 20
57.80685313077356
 30
0.0
 11
-225.5396966241022
 21
7.80685313077345
 31
0.0
  0
LINE
  5
3DE
330
71
100
AcDbEntity
  8
1
  6
Continuous
 62
     6
100
AcDbLine
 10
-220.5396966241014
 20
57.80685313077356
 30
0.0
 11
-220.5396966241012
 21
7.80685313077345
 31
0.0
  0
LINE
  5
3DF
330
71
100
AcDbEntity
  8
1
  6
Continuous
 62
     2
100
AcDbLine
 10
-177.0396966241031
 20
2.80685313077333
 30
0.0
 11
-177.0396966241031
 21
7.80685313077345
 31
0.0
  0
LINE
  5
3E0
330
71
100
AcDbEntity
  8
1
  6
Continuous
 62
     2
100
AcDbLine
 10
-177.0396966241031
 20
2.80685313077333
 30
0.0
 11
-127.0396966241033
 21
2.80685313077333
 31
0.0
  0
LINE
  5
3E1
330
71
100
AcDbEntity
  8
1
  6
Continuous
 62
     2
100
AcDbLine
 10
-127.0396966241033
 20
2.80685313077333
 30
0.0
 11
-127.0396966241033
 21
7.80685313077345
 31
0.0
  0
LINE
  5
3E2
330
71
100
AcDbEntity
  8
1
  6
Continuous
 62
     2
100
AcDbLine
 10
-127.0396966241033
 20
2.80685313077333
 30
0.0
 11
-77.03969662410307
 21
2.80685313077333
 31
0.0
  0
LINE
  5
3E3
330
71
100
AcDbEntity
  8
1
  6
Continuous
 62
     2
100
AcDbLine
 10
-77.03969662410307
 20
2.80685313077333
 30
0.0
 11
-77.03969662410307
 21
7.80685313077345
 31
0.0
  0
LINE
  5
3E4
330
71
100
AcDbEntity
  8
1
  6
Continuous
 62
     2
100
AcDbLine
 10
-77.03969662410307
 20
2.80685313077333
 30
0.0
 11
-27.0396966241031
 21
2.80685313077333
 31
0.0
  0
LINE
  5
3E5
330
71
100
AcDbEntity
  8
1
  6
Continuous
 62
     2
100
AcDbLine
 10
-27.0396966241031
 20
2.80685313077333
 30
0.0
 11
-27.0396966241031
 21
7.80685313077345
 31
0.0
  0
LINE
  5
3E6
330
71
100
AcDbEntity
  8
1
  6
Continuous
 62
     2
100
AcDbLine
 10
22.9603033758969
 20
2.80685313077333
 30
0.0
 11
22.9603033758969
 21
7.80685313077345
 31
0.0
  0
LINE
  5
3E7
330
71
100
AcDbEntity
  8
1
  6
Continuous
 62
     2
100
AcDbLine
 10
22.9603033758969
 20
2.80685313077333
 30
0.0
 11
-27.0396966241031
 21
2.80685313077333
 31
0.0
  0
LINE
  5
3E8
330
71
100
AcDbEntity
  8
1
  6
Continuous
 62
     2
100
AcDbLine
 10
-220.5396966241012
 20
7.80685313077345
 30
0.0
 11
-220.5396966241012
 21
2.80685313077333
 31
0.0
  0
LINE
  5
3E9
330
71
100
AcDbEntity
  8
1
  6
Continuous
 62
     2
100
AcDbLine
 10
-220.5396966241012
 20
2.80685313077333
 30
0.0
 11
-177.0396966241031
 21
2.80685313077333
 31
0.0
  0
LINE
  5
3EA
330
71
100
AcDbEntity
  8
1
  6
Continuous
 62
     2
100
AcDbLine
 10
-220.5396966241012
 20
7.80685313077345
 30
0.0
 11
-225.5396966241022
 21
7.80685313077345
 31
0.0
  0
LINE
  5
3EB
330
71
100
AcDbEntity
  8
1
  6
Continuous
 62
     2
100
AcDbLine
 10
-225.5396966241022
 20
7.80685313077345
 30
0.0
 11
-225.5396966241022
 21
2.80685313077333
 31
0.0
  0
LINE
  5
3EC
330
71
100
AcDbEntity
  8
1
  6
Continuous
 62
     6
100
AcDbLine
 10
66.46030337589691
 20
7.80685313077345
 30
0.0
 11
66.4603033758982
 21
16.30685313077345
 31
0.0
  0
LINE
  5
3ED
330
71
100
AcDbEntity
  8
1
  6
Continuous
 62
     6
100
AcDbLine
 10
-26.68450115085318
 20
7.80685313077333
 30
0.0
 11
22.9603033758969
 21
7.80685313077345
 31
0.0
  0
LINE
  5
3EE
330
71
100
AcDbEntity
  8
1
  6
Continuous
 62
     6
100
AcDbLine
 10
-179.3396966241033
 20
7.80685313077333
 30
0.0
 11
-177.0396966241031
 21
7.80685313077345
 31
0.0
  0
LINE
  5
3EF
330
71
100
AcDbEntity
  8
1
  6
Continuous
 62
     6
100
AcDbLine
 10
-77.03969662410307
 20
7.80685313077345
 30
0.0
 11
-127.0396966241033
 21
7.80685313077345
 31
0.0
  0
LINE
  5
3F0
330
71
100
AcDbEntity
  8
1
  6
Continuous
 62
     7
100
AcDbLine
 10
-63.0845011508531
 20
24.80685313077345
 30
0.0
 11
-63.0845011508531
 21
12.05685313077333
 31
0.0
  0
LINE
  5
3F1
330
71
100
AcDbEntity
  8
1
  6
Continuous
 62
     7
100
AcDbLine
 10
-26.68450115085318
 20
24.80685313077345
 30
0.0
 11
-26.68450115085318
 21
12.05685313077345
 31
0.0
  0
LINE
  5
3F2
330
71
100
AcDbEntity
  8
1
  6
Continuous
 62
     6
100
AcDbLine
 10
-179.3396966241033
 20
7.80685313077333
 30
0.0
 11
-185.5396966241013
 21
7.80685313077345
 31
0.0
  0
LINE
  5
3F3
330
71
100
AcDbEntity
  8
1
  6
Continuous
 62
     6
100
AcDbLine
 10
-26.68450115085318
 20
7.80685313077333
 30
0.0
 11
-27.0396966241031
 21
7.80685313077345
 31
0.0
  0
LINE
  5
3F4
330
71
100
AcDbEntity
  8
1
  6
Continuous
 62
     6
100
AcDbLine
 10
66.4603033758986
 20
24.80685313077345
 30
0.0
 11
66.4603033758982
 21
16.30685313077345
 31
0.0
  0
LINE
  5
3F5
330
71
100
AcDbEntity
  8
1
  6
Continuous
 62
     6
100
AcDbLine
 10
-185.5396966241013
 20
7.80685313077345
 30
0.0
 11
-220.5396966241012
 21
7.80685313077345
 31
0.0
  0
LINE
  5
3F6
330
71
100
AcDbEntity
  8
1
  6
Continuous
 62
     2
100
AcDbLine
 10
-58.8478462642905
 20
30.18185313077336
 30
0.0
 11
-53.8478462642905
 21
31.43185313077336
 31
0.0
  0
LINE
  5
3F7
330
71
100
AcDbEntity
  8
1
  6
Continuous
 62
     2
100
AcDbLine
 10
-58.8478462642905
 20
27.68185313077336
 30
0.0
 11
-58.8478462642905
 21
30.18185313077336
 31
0.0
  0
LINE
  5
3F8
330
71
100
AcDbEntity
  8
1
  6
Continuous
 62
     2
100
AcDbLine
 10
-53.8478462642905
 20
26.43185313077336
 30
0.0
 11
-58.8478462642905
 21
27.68185313077336
 31
0.0
  0
LINE
  5
3F9
330
71
100
AcDbEntity
  8
1
  6
Continuous
 62
     2
100
AcDbLine
 10
-53.8478462642905
 20
31.43185313077336
 30
0.0
 11
-53.8478462642905
 21
26.43185313077336
 31
0.0
  0
LINE
  5
3FA
330
71
100
AcDbEntity
  8
1
  6
Continuous
 62
     7
100
AcDbLine
 10
-63.0845011508531
 20
12.05685313077333
 30
0.0
 11
-44.88450115085308
 21
12.05685313077345
 31
0.0
  0
LINE
  5
3FB
330
71
100
AcDbEntity
  8
1
  6
Continuous
 62
     7
100
AcDbLine
 10
-63.0845011508531
 20
12.05685313077333
 30
0.0
 11
-63.0845011508531
 21
7.80685313077333
 31
0.0
  0
LINE
  5
3FC
330
71
100
AcDbEntity
  8
1
  6
Continuous
 62
     7
100
AcDbLine
 10
-26.68450115085318
 20
12.05685313077345
 30
0.0
 11
-26.68450115085318
 21
7.80685313077333
 31
0.0
  0
LINE
  5
3FD
330
71
100
AcDbEntity
  8
1
  6
Continuous
 62
     7
100
AcDbLine
 10
-44.88450115085308
 20
12.05685313077345
 30
0.0
 11
-44.88450115085308
 21
7.80685313077345
 31
0.0
  0
LINE
  5
3FE
330
71
100
AcDbEntity
  8
1
  6
Continuous
 62
     6
100
AcDbLine
 10
-44.88450115085308
 20
7.80685313077345
 30
0.0
 11
-63.0845011508531
 21
7.80685313077333
 31
0.0
  0
LINE
  5
3FF
330
71
100
AcDbEntity
  8
1
  6
Continuous
 62
     7
100
AcDbLine
 10
-44.88450115085308
 20
12.05685313077345
 30
0.0
 11
-26.68450115085318
 21
12.05685313077345
 31
0.0
  0
LINE
  5
400
330
71
100
AcDbEntity
  8
1
  6
Continuous
 62
     6
100
AcDbLine
 10
-63.0845011508531
 20
33.30685313077345
 30
0.0
 11
66.4603033758986
 21
33.30685313077345
 31
0.0
  0
ARC
  5
401
102
{ACAD_REACTORS
330
469
330
46A
102
}
330
71
100
AcDbEntity
  8
0
  6
Continuous
 62
     2
100
AcDbCircle
 10
-47.6928531518931
 20
16.62725789269504
 30
0.0
 40
0.7717997786796857
100
AcDbArc
 50
321.8795802028409
 51
38.12041979715415
  0
ARC
  5
402
102
{ACAD_REACTORS
330
469
330
46A
102
}
330
71
100
AcDbEntity
  8
0
  6
Continuous
 62
     2
100
AcDbCircle
 10
-47.49311311554669
 20
16.47052671457504
 30
0.0
 40
0.5179085730137354
100
AcDbArc
 50
218.1204197971931
 51
321.8795802028005
  0
ARC
  5
403
102
{ACAD_REACTORS
330
469
330
46A
102
}
330
71
100
AcDbEntity
  8
0
  6
Continuous
 62
     2
100
AcDbCircle
 10
-47.29337307920059
 20
16.62725789269504
 30
0.0
 40
0.7717997786794654
100
AcDbArc
 50
141.8795802028361
 51
218.1204197971689
  0
ARC
  5
404
102
{ACAD_REACTORS
330
469
330
46A
102
}
330
71
100
AcDbEntity
  8
0
  6
Continuous
 62
     2
100
AcDbCircle
 10
-47.49311311554669
 20
16.78398907081555
 30
0.0
 40
0.5179085730132965
100
AcDbArc
 50
38.12041979714783
 51
141.8795802028585
  0
ARC
  5
405
102
{ACAD_REACTORS
330
461
330
462
102
}
330
71
100
AcDbEntity
  8
0
  6
Continuous
 62
     2
100
AcDbCircle
 10
-50.55512725111058
 20
15.21679152728686
 30
0.0
 40
2.227384008973472
100
AcDbArc
 50
58.06909105004085
 51
71.55192388186722
  0
ARC
  5
406
102
{ACAD_REACTORS
330
461
330
462
102
}
330
71
100
AcDbEntity
  8
0
  6
Continuous
 62
     2
100
AcDbCircle
 10
-50.2933995501518
 20
16.83232932203404
 30
0.0
 40
0.5115800601948807
100
AcDbArc
 50
113.3722778881999
 51
151.4785267423048
  0
ARC
  5
407
102
{ACAD_REACTORS
330
461
330
462
102
}
330
71
100
AcDbEntity
  8
0
  6
Continuous
 62
     2
100
AcDbCircle
 10
-49.9160422920715
 20
16.62725789269504
 30
0.0
 40
0.9410597353332483
100
AcDbArc
 50
151.4785267422667
 51
208.5214732577061
  0
ARC
  5
408
102
{ACAD_REACTORS
330
461
330
462
102
}
330
71
100
AcDbEntity
  8
0
  6
Continuous
 62
     2
100
AcDbCircle
 10
-50.7130001262035
 20
19.93993883795145
 30
0.0
 40
4.852596863498144
100
AcDbArc
 50
275.158144769625
 51
285.9799912583528
  0
ARC
  5
409
102
{ACAD_REACTORS
330
461
330
462
102
}
330
71
100
AcDbEntity
  8
0
  6
Continuous
 62
     2
100
AcDbCircle
 10
-50.42414403146759
 20
16.74004825472986
 30
0.0
 40
1.639695123939387
100
AcDbArc
 50
195.0618917770896
 51
275.1581447696398
  0
ARC
  5
40A
102
{ACAD_REACTORS
330
461
330
462
102
}
330
71
100
AcDbEntity
  8
0
  6
Continuous
 62
     2
100
AcDbCircle
 10
-50.84327187493039
 20
16.62725789269504
 30
0.0
 40
1.20565616839095
100
AcDbArc
 50
164.9381082228767
 51
195.0618917770946
  0
ARC
  5
40B
102
{ACAD_REACTORS
330
461
330
462
102
}
330
71
100
AcDbEntity
  8
0
  6
Continuous
 62
     2
100
AcDbCircle
 10
-50.42414403146759
 20
16.51446753066014
 30
0.0
 40
1.639695123940504
100
AcDbArc
 50
84.8418552303621
 51
164.9381082228866
  0
ARC
  5
40C
102
{ACAD_REACTORS
330
465
330
466
102
}
330
71
100
AcDbEntity
  8
0
  6
Continuous
 62
     2
100
AcDbCircle
 10
-55.2541582856295
 20
17.66108468704934
 30
0.0
 40
0.315716923076536
100
AcDbArc
 50
115.3740086783516
 51
180.0
  0
ARC
  5
40D
102
{ACAD_REACTORS
330
465
330
466
102
}
330
71
100
AcDbEntity
  8
0
  6
Continuous
 62
     2
100
AcDbCircle
 10
-55.2541582856295
 20
19.87936788698556
 30
0.0
 40
0.315716923076792
100
AcDbArc
 50
180.0
 51
244.6259913216482
  0
ARC
  5
40E
102
{ACAD_REACTORS
330
465
330
466
102
}
330
71
100
AcDbEntity
  8
0
  6
Continuous
 62
     2
100
AcDbCircle
 10
-55.24854215031948
 20
18.78206822792325
 30
0.0
 40
2.018561131933269
100
AcDbArc
 50
269.8110329575858
 51
90.18896704241416
  0
ARC
  5
40F
102
{ACAD_REACTORS
330
465
330
466
102
}
330
71
100
AcDbEntity
  8
0
  6
Continuous
 62
     2
100
AcDbCircle
 10
-55.2541582856295
 20
17.07923328035426
 30
0.0
 40
0.315716923076792
100
AcDbArc
 50
180.0
 51
269.8110329574542
  0
ARC
  5
410
102
{ACAD_REACTORS
330
463
330
464
102
}
330
71
100
AcDbEntity
  8
0
  6
Continuous
 62
     2
100
AcDbCircle
 10
-34.19069807089889
 20
16.83232932203404
 30
0.0
 40
0.51158006019442
100
AcDbArc
 50
109.3371432194859
 51
151.4785267424221
  0
ARC
  5
411
102
{ACAD_REACTORS
330
463
330
464
102
}
330
71
100
AcDbEntity
  8
0
  6
Continuous
 62
     2
100
AcDbCircle
 10
-34.19069807089889
 20
16.42218646335655
 30
0.0
 40
0.5115800601960199
100
AcDbArc
 50
208.5214732576863
 51
246.6277221118447
  0
ARC
  5
412
102
{ACAD_REACTORS
330
463
330
464
102
}
330
71
100
AcDbEntity
  8
0
  6
Continuous
 62
     2
100
AcDbCircle
 10
-34.74057039567629
 20
16.62725789269504
 30
0.0
 40
1.205656168392995
100
AcDbArc
 50
164.9381082229029
 51
195.0618917770958
  0
ARC
  5
413
102
{ACAD_REACTORS
330
463
330
464
102
}
330
71
100
AcDbEntity
  8
0
  6
Continuous
 62
     2
100
AcDbCircle
 10
-34.32144255221468
 20
16.51446753066014
 30
0.0
 40
1.639695123940218
100
AcDbArc
 50
90.0
 51
164.9381082228951
  0
ARC
  5
414
102
{ACAD_REACTORS
330
467
330
468
102
}
330
71
100
AcDbEntity
  8
0
  6
Continuous
 62
     2
100
AcDbCircle
 10
-43.7484376449184
 20
19.98644836886936
 30
0.0
 40
1.526904761905879
100
AcDbArc
 50
90.0
 51
270.0
  0
ARC
  5
415
102
{ACAD_REACTORS
330
46B
330
46C
102
}
330
71
100
AcDbEntity
  8
0
  6
Continuous
 62
     2
100
AcDbCircle
 10
-50.49112839014418
 20
20.49738346066405
 30
0.0
 40
0.3528638246711111
100
AcDbArc
 50
270.0
 51
90.0
  0
ARC
  5
416
102
{ACAD_REACTORS
330
465
330
466
102
}
330
71
100
AcDbEntity
  8
0
  6
Continuous
 62
     2
100
AcDbCircle
 10
-57.82970697216121
 20
20.48508065214045
 30
0.0
 40
0.3157169230761987
100
AcDbArc
 50
90.0
 51
180.0
  0
ARC
  5
417
102
{ACAD_REACTORS
330
465
330
466
102
}
330
71
100
AcDbEntity
  8
0
  6
Continuous
 62
     2
100
AcDbCircle
 10
-55.83128926357659
 20
18.77022628701775
 30
0.0
 40
0.9118975235576114
100
AcDbArc
 50
115.1944106485283
 51
244.8055893514878
  0
ARC
  5
418
102
{ACAD_REACTORS
330
465
330
466
102
}
330
71
100
AcDbEntity
  8
0
  6
Continuous
 62
     2
100
AcDbCircle
 10
-56.35387371115158
 20
17.65939654095496
 30
0.0
 40
0.3157169230765859
100
AcDbArc
 50
0.0
 51
64.80558935146027
  0
ARC
  5
419
102
{ACAD_REACTORS
330
465
330
466
102
}
330
71
100
AcDbEntity
  8
0
  6
Continuous
 62
     2
100
AcDbCircle
 10
-58.42360164890769
 20
15.52459774617304
 30
0.0
 40
0.4242446153828112
100
AcDbArc
 50
180.0
 51
270.0
  0
ARC
  5
41A
102
{ACAD_REACTORS
330
467
330
468
102
}
330
71
100
AcDbEntity
  8
0
  6
Continuous
 62
     2
100
AcDbCircle
 10
-43.5321656347532
 20
20.14317954698984
 30
0.0
 40
0.5179085730135288
100
AcDbArc
 50
38.12041979714365
 51
141.8795802028486
  0
ARC
  5
41B
102
{ACAD_REACTORS
330
467
330
468
102
}
330
71
100
AcDbEntity
  8
0
  6
Continuous
 62
     2
100
AcDbCircle
 10
-43.3324255984069
 20
19.98644836886936
 30
0.0
 40
0.7717997786796724
100
AcDbArc
 50
141.8795802028404
 51
218.1204197971562
  0
ARC
  5
41C
102
{ACAD_REACTORS
330
469
330
46A
102
}
330
71
100
AcDbEntity
  8
0
  6
Continuous
 62
     2
100
AcDbCircle
 10
-47.49311311554669
 20
17.16583290299835
 30
0.0
 40
2.065479772208513
100
AcDbArc
 50
242.4518518243403
 51
297.5481481756868
  0
ARC
  5
41D
102
{ACAD_REACTORS
330
469
330
46A
102
}
330
71
100
AcDbEntity
  8
0
  6
Continuous
 62
     2
100
AcDbCircle
 10
-47.49311311554669
 20
16.08868288239225
 30
0.0
 40
2.065479772208564
100
AcDbArc
 50
62.45185182430654
 51
117.5481481756664
  0
ARC
  5
41E
102
{ACAD_REACTORS
330
469
330
46A
102
}
330
71
100
AcDbEntity
  8
0
  6
Continuous
 62
     2
100
AcDbCircle
 10
-47.77405300737999
 20
16.62725789269504
 30
0.0
 40
1.45803408365149
100
AcDbArc
 50
117.5481481756624
 51
242.4518518243376
  0
ARC
  5
41F
102
{ACAD_REACTORS
330
469
330
46A
102
}
330
71
100
AcDbEntity
  8
0
  6
Continuous
 62
     2
100
AcDbCircle
 10
-47.21217322371339
 20
16.62725789269504
 30
0.0
 40
1.458034083652001
100
AcDbArc
 50
297.5481481757008
 51
62.4518518242992
  0
ARC
  5
420
102
{ACAD_REACTORS
330
467
330
468
102
}
330
71
100
AcDbEntity
  8
0
  6
Continuous
 62
     2
100
AcDbCircle
 10
-43.5321656347532
 20
19.82971719074894
 30
0.0
 40
0.5179085730134393
100
AcDbArc
 50
218.1204197971514
 51
321.8795802028563
  0
ARC
  5
421
102
{ACAD_REACTORS
330
467
330
468
102
}
330
71
100
AcDbEntity
  8
0
  6
Continuous
 62
     2
100
AcDbCircle
 10
-43.73190567109938
 20
19.98644836886936
 30
0.0
 40
0.7717997786796373
100
AcDbArc
 50
321.8795802028437
 51
38.12041979715956
  0
ARC
  5
422
102
{ACAD_REACTORS
330
465
330
466
102
}
330
71
100
AcDbEntity
  8
0
  6
Continuous
 62
     2
100
AcDbCircle
 10
-52.95028955819089
 20
15.52459774617304
 30
0.0
 40
0.4242446153832802
100
AcDbArc
 50
270.0
 51
0.0
  0
ARC
  5
423
102
{ACAD_REACTORS
330
465
330
466
102
}
330
71
100
AcDbEntity
  8
0
  6
Continuous
 62
     2
100
AcDbCircle
 10
-52.95028955819089
 20
21.08910851537326
 30
0.0
 40
0.424244615383877
100
AcDbArc
 50
0.0
 51
90.0
  0
ARC
  5
424
102
{ACAD_REACTORS
330
465
330
466
102
}
330
71
100
AcDbEntity
  8
0
  6
Continuous
 62
     2
100
AcDbCircle
 10
-58.42360164890769
 20
21.08910851537326
 30
0.0
 40
0.4242446153837918
100
AcDbArc
 50
90.0
 51
180.0
  0
ARC
  5
425
102
{ACAD_REACTORS
330
465
330
466
102
}
330
71
100
AcDbEntity
  8
0
  6
Continuous
 62
     2
100
AcDbCircle
 10
-56.35387371115158
 20
16.12862560942335
 30
0.0
 40
0.3157169230766979
100
AcDbArc
 50
270.0
 51
0.0
  0
ARC
  5
426
102
{ACAD_REACTORS
330
465
330
466
102
}
330
71
100
AcDbEntity
  8
0
  6
Continuous
 62
     2
100
AcDbCircle
 10
-56.35387371115158
 20
19.88105603307994
 30
0.0
 40
0.3157169230761203
100
AcDbArc
 50
295.1944106485397
 51
0.0
  0
ARC
  5
427
102
{ACAD_REACTORS
330
465
330
466
102
}
330
71
100
AcDbEntity
  8
0
  6
Continuous
 62
     2
100
AcDbCircle
 10
-56.35387371115158
 20
20.48508065214045
 30
0.0
 40
0.3157169230765859
100
AcDbArc
 50
0.0
 51
90.0
  0
ARC
  5
428
102
{ACAD_REACTORS
330
465
330
466
102
}
330
71
100
AcDbEntity
  8
0
  6
Continuous
 62
     2
100
AcDbCircle
 10
-57.82970697216121
 20
16.12862560942335
 30
0.0
 40
0.3157169230756764
100
AcDbArc
 50
180.0
 51
270.0
  0
ARC
  5
429
102
{ACAD_REACTORS
330
46B
330
46C
102
}
330
71
100
AcDbEntity
  8
0
  6
Continuous
 62
     2
100
AcDbCircle
 10
-50.0496558639058
 20
20.45798748944156
 30
0.0
 40
1.055365641333701
100
AcDbArc
 50
270.0
 51
90.0
  0
ARC
  5
42A
102
{ACAD_REACTORS
330
463
330
464
102
}
330
71
100
AcDbEntity
  8
0
  6
Continuous
 62
     2
100
AcDbCircle
 10
-34.32144255221468
 20
16.74004825472986
 30
0.0
 40
1.639695123940448
100
AcDbArc
 50
195.0618917771012
 51
275.1581447696762
  0
ARC
  5
42B
102
{ACAD_REACTORS
330
463
330
464
102
}
330
71
100
AcDbEntity
  8
0
  6
Continuous
 62
     2
100
AcDbCircle
 10
-34.6102986469505
 20
19.93993883795145
 30
0.0
 40
4.852596863498823
100
AcDbArc
 50
275.1581447696364
 51
285.9799912583387
  0
ARC
  5
42C
102
{ACAD_REACTORS
330
463
330
464
102
}
330
71
100
AcDbEntity
  8
0
  6
Continuous
 62
     2
100
AcDbCircle
 10
-34.45242577185769
 20
18.03772425810314
 30
0.0
 40
2.227384008972746
100
AcDbArc
 50
288.4480761181335
 51
301.9309089499397
  0
ARC
  5
42D
102
{ACAD_REACTORS
330
463
330
464
102
}
330
71
100
AcDbEntity
  8
0
  6
Continuous
 62
     2
100
AcDbCircle
 10
-34.03425803819579
 20
16.78417848206655
 30
0.0
 40
0.9059297849852784
100
AcDbArc
 50
246.6277221118182
 51
288.4480761180817
  0
ARC
  5
42E
102
{ACAD_REACTORS
330
463
330
464
102
}
330
71
100
AcDbEntity
  8
0
  6
Continuous
 62
     2
100
AcDbCircle
 10
-33.8133408128175
 20
16.62725789269504
 30
0.0
 40
0.9410597353348941
100
AcDbArc
 50
151.4785267423622
 51
208.5214732576695
  0
ARC
  5
42F
102
{ACAD_REACTORS
330
463
330
464
102
}
330
71
100
AcDbEntity
  8
0
  6
Continuous
 62
     2
100
AcDbCircle
 10
-34.04402807279519
 20
16.41437434165115
 30
0.0
 40
0.9545230068261006
100
AcDbArc
 50
90.0
 51
109.3371432194319
  0
ARC
  5
430
102
{ACAD_REACTORS
330
465
330
466
102
}
330
71
100
AcDbEntity
  8
0
  6
Continuous
 62
     2
100
AcDbCircle
 10
-55.2541582856295
 20
20.48490317549235
 30
0.0
 40
0.3157169230760746
100
AcDbArc
 50
90.18896704254594
 51
180.0
  0
ARC
  5
431
102
{ACAD_REACTORS
330
465
330
466
102
}
330
71
100
AcDbEntity
  8
0
  6
Continuous
 62
     2
100
AcDbCircle
 10
-55.78020098371738
 20
18.77022628701775
 30
0.0
 40
0.9118481501444557
100
AcDbArc
 50
295.3740086781766
 51
64.62599132180736
  0
ARC
  5
432
102
{ACAD_REACTORS
330
461
330
462
102
}
330
71
100
AcDbEntity
  8
0
  6
Continuous
 62
     2
100
AcDbCircle
 10
-50.55512725111058
 20
18.03772425810374
 30
0.0
 40
2.227384008972737
100
AcDbArc
 50
288.4480761181328
 51
301.9309089499591
  0
ARC
  5
433
102
{ACAD_REACTORS
330
461
330
462
102
}
330
71
100
AcDbEntity
  8
0
  6
Continuous
 62
     2
100
AcDbCircle
 10
-50.13695951744978
 20
16.78417848206655
 30
0.0
 40
0.9059297849849176
100
AcDbArc
 50
246.627722111871
 51
288.4480761181586
  0
ARC
  5
434
102
{ACAD_REACTORS
330
461
330
462
102
}
330
71
100
AcDbEntity
  8
0
  6
Continuous
 62
     2
100
AcDbCircle
 10
-50.2933995501518
 20
16.42218646335655
 30
0.0
 40
0.5115800601948096
100
AcDbArc
 50
208.5214732576952
 51
246.6277221118264
  0
ARC
  5
435
102
{ACAD_REACTORS
330
461
330
462
102
}
330
71
100
AcDbEntity
  8
0
  6
Continuous
 62
     2
100
AcDbCircle
 10
-50.13695951744978
 20
16.47033730332345
 30
0.0
 40
0.9059297849853228
100
AcDbArc
 50
71.55192388185348
 51
113.372277888129
  0
ARC
  5
436
102
{ACAD_REACTORS
330
461
330
462
102
}
330
71
100
AcDbEntity
  8
0
  6
Continuous
 62
     2
100
AcDbCircle
 10
-50.7130001262035
 20
13.31457694743915
 30
0.0
 40
4.852596863498063
100
AcDbArc
 50
74.02000874164744
 51
84.84185523037496
  0
CIRCLE
  5
437
102
{ACAD_REACTORS
330
465
330
466
102
}
330
71
100
AcDbEntity
  8
0
  6
Continuous
 62
     2
100
AcDbCircle
 10
-55.80401599839018
 20
18.77022628701775
 30
0.0
 40
0.4709789327785003
  0
CIRCLE
  5
438
330
71
100
AcDbEntity
  8
1
  6
Continuous
 62
     2
100
AcDbCircle
 10
-50.3478462642905
 20
28.93185313077336
 30
0.0
 40
1.249999999999922
  0
CIRCLE
  5
439
330
71
100
AcDbEntity
  8
1
  6
Continuous
 62
     2
100
AcDbCircle
 10
-50.3478462642905
 20
28.93185313077336
 30
0.0
 40
2.5
  0
TEXT
  5
43A
330
71
100
AcDbEntity
  8
1
 62
     7
100
AcDbText
 10
-7.7109534288393
 20
26.10685313077335
 30
0.0
 40
2.5
  1
/
 41
0.9
  7
CONVERTER_11
100
AcDbText
  0
TEXT
  5
43C
330
71
100
AcDbEntity
  8
1
 62
     7
100
AcDbText
 10
-5.5545889317973
 20
26.10685313077335
 30
0.0
 40
2.5
  1
01
 41
0.81
  7
CONVERTER_12
100
AcDbText
  0
TEXT
  5
43D
330
71
100
AcDbEntity
  8
1
 62
     3
100
AcDbText
 10
32.0418950942198
 20
26.10685313077335
 30
0.0
 40
2.5
  1
08.11.2017
 41
0.81
  7
CONVERTER_12
100
AcDbText
  0
MTEXT
  5
43E
330
71
100
AcDbEntity
  8
1
 62
     2
100
AcDbMText
 10
32.0418950942198
 20
32.30685313077336
 30
0.0
 40
1.8
 41
0.0
 71
     1
 72
     1
  1
date
  7
CONVERTER_11
 73
     1
 44
1.32052821128451
  0
MTEXT
  5
43F
330
71
100
AcDbEntity
  8
1
 62
     2
100
AcDbMText
 10
2.21549884914691
 20
23.80685313077336
 30
0.0
 40
1.8
 41
0.0
 71
     1
 72
     1
  1
document-type
  7
CONVERTER_11
 73
     1
 44
1.20048019207683
  0
TEXT
  5
440
330
71
100
AcDbEntity
  8
1
 62
     3
100
AcDbText
 10
2.21549884914691
 20
17.60685313077335
 30
0.0
 40
2.5
  1
TECDOC 2D_Productdrawing
 41
0.81
  7
CONVERTER_12
100
AcDbText
  0
MTEXT
  5
442
330
71
100
AcDbEntity
  8
1
 62
     2
100
AcDbMText
 10
-25.5845011508531
 20
32.30685313077345
 30
0.0
 40
1.8
 41
0.0
 71
     1
 72
     1
  1
document-No. / RI
  7
CONVERTER_13
 73
     1
 44
1.32052821128451
  0
TEXT
  5
443
330
71
100
AcDbEntity
  8
1
 62
     7
100
AcDbText
 10
-25.5845011508531
 20
26.10685313077335
 30
0.0
 40
2.5
  1
00813651
 41
0.81
  7
CONVERTER_12
100
AcDbText
  0
MTEXT
  5
445
330
71
100
AcDbEntity
  8
1
 62
     3
100
AcDbMText
 10
62.00109923505922
 20
26.10685313077354
 30
0.0
 40
2.5
 41
0.0
 71
     8
 72
     1
  1
1:1
  7
CONVERTER_14
 73
     1
 44
1.32052821128451
  0
MTEXT
  5
446
330
71
100
AcDbEntity
  8
1
 62
     2
100
AcDbMText
 10
58.64189509421962
 20
32.30685313077345
 30
0.0
 40
1.8
 41
0.0
 71
     1
 72
     1
  1
scale
  7
CONVERTER_11
 73
     1
 44
1.20048019207683
  0
MTEXT
  5
447
330
71
100
AcDbEntity
  8
1
 62
     2
100
AcDbMText
 10
-25.5845011508531
 20
23.80685313077345
 30
0.0
 40
1.8
 41
0.0
 71
     1
 72
     1
  1
ident.-No.
  7
CONVERTER_11
 73
     1
 44
1.20048019207683
  0
TEXT
  5
448
330
71
100
AcDbEntity
  8
1
 62
     7
100
AcDbText
 10
-25.18450115085338
 20
17.60685313077335
 30
0.0
 40
2.5
  1
3210020
 41
0.81
  7
CONVERTER_12
100
AcDbText
  0
MTEXT
  5
449
330
71
100
AcDbEntity
  8
1
 62
     2
100
AcDbMText
 10
-97.52251587590061
 20
20.55685313077336
 30
0.0
 40
2.0
 41
0.0
 71
     5
 72
     1
  1
General Information\P- Simplified representation\P- Document excluded from change process\P- Linear dimensions [mm]
  7
CONVERTER_11
 73
     1
 44
1.20048019207683
  0
MTEXT
  5
44A
330
71
100
AcDbEntity
  8
1
 62
     7
100
AcDbMText
 10
68.9603033758959
 20
82.80685313077535
 30
0.0
 40
3.5
 41
0.0
 71
     5
 72
     1
  1
C
  7
CONVERTER_11
 73
     1
 44
1.20048019207683
  0
MTEXT
  5
44B
330
71
100
AcDbEntity
  8
1
 62
     7
100
AcDbMText
 10
68.9603033758959
 20
185.3068531307735
 30
0.0
 40
3.5
 41
0.0
 71
     5
 72
     1
  1
A
  7
CONVERTER_11
 73
     1
 44
1.20048019207683
  0
MTEXT
  5
44C
330
71
100
AcDbEntity
  8
1
 62
     7
100
AcDbMText
 10
68.9603033758959
 20
132.8068531307754
 30
0.0
 40
3.5
 41
0.0
 71
     5
 72
     1
  1
B
  7
CONVERTER_11
 73
     1
 44
1.20048019207683
  0
MTEXT
  5
44D
330
71
100
AcDbEntity
  8
1
 62
     7
100
AcDbMText
 10
68.9603033758959
 20
30.30685313077345
 30
0.0
 40
3.5
 41
0.0
 71
     5
 72
     1
  1
D
  7
CONVERTER_11
 73
     1
 44
1.20048019207683
  0
MTEXT
  5
44E
330
71
100
AcDbEntity
  8
1
 62
     7
100
AcDbMText
 10
-201.2896966241027
 20
5.30685313077333
 30
0.0
 40
3.5
 41
0.0
 71
     5
 72
     1
  1
1
  7
CONVERTER_11
 73
     1
 44
1.20048019207683
  0
MTEXT
  5
44F
330
71
100
AcDbEntity
  8
1
 62
     7
100
AcDbMText
 10
-152.0396966241031
 20
5.30685313077333
 30
0.0
 40
3.5
 41
0.0
 71
     5
 72
     1
  1
2
  7
CONVERTER_11
 73
     1
 44
1.20048019207683
  0
MTEXT
  5
450
330
71
100
AcDbEntity
  8
1
 62
     7
100
AcDbMText
 10
-102.0396966241031
 20
5.30685313077333
 30
0.0
 40
3.5
 41
0.0
 71
     5
 72
     1
  1
3
  7
CONVERTER_11
 73
     1
 44
1.20048019207683
  0
MTEXT
  5
451
330
71
100
AcDbEntity
  8
1
 62
     7
100
AcDbMText
 10
-52.03969662410319
 20
5.30685313077333
 30
0.0
 40
3.5
 41
0.0
 71
     5
 72
     1
  1
4
  7
CONVERTER_11
 73
     1
 44
1.20048019207683
  0
MTEXT
  5
452
330
71
100
AcDbEntity
  8
1
 62
     7
100
AcDbMText
 10
-2.0396966241031
 20
5.30685313077333
 30
0.0
 40
3.5
 41
0.0
 71
     5
 72
     1
  1
5
  7
CONVERTER_11
 73
     1
 44
1.20048019207683
  0
MTEXT
  5
453
330
71
100
AcDbEntity
  8
1
 62
     7
100
AcDbMText
 10
47.2103033758961
 20
5.30685313077333
 30
0.0
 40
3.5
 41
0.0
 71
     5
 72
     1
  1
6
  7
CONVERTER_11
 73
     1
 44
1.20048019207683
  0
MTEXT
  5
454
330
71
100
AcDbEntity
  8
1
 62
     7
100
AcDbMText
 10
-223.0396966241022
 20
185.3068531307735
 30
0.0
 40
3.5
 41
0.0
 71
     5
 72
     1
  1
A
  7
CONVERTER_11
 73
     1
 44
1.20048019207683
  0
MTEXT
  5
455
330
71
100
AcDbEntity
  8
1
 62
     7
100
AcDbMText
 10
-223.0396966241022
 20
132.8068531307735
 30
0.0
 40
3.5
 41
0.0
 71
     5
 72
     1
  1
B
  7
CONVERTER_11
 73
     1
 44
1.20048019207683
  0
MTEXT
  5
456
330
71
100
AcDbEntity
  8
1
 62
     7
100
AcDbMText
 10
-223.0396966241022
 20
82.80685313077345
 30
0.0
 40
3.5
 41
0.0
 71
     5
 72
     1
  1
C
  7
CONVERTER_11
 73
     1
 44
1.20048019207683
  0
MTEXT
  5
457
330
71
100
AcDbEntity
  8
1
 62
     7
100
AcDbMText
 10
-223.0396966241022
 20
30.30685313077345
 30
0.0
 40
3.5
 41
0.0
 71
     5
 72
     1
  1
D
  7
CONVERTER_11
 73
     1
 44
1.20048019207683
  0
MTEXT
  5
458
330
71
100
AcDbEntity
  8
1
 62
     3
100
AcDbMText
 10
-36.8845011508532
 20
28.93185313077345
 30
0.0
 40
2.5
 41
0.0
 71
     5
 72
     1
  1
DIN A4
  7
CONVERTER_11
 73
     1
 44
1.20048019207683
  0
MTEXT
  5
459
330
71
100
AcDbEntity
  8
1
 62
     2
100
AcDbMText
 10
-25.68450115085318
 20
15.30685313077345
 30
0.0
 40
1.8
 41
0.0
 71
     1
 72
     1
  1
description
  7
CONVERTER_11
 73
     1
 44
1.20048019207683
  0
MTEXT
  5
45A
330
71
100
AcDbEntity
  8
1
 62
     7
100
AcDbMText
 10
19.8879011125224
 20
11.05685313077368
 30
0.0
 40
3.0
 41
0.0
 71
     5
 72
     1
  1
PP-H 2,5/ 1 GNYE
  7
CONVERTER_12
 73
     1
 44
1.20048019207683
  0
TEXT
  5
45B
330
71
100
AcDbEntity
  8
1
 62
     2
100
AcDbText
 10
-38.64919234103959
 20
9.05685313077333
 30
0.0
 40
1.8
  1
1
 41
0.9
  7
CONVERTER_11
100
AcDbText
  0
TEXT
  5
45C
330
71
100
AcDbEntity
  8
1
 62
     2
100
AcDbText
 10
-53.4382361805111
 20
9.00760447697144
 30
0.0
 40
1.8
  1
1
 41
0.9
  7
CONVERTER_11
100
AcDbText
  0
TEXT
  5
45D
330
71
100
AcDbEntity
  8
1
 62
     2
100
AcDbText
 10
-62.0845011508531
 20
9.04783591578177
 30
0.0
 40
1.8
  1
page
 41
0.9
  7
CONVERTER_11
100
AcDbText
  0
TEXT
  5
45E
330
71
100
AcDbEntity
  8
1
 62
     2
100
AcDbText
 10
-43.88450115085328
 20
9.04783591578183
 30
0.0
 40
1.8
  1
of
 41
0.9
  7
CONVERTER_11
100
AcDbText
  0
MTEXT
  5
45F
330
71
100
AcDbEntity
  8
1
 62
     3
100
AcDbMText
 10
-37.6815189992432
 20
194.5981612860722
 30
0.0
 40
1.8
 41
0.0
 71
     7
 72
     1
  3
Transfer or duplication of this document as well as the utilisation or\Pcommunication of its content are not permitted unless express consent\Pis granted. Violations give rise to claims for damages. All rights reserved\Pin case of patent, utility mo
  1
del or design patent registrations.
  7
CONVERTER_11
 73
     1
 44
0.99639855942377
  0
MTEXT
  5
460
330
71
100
AcDbEntity
  8
1
 62
     3
100
AcDbMText
 10
-220.5346288380313
 20
194.5981612860722
 30
0.0
 40
1.8
 41
0.0
 71
     7
 72
     1
  3
Weitergabe sowie Vervielf\U+00e4ltigung dieses Dokuments, Verwertung und \PMitteilung seines Inhalts sind verboten, soweit nicht ausdr\U+00fccklich gestattet. \PZuwiderhandlungen verpflichten zu Schadenersatz. Alle Rechte f\U+00fcr den Fall\Pder Pat
  1
ent-, Gebrauchsmuster- oder Designeintragung vorbehalten.
  7
CONVERTER_11
 73
     1
 44
0.99639855942377
  0
HATCH
  5
461
330
71
100
AcDbEntity
  8
1
  6
Continuous
 62
     2
100
AcDbHatch
 10
0.0
 20
0.0
 30
0.0
210
0.0
220
0.0
230
1.0
  2
_USER
 70
     0
 71
     1
 91
        1
 92
        1
 93
       14
 72
     2
 10
-50.84327187493039
 20
16.62725789269504
 40
1.20565616839095
 50
164.9381082228767
 51
195.0618917770946
 73
     1
 72
     2
 10
-50.42414403146759
 20
16.74004825472986
 40
1.639695123939387
 50
195.0618917770896
 51
275.1581447696398
 73
     1
 72
     2
 10
-50.7130001262035
 20
19.93993883795145
 40
4.852596863498144
 50
275.158144769625
 51
285.9799912583528
 73
     1
 72
     1
 10
-49.3770722090857
 20
15.27485653215064
 11
-49.3770722090857
 21
16.14737353895384
 72
     2
 10
-50.55512725111058
 20
18.03772425810374
 40
2.227384008972737
 50
58.06909105004096
 51
71.55192388186722
 73
     0
 72
     2
 10
-50.13695951744978
 20
16.78417848206655
 40
0.9059297849849176
 50
71.55192388184147
 51
113.372277888129
 73
     0
 72
     2
 10
-50.2933995501518
 20
16.42218646335655
 40
0.5115800601948096
 50
113.3722778881736
 51
151.4785267423048
 73
     0
 72
     2
 10
-49.9160422920715
 20
16.62725789269504
 40
0.9410597353332483
 50
151.4785267422938
 51
208.5214732577333
 73
     0
 72
     2
 10
-50.2933995501518
 20
16.83232932203404
 40
0.5115800601948807
 50
208.5214732576952
 51
246.6277221118002
 73
     0
 72
     2
 10
-50.13695951744978
 20
16.47033730332345
 40
0.9059297849853228
 50
246.6277221118709
 51
288.4480761181465
 73
     0
 72
     2
 10
-50.55512725111058
 20
15.21679152728686
 40
2.227384008973472
 50
288.4480761181328
 51
301.9309089499591
 73
     0
 72
     1
 10
-49.3770722090857
 20
17.10714224643675
 11
-49.3770722090857
 21
17.97965925324004
 72
     2
 10
-50.7130001262035
 20
13.31457694743915
 40
4.852596863498063
 50
74.02000874164744
 51
84.84185523037496
 73
     1
 72
     2
 10
-50.42414403146759
 20
16.51446753066014
 40
1.639695123940504
 50
84.8418552303621
 51
164.9381082228866
 73
     1
 97
       14
330
436
330
34F
330
405
330
435
330
406
330
407
330
434
330
433
330
432
330
350
330
408
330
409
330
40A
330
40B
 75
     1
 76
     0
 52
45.0
 41
0.1
 77
     0
 78
     1
 53
45.0
 43
0.0
 44
0.0
 45
-0.0707106781186548
 46
0.0707106781186548
 79
     0
 98
        1
 10
0.0
 20
0.0
  0
HATCH
  5
462
330
71
100
AcDbEntity
  8
1
  6
Continuous
 62
     2
100
AcDbHatch
 10
0.0
 20
0.0
 30
0.0
210
0.0
220
0.0
230
1.0
  2
_USER
 70
     0
 71
     1
 91
        1
 92
        1
 93
       14
 72
     2
 10
-50.84327187493039
 20
16.62725789269504
 40
1.20565616839095
 50
164.9381082228767
 51
195.0618917770946
 73
     1
 72
     2
 10
-50.42414403146759
 20
16.74004825472986
 40
1.639695123939387
 50
195.0618917770896
 51
275.1581447696398
 73
     1
 72
     2
 10
-50.7130001262035
 20
19.93993883795145
 40
4.852596863498144
 50
275.158144769625
 51
285.9799912583528
 73
     1
 72
     1
 10
-49.3770722090857
 20
15.27485653215064
 11
-49.3770722090857
 21
16.14737353895384
 72
     2
 10
-50.55512725111058
 20
18.03772425810374
 40
2.227384008972737
 50
58.06909105004096
 51
71.55192388186722
 73
     0
 72
     2
 10
-50.13695951744978
 20
16.78417848206655
 40
0.9059297849849176
 50
71.55192388184147
 51
113.372277888129
 73
     0
 72
     2
 10
-50.2933995501518
 20
16.42218646335655
 40
0.5115800601948096
 50
113.3722778881736
 51
151.4785267423048
 73
     0
 72
     2
 10
-49.9160422920715
 20
16.62725789269504
 40
0.9410597353332483
 50
151.4785267422938
 51
208.5214732577333
 73
     0
 72
     2
 10
-50.2933995501518
 20
16.83232932203404
 40
0.5115800601948807
 50
208.5214732576952
 51
246.6277221118002
 73
     0
 72
     2
 10
-50.13695951744978
 20
16.47033730332345
 40
0.9059297849853228
 50
246.6277221118709
 51
288.4480761181465
 73
     0
 72
     2
 10
-50.55512725111058
 20
15.21679152728686
 40
2.227384008973472
 50
288.4480761181328
 51
301.9309089499591
 73
     0
 72
     1
 10
-49.3770722090857
 20
17.10714224643675
 11
-49.3770722090857
 21
17.97965925324004
 72
     2
 10
-50.7130001262035
 20
13.31457694743915
 40
4.852596863498063
 50
74.02000874164744
 51
84.84185523037496
 73
     1
 72
     2
 10
-50.42414403146759
 20
16.51446753066014
 40
1.639695123940504
 50
84.8418552303621
 51
164.9381082228866
 73
     1
 97
       14
330
436
330
34F
330
405
330
435
330
406
330
407
330
434
330
433
330
432
330
350
330
408
330
409
330
40A
330
40B
 75
     1
 76
     0
 52
45.0
 41
0.1
 77
     0
 78
     1
 53
45.0
 43
0.0
 44
0.0
 45
-0.0707106781186548
 46
0.0707106781186548
 79
     0
 98
        1
 10
0.0
 20
0.0
  0
HATCH
  5
463
330
71
100
AcDbEntity
  8
1
  6
Continuous
 62
     2
100
AcDbHatch
 10
0.0
 20
0.0
 30
0.0
210
0.0
220
0.0
230
1.0
  2
_USER
 70
     0
 71
     1
 91
        1
 92
        1
 93
       18
 72
     2
 10
-34.32144255221468
 20
16.51446753066014
 40
1.639695123940218
 50
90.0
 51
164.9381082228951
 73
     1
 72
     2
 10
-34.74057039567629
 20
16.62725789269504
 40
1.205656168392995
 50
164.9381082229029
 51
195.0618917770958
 73
     1
 72
     2
 10
-34.32144255221468
 20
16.74004825472986
 40
1.639695123940448
 50
195.0618917771012
 51
275.1581447696762
 73
     1
 72
     2
 10
-34.6102986469505
 20
19.93993883795145
 40
4.852596863498823
 50
275.1581447696364
 51
285.9799912583387
 73
     1
 72
     1
 10
-33.27437072983378
 20
15.27485653215004
 11
-33.27437072983378
 21
16.14737353895336
 72
     2
 10
-34.45242577185769
 20
18.03772425810314
 40
2.227384008972746
 50
58.06909105006029
 51
71.55192388186651
 73
     0
 72
     2
 10
-34.03425803819579
 20
16.78417848206655
 40
0.9059297849852784
 50
71.55192388191827
 51
113.3722778881818
 73
     0
 72
     2
 10
-34.19069807089889
 20
16.42218646335655
 40
0.5115800601960199
 50
113.3722778881553
 51
151.4785267423137
 73
     0
 72
     2
 10
-33.8133408128175
 20
16.62725789269504
 40
0.9410597353348941
 50
151.4785267423305
 51
208.5214732576378
 73
     0
 72
     2
 10
-34.19069807089889
 20
16.83232932203404
 40
0.51158006019442
 50
208.5214732575779
 51
250.6628567805141
 73
     0
 72
     2
 10
-34.04402807279519
 20
16.41437434165115
 40
0.9545230068261006
 50
250.6628567805681
 51
270.0
 73
     0
 72
     1
 10
-34.04402807279519
 20
17.36889734847725
 11
-32.94038877322709
 21
17.36889734847725
 72
     1
 10
-32.94038877322709
 20
17.36889734847725
 11
-32.94038877322709
 21
15.10035313078976
 72
     1
 10
-32.94038877322709
 20
15.10035313078976
 11
-31.74759607105938
 21
15.10035313078976
 72
     1
 10
-31.74759607105938
 20
15.10035313078976
 11
-31.74759607105938
 21
17.36889734847725
 72
     1
 10
-31.74759607105938
 20
17.36889734847725
 11
-30.93649703358599
 21
17.36889734847725
 72
     1
 10
-30.93649703358599
 20
17.36889734847725
 11
-30.93649703358599
 21
18.15416265460084
 72
     1
 10
-30.93649703358599
 20
18.15416265460084
 11
-34.32144255221468
 21
18.15416265460036
 97
       18
330
3B5
330
3B4
330
3B3
330
3B2
330
3B7
330
351
330
42F
330
410
330
42E
330
411
330
42D
330
42C
330
352
330
42B
330
42A
330
412
330
413
330
3B6
 75
     1
 76
     0
 52
45.0
 41
0.1
 77
     0
 78
     1
 53
45.0
 43
0.0
 44
0.0
 45
-0.0707106781186548
 46
0.0707106781186548
 79
     0
 98
        1
 10
0.0
 20
0.0
  0
HATCH
  5
464
330
71
100
AcDbEntity
  8
1
  6
Continuous
 62
     2
100
AcDbHatch
 10
0.0
 20
0.0
 30
0.0
210
0.0
220
0.0
230
1.0
  2
_USER
 70
     0
 71
     1
 91
        1
 92
        1
 93
       18
 72
     2
 10
-34.32144255221468
 20
16.51446753066014
 40
1.639695123940218
 50
90.0
 51
164.9381082228951
 73
     1
 72
     2
 10
-34.74057039567629
 20
16.62725789269504
 40
1.205656168392995
 50
164.9381082229029
 51
195.0618917770958
 73
     1
 72
     2
 10
-34.32144255221468
 20
16.74004825472986
 40
1.639695123940448
 50
195.0618917771012
 51
275.1581447696762
 73
     1
 72
     2
 10
-34.6102986469505
 20
19.93993883795145
 40
4.852596863498823
 50
275.1581447696364
 51
285.9799912583387
 73
     1
 72
     1
 10
-33.27437072983378
 20
15.27485653215004
 11
-33.27437072983378
 21
16.14737353895336
 72
     2
 10
-34.45242577185769
 20
18.03772425810314
 40
2.227384008972746
 50
58.06909105006029
 51
71.55192388186651
 73
     0
 72
     2
 10
-34.03425803819579
 20
16.78417848206655
 40
0.9059297849852784
 50
71.55192388191827
 51
113.3722778881818
 73
     0
 72
     2
 10
-34.19069807089889
 20
16.42218646335655
 40
0.5115800601960199
 50
113.3722778881553
 51
151.4785267423137
 73
     0
 72
     2
 10
-33.8133408128175
 20
16.62725789269504
 40
0.9410597353348941
 50
151.4785267423305
 51
208.5214732576378
 73
     0
 72
     2
 10
-34.19069807089889
 20
16.83232932203404
 40
0.51158006019442
 50
208.5214732575779
 51
250.6628567805141
 73
     0
 72
     2
 10
-34.04402807279519
 20
16.41437434165115
 40
0.9545230068261006
 50
250.6628567805681
 51
270.0
 73
     0
 72
     1
 10
-34.04402807279519
 20
17.36889734847725
 11
-32.94038877322709
 21
17.36889734847725
 72
     1
 10
-32.94038877322709
 20
17.36889734847725
 11
-32.94038877322709
 21
15.10035313078976
 72
     1
 10
-32.94038877322709
 20
15.10035313078976
 11
-31.74759607105938
 21
15.10035313078976
 72
     1
 10
-31.74759607105938
 20
15.10035313078976
 11
-31.74759607105938
 21
17.36889734847725
 72
     1
 10
-31.74759607105938
 20
17.36889734847725
 11
-30.93649703358599
 21
17.36889734847725
 72
     1
 10
-30.93649703358599
 20
17.36889734847725
 11
-30.93649703358599
 21
18.15416265460084
 72
     1
 10
-30.93649703358599
 20
18.15416265460084
 11
-34.32144255221468
 21
18.15416265460036
 97
       18
330
3B5
330
3B4
330
3B3
330
3B2
330
3B7
330
351
330
42F
330
410
330
42E
330
411
330
42D
330
42C
330
352
330
42B
330
42A
330
412
330
413
330
3B6
 75
     1
 76
     0
 52
45.0
 41
0.1
 77
     0
 78
     1
 53
45.0
 43
0.0
 44
0.0
 45
-0.0707106781186548
 46
0.0707106781186548
 79
     0
 98
        1
 10
0.0
 20
0.0
  0
HATCH
  5
465
330
71
100
AcDbEntity
  8
1
  6
Continuous
 62
     2
100
AcDbHatch
 10
0.0
 20
0.0
 30
0.0
210
0.0
220
0.0
230
1.0
  2
_USER
 70
     0
 71
     1
 91
        4
 92
        1
 93
        8
 72
     2
 10
-58.42360164890769
 20
21.08910851537326
 40
0.4242446153837918
 50
90.0
 51
180.0
 73
     1
 72
     1
 10
-58.8478462642905
 20
21.08910851537326
 11
-58.8478462642905
 21
15.52459774617304
 72
     2
 10
-58.42360164890769
 20
15.52459774617304
 40
0.4242446153828112
 50
180.0
 51
270.0
 73
     1
 72
     1
 10
-58.42360164890769
 20
15.10035313078976
 11
-52.95028955819089
 21
15.10035313078976
 72
     2
 10
-52.95028955819089
 20
15.52459774617304
 40
0.4242446153832802
 50
270.0
 51
360.0
 73
     1
 72
     1
 10
-52.52604494280701
 20
15.52459774617304
 11
-52.52604494280701
 21
21.08910851537326
 72
     2
 10
-52.95028955819089
 20
21.08910851537326
 40
0.424244615383877
 50
0.0
 51
90.0
 73
     1
 72
     1
 10
-52.95028955819089
 20
21.51335313075705
 11
-58.42360164890769
 21
21.51335313075705
 97
        8
330
423
330
380
330
422
330
381
330
419
330
37E
330
424
330
37F
 92
       16
 93
        1
 72
     2
 10
-55.80401599839018
 20
18.77022628701775
 40
0.4709789327785003
 50
0.0
 51
360.0
 73
     1
 97
        1
330
437
 92
       16
 93
        8
 72
     2
 10
-55.78020098371738
 20
18.77022628701775
 40
0.9118481501444557
 50
295.3740086781766
 51
424.6259913218074
 73
     1
 72
     2
 10
-55.2541582856295
 20
19.87936788698556
 40
0.315716923076792
 50
115.3740086783518
 51
180.0
 73
     0
 72
     1
 10
-55.56987520870629
 20
19.87936788698556
 11
-55.56987520870629
 21
20.48490317549235
 72
     2
 10
-55.2541582856295
 20
20.48490317549235
 40
0.3157169230760746
 50
180.0
 51
269.8110329574541
 73
     0
 72
     2
 10
-55.24854215031948
 20
18.78206822792325
 40
2.018561131933269
 50
269.8110329575858
 51
450.1889670424142
 73
     0
 72
     2
 10
-55.2541582856295
 20
17.07923328035426
 40
0.315716923076792
 50
90.18896704254585
 51
180.0
 73
     0
 72
     1
 10
-55.56987520870629
 20
17.07923328035426
 11
-55.56987520870629
 21
17.66108468704934
 72
     2
 10
-55.2541582856295
 20
17.66108468704934
 40
0.315716923076536
 50
180.0
 51
244.6259913216484
 73
     0
 97
        8
330
431
330
40D
330
3B9
330
430
330
40E
330
40F
330
3B8
330
40C
 92
       16
 93
       12
 72
     1
 10
-57.82970697216121
 20
15.81290868634665
 11
-56.35387371115158
 21
15.81290868634665
 72
     2
 10
-56.35387371115158
 20
16.12862560942335
 40
0.3157169230766979
 50
270.0
 51
360.0
 73
     1
 72
     1
 10
-56.03815678807499
 20
16.12862560942335
 11
-56.03815678807499
 21
17.65939654095496
 72
     2
 10
-56.35387371115158
 20
17.65939654095496
 40
0.3157169230765859
 50
0.0
 51
64.80558935146027
 73
     1
 72
     2
 10
-55.83128926357659
 20
18.77022628701775
 40
0.9118975235576114
 50
115.1944106485122
 51
244.8055893514717
 73
     0
 72
     2
 10
-56.35387371115158
 20
19.88105603307994
 40
0.3157169230761203
 50
295.1944106485397
 51
360.0
 73
     1
 72
     1
 10
-56.03815678807499
 20
19.88105603307994
 11
-56.03815678807499
 21
20.48508065214045
 72
     2
 10
-56.35387371115158
 20
20.48508065214045
 40
0.3157169230765859
 50
0.0
 51
90.0
 73
     1
 72
     1
 10
-56.35387371115158
 20
20.80079757521665
 11
-57.82970697216121
 21
20.80079757521665
 72
     2
 10
-57.82970697216121
 20
20.48508065214045
 40
0.3157169230761987
 50
90.0
 51
180.0
 73
     1
 72
     1
 10
-58.14542389523689
 20
20.48508065214045
 11
-58.14542389523689
 21
16.12862560942335
 72
     2
 10
-57.82970697216121
 20
16.12862560942335
 40
0.3157169230756764
 50
180.0
 51
270.0
 73
     1
 97
       12
330
385
330
416
330
384
330
427
330
383
330
426
330
417
330
418
330
382
330
425
330
37D
330
428
 75
     1
 76
     0
 52
45.0
 41
0.1
 77
     0
 78
     1
 53
45.0
 43
0.0
 44
0.0
 45
-0.0707106781186548
 46
0.0707106781186548
 79
     0
 98
        1
 10
0.0
 20
0.0
  0
HATCH
  5
466
330
71
100
AcDbEntity
  8
1
  6
Continuous
 62
     2
100
AcDbHatch
 10
0.0
 20
0.0
 30
0.0
210
0.0
220
0.0
230
1.0
  2
_USER
 70
     0
 71
     1
 91
        4
 92
        1
 93
        8
 72
     2
 10
-58.42360164890769
 20
21.08910851537326
 40
0.4242446153837918
 50
90.0
 51
180.0
 73
     1
 72
     1
 10
-58.8478462642905
 20
21.08910851537326
 11
-58.8478462642905
 21
15.52459774617304
 72
     2
 10
-58.42360164890769
 20
15.52459774617304
 40
0.4242446153828112
 50
180.0
 51
270.0
 73
     1
 72
     1
 10
-58.42360164890769
 20
15.10035313078976
 11
-52.95028955819089
 21
15.10035313078976
 72
     2
 10
-52.95028955819089
 20
15.52459774617304
 40
0.4242446153832802
 50
270.0
 51
360.0
 73
     1
 72
     1
 10
-52.52604494280701
 20
15.52459774617304
 11
-52.52604494280701
 21
21.08910851537326
 72
     2
 10
-52.95028955819089
 20
21.08910851537326
 40
0.424244615383877
 50
0.0
 51
90.0
 73
     1
 72
     1
 10
-52.95028955819089
 20
21.51335313075705
 11
-58.42360164890769
 21
21.51335313075705
 97
        8
330
423
330
380
330
422
330
381
330
419
330
37E
330
424
330
37F
 92
       16
 93
        1
 72
     2
 10
-55.80401599839018
 20
18.77022628701775
 40
0.4709789327785003
 50
0.0
 51
360.0
 73
     1
 97
        1
330
437
 92
       16
 93
        8
 72
     2
 10
-55.78020098371738
 20
18.77022628701775
 40
0.9118481501444557
 50
295.3740086781766
 51
424.6259913218074
 73
     1
 72
     2
 10
-55.2541582856295
 20
19.87936788698556
 40
0.315716923076792
 50
115.3740086783518
 51
180.0
 73
     0
 72
     1
 10
-55.56987520870629
 20
19.87936788698556
 11
-55.56987520870629
 21
20.48490317549235
 72
     2
 10
-55.2541582856295
 20
20.48490317549235
 40
0.3157169230760746
 50
180.0
 51
269.8110329574541
 73
     0
 72
     2
 10
-55.24854215031948
 20
18.78206822792325
 40
2.018561131933269
 50
269.8110329575858
 51
450.1889670424142
 73
     0
 72
     2
 10
-55.2541582856295
 20
17.07923328035426
 40
0.315716923076792
 50
90.18896704254585
 51
180.0
 73
     0
 72
     1
 10
-55.56987520870629
 20
17.07923328035426
 11
-55.56987520870629
 21
17.66108468704934
 72
     2
 10
-55.2541582856295
 20
17.66108468704934
 40
0.315716923076536
 50
180.0
 51
244.6259913216484
 73
     0
 97
        8
330
431
330
40D
330
3B9
330
430
330
40E
330
40F
330
3B8
330
40C
 92
       16
 93
       12
 72
     1
 10
-57.82970697216121
 20
15.81290868634665
 11
-56.35387371115158
 21
15.81290868634665
 72
     2
 10
-56.35387371115158
 20
16.12862560942335
 40
0.3157169230766979
 50
270.0
 51
360.0
 73
     1
 72
     1
 10
-56.03815678807499
 20
16.12862560942335
 11
-56.03815678807499
 21
17.65939654095496
 72
     2
 10
-56.35387371115158
 20
17.65939654095496
 40
0.3157169230765859
 50
0.0
 51
64.80558935146027
 73
     1
 72
     2
 10
-55.83128926357659
 20
18.77022628701775
 40
0.9118975235576114
 50
115.1944106485122
 51
244.8055893514717
 73
     0
 72
     2
 10
-56.35387371115158
 20
19.88105603307994
 40
0.3157169230761203
 50
295.1944106485397
 51
360.0
 73
     1
 72
     1
 10
-56.03815678807499
 20
19.88105603307994
 11
-56.03815678807499
 21
20.48508065214045
 72
     2
 10
-56.35387371115158
 20
20.48508065214045
 40
0.3157169230765859
 50
0.0
 51
90.0
 73
     1
 72
     1
 10
-56.35387371115158
 20
20.80079757521665
 11
-57.82970697216121
 21
20.80079757521665
 72
     2
 10
-57.82970697216121
 20
20.48508065214045
 40
0.3157169230761987
 50
90.0
 51
180.0
 73
     1
 72
     1
 10
-58.14542389523689
 20
20.48508065214045
 11
-58.14542389523689
 21
16.12862560942335
 72
     2
 10
-57.82970697216121
 20
16.12862560942335
 40
0.3157169230756764
 50
180.0
 51
270.0
 73
     1
 97
       12
330
385
330
416
330
384
330
427
330
383
330
426
330
417
330
418
330
382
330
425
330
37D
330
428
 75
     1
 76
     0
 52
45.0
 41
0.1
 77
     0
 78
     1
 53
45.0
 43
0.0
 44
0.0
 45
-0.0707106781186548
 46
0.0707106781186548
 79
     0
 98
        1
 10
0.0
 20
0.0
  0
HATCH
  5
467
330
71
100
AcDbEntity
  8
1
  6
Continuous
 62
     2
100
AcDbHatch
 10
0.0
 20
0.0
 30
0.0
210
0.0
220
0.0
230
1.0
  2
_USER
 70
     0
 71
     1
 91
        2
 92
        1
 93
       12
 72
     2
 10
-43.7484376449184
 20
19.98644836886936
 40
1.526904761905879
 50
90.0
 51
270.0
 73
     1
 72
     1
 10
-43.7484376449184
 20
18.45954360696405
 11
-40.5981179211374
 21
18.45954360696405
 72
     1
 10
-40.5981179211374
 20
18.45954360696405
 11
-40.5981179211374
 21
19.15755721240655
 72
     1
 10
-40.5981179211374
 20
19.15755721240655
 11
-41.93404574756508
 21
19.15755721240655
 72
     1
 10
-41.93404574756508
 20
19.15755721240655
 11
-41.93404574756508
 21
19.63744156614825
 72
     1
 10
-41.93404574756508
 20
19.63744156614825
 11
-40.5981179211374
 21
19.63744156614825
 72
     1
 10
-40.5981179211374
 20
19.63744156614825
 11
-40.5981179211374
 21
20.33545517159055
 72
     1
 10
-40.5981179211374
 20
20.33545517159055
 11
-41.93404574756508
 21
20.33545517159055
 72
     1
 10
-41.93404574756508
 20
20.33545517159055
 11
-41.93404574756508
 21
20.81533952533226
 72
     1
 10
-41.93404574756508
 20
20.81533952533226
 11
-40.5981179211374
 21
20.81533952533226
 72
     1
 10
-40.5981179211374
 20
20.81533952533226
 11
-40.5981179211374
 21
21.51335313077524
 72
     1
 10
-40.5981179211374
 20
21.51335313077524
 11
-43.7484376449184
 21
21.51335313077524
 97
       12
330
374
330
36E
330
395
330
394
330
393
330
392
330
36F
330
370
330
371
330
372
330
414
330
373
 92
       16
 93
        4
 72
     2
 10
-43.3324255984069
 20
19.98644836886936
 40
0.7717997786796724
 50
141.8795802028404
 51
218.1204197971562
 73
     1
 72
     2
 10
-43.5321656347532
 20
19.82971719074894
 40
0.5179085730134393
 50
218.1204197971514
 51
321.8795802028563
 73
     1
 72
     2
 10
-43.73190567109938
 20
19.98644836886936
 40
0.7717997786796373
 50
321.8795802028437
 51
398.1204197971596
 73
     1
 72
     2
 10
-43.5321656347532
 20
20.14317954698984
 40
0.5179085730135288
 50
38.12041979714365
 51
141.8795802028486
 73
     1
 97
        4
330
421
330
420
330
41B
330
41A
 75
     1
 76
     0
 52
45.0
 41
0.1
 77
     0
 78
     1
 53
45.0
 43
0.0
 44
0.0
 45
-0.0707106781186548
 46
0.0707106781186548
 79
     0
 98
        1
 10
0.0
 20
0.0
  0
HATCH
  5
468
330
71
100
AcDbEntity
  8
1
  6
Continuous
 62
     2
100
AcDbHatch
 10
0.0
 20
0.0
 30
0.0
210
0.0
220
0.0
230
1.0
  2
_USER
 70
     0
 71
     1
 91
        2
 92
        1
 93
       12
 72
     2
 10
-43.7484376449184
 20
19.98644836886936
 40
1.526904761905879
 50
90.0
 51
270.0
 73
     1
 72
     1
 10
-43.7484376449184
 20
18.45954360696405
 11
-40.5981179211374
 21
18.45954360696405
 72
     1
 10
-40.5981179211374
 20
18.45954360696405
 11
-40.5981179211374
 21
19.15755721240655
 72
     1
 10
-40.5981179211374
 20
19.15755721240655
 11
-41.93404574756508
 21
19.15755721240655
 72
     1
 10
-41.93404574756508
 20
19.15755721240655
 11
-41.93404574756508
 21
19.63744156614825
 72
     1
 10
-41.93404574756508
 20
19.63744156614825
 11
-40.5981179211374
 21
19.63744156614825
 72
     1
 10
-40.5981179211374
 20
19.63744156614825
 11
-40.5981179211374
 21
20.33545517159055
 72
     1
 10
-40.5981179211374
 20
20.33545517159055
 11
-41.93404574756508
 21
20.33545517159055
 72
     1
 10
-41.93404574756508
 20
20.33545517159055
 11
-41.93404574756508
 21
20.81533952533226
 72
     1
 10
-41.93404574756508
 20
20.81533952533226
 11
-40.5981179211374
 21
20.81533952533226
 72
     1
 10
-40.5981179211374
 20
20.81533952533226
 11
-40.5981179211374
 21
21.51335313077524
 72
     1
 10
-40.5981179211374
 20
21.51335313077524
 11
-43.7484376449184
 21
21.51335313077524
 97
       12
330
374
330
36E
330
395
330
394
330
393
330
392
330
36F
330
370
330
371
330
372
330
414
330
373
 92
       16
 93
        4
 72
     2
 10
-43.3324255984069
 20
19.98644836886936
 40
0.7717997786796724
 50
141.8795802028404
 51
218.1204197971562
 73
     1
 72
     2
 10
-43.5321656347532
 20
19.82971719074894
 40
0.5179085730134393
 50
218.1204197971514
 51
321.8795802028563
 73
     1
 72
     2
 10
-43.73190567109938
 20
19.98644836886936
 40
0.7717997786796373
 50
321.8795802028437
 51
398.1204197971596
 73
     1
 72
     2
 10
-43.5321656347532
 20
20.14317954698984
 40
0.5179085730135288
 50
38.12041979714365
 51
141.8795802028486
 73
     1
 97
        4
330
421
330
420
330
41B
330
41A
 75
     1
 76
     0
 52
45.0
 41
0.1
 77
     0
 78
     1
 53
45.0
 43
0.0
 44
0.0
 45
-0.0707106781186548
 46
0.0707106781186548
 79
     0
 98
        1
 10
0.0
 20
0.0
  0
HATCH
  5
469
330
71
100
AcDbEntity
  8
1
  6
Continuous
 62
     2
100
AcDbHatch
 10
0.0
 20
0.0
 30
0.0
210
0.0
220
0.0
230
1.0
  2
_USER
 70
     0
 71
     1
 91
        2
 92
        1
 93
        4
 72
     2
 10
-47.77405300737999
 20
16.62725789269504
 40
1.45803408365149
 50
117.5481481756624
 51
242.4518518243376
 73
     1
 72
     2
 10
-47.49311311554669
 20
17.16583290299835
 40
2.065479772208513
 50
242.4518518243403
 51
297.5481481756868
 73
     1
 72
     2
 10
-47.21217322371339
 20
16.62725789269504
 40
1.458034083652001
 50
297.5481481757008
 51
422.4518518242992
 73
     1
 72
     2
 10
-47.49311311554669
 20
16.08868288239225
 40
2.065479772208564
 50
62.45185182430654
 51
117.5481481756664
 73
     1
 97
        4
330
41F
330
41C
330
41E
330
41D
 92
       16
 93
        4
 72
     2
 10
-47.49311311554669
 20
16.78398907081555
 40
0.5179085730132965
 50
38.12041979714783
 51
141.8795802028585
 73
     1
 72
     2
 10
-47.29337307920059
 20
16.62725789269504
 40
0.7717997786794654
 50
141.8795802028361
 51
218.1204197971689
 73
     1
 72
     2
 10
-47.49311311554669
 20
16.47052671457504
 40
0.5179085730137354
 50
218.1204197971931
 51
321.8795802028005
 73
     1
 72
     2
 10
-47.6928531518931
 20
16.62725789269504
 40
0.7717997786796857
 50
321.8795802028409
 51
398.1204197971542
 73
     1
 97
        4
330
402
330
403
330
404
330
401
 75
     1
 76
     0
 52
45.0
 41
0.1
 77
     0
 78
     1
 53
45.0
 43
0.0
 44
0.0
 45
-0.0707106781186548
 46
0.0707106781186548
 79
     0
 98
        1
 10
0.0
 20
0.0
  0
HATCH
  5
46A
330
71
100
AcDbEntity
  8
1
  6
Continuous
 62
     2
100
AcDbHatch
 10
0.0
 20
0.0
 30
0.0
210
0.0
220
0.0
230
1.0
  2
_USER
 70
     0
 71
     1
 91
        2
 92
        1
 93
        4
 72
     2
 10
-47.77405300737999
 20
16.62725789269504
 40
1.45803408365149
 50
117.5481481756624
 51
242.4518518243376
 73
     1
 72
     2
 10
-47.49311311554669
 20
17.16583290299835
 40
2.065479772208513
 50
242.4518518243403
 51
297.5481481756868
 73
     1
 72
     2
 10
-47.21217322371339
 20
16.62725789269504
 40
1.458034083652001
 50
297.5481481757008
 51
422.4518518242992
 73
     1
 72
     2
 10
-47.49311311554669
 20
16.08868288239225
 40
2.065479772208564
 50
62.45185182430654
 51
117.5481481756664
 73
     1
 97
        4
330
41F
330
41C
330
41E
330
41D
 92
       16
 93
        4
 72
     2
 10
-47.49311311554669
 20
16.78398907081555
 40
0.5179085730132965
 50
38.12041979714783
 51
141.8795802028585
 73
     1
 72
     2
 10
-47.29337307920059
 20
16.62725789269504
 40
0.7717997786794654
 50
141.8795802028361
 51
218.1204197971689
 73
     1
 72
     2
 10
-47.49311311554669
 20
16.47052671457504
 40
0.5179085730137354
 50
218.1204197971931
 51
321.8795802028005
 73
     1
 72
     2
 10
-47.6928531518931
 20
16.62725789269504
 40
0.7717997786796857
 50
321.8795802028409
 51
398.1204197971542
 73
     1
 97
        4
330
402
330
403
330
404
330
401
 75
     1
 76
     0
 52
45.0
 41
0.1
 77
     0
 78
     1
 53
45.0
 43
0.0
 44
0.0
 45
-0.0707106781186548
 46
0.0707106781186548
 79
     0
 98
        1
 10
0.0
 20
0.0
  0
HATCH
  5
46B
330
71
100
AcDbEntity
  8
1
  6
Continuous
 62
     2
100
AcDbHatch
 10
0.0
 20
0.0
 30
0.0
210
0.0
220
0.0
230
1.0
  2
_USER
 70
     0
 71
     1
 91
        2
 92
        1
 93
        6
 72
     1
 10
-52.0489278619402
 20
21.51335313077524
 11
-52.0489278619402
 21
18.45954360696405
 72
     1
 10
-52.0489278619402
 20
18.45954360696405
 11
-50.80842345168608
 21
18.45954360696405
 72
     1
 10
-50.80842345168608
 20
18.45954360696405
 11
-50.80842345168608
 21
19.40262184810786
 72
     1
 10
-50.80842345168608
 20
19.40262184810786
 11
-50.0496558639058
 21
19.40262184810786
 72
     2
 10
-50.0496558639058
 20
20.45798748944156
 40
1.055365641333701
 50
270.0
 51
450.0
 73
     1
 72
     1
 10
-50.0496558639058
 20
21.51335313077524
 11
-52.0489278619402
 21
21.51335313077524
 97
        6
330
429
330
386
330
37C
330
37B
330
388
330
387
 92
       16
 93
        4
 72
     1
 10
-50.49112839014418
 20
20.85024728533514
 11
-50.80842345168608
 21
20.85024728533514
 72
     1
 10
-50.80842345168608
 20
20.85024728533514
 11
-50.80842345168608
 21
20.14451963599294
 72
     1
 10
-50.80842345168608
 20
20.14451963599294
 11
-50.49112839014418
 21
20.14451963599294
 72
     2
 10
-50.49112839014418
 20
20.49738346066405
 40
0.3528638246711111
 50
270.0
 51
450.0
 73
     1
 97
        4
330
389
330
37A
330
38A
330
415
 75
     1
 76
     0
 52
45.0
 41
0.1
 77
     0
 78
     1
 53
45.0
 43
0.0
 44
0.0
 45
-0.0707106781186548
 46
0.0707106781186548
 79
     0
 98
        1
 10
0.0
 20
0.0
  0
HATCH
  5
46C
330
71
100
AcDbEntity
  8
1
  6
Continuous
 62
     2
100
AcDbHatch
 10
0.0
 20
0.0
 30
0.0
210
0.0
220
0.0
230
1.0
  2
_USER
 70
     0
 71
     1
 91
        2
 92
        1
 93
        6
 72
     1
 10
-52.0489278619402
 20
21.51335313077524
 11
-52.0489278619402
 21
18.45954360696405
 72
     1
 10
-52.0489278619402
 20
18.45954360696405
 11
-50.80842345168608
 21
18.45954360696405
 72
     1
 10
-50.80842345168608
 20
18.45954360696405
 11
-50.80842345168608
 21
19.40262184810786
 72
     1
 10
-50.80842345168608
 20
19.40262184810786
 11
-50.0496558639058
 21
19.40262184810786
 72
     2
 10
-50.0496558639058
 20
20.45798748944156
 40
1.055365641333701
 50
270.0
 51
450.0
 73
     1
 72
     1
 10
-50.0496558639058
 20
21.51335313077524
 11
-52.0489278619402
 21
21.51335313077524
 97
        6
330
429
330
386
330
37C
330
37B
330
388
330
387
 92
       16
 93
        4
 72
     1
 10
-50.49112839014418
 20
20.85024728533514
 11
-50.80842345168608
 21
20.85024728533514
 72
     1
 10
-50.80842345168608
 20
20.85024728533514
 11
-50.80842345168608
 21
20.14451963599294
 72
     1
 10
-50.80842345168608
 20
20.14451963599294
 11
-50.49112839014418
 21
20.14451963599294
 72
     2
 10
-50.49112839014418
 20
20.49738346066405
 40
0.3528638246711111
 50
270.0
 51
450.0
 73
     1
 97
        4
330
389
330
37A
330
38A
330
415
 75
     1
 76
     0
 52
45.0
 41
0.1
 77
     0
 78
     1
 53
45.0
 43
0.0
 44
0.0
 45
-0.0707106781186548
 46
0.0707106781186548
 79
     0
 98
        1
 10
0.0
 20
0.0
  0
HATCH
  5
46D
330
71
100
AcDbEntity
  8
1
  6
Continuous
 62
     2
100
AcDbHatch
 10
0.0
 20
0.0
 30
0.0
210
0.0
220
0.0
230
1.0
  2
_USER
 70
     0
 71
     1
 91
        1
 92
        1
 93
       12
 72
     1
 10
-32.434644667507
 20
21.51335313077524
 11
-31.03192044975978
 21
21.51335313077524
 72
     1
 10
-31.03192044975978
 20
21.51335313077524
 11
-32.3344500805263
 21
20.04040260073904
 72
     1
 10
-32.3344500805263
 20
20.04040260073904
 11
-30.93649703358599
 21
18.45954360696405
 72
     1
 10
-30.93649703358599
 20
18.45954360696405
 11
-32.33922125133429
 21
18.45954360696405
 72
     1
 10
-32.33922125133429
 20
18.45954360696405
 11
-33.03581218939979
 21
19.24727539225776
 72
     1
 10
-33.03581218939979
 20
19.24727539225776
 11
-33.73240312746549
 21
18.45954360696405
 72
     1
 10
-33.73240312746549
 20
18.45954360696405
 11
-35.1351273452137
 21
18.45954360696405
 72
     1
 10
-35.1351273452137
 20
18.45954360696405
 11
-33.7371742982734
 21
20.04040260073904
 72
     1
 10
-33.7371742982734
 20
20.04040260073904
 11
-35.03970392904088
 21
21.51335313077524
 72
     1
 10
-35.03970392904088
 20
21.51335313077524
 11
-33.63697971129159
 21
21.51335313077524
 72
     1
 10
-33.63697971129159
 20
21.51335313077524
 11
-33.03581218939979
 21
20.83352980921976
 72
     1
 10
-33.03581218939979
 20
20.83352980921976
 11
-32.434644667507
 21
21.51335313077524
 97
       12
330
355
330
3AE
330
3AD
330
3AC
330
3AB
330
356
330
357
330
353
330
354
330
3B1
330
3B0
330
3AF
 75
     1
 76
     0
 52
45.0
 41
0.1
 77
     0
 78
     1
 53
45.0
 43
0.0
 44
0.0
 45
-0.0707106781186548
 46
0.0707106781186548
 79
     0
 98
        1
 10
0.0
 20
0.0
  0
HATCH
  5
46E
330
71
100
AcDbEntity
  8
1
  6
Continuous
 62
     2
100
AcDbHatch
 10
0.0
 20
0.0
 30
0.0
210
0.0
220
0.0
230
1.0
  2
_USER
 70
     0
 71
     1
 91
        1
 92
        1
 93
       12
 72
     1
 10
-32.434644667507
 20
21.51335313077524
 11
-31.03192044975978
 21
21.51335313077524
 72
     1
 10
-31.03192044975978
 20
21.51335313077524
 11
-32.3344500805263
 21
20.04040260073904
 72
     1
 10
-32.3344500805263
 20
20.04040260073904
 11
-30.93649703358599
 21
18.45954360696405
 72
     1
 10
-30.93649703358599
 20
18.45954360696405
 11
-32.33922125133429
 21
18.45954360696405
 72
     1
 10
-32.33922125133429
 20
18.45954360696405
 11
-33.03581218939979
 21
19.24727539225776
 72
     1
 10
-33.03581218939979
 20
19.24727539225776
 11
-33.73240312746549
 21
18.45954360696405
 72
     1
 10
-33.73240312746549
 20
18.45954360696405
 11
-35.1351273452137
 21
18.45954360696405
 72
     1
 10
-35.1351273452137
 20
18.45954360696405
 11
-33.7371742982734
 21
20.04040260073904
 72
     1
 10
-33.7371742982734
 20
20.04040260073904
 11
-35.03970392904088
 21
21.51335313077524
 72
     1
 10
-35.03970392904088
 20
21.51335313077524
 11
-33.63697971129159
 21
21.51335313077524
 72
     1
 10
-33.63697971129159
 20
21.51335313077524
 11
-33.03581218939979
 21
20.83352980921976
 72
     1
 10
-33.03581218939979
 20
20.83352980921976
 11
-32.434644667507
 21
21.51335313077524
 97
       12
330
355
330
3AE
330
3AD
330
3AC
330
3AB
330
356
330
357
330
353
330
354
330
3B1
330
3B0
330
3AF
 75
     1
 76
     0
 52
45.0
 41
0.1
 77
     0
 78
     1
 53
45.0
 43
0.0
 44
0.0
 45
-0.0707106781186548
 46
0.0707106781186548
 79
     0
 98
        1
 10
0.0
 20
0.0
  0
HATCH
  5
46F
330
71
100
AcDbEntity
  8
1
  6
Continuous
 62
     2
100
AcDbHatch
 10
0.0
 20
0.0
 30
0.0
210
0.0
220
0.0
230
1.0
  2
_USER
 70
     0
 71
     1
 91
        1
 92
        1
 93
        4
 72
     1
 10
-35.25440661543058
 20
21.51335313077524
 11
-35.25440661543058
 21
18.45954360696405
 72
     1
 10
-35.25440661543058
 20
18.45954360696405
 11
-36.49491102568348
 21
18.45954360696405
 72
     1
 10
-36.49491102568348
 20
18.45954360696405
 11
-36.49491102568348
 21
21.51335313077524
 72
     1
 10
-36.49491102568348
 20
21.51335313077524
 11
-35.25440661543058
 21
21.51335313077524
 97
        4
330
3A9
330
358
330
3A8
330
3AA
 75
     1
 76
     0
 52
45.0
 41
0.1
 77
     0
 78
     1
 53
45.0
 43
0.0
 44
0.0
 45
-0.0707106781186548
 46
0.0707106781186548
 79
     0
 98
        1
 10
0.0
 20
0.0
  0
HATCH
  5
470
330
71
100
AcDbEntity
  8
1
  6
Continuous
 62
     2
100
AcDbHatch
 10
0.0
 20
0.0
 30
0.0
210
0.0
220
0.0
230
1.0
  2
_USER
 70
     0
 71
     1
 91
        1
 92
        1
 93
        4
 72
     1
 10
-35.25440661543058
 20
21.51335313077524
 11
-35.25440661543058
 21
18.45954360696405
 72
     1
 10
-35.25440661543058
 20
18.45954360696405
 11
-36.49491102568348
 21
18.45954360696405
 72
     1
 10
-36.49491102568348
 20
18.45954360696405
 11
-36.49491102568348
 21
21.51335313077524
 72
     1
 10
-36.49491102568348
 20
21.51335313077524
 11
-35.25440661543058
 21
21.51335313077524
 97
        4
330
3A9
330
358
330
3A8
330
3AA
 75
     1
 76
     0
 52
45.0
 41
0.1
 77
     0
 78
     1
 53
45.0
 43
0.0
 44
0.0
 45
-0.0707106781186548
 46
0.0707106781186548
 79
     0
 98
        1
 10
0.0
 20
0.0
  0
HATCH
  5
471
330
71
100
AcDbEntity
  8
1
  6
Continuous
 62
     2
100
AcDbHatch
 10
0.0
 20
0.0
 30
0.0
210
0.0
220
0.0
230
1.0
  2
_USER
 70
     0
 71
     1
 91
        2
 92
        1
 93
        8
 72
     1
 10
-35.64485061896258
 20
15.10035313078976
 11
-36.8853550292165
 21
15.10035313078976
 72
     1
 10
-36.8853550292165
 20
15.10035313078976
 11
-37.09683508269228
 21
15.64131367500764
 72
     1
 10
-37.09683508269228
 20
15.64131367500764
 11
-38.22927665936609
 21
15.64131367500764
 72
     1
 10
-38.22927665936609
 20
15.64131367500764
 11
-38.4407567128419
 21
15.10035313078976
 72
     1
 10
-38.4407567128419
 20
15.10035313078976
 11
-39.68126112309489
 21
15.10035313078976
 72
     1
 10
-39.68126112309489
 20
15.10035313078976
 11
-38.28330807615558
 21
18.15416265460084
 72
     1
 10
-38.28330807615558
 20
18.15416265460084
 11
-37.04280366590288
 21
18.15416265460084
 72
     1
 10
-37.04280366590288
 20
18.15416265460084
 11
-35.64485061896258
 21
15.10035313078976
 97
        8
330
3A4
330
35E
330
3A3
330
3A6
330
35B
330
3A5
330
35C
330
35D
 92
       16
 93
        3
 72
     1
 10
-37.96322110822109
 20
16.32187694031424
 11
-37.36289063383859
 21
16.32187694031424
 72
     1
 10
-37.36289063383859
 20
16.32187694031424
 11
-37.66305587102869
 21
17.08969190630094
 72
     1
 10
-37.66305587102869
 20
17.08969190630094
 11
-37.96322110822109
 21
16.32187694031424
 97
        3
330
35A
330
359
330
3A7
 75
     1
 76
     0
 52
45.0
 41
0.1
 77
     0
 78
     1
 53
45.0
 43
0.0
 44
0.0
 45
-0.0707106781186548
 46
0.0707106781186548
 79
     0
 98
        1
 10
0.0
 20
0.0
  0
HATCH
  5
472
330
71
100
AcDbEntity
  8
1
  6
Continuous
 62
     2
100
AcDbHatch
 10
0.0
 20
0.0
 30
0.0
210
0.0
220
0.0
230
1.0
  2
_USER
 70
     0
 71
     1
 91
        2
 92
        1
 93
        8
 72
     1
 10
-35.64485061896258
 20
15.10035313078976
 11
-36.8853550292165
 21
15.10035313078976
 72
     1
 10
-36.8853550292165
 20
15.10035313078976
 11
-37.09683508269228
 21
15.64131367500764
 72
     1
 10
-37.09683508269228
 20
15.64131367500764
 11
-38.22927665936609
 21
15.64131367500764
 72
     1
 10
-38.22927665936609
 20
15.64131367500764
 11
-38.4407567128419
 21
15.10035313078976
 72
     1
 10
-38.4407567128419
 20
15.10035313078976
 11
-39.68126112309489
 21
15.10035313078976
 72
     1
 10
-39.68126112309489
 20
15.10035313078976
 11
-38.28330807615558
 21
18.15416265460084
 72
     1
 10
-38.28330807615558
 20
18.15416265460084
 11
-37.04280366590288
 21
18.15416265460084
 72
     1
 10
-37.04280366590288
 20
18.15416265460084
 11
-35.64485061896258
 21
15.10035313078976
 97
        8
330
3A4
330
35E
330
3A3
330
3A6
330
35B
330
3A5
330
35C
330
35D
 92
       16
 93
        3
 72
     1
 10
-37.96322110822109
 20
16.32187694031424
 11
-37.36289063383859
 21
16.32187694031424
 72
     1
 10
-37.36289063383859
 20
16.32187694031424
 11
-37.66305587102869
 21
17.08969190630094
 72
     1
 10
-37.66305587102869
 20
17.08969190630094
 11
-37.96322110822109
 21
16.32187694031424
 97
        3
330
35A
330
359
330
3A7
 75
     1
 76
     0
 52
45.0
 41
0.1
 77
     0
 78
     1
 53
45.0
 43
0.0
 44
0.0
 45
-0.0707106781186548
 46
0.0707106781186548
 79
     0
 98
        1
 10
0.0
 20
0.0
  0
HATCH
  5
473
330
71
100
AcDbEntity
  8
1
  6
Continuous
 62
     2
100
AcDbHatch
 10
0.0
 20
0.0
 30
0.0
210
0.0
220
0.0
230
1.0
  2
_USER
 70
     0
 71
     1
 91
        1
 92
        1
 93
        8
 72
     1
 10
-41.8387732622771
 20
18.15416265460084
 11
-41.8387732622771
 21
17.36889734847725
 72
     1
 10
-41.8387732622771
 20
17.36889734847725
 11
-41.0276742248025
 21
17.36889734847725
 72
     1
 10
-41.0276742248025
 20
17.36889734847725
 11
-41.0276742248025
 21
15.10035313078976
 72
     1
 10
-41.0276742248025
 20
15.10035313078976
 11
-39.83488152263598
 21
15.10035313078976
 72
     1
 10
-39.83488152263598
 20
15.10035313078976
 11
-39.83488152263598
 21
17.36889734847725
 72
     1
 10
-39.83488152263598
 20
17.36889734847725
 11
-39.02378248516348
 21
17.36889734847725
 72
     1
 10
-39.02378248516348
 20
17.36889734847725
 11
-39.02378248516348
 21
18.15416265460084
 72
     1
 10
-39.02378248516348
 20
18.15416265460084
 11
-41.8387732622771
 21
18.15416265460084
 97
        8
330
3A0
330
39F
330
39E
330
35F
330
360
330
3A2
330
361
330
3A1
 75
     1
 76
     0
 52
45.0
 41
0.1
 77
     0
 78
     1
 53
45.0
 43
0.0
 44
0.0
 45
-0.0707106781186548
 46
0.0707106781186548
 79
     0
 98
        1
 10
0.0
 20
0.0
  0
HATCH
  5
474
330
71
100
AcDbEntity
  8
1
  6
Continuous
 62
     2
100
AcDbHatch
 10
0.0
 20
0.0
 30
0.0
210
0.0
220
0.0
230
1.0
  2
_USER
 70
     0
 71
     1
 91
        1
 92
        1
 93
        8
 72
     1
 10
-41.8387732622771
 20
18.15416265460084
 11
-41.8387732622771
 21
17.36889734847725
 72
     1
 10
-41.8387732622771
 20
17.36889734847725
 11
-41.0276742248025
 21
17.36889734847725
 72
     1
 10
-41.0276742248025
 20
17.36889734847725
 11
-41.0276742248025
 21
15.10035313078976
 72
     1
 10
-41.0276742248025
 20
15.10035313078976
 11
-39.83488152263598
 21
15.10035313078976
 72
     1
 10
-39.83488152263598
 20
15.10035313078976
 11
-39.83488152263598
 21
17.36889734847725
 72
     1
 10
-39.83488152263598
 20
17.36889734847725
 11
-39.02378248516348
 21
17.36889734847725
 72
     1
 10
-39.02378248516348
 20
17.36889734847725
 11
-39.02378248516348
 21
18.15416265460084
 72
     1
 10
-39.02378248516348
 20
18.15416265460084
 11
-41.8387732622771
 21
18.15416265460084
 97
        8
330
3A0
330
39F
330
39E
330
35F
330
360
330
3A2
330
361
330
3A1
 75
     1
 76
     0
 52
45.0
 41
0.1
 77
     0
 78
     1
 53
45.0
 43
0.0
 44
0.0
 45
-0.0707106781186548
 46
0.0707106781186548
 79
     0
 98
        1
 10
0.0
 20
0.0
  0
HATCH
  5
475
330
71
100
AcDbEntity
  8
1
  6
Continuous
 62
     2
100
AcDbHatch
 10
0.0
 20
0.0
 30
0.0
210
0.0
220
0.0
230
1.0
  2
_USER
 70
     0
 71
     1
 91
        1
 92
        1
 93
       10
 72
     1
 10
-39.16676667853798
 20
21.51335313077524
 11
-40.3595593807045
 21
21.51335313077524
 72
     1
 10
-40.3595593807045
 20
21.51335313077524
 11
-40.3595593807045
 21
18.45954360696405
 72
     1
 10
-40.3595593807045
 20
18.45954360696405
 11
-39.16676667853798
 21
18.45954360696405
 72
     1
 10
-39.16676667853798
 20
18.45954360696405
 11
-39.16676667853798
 21
19.76831911716874
 72
     1
 10
-39.16676667853798
 20
19.76831911716874
 11
-37.92626226828398
 21
18.45954360696405
 72
     1
 10
-37.92626226828398
 20
18.45954360696405
 11
-36.73346956611738
 21
18.45954360696405
 72
     1
 10
-36.73346956611738
 20
18.45954360696405
 11
-36.73346956611738
 21
21.51335313077524
 72
     1
 10
-36.73346956611738
 20
21.51335313077524
 11
-37.92626226828398
 21
21.51335313077524
 72
     1
 10
-37.92626226828398
 20
21.51335313077524
 11
-37.92626226828398
 21
20.20457762057006
 72
     1
 10
-37.92626226828398
 20
20.20457762057006
 11
-39.16676667853798
 21
21.51335313077524
 97
       10
330
39A
330
364
330
365
330
366
330
367
330
39D
330
362
330
39C
330
39B
330
363
 75
     1
 76
     0
 52
45.0
 41
0.1
 77
     0
 78
     1
 53
45.0
 43
0.0
 44
0.0
 45
-0.0707106781186548
 46
0.0707106781186548
 79
     0
 98
        1
 10
0.0
 20
0.0
  0
HATCH
  5
476
330
71
100
AcDbEntity
  8
1
  6
Continuous
 62
     2
100
AcDbHatch
 10
0.0
 20
0.0
 30
0.0
210
0.0
220
0.0
230
1.0
  2
_USER
 70
     0
 71
     1
 91
        1
 92
        1
 93
       10
 72
     1
 10
-39.16676667853798
 20
21.51335313077524
 11
-40.3595593807045
 21
21.51335313077524
 72
     1
 10
-40.3595593807045
 20
21.51335313077524
 11
-40.3595593807045
 21
18.45954360696405
 72
     1
 10
-40.3595593807045
 20
18.45954360696405
 11
-39.16676667853798
 21
18.45954360696405
 72
     1
 10
-39.16676667853798
 20
18.45954360696405
 11
-39.16676667853798
 21
19.76831911716874
 72
     1
 10
-39.16676667853798
 20
19.76831911716874
 11
-37.92626226828398
 21
18.45954360696405
 72
     1
 10
-37.92626226828398
 20
18.45954360696405
 11
-36.73346956611738
 21
18.45954360696405
 72
     1
 10
-36.73346956611738
 20
18.45954360696405
 11
-36.73346956611738
 21
21.51335313077524
 72
     1
 10
-36.73346956611738
 20
21.51335313077524
 11
-37.92626226828398
 21
21.51335313077524
 72
     1
 10
-37.92626226828398
 20
21.51335313077524
 11
-37.92626226828398
 21
20.20457762057006
 72
     1
 10
-37.92626226828398
 20
20.20457762057006
 11
-39.16676667853798
 21
21.51335313077524
 97
       10
330
39A
330
364
330
365
330
366
330
367
330
39D
330
362
330
39C
330
39B
330
363
 75
     1
 76
     0
 52
45.0
 41
0.1
 77
     0
 78
     1
 53
45.0
 43
0.0
 44
0.0
 45
-0.0707106781186548
 46
0.0707106781186548
 79
     0
 98
        1
 10
0.0
 20
0.0
  0
HATCH
  5
477
330
71
100
AcDbEntity
  8
1
  6
Continuous
 62
     2
100
AcDbHatch
 10
0.0
 20
0.0
 30
0.0
210
0.0
220
0.0
230
1.0
  2
_USER
 70
     0
 71
     1
 91
        1
 92
        1
 93
       10
 72
     1
 10
-44.4152054989566
 20
18.15416265460084
 11
-45.60799820112419
 21
18.15416265460084
 72
     1
 10
-45.60799820112419
 20
18.15416265460084
 11
-45.60799820112419
 21
15.10035313078976
 72
     1
 10
-45.60799820112419
 20
15.10035313078976
 11
-44.4152054989566
 21
15.10035313078976
 72
     1
 10
-44.4152054989566
 20
15.10035313078976
 11
-44.4152054989566
 21
16.40912864099434
 72
     1
 10
-44.4152054989566
 20
16.40912864099434
 11
-43.1747010887037
 21
15.10035313078976
 72
     1
 10
-43.1747010887037
 20
15.10035313078976
 11
-41.9819083865373
 21
15.10035313078976
 72
     1
 10
-41.9819083865373
 20
15.10035313078976
 11
-41.9819083865373
 21
18.15416265460084
 72
     1
 10
-41.9819083865373
 20
18.15416265460084
 11
-43.1747010887037
 21
18.15416265460084
 72
     1
 10
-43.1747010887037
 20
18.15416265460084
 11
-43.1747010887037
 21
16.84538714439574
 72
     1
 10
-43.1747010887037
 20
16.84538714439574
 11
-44.4152054989566
 21
18.15416265460084
 97
       10
330
369
330
36A
330
36B
330
397
330
36C
330
36D
330
396
330
399
330
398
330
368
 75
     1
 76
     0
 52
45.0
 41
0.1
 77
     0
 78
     1
 53
45.0
 43
0.0
 44
0.0
 45
-0.0707106781186548
 46
0.0707106781186548
 79
     0
 98
        1
 10
0.0
 20
0.0
  0
HATCH
  5
478
330
71
100
AcDbEntity
  8
1
  6
Continuous
 62
     2
100
AcDbHatch
 10
0.0
 20
0.0
 30
0.0
210
0.0
220
0.0
230
1.0
  2
_USER
 70
     0
 71
     1
 91
        1
 92
        1
 93
       10
 72
     1
 10
-44.4152054989566
 20
18.15416265460084
 11
-45.60799820112419
 21
18.15416265460084
 72
     1
 10
-45.60799820112419
 20
18.15416265460084
 11
-45.60799820112419
 21
15.10035313078976
 72
     1
 10
-45.60799820112419
 20
15.10035313078976
 11
-44.4152054989566
 21
15.10035313078976
 72
     1
 10
-44.4152054989566
 20
15.10035313078976
 11
-44.4152054989566
 21
16.40912864099434
 72
     1
 10
-44.4152054989566
 20
16.40912864099434
 11
-43.1747010887037
 21
15.10035313078976
 72
     1
 10
-43.1747010887037
 20
15.10035313078976
 11
-41.9819083865373
 21
15.10035313078976
 72
     1
 10
-41.9819083865373
 20
15.10035313078976
 11
-41.9819083865373
 21
18.15416265460084
 72
     1
 10
-41.9819083865373
 20
18.15416265460084
 11
-43.1747010887037
 21
18.15416265460084
 72
     1
 10
-43.1747010887037
 20
18.15416265460084
 11
-43.1747010887037
 21
16.84538714439574
 72
     1
 10
-43.1747010887037
 20
16.84538714439574
 11
-44.4152054989566
 21
18.15416265460084
 97
       10
330
369
330
36A
330
36B
330
397
330
36C
330
36D
330
396
330
399
330
398
330
368
 75
     1
 76
     0
 52
45.0
 41
0.1
 77
     0
 78
     1
 53
45.0
 43
0.0
 44
0.0
 45
-0.0707106781186548
 46
0.0707106781186548
 79
     0
 98
        1
 10
0.0
 20
0.0
  0
HATCH
  5
479
330
71
100
AcDbEntity
  8
1
  6
Continuous
 62
     2
100
AcDbHatch
 10
0.0
 20
0.0
 30
0.0
210
0.0
220
0.0
230
1.0
  2
_USER
 70
     0
 71
     1
 91
        1
 92
        1
 93
       12
 72
     1
 10
-45.417000437892
 20
21.51335313077524
 11
-45.417000437892
 21
18.45954360696405
 72
     1
 10
-45.417000437892
 20
18.45954360696405
 11
-46.6097931400584
 21
18.45954360696405
 72
     1
 10
-46.6097931400584
 20
18.45954360696405
 11
-46.6097931400584
 21
19.59381571580786
 72
     1
 10
-46.6097931400584
 20
19.59381571580786
 11
-47.65945071796588
 21
19.59381571580786
 72
     1
 10
-47.65945071796588
 20
19.59381571580786
 11
-47.65945071796588
 21
18.45954360696405
 72
     1
 10
-47.65945071796588
 20
18.45954360696405
 11
-48.85224342013248
 21
18.45954360696405
 72
     1
 10
-48.85224342013248
 20
18.45954360696405
 11
-48.85224342013248
 21
21.51335313077524
 72
     1
 10
-48.85224342013248
 20
21.51335313077524
 11
-47.65945071796588
 21
21.51335313077524
 72
     1
 10
-47.65945071796588
 20
21.51335313077524
 11
-47.65945071796588
 21
20.44451979744065
 72
     1
 10
-47.65945071796588
 20
20.44451979744065
 11
-46.6097931400584
 21
20.44451979744065
 72
     1
 10
-46.6097931400584
 20
20.44451979744065
 11
-46.6097931400584
 21
21.51335313077524
 72
     1
 10
-46.6097931400584
 20
21.51335313077524
 11
-45.417000437892
 21
21.51335313077524
 97
       12
330
391
330
390
330
38F
330
377
330
378
330
38E
330
379
330
38D
330
38C
330
38B
330
375
330
376
 75
     1
 76
     0
 52
45.0
 41
0.1
 77
     0
 78
     1
 53
45.0
 43
0.0
 44
0.0
 45
-0.0707106781186548
 46
0.0707106781186548
 79
     0
 98
        1
 10
0.0
 20
0.0
  0
HATCH
  5
47A
330
71
100
AcDbEntity
  8
1
  6
Continuous
 62
     2
100
AcDbHatch
 10
0.0
 20
0.0
 30
0.0
210
0.0
220
0.0
230
1.0
  2
_USER
 70
     0
 71
     1
 91
        1
 92
        1
 93
       12
 72
     1
 10
-45.417000437892
 20
21.51335313077524
 11
-45.417000437892
 21
18.45954360696405
 72
     1
 10
-45.417000437892
 20
18.45954360696405
 11
-46.6097931400584
 21
18.45954360696405
 72
     1
 10
-46.6097931400584
 20
18.45954360696405
 11
-46.6097931400584
 21
19.59381571580786
 72
     1
 10
-46.6097931400584
 20
19.59381571580786
 11
-47.65945071796588
 21
19.59381571580786
 72
     1
 10
-47.65945071796588
 20
19.59381571580786
 11
-47.65945071796588
 21
18.45954360696405
 72
     1
 10
-47.65945071796588
 20
18.45954360696405
 11
-48.85224342013248
 21
18.45954360696405
 72
     1
 10
-48.85224342013248
 20
18.45954360696405
 11
-48.85224342013248
 21
21.51335313077524
 72
     1
 10
-48.85224342013248
 20
21.51335313077524
 11
-47.65945071796588
 21
21.51335313077524
 72
     1
 10
-47.65945071796588
 20
21.51335313077524
 11
-47.65945071796588
 21
20.44451979744065
 72
     1
 10
-47.65945071796588
 20
20.44451979744065
 11
-46.6097931400584
 21
20.44451979744065
 72
     1
 10
-46.6097931400584
 20
20.44451979744065
 11
-46.6097931400584
 21
21.51335313077524
 72
     1
 10
-46.6097931400584
 20
21.51335313077524
 11
-45.417000437892
 21
21.51335313077524
 97
       12
330
391
330
390
330
38F
330
377
330
378
330
38E
330
379
330
38D
330
38C
330
38B
330
375
330
376
 75
     1
 76
     0
 52
45.0
 41
0.1
 77
     0
 78
     1
 53
45.0
 43
0.0
 44
0.0
 45
-0.0707106781186548
 46
0.0707106781186548
 79
     0
 98
        1
 10
0.0
 20
0.0
  0
ENDBLK
  5
73
330
71
100
AcDbEntity
  8
0
100
AcDbBlockEnd
  0
BLOCK
  5
75
330
74
100
AcDbEntity
  8
0
100
AcDbBlockBegin
  2
_punkt
 70
     0
 10
66.46030337589691
 20
7.80685313077345
 30
0.0
  3
_punkt
  1

  0
LINE
  5
47B
330
74
100
AcDbEntity
  8
1
  6
Continuous
 62
     2
100
AcDbLine
 10
66.46030337589691
 20
7.80685313077345
 30
0.0
 11
66.46030337589691
 21
2.80685313077333
 31
0.0
  0
LINE
  5
47C
330
74
100
AcDbEntity
  8
1
  6
Continuous
 62
     2
100
AcDbLine
 10
66.46030337589691
 20
7.80685313077345
 30
0.0
 11
71.4603033758959
 21
7.80685313077345
 31
0.0
  0
ENDBLK
  5
76
330
74
100
AcDbEntity
  8
0
100
AcDbBlockEnd
  0
BLOCK
  5
7A
330
77
100
AcDbEntity
  8
0
100
AcDbBlockBegin
  2
A4I_CS
 70
     0
 10
66.46030337589691
 20
2.80685313077333
 30
0.0
  3
A4I_CS
  1

  0
INSERT
  5
78
330
77
100
AcDbEntity
  8
1
100
AcDbBlockReference
  2
_rahmen
 10
66.46030337589691
 20
2.80685313077333
 30
0.0
  0
INSERT
  5
79
330
77
100
AcDbEntity
  8
1
100
AcDbBlockReference
  2
_punkt
 10
66.46030337589691
 20
7.80685313077345
 30
0.0
  0
ENDBLK
  5
7B
330
77
100
AcDbEntity
  8
0
100
AcDbBlockEnd
  0
BLOCK
  5
84
330
7C
100
AcDbEntity
  8
0
100
AcDbBlockBegin
  2
1
 70
     0
 10
0.0
 20
0.0
 30
0.0
  3
1
  1

  0
INSERT
  5
7D
330
7C
100
AcDbEntity
  8
0
100
AcDbBlockReference
  2
Allg1
 10
-1.99999999990975
 20
79.00000000010004
 30
0.0
  0
INSERT
  5
7E
330
7C
100
AcDbEntity
  8
0
100
AcDbBlockReference
  2
Drfsicht1
 10
-102.4250001491889
 20
94.33749937709851
 30
0.0
  0
INSERT
  5
7F
330
7C
100
AcDbEntity
  8
0
100
AcDbBlockReference
  2
Rckans1
 10
-31.57499985081476
 20
147.00000000004
 30
0.0
  0
INSERT
  5
80
330
7C
100
AcDbEntity
  8
0
100
AcDbBlockReference
  2
SA_Links1
 10
-70.00000000016303
 20
147.00000000004
 30
0.0
  0
INSERT
  5
81
330
7C
100
AcDbEntity
  8
0
100
AcDbBlockReference
  2
SA_Rechts1
 10
-157.8500002982378
 20
147.00000000004
 30
0.0
  0
INSERT
  5
82
330
7C
100
AcDbEntity
  8
0
100
AcDbBlockReference
  2
Vordans1
 10
-102.4250001491889
 20
147.00000000004
 30
0.0
  0
INSERT
  5
83
330
7C
100
AcDbEntity
  8
0
100
AcDbBlockReference
  2
A4I_CS
 10
66.46030337589691
 20
2.80685313077333
 30
0.0
  0
ENDBLK
  5
85
330
7C
100
AcDbEntity
  8
0
100
AcDbBlockEnd
  0
BLOCK
  5
1AC
330
1A3
100
AcDbEntity
  8
0
100
AcDbBlockBegin
  2
*D17
 70
     1
 10
0.0
 20
0.0
 30
0.0
  3
*D17
  1

  0
LINE
  5
1A4
330
1A3
100
AcDbEntity
  8
1
  6
Continuous
 62
     2
100
AcDbLine
 10
-120.2750002416686
 20
109.583898364275
 30
0.0
 11
-120.2750002416686
 21
96.91249942188608
 31
0.0
  0
LINE
  5
1A5
330
1A3
100
AcDbEntity
  8
1
  6
Continuous
 62
     2
100
AcDbLine
 10
-120.2750002416686
 20
96.91249942188608
 30
0.0
 11
-120.2750002416686
 21
91.76249942744872
 31
0.0
  0
LINE
  5
1A6
330
1A3
100
AcDbEntity
  8
1
  6
Continuous
 62
     2
100
AcDbLine
 10
-120.2750002416686
 20
91.76249942744872
 30
0.0
 11
-120.2750002416686
 21
84.76249942744872
 31
0.0
  0
LINE
  5
1A7
330
1A3
100
AcDbEntity
  8
1
  6
Continuous
 62
     2
100
AcDbLine
 10
-110.2750002416686
 20
96.91249942188608
 30
0.0
 11
-121.7750002416686
 21
96.91249942188608
 31
0.0
  0
LINE
  5
1A8
330
1A3
100
AcDbEntity
  8
1
  6
Continuous
 62
     2
100
AcDbLine
 10
-110.2750002416326
 20
91.76249942744872
 30
0.0
 11
-121.7750002416686
 21
91.76249942744872
 31
0.0
  0
SOLID
  5
1A9
330
1A3
100
AcDbEntity
  8
1
 62
     2
100
AcDbTrace
 10
-120.7357839832245
 20
100.4124994218861
 30
0.0
 11
-119.8142165001127
 21
100.4124994218861
 31
0.0
 12
-120.2750002416686
 22
96.91249942188608
 32
0.0
 13
-120.2750002416686
 23
96.91249942188608
 33
0.0
  0
SOLID
  5
1AA
330
1A3
100
AcDbEntity
  8
1
 62
     2
100
AcDbTrace
 10
-119.8142165001127
 20
88.26249942744872
 30
0.0
 11
-120.7357839832245
 21
88.26249942744872
 31
0.0
 12
-120.2750002416686
 22
91.76249942744872
 32
0.0
 13
-120.2750002416686
 23
91.76249942744872
 33
0.0
  0
MTEXT
  5
1AB
330
1A3
100
AcDbEntity
  8
1
 62
     3
100
AcDbMText
 10
-122.1250002416686
 20
101.008898364275
 30
0.0
 40
3.5
 41
0.0
 71
     7
 72
     1
  1
5,15
  7
CONVERTER_11
 11
0.0
 21
1.0
 31
0.0
 73
     1
 44
0.60024009603842
  0
ENDBLK
  5
1AD
330
1A3
100
AcDbEntity
  8
0
100
AcDbBlockEnd
  0
BLOCK
  5
32A
330
323
100
AcDbEntity
  8
0
100
AcDbBlockBegin
  2
*D18
 70
     1
 10
0.0
 20
0.0
 30
0.0
  3
*D18
  1

  0
LINE
  5
324
330
323
100
AcDbEntity
  8
1
  6
Continuous
 62
     2
100
AcDbLine
 10
-120.2750002416328
 20
167.0874997681599
 30
0.0
 11
-120.2750002416328
 21
142.5124998092548
 31
0.0
  0
LINE
  5
325
330
323
100
AcDbEntity
  8
1
  6
Continuous
 62
     2
100
AcDbLine
 10
-97.3750002116454
 20
167.0874997681599
 30
0.0
 11
-121.7750002416328
 21
167.0874997681599
 31
0.0
  0
LINE
  5
326
330
323
100
AcDbEntity
  8
1
  6
Continuous
 62
     2
100
AcDbLine
 10
-110.2750002416328
 20
142.5124998092548
 30
0.0
 11
-121.7750002416328
 21
142.5124998092548
 31
0.0
  0
SOLID
  5
327
330
323
100
AcDbEntity
  8
1
 62
     2
100
AcDbTrace
 10
-119.8142165000769
 20
163.5874997681599
 30
0.0
 11
-120.7357839831887
 21
163.5874997681599
 31
0.0
 12
-120.2750002416328
 22
167.0874997681599
 32
0.0
 13
-120.2750002416328
 23
167.0874997681599
 33
0.0
  0
SOLID
  5
328
330
323
100
AcDbEntity
  8
1
 62
     2
100
AcDbTrace
 10
-120.7357839831887
 20
146.0124998092548
 30
0.0
 11
-119.8142165000769
 21
146.0124998092548
 31
0.0
 12
-120.2750002416328
 22
142.5124998092548
 32
0.0
 13
-120.2750002416328
 23
142.5124998092548
 33
0.0
  0
MTEXT
  5
329
330
323
100
AcDbEntity
  8
1
 62
     3
100
AcDbMText
 10
-122.1250002416328
 20
148.353069142407
 30
0.0
 40
3.5
 41
0.0
 71
     7
 72
     1
  1
24,57
  7
CONVERTER_11
 11
0.0
 21
1.0
 31
0.0
 73
     1
 44
0.60024009603842
  0
ENDBLK
  5
32B
330
323
100
AcDbEntity
  8
0
100
AcDbBlockEnd
  0
BLOCK
  5
335
330
32E
100
AcDbEntity
  8
0
100
AcDbBlockBegin
  2
*D19
 70
     1
 10
0.0
 20
0.0
 30
0.0
  3
*D19
  1

  0
LINE
  5
32F
330
32E
100
AcDbEntity
  8
1
  6
Continuous
 62
     2
100
AcDbLine
 10
-127.399444374637
 20
167.08749976816
 30
0.0
 11
-127.399444374637
 21
126.912499809328
 31
0.0
  0
LINE
  5
330
330
32E
100
AcDbEntity
  8
1
  6
Continuous
 62
     2
100
AcDbLine
 10
-97.37500021164539
 20
167.08749976816
 30
0.0
 11
-128.899444374637
 21
167.08749976816
 31
0.0
  0
LINE
  5
331
330
32E
100
AcDbEntity
  8
1
  6
Continuous
 62
     2
100
AcDbLine
 10
-106.0750002416609
 20
126.912499809328
 30
0.0
 11
-128.899444374637
 21
126.912499809328
 31
0.0
  0
SOLID
  5
332
330
32E
100
AcDbEntity
  8
1
 62
     2
100
AcDbTrace
 10
-126.9386606330811
 20
163.58749976816
 30
0.0
 11
-127.8602281161929
 21
163.58749976816
 31
0.0
 12
-127.399444374637
 22
167.08749976816
 32
0.0
 13
-127.399444374637
 23
167.08749976816
 33
0.0
  0
SOLID
  5
333
330
32E
100
AcDbEntity
  8
1
 62
     2
100
AcDbTrace
 10
-127.8602281161929
 20
130.412499809328
 30
0.0
 11
-126.9386606330811
 21
130.412499809328
 31
0.0
 12
-127.399444374637
 22
126.912499809328
 32
0.0
 13
-127.399444374637
 23
126.912499809328
 33
0.0
  0
MTEXT
  5
334
330
32E
100
AcDbEntity
  8
1
 62
     3
100
AcDbMText
 10
-129.249444374637
 20
141.7074325649069
 30
0.0
 40
3.5
 41
0.0
 71
     7
 72
     1
  1
40,17
  7
CONVERTER_11
 11
0.0
 21
1.0
 31
0.0
 73
     1
 44
0.60024009603842
  0
ENDBLK
  5
336
330
32E
100
AcDbEntity
  8
0
100
AcDbBlockEnd
  0
BLOCK
  5
340
330
339
100
AcDbEntity
  8
0
100
AcDbBlockBegin
  2
*D20
 70
     1
 10
0.0
 20
0.0
 30
0.0
  3
*D20
  1

  0
LINE
  5
33A
330
339
100
AcDbEntity
  8
1
  6
Continuous
 62
     2
100
AcDbLine
 10
-110.2750002416327
 20
117.7791667865814
 30
0.0
 11
-94.27500022274852
 21
117.7791667865814
 31
0.0
  0
LINE
  5
33B
330
339
100
AcDbEntity
  8
1
  6
Continuous
 62
     2
100
AcDbLine
 10
-110.2750002416327
 20
142.5124998092548
 30
0.0
 11
-110.2750002416327
 21
116.2791667865814
 31
0.0
  0
LINE
  5
33C
330
339
100
AcDbEntity
  8
1
  6
Continuous
 62
     2
100
AcDbLine
 10
-94.27500022274852
 20
148.1958332054782
 30
0.0
 11
-94.27500022274852
 21
116.2791667865814
 31
0.0
  0
SOLID
  5
33D
330
339
100
AcDbEntity
  8
1
 62
     2
100
AcDbTrace
 10
-106.7750002416327
 20
118.2399505281373
 30
0.0
 11
-106.7750002416327
 21
117.3183830450255
 31
0.0
 12
-110.2750002416327
 22
117.7791667865814
 32
0.0
 13
-110.2750002416327
 23
117.7791667865814
 33
0.0
  0
SOLID
  5
33E
330
339
100
AcDbEntity
  8
1
 62
     2
100
AcDbTrace
 10
-97.77500022274852
 20
117.3183830450255
 30
0.0
 11
-97.77500022274852
 21
118.2399505281373
 31
0.0
 12
-94.27500022274852
 22
117.7791667865814
 32
0.0
 13
-94.27500022274852
 23
117.7791667865814
 33
0.0
  0
MTEXT
  5
33F
330
339
100
AcDbEntity
  8
1
 62
     3
100
AcDbMText
 10
-104.5250001491711
 20
119.2791667865814
 30
0.0
 40
3.5
 41
0.0
 71
     7
 72
     1
  1
16
  7
CONVERTER_11
 11
0.9999999999970619
 21
2.424068405545306E-6
 31
0.0
 73
     1
 44
0.60024009603842
  0
ENDBLK
  5
341
330
339
100
AcDbEntity
  8
0
100
AcDbBlockEnd
  0
ENDSEC
  0
SECTION
  2
ENTITIES
  0
INSERT
  5
86
330
1F
100
AcDbEntity
  8
1
100
AcDbBlockReference
  2
1
 10
0.0
 20
0.0
 30
0.0
  0
ENDSEC
  0
SECTION
  2
OBJECTS
  0
DICTIONARY
  5
C
330
0
100
AcDbDictionary
281
     1
  3
ACAD_GROUP
350
D
  3
ACAD_LAYOUT
350
1A
  3
ACAD_MATERIAL
350
3B
  3
ACAD_MLEADERSTYLE
350
4A4
  3
ACAD_MLINESTYLE
350
17
  3
ACAD_PLOTSETTINGS
350
19
  3
ACAD_PLOTSTYLENAME
350
E
  3
ACAD_TABLESTYLE
350
4A3
  3
ACAD_VISUALSTYLE
350
2A
  0
DICTIONARY
  5
D
102
{ACAD_REACTORS
330
C
102
}
330
C
100
AcDbDictionary
281
     1
  0
DICTIONARY
  5
1A
102
{ACAD_REACTORS
330
C
102
}
330
C
100
AcDbDictionary
281
     1
  3
Layout1
350
1E
  3
Layout2
350
26
  3
Model
350
22
  0
DICTIONARY
  5
3B
102
{ACAD_REACTORS
330
C
102
}
330
C
100
AcDbDictionary
281
     1
  3
ByBlock
350
3D
  3
ByLayer
350
3C
  3
Global
350
3E
  0
DICTIONARY
  5
4A4
102
{ACAD_REACTORS
330
C
102
}
330
C
100
AcDbDictionary
281
     1
  0
DICTIONARY
  5
17
102
{ACAD_REACTORS
330
C
102
}
330
C
100
AcDbDictionary
281
     1
  3
Standard
350
18
  0
DICTIONARY
  5
19
102
{ACAD_REACTORS
330
C
102
}
330
C
100
AcDbDictionary
281
     1
  0
ACDBDICTIONARYWDFLT
  5
E
102
{ACAD_REACTORS
330
C
102
}
330
C
100
AcDbDictionary
281
     1
  3
Normal
350
F
100
AcDbDictionaryWithDefault
340
F
  0
DICTIONARY
  5
4A3
102
{ACAD_REACTORS
330
C
102
}
330
C
100
AcDbDictionary
281
     1
  0
DICTIONARY
  5
2A
102
{ACAD_REACTORS
330
C
102
}
330
C
100
AcDbDictionary
281
     1
  3
2dWireframe
350
2F
  3
3D Hidden
350
31
  3
3dWireframe
350
30
  3
Basic
350
32
  3
Brighten
350
36
  3
ColorChange
350
3A
  3
Conceptual
350
34
  3
Dim
350
35
  3
Facepattern
350
39
  3
Flat
350
2B
  3
FlatWithEdges
350
2C
  3
Gouraud
350
2D
  3
GouraudWithEdges
350
2E
  3
Linepattern
350
38
  3
Realistic
350
33
  3
Thicken
350
37
  0
LAYOUT
  5
1E
102
{ACAD_REACTORS
330
1A
102
}
330
1A
100
AcDbPlotSettings
  1

  2
none_device
  4

  6

 40
0.0
 41
0.0
 42
0.0
 43
0.0
 44
0.0
 45
0.0
 46
0.0
 47
0.0
 48
0.0
 49
0.0
140
0.0
141
0.0
142
1.0
143
1.0
 70
   688
 72
     0
 73
     0
 74
     5
  7

 75
    16
 76
     0
 77
     2
 78
   300
147
1.0
148
0.0
149
0.0
100
AcDbLayout
  1
Layout1
 70
     1
 71
     1
 10
0.0
 20
0.0
 11
12.0
 21
9.0
 12
0.0
 22
0.0
 32
0.0
 14
1.00000000000000E+20
 24
1.00000000000000E+20
 34
1.00000000000000E+20
 15
-1.00000000000000E+20
 25
-1.00000000000000E+20
 35
-1.00000000000000E+20
146
0.0
 13
0.0
 23
0.0
 33
0.0
 16
1.0
 26
0.0
 36
0.0
 17
0.0
 27
1.0
 37
0.0
 76
     0
330
1B
  0
LAYOUT
  5
26
102
{ACAD_REACTORS
330
1A
102
}
330
1A
100
AcDbPlotSettings
  1

  2
none_device
  4

  6

 40
0.0
 41
0.0
 42
0.0
 43
0.0
 44
0.0
 45
0.0
 46
0.0
 47
0.0
 48
0.0
 49
0.0
140
0.0
141
0.0
142
1.0
143
1.0
 70
   688
 72
     0
 73
     0
 74
     5
  7

 75
    16
 76
     0
 77
     2
 78
   300
147
1.0
148
0.0
149
0.0
100
AcDbLayout
  1
Layout2
 70
     1
 71
     2
 10
0.0
 20
0.0
 11
0.0
 21
0.0
 12
0.0
 22
0.0
 32
0.0
 14
0.0
 24
0.0
 34
0.0
 15
0.0
 25
0.0
 35
0.0
146
0.0
 13
0.0
 23
0.0
 33
0.0
 16
1.0
 26
0.0
 36
0.0
 17
0.0
 27
1.0
 37
0.0
 76
     0
330
23
  0
LAYOUT
  5
22
102
{ACAD_REACTORS
330
1A
102
}
330
1A
100
AcDbPlotSettings
  1

  2
none_device
  4

  6

 40
0.0
 41
0.0
 42
0.0
 43
0.0
 44
0.0
 45
0.0
 46
0.0
 47
0.0
 48
0.0
 49
0.0
140
0.0
141
0.0
142
1.0
143
1.0
 70
  1712
 72
     0
 73
     0
 74
     0
  7

 75
     0
 76
     0
 77
     2
 78
   300
147
1.0
148
0.0
149
0.0
100
AcDbLayout
  1
Model
 70
     1
 71
     0
 10
0.0
 20
0.0
 11
12.0
 21
9.0
 12
0.0
 22
0.0
 32
0.0
 14
-225.5396966241022
 24
2.80685313077333
 34
0.0
 15
71.4603033758959
 25
212.8068531307735
 35
0.0
146
0.0
 13
0.0
 23
0.0
 33
0.0
 16
1.0
 26
0.0
 36
0.0
 17
0.0
 27
1.0
 37
0.0
 76
     0
330
1F
331
29
  0
MATERIAL
  5
3D
102
{ACAD_REACTORS
330
3B
102
}
102
{ACAD_XDICTIONARY
360
49F
102
}
330
3B
100
AcDbMaterial
  1
ByBlock
  0
MATERIAL
  5
3C
102
{ACAD_REACTORS
330
3B
102
}
102
{ACAD_XDICTIONARY
360
49D
102
}
330
3B
100
AcDbMaterial
  1
ByLayer
  0
MATERIAL
  5
3E
102
{ACAD_REACTORS
330
3B
102
}
102
{ACAD_XDICTIONARY
360
4A1
102
}
330
3B
100
AcDbMaterial
  1
Global
  0
MLINESTYLE
  5
18
102
{ACAD_REACTORS
330
17
102
}
330
17
100
AcDbMlineStyle
  2
Standard
 70
     0
  3

 62
   256
 51
90.0
 52
90.0
 71
     2
 49
0.5
 62
   256
  6
BYLAYER
 49
-0.5
 62
   256
  6
BYLAYER
  0
ACDBPLACEHOLDER
  5
F
102
{ACAD_REACTORS
330
E
102
}
330
E
  0
VISUALSTYLE
  5
2F
102
{ACAD_REACTORS
330
2A
102
}
102
{ACAD_XDICTIONARY
360
485
102
}
330
2A
100
AcDbVisualStyle
  2
2dWireframe
 70
     4
 71
     0
 72
     2
 73
     0
 90
        0
 40
-0.6
 41
-30.0
 62
     5
 63
     7
421
 16777215
 74
     1
 91
        4
 64
     7
 65
   257
 75
     1
175
     1
 42
1.0
 92
        0
 66
   257
 43
1.0
 76
     1
 77
     6
 78
     2
 67
     7
 79
     5
170
     0
171
     0
290
     0
174
     0
 93
        1
 44
0.0
173
     0
291
     0
 45
0.0
1001
ACAD
1000
AcDbSavedByObjectVersion
1070
     0
  0
VISUALSTYLE
  5
31
102
{ACAD_REACTORS
330
2A
102
}
102
{ACAD_XDICTIONARY
360
489
102
}
330
2A
100
AcDbVisualStyle
  2
3D Hidden
 70
     6
 71
     1
 72
     2
 73
     2
 90
        0
 40
-0.6
 41
-30.0
 62
     5
 63
     7
421
 16777215
 74
     2
 91
        2
 64
     7
 65
   257
 75
     2
175
     1
 42
40.0
 92
        0
 66
   257
 43
1.0
 76
     1
 77
     6
 78
     2
 67
     7
 79
     3
170
     0
171
     0
290
     0
174
     0
 93
        1
 44
0.0
173
     0
291
     0
 45
0.0
1001
ACAD
1000
AcDbSavedByObjectVersion
1070
     0
  0
VISUALSTYLE
  5
30
102
{ACAD_REACTORS
330
2A
102
}
102
{ACAD_XDICTIONARY
360
487
102
}
330
2A
100
AcDbVisualStyle
  2
3dWireframe
 70
     5
 71
     0
 72
     2
 73
     0
 90
        0
 40
-0.6
 41
-30.0
 62
     5
 63
     7
421
 16777215
 74
     1
 91
        4
 64
     7
 65
   257
 75
     1
175
     1
 42
1.0
 92
        0
 66
   257
 43
1.0
 76
     1
 77
     6
 78
     2
 67
     7
 79
     5
170
     0
171
     0
290
     0
174
     0
 93
        1
 44
0.0
173
     0
291
     0
 45
0.0
1001
ACAD
1000
AcDbSavedByObjectVersion
1070
     0
  0
VISUALSTYLE
  5
32
102
{ACAD_REACTORS
330
2A
102
}
102
{ACAD_XDICTIONARY
360
48B
102
}
330
2A
100
AcDbVisualStyle
  2
Basic
 70
     7
 71
     1
 72
     0
 73
     1
 90
        0
 40
-0.6
 41
-30.0
 62
     5
 63
     7
421
 16777215
 74
     0
 91
        4
 64
     7
 65
   257
 75
     1
175
     1
 42
1.0
 92
        8
 66
     7
 43
1.0
 76
     1
 77
     6
 78
     2
 67
     7
 79
     5
170
     0
171
     0
290
     0
174
     0
 93
        1
 44
0.0
173
     0
291
     1
 45
0.0
1001
ACAD
1000
AcDbSavedByObjectVersion
1070
     0
  0
VISUALSTYLE
  5
36
102
{ACAD_REACTORS
330
2A
102
}
102
{ACAD_XDICTIONARY
360
493
102
}
330
2A
100
AcDbVisualStyle
  2
Brighten
 70
    12
 71
     2
 72
     2
 73
     0
 90
        0
 40
-0.6
 41
-30.0
 62
     5
 63
     7
421
 16777215
 74
     1
 91
        4
 64
     7
 65
   257
 75
     1
175
     1
 42
1.0
 92
        8
 66
     7
 43
1.0
 76
     1
 77
     6
 78
     2
 67
     7
 79
     5
170
     0
171
     0
290
     0
174
     0
 93
        1
 44
50.0
173
     0
291
     1
 45
0.0
1001
ACAD
1000
AcDbSavedByObjectVersion
1070
     0
  0
VISUALSTYLE
  5
3A
102
{ACAD_REACTORS
330
2A
102
}
102
{ACAD_XDICTIONARY
360
49B
102
}
330
2A
100
AcDbVisualStyle
  2
ColorChange
 70
    16
 71
     2
 72
     2
 73
     3
 90
        0
 40
-0.6
 41
-30.0
 62
     5
 63
     8
421
  8421504
 74
     1
 91
        4
 64
     7
 65
   257
 75
     1
175
     1
 42
1.0
 92
        8
 66
     8
424
  8421504
 43
1.0
 76
     1
 77
     6
 78
     2
 67
     7
 79
     5
170
     0
171
     0
290
     0
174
     0
 93
        1
 44
0.0
173
     0
291
     1
 45
0.0
1001
ACAD
1000
AcDbSavedByObjectVersion
1070
     0
  0
VISUALSTYLE
  5
34
102
{ACAD_REACTORS
330
2A
102
}
102
{ACAD_XDICTIONARY
360
48F
102
}
330
2A
100
AcDbVisualStyle
  2
Conceptual
 70
     9
 71
     3
 72
     2
 73
     0
 90
        0
 40
-0.6
 41
-30.0
 62
     5
 63
     7
421
 16777215
 74
     2
 91
        2
 64
     7
 65
   257
 75
     1
175
     1
 42
40.0
 92
        8
 66
     7
 43
1.0
 76
     1
 77
     6
 78
     2
 67
     7
 79
     3
170
     0
171
     0
290
     0
174
     0
 93
        1
 44
0.0
173
     0
291
     0
 45
0.0
1001
ACAD
1000
AcDbSavedByObjectVersion
1070
     0
  0
VISUALSTYLE
  5
35
102
{ACAD_REACTORS
330
2A
102
}
102
{ACAD_XDICTIONARY
360
491
102
}
330
2A
100
AcDbVisualStyle
  2
Dim
 70
    11
 71
     2
 72
     2
 73
     0
 90
        0
 40
-0.6
 41
-30.0
 62
     5
 63
     7
421
 16777215
 74
     1
 91
        4
 64
     7
 65
   257
 75
     1
175
     1
 42
1.0
 92
        8
 66
     7
 43
1.0
 76
     1
 77
     6
 78
     2
 67
     7
 79
     5
170
     0
171
     0
290
     0
174
     0
 93
        1
 44
-50.0
173
     0
291
     1
 45
0.0
1001
ACAD
1000
AcDbSavedByObjectVersion
1070
     0
  0
VISUALSTYLE
  5
39
102
{ACAD_REACTORS
330
2A
102
}
102
{ACAD_XDICTIONARY
360
499
102
}
330
2A
100
AcDbVisualStyle
  2
Facepattern
 70
    15
 71
     2
 72
     2
 73
     0
 90
        0
 40
-0.6
 41
-30.0
 62
     5
 63
     7
421
 16777215
 74
     1
 91
        4
 64
     7
 65
   257
 75
     1
175
     1
 42
1.0
 92
        8
 66
     7
 43
1.0
 76
     1
 77
     6
 78
     2
 67
     7
 79
     5
170
     0
171
     0
290
     0
174
     0
 93
        1
 44
0.0
173
     0
291
     1
 45
0.0
1001
ACAD
1000
AcDbSavedByObjectVersion
1070
     0
  0
VISUALSTYLE
  5
2B
102
{ACAD_REACTORS
330
2A
102
}
102
{ACAD_XDICTIONARY
360
47D
102
}
330
2A
100
AcDbVisualStyle
  2
Flat
 70
     0
 71
     2
 72
     1
 73
     1
 90
        2
 40
-0.6
 41
30.0
 62
     5
 63
     7
421
 16777215
 74
     0
 91
        4
 64
     7
 65
   257
 75
     1
175
     1
 42
1.0
 92
        8
 66
     7
 43
1.0
 76
     1
 77
     6
 78
     2
 67
     7
 79
     5
170
     0
171
     0
290
     0
174
     0
 93
       13
 44
0.0
173
     0
291
     1
 45
0.0
1001
ACAD
1000
AcDbSavedByObjectVersion
1070
     0
  0
VISUALSTYLE
  5
2C
102
{ACAD_REACTORS
330
2A
102
}
102
{ACAD_XDICTIONARY
360
47F
102
}
330
2A
100
AcDbVisualStyle
  2
FlatWithEdges
 70
     1
 71
     2
 72
     1
 73
     1
 90
        2
 40
-0.6
 41
30.0
 62
     5
 63
     7
421
 16777215
 74
     1
 91
        4
 64
     7
 65
   257
 75
     1
175
     1
 42
1.0
 92
        0
 66
   257
 43
1.0
 76
     1
 77
     6
 78
     2
 67
     7
 79
     5
170
     0
171
     0
290
     0
174
     0
 93
       13
 44
0.0
173
     0
291
     1
 45
0.0
1001
ACAD
1000
AcDbSavedByObjectVersion
1070
     0
  0
VISUALSTYLE
  5
2D
102
{ACAD_REACTORS
330
2A
102
}
102
{ACAD_XDICTIONARY
360
481
102
}
330
2A
100
AcDbVisualStyle
  2
Gouraud
 70
     2
 71
     2
 72
     2
 73
     1
 90
        2
 40
-0.6
 41
30.0
 62
     5
 63
     7
421
 16777215
 74
     0
 91
        4
 64
     7
 65
   257
 75
     1
175
     1
 42
1.0
 92
        0
 66
     7
 43
1.0
 76
     1
 77
     6
 78
     2
 67
     7
 79
     5
170
     0
171
     0
290
     0
174
     0
 93
       13
 44
0.0
173
     0
291
     1
 45
0.0
1001
ACAD
1000
AcDbSavedByObjectVersion
1070
     0
  0
VISUALSTYLE
  5
2E
102
{ACAD_REACTORS
330
2A
102
}
102
{ACAD_XDICTIONARY
360
483
102
}
330
2A
100
AcDbVisualStyle
  2
GouraudWithEdges
 70
     3
 71
     2
 72
     2
 73
     1
 90
        2
 40
-0.6
 41
30.0
 62
     5
 63
     7
421
 16777215
 74
     1
 91
        4
 64
     7
 65
   257
 75
     1
175
     1
 42
1.0
 92
        0
 66
   257
 43
1.0
 76
     1
 77
     6
 78
     2
 67
     7
 79
     5
170
     0
171
     0
290
     0
174
     0
 93
       13
 44
0.0
173
     0
291
     1
 45
0.0
1001
ACAD
1000
AcDbSavedByObjectVersion
1070
     0
  0
VISUALSTYLE
  5
38
102
{ACAD_REACTORS
330
2A
102
}
102
{ACAD_XDICTIONARY
360
497
102
}
330
2A
100
AcDbVisualStyle
  2
Linepattern
 70
    14
 71
     2
 72
     2
 73
     0
 90
        0
 40
-0.6
 41
-30.0
 62
     5
 63
     7
421
 16777215
 74
     1
 91
        4
 64
     7
 65
   257
 75
     7
175
     7
 42
1.0
 92
        8
 66
     7
 43
1.0
 76
     1
 77
     6
 78
     2
 67
     7
 79
     5
170
     0
171
     0
290
     0
174
     0
 93
        1
 44
0.0
173
     0
291
     1
 45
0.0
1001
ACAD
1000
AcDbSavedByObjectVersion
1070
     0
  0
VISUALSTYLE
  5
33
102
{ACAD_REACTORS
330
2A
102
}
102
{ACAD_XDICTIONARY
360
48D
102
}
330
2A
100
AcDbVisualStyle
  2
Realistic
 70
     8
 71
     2
 72
     2
 73
     0
 90
        0
 40
-0.6
 41
-30.0
 62
     5
 63
     7
421
 16777215
 74
     1
 91
        0
 64
     7
 65
   257
 75
     1
175
     1
 42
1.0
 92
        8
 66
     8
424
  7895160
 43
1.0
 76
     1
 77
     6
 78
     2
 67
     7
 79
     5
170
     0
171
     0
290
     0
174
     0
 93
       13
 44
0.0
173
     0
291
     0
 45
0.0
1001
ACAD
1000
AcDbSavedByObjectVersion
1070
     0
  0
VISUALSTYLE
  5
37
102
{ACAD_REACTORS
330
2A
102
}
102
{ACAD_XDICTIONARY
360
495
102
}
330
2A
100
AcDbVisualStyle
  2
Thicken
 70
    13
 71
     2
 72
     2
 73
     0
 90
        0
 40
-0.6
 41
-30.0
 62
     5
 63
     7
421
 16777215
 74
     1
 91
        4
 64
     7
 65
   257
 75
     1
175
     1
 42
1.0
 92
       12
 66
     7
 43
1.0
 76
     1
 77
     6
 78
     2
 67
     7
 79
     5
170
     0
171
     0
290
     0
174
     0
 93
        1
 44
0.0
173
     0
291
     1
 45
0.0
1001
ACAD
1000
AcDbSavedByObjectVersion
1070
     0
  0
DICTIONARY
  5
49F
330
3D
100
AcDbDictionary
280
     1
281
     1
  3
ACAD_XREC_ROUNDTRIP
360
4A0
  0
DICTIONARY
  5
49D
330
3C
100
AcDbDictionary
280
     1
281
     1
  3
ACAD_XREC_ROUNDTRIP
360
49E
  0
DICTIONARY
  5
4A1
330
3E
100
AcDbDictionary
280
     1
281
     1
  3
ACAD_XREC_ROUNDTRIP
360
4A2
  0
DICTIONARY
  5
485
330
2F
100
AcDbDictionary
280
     1
281
     1
  3
ACAD_XREC_ROUNDTRIP
360
486
  0
DICTIONARY
  5
489
330
31
100
AcDbDictionary
280
     1
281
     1
  3
ACAD_XREC_ROUNDTRIP
360
48A
  0
DICTIONARY
  5
487
330
30
100
AcDbDictionary
280
     1
281
     1
  3
ACAD_XREC_ROUNDTRIP
360
488
  0
DICTIONARY
  5
48B
330
32
100
AcDbDictionary
280
     1
281
     1
  3
ACAD_XREC_ROUNDTRIP
360
48C
  0
DICTIONARY
  5
493
330
36
100
AcDbDictionary
280
     1
281
     1
  3
ACAD_XREC_ROUNDTRIP
360
494
  0
DICTIONARY
  5
49B
330
3A
100
AcDbDictionary
280
     1
281
     1
  3
ACAD_XREC_ROUNDTRIP
360
49C
  0
DICTIONARY
  5
48F
330
34
100
AcDbDictionary
280
     1
281
     1
  3
ACAD_XREC_ROUNDTRIP
360
490
  0
DICTIONARY
  5
491
330
35
100
AcDbDictionary
280
     1
281
     1
  3
ACAD_XREC_ROUNDTRIP
360
492
  0
DICTIONARY
  5
499
330
39
100
AcDbDictionary
280
     1
281
     1
  3
ACAD_XREC_ROUNDTRIP
360
49A
  0
DICTIONARY
  5
47D
330
2B
100
AcDbDictionary
280
     1
281
     1
  3
ACAD_XREC_ROUNDTRIP
360
47E
  0
DICTIONARY
  5
47F
330
2C
100
AcDbDictionary
280
     1
281
     1
  3
ACAD_XREC_ROUNDTRIP
360
480
  0
DICTIONARY
  5
481
330
2D
100
AcDbDictionary
280
     1
281
     1
  3
ACAD_XREC_ROUNDTRIP
360
482
  0
DICTIONARY
  5
483
330
2E
100
AcDbDictionary
280
     1
281
     1
  3
ACAD_XREC_ROUNDTRIP
360
484
  0
DICTIONARY
  5
497
330
38
100
AcDbDictionary
280
     1
281
     1
  3
ACAD_XREC_ROUNDTRIP
360
498
  0
DICTIONARY
  5
48D
330
33
100
AcDbDictionary
280
     1
281
     1
  3
ACAD_XREC_ROUNDTRIP
360
48E
  0
DICTIONARY
  5
495
330
37
100
AcDbDictionary
280
     1
281
     1
  3
ACAD_XREC_ROUNDTRIP
360
496
  0
XRECORD
  5
4A0
102
{ACAD_REACTORS
330
49F
102
}
330
49F
100
AcDbXrecord
280
     1
102
MATERIAL
148
0.0
149
0.0
149
0.0
 93
        0
 94
      127
282
     0
 72
     1
 77
     1
171
     1
175
     1
179
     1
273
     0
  0
XRECORD
  5
49E
102
{ACAD_REACTORS
330
49D
102
}
330
49D
100
AcDbXrecord
280
     1
102
MATERIAL
148
0.0
149
0.0
149
0.0
 93
        0
 94
      127
282
     0
 72
     1
 77
     1
171
     1
175
     1
179
     1
273
     0
  0
XRECORD
  5
4A2
102
{ACAD_REACTORS
330
4A1
102
}
330
4A1
100
AcDbXrecord
280
     1
102
MATERIAL
148
0.0
149
0.0
149
0.0
 93
        0
 94
      127
282
     0
 72
     1
 77
     1
171
     1
175
     1
179
     1
273
     0
  0
XRECORD
  5
486
102
{ACAD_REACTORS
330
485
102
}
330
485
100
AcDbXrecord
280
     1
102
RTVSPropertyOp0
 70
     1
102
RTVSPropertyOp1
 70
     1
102
RTVSPropertyOp2
 70
     1
102
RTVSPropertyOp3
 70
     1
102
RTVSPropertyOp4
 70
     1
102
RTVSPropertyOp5
 70
     1
102
RTVSPropertyOp6
 70
     1
102
RTVSPropertyOp7
 70
     1
102
RTVSPropertyOp8
 70
     1
102
RTVSPropertyOp9
 70
     1
102
RTVSPropertyOp10
 70
     1
102
RTVSPropertyOp11
 70
     1
102
RTVSPropertyOp12
 70
     1
102
RTVSPropertyOp13
 70
     1
102
RTVSPropertyOp14
 70
     1
102
RTVSPropertyOp15
 70
     1
102
RTVSPropertyOp16
 70
     1
102
RTVSPropertyOp17
 70
     1
102
RTVSPropertyOp18
 70
     1
102
RTVSPropertyOp19
 70
     1
102
RTVSPropertyOp20
 70
     1
102
RTVSPropertyOp21
 70
     1
102
RTVSPropertyOp22
 70
     1
102
RTVSPropertyOp23
 70
     1
102
RTVSPropertyOp24
 70
     1
102
RTVSPropertyOp25
 70
     1
102
RTVSPropertyOp26
 70
     1
102
RTVSPropertyOp27
 70
     1
102
RTVSPropertyOp28
 70
     1
102
RTVSPropertyOp29
 70
     1
102
RTVSPropertyOp30
 70
     1
102
RTVSPropertyOp31
 70
     1
102
RTVSPropertyOp32
 70
     1
  0
XRECORD
  5
48A
102
{ACAD_REACTORS
330
489
102
}
330
489
100
AcDbXrecord
280
     1
102
RTVSPropertyOp0
 70
     1
102
RTVSPropertyOp1
 70
     1
102
RTVSPropertyOp2
 70
     1
102
RTVSPropertyOp3
 70
     1
102
RTVSPropertyOp4
 70
     1
102
RTVSPropertyOp5
 70
     1
102
RTVSPropertyOp6
 70
     1
102
RTVSPropertyOp7
 70
     1
102
RTVSPropertyOp8
 70
     1
102
RTVSPropertyOp9
 70
     1
102
RTVSPropertyOp10
 70
     1
102
RTVSPropertyOp11
 70
     1
102
RTVSPropertyOp12
 70
     1
102
RTVSPropertyOp13
 70
     1
102
RTVSPropertyOp14
 70
     1
102
RTVSPropertyOp15
 70
     1
102
RTVSPropertyOp16
 70
     1
102
RTVSPropertyOp17
 70
     1
102
RTVSPropertyOp18
 70
     1
102
RTVSPropertyOp19
 70
     1
102
RTVSPropertyOp20
 70
     1
102
RTVSPropertyOp21
 70
     1
102
RTVSPropertyOp22
 70
     1
102
RTVSPropertyOp23
 70
     1
102
RTVSPropertyOp24
 70
     1
102
RTVSPropertyOp25
 70
     1
102
RTVSPropertyOp26
 70
     1
102
RTVSPropertyOp27
 70
     1
102
RTVSPropertyOp28
 70
     1
102
RTVSPropertyOp29
 70
     1
102
RTVSPropertyOp30
 70
     1
102
RTVSPropertyOp31
 70
     1
102
RTVSPropertyOp32
 70
     1
  0
XRECORD
  5
488
102
{ACAD_REACTORS
330
487
102
}
330
487
100
AcDbXrecord
280
     1
102
RTVSPropertyOp0
 70
     1
102
RTVSPropertyOp1
 70
     1
102
RTVSPropertyOp2
 70
     1
102
RTVSPropertyOp3
 70
     1
102
RTVSPropertyOp4
 70
     1
102
RTVSPropertyOp5
 70
     1
102
RTVSPropertyOp6
 70
     1
102
RTVSPropertyOp7
 70
     1
102
RTVSPropertyOp8
 70
     1
102
RTVSPropertyOp9
 70
     1
102
RTVSPropertyOp10
 70
     1
102
RTVSPropertyOp11
 70
     1
102
RTVSPropertyOp12
 70
     1
102
RTVSPropertyOp13
 70
     1
102
RTVSPropertyOp14
 70
     1
102
RTVSPropertyOp15
 70
     1
102
RTVSPropertyOp16
 70
     1
102
RTVSPropertyOp17
 70
     1
102
RTVSPropertyOp18
 70
     1
102
RTVSPropertyOp19
 70
     1
102
RTVSPropertyOp20
 70
     1
102
RTVSPropertyOp21
 70
     1
102
RTVSPropertyOp22
 70
     1
102
RTVSPropertyOp23
 70
     1
102
RTVSPropertyOp24
 70
     1
102
RTVSPropertyOp25
 70
     1
102
RTVSPropertyOp26
 70
     1
102
RTVSPropertyOp27
 70
     1
102
RTVSPropertyOp28
 70
     1
102
RTVSPropertyOp29
 70
     1
102
RTVSPropertyOp30
 70
     1
102
RTVSPropertyOp31
 70
     1
102
RTVSPropertyOp32
 70
     1
  0
XRECORD
  5
48C
102
{ACAD_REACTORS
330
48B
102
}
330
48B
100
AcDbXrecord
280
     1
102
RTVSPropertyOp0
 70
     1
102
RTVSPropertyOp1
 70
     1
102
RTVSPropertyOp2
 70
     1
102
RTVSPropertyOp3
 70
     1
102
RTVSPropertyOp4
 70
     1
102
RTVSPropertyOp5
 70
     1
102
RTVSPropertyOp6
 70
     1
102
RTVSPropertyOp7
 70
     1
102
RTVSPropertyOp8
 70
     1
102
RTVSPropertyOp9
 70
     1
102
RTVSPropertyOp10
 70
     1
102
RTVSPropertyOp11
 70
     1
102
RTVSPropertyOp12
 70
     1
102
RTVSPropertyOp13
 70
     1
102
RTVSPropertyOp14
 70
     1
102
RTVSPropertyOp15
 70
     1
102
RTVSPropertyOp16
 70
     1
102
RTVSPropertyOp17
 70
     1
102
RTVSPropertyOp18
 70
     1
102
RTVSPropertyOp19
 70
     1
102
RTVSPropertyOp20
 70
     1
102
RTVSPropertyOp21
 70
     1
102
RTVSPropertyOp22
 70
     1
102
RTVSPropertyOp23
 70
     1
102
RTVSPropertyOp24
 70
     1
102
RTVSPropertyOp25
 70
     1
102
RTVSPropertyOp26
 70
     1
102
RTVSPropertyOp27
 70
     1
102
RTVSPropertyOp28
 70
     1
102
RTVSPropertyOp29
 70
     1
102
RTVSPropertyOp30
 70
     1
102
RTVSPropertyOp31
 70
     1
102
RTVSPropertyOp32
 70
     1
  0
XRECORD
  5
494
102
{ACAD_REACTORS
330
493
102
}
330
493
100
AcDbXrecord
280
     1
102
RTVSPropertyOp0
 70
     1
102
RTVSPropertyOp1
 70
     1
102
RTVSPropertyOp2
 70
     1
102
RTVSPropertyOp3
 70
     1
102
RTVSPropertyOp4
 70
     1
102
RTVSPropertyOp5
 70
     1
102
RTVSPropertyOp6
 70
     1
102
RTVSPropertyOp7
 70
     1
102
RTVSPropertyOp8
 70
     1
102
RTVSPropertyOp9
 70
     1
102
RTVSPropertyOp10
 70
     1
102
RTVSPropertyOp11
 70
     1
102
RTVSPropertyOp12
 70
     1
102
RTVSPropertyOp13
 70
     1
102
RTVSPropertyOp14
 70
     1
102
RTVSPropertyOp15
 70
     1
102
RTVSPropertyOp16
 70
     1
102
RTVSPropertyOp17
 70
     1
102
RTVSPropertyOp18
 70
     1
102
RTVSPropertyOp19
 70
     1
102
RTVSPropertyOp20
 70
     1
102
RTVSPropertyOp21
 70
     1
102
RTVSPropertyOp22
 70
     1
102
RTVSPropertyOp23
 70
     1
102
RTVSPropertyOp24
 70
     1
102
RTVSPropertyOp25
 70
     1
102
RTVSPropertyOp26
 70
     1
102
RTVSPropertyOp27
 70
     1
102
RTVSPropertyOp28
 70
     1
102
RTVSPropertyOp29
 70
     1
102
RTVSPropertyOp30
 70
     1
102
RTVSPropertyOp31
 70
     1
102
RTVSPropertyOp32
 70
     1
  0
XRECORD
  5
49C
102
{ACAD_REACTORS
330
49B
102
}
330
49B
100
AcDbXrecord
280
     1
102
RTVSPropertyOp0
 70
     1
102
RTVSPropertyOp1
 70
     1
102
RTVSPropertyOp2
 70
     1
102
RTVSPropertyOp3
 70
     1
102
RTVSPropertyOp4
 70
     1
102
RTVSPropertyOp5
 70
     1
102
RTVSPropertyOp6
 70
     1
102
RTVSPropertyOp7
 70
     1
102
RTVSPropertyOp8
 70
     1
102
RTVSPropertyOp9
 70
     1
102
RTVSPropertyOp10
 70
     1
102
RTVSPropertyOp11
 70
     1
102
RTVSPropertyOp12
 70
     1
102
RTVSPropertyOp13
 70
     1
102
RTVSPropertyOp14
 70
     1
102
RTVSPropertyOp15
 70
     1
102
RTVSPropertyOp16
 70
     1
102
RTVSPropertyOp17
 70
     1
102
RTVSPropertyOp18
 70
     1
102
RTVSPropertyOp19
 70
     1
102
RTVSPropertyOp20
 70
     1
102
RTVSPropertyOp21
 70
     1
102
RTVSPropertyOp22
 70
     1
102
RTVSPropertyOp23
 70
     1
102
RTVSPropertyOp24
 70
     1
102
RTVSPropertyOp25
 70
     1
102
RTVSPropertyOp26
 70
     1
102
RTVSPropertyOp27
 70
     1
102
RTVSPropertyOp28
 70
     1
102
RTVSPropertyOp29
 70
     1
102
RTVSPropertyOp30
 70
     1
102
RTVSPropertyOp31
 70
     1
102
RTVSPropertyOp32
 70
     1
  0
XRECORD
  5
490
102
{ACAD_REACTORS
330
48F
102
}
330
48F
100
AcDbXrecord
280
     1
102
RTVSPropertyOp0
 70
     1
102
RTVSPropertyOp1
 70
     1
102
RTVSPropertyOp2
 70
     1
102
RTVSPropertyOp3
 70
     1
102
RTVSPropertyOp4
 70
     1
102
RTVSPropertyOp5
 70
     1
102
RTVSPropertyOp6
 70
     1
102
RTVSPropertyOp7
 70
     1
102
RTVSPropertyOp8
 70
     1
102
RTVSPropertyOp9
 70
     1
102
RTVSPropertyOp10
 70
     1
102
RTVSPropertyOp11
 70
     1
102
RTVSPropertyOp12
 70
     1
102
RTVSPropertyOp13
 70
     1
102
RTVSPropertyOp14
 70
     1
102
RTVSPropertyOp15
 70
     1
102
RTVSPropertyOp16
 70
     1
102
RTVSPropertyOp17
 70
     1
102
RTVSPropertyOp18
 70
     1
102
RTVSPropertyOp19
 70
     1
102
RTVSPropertyOp20
 70
     1
102
RTVSPropertyOp21
 70
     1
102
RTVSPropertyOp22
 70
     1
102
RTVSPropertyOp23
 70
     1
102
RTVSPropertyOp24
 70
     1
102
RTVSPropertyOp25
 70
     1
102
RTVSPropertyOp26
 70
     1
102
RTVSPropertyOp27
 70
     1
102
RTVSPropertyOp28
 70
     1
102
RTVSPropertyOp29
 70
     1
102
RTVSPropertyOp30
 70
     1
102
RTVSPropertyOp31
 70
     1
102
RTVSPropertyOp32
 70
     1
  0
XRECORD
  5
492
102
{ACAD_REACTORS
330
491
102
}
330
491
100
AcDbXrecord
280
     1
102
RTVSPropertyOp0
 70
     1
102
RTVSPropertyOp1
 70
     1
102
RTVSPropertyOp2
 70
     1
102
RTVSPropertyOp3
 70
     1
102
RTVSPropertyOp4
 70
     1
102
RTVSPropertyOp5
 70
     1
102
RTVSPropertyOp6
 70
     1
102
RTVSPropertyOp7
 70
     1
102
RTVSPropertyOp8
 70
     1
102
RTVSPropertyOp9
 70
     1
102
RTVSPropertyOp10
 70
     1
102
RTVSPropertyOp11
 70
     1
102
RTVSPropertyOp12
 70
     1
102
RTVSPropertyOp13
 70
     1
102
RTVSPropertyOp14
 70
     1
102
RTVSPropertyOp15
 70
     1
102
RTVSPropertyOp16
 70
     1
102
RTVSPropertyOp17
 70
     1
102
RTVSPropertyOp18
 70
     1
102
RTVSPropertyOp19
 70
     1
102
RTVSPropertyOp20
 70
     1
102
RTVSPropertyOp21
 70
     1
102
RTVSPropertyOp22
 70
     1
102
RTVSPropertyOp23
 70
     1
102
RTVSPropertyOp24
 70
     1
102
RTVSPropertyOp25
 70
     1
102
RTVSPropertyOp26
 70
     1
102
RTVSPropertyOp27
 70
     1
102
RTVSPropertyOp28
 70
     1
102
RTVSPropertyOp29
 70
     1
102
RTVSPropertyOp30
 70
     1
102
RTVSPropertyOp31
 70
     1
102
RTVSPropertyOp32
 70
     1
  0
XRECORD
  5
49A
102
{ACAD_REACTORS
330
499
102
}
330
499
100
AcDbXrecord
280
     1
102
RTVSPropertyOp0
 70
     1
102
RTVSPropertyOp1
 70
     1
102
RTVSPropertyOp2
 70
     1
102
RTVSPropertyOp3
 70
     1
102
RTVSPropertyOp4
 70
     1
102
RTVSPropertyOp5
 70
     1
102
RTVSPropertyOp6
 70
     1
102
RTVSPropertyOp7
 70
     1
102
RTVSPropertyOp8
 70
     1
102
RTVSPropertyOp9
 70
     1
102
RTVSPropertyOp10
 70
     1
102
RTVSPropertyOp11
 70
     1
102
RTVSPropertyOp12
 70
     1
102
RTVSPropertyOp13
 70
     1
102
RTVSPropertyOp14
 70
     1
102
RTVSPropertyOp15
 70
     1
102
RTVSPropertyOp16
 70
     1
102
RTVSPropertyOp17
 70
     1
102
RTVSPropertyOp18
 70
     1
102
RTVSPropertyOp19
 70
     1
102
RTVSPropertyOp20
 70
     1
102
RTVSPropertyOp21
 70
     1
102
RTVSPropertyOp22
 70
     1
102
RTVSPropertyOp23
 70
     1
102
RTVSPropertyOp24
 70
     1
102
RTVSPropertyOp25
 70
     1
102
RTVSPropertyOp26
 70
     1
102
RTVSPropertyOp27
 70
     1
102
RTVSPropertyOp28
 70
     1
102
RTVSPropertyOp29
 70
     1
102
RTVSPropertyOp30
 70
     1
102
RTVSPropertyOp31
 70
     1
102
RTVSPropertyOp32
 70
     1
  0
XRECORD
  5
47E
102
{ACAD_REACTORS
330
47D
102
}
330
47D
100
AcDbXrecord
280
     1
102
RTVSPropertyOp0
 70
     1
102
RTVSPropertyOp1
 70
     1
102
RTVSPropertyOp2
 70
     1
102
RTVSPropertyOp3
 70
     1
102
RTVSPropertyOp4
 70
     1
102
RTVSPropertyOp5
 70
     1
102
RTVSPropertyOp6
 70
     1
102
RTVSPropertyOp7
 70
     1
102
RTVSPropertyOp8
 70
     1
102
RTVSPropertyOp9
 70
     1
102
RTVSPropertyOp10
 70
     1
102
RTVSPropertyOp11
 70
     1
102
RTVSPropertyOp12
 70
     1
102
RTVSPropertyOp13
 70
     1
102
RTVSPropertyOp14
 70
     1
102
RTVSPropertyOp15
 70
     1
102
RTVSPropertyOp16
 70
     1
102
RTVSPropertyOp17
 70
     1
102
RTVSPropertyOp18
 70
     1
102
RTVSPropertyOp19
 70
     1
102
RTVSPropertyOp20
 70
     1
102
RTVSPropertyOp21
 70
     1
102
RTVSPropertyOp22
 70
     1
102
RTVSPropertyOp23
 70
     1
102
RTVSPropertyOp24
 70
     1
102
RTVSPropertyOp25
 70
     1
102
RTVSPropertyOp26
 70
     1
102
RTVSPropertyOp27
 70
     1
102
RTVSPropertyOp28
 70
     1
102
RTVSPropertyOp29
 70
     1
102
RTVSPropertyOp30
 70
     1
102
RTVSPropertyOp31
 70
     1
102
RTVSPropertyOp32
 70
     1
  0
XRECORD
  5
480
102
{ACAD_REACTORS
330
47F
102
}
330
47F
100
AcDbXrecord
280
     1
102
RTVSPropertyOp0
 70
     1
102
RTVSPropertyOp1
 70
     1
102
RTVSPropertyOp2
 70
     1
102
RTVSPropertyOp3
 70
     1
102
RTVSPropertyOp4
 70
     1
102
RTVSPropertyOp5
 70
     1
102
RTVSPropertyOp6
 70
     1
102
RTVSPropertyOp7
 70
     1
102
RTVSPropertyOp8
 70
     1
102
RTVSPropertyOp9
 70
     1
102
RTVSPropertyOp10
 70
     1
102
RTVSPropertyOp11
 70
     1
102
RTVSPropertyOp12
 70
     1
102
RTVSPropertyOp13
 70
     1
102
RTVSPropertyOp14
 70
     1
102
RTVSPropertyOp15
 70
     1
102
RTVSPropertyOp16
 70
     1
102
RTVSPropertyOp17
 70
     1
102
RTVSPropertyOp18
 70
     1
102
RTVSPropertyOp19
 70
     1
102
RTVSPropertyOp20
 70
     1
102
RTVSPropertyOp21
 70
     1
102
RTVSPropertyOp22
 70
     1
102
RTVSPropertyOp23
 70
     1
102
RTVSPropertyOp24
 70
     1
102
RTVSPropertyOp25
 70
     1
102
RTVSPropertyOp26
 70
     1
102
RTVSPropertyOp27
 70
     1
102
RTVSPropertyOp28
 70
     1
102
RTVSPropertyOp29
 70
     1
102
RTVSPropertyOp30
 70
     1
102
RTVSPropertyOp31
 70
     1
102
RTVSPropertyOp32
 70
     1
  0
XRECORD
  5
482
102
{ACAD_REACTORS
330
481
102
}
330
481
100
AcDbXrecord
280
     1
102
RTVSPropertyOp0
 70
     1
102
RTVSPropertyOp1
 70
     1
102
RTVSPropertyOp2
 70
     1
102
RTVSPropertyOp3
 70
     1
102
RTVSPropertyOp4
 70
     1
102
RTVSPropertyOp5
 70
     1
102
RTVSPropertyOp6
 70
     1
102
RTVSPropertyOp7
 70
     1
102
RTVSPropertyOp8
 70
     1
102
RTVSPropertyOp9
 70
     1
102
RTVSPropertyOp10
 70
     1
102
RTVSPropertyOp11
 70
     1
102
RTVSPropertyOp12
 70
     1
102
RTVSPropertyOp13
 70
     1
102
RTVSPropertyOp14
 70
     1
102
RTVSPropertyOp15
 70
     1
102
RTVSPropertyOp16
 70
     1
102
RTVSPropertyOp17
 70
     1
102
RTVSPropertyOp18
 70
     1
102
RTVSPropertyOp19
 70
     1
102
RTVSPropertyOp20
 70
     1
102
RTVSPropertyOp21
 70
     1
102
RTVSPropertyOp22
 70
     1
102
RTVSPropertyOp23
 70
     1
102
RTVSPropertyOp24
 70
     1
102
RTVSPropertyOp25
 70
     1
102
RTVSPropertyOp26
 70
     1
102
RTVSPropertyOp27
 70
     1
102
RTVSPropertyOp28
 70
     1
102
RTVSPropertyOp29
 70
     1
102
RTVSPropertyOp30
 70
     1
102
RTVSPropertyOp31
 70
     1
102
RTVSPropertyOp32
 70
     1
  0
XRECORD
  5
484
102
{ACAD_REACTORS
330
483
102
}
330
483
100
AcDbXrecord
280
     1
102
RTVSPropertyOp0
 70
     1
102
RTVSPropertyOp1
 70
     1
102
RTVSPropertyOp2
 70
     1
102
RTVSPropertyOp3
 70
     1
102
RTVSPropertyOp4
 70
     1
102
RTVSPropertyOp5
 70
     1
102
RTVSPropertyOp6
 70
     1
102
RTVSPropertyOp7
 70
     1
102
RTVSPropertyOp8
 70
     1
102
RTVSPropertyOp9
 70
     1
102
RTVSPropertyOp10
 70
     1
102
RTVSPropertyOp11
 70
     1
102
RTVSPropertyOp12
 70
     1
102
RTVSPropertyOp13
 70
     1
102
RTVSPropertyOp14
 70
     1
102
RTVSPropertyOp15
 70
     1
102
RTVSPropertyOp16
 70
     1
102
RTVSPropertyOp17
 70
     1
102
RTVSPropertyOp18
 70
     1
102
RTVSPropertyOp19
 70
     1
102
RTVSPropertyOp20
 70
     1
102
RTVSPropertyOp21
 70
     1
102
RTVSPropertyOp22
 70
     1
102
RTVSPropertyOp23
 70
     1
102
RTVSPropertyOp24
 70
     1
102
RTVSPropertyOp25
 70
     1
102
RTVSPropertyOp26
 70
     1
102
RTVSPropertyOp27
 70
     1
102
RTVSPropertyOp28
 70
     1
102
RTVSPropertyOp29
 70
     1
102
RTVSPropertyOp30
 70
     1
102
RTVSPropertyOp31
 70
     1
102
RTVSPropertyOp32
 70
     1
  0
XRECORD
  5
498
102
{ACAD_REACTORS
330
497
102
}
330
497
100
AcDbXrecord
280
     1
102
RTVSPropertyOp0
 70
     1
102
RTVSPropertyOp1
 70
     1
102
RTVSPropertyOp2
 70
     1
102
RTVSPropertyOp3
 70
     1
102
RTVSPropertyOp4
 70
     1
102
RTVSPropertyOp5
 70
     1
102
RTVSPropertyOp6
 70
     1
102
RTVSPropertyOp7
 70
     1
102
RTVSPropertyOp8
 70
     1
102
RTVSPropertyOp9
 70
     1
102
RTVSPropertyOp10
 70
     1
102
RTVSPropertyOp11
 70
     1
102
RTVSPropertyOp12
 70
     1
102
RTVSPropertyOp13
 70
     1
102
RTVSPropertyOp14
 70
     1
102
RTVSPropertyOp15
 70
     1
102
RTVSPropertyOp16
 70
     1
102
RTVSPropertyOp17
 70
     1
102
RTVSPropertyOp18
 70
     1
102
RTVSPropertyOp19
 70
     1
102
RTVSPropertyOp20
 70
     1
102
RTVSPropertyOp21
 70
     1
102
RTVSPropertyOp22
 70
     1
102
RTVSPropertyOp23
 70
     1
102
RTVSPropertyOp24
 70
     1
102
RTVSPropertyOp25
 70
     1
102
RTVSPropertyOp26
 70
     1
102
RTVSPropertyOp27
 70
     1
102
RTVSPropertyOp28
 70
     1
102
RTVSPropertyOp29
 70
     1
102
RTVSPropertyOp30
 70
     1
102
RTVSPropertyOp31
 70
     1
102
RTVSPropertyOp32
 70
     1
  0
XRECORD
  5
48E
102
{ACAD_REACTORS
330
48D
102
}
330
48D
100
AcDbXrecord
280
     1
102
RTVSPropertyOp0
 70
     1
102
RTVSPropertyOp1
 70
     1
102
RTVSPropertyOp2
 70
     1
102
RTVSPropertyOp3
 70
     1
102
RTVSPropertyOp4
 70
     1
102
RTVSPropertyOp5
 70
     1
102
RTVSPropertyOp6
 70
     1
102
RTVSPropertyOp7
 70
     1
102
RTVSPropertyOp8
 70
     1
102
RTVSPropertyOp9
 70
     1
102
RTVSPropertyOp10
 70
     1
102
RTVSPropertyOp11
 70
     1
102
RTVSPropertyOp12
 70
     1
102
RTVSPropertyOp13
 70
     1
102
RTVSPropertyOp14
 70
     1
102
RTVSPropertyOp15
 70
     1
102
RTVSPropertyOp16
 70
     1
102
RTVSPropertyOp17
 70
     1
102
RTVSPropertyOp18
 70
     1
102
RTVSPropertyOp19
 70
     1
102
RTVSPropertyOp20
 70
     1
102
RTVSPropertyOp21
 70
     1
102
RTVSPropertyOp22
 70
     1
102
RTVSPropertyOp23
 70
     1
102
RTVSPropertyOp24
 70
     1
102
RTVSPropertyOp25
 70
     1
102
RTVSPropertyOp26
 70
     1
102
RTVSPropertyOp27
 70
     1
102
RTVSPropertyOp28
 70
     1
102
RTVSPropertyOp29
 70
     1
102
RTVSPropertyOp30
 70
     1
102
RTVSPropertyOp31
 70
     1
102
RTVSPropertyOp32
 70
     1
  0
XRECORD
  5
496
102
{ACAD_REACTORS
330
495
102
}
330
495
100
AcDbXrecord
280
     1
102
RTVSPropertyOp0
 70
     1
102
RTVSPropertyOp1
 70
     1
102
RTVSPropertyOp2
 70
     1
102
RTVSPropertyOp3
 70
     1
102
RTVSPropertyOp4
 70
     1
102
RTVSPropertyOp5
 70
     1
102
RTVSPropertyOp6
 70
     1
102
RTVSPropertyOp7
 70
     1
102
RTVSPropertyOp8
 70
     1
102
RTVSPropertyOp9
 70
     1
102
RTVSPropertyOp10
 70
     1
102
RTVSPropertyOp11
 70
     1
102
RTVSPropertyOp12
 70
     1
102
RTVSPropertyOp13
 70
     1
102
RTVSPropertyOp14
 70
     1
102
RTVSPropertyOp15
 70
     1
102
RTVSPropertyOp16
 70
     1
102
RTVSPropertyOp17
 70
     1
102
RTVSPropertyOp18
 70
     1
102
RTVSPropertyOp19
 70
     1
102
RTVSPropertyOp20
 70
     1
102
RTVSPropertyOp21
 70
     1
102
RTVSPropertyOp22
 70
     1
102
RTVSPropertyOp23
 70
     1
102
RTVSPropertyOp24
 70
     1
102
RTVSPropertyOp25
 70
     1
102
RTVSPropertyOp26
 70
     1
102
RTVSPropertyOp27
 70
     1
102
RTVSPropertyOp28
 70
     1
102
RTVSPropertyOp29
 70
     1
102
RTVSPropertyOp30
 70
     1
102
RTVSPropertyOp31
 70
     1
102
RTVSPropertyOp32
 70
     1
  0
ENDSEC
  0
EOF
